  0
SECTION
  2
HEADER
  9
$ACADVER
  1
AC1015
  9
$ACADMAINTVER
 70
     6
  9
$DWGCODEPAGE
  3
ANSI_949
  9
$INSBASE
 10
0.0
 20
0.0
 30
0.0
  9
$EXTMIN
 10
-107.7334066057831
 20
-49.97180738881175
 30
0.0
  9
$EXTMAX
 10
126.1836592734545
 20
55.93167432272148
 30
0.0
  9
$LIMMIN
 10
0.0
 20
0.0
  9
$LIMMAX
 10
420.0
 20
297.0
  9
$ORTHOMODE
 70
     0
  9
$REGENMODE
 70
     1
  9
$FILLMODE
 70
     1
  9
$QTEXTMODE
 70
     0
  9
$MIRRTEXT
 70
     1
  9
$LTSCALE
 40
1.0
  9
$ATTMODE
 70
     1
  9
$TEXTSIZE
 40
3.5
  9
$TRACEWID
 40
1.0
  9
$TEXTSTYLE
  7
Standard
  9
$CLAYER
  8
0
  9
$CELTYPE
  6
ByLayer
  9
$CECOLOR
 62
   256
  9
$CELTSCALE
 40
1.0
  9
$DISPSILH
 70
     0
  9
$DIMSCALE
 40
1.0
  9
$DIMASZ
 40
3.302
  9
$DIMEXO
 40
1.0
  9
$DIMDLI
 40
3.75
  9
$DIMRND
 40
0.0
  9
$DIMDLE
 40
0.0
  9
$DIMEXE
 40
1.0
  9
$DIMTP
 40
0.0
  9
$DIMTM
 40
0.0
  9
$DIMTXT
 40
3.5
  9
$DIMCEN
 40
2.5
  9
$DIMTSZ
 40
0.0
  9
$DIMTOL
 70
     0
  9
$DIMLIM
 70
     0
  9
$DIMTIH
 70
     1
  9
$DIMTOH
 70
     1
  9
$DIMSE1
 70
     0
  9
$DIMSE2
 70
     0
  9
$DIMTAD
 70
     1
  9
$DIMZIN
 70
     0
  9
$DIMBLK
  1

  9
$DIMASO
 70
     1
  9
$DIMSHO
 70
     1
  9
$DIMPOST
  1

  9
$DIMAPOST
  1

  9
$DIMALT
 70
     0
  9
$DIMALTD
 70
     3
  9
$DIMALTF
 40
0.0393700787401575
  9
$DIMLFAC
 40
1.0
  9
$DIMTOFL
 70
     1
  9
$DIMTVP
 40
0.0
  9
$DIMTIX
 70
     0
  9
$DIMSOXD
 70
     0
  9
$DIMSAH
 70
     0
  9
$DIMBLK1
  1

  9
$DIMBLK2
  1

  9
$DIMSTYLE
  2
ISO-25
  9
$DIMCLRD
 70
     0
  9
$DIMCLRE
 70
     0
  9
$DIMCLRT
 70
     0
  9
$DIMTFAC
 40
1.0
  9
$DIMGAP
 40
1.524
  9
$DIMJUST
 70
     0
  9
$DIMSD1
 70
     0
  9
$DIMSD2
 70
     0
  9
$DIMTOLJ
 70
     0
  9
$DIMTZIN
 70
     0
  9
$DIMALTZ
 70
     0
  9
$DIMALTTZ
 70
     0
  9
$DIMUPT
 70
     0
  9
$DIMDEC
 70
     2
  9
$DIMTDEC
 70
     2
  9
$DIMALTU
 70
     2
  9
$DIMALTTD
 70
     3
  9
$DIMTXSTY
  7
Standard
  9
$DIMAUNIT
 70
     0
  9
$DIMADEC
 70
     2
  9
$DIMALTRND
 40
0.0
  9
$DIMAZIN
 70
     0
  9
$DIMDSEP
 70
    44
  9
$DIMATFIT
 70
     3
  9
$DIMFRAC
 70
     0
  9
$DIMLDRBLK
  1

  9
$DIMLUNIT
 70
     2
  9
$DIMLWD
 70
    -2
  9
$DIMLWE
 70
    -2
  9
$DIMTMOVE
 70
     0
  9
$LUNITS
 70
     2
  9
$LUPREC
 70
     2
  9
$SKETCHINC
 40
1.0
  9
$FILLETRAD
 40
10.0
  9
$AUNITS
 70
     0
  9
$AUPREC
 70
     2
  9
$MENU
  1
.
  9
$ELEVATION
 40
0.0
  9
$PELEVATION
 40
0.0
  9
$THICKNESS
 40
0.0
  9
$LIMCHECK
 70
     0
  9
$CHAMFERA
 40
0.0
  9
$CHAMFERB
 40
0.0
  9
$CHAMFERC
 40
0.0
  9
$CHAMFERD
 40
0.0
  9
$SKPOLY
 70
     0
  9
$TDCREATE
 40
2458298.893983114
  9
$TDUCREATE
 40
2458298.518983114
  9
$TDUPDATE
 40
2458303.380387963
  9
$TDUUPDATE
 40
2458303.005387963
  9
$TDINDWG
 40
0.0005188542
  9
$TDUSRTIMER
 40
2458303.004869236
  9
$USRTIMER
 70
     1
  9
$ANGBASE
 50
0.0
  9
$ANGDIR
 70
     0
  9
$PDMODE
 70
     0
  9
$PDSIZE
 40
-1.0
  9
$PLINEWID
 40
0.0
  9
$SPLFRAME
 70
     0
  9
$SPLINETYPE
 70
     6
  9
$SPLINESEGS
 70
     8
  9
$HANDSEED
  5
15B
  9
$SURFTAB1
 70
     6
  9
$SURFTAB2
 70
     6
  9
$SURFTYPE
 70
     6
  9
$SURFU
 70
     6
  9
$SURFV
 70
     6
  9
$UCSBASE
  2

  9
$UCSNAME
  2

  9
$UCSORG
 10
0.0
 20
0.0
 30
0.0
  9
$UCSXDIR
 10
1.0
 20
0.0
 30
0.0
  9
$UCSYDIR
 10
0.0
 20
1.0
 30
0.0
  9
$UCSORTHOREF
  2

  9
$UCSORTHOVIEW
 70
     0
  9
$UCSORGTOP
 10
0.0
 20
0.0
 30
0.0
  9
$UCSORGBOTTOM
 10
0.0
 20
0.0
 30
0.0
  9
$UCSORGLEFT
 10
0.0
 20
0.0
 30
0.0
  9
$UCSORGRIGHT
 10
0.0
 20
0.0
 30
0.0
  9
$UCSORGFRONT
 10
0.0
 20
0.0
 30
0.0
  9
$UCSORGBACK
 10
0.0
 20
0.0
 30
0.0
  9
$PUCSBASE
  2

  9
$PUCSNAME
  2

  9
$PUCSORG
 10
0.0
 20
0.0
 30
0.0
  9
$PUCSXDIR
 10
1.0
 20
0.0
 30
0.0
  9
$PUCSYDIR
 10
0.0
 20
1.0
 30
0.0
  9
$PUCSORTHOREF
  2

  9
$PUCSORTHOVIEW
 70
     0
  9
$PUCSORGTOP
 10
0.0
 20
0.0
 30
0.0
  9
$PUCSORGBOTTOM
 10
0.0
 20
0.0
 30
0.0
  9
$PUCSORGLEFT
 10
0.0
 20
0.0
 30
0.0
  9
$PUCSORGRIGHT
 10
0.0
 20
0.0
 30
0.0
  9
$PUCSORGFRONT
 10
0.0
 20
0.0
 30
0.0
  9
$PUCSORGBACK
 10
0.0
 20
0.0
 30
0.0
  9
$USERI1
 70
     0
  9
$USERI2
 70
     0
  9
$USERI3
 70
     0
  9
$USERI4
 70
     0
  9
$USERI5
 70
     0
  9
$USERR1
 40
0.0
  9
$USERR2
 40
0.0
  9
$USERR3
 40
0.0
  9
$USERR4
 40
0.0
  9
$USERR5
 40
0.0
  9
$WORLDVIEW
 70
     1
  9
$SHADEDGE
 70
     3
  9
$SHADEDIF
 70
    70
  9
$TILEMODE
 70
     1
  9
$MAXACTVP
 70
    64
  9
$PINSBASE
 10
0.0
 20
0.0
 30
0.0
  9
$PLIMCHECK
 70
     0
  9
$PEXTMIN
 10
1.000000000000000E+20
 20
1.000000000000000E+20
 30
1.000000000000000E+20
  9
$PEXTMAX
 10
-1.000000000000000E+20
 20
-1.000000000000000E+20
 30
-1.000000000000000E+20
  9
$PLIMMIN
 10
0.0
 20
0.0
  9
$PLIMMAX
 10
0.0
 20
0.0
  9
$UNITMODE
 70
     0
  9
$VISRETAIN
 70
     1
  9
$PLINEGEN
 70
     0
  9
$PSLTSCALE
 70
     1
  9
$TREEDEPTH
 70
  3020
  9
$CMLSTYLE
  2
Standard
  9
$CMLJUST
 70
     0
  9
$CMLSCALE
 40
20.0
  9
$PROXYGRAPHICS
 70
     1
  9
$MEASUREMENT
 70
     1
  9
$CELWEIGHT
370
    -1
  9
$ENDCAPS
280
     0
  9
$JOINSTYLE
280
     0
  9
$LWDISPLAY
290
     1
  9
$INSUNITS
 70
     4
  9
$HYPERLINKBASE
  1

  9
$STYLESHEET
  1

  9
$XEDIT
290
     1
  9
$CEPSNTYPE
380
     0
  9
$PSTYLEMODE
290
     1
  9
$FINGERPRINTGUID
  2
{E7C2AB75-603F-41C4-A8C2-A6604433A7E1}
  9
$VERSIONGUID
  2
{FAEB1C32-E019-11D5-929B-00C0DF256EC4}
  9
$EXTNAMES
290
     1
  9
$PSVPSCALE
 40
0.0
  9
$OLESTARTUP
290
     0
  0
ENDSEC
  0
SECTION
  2
CLASSES
  0
CLASS
  1
ACDBDICTIONARYWDFLT
  2
AcDbDictionaryWithDefault
  3
ObjectDBX Classes
 90
        0
280
     0
281
     0
  0
CLASS
  1
VISUALSTYLE
  2
AcDbVisualStyle
  3
ObjectDBX Classes
 90
     4095
280
     0
281
     0
  0
CLASS
  1
MATERIAL
  2
AcDbMaterial
  3
ObjectDBX Classes
 90
     1153
280
     0
281
     0
  0
CLASS
  1
SCALE
  2
AcDbScale
  3
ObjectDBX Classes
 90
     1153
280
     0
281
     0
  0
CLASS
  1
SUN
  2
AcDbSun
  3
SCENEOE
 90
     1153
280
     0
281
     0
  0
CLASS
  1
ACDBPLACEHOLDER
  2
AcDbPlaceHolder
  3
ObjectDBX Classes
 90
        0
280
     0
281
     0
  0
CLASS
  1
LAYOUT
  2
AcDbLayout
  3
ObjectDBX Classes
 90
        0
280
     0
281
     0
  0
CLASS
  1
TABLESTYLE
  2
AcDbTableStyle
  3
ObjectDBX Classes
 90
     4095
280
     0
281
     0
  0
CLASS
  1
MLEADERSTYLE
  2
AcDbMLeaderStyle
  3
ACDB_MLEADERSTYLE_CLASS
 90
     4095
280
     0
281
     0
  0
CLASS
  1
RASTERVARIABLES
  2
AcDbRasterVariables
  3
ISM
 90
        0
280
     0
281
     0
  0
ENDSEC
  0
SECTION
  2
TABLES
  0
TABLE
  2
VPORT
  5
8
330
0
100
AcDbSymbolTable
 70
     1
  0
VPORT
  5
29
330
8
100
AcDbSymbolTableRecord
100
AcDbViewportTableRecord
  2
*Active
 70
     0
 10
0.0
 20
0.0
 11
1.0
 21
1.0
 12
7.005545750219468
 22
14.79425944736071
 13
0.0
 23
0.0
 14
10.0
 24
10.0
 15
10.0
 25
10.0
 16
0.0
 26
0.0
 36
1.0
 17
0.0
 27
0.0
 37
0.0
 40
345.7597178261129
 41
1.292917166866747
 42
50.0
 43
0.0
 44
0.0
 50
0.0
 51
0.0
 71
    16
 72
  2000
 73
     1
 74
     3
 75
     0
 76
     0
 77
     0
 78
     0
281
     0
 65
     1
110
0.0
120
0.0
130
0.0
111
1.0
121
0.0
131
0.0
112
0.0
122
1.0
132
0.0
 79
     0
146
0.0
  0
ENDTAB
  0
TABLE
  2
LTYPE
  5
5
330
0
100
AcDbSymbolTable
 70
     6
  0
LTYPE
  5
14
330
5
100
AcDbSymbolTableRecord
100
AcDbLinetypeTableRecord
  2
ByBlock
 70
     0
  3

 72
    65
 73
     0
 40
0.0
  0
LTYPE
  5
15
330
5
100
AcDbSymbolTableRecord
100
AcDbLinetypeTableRecord
  2
ByLayer
 70
     0
  3

 72
    65
 73
     0
 40
0.0
  0
LTYPE
  5
16
330
5
100
AcDbSymbolTableRecord
100
AcDbLinetypeTableRecord
  2
Continuous
 70
     0
  3
Solid line
 72
    65
 73
     0
 40
0.0
  0
LTYPE
  5
6A
330
5
100
AcDbSymbolTableRecord
100
AcDbLinetypeTableRecord
  2
HIDDEN
 70
     0
  3
Hidden __ __ __ __ __ __ __ __ __ __ __ __ __ __
 72
    65
 73
     2
 40
1.905
 49
1.27
 74
     0
 49
-0.635
 74
     0
  0
LTYPE
  5
6B
330
5
100
AcDbSymbolTableRecord
100
AcDbLinetypeTableRecord
  2
PHANTOM
 70
     0
  3
Phantom ______  __  __  ______  __  __  ______
 72
    65
 73
     6
 40
12.7
 49
6.35
 74
     0
 49
-1.27
 74
     0
 49
1.27
 74
     0
 49
-1.27
 74
     0
 49
1.27
 74
     0
 49
-1.27
 74
     0
  0
LTYPE
  5
6C
330
5
100
AcDbSymbolTableRecord
100
AcDbLinetypeTableRecord
  2
CENTER
 70
     0
  3
Center ____ _ ____ _ ____ _ ____ _ ____ _ ____
 72
    65
 73
     4
 40
10.16
 49
6.35
 74
     0
 49
-1.27
 74
     0
 49
1.27
 74
     0
 49
-1.27
 74
     0
  0
LTYPE
  5
6D
330
5
100
AcDbSymbolTableRecord
100
AcDbLinetypeTableRecord
  2
CENTERX2
 70
     0
  3
Center (2x) ________  __  ________  __  _____
 72
    65
 73
     4
 40
20.32
 49
12.7
 74
     0
 49
-2.54
 74
     0
 49
2.54
 74
     0
 49
-2.54
 74
     0
  0
LTYPE
  5
6E
330
5
100
AcDbSymbolTableRecord
100
AcDbLinetypeTableRecord
  2
DOT2
 70
     0
  3
Dot (.5x) ........................................
 72
    65
 73
     2
 40
0.635
 49
0.0
 74
     0
 49
-0.635
 74
     0
  0
ENDTAB
  0
TABLE
  2
LAYER
  5
2
330
0
100
AcDbSymbolTable
 70
    18
  0
LAYER
  5
10
330
2
100
AcDbSymbolTableRecord
100
AcDbLayerTableRecord
  2
0
 70
     0
 62
     7
  6
Continuous
370
    -3
390
F
  0
LAYER
  5
6F
330
2
100
AcDbSymbolTableRecord
100
AcDbLayerTableRecord
  2
FORMAT
 70
     0
 62
     2
  6
Continuous
370
    -3
390
F
  0
LAYER
  5
70
330
2
100
AcDbSymbolTableRecord
100
AcDbLayerTableRecord
  2
외형선
 70
     0
 62
     4
  6
Continuous
370
    30
390
F
  0
LAYER
  5
71
330
2
100
AcDbSymbolTableRecord
100
AcDbLayerTableRecord
  2
숨은선
 70
     0
 62
     2
  6
HIDDEN
370
    15
390
F
  0
LAYER
  5
72
330
2
100
AcDbSymbolTableRecord
100
AcDbLayerTableRecord
  2
중심선
 70
     0
 62
     1
  6
CENTERX2
370
    -3
390
F
  0
LAYER
  5
73
330
2
100
AcDbSymbolTableRecord
100
AcDbLayerTableRecord
  2
파단선
 70
     0
 62
     4
  6
Continuous
370
    -3
390
F
  0
LAYER
  5
74
330
2
100
AcDbSymbolTableRecord
100
AcDbLayerTableRecord
  2
해칭선
 70
     0
 62
   100
  6
Continuous
370
    -3
390
F
  0
LAYER
  5
75
330
2
100
AcDbSymbolTableRecord
100
AcDbLayerTableRecord
  2
가는실선
 70
     0
 62
     4
  6
Continuous
370
    -3
390
F
  0
LAYER
  5
76
330
2
100
AcDbSymbolTableRecord
100
AcDbLayerTableRecord
  2
치수_보조선
 70
     0
 62
     4
  6
Continuous
370
    -3
390
F
  0
LAYER
  5
77
330
2
100
AcDbSymbolTableRecord
100
AcDbLayerTableRecord
  2
치수문자_일반주서
 70
     0
 62
     7
  6
Continuous
370
    15
390
F
  0
LAYER
  5
78
330
2
100
AcDbSymbolTableRecord
100
AcDbLayerTableRecord
  2
개별주서
 70
     0
 62
   100
  6
Continuous
370
    30
390
F
  0
LAYER
  5
79
330
2
100
AcDbSymbolTableRecord
100
AcDbLayerTableRecord
  2
중간선
 70
     0
 62
     2
  6
Continuous
370
    15
390
F
  0
LAYER
  5
7A
330
2
100
AcDbSymbolTableRecord
100
AcDbLayerTableRecord
  2
윤곽선
 70
     0
 62
     3
  6
Continuous
370
    40
390
F
  0
LAYER
  5
7B
330
2
100
AcDbSymbolTableRecord
100
AcDbLayerTableRecord
  2
중심마크
 70
     0
 62
   100
  6
Continuous
370
    30
390
F
  0
LAYER
  5
7C
330
2
100
AcDbSymbolTableRecord
100
AcDbLayerTableRecord
  2
가상선
 70
     0
 62
     4
  6
PHANTOM
370
    -3
390
F
  0
LAYER
  5
7D
330
2
100
AcDbSymbolTableRecord
100
AcDbLayerTableRecord
  2
특수지정선
 70
     0
 62
     5
  6
CENTERX2
370
    60
390
F
  0
LAYER
  5
7E
330
2
100
AcDbSymbolTableRecord
100
AcDbLayerTableRecord
  2
참조1
 70
     0
 62
    -4
  6
Continuous
370
    -3
390
F
  0
LAYER
  5
157
330
2
100
AcDbSymbolTableRecord
100
AcDbLayerTableRecord
  2
Defpoints
 70
     0
 62
     7
  6
Continuous
290
     0
370
    -3
390
F
  0
ENDTAB
  0
TABLE
  2
STYLE
  5
3
330
0
100
AcDbSymbolTable
 70
     2
  0
STYLE
  5
11
330
3
100
AcDbSymbolTableRecord
100
AcDbTextStyleTableRecord
  2
Standard
 70
     0
 40
0.0
 41
1.0
 50
0.0
 71
     0
 42
3.5
  3
txt
  4

  0
STYLE
  5
94
330
3
100
AcDbSymbolTableRecord
100
AcDbTextStyleTableRecord
  2
SLDTEXTSTYLE0
 70
     0
 40
0.0
 41
0.75
 50
0.0
 71
     0
 42
3.5
  3
TXT
  4

  0
ENDTAB
  0
TABLE
  2
VIEW
  5
6
330
0
100
AcDbSymbolTable
 70
     0
  0
ENDTAB
  0
TABLE
  2
UCS
  5
7
330
0
100
AcDbSymbolTable
 70
     0
  0
ENDTAB
  0
TABLE
  2
APPID
  5
9
330
0
100
AcDbSymbolTable
 70
     1
  0
APPID
  5
12
330
9
100
AcDbSymbolTableRecord
100
AcDbRegAppTableRecord
  2
ACAD
 70
     0
  0
ENDTAB
  0
TABLE
  2
DIMSTYLE
  5
A
330
0
100
AcDbSymbolTable
 70
     4
100
AcDbDimStyleTable
  0
DIMSTYLE
105
27
330
A
100
AcDbSymbolTableRecord
100
AcDbDimStyleTableRecord
  2
ISO-25
 70
     0
 41
2.5
 42
0.625
 43
3.75
 44
1.25
 73
     0
 74
     0
 77
     1
 78
     8
140
2.5
141
2.5
143
0.03937007874016
147
0.625
171
     3
172
     1
178
     0
271
     2
272
     2
274
     3
278
    44
283
     0
284
     8
340
11
  0
DIMSTYLE
105
CB
102
{ACAD_REACTORS
330
CA
330
DF
330
F2
330
105
102
}
330
A
100
AcDbSymbolTableRecord
100
AcDbDimStyleTableRecord
  2
SLDDIMSTYLE0
 70
     0
 41
3.302
 44
0.0
 45
0.000000001
 73
     0
 74
     0
 77
     1
 78
    12
 79
     3
140
3.5
143
0.0393700787401575
147
0.875
148
0.000000001
170
     1
173
     1
178
     0
271
     2
272
     2
276
     2
284
    12
340
94
  0
DIMSTYLE
105
106
330
A
100
AcDbSymbolTableRecord
100
AcDbDimStyleTableRecord
  2
SLDDIMSTYLE1
 70
     0
 41
3.302
 44
0.0
 45
0.000000001
 73
     0
 74
     0
 77
     1
 78
    12
 79
     3
140
3.5
147
0.875
172
     1
173
     1
178
     0
271
     2
272
     2
276
     2
284
    12
289
     0
340
94
  0
DIMSTYLE
105
112
102
{ACAD_REACTORS
330
111
102
}
330
A
100
AcDbSymbolTableRecord
100
AcDbDimStyleTableRecord
  2
SLDDIMSTYLE2
 70
     0
 41
3.302
 44
0.0
 45
0.000000001
 73
     0
 74
     0
 77
     1
 78
     4
 79
     1
140
3.5
143
0.0393700787401575
147
0.875
148
0.000000001
170
     1
173
     1
178
     0
271
     2
272
     2
276
     2
284
    12
340
94
  0
ENDTAB
  0
TABLE
  2
BLOCK_RECORD
  5
1
330
0
100
AcDbSymbolTable
 70
     8
  0
BLOCK_RECORD
  5
1F
330
1
100
AcDbSymbolTableRecord
100
AcDbBlockTableRecord
  2
*Model_Space
340
22
  0
BLOCK_RECORD
  5
1B
330
1
100
AcDbSymbolTableRecord
100
AcDbBlockTableRecord
  2
*Paper_Space
340
1E
  0
BLOCK_RECORD
  5
23
330
1
100
AcDbSymbolTableRecord
100
AcDbBlockTableRecord
  2
*Paper_Space0
340
26
  0
BLOCK_RECORD
  5
7F
330
1
100
AcDbSymbolTableRecord
100
AcDbBlockTableRecord
  2
블럭10
340
0
102
{BLKREFS
331
C3
102
}
  0
BLOCK_RECORD
  5
CC
330
1
100
AcDbSymbolTableRecord
100
AcDbBlockTableRecord
  2
_D
340
0
  0
BLOCK_RECORD
  5
E0
330
1
100
AcDbSymbolTableRecord
100
AcDbBlockTableRecord
  2
_D_1
340
0
  0
BLOCK_RECORD
  5
F3
330
1
100
AcDbSymbolTableRecord
100
AcDbBlockTableRecord
  2
_D_2
340
0
  0
BLOCK_RECORD
  5
107
330
1
100
AcDbSymbolTableRecord
100
AcDbBlockTableRecord
  2
_D_3
340
0
  0
BLOCK_RECORD
  5
113
330
1
100
AcDbSymbolTableRecord
100
AcDbBlockTableRecord
  2
_D_4
340
0
  0
BLOCK_RECORD
  5
12C
330
1
100
AcDbSymbolTableRecord
100
AcDbBlockTableRecord
  2
SW_DOWELSYMBOL_0
340
0
102
{BLKREFS
331
132
102
}
  0
ENDTAB
  0
ENDSEC
  0
SECTION
  2
BLOCKS
  0
BLOCK
  5
20
330
1F
100
AcDbEntity
  8
0
100
AcDbBlockBegin
  2
*Model_Space
 70
     0
 10
0.0
 20
0.0
 30
0.0
  3
*Model_Space
  1
*Model_Space
  0
ENDBLK
  5
21
330
1F
100
AcDbEntity
  8
0
100
AcDbBlockEnd
  0
BLOCK
  5
1C
330
1B
100
AcDbEntity
 67
     1
  8
0
100
AcDbBlockBegin
  2
*Paper_Space
 70
     0
 10
0.0
 20
0.0
 30
0.0
  3
*Paper_Space
  1
*Paper_Space
  0
ENDBLK
  5
1D
330
1B
100
AcDbEntity
 67
     1
  8
0
100
AcDbBlockEnd
  0
BLOCK
  5
24
330
23
100
AcDbEntity
  8
0
100
AcDbBlockBegin
  2
*Paper_Space0
 70
     0
 10
0.0
 20
0.0
 30
0.0
  3
*Paper_Space0
  1
*Paper_Space0
  0
ENDBLK
  5
25
330
23
100
AcDbEntity
  8
0
100
AcDbBlockEnd
  0
BLOCK
  5
80
330
7F
100
AcDbEntity
  8
0
100
AcDbBlockBegin
  2
블럭10
 70
     2
 10
0.0
 20
0.0
 30
0.0
  3
블럭10
  1
블럭10
  0
ELLIPSE
  5
82
330
7F
100
AcDbEntity
  8
중심선
100
AcDbEllipse
 10
20.54032771741204
 20
12.0471743016438
 30
0.0
 11
6.600054785286829
 21
-1.261213355974178E-13
 31
0.0
210
0.0
220
0.0
230
1.0
 40
0.636358354079598
 41
0.9219305317359503
 42
6.513795318482858
  0
ELLIPSE
  5
83
330
7F
100
AcDbEntity
  8
중심선
100
AcDbEllipse
 10
20.54032771746488
 20
12.04717430159265
 30
0.0
 11
3.960054785062283
 21
1.540847449632565E-10
 31
0.0
210
0.0
220
0.0
230
1.0
 40
0.3939339440162632
 41
1.131841032648279
 42
5.62031148352944
  0
LINE
  5
84
330
7F
100
AcDbEntity
  8
중심선
100
AcDbLine
 10
2.268634060543552
 20
16.24717430164393
 30
0.0
 11
5.714909304380834
 21
16.24717430164393
 31
0.0
  0
LINE
  5
85
330
7F
100
AcDbEntity
  8
중심선
100
AcDbLine
 10
5.245725140726316
 20
7.84717430164391
 30
0.0
 11
8.692000384563599
 21
7.84717430164391
 31
0.0
  0
LINE
  5
86
330
7F
100
AcDbEntity
  8
중심선
100
AcDbLine
 10
15.74043728645272
 20
16.24717430164393
 30
0.0
 11
8.692000384563599
 21
7.84717430164391
 31
0.0
  0
LINE
  5
87
330
7F
100
AcDbEntity
  8
중심선
100
AcDbLine
 10
0.1404042013395286
 20
13.71084872107135
 30
0.0
 11
3.58671253028996
 21
13.71088815037384
 31
0.0
  0
LINE
  5
88
330
7F
100
AcDbEntity
  8
중심선
100
AcDbLine
 10
2.750260043222114
 20
10.84717430164391
 30
0.0
 11
6.196535287059397
 21
10.84717430164391
 31
0.0
  0
LINE
  5
89
330
7F
100
AcDbEntity
  8
중심선
100
AcDbLine
 10
12.29416204261559
 20
16.24717430164393
 30
0.0
 11
5.245725140726316
 21
7.84717430164391
 31
0.0
  0
LINE
  5
8A
330
7F
100
AcDbEntity
  8
중심선
100
AcDbLine
 10
10.72767329541681
 20
16.24717430164393
 30
0.0
 11
6.196535287059397
 21
10.84717430164391
 31
0.0
  0
LINE
  5
8B
330
7F
100
AcDbEntity
  8
중심선
100
AcDbLine
 10
7.28139805157953
 20
16.24717430164393
 30
0.0
 11
2.750260043222114
 21
10.84717430164391
 31
0.0
  0
LINE
  5
8C
330
7F
100
AcDbEntity
  8
중심선
100
AcDbLine
 10
5.714909304380834
 20
16.24717430164393
 30
0.0
 11
3.58671253028996
 21
13.71088815037384
 31
0.0
  0
LINE
  5
8D
330
7F
100
AcDbEntity
  8
중심선
100
AcDbLine
 10
2.268634060543552
 20
16.24717430164393
 30
0.0
 11
0.1404042013395286
 21
13.71084872107135
 31
0.0
  0
LINE
  5
8E
330
7F
100
AcDbEntity
  8
중심선
100
AcDbLine
 10
7.28139805157953
 20
16.24717430164393
 30
0.0
 11
10.72767329541681
 21
16.24717430164393
 31
0.0
  0
LINE
  5
8F
330
7F
100
AcDbEntity
  8
중심선
100
AcDbLine
 10
12.29416204261559
 20
16.24717430164393
 30
0.0
 11
15.74043728645272
 21
16.24717430164393
 31
0.0
  0
LINE
  5
90
330
7F
100
AcDbEntity
  8
중심선
100
AcDbLine
 10
19.22036997980202
 20
11.08717430171403
 30
0.0
 11
23.66174974927406
 21
11.08717430171406
 31
0.0
  0
LINE
  5
91
330
7F
100
AcDbEntity
  8
중심선
100
AcDbLine
 10
19.22039502424796
 20
13.00717430171391
 30
0.0
 11
19.22036997980202
 21
11.08717430171403
 31
0.0
  0
LINE
  5
92
330
7F
100
AcDbEntity
  8
중심선
100
AcDbLine
 10
19.22039502424796
 20
13.00717430171391
 30
0.0
 11
26.96566020931264
 21
13.00717430171391
 31
0.0
  0
LINE
  5
93
330
7F
100
AcDbEntity
  8
중심선
100
AcDbLine
 10
22.22332737316547
 20
13.45928029700563
 30
0.0
 11
24.52862924686651
 21
15.39360700705356
 31
0.0
  0
ATTDEF
  5
95
330
7F
100
AcDbEntity
  8
FORMAT
 62
     2
100
AcDbText
 10
3.448148490846466
 20
2.075366912832191
 30
0.0
 40
4.233333333333333
  1
EM979032
 41
0.75
  7
SLDTEXTSTYLE0
 11
3.448148490846466
 21
-0.0412997538344756
 31
0.0
100
AcDbAttributeDefinition
  3

  2
AUTOATTR0
 70
     0
 74
     1
  0
ENDBLK
  5
81
330
7F
100
AcDbEntity
  8
0
100
AcDbBlockEnd
  0
BLOCK
  5
CD
330
CC
100
AcDbEntity
  8
0
100
AcDbBlockBegin
  2
_D
 70
     0
 10
0.0
 20
0.0
 30
0.0
  3
_D
  1
_D
  0
LINE
  5
CF
330
CC
100
AcDbEntity
  8
치수문자_일반주서
 62
     0
370
    -2
100
AcDbLine
 10
101.6377754581089
 20
2.186157301112664
 30
0.0
 11
101.6377754581089
 21
22.09511459147406
 31
0.0
  0
LINE
  5
D0
330
CC
100
AcDbEntity
  8
치수문자_일반주서
 62
     0
370
    -2
100
AcDbLine
 10
71.47527545810888
 20
5.747379012009315
 30
0.0
 11
71.47527545810888
 21
22.09511459147406
 31
0.0
  0
LINE
  5
D1
330
CC
100
AcDbEntity
  8
치수문자_일반주서
 62
     0
370
    -2
100
AcDbLine
 10
98.33577545810891
 20
22.09511459147406
 30
0.0
 11
74.77727545810887
 21
22.09511459147406
 31
0.0
  0
SOLID
  5
D2
330
CC
100
AcDbEntity
  8
치수문자_일반주서
 62
     0
100
AcDbTrace
 10
98.33577545810891
 20
21.54478125814073
 30
0.0
 11
98.33577545810891
 21
22.6454479248074
 31
0.0
 12
101.6377754581089
 22
22.09511459147406
 32
0.0
 13
101.6377754581089
 23
22.09511459147406
 33
0.0
  0
SOLID
  5
D3
330
CC
100
AcDbEntity
  8
치수문자_일반주서
 62
     0
100
AcDbTrace
 10
74.77727545810887
 20
22.6454479248074
 30
0.0
 11
74.77727545810887
 21
21.54478125814073
 31
0.0
 12
71.47527545810888
 22
22.09511459147406
 32
0.0
 13
71.47527545810888
 23
22.09511459147406
 33
0.0
  0
MTEXT
  5
D4
330
CC
100
AcDbEntity
  8
치수문자_일반주서
 62
     0
100
AcDbMText
 10
86.55652545810891
 20
26.47011459147406
 30
0.0
 40
3.5
 41
0.0
 71
     2
 72
     1
  1
\A1;30.16 [1 3/16]
  7
SLDTEXTSTYLE0
 73
     1
 44
1.0
  0
POINT
  5
D5
330
CC
100
AcDbEntity
  8
Defpoints
 62
     0
100
AcDbPoint
 10
101.6377754581089
 20
2.123657301112664
 30
0.0
  0
POINT
  5
D6
330
CC
100
AcDbEntity
  8
Defpoints
 62
     0
100
AcDbPoint
 10
71.47527545810888
 20
5.684879012009315
 30
0.0
  0
POINT
  5
D7
330
CC
100
AcDbEntity
  8
Defpoints
 62
     0
100
AcDbPoint
 10
71.47527545810888
 20
22.09511459147406
 30
0.0
  0
ENDBLK
  5
CE
330
CC
100
AcDbEntity
  8
0
100
AcDbBlockEnd
  0
BLOCK
  5
E1
330
E0
100
AcDbEntity
  8
0
100
AcDbBlockBegin
  2
_D_1
 70
     0
 10
0.0
 20
0.0
 30
0.0
  3
_D_1
  1
_D_1
  0
LINE
  5
E3
330
E0
100
AcDbEntity
  8
치수문자_일반주서
 62
     0
370
    -2
100
AcDbLine
 10
-0.0000000000000142
 20
7.999999999999987
 30
0.0
 11
-0.0000000000000142
 21
39.0799066874058
 31
0.0
  0
LINE
  5
E4
330
E0
100
AcDbEntity
  8
치수문자_일반주서
 62
     0
370
    -2
100
AcDbLine
 10
101.6377754581089
 20
2.186157301112664
 30
0.0
 11
101.6377754581089
 21
39.0799066874058
 31
0.0
  0
LINE
  5
E5
330
E0
100
AcDbEntity
  8
치수문자_일반주서
 62
     0
370
    -2
100
AcDbLine
 10
3.301999999999985
 20
39.0799066874058
 30
0.0
 11
98.33577545810891
 21
39.0799066874058
 31
0.0
  0
SOLID
  5
E6
330
E0
100
AcDbEntity
  8
치수문자_일반주서
 62
     0
100
AcDbTrace
 10
3.301999999999985
 20
39.63024002073914
 30
0.0
 11
3.301999999999985
 21
38.52957335407247
 31
0.0
 12
-0.0000000000000142
 22
39.0799066874058
 32
0.0
 13
-0.0000000000000142
 23
39.0799066874058
 33
0.0
  0
SOLID
  5
E7
330
E0
100
AcDbEntity
  8
치수문자_일반주서
 62
     0
100
AcDbTrace
 10
98.33577545810891
 20
38.52957335407247
 30
0.0
 11
98.33577545810891
 21
39.63024002073914
 31
0.0
 12
101.6377754581089
 22
39.0799066874058
 32
0.0
 13
101.6377754581089
 23
39.0799066874058
 33
0.0
  0
MTEXT
  5
E8
330
E0
100
AcDbEntity
  8
치수문자_일반주서
 62
     0
100
AcDbMText
 10
51.70797805730286
 20
43.4549066874058
 30
0.0
 40
3.5
 41
0.0
 71
     2
 72
     1
  1
\A1;101.64 [4]
  7
SLDTEXTSTYLE0
 73
     1
 44
1.0
  0
POINT
  5
E9
330
E0
100
AcDbEntity
  8
Defpoints
 62
     0
100
AcDbPoint
 10
-0.0000000000000142
 20
7.937499999999987
 30
0.0
  0
POINT
  5
EA
330
E0
100
AcDbEntity
  8
Defpoints
 62
     0
100
AcDbPoint
 10
101.6377754581089
 20
2.123657301112664
 30
0.0
  0
POINT
  5
EB
330
E0
100
AcDbEntity
  8
Defpoints
 62
     0
100
AcDbPoint
 10
101.6377754581089
 20
39.0799066874058
 30
0.0
  0
ENDBLK
  5
E2
330
E0
100
AcDbEntity
  8
0
100
AcDbBlockEnd
  0
BLOCK
  5
F4
330
F3
100
AcDbEntity
  8
0
100
AcDbBlockBegin
  2
_D_2
 70
     0
 10
0.0
 20
0.0
 30
0.0
  3
_D_2
  1
_D_2
  0
LINE
  5
F6
330
F3
100
AcDbEntity
  8
치수문자_일반주서
 62
     0
370
    -2
100
AcDbLine
 10
101.6377754581089
 20
2.186157301112664
 30
0.0
 11
101.6377754581089
 21
51.55667432272148
 31
0.0
  0
LINE
  5
F7
330
F3
100
AcDbEntity
  8
치수문자_일반주서
 62
     0
370
    -2
100
AcDbLine
 10
-95.21222454189108
 20
6.999999999999987
 30
0.0
 11
-95.21222454189108
 21
51.55667432272148
 31
0.0
  0
LINE
  5
F8
330
F3
100
AcDbEntity
  8
치수문자_일반주서
 62
     0
370
    -2
100
AcDbLine
 10
98.33577545810891
 20
51.55667432272148
 30
0.0
 11
-91.91022454189107
 21
51.55667432272148
 31
0.0
  0
SOLID
  5
F9
330
F3
100
AcDbEntity
  8
치수문자_일반주서
 62
     0
100
AcDbTrace
 10
98.33577545810891
 20
51.00634098938815
 30
0.0
 11
98.33577545810891
 21
52.10700765605482
 31
0.0
 12
101.6377754581089
 22
51.55667432272148
 32
0.0
 13
101.6377754581089
 23
51.55667432272148
 33
0.0
  0
SOLID
  5
FA
330
F3
100
AcDbEntity
  8
치수문자_일반주서
 62
     0
100
AcDbTrace
 10
-91.91022454189107
 20
52.10700765605482
 30
0.0
 11
-91.91022454189107
 21
51.00634098938815
 31
0.0
 12
-95.21222454189108
 22
51.55667432272148
 32
0.0
 13
-95.21222454189108
 23
51.55667432272148
 33
0.0
  0
MTEXT
  5
FB
330
F3
100
AcDbEntity
  8
치수문자_일반주서
 62
     0
100
AcDbMText
 10
3.212775458108881
 20
55.93167432272148
 30
0.0
 40
3.5
 41
0.0
 71
     2
 72
     1
  1
\A1;196.85 [7 3/4]
  7
SLDTEXTSTYLE0
 73
     1
 44
1.0
  0
POINT
  5
FC
330
F3
100
AcDbEntity
  8
Defpoints
 62
     0
100
AcDbPoint
 10
101.6377754581089
 20
2.123657301112664
 30
0.0
  0
POINT
  5
FD
330
F3
100
AcDbEntity
  8
Defpoints
 62
     0
100
AcDbPoint
 10
-95.21222454189108
 20
6.937499999999987
 30
0.0
  0
POINT
  5
FE
330
F3
100
AcDbEntity
  8
Defpoints
 62
     0
100
AcDbPoint
 10
-95.21222454189108
 20
51.55667432272148
 30
0.0
  0
ENDBLK
  5
F5
330
F3
100
AcDbEntity
  8
0
100
AcDbBlockEnd
  0
BLOCK
  5
108
330
107
100
AcDbEntity
  8
0
100
AcDbBlockBegin
  2
_D_3
 70
     0
 10
0.0
 20
0.0
 30
0.0
  3
_D_3
  1
_D_3
  0
LINE
  5
10A
330
107
100
AcDbEntity
  8
치수문자_일반주서
 62
     0
370
    -2
100
AcDbLine
 10
-94.27472454189108
 20
7.937499999999997
 30
0.0
 11
-103.3584066057831
 21
7.937499999999964
 31
0.0
  0
LINE
  5
10B
330
107
100
AcDbEntity
  8
치수문자_일반주서
 62
     0
370
    -2
100
AcDbLine
 10
-94.27472454189108
 20
-7.937500000000003
 30
0.0
 11
-103.358406605783
 21
-7.937500000000036
 31
0.0
  0
LINE
  5
10C
330
107
100
AcDbEntity
  8
치수문자_일반주서
 62
     0
370
    -2
100
AcDbLine
 10
-103.3584066057831
 20
4.635499999999964
 30
0.0
 11
-103.358406605783
 21
-4.635500000000037
 31
0.0
  0
SOLID
  5
10D
330
107
100
AcDbEntity
  8
치수문자_일반주서
 62
     0
100
AcDbTrace
 10
-102.8080732724497
 20
4.635499999999966
 30
0.0
 11
-103.9087399391164
 21
4.635499999999962
 31
0.0
 12
-103.3584066057831
 22
7.937499999999964
 32
0.0
 13
-103.3584066057831
 23
7.937499999999964
 33
0.0
  0
SOLID
  5
10E
330
107
100
AcDbEntity
  8
치수문자_일반주서
 62
     0
100
AcDbTrace
 10
-103.9087399391164
 20
-4.635500000000039
 30
0.0
 11
-102.8080732724497
 21
-4.635500000000035
 31
0.0
 12
-103.358406605783
 22
-7.937500000000036
 32
0.0
 13
-103.358406605783
 23
-7.937500000000036
 33
0.0
  0
MTEXT
  5
10F
330
107
100
AcDbEntity
  8
치수문자_일반주서
 62
     0
100
AcDbMText
 10
-107.7334066057831
 20
0.4750247906199686
 30
0.0
 40
3.5
 41
0.0
 71
     2
 72
     1
  1
\A1;%%c15.88 [5/8]
  7
SLDTEXTSTYLE0
 11
-3.580687802255623E-15
 21
1.0
 31
0.0
 73
     1
 44
1.0
  0
POINT
  5
110
330
107
100
AcDbEntity
  8
Defpoints
 62
     0
100
AcDbPoint
 10
-94.21222454189108
 20
7.937499999999997
 30
0.0
  0
POINT
  5
158
330
107
100
AcDbEntity
  8
Defpoints
 62
     0
100
AcDbPoint
 10
-94.21222454189108
 20
-7.937500000000003
 30
0.0
  0
POINT
  5
159
330
107
100
AcDbEntity
  8
Defpoints
 62
     0
100
AcDbPoint
 10
-103.358406605783
 20
-7.937500000000036
 30
0.0
  0
ENDBLK
  5
109
330
107
100
AcDbEntity
  8
0
100
AcDbBlockEnd
  0
BLOCK
  5
114
330
113
100
AcDbEntity
  8
0
100
AcDbBlockBegin
  2
_D_4
 70
     0
 10
0.0
 20
0.0
 30
0.0
  3
_D_4
  1
_D_4
  0
LINE
  5
116
330
113
100
AcDbEntity
  8
치수문자_일반주서
 62
     0
370
    -2
100
AcDbLine
 10
68.43897545810889
 20
-6.349999999999988
 30
0.0
 11
118.2266687415065
 21
-6.349999999999802
 31
0.0
  0
LINE
  5
117
330
113
100
AcDbEntity
  8
치수문자_일반주서
 62
     0
370
    -2
100
AcDbLine
 10
68.43897545810889
 20
6.350000000000011
 30
0.0
 11
118.2266687415064
 21
6.350000000000197
 31
0.0
  0
LINE
  5
118
330
113
100
AcDbEntity
  8
치수문자_일반주서
 62
     0
370
    -2
100
AcDbLine
 10
118.2266687415064
 20
6.350000000000197
 30
0.0
 11
118.2266687415063
 21
36.77700000000019
 31
0.0
  0
LINE
  5
119
330
113
100
AcDbEntity
  8
치수문자_일반주서
 62
     0
370
    -2
100
AcDbLine
 10
118.2266687415064
 20
-3.047999999999803
 30
0.0
 11
118.2266687415064
 21
3.048000000000197
 31
0.0
  0
SOLID
  5
11A
330
113
100
AcDbEntity
  8
치수문자_일반주서
 62
     0
100
AcDbTrace
 10
117.6763354081731
 20
-3.047999999999805
 30
0.0
 11
118.7770020748398
 21
-3.047999999999801
 31
0.0
 12
118.2266687415065
 22
-6.349999999999802
 32
0.0
 13
118.2266687415065
 23
-6.349999999999802
 33
0.0
  0
SOLID
  5
11B
330
113
100
AcDbEntity
  8
치수문자_일반주서
 62
     0
100
AcDbTrace
 10
118.7770020748398
 20
3.048000000000199
 30
0.0
 11
117.6763354081731
 21
3.048000000000195
 31
0.0
 12
118.2266687415064
 22
6.350000000000197
 32
0.0
 13
118.2266687415064
 23
6.350000000000197
 33
0.0
  0
MTEXT
  5
11C
330
113
100
AcDbEntity
  8
치수문자_일반주서
 62
     0
100
AcDbMText
 10
113.8516687415064
 20
23.43325000000017
 30
0.0
 40
3.5
 41
0.0
 71
     2
 72
     1
  1
\A1;%%c12.70 [1/2]
  7
SLDTEXTSTYLE0
 11
-3.356894814614647E-15
 21
1.0
 31
0.0
 73
     1
 44
1.0
  0
POINT
  5
11D
330
113
100
AcDbEntity
  8
Defpoints
 62
     0
100
AcDbPoint
 10
68.37647545810889
 20
-6.349999999999988
 30
0.0
  0
POINT
  5
11E
330
113
100
AcDbEntity
  8
Defpoints
 62
     0
100
AcDbPoint
 10
68.37647545810889
 20
6.350000000000011
 30
0.0
  0
POINT
  5
11F
330
113
100
AcDbEntity
  8
Defpoints
 62
     0
100
AcDbPoint
 10
118.2266687415064
 20
6.350000000000198
 30
0.0
  0
ENDBLK
  5
115
330
113
100
AcDbEntity
  8
0
100
AcDbBlockEnd
  0
BLOCK
  5
12D
330
12C
100
AcDbEntity
  8
0
100
AcDbBlockBegin
  2
SW_DOWELSYMBOL_0
 70
     0
 10
0.0
 20
0.0
 30
0.0
  3
SW_DOWELSYMBOL_0
  1
SW_DOWELSYMBOL_0
  0
CIRCLE
  5
12F
330
12C
100
AcDbEntity
  8
해칭선
 62
     0
100
AcDbCircle
 10
0.0
 20
0.0
 30
0.0
 40
3.000000000000008
  0
HATCH
  5
130
330
12C
100
AcDbEntity
  8
0
  6
Continuous
 62
     0
370
     0
100
AcDbHatch
 10
0.0
 20
0.0
 30
0.0
210
0.0
220
0.0
230
1.0
  2
SOLID
 70
     1
 71
     0
 91
        1
 92
        0
 93
        3
 72
     2
 10
0.0
 20
0.0
 40
3.000000000000008
 50
0.0
 51
90.0
 73
     1
 72
     1
 10
0.0
 20
3.000000000000008
 11
0.0
 21
0.0
 72
     1
 10
0.0
 20
0.0
 11
3.000000000000008
 21
0.0
 97
        0
 75
     0
 76
     1
 98
        1
 10
0.0
 20
0.0
  0
HATCH
  5
131
330
12C
100
AcDbEntity
  8
0
  6
Continuous
 62
     0
370
     0
100
AcDbHatch
 10
0.0
 20
0.0
 30
0.0
210
0.0
220
0.0
230
1.0
  2
SOLID
 70
     1
 71
     0
 91
        1
 92
        0
 93
        3
 72
     2
 10
0.0
 20
0.0
 40
3.000000000000008
 50
180.0
 51
270.0000000000008
 73
     1
 72
     1
 10
0.0
 20
-3.000000000000008
 11
0.0
 21
0.0
 72
     1
 10
0.0
 20
0.0
 11
-3.000000000000008
 21
0.0
 97
        0
 75
     0
 76
     1
 98
        1
 10
0.0
 20
0.0
  0
ENDBLK
  5
12E
330
12C
100
AcDbEntity
  8
0
100
AcDbBlockEnd
  0
ENDSEC
  0
SECTION
  2
ENTITIES
  0
LINE
  5
96
330
1F
100
AcDbEntity
  8
외형선
  6
Continuous
370
    15
100
AcDbLine
 10
0.0
 20
-7.937499999999999
 30
0.0
 11
68.37647545810889
 21
-6.349999999999988
 31
0.0
  0
LINE
  5
97
330
1F
100
AcDbEntity
  8
외형선
  6
Continuous
370
    15
100
AcDbLine
 10
68.37647545810889
 20
6.350000000000011
 30
0.0
 11
0.0
 21
7.937500000000004
 31
0.0
  0
LINE
  5
98
330
1F
100
AcDbEntity
  8
외형선
  6
Continuous
370
    15
100
AcDbLine
 10
0.0
 20
7.937500000000004
 30
0.0
 11
-94.21222454189108
 21
7.937499999999992
 31
0.0
  0
LINE
  5
99
330
1F
100
AcDbEntity
  8
외형선
  6
Continuous
370
    15
100
AcDbLine
 10
-94.21222454189108
 20
-7.937500000000012
 30
0.0
 11
0.0
 21
-7.937499999999999
 31
0.0
  0
LINE
  5
9A
330
1F
100
AcDbEntity
  8
외형선
  6
Continuous
370
    15
100
AcDbLine
 10
-94.21222454189108
 20
7.93749999999999
 30
0.0
 11
-95.21222454189108
 21
6.937499999999992
 31
0.0
  0
LINE
  5
9B
330
1F
100
AcDbEntity
  8
외형선
  6
Continuous
370
    15
100
AcDbLine
 10
-95.21222454189108
 20
-6.937500000000012
 30
0.0
 11
-94.21222454189108
 21
-7.937500000000013
 31
0.0
  0
LINE
  5
9C
330
1F
100
AcDbEntity
  8
외형선
  6
Continuous
370
    15
100
AcDbLine
 10
71.4752754581089
 20
6.350000000000011
 30
0.0
 11
68.37647545810889
 21
6.350000000000011
 31
0.0
  0
LINE
  5
9D
330
1F
100
AcDbEntity
  8
외형선
  6
Continuous
370
    15
100
AcDbLine
 10
68.37647545810889
 20
-6.349999999999988
 30
0.0
 11
71.4752754581089
 21
-6.349999999999988
 31
0.0
  0
LINE
  5
9E
330
1F
100
AcDbEntity
  8
외형선
  6
Continuous
370
    15
100
AcDbLine
 10
76.41255730297813
 20
6.350000000000011
 30
0.0
 11
71.4752754581089
 21
6.350000000000011
 31
0.0
  0
ARC
  5
9F
330
1F
100
AcDbEntity
  8
외형선
  6
Continuous
 62
     1
370
    15
100
AcDbCircle
 10
95.2877754581089
 20
0.0000000000000113
 30
0.0
 40
6.349999999999997
100
AcDbArc
 50
320.9012790088588
 51
0.0
  0
ARC
  5
A0
330
1F
100
AcDbEntity
  8
외형선
  6
Continuous
 62
     1
370
    15
100
AcDbCircle
 10
95.2877754581089
 20
0.0000000000000113
 30
0.0
 40
6.350000000000006
100
AcDbArc
 50
0.0
 51
39.0170457482178
  0
LINE
  5
A1
330
1F
100
AcDbEntity
  8
외형선
  6
Continuous
370
    15
100
AcDbLine
 10
71.4752754581089
 20
-6.349999999999988
 30
0.0
 11
76.4125573029781
 21
-6.349999999999988
 31
0.0
  0
LINE
  5
A2
330
1F
100
AcDbEntity
  8
외형선
  6
Continuous
370
    15
100
AcDbLine
 10
68.37647545810889
 20
6.350000000000011
 30
0.0
 11
68.37647545810889
 21
-6.349999999999988
 31
0.0
  0
LINE
  5
A3
330
1F
100
AcDbEntity
  8
외형선
  6
Continuous
370
    15
100
AcDbLine
 10
0.0
 20
7.937500000000004
 30
0.0
 11
0.0
 21
-7.937500000000004
 31
0.0
  0
LINE
  5
A4
330
1F
100
AcDbEntity
  8
외형선
  6
Continuous
370
    15
100
AcDbLine
 10
-94.21222454189108
 20
7.937499999999992
 30
0.0
 11
-94.21222454189108
 21
-7.937500000000017
 31
0.0
  0
LINE
  5
A5
330
1F
100
AcDbEntity
  8
외형선
  6
Continuous
370
    15
100
AcDbLine
 10
-95.21222454189108
 20
6.937499999999994
 30
0.0
 11
-95.21222454189108
 21
-6.937500000000015
 31
0.0
  0
LINE
  5
A6
330
1F
100
AcDbEntity
  8
외형선
  6
Continuous
370
    15
100
AcDbLine
 10
71.4752754581089
 20
6.350000000000011
 30
0.0
 11
71.4752754581089
 21
5.684879012009316
 31
0.0
  0
SPLINE
  5
A7
330
1F
100
AcDbEntity
  8
외형선
  6
Continuous
370
    15
100
AcDbSpline
210
0.0
220
0.0
230
1.0
 70
     8
 71
     3
 72
     8
 73
     4
 74
     0
 42
0.000000001
 43
0.00000001
 40
0.0
 40
0.0
 40
0.0
 40
0.0
 40
1.0
 40
1.0
 40
1.0
 40
1.0
 10
69.4452630095979
 20
6.107437023206357
 30
0.0
 10
70.11837620263805
 20
6.000718168518663
 30
0.0
 10
70.80080110815233
 20
5.858690215217256
 30
0.0
 10
71.4752754581088
 20
5.684879012009339
 30
0.0
  0
SPLINE
  5
A8
330
1F
100
AcDbEntity
  8
외형선
  6
Continuous
370
    15
100
AcDbSpline
210
0.0
220
0.0
230
1.0
 70
     8
 71
     3
 72
     8
 73
     4
 74
     0
 42
0.000000001
 43
0.00000001
 40
0.0
 40
0.0
 40
0.0
 40
0.0
 40
1.0
 40
1.0
 40
1.0
 40
1.0
 10
71.4752754581089
 20
-5.720773800548401
 30
0.0
 10
70.80077237718551
 20
-5.551458568770359
 30
0.0
 10
70.11831806624798
 20
-5.348823565623924
 30
0.0
 10
69.44517699069365
 20
-5.118056872287997
 30
0.0
  0
LINE
  5
A9
330
1F
100
AcDbEntity
  8
외형선
  6
Continuous
370
    15
100
AcDbLine
 10
71.4752754581089
 20
-5.720773800548401
 30
0.0
 11
71.4752754581089
 21
-6.349999999999988
 31
0.0
  0
LINE
  5
AA
330
1F
100
AcDbEntity
  8
외형선
  6
Continuous
370
    15
100
AcDbLine
 10
69.44517699069365
 20
-5.118205086522124
 30
0.0
 11
69.44517699069364
 21
6.107512569180835
 31
0.0
  0
SPLINE
  5
AB
330
1F
100
AcDbEntity
  8
외형선
  6
Continuous
370
    15
100
AcDbSpline
210
0.0
220
0.0
230
1.0
 70
    24
 71
     3
 72
    14
 73
    10
 74
     0
 42
0.000000001
 43
0.00000001
 40
0.0
 40
0.0
 40
0.0
 40
0.0
 40
0.25
 40
0.25
 40
0.5
 40
0.5
 40
0.75
 40
0.75
 40
1.0
 40
1.0
 40
1.0
 40
1.0
 10
71.4752754581089
 20
-0.0185104363387131
 30
0.0
 10
71.4752754581089
 20
-0.3501269537819343
 30
0.0
 10
71.4752754581089
 20
-0.7354094836366749
 30
0.0
 10
71.4752754581089
 20
-1.606727632882905
 30
0.0
 10
71.4752754581089
 20
-2.093141977828398
 30
0.0
 10
71.4752754581089
 20
-3.1240914130972
 30
0.0
 10
71.4752754581089
 20
-3.668094441212048
 30
0.0
 10
71.4752754581089
 20
-4.734050659284894
 30
0.0
 10
71.4752754581089
 20
-5.254545867792249
 30
0.0
 10
71.4752754581089
 20
-5.720773800548393
 30
0.0
  0
SPLINE
  5
AC
330
1F
100
AcDbEntity
  8
외형선
  6
Continuous
370
    15
100
AcDbSpline
210
0.0
220
0.0
230
1.0
 70
     8
 71
     3
 72
     8
 73
     4
 74
     0
 42
0.000000001
 43
0.00000001
 40
0.0
 40
0.0
 40
0.0
 40
0.0
 40
1.0
 40
1.0
 40
1.0
 40
1.0
 10
71.47527545810888
 20
-0.0185104363387091
 30
0.0
 10
70.80077237718551
 20
0.1584388462591934
 30
0.0
 10
70.11831806624798
 20
0.3361790821324603
 30
0.0
 10
69.44517699069364
 20
0.510216426493175
 30
0.0
  0
SPLINE
  5
AD
330
1F
100
AcDbEntity
  8
외형선
  6
Continuous
370
    15
100
AcDbSpline
210
0.0
220
0.0
230
1.0
 70
    24
 71
     3
 72
    14
 73
    10
 74
     0
 42
0.000000001
 43
0.00000001
 40
0.0
 40
0.0
 40
0.0
 40
0.0
 40
0.25
 40
0.25
 40
0.5
 40
0.5
 40
0.75
 40
0.75
 40
1.0
 40
1.0
 40
1.0
 40
1.0
 10
71.4752754581089
 20
5.684879012009316
 30
0.0
 10
71.4752754581089
 20
5.222566702802155
 30
0.0
 10
71.4752754581089
 20
4.705012352064564
 30
0.0
 10
71.4752754581089
 20
3.642592310042825
 30
0.0
 10
71.4752754581089
 20
3.099188184508022
 30
0.0
 10
71.4752754581089
 20
2.067401917243204
 30
0.0
 10
71.4752754581089
 20
1.579566273851095
 30
0.0
 10
71.4752754581089
 20
0.7041031003079663
 30
0.0
 10
71.4752754581089
 20
0.3161076840254576
 30
0.0
 10
71.4752754581089
 20
-0.0185104363387137
 30
0.0
  0
SPLINE
  5
AE
330
1F
100
AcDbEntity
  8
외형선
  6
Continuous
 62
     1
370
    15
100
AcDbSpline
210
0.0
220
0.0
230
1.0
 70
     8
 71
     3
 72
    32
 73
    28
 74
     0
 42
0.000000001
 43
0.00000001
 40
0.0
 40
0.0
 40
0.0
 40
0.0
 40
0.1250000000000006
 40
0.1250000000000006
 40
0.1875000000000009
 40
0.1875000000000009
 40
0.2500000000000013
 40
0.2500000000000013
 40
0.3750000000000021
 40
0.3750000000000021
 40
0.4375000000000024
 40
0.4375000000000024
 40
0.5000000000000028
 40
0.5000000000000028
 40
0.5625000000000023
 40
0.5625000000000023
 40
0.625000000000002
 40
0.625000000000002
 40
0.6875000000000017
 40
0.6875000000000017
 40
0.7500000000000012
 40
0.7500000000000012
 40
0.8125000000000009
 40
0.8125000000000009
 40
0.8750000000000006
 40
0.8750000000000006
 40
1.0
 40
1.0
 40
1.0
 40
1.0
 10
95.2877754581089
 20
-0.9203945059740056
 30
0.0
 10
95.64355485615008
 20
-1.12355605507731
 30
0.0
 10
95.99209636076505
 20
-1.320198266023446
 30
0.0
 10
96.51066509691361
 20
-1.594981494170703
 30
0.0
 10
96.682814120299
 20
-1.683180531666175
 30
0.0
 10
97.02694707888725
 20
-1.850402156688722
 30
0.0
 10
97.19965736328854
 20
-1.929692754842947
 30
0.0
 10
97.70947502607001
 20
-2.14329956916552
 30
0.0
 10
98.04089672767623
 20
-2.256127528708944
 30
0.0
 10
98.53415390798145
 20
-2.360801621769476
 30
0.0
 10
98.69808092330734
 20
-2.384573662022772
 30
0.0
 10
99.01702519205537
 20
-2.404284266822735
 30
0.0
 10
99.17319215430894
 20
-2.400574382174622
 30
0.0
 10
99.48022530193033
 20
-2.360445986023691
 30
0.0
 10
99.63185093259632
 20
-2.323196799001156
 30
0.0
 10
99.91947558648967
 20
-2.211558576292762
 30
0.0
 10
100.0568805661752
 20
-2.137274418916165
 30
0.0
 10
100.3186801649311
 20
-1.94404526756944
 30
0.0
 10
100.4386639405297
 20
-1.828180515009332
 30
0.0
 10
100.6549797055764
 20
-1.55632560907852
 30
0.0
 10
100.7516079430775
 20
-1.398602910889429
 30
0.0
 10
100.9094751079139
 20
-1.058606829722546
 30
0.0
 10
100.9730253332918
 20
-0.8719395971982731
 30
0.0
 10
101.0640012044749
 20
-0.4830198701364505
 30
0.0
 10
101.0915529529934
 20
-0.2827274132345961
 30
0.0
 10
101.1241094876288
 20
0.3333142833596497
 30
0.0
 10
101.0786641952502
 20
0.7405143479516239
 30
0.0
 10
100.9805615857429
 20
1.138779705770547
 30
0.0
  0
SPLINE
  5
AF
330
1F
100
AcDbEntity
  8
외형선
  6
Continuous
 62
     1
370
    15
100
AcDbSpline
210
0.0
220
0.0
230
1.0
 70
     8
 71
     3
 72
    15
 73
    11
 74
     0
 42
0.000000001
 43
0.00000001
 40
0.0
 40
0.0
 40
0.0
 40
0.0
 40
0.1412912180841225
 40
0.2825307257471215
 40
0.423816855337356
 40
0.5651481327182253
 40
0.7064982161538389
 40
0.8453171312131974
 40
0.9841129432130732
 40
1.0
 40
1.0
 40
1.0
 40
1.0
 10
95.28777545810891
 20
-0.9203945059740058
 30
0.0
 10
94.39880162436033
 20
-0.4073310070425313
 30
0.0
 10
92.62117930766655
 20
0.6186082174403552
 30
0.0
 10
89.9549876479419
 20
2.136267603972963
 30
0.0
 10
87.2882238242163
 20
3.525370533735348
 30
0.0
 10
84.62061758394431
 20
4.706675369436145
 30
0.0
 10
81.96842132189268
 20
5.61676638916539
 30
0.0
 10
79.33235413889646
 20
6.162981270184323
 30
0.0
 10
77.48567073841119
 20
6.395217859410359
 30
0.0
 10
76.51250818253789
 20
6.337708602399082
 30
0.0
 10
76.41255730297812
 20
6.331801983010148
 30
0.0
  0
SPLINE
  5
B0
330
1F
100
AcDbEntity
  8
외형선
  6
Continuous
 62
     1
370
    15
100
AcDbSpline
210
0.0
220
0.0
230
1.0
 70
     8
 71
     3
 72
    11
 73
     7
 74
     0
 42
0.000000001
 43
0.00000001
 40
0.0
 40
0.0
 40
0.0
 40
0.0
 40
0.314777213979697
 40
0.6299239772793318
 40
0.9447550092858824
 40
1.0
 40
1.0
 40
1.0
 40
1.0
 10
99.96191813493733
 20
1.493185109280038
 30
0.0
 10
98.76089590103041
 20
1.748154413559866
 30
0.0
 10
96.35744142979172
 20
2.258392356788034
 30
0.0
 10
92.75236490038549
 20
2.714049263672684
 30
0.0
 10
90.13795824616115
 20
2.91828565758459
 30
0.0
 10
88.72586681540808
 20
2.865567407659107
 30
0.0
 10
88.51506964620505
 20
2.85769762132119
 30
0.0
  0
SPLINE
  5
B1
330
1F
100
AcDbEntity
  8
외형선
  6
Continuous
 62
     1
370
    15
100
AcDbSpline
210
0.0
220
0.0
230
1.0
 70
     8
 71
     3
 72
     8
 73
     4
 74
     0
 42
0.000000001
 43
0.00000001
 40
0.0
 40
0.0
 40
0.0
 40
0.0
 40
1.0
 40
1.0
 40
1.0
 40
1.0
 10
99.96191813448019
 20
1.493185109382341
 30
0.0
 10
100.3015847380479
 20
1.377389159969721
 30
0.0
 10
100.6411335012904
 20
1.259272657426709
 30
0.0
 10
100.9805615857467
 20
1.138779705781702
 30
0.0
  0
SPLINE
  5
B2
330
1F
100
AcDbEntity
  8
외형선
  6
Continuous
 62
     1
370
    15
100
AcDbSpline
210
0.0
220
0.0
230
1.0
 70
     8
 71
     3
 72
    12
 73
     8
 74
     0
 42
0.000000001
 43
0.00000001
 40
0.0
 40
0.0
 40
0.0
 40
0.0
 40
0.1907771691096737
 40
0.393093710938031
 40
0.5953834549248165
 40
0.797751581424568
 40
1.0
 40
1.0
 40
1.0
 40
1.0
 10
88.85770718436078
 20
-2.868521160533202
 30
0.0
 10
87.75228958656442
 20
-2.852477202310901
 30
0.0
 10
85.47459195805953
 20
-2.819418848917925
 30
0.0
 10
82.02487369119926
 20
-2.405229362736268
 30
0.0
 10
78.50803612332813
 20
-1.76448050638988
 30
0.0
 10
74.99144846965424
 20
-0.9387348345363287
 30
0.0
 10
72.64710193288967
 20
-0.3251913957245053
 30
0.0
 10
71.47527545810888
 20
-0.0185104363387091
 30
0.0
  0
SPLINE
  5
B3
330
1F
100
AcDbEntity
  8
외형선
  6
Continuous
370
    15
100
AcDbSpline
210
0.0
220
0.0
230
1.0
 70
    24
 71
     3
 72
    14
 73
    10
 74
     0
 42
0.000000001
 43
0.00000001
 40
0.0
 40
0.0
 40
0.0
 40
0.0
 40
0.25
 40
0.25
 40
0.5
 40
0.5
 40
0.75
 40
0.75
 40
1.0
 40
1.0
 40
1.0
 40
1.0
 10
71.4752754581089
 20
5.684879012009316
 30
0.0
 10
71.4752754581089
 20
5.222566702802155
 30
0.0
 10
71.4752754581089
 20
4.705012352064564
 30
0.0
 10
71.4752754581089
 20
3.642592310042825
 30
0.0
 10
71.4752754581089
 20
3.099188184508022
 30
0.0
 10
71.4752754581089
 20
2.067401917243204
 30
0.0
 10
71.4752754581089
 20
1.579566273851095
 30
0.0
 10
71.4752754581089
 20
0.7041031003079663
 30
0.0
 10
71.4752754581089
 20
0.3161076840254576
 30
0.0
 10
71.4752754581089
 20
-0.0185104363387137
 30
0.0
  0
SPLINE
  5
B4
330
1F
100
AcDbEntity
  8
외형선
  6
Continuous
 62
     1
370
    15
100
AcDbSpline
210
0.0
220
0.0
230
1.0
 70
     8
 71
     3
 72
    40
 73
    36
 74
     0
 42
0.000000001
 43
0.00000001
 40
0.0
 40
0.0
 40
0.0
 40
0.0
 40
0.0624999999999998
 40
0.0624999999999998
 40
0.1249999999999996
 40
0.1249999999999996
 40
0.1874999999999994
 40
0.1874999999999994
 40
0.2187499999999994
 40
0.2187499999999994
 40
0.2499999999999994
 40
0.2499999999999994
 40
0.3124999999999996
 40
0.3124999999999996
 40
0.3749999999999996
 40
0.3749999999999996
 40
0.4374999999999997
 40
0.4374999999999997
 40
0.4999999999999997
 40
0.4999999999999997
 40
0.5624999999999998
 40
0.5624999999999998
 40
0.6249999999999998
 40
0.6249999999999998
 40
0.6874999999999998
 40
0.6874999999999998
 40
0.7499999999999999
 40
0.7499999999999999
 40
0.8124999999999999
 40
0.8124999999999999
 40
0.8749999999999999
 40
0.8749999999999999
 40
0.9375
 40
0.9375
 40
1.0
 40
1.0
 40
1.0
 40
1.0
 10
71.47527545810853
 20
5.68487901200945
 30
0.0
 10
71.9700861783788
 20
5.55736690327485
 30
0.0
 10
72.46567781239659
 20
5.412448325946856
 30
0.0
 10
73.46058927951965
 20
5.090057355585862
 30
0.0
 10
73.95400318270583
 20
4.913266018885885
 30
0.0
 10
74.9460133426244
 20
4.530240952471854
 30
0.0
 10
75.44521253120044
 20
4.323844851891178
 30
0.0
 10
76.18855775769916
 20
3.996179090544954
 30
0.0
 10
76.43482269637158
 20
3.884057013579951
 30
0.0
 10
76.93050840066911
 20
3.653589551549169
 30
0.0
 10
77.17923055946406
 20
3.535342208533509
 30
0.0
 10
77.92547751320873
 20
3.172746776698762
 30
0.0
 10
78.42003504420714
 20
2.921055931520614
 30
0.0
 10
79.41070630565957
 20
2.401179308659615
 30
0.0
 10
79.90988535518537
 20
2.132421557853074
 30
0.0
 10
80.90227248392134
 20
1.584597276431163
 30
0.0
 10
81.39541531999654
 20
1.305581702617036
 30
0.0
 10
82.39024714738248
 20
0.7396844731917623
 30
0.0
 10
82.88639828164371
 20
0.4538481534445505
 30
0.0
 10
83.87548565414085
 20
-0.1182284788740795
 30
0.0
 10
84.3745188781362
 20
-0.4056419254471794
 30
0.0
 10
85.36791975371128
 20
-0.9753500722547068
 30
0.0
 10
85.86051450013699
 20
-1.257316141586192
 30
0.0
 10
86.85493377108288
 20
-1.813605577135609
 30
0.0
 10
87.35312716310622
 20
-2.087215846560528
 30
0.0
 10
88.3403869667966
 20
-2.61843239323051
 30
0.0
 10
88.83914880167632
 20
-2.877767501035743
 30
0.0
 10
89.83331616887683
 20
-3.376685042007915
 30
0.0
 10
90.32581443002287
 20
-3.615843229214964
 30
0.0
 10
91.31957304241413
 20
-4.072068618396334
 30
0.0
 10
91.81850568143739
 20
-4.28869281236566
 30
0.0
 10
92.8068420518383
 20
-4.693178335993478
 30
0.0
 10
93.30381083082538
 20
-4.882095255220217
 30
0.0
 10
94.29849679711945
 20
-5.229029856491328
 30
0.0
 10
94.79135025748455
 20
-5.386550681647506
 30
0.0
 10
95.2877754581089
 20
-5.527565812143142
 30
0.0
  0
SPLINE
  5
B5
330
1F
100
AcDbEntity
  8
외형선
  6
Continuous
 62
     1
370
    15
100
AcDbSpline
210
0.0
220
0.0
230
1.0
 70
     8
 71
     3
 72
    14
 73
    10
 74
     0
 42
0.000000001
 43
0.00000001
 40
0.0
 40
0.0
 40
0.0
 40
0.0
 40
0.0984680359341198
 40
0.2699288364339997
 40
0.4366556195681937
 40
0.6087363175490679
 40
0.7672199633846449
 40
0.9301678410714194
 40
0.9999999999999999
 40
0.9999999999999999
 40
0.9999999999999999
 40
0.9999999999999999
 10
100.1989643439863
 20
-3.99202874263053
 30
0.0
 10
100.0872635088604
 20
-4.133041222084491
 30
0.0
 10
99.78105981374024
 20
-4.519596454354457
 30
0.0
 10
99.13656283778775
 20
-5.014205799110272
 30
0.0
 10
98.31395326148582
 20
-5.44930968634023
 30
0.0
 10
97.44465651916416
 20
-5.692750574039762
 30
0.0
 10
96.55476592659697
 20
-5.753056433134017
 30
0.0
 10
95.8386296556211
 20
-5.671642463025986
 30
0.0
 10
95.41489306418555
 20
-5.560813591745185
 30
0.0
 10
95.2877754581089
 20
-5.527565812143085
 30
0.0
  0
ARC
  5
B6
330
1F
100
AcDbEntity
  8
외형선
  6
Continuous
 62
     1
370
    15
100
AcDbCircle
 10
99.44497207335766
 20
-0.5779167907099976
 30
0.0
 40
2.303276364578523
100
AcDbArc
 50
20.37169640635685
 51
48.18728424177804
  0
ARC
  5
B7
330
1F
100
AcDbEntity
  8
외형선
  6
Continuous
 62
     1
370
    15
100
AcDbCircle
 10
95.59920296229178
 20
0.0113911975409102
 30
0.0
 40
6.008743033216089
100
AcDbArc
 50
2.026535543186207
 51
27.79380095945501
  0
SPLINE
  5
B8
330
1F
100
AcDbEntity
  8
외형선
  6
Continuous
 62
     1
370
    15
100
AcDbSpline
210
0.0
220
0.0
230
1.0
 70
     8
 71
     3
 72
    22
 73
    18
 74
     0
 42
0.000000001
 43
0.00000001
 40
0.0
 40
0.0
 40
0.0
 40
0.0
 40
0.125
 40
0.125
 40
0.25
 40
0.25
 40
0.375
 40
0.375
 40
0.5
 40
0.5
 40
0.625
 40
0.625
 40
0.75
 40
0.75
 40
0.875
 40
0.875
 40
1.0
 40
1.0
 40
1.0
 40
1.0
 10
100.9147259049938
 20
2.813213583934282
 30
0.0
 10
100.8194572416031
 20
3.063542992683717
 30
0.0
 10
100.6936440378572
 20
3.311887018612711
 30
0.0
 10
100.3894362146398
 20
3.792672850017028
 30
0.0
 10
100.2117235603442
 20
4.023124097193896
 30
0.0
 10
99.82132031756856
 20
4.445587886957305
 30
0.0
 10
99.60744586107658
 20
4.63953489144998
 30
0.0
 10
99.1459193090084
 20
4.987231018084223
 30
0.0
 10
98.89734607979716
 20
5.140899535972467
 30
0.0
 10
98.38623836311449
 20
5.394060699323957
 30
0.0
 10
98.12164586375224
 20
5.495343654361778
 30
0.0
 10
97.57536655365105
 20
5.645874995806211
 30
0.0
 10
97.29136605606702
 20
5.694922673947338
 30
0.0
 10
96.72529448151411
 20
5.736713189349379
 30
0.0
 10
96.44092030088619
 20
5.730834690550841
 30
0.0
 10
95.86745207904283
 20
5.667613805679227
 30
0.0
 10
95.57696473377646
 20
5.60971326032848
 30
0.0
 10
95.2877754581089
 20
5.527565812143115
 30
0.0
  0
SPLINE
  5
B9
330
1F
100
AcDbEntity
  8
외형선
  6
Continuous
 62
     1
370
    15
100
AcDbSpline
210
0.0
220
0.0
230
1.0
 70
     8
 71
     3
 72
    14
 73
    10
 74
     0
 42
0.000000001
 43
0.00000001
 40
0.0
 40
0.0
 40
0.0
 40
0.0
 40
0.0719849400785643
 40
0.2285387642574785
 40
0.3851134200586809
 40
0.5388842797272303
 40
0.6926295479458239
 40
0.8463301244881802
 40
1.0
 40
1.0
 40
1.0
 40
1.0
 10
88.5150696461995
 20
-2.857697621324025
 30
0.0
 10
88.10621143940489
 20
-3.072614986059267
 30
0.0
 10
86.80816285819628
 20
-3.754937551035499
 30
0.0
 10
84.62060874946461
 20
-4.702502728703815
 30
0.0
 10
81.96842621825684
 20
-5.61184485209272
 30
0.0
 10
79.33234343310308
 20
-6.186255634271154
 30
0.0
 10
76.71263320296511
 20
-6.404119650865873
 30
0.0
 10
74.09368547462228
 20
-6.282973400492103
 30
0.0
 10
72.34802067630007
 20
-5.908161188094835
 30
0.0
 10
71.4752754581089
 20
-5.720773800548401
 30
0.0
  0
SPLINE
  5
BA
330
1F
100
AcDbEntity
  8
외형선
  6
Continuous
370
    15
100
AcDbSpline
210
0.0
220
0.0
230
1.0
 70
    24
 71
     3
 72
    14
 73
    10
 74
     0
 42
0.000000001
 43
0.00000001
 40
0.0
 40
0.0
 40
0.0
 40
0.0
 40
0.25
 40
0.25
 40
0.5
 40
0.5
 40
0.75
 40
0.75
 40
1.0
 40
1.0
 40
1.0
 40
1.0
 10
71.4752754581089
 20
-0.0185104363387131
 30
0.0
 10
71.4752754581089
 20
-0.3501269537819341
 30
0.0
 10
71.4752754581089
 20
-0.7354094836366749
 30
0.0
 10
71.4752754581089
 20
-1.606727632882905
 30
0.0
 10
71.4752754581089
 20
-2.093141977828398
 30
0.0
 10
71.4752754581089
 20
-3.1240914130972
 30
0.0
 10
71.4752754581089
 20
-3.668094441212046
 30
0.0
 10
71.4752754581089
 20
-4.734050659284891
 30
0.0
 10
71.4752754581089
 20
-5.254545867792245
 30
0.0
 10
71.4752754581089
 20
-5.720773800548391
 30
0.0
  0
SPLINE
  5
BB
330
1F
100
AcDbEntity
  8
외형선
  6
Continuous
 62
     1
370
    15
100
AcDbSpline
210
0.0
220
0.0
230
1.0
 70
     8
 71
     3
 72
    10
 73
     6
 74
     0
 42
0.000000001
 43
0.00000001
 40
0.0
 40
0.0
 40
0.0
 40
0.0
 40
0.3525141940822816
 40
0.6762575588565749
 40
0.9999999999999999
 40
0.9999999999999999
 40
0.9999999999999999
 40
0.9999999999999999
 10
88.85770718435339
 20
2.868521160529609
 30
0.0
 10
89.61350518582842
 20
3.251484417958377
 30
0.0
 10
91.06341591296032
 20
3.986154970089652
 30
0.0
 10
93.20658694559613
 20
4.875426802905039
 30
0.0
 10
94.59404661366959
 20
5.310186349123547
 30
0.0
 10
95.2877754581089
 20
5.527565812143115
 30
0.0
  0
SPLINE
  5
BC
330
1F
100
AcDbEntity
  8
외형선
  6
Continuous
 62
     1
370
    15
100
AcDbSpline
210
0.0
220
0.0
230
1.0
 70
     8
 71
     3
 72
     8
 73
     4
 74
     0
 42
0.000000001
 43
0.00000001
 40
0.0
 40
0.0
 40
0.0
 40
0.0
 40
1.0
 40
1.0
 40
1.0
 40
1.0
 10
98.18513161194629
 20
1.968507546353016
 30
0.0
 10
98.76623445320155
 20
1.826334690123598
 30
0.0
 10
99.35929834697292
 20
1.666725139557749
 30
0.0
 10
99.9619181344802
 20
1.493185109382339
 30
0.0
  0
SPLINE
  5
BD
330
1F
100
AcDbEntity
  8
외형선
  6
Continuous
 62
     1
370
    15
100
AcDbSpline
210
0.0
220
0.0
230
1.0
 70
     8
 71
     3
 72
    14
 73
    10
 74
     0
 42
0.000000001
 43
0.00000001
 40
0.0
 40
0.0
 40
0.0
 40
0.0
 40
0.25
 40
0.25
 40
0.5
 40
0.5
 40
0.75
 40
0.75
 40
1.0
 40
1.0
 40
1.0
 40
1.0
 10
100.9147259049827
 20
2.813213583943919
 30
0.0
 10
100.7235667092294
 20
2.659416109733489
 30
0.0
 10
100.5130518294429
 20
2.529217691675577
 30
0.0
 10
100.0734881968058
 20
2.314751230252098
 30
0.0
 10
99.84696377672091
 20
2.230988041780329
 30
0.0
 10
99.38357970596827
 20
2.099437128730153
 30
0.0
 10
99.14556026322896
 20
2.05169615074545
 30
0.0
 10
98.66601596322819
 20
1.987685018470608
 30
0.0
 10
98.42577387782418
 20
1.971401928389837
 30
0.0
 10
98.18513161194629
 20
1.968507546353016
 30
0.0
  0
LINE
  5
BE
330
1F
100
AcDbEntity
  8
중심선
 62
     1
100
AcDbLine
 10
-98.21222454189109
 20
-0.0000000000000034
 30
0.0
 11
104.6377754581089
 21
0.0000000000000214
 31
0.0
  0
LINE
  5
BF
330
1F
100
AcDbEntity
  8
치수문자_일반주서
 62
     1
100
AcDbLine
 10
101.6377754581089
 20
0.0000000000000009
 30
0.0
 11
101.6377754581089
 21
2.123657301112659
 31
0.0
  0
LINE
  5
C0
330
1F
100
AcDbEntity
  8
참조1
100
AcDbLine
 10
3.212775458108899
 20
-0.0000000000000031
 30
0.0
 11
3.212775458108903
 21
-40.00000000000001
 31
0.0
  0
LINE
  5
C1
330
1F
100
AcDbEntity
  8
참조1
100
AcDbLine
 10
3.212775458108903
 20
-40.00000000000001
 30
0.0
 11
15.51131864380022
 21
-40.0
 31
0.0
  0
CIRCLE
  5
C2
330
1F
100
AcDbEntity
  8
해칭선
100
AcDbCircle
 10
0.0
 20
-0.0010749287238923
 30
0.0
 40
3.000000000000008
  0
INSERT
  5
C3
330
1F
100
AcDbEntity
  8
0
  6
Continuous
 62
     7
100
AcDbBlockReference
 66
     1
  2
블럭10
 10
-10.72749747401631
 20
-52.04717430164393
 30
0.0
  0
ATTRIB
  5
C4
330
C3
100
AcDbEntity
  8
FORMAT
 62
     2
100
AcDbText
 10
-20.86913348615293
 20
-49.97180738881174
 30
0.0
 40
4.233333333333333
  1
EM979032 [ 4 FLUTE ]
 41
0.75
  7
SLDTEXTSTYLE0
 11
-20.86913348615293
 21
-52.08847405547841
 31
0.0
100
AcDbAttribute
  2
AUTOATTR0
 70
     0
 74
     1
  0
SEQEND
  5
C5
330
C3
100
AcDbEntity
  8
0
  6
Continuous
 62
     7
  0
HATCH
  5
C6
330
1F
100
AcDbEntity
  8
중심선
100
AcDbHatch
 10
0.0
 20
0.0
 30
0.0
210
0.0
220
0.0
230
1.0
  2
SOLID
 70
     1
 71
     0
 91
        1
 92
        0
 93
        4
 72
     1
 10
-5.012588169635471
 20
-35.8
 11
-8.458863413472754
 21
-35.8
 72
     1
 10
-8.458863413472754
 20
-35.8
 11
-10.58709327267678
 21
-38.33632558057259
 72
     1
 10
-10.58709327267678
 20
-38.33632558057259
 11
-7.140784943726345
 21
-38.3362861512701
 72
     1
 10
-7.140784943726345
 20
-38.3362861512701
 11
-5.012588169635471
 21
-35.8
 97
        0
 75
     0
 76
     1
 98
        1
 10
7.75229632409731
 20
0.0000000000000009
  0
HATCH
  5
C7
330
1F
100
AcDbEntity
  8
중심선
100
AcDbHatch
 10
0.0
 20
0.0
 30
0.0
210
0.0
220
0.0
230
1.0
  2
SOLID
 70
     1
 71
     0
 91
        1
 92
        0
 93
        4
 72
     1
 10
0.0001758214004806
 20
-35.8
 11
-3.446099422436802
 21
-35.8
 72
     1
 10
-3.446099422436802
 20
-35.8
 11
-7.97723743079419
 21
-41.20000000000002
 72
     1
 10
-7.97723743079419
 20
-41.20000000000002
 11
-4.530962186956907
 21
-41.20000000000002
 72
     1
 10
-4.530962186956907
 20
-41.20000000000002
 11
0.0001758214004806
 21
-35.8
 97
        0
 75
     0
 76
     1
 98
        1
 10
7.75229632409731
 20
0.0000000000000009
  0
HATCH
  5
C8
330
1F
100
AcDbEntity
  8
중심선
100
AcDbHatch
 10
0.0
 20
0.0
 30
0.0
210
0.0
220
0.0
230
1.0
  2
SOLID
 70
     1
 71
     0
 91
        1
 92
        0
 93
        4
 72
     1
 10
5.012939812436376
 20
-35.8
 11
1.56666456859926
 21
-35.8
 72
     1
 10
1.56666456859926
 20
-35.8
 11
-5.481772333289989
 21
-44.20000000000002
 72
     1
 10
-5.481772333289989
 20
-44.20000000000002
 11
-2.035497089452706
 21
-44.20000000000002
 72
     1
 10
-2.035497089452706
 20
-44.20000000000002
 11
5.012939812436376
 21
-35.8
 97
        0
 75
     0
 76
     1
 98
        1
 10
7.75229632409731
 20
0.0000000000000009
  0
HATCH
  5
C9
330
1F
100
AcDbEntity
  8
중심선
100
AcDbHatch
 10
0.0
 20
0.0
 30
0.0
210
0.0
220
0.0
230
1.0
  2
SOLID
 70
     1
 71
     0
 91
        1
 92
        0
 93
        6
 72
     3
 10
9.812830243448575
 20
-40.00000000005127
 11
3.960054785062283
 21
1.540882976769353E-10
 40
0.3939339440162628
 50
17.09539180608437
 51
320.0019657685086
 73
     0
 72
     1
 10
11.49582989914917
 20
-38.58789400463833
 11
13.80113177285024
 21
-36.65356729459038
 72
     3
 10
9.812830243395728
 20
-40.00000000000015
 11
6.600054785286831
 21
-1.278976924368180E-13
 40
0.6363583540795978
 50
39.99873849337385
 51
368.4976242363725
 73
     1
 72
     1
 10
16.23816273529634
 20
-39.03999999993002
 11
8.492897550231651
 21
-39.03999999992999
 72
     1
 10
8.492897550231651
 20
-39.03999999992999
 11
8.492872505785718
 21
-40.95999999992991
 72
     1
 10
8.492872505785718
 20
-40.95999999992991
 11
12.93425227525776
 21
-40.95999999992988
 97
        0
 75
     0
 76
     1
 98
        1
 10
7.75229632409731
 20
0.0000000000000009
  0
DIMENSION
  5
CA
330
1F
100
AcDbEntity
  8
치수문자_일반주서
100
AcDbDimension
  2
_D
 10
71.47527545810888
 20
22.09511459147406
 30
0.0
 11
86.55652545810891
 21
22.09511459147406
 31
0.0
 70
   160
  1
<>
 71
     2
 42
30.16250000000004
  3
SLDDIMSTYLE0
100
AcDbAlignedDimension
 13
101.6377754581089
 23
2.123657301112664
 33
0.0
 14
71.47527545810888
 24
5.684879012009315
 34
0.0
 50
0.0000000000000067
100
AcDbRotatedDimension
1001
ACAD
1000
DSTYLE
1002
{
1070
   171
1070
     6
1070
   273
1070
     7
1002
}
  0
DIMENSION
  5
DF
330
1F
100
AcDbEntity
  8
치수문자_일반주서
100
AcDbDimension
  2
_D_1
 10
101.6377754581089
 20
39.0799066874058
 30
0.0
 11
51.70797805730286
 21
39.0799066874058
 31
0.0
 70
   160
  1
<>
 71
     2
 42
101.6377754581089
  3
SLDDIMSTYLE0
100
AcDbAlignedDimension
 13
-0.0000000000000142
 23
7.937499999999987
 33
0.0
 14
101.6377754581089
 24
2.123657301112664
 34
0.0
100
AcDbRotatedDimension
1001
ACAD
1000
DSTYLE
1002
{
1070
   171
1070
     6
1070
   273
1070
     7
1002
}
  0
DIMENSION
  5
F2
330
1F
100
AcDbEntity
  8
치수문자_일반주서
100
AcDbDimension
  2
_D_2
 10
-95.21222454189108
 20
51.55667432272148
 30
0.0
 11
3.212775458108881
 21
51.55667432272148
 31
0.0
 70
   160
  1
<>
 71
     2
 42
196.85
  3
SLDDIMSTYLE0
100
AcDbAlignedDimension
 13
101.6377754581089
 23
2.123657301112664
 33
0.0
 14
-95.21222454189108
 24
6.937499999999987
 34
0.0
 50
0.0000000000000041
100
AcDbRotatedDimension
1001
ACAD
1000
DSTYLE
1002
{
1070
   171
1070
     6
1070
   273
1070
     7
1002
}
  0
DIMENSION
  5
105
330
1F
100
AcDbEntity
  8
치수문자_일반주서
100
AcDbDimension
  2
_D_3
 10
-103.358406605783
 20
-7.937500000000036
 30
0.0
 11
-103.3584066057831
 21
0.475024790619984
 31
0.0
 70
   160
  1
%%c<>
 71
     2
 42
15.875
 52
-270.0
  3
SLDDIMSTYLE0
100
AcDbAlignedDimension
 13
-94.21222454189108
 23
7.937499999999997
 33
0.0
 14
-94.21222454189108
 24
-7.937500000000003
 34
0.0
 50
90.0000000000002
100
AcDbRotatedDimension
1001
ACAD
1000
DSTYLE
1002
{
1070
   171
1070
     6
1070
   273
1070
     7
1002
}
  0
DIMENSION
  5
111
330
1F
100
AcDbEntity
  8
치수문자_일반주서
100
AcDbDimension
  2
_D_4
 10
118.2266687415064
 20
6.350000000000197
 30
0.0
 11
118.2266687415064
 21
23.43325000000019
 31
0.0
 70
   160
  1
%%c<>
 71
     2
 42
12.7
 52
-270.0
  3
SLDDIMSTYLE2
100
AcDbAlignedDimension
 13
68.37647545810889
 23
-6.349999999999988
 33
0.0
 14
68.37647545810889
 24
6.350000000000011
 34
0.0
 50
90.0000000000002
100
AcDbRotatedDimension
1001
ACAD
1000
DSTYLE
1002
{
1070
   171
1070
     6
1070
   273
1070
     7
1002
}
  0
LINE
  5
125
330
1F
100
AcDbEntity
  8
참조1
100
AcDbLine
 10
113.4836592734545
 20
7.440000000000003
 30
0.0
 11
113.4836592734545
 21
-7.440000000000001
 31
0.0
  0
LINE
  5
126
330
1F
100
AcDbEntity
  8
참조1
100
AcDbLine
 10
126.1836592734545
 20
5.440000000000003
 30
0.0
 11
113.4836592734545
 21
5.440000000000003
 31
0.0
  0
SOLID
  5
127
330
1F
100
AcDbEntity
  8
참조1
100
AcDbTrace
 10
113.4836592734545
 20
5.440000000000003
 30
0.0
 11
119.8336592734545
 21
4.424000000000003
 31
0.0
 12
119.8336592734545
 22
6.456000000000003
 32
0.0
 13
119.8336592734545
 23
6.456000000000003
 33
0.0
  0
LINE
  5
128
330
1F
100
AcDbEntity
  8
참조1
100
AcDbLine
 10
126.1836592734545
 20
-5.440000000000001
 30
0.0
 11
113.4836592734545
 21
-5.440000000000001
 31
0.0
  0
SOLID
  5
129
330
1F
100
AcDbEntity
  8
참조1
100
AcDbTrace
 10
113.4836592734545
 20
-5.440000000000001
 30
0.0
 11
119.8336592734545
 21
-6.456000000000001
 31
0.0
 12
119.8336592734545
 22
-4.424000000000001
 32
0.0
 13
119.8336592734545
 23
-4.424000000000001
 33
0.0
  0
MTEXT
  5
12A
330
1F
100
AcDbEntity
  8
참조1
100
AcDbMText
 10
122.8811493659248
 20
10.98821664464994
 30
0.0
 40
3.5
 41
0.0
 71
     1
 72
     1
  1
A
  7
SLDTEXTSTYLE0
 73
     1
 44
1.0
  0
MTEXT
  5
12B
330
1F
100
AcDbEntity
  8
참조1
100
AcDbMText
 10
122.8811493659248
 20
0.1082166446499337
 30
0.0
 40
3.5
 41
0.0
 71
     1
 72
     1
  1
A
  7
SLDTEXTSTYLE0
 73
     1
 44
1.0
  0
INSERT
  5
132
330
1F
100
AcDbEntity
  8
해칭선
100
AcDbBlockReference
  2
SW_DOWELSYMBOL_0
 10
0.0
 20
-0.0010749287238923
 30
0.0
  0
ENDSEC
  0
SECTION
  2
OBJECTS
  0
DICTIONARY
  5
C
330
0
100
AcDbDictionary
281
     1
  3
ACAD_GROUP
350
D
  3
ACAD_IMAGE_VARS
350
156
  3
ACAD_LAYOUT
350
1A
  3
ACAD_MLINESTYLE
350
17
  3
ACAD_PLOTSETTINGS
350
19
  3
ACAD_PLOTSTYLENAME
350
E
  3
ACAD_SCALELIST
350
47
  3
APPDATA
350
154
  3
DWGPROPS
350
15A
  0
DICTIONARY
  5
D
102
{ACAD_REACTORS
330
C
102
}
330
C
100
AcDbDictionary
281
     1
  0
RASTERVARIABLES
  5
156
102
{ACAD_REACTORS
330
C
102
}
330
C
100
AcDbRasterVariables
 90
        0
 70
     1
 71
     1
 72
     1
  0
DICTIONARY
  5
1A
102
{ACAD_REACTORS
330
C
102
}
330
C
100
AcDbDictionary
281
     1
  3
Layout1
350
1E
  3
Layout2
350
26
  3
Model
350
22
  0
DICTIONARY
  5
17
102
{ACAD_REACTORS
330
C
102
}
330
C
100
AcDbDictionary
281
     1
  3
Standard
350
18
  0
DICTIONARY
  5
19
102
{ACAD_REACTORS
330
C
102
}
330
C
100
AcDbDictionary
281
     1
  0
ACDBDICTIONARYWDFLT
  5
E
102
{ACAD_REACTORS
330
C
102
}
330
C
100
AcDbDictionary
281
     1
  3
Normal
350
F
100
AcDbDictionaryWithDefault
340
F
  0
DICTIONARY
  5
47
102
{ACAD_REACTORS
330
C
102
}
330
C
100
AcDbDictionary
281
     1
  3
A0
350
48
  3
A1
350
49
  3
A2
350
4A
  3
A3
350
4B
  3
A4
350
4C
  3
A5
350
4D
  3
A6
350
4E
  3
A7
350
4F
  3
A8
350
50
  3
A9
350
51
  3
B0
350
52
  3
B1
350
53
  3
B2
350
54
  3
B3
350
55
  3
B4
350
56
  3
B5
350
57
  3
B6
350
58
  3
B7
350
59
  3
B8
350
5A
  3
B9
350
5B
  3
C0
350
5C
  3
C1
350
5D
  3
C2
350
5E
  3
C3
350
5F
  3
C4
350
60
  3
C5
350
61
  3
C6
350
62
  3
C7
350
63
  3
C8
350
64
  3
C9
350
65
  3
D0
350
66
  3
D1
350
67
  3
D2
350
68
  0
DICTIONARY
  5
154
102
{ACAD_REACTORS
330
C
102
}
330
C
100
AcDbDictionary
281
     1
  0
XRECORD
  5
15A
102
{ACAD_REACTORS
330
C
102
}
330
C
100
AcDbXrecord
280
     1
  1
DWGPROPS COOKIE
  2

  3

  4

  6

  7

  8
12016016
  9

300
=
301
=
302
=
303
=
304
=
305
=
306
=
307
=
308
=
309
=
 40
0.0
 41
2458298.518983114
 42
2458303.005387963
  1

 90
        0
  0
LAYOUT
  5
1E
102
{ACAD_REACTORS
330
1A
102
}
330
1A
100
AcDbPlotSettings
  1

  2
none_device
  4

  6

 40
0.0
 41
0.0
 42
0.0
 43
0.0
 44
0.0
 45
0.0
 46
0.0
 47
0.0
 48
0.0
 49
0.0
140
0.0
141
0.0
142
1.0
143
1.0
 70
   688
 72
     1
 73
     0
 74
     5
  7

 75
    16
147
1.0
148
0.0
149
0.0
100
AcDbLayout
  1
Layout1
 70
     1
 71
     1
 10
0.0
 20
0.0
 11
420.0
 21
297.0
 12
0.0
 22
0.0
 32
0.0
 14
1.000000000000000E+20
 24
1.000000000000000E+20
 34
1.000000000000000E+20
 15
-1.000000000000000E+20
 25
-1.000000000000000E+20
 35
-1.000000000000000E+20
146
0.0
 13
0.0
 23
0.0
 33
0.0
 16
1.0
 26
0.0
 36
0.0
 17
0.0
 27
1.0
 37
0.0
 76
     0
330
1B
  0
LAYOUT
  5
26
102
{ACAD_REACTORS
330
1A
102
}
330
1A
100
AcDbPlotSettings
  1

  2
none_device
  4

  6

 40
0.0
 41
0.0
 42
0.0
 43
0.0
 44
0.0
 45
0.0
 46
0.0
 47
0.0
 48
0.0
 49
0.0
140
0.0
141
0.0
142
1.0
143
1.0
 70
   688
 72
     1
 73
     0
 74
     5
  7

 75
    16
147
1.0
148
0.0
149
0.0
100
AcDbLayout
  1
Layout2
 70
     1
 71
     2
 10
0.0
 20
0.0
 11
0.0
 21
0.0
 12
0.0
 22
0.0
 32
0.0
 14
0.0
 24
0.0
 34
0.0
 15
0.0
 25
0.0
 35
0.0
146
0.0
 13
0.0
 23
0.0
 33
0.0
 16
1.0
 26
0.0
 36
0.0
 17
0.0
 27
1.0
 37
0.0
 76
     0
330
23
  0
LAYOUT
  5
22
102
{ACAD_REACTORS
330
1A
102
}
330
1A
100
AcDbPlotSettings
  1

  2
none_device
  4
ANSI_A_(11.00_x_8.50_Inches)
  6

 40
6.35
 41
19.05
 42
6.35000508
 43
19.05000254
 44
279.4
 45
215.9
 46
125.6662484030209
 47
84.39013676135035
 48
0.0
 49
0.0
140
0.0
141
0.0
142
0.048530301959377
143
1.0
 70
  1696
 72
     0
 73
     0
 74
     0
  7

 75
     0
147
0.0235690232323232
148
0.0
149
0.0
100
AcDbLayout
  1
Model
 70
     1
 71
     0
 10
0.0
 20
0.0
 11
420.0
 21
297.0
 12
0.0
 22
0.0
 32
0.0
 14
-107.7334066057831
 24
-49.97180738881175
 34
0.0
 15
126.1836592734545
 25
55.93167432272148
 35
0.0
146
0.0
 13
0.0
 23
0.0
 33
0.0
 16
1.0
 26
0.0
 36
0.0
 17
0.0
 27
1.0
 37
0.0
 76
     0
330
1F
331
29
  0
MLINESTYLE
  5
18
102
{ACAD_REACTORS
330
17
102
}
330
17
100
AcDbMlineStyle
  2
Standard
 70
     0
  3

 62
   256
 51
90.0
 52
90.0
 71
     2
 49
0.5
 62
   256
  6
BYLAYER
 49
-0.5
 62
   256
  6
BYLAYER
  0
ACDBPLACEHOLDER
  5
F
102
{ACAD_REACTORS
330
E
102
}
330
E
  0
SCALE
  5
48
102
{ACAD_REACTORS
330
47
102
}
330
47
100
AcDbScale
 70
     0
300
1:1
140
1.0
141
1.0
290
     1
  0
SCALE
  5
49
102
{ACAD_REACTORS
330
47
102
}
330
47
100
AcDbScale
 70
     0
300
1:2
140
1.0
141
2.0
290
     0
  0
SCALE
  5
4A
102
{ACAD_REACTORS
330
47
102
}
330
47
100
AcDbScale
 70
     0
300
1:4
140
1.0
141
4.0
290
     0
  0
SCALE
  5
4B
102
{ACAD_REACTORS
330
47
102
}
330
47
100
AcDbScale
 70
     0
300
1:5
140
1.0
141
5.0
290
     0
  0
SCALE
  5
4C
102
{ACAD_REACTORS
330
47
102
}
330
47
100
AcDbScale
 70
     0
300
1:8
140
1.0
141
8.0
290
     0
  0
SCALE
  5
4D
102
{ACAD_REACTORS
330
47
102
}
330
47
100
AcDbScale
 70
     0
300
1:10
140
1.0
141
10.0
290
     0
  0
SCALE
  5
4E
102
{ACAD_REACTORS
330
47
102
}
330
47
100
AcDbScale
 70
     0
300
1:16
140
1.0
141
16.0
290
     0
  0
SCALE
  5
4F
102
{ACAD_REACTORS
330
47
102
}
330
47
100
AcDbScale
 70
     0
300
1:20
140
1.0
141
20.0
290
     0
  0
SCALE
  5
50
102
{ACAD_REACTORS
330
47
102
}
330
47
100
AcDbScale
 70
     0
300
1:30
140
1.0
141
30.0
290
     0
  0
SCALE
  5
51
102
{ACAD_REACTORS
330
47
102
}
330
47
100
AcDbScale
 70
     0
300
1:40
140
1.0
141
40.0
290
     0
  0
SCALE
  5
52
102
{ACAD_REACTORS
330
47
102
}
330
47
100
AcDbScale
 70
     0
300
1:50
140
1.0
141
50.0
290
     0
  0
SCALE
  5
53
102
{ACAD_REACTORS
330
47
102
}
330
47
100
AcDbScale
 70
     0
300
1:100
140
1.0
141
100.0
290
     0
  0
SCALE
  5
54
102
{ACAD_REACTORS
330
47
102
}
330
47
100
AcDbScale
 70
     0
300
2:1
140
2.0
141
1.0
290
     0
  0
SCALE
  5
55
102
{ACAD_REACTORS
330
47
102
}
330
47
100
AcDbScale
 70
     0
300
4:1
140
4.0
141
1.0
290
     0
  0
SCALE
  5
56
102
{ACAD_REACTORS
330
47
102
}
330
47
100
AcDbScale
 70
     0
300
8:1
140
8.0
141
1.0
290
     0
  0
SCALE
  5
57
102
{ACAD_REACTORS
330
47
102
}
330
47
100
AcDbScale
 70
     0
300
10:1
140
10.0
141
1.0
290
     0
  0
SCALE
  5
58
102
{ACAD_REACTORS
330
47
102
}
330
47
100
AcDbScale
 70
     0
300
100:1
140
100.0
141
1.0
290
     0
  0
SCALE
  5
59
102
{ACAD_REACTORS
330
47
102
}
330
47
100
AcDbScale
 70
     0
300
1/128" = 1'-0"
140
0.0078125
141
12.0
290
     0
  0
SCALE
  5
5A
102
{ACAD_REACTORS
330
47
102
}
330
47
100
AcDbScale
 70
     0
300
1/64" = 1'-0"
140
0.015625
141
12.0
290
     0
  0
SCALE
  5
5B
102
{ACAD_REACTORS
330
47
102
}
330
47
100
AcDbScale
 70
     0
300
1/32" = 1'-0"
140
0.03125
141
12.0
290
     0
  0
SCALE
  5
5C
102
{ACAD_REACTORS
330
47
102
}
330
47
100
AcDbScale
 70
     0
300
1/16" = 1'-0"
140
0.0625
141
12.0
290
     0
  0
SCALE
  5
5D
102
{ACAD_REACTORS
330
47
102
}
330
47
100
AcDbScale
 70
     0
300
3/32" = 1'-0"
140
0.09375
141
12.0
290
     0
  0
SCALE
  5
5E
102
{ACAD_REACTORS
330
47
102
}
330
47
100
AcDbScale
 70
     0
300
1/8" = 1'-0"
140
0.125
141
12.0
290
     0
  0
SCALE
  5
5F
102
{ACAD_REACTORS
330
47
102
}
330
47
100
AcDbScale
 70
     0
300
3/16" = 1'-0"
140
0.1875
141
12.0
290
     0
  0
SCALE
  5
60
102
{ACAD_REACTORS
330
47
102
}
330
47
100
AcDbScale
 70
     0
300
1/4" = 1'-0"
140
0.25
141
12.0
290
     0
  0
SCALE
  5
61
102
{ACAD_REACTORS
330
47
102
}
330
47
100
AcDbScale
 70
     0
300
3/8" = 1'-0"
140
0.375
141
12.0
290
     0
  0
SCALE
  5
62
102
{ACAD_REACTORS
330
47
102
}
330
47
100
AcDbScale
 70
     0
300
1/2" = 1'-0"
140
0.5
141
12.0
290
     0
  0
SCALE
  5
63
102
{ACAD_REACTORS
330
47
102
}
330
47
100
AcDbScale
 70
     0
300
3/4" = 1'-0"
140
0.75
141
12.0
290
     0
  0
SCALE
  5
64
102
{ACAD_REACTORS
330
47
102
}
330
47
100
AcDbScale
 70
     0
300
1" = 1'-0"
140
1.0
141
12.0
290
     0
  0
SCALE
  5
65
102
{ACAD_REACTORS
330
47
102
}
330
47
100
AcDbScale
 70
     0
300
1-1/2" = 1'-0"
140
1.5
141
12.0
290
     0
  0
SCALE
  5
66
102
{ACAD_REACTORS
330
47
102
}
330
47
100
AcDbScale
 70
     0
300
3" = 1'-0"
140
3.0
141
12.0
290
     0
  0
SCALE
  5
67
102
{ACAD_REACTORS
330
47
102
}
330
47
100
AcDbScale
 70
     0
300
6" = 1'-0"
140
6.0
141
12.0
290
     0
  0
SCALE
  5
68
102
{ACAD_REACTORS
330
47
102
}
330
47
100
AcDbScale
 70
     0
300
1'-0" = 1'-0"
140
12.0
141
12.0
290
     0
  0
ENDSEC
  0
EOF
