  0
SECTION
  2
HEADER
  9
$ACADVER
  1
AC1015
  9
$ACADMAINTVER
 70
     6
  9
$DWGCODEPAGE
  3
ANSI_949
  9
$INSBASE
 10
0.0
 20
0.0
 30
0.0
  9
$EXTMIN
 10
-77.6764002519704
 20
-49.97180738881175
 30
0.0
  9
$EXTMAX
 10
109.7664774636985
 20
55.93167432272148
 30
0.0
  9
$LIMMIN
 10
0.0
 20
0.0
  9
$LIMMAX
 10
420.0
 20
297.0
  9
$ORTHOMODE
 70
     0
  9
$REGENMODE
 70
     1
  9
$FILLMODE
 70
     1
  9
$QTEXTMODE
 70
     0
  9
$MIRRTEXT
 70
     1
  9
$LTSCALE
 40
1.0
  9
$ATTMODE
 70
     1
  9
$TEXTSIZE
 40
3.5
  9
$TRACEWID
 40
1.0
  9
$TEXTSTYLE
  7
Standard
  9
$CLAYER
  8
0
  9
$CELTYPE
  6
ByLayer
  9
$CECOLOR
 62
   256
  9
$CELTSCALE
 40
1.0
  9
$DISPSILH
 70
     0
  9
$DIMSCALE
 40
1.0
  9
$DIMASZ
 40
3.302
  9
$DIMEXO
 40
1.0
  9
$DIMDLI
 40
3.75
  9
$DIMRND
 40
0.0
  9
$DIMDLE
 40
0.0
  9
$DIMEXE
 40
1.0
  9
$DIMTP
 40
0.0
  9
$DIMTM
 40
0.0
  9
$DIMTXT
 40
3.5
  9
$DIMCEN
 40
2.5
  9
$DIMTSZ
 40
0.0
  9
$DIMTOL
 70
     0
  9
$DIMLIM
 70
     0
  9
$DIMTIH
 70
     1
  9
$DIMTOH
 70
     1
  9
$DIMSE1
 70
     0
  9
$DIMSE2
 70
     0
  9
$DIMTAD
 70
     1
  9
$DIMZIN
 70
     0
  9
$DIMBLK
  1

  9
$DIMASO
 70
     1
  9
$DIMSHO
 70
     1
  9
$DIMPOST
  1

  9
$DIMAPOST
  1

  9
$DIMALT
 70
     0
  9
$DIMALTD
 70
     3
  9
$DIMALTF
 40
0.0393700787401575
  9
$DIMLFAC
 40
1.0
  9
$DIMTOFL
 70
     1
  9
$DIMTVP
 40
0.0
  9
$DIMTIX
 70
     0
  9
$DIMSOXD
 70
     0
  9
$DIMSAH
 70
     0
  9
$DIMBLK1
  1

  9
$DIMBLK2
  1

  9
$DIMSTYLE
  2
ISO-25
  9
$DIMCLRD
 70
     0
  9
$DIMCLRE
 70
     0
  9
$DIMCLRT
 70
     0
  9
$DIMTFAC
 40
1.0
  9
$DIMGAP
 40
1.524
  9
$DIMJUST
 70
     0
  9
$DIMSD1
 70
     0
  9
$DIMSD2
 70
     0
  9
$DIMTOLJ
 70
     0
  9
$DIMTZIN
 70
     0
  9
$DIMALTZ
 70
     0
  9
$DIMALTTZ
 70
     0
  9
$DIMUPT
 70
     0
  9
$DIMDEC
 70
     2
  9
$DIMTDEC
 70
     2
  9
$DIMALTU
 70
     2
  9
$DIMALTTD
 70
     3
  9
$DIMTXSTY
  7
Standard
  9
$DIMAUNIT
 70
     0
  9
$DIMADEC
 70
     2
  9
$DIMALTRND
 40
0.0
  9
$DIMAZIN
 70
     0
  9
$DIMDSEP
 70
    44
  9
$DIMATFIT
 70
     3
  9
$DIMFRAC
 70
     0
  9
$DIMLDRBLK
  1

  9
$DIMLUNIT
 70
     2
  9
$DIMLWD
 70
    -2
  9
$DIMLWE
 70
    -2
  9
$DIMTMOVE
 70
     0
  9
$LUNITS
 70
     2
  9
$LUPREC
 70
     2
  9
$SKETCHINC
 40
1.0
  9
$FILLETRAD
 40
10.0
  9
$AUNITS
 70
     0
  9
$AUPREC
 70
     2
  9
$MENU
  1
.
  9
$ELEVATION
 40
0.0
  9
$PELEVATION
 40
0.0
  9
$THICKNESS
 40
0.0
  9
$LIMCHECK
 70
     0
  9
$CHAMFERA
 40
0.0
  9
$CHAMFERB
 40
0.0
  9
$CHAMFERC
 40
0.0
  9
$CHAMFERD
 40
0.0
  9
$SKPOLY
 70
     0
  9
$TDCREATE
 40
2458298.895269572
  9
$TDUCREATE
 40
2458298.520269572
  9
$TDUPDATE
 40
2458303.376238958
  9
$TDUUPDATE
 40
2458303.001238958
  9
$TDINDWG
 40
0.0042602199
  9
$TDUSRTIMER
 40
2458302.996978924
  9
$USRTIMER
 70
     1
  9
$ANGBASE
 50
0.0
  9
$ANGDIR
 70
     0
  9
$PDMODE
 70
     0
  9
$PDSIZE
 40
-1.0
  9
$PLINEWID
 40
0.0
  9
$SPLFRAME
 70
     0
  9
$SPLINETYPE
 70
     6
  9
$SPLINESEGS
 70
     8
  9
$HANDSEED
  5
15E
  9
$SURFTAB1
 70
     6
  9
$SURFTAB2
 70
     6
  9
$SURFTYPE
 70
     6
  9
$SURFU
 70
     6
  9
$SURFV
 70
     6
  9
$UCSBASE
  2

  9
$UCSNAME
  2

  9
$UCSORG
 10
0.0
 20
0.0
 30
0.0
  9
$UCSXDIR
 10
1.0
 20
0.0
 30
0.0
  9
$UCSYDIR
 10
0.0
 20
1.0
 30
0.0
  9
$UCSORTHOREF
  2

  9
$UCSORTHOVIEW
 70
     0
  9
$UCSORGTOP
 10
0.0
 20
0.0
 30
0.0
  9
$UCSORGBOTTOM
 10
0.0
 20
0.0
 30
0.0
  9
$UCSORGLEFT
 10
0.0
 20
0.0
 30
0.0
  9
$UCSORGRIGHT
 10
0.0
 20
0.0
 30
0.0
  9
$UCSORGFRONT
 10
0.0
 20
0.0
 30
0.0
  9
$UCSORGBACK
 10
0.0
 20
0.0
 30
0.0
  9
$PUCSBASE
  2

  9
$PUCSNAME
  2

  9
$PUCSORG
 10
0.0
 20
0.0
 30
0.0
  9
$PUCSXDIR
 10
1.0
 20
0.0
 30
0.0
  9
$PUCSYDIR
 10
0.0
 20
1.0
 30
0.0
  9
$PUCSORTHOREF
  2

  9
$PUCSORTHOVIEW
 70
     0
  9
$PUCSORGTOP
 10
0.0
 20
0.0
 30
0.0
  9
$PUCSORGBOTTOM
 10
0.0
 20
0.0
 30
0.0
  9
$PUCSORGLEFT
 10
0.0
 20
0.0
 30
0.0
  9
$PUCSORGRIGHT
 10
0.0
 20
0.0
 30
0.0
  9
$PUCSORGFRONT
 10
0.0
 20
0.0
 30
0.0
  9
$PUCSORGBACK
 10
0.0
 20
0.0
 30
0.0
  9
$USERI1
 70
     0
  9
$USERI2
 70
     0
  9
$USERI3
 70
     0
  9
$USERI4
 70
     0
  9
$USERI5
 70
     0
  9
$USERR1
 40
0.0
  9
$USERR2
 40
0.0
  9
$USERR3
 40
0.0
  9
$USERR4
 40
0.0
  9
$USERR5
 40
0.0
  9
$WORLDVIEW
 70
     1
  9
$SHADEDGE
 70
     3
  9
$SHADEDIF
 70
    70
  9
$TILEMODE
 70
     1
  9
$MAXACTVP
 70
    64
  9
$PINSBASE
 10
0.0
 20
0.0
 30
0.0
  9
$PLIMCHECK
 70
     0
  9
$PEXTMIN
 10
1.000000000000000E+20
 20
1.000000000000000E+20
 30
1.000000000000000E+20
  9
$PEXTMAX
 10
-1.000000000000000E+20
 20
-1.000000000000000E+20
 30
-1.000000000000000E+20
  9
$PLIMMIN
 10
0.0
 20
0.0
  9
$PLIMMAX
 10
0.0
 20
0.0
  9
$UNITMODE
 70
     0
  9
$VISRETAIN
 70
     1
  9
$PLINEGEN
 70
     0
  9
$PSLTSCALE
 70
     1
  9
$TREEDEPTH
 70
  3020
  9
$CMLSTYLE
  2
Standard
  9
$CMLJUST
 70
     0
  9
$CMLSCALE
 40
20.0
  9
$PROXYGRAPHICS
 70
     1
  9
$MEASUREMENT
 70
     1
  9
$CELWEIGHT
370
    -1
  9
$ENDCAPS
280
     0
  9
$JOINSTYLE
280
     0
  9
$LWDISPLAY
290
     1
  9
$INSUNITS
 70
     4
  9
$HYPERLINKBASE
  1

  9
$STYLESHEET
  1

  9
$XEDIT
290
     1
  9
$CEPSNTYPE
380
     0
  9
$PSTYLEMODE
290
     1
  9
$FINGERPRINTGUID
  2
{D54339DA-987D-4A99-8BAF-0A7ACA579FA1}
  9
$VERSIONGUID
  2
{FAEB1C32-E019-11D5-929B-00C0DF256EC4}
  9
$EXTNAMES
290
     1
  9
$PSVPSCALE
 40
0.0
  9
$OLESTARTUP
290
     0
  0
ENDSEC
  0
SECTION
  2
CLASSES
  0
CLASS
  1
ACDBDICTIONARYWDFLT
  2
AcDbDictionaryWithDefault
  3
ObjectDBX Classes
 90
        0
280
     0
281
     0
  0
CLASS
  1
VISUALSTYLE
  2
AcDbVisualStyle
  3
ObjectDBX Classes
 90
     4095
280
     0
281
     0
  0
CLASS
  1
MATERIAL
  2
AcDbMaterial
  3
ObjectDBX Classes
 90
     1153
280
     0
281
     0
  0
CLASS
  1
SCALE
  2
AcDbScale
  3
ObjectDBX Classes
 90
     1153
280
     0
281
     0
  0
CLASS
  1
SUN
  2
AcDbSun
  3
SCENEOE
 90
     1153
280
     0
281
     0
  0
CLASS
  1
ACDBPLACEHOLDER
  2
AcDbPlaceHolder
  3
ObjectDBX Classes
 90
        0
280
     0
281
     0
  0
CLASS
  1
LAYOUT
  2
AcDbLayout
  3
ObjectDBX Classes
 90
        0
280
     0
281
     0
  0
CLASS
  1
TABLESTYLE
  2
AcDbTableStyle
  3
ObjectDBX Classes
 90
     4095
280
     0
281
     0
  0
CLASS
  1
MLEADERSTYLE
  2
AcDbMLeaderStyle
  3
ACDB_MLEADERSTYLE_CLASS
 90
     4095
280
     0
281
     0
  0
CLASS
  1
RASTERVARIABLES
  2
AcDbRasterVariables
  3
ISM
 90
        0
280
     0
281
     0
  0
ENDSEC
  0
SECTION
  2
TABLES
  0
TABLE
  2
VPORT
  5
8
330
0
100
AcDbSymbolTable
 70
     1
  0
VPORT
  5
29
330
8
100
AcDbSymbolTableRecord
100
AcDbViewportTableRecord
  2
*Active
 70
     0
 10
0.0
 20
0.0
 11
1.0
 21
1.0
 12
39.69947567950751
 22
15.56783804239062
 13
0.0
 23
0.0
 14
10.0
 24
10.0
 15
10.0
 25
10.0
 16
0.0
 26
0.0
 36
1.0
 17
0.0
 27
0.0
 37
0.0
 40
276.5254572280974
 41
1.292917166866747
 42
50.0
 43
0.0
 44
0.0
 50
0.0
 51
0.0
 71
    16
 72
  2000
 73
     1
 74
     3
 75
     0
 76
     0
 77
     0
 78
     0
281
     0
 65
     1
110
0.0
120
0.0
130
0.0
111
1.0
121
0.0
131
0.0
112
0.0
122
1.0
132
0.0
 79
     0
146
0.0
  0
ENDTAB
  0
TABLE
  2
LTYPE
  5
5
330
0
100
AcDbSymbolTable
 70
     6
  0
LTYPE
  5
14
330
5
100
AcDbSymbolTableRecord
100
AcDbLinetypeTableRecord
  2
ByBlock
 70
     0
  3

 72
    65
 73
     0
 40
0.0
  0
LTYPE
  5
15
330
5
100
AcDbSymbolTableRecord
100
AcDbLinetypeTableRecord
  2
ByLayer
 70
     0
  3

 72
    65
 73
     0
 40
0.0
  0
LTYPE
  5
16
330
5
100
AcDbSymbolTableRecord
100
AcDbLinetypeTableRecord
  2
Continuous
 70
     0
  3
Solid line
 72
    65
 73
     0
 40
0.0
  0
LTYPE
  5
6A
330
5
100
AcDbSymbolTableRecord
100
AcDbLinetypeTableRecord
  2
HIDDEN
 70
     0
  3
Hidden __ __ __ __ __ __ __ __ __ __ __ __ __ __
 72
    65
 73
     2
 40
1.905
 49
1.27
 74
     0
 49
-0.635
 74
     0
  0
LTYPE
  5
6B
330
5
100
AcDbSymbolTableRecord
100
AcDbLinetypeTableRecord
  2
PHANTOM
 70
     0
  3
Phantom ______  __  __  ______  __  __  ______
 72
    65
 73
     6
 40
12.7
 49
6.35
 74
     0
 49
-1.27
 74
     0
 49
1.27
 74
     0
 49
-1.27
 74
     0
 49
1.27
 74
     0
 49
-1.27
 74
     0
  0
LTYPE
  5
6C
330
5
100
AcDbSymbolTableRecord
100
AcDbLinetypeTableRecord
  2
CENTER
 70
     0
  3
Center ____ _ ____ _ ____ _ ____ _ ____ _ ____
 72
    65
 73
     4
 40
10.16
 49
6.35
 74
     0
 49
-1.27
 74
     0
 49
1.27
 74
     0
 49
-1.27
 74
     0
  0
LTYPE
  5
6D
330
5
100
AcDbSymbolTableRecord
100
AcDbLinetypeTableRecord
  2
CENTERX2
 70
     0
  3
Center (2x) ________  __  ________  __  _____
 72
    65
 73
     4
 40
20.32
 49
12.7
 74
     0
 49
-2.54
 74
     0
 49
2.54
 74
     0
 49
-2.54
 74
     0
  0
LTYPE
  5
6E
330
5
100
AcDbSymbolTableRecord
100
AcDbLinetypeTableRecord
  2
DOT2
 70
     0
  3
Dot (.5x) ........................................
 72
    65
 73
     2
 40
0.635
 49
0.0
 74
     0
 49
-0.635
 74
     0
  0
ENDTAB
  0
TABLE
  2
LAYER
  5
2
330
0
100
AcDbSymbolTable
 70
    18
  0
LAYER
  5
10
330
2
100
AcDbSymbolTableRecord
100
AcDbLayerTableRecord
  2
0
 70
     0
 62
     7
  6
Continuous
370
    -3
390
F
  0
LAYER
  5
6F
330
2
100
AcDbSymbolTableRecord
100
AcDbLayerTableRecord
  2
FORMAT
 70
     0
 62
     2
  6
Continuous
370
    -3
390
F
  0
LAYER
  5
70
330
2
100
AcDbSymbolTableRecord
100
AcDbLayerTableRecord
  2
외형선
 70
     0
 62
     4
  6
Continuous
370
    30
390
F
  0
LAYER
  5
71
330
2
100
AcDbSymbolTableRecord
100
AcDbLayerTableRecord
  2
숨은선
 70
     0
 62
     2
  6
HIDDEN
370
    15
390
F
  0
LAYER
  5
72
330
2
100
AcDbSymbolTableRecord
100
AcDbLayerTableRecord
  2
중심선
 70
     0
 62
     1
  6
CENTERX2
370
    -3
390
F
  0
LAYER
  5
73
330
2
100
AcDbSymbolTableRecord
100
AcDbLayerTableRecord
  2
파단선
 70
     0
 62
     4
  6
Continuous
370
    -3
390
F
  0
LAYER
  5
74
330
2
100
AcDbSymbolTableRecord
100
AcDbLayerTableRecord
  2
해칭선
 70
     0
 62
   100
  6
Continuous
370
    -3
390
F
  0
LAYER
  5
75
330
2
100
AcDbSymbolTableRecord
100
AcDbLayerTableRecord
  2
가는실선
 70
     0
 62
     4
  6
Continuous
370
    -3
390
F
  0
LAYER
  5
76
330
2
100
AcDbSymbolTableRecord
100
AcDbLayerTableRecord
  2
치수_보조선
 70
     0
 62
     4
  6
Continuous
370
    -3
390
F
  0
LAYER
  5
77
330
2
100
AcDbSymbolTableRecord
100
AcDbLayerTableRecord
  2
치수문자_일반주서
 70
     0
 62
     7
  6
Continuous
370
    15
390
F
  0
LAYER
  5
78
330
2
100
AcDbSymbolTableRecord
100
AcDbLayerTableRecord
  2
개별주서
 70
     0
 62
   100
  6
Continuous
370
    30
390
F
  0
LAYER
  5
79
330
2
100
AcDbSymbolTableRecord
100
AcDbLayerTableRecord
  2
중간선
 70
     0
 62
     2
  6
Continuous
370
    15
390
F
  0
LAYER
  5
7A
330
2
100
AcDbSymbolTableRecord
100
AcDbLayerTableRecord
  2
윤곽선
 70
     0
 62
     3
  6
Continuous
370
    40
390
F
  0
LAYER
  5
7B
330
2
100
AcDbSymbolTableRecord
100
AcDbLayerTableRecord
  2
중심마크
 70
     0
 62
   100
  6
Continuous
370
    30
390
F
  0
LAYER
  5
7C
330
2
100
AcDbSymbolTableRecord
100
AcDbLayerTableRecord
  2
가상선
 70
     0
 62
     4
  6
PHANTOM
370
    -3
390
F
  0
LAYER
  5
7D
330
2
100
AcDbSymbolTableRecord
100
AcDbLayerTableRecord
  2
특수지정선
 70
     0
 62
     5
  6
CENTERX2
370
    60
390
F
  0
LAYER
  5
7E
330
2
100
AcDbSymbolTableRecord
100
AcDbLayerTableRecord
  2
참조1
 70
     0
 62
    -4
  6
Continuous
370
    -3
390
F
  0
LAYER
  5
157
330
2
100
AcDbSymbolTableRecord
100
AcDbLayerTableRecord
  2
Defpoints
 70
     0
 62
     7
  6
Continuous
290
     0
370
    -3
390
F
  0
ENDTAB
  0
TABLE
  2
STYLE
  5
3
330
0
100
AcDbSymbolTable
 70
     2
  0
STYLE
  5
11
330
3
100
AcDbSymbolTableRecord
100
AcDbTextStyleTableRecord
  2
Standard
 70
     0
 40
0.0
 41
1.0
 50
0.0
 71
     0
 42
3.5
  3
txt
  4

  0
STYLE
  5
94
330
3
100
AcDbSymbolTableRecord
100
AcDbTextStyleTableRecord
  2
SLDTEXTSTYLE0
 70
     0
 40
0.0
 41
0.75
 50
0.0
 71
     0
 42
3.5
  3
TXT
  4

  0
ENDTAB
  0
TABLE
  2
VIEW
  5
6
330
0
100
AcDbSymbolTable
 70
     0
  0
ENDTAB
  0
TABLE
  2
UCS
  5
7
330
0
100
AcDbSymbolTable
 70
     0
  0
ENDTAB
  0
TABLE
  2
APPID
  5
9
330
0
100
AcDbSymbolTable
 70
     1
  0
APPID
  5
12
330
9
100
AcDbSymbolTableRecord
100
AcDbRegAppTableRecord
  2
ACAD
 70
     0
  0
ENDTAB
  0
TABLE
  2
DIMSTYLE
  5
A
330
0
100
AcDbSymbolTable
 70
     4
100
AcDbDimStyleTable
  0
DIMSTYLE
105
27
330
A
100
AcDbSymbolTableRecord
100
AcDbDimStyleTableRecord
  2
ISO-25
 70
     0
 41
2.5
 42
0.625
 43
3.75
 44
1.25
 73
     0
 74
     0
 77
     1
 78
     8
140
2.5
141
2.5
143
0.03937007874016
147
0.625
171
     3
172
     1
178
     0
271
     2
272
     2
274
     3
278
    44
283
     0
284
     8
340
11
  0
DIMSTYLE
105
CB
102
{ACAD_REACTORS
330
CA
102
}
330
A
100
AcDbSymbolTableRecord
100
AcDbDimStyleTableRecord
  2
SLDDIMSTYLE0
 70
     0
 41
3.302
 44
0.0
 45
0.000000001
 73
     0
 74
     0
 77
     1
 78
    12
 79
     3
140
3.5
143
0.0393700787401575
147
0.875
148
0.000000001
170
     1
173
     1
178
     0
271
     2
272
     2
276
     2
284
    12
340
94
  0
DIMSTYLE
105
E0
102
{ACAD_REACTORS
330
DF
330
F3
330
112
330
106
102
}
330
A
100
AcDbSymbolTableRecord
100
AcDbDimStyleTableRecord
  2
SLDDIMSTYLE1
 70
     0
 41
3.302
 44
0.0
 45
0.000000001
 73
     0
 74
     0
 77
     1
 78
     4
 79
     1
140
3.5
143
0.0393700787401575
147
0.875
148
0.000000001
170
     1
173
     1
178
     0
271
     2
272
     2
276
     2
284
    12
340
94
  0
DIMSTYLE
105
107
330
A
100
AcDbSymbolTableRecord
100
AcDbDimStyleTableRecord
  2
SLDDIMSTYLE2
 70
     0
 41
3.302
 44
0.0
 45
0.000000001
 73
     0
 74
     0
 77
     1
 78
    12
 79
     3
140
3.5
147
0.875
172
     1
173
     1
178
     0
271
     2
272
     2
276
     2
284
    12
289
     0
340
94
  0
ENDTAB
  0
TABLE
  2
BLOCK_RECORD
  5
1
330
0
100
AcDbSymbolTable
 70
     8
  0
BLOCK_RECORD
  5
1F
330
1
100
AcDbSymbolTableRecord
100
AcDbBlockTableRecord
  2
*Model_Space
340
22
  0
BLOCK_RECORD
  5
1B
330
1
100
AcDbSymbolTableRecord
100
AcDbBlockTableRecord
  2
*Paper_Space
340
1E
  0
BLOCK_RECORD
  5
23
330
1
100
AcDbSymbolTableRecord
100
AcDbBlockTableRecord
  2
*Paper_Space0
340
26
  0
BLOCK_RECORD
  5
7F
330
1
100
AcDbSymbolTableRecord
100
AcDbBlockTableRecord
  2
블럭10
340
0
102
{BLKREFS
331
C3
102
}
  0
BLOCK_RECORD
  5
CC
330
1
100
AcDbSymbolTableRecord
100
AcDbBlockTableRecord
  2
_D
340
0
  0
BLOCK_RECORD
  5
E1
330
1
100
AcDbSymbolTableRecord
100
AcDbBlockTableRecord
  2
_D_1
340
0
  0
BLOCK_RECORD
  5
F4
330
1
100
AcDbSymbolTableRecord
100
AcDbBlockTableRecord
  2
_D_2
340
0
  0
BLOCK_RECORD
  5
108
330
1
100
AcDbSymbolTableRecord
100
AcDbBlockTableRecord
  2
_D_3
340
0
  0
BLOCK_RECORD
  5
113
330
1
100
AcDbSymbolTableRecord
100
AcDbBlockTableRecord
  2
_D_4
340
0
  0
BLOCK_RECORD
  5
12C
330
1
100
AcDbSymbolTableRecord
100
AcDbBlockTableRecord
  2
SW_DOWELSYMBOL_0
340
0
102
{BLKREFS
331
132
102
}
  0
ENDTAB
  0
ENDSEC
  0
SECTION
  2
BLOCKS
  0
BLOCK
  5
20
330
1F
100
AcDbEntity
  8
0
100
AcDbBlockBegin
  2
*Model_Space
 70
     0
 10
0.0
 20
0.0
 30
0.0
  3
*Model_Space
  1
*Model_Space
  0
ENDBLK
  5
21
330
1F
100
AcDbEntity
  8
0
100
AcDbBlockEnd
  0
BLOCK
  5
1C
330
1B
100
AcDbEntity
 67
     1
  8
0
100
AcDbBlockBegin
  2
*Paper_Space
 70
     0
 10
0.0
 20
0.0
 30
0.0
  3
*Paper_Space
  1
*Paper_Space
  0
ENDBLK
  5
1D
330
1B
100
AcDbEntity
 67
     1
  8
0
100
AcDbBlockEnd
  0
BLOCK
  5
24
330
23
100
AcDbEntity
  8
0
100
AcDbBlockBegin
  2
*Paper_Space0
 70
     0
 10
0.0
 20
0.0
 30
0.0
  3
*Paper_Space0
  1
*Paper_Space0
  0
ENDBLK
  5
25
330
23
100
AcDbEntity
  8
0
100
AcDbBlockEnd
  0
BLOCK
  5
80
330
7F
100
AcDbEntity
  8
0
100
AcDbBlockBegin
  2
블럭10
 70
     2
 10
0.0
 20
0.0
 30
0.0
  3
블럭10
  1
블럭10
  0
ELLIPSE
  5
82
330
7F
100
AcDbEntity
  8
중심선
100
AcDbEllipse
 10
20.54032771741204
 20
12.0471743016438
 30
0.0
 11
6.600054785286829
 21
-1.261213355974178E-13
 31
0.0
210
0.0
220
0.0
230
1.0
 40
0.636358354079598
 41
0.9219305317359503
 42
6.513795318482858
  0
ELLIPSE
  5
83
330
7F
100
AcDbEntity
  8
중심선
100
AcDbEllipse
 10
20.54032771746488
 20
12.04717430159265
 30
0.0
 11
3.960054785062283
 21
1.540847449632565E-10
 31
0.0
210
0.0
220
0.0
230
1.0
 40
0.3939339440162632
 41
1.131841032648279
 42
5.62031148352944
  0
LINE
  5
84
330
7F
100
AcDbEntity
  8
중심선
100
AcDbLine
 10
2.268634060543552
 20
16.24717430164393
 30
0.0
 11
5.714909304380834
 21
16.24717430164393
 31
0.0
  0
LINE
  5
85
330
7F
100
AcDbEntity
  8
중심선
100
AcDbLine
 10
5.245725140726316
 20
7.84717430164391
 30
0.0
 11
8.692000384563599
 21
7.84717430164391
 31
0.0
  0
LINE
  5
86
330
7F
100
AcDbEntity
  8
중심선
100
AcDbLine
 10
15.74043728645272
 20
16.24717430164393
 30
0.0
 11
8.692000384563599
 21
7.84717430164391
 31
0.0
  0
LINE
  5
87
330
7F
100
AcDbEntity
  8
중심선
100
AcDbLine
 10
0.1404042013395286
 20
13.71084872107135
 30
0.0
 11
3.58671253028996
 21
13.71088815037384
 31
0.0
  0
LINE
  5
88
330
7F
100
AcDbEntity
  8
중심선
100
AcDbLine
 10
2.750260043222114
 20
10.84717430164391
 30
0.0
 11
6.196535287059397
 21
10.84717430164391
 31
0.0
  0
LINE
  5
89
330
7F
100
AcDbEntity
  8
중심선
100
AcDbLine
 10
12.29416204261559
 20
16.24717430164393
 30
0.0
 11
5.245725140726316
 21
7.84717430164391
 31
0.0
  0
LINE
  5
8A
330
7F
100
AcDbEntity
  8
중심선
100
AcDbLine
 10
10.72767329541681
 20
16.24717430164393
 30
0.0
 11
6.196535287059397
 21
10.84717430164391
 31
0.0
  0
LINE
  5
8B
330
7F
100
AcDbEntity
  8
중심선
100
AcDbLine
 10
7.28139805157953
 20
16.24717430164393
 30
0.0
 11
2.750260043222114
 21
10.84717430164391
 31
0.0
  0
LINE
  5
8C
330
7F
100
AcDbEntity
  8
중심선
100
AcDbLine
 10
5.714909304380834
 20
16.24717430164393
 30
0.0
 11
3.58671253028996
 21
13.71088815037384
 31
0.0
  0
LINE
  5
8D
330
7F
100
AcDbEntity
  8
중심선
100
AcDbLine
 10
2.268634060543552
 20
16.24717430164393
 30
0.0
 11
0.1404042013395286
 21
13.71084872107135
 31
0.0
  0
LINE
  5
8E
330
7F
100
AcDbEntity
  8
중심선
100
AcDbLine
 10
7.28139805157953
 20
16.24717430164393
 30
0.0
 11
10.72767329541681
 21
16.24717430164393
 31
0.0
  0
LINE
  5
8F
330
7F
100
AcDbEntity
  8
중심선
100
AcDbLine
 10
12.29416204261559
 20
16.24717430164393
 30
0.0
 11
15.74043728645272
 21
16.24717430164393
 31
0.0
  0
LINE
  5
90
330
7F
100
AcDbEntity
  8
중심선
100
AcDbLine
 10
19.22036997980202
 20
11.08717430171403
 30
0.0
 11
23.66174974927406
 21
11.08717430171406
 31
0.0
  0
LINE
  5
91
330
7F
100
AcDbEntity
  8
중심선
100
AcDbLine
 10
19.22039502424796
 20
13.00717430171391
 30
0.0
 11
19.22036997980202
 21
11.08717430171403
 31
0.0
  0
LINE
  5
92
330
7F
100
AcDbEntity
  8
중심선
100
AcDbLine
 10
19.22039502424796
 20
13.00717430171391
 30
0.0
 11
26.96566020931264
 21
13.00717430171391
 31
0.0
  0
LINE
  5
93
330
7F
100
AcDbEntity
  8
중심선
100
AcDbLine
 10
22.22332737316547
 20
13.45928029700563
 30
0.0
 11
24.52862924686651
 21
15.39360700705356
 31
0.0
  0
ATTDEF
  5
95
330
7F
100
AcDbEntity
  8
FORMAT
 62
     2
100
AcDbText
 10
3.448148490846466
 20
2.075366912832191
 30
0.0
 40
4.233333333333333
  1
EM979905
 41
0.75
  7
SLDTEXTSTYLE0
 11
3.448148490846466
 21
-0.0412997538344756
 31
0.0
100
AcDbAttributeDefinition
  3

  2
AUTOATTR0
 70
     0
 74
     1
  0
ENDBLK
  5
81
330
7F
100
AcDbEntity
  8
0
100
AcDbBlockEnd
  0
BLOCK
  5
CD
330
CC
100
AcDbEntity
  8
0
100
AcDbBlockBegin
  2
_D
 70
     0
 10
0.0
 20
0.0
 30
0.0
  3
_D
  1
_D
  0
LINE
  5
CF
330
CC
100
AcDbEntity
  8
치수문자_일반주서
 62
     0
370
    -2
100
AcDbLine
 10
85.70319364835288
 20
2.18615730111266
 30
0.0
 11
85.70319364835288
 21
22.09511459147406
 31
0.0
  0
LINE
  5
D0
330
CC
100
AcDbEntity
  8
치수문자_일반주서
 62
     0
370
    -2
100
AcDbLine
 10
55.54069364835289
 20
5.74737901200931
 30
0.0
 11
55.54069364835289
 21
22.09511459147406
 31
0.0
  0
LINE
  5
D1
330
CC
100
AcDbEntity
  8
치수문자_일반주서
 62
     0
370
    -2
100
AcDbLine
 10
82.40119364835289
 20
22.09511459147406
 30
0.0
 11
58.84269364835288
 21
22.09511459147406
 31
0.0
  0
SOLID
  5
D2
330
CC
100
AcDbEntity
  8
치수문자_일반주서
 62
     0
100
AcDbTrace
 10
82.40119364835289
 20
21.54478125814073
 30
0.0
 11
82.40119364835289
 21
22.6454479248074
 31
0.0
 12
85.70319364835288
 22
22.09511459147406
 32
0.0
 13
85.70319364835288
 23
22.09511459147406
 33
0.0
  0
SOLID
  5
D3
330
CC
100
AcDbEntity
  8
치수문자_일반주서
 62
     0
100
AcDbTrace
 10
58.84269364835288
 20
22.6454479248074
 30
0.0
 11
58.84269364835288
 21
21.54478125814073
 31
0.0
 12
55.54069364835289
 22
22.09511459147406
 32
0.0
 13
55.54069364835289
 23
22.09511459147406
 33
0.0
  0
MTEXT
  5
D4
330
CC
100
AcDbEntity
  8
치수문자_일반주서
 62
     0
100
AcDbMText
 10
70.62194364835288
 20
26.47011459147406
 30
0.0
 40
3.5
 41
0.0
 71
     2
 72
     1
  1
\A1;30.16 [1 3/16]
  7
SLDTEXTSTYLE0
 73
     1
 44
1.0
  0
POINT
  5
D5
330
CC
100
AcDbEntity
  8
Defpoints
 62
     0
100
AcDbPoint
 10
85.70319364835288
 20
2.12365730111266
 30
0.0
  0
POINT
  5
D6
330
CC
100
AcDbEntity
  8
Defpoints
 62
     0
100
AcDbPoint
 10
55.54069364835289
 20
5.68487901200931
 30
0.0
  0
POINT
  5
D7
330
CC
100
AcDbEntity
  8
Defpoints
 62
     0
100
AcDbPoint
 10
55.54069364835289
 20
22.09511459147406
 30
0.0
  0
ENDBLK
  5
CE
330
CC
100
AcDbEntity
  8
0
100
AcDbBlockEnd
  0
BLOCK
  5
E2
330
E1
100
AcDbEntity
  8
0
100
AcDbBlockBegin
  2
_D_1
 70
     0
 10
0.0
 20
0.0
 30
0.0
  3
_D_1
  1
_D_1
  0
LINE
  5
E4
330
E1
100
AcDbEntity
  8
치수문자_일반주서
 62
     0
370
    -2
100
AcDbLine
 10
-0.0000000000000071
 20
7.999999999999982
 30
0.0
 11
0.0
 21
44.35275634755774
 31
0.0
  0
LINE
  5
E5
330
E1
100
AcDbEntity
  8
치수문자_일반주서
 62
     0
370
    -2
100
AcDbLine
 10
85.70319364835288
 20
2.18615730111266
 30
0.0
 11
85.70319364835288
 21
44.35275634755774
 31
0.0
  0
LINE
  5
E6
330
E1
100
AcDbEntity
  8
치수문자_일반주서
 62
     0
370
    -2
100
AcDbLine
 10
3.302
 20
44.35275634755774
 30
0.0
 11
82.40119364835289
 21
44.35275634755774
 31
0.0
  0
SOLID
  5
E7
330
E1
100
AcDbEntity
  8
치수문자_일반주서
 62
     0
100
AcDbTrace
 10
3.302
 20
44.90308968089108
 30
0.0
 11
3.302
 21
43.80242301422441
 31
0.0
 12
0.0
 22
44.35275634755774
 32
0.0
 13
0.0
 23
44.35275634755774
 33
0.0
  0
SOLID
  5
E8
330
E1
100
AcDbEntity
  8
치수문자_일반주서
 62
     0
100
AcDbTrace
 10
82.40119364835289
 20
43.80242301422441
 30
0.0
 11
82.40119364835289
 21
44.90308968089108
 31
0.0
 12
85.70319364835288
 22
44.35275634755774
 32
0.0
 13
85.70319364835288
 23
44.35275634755774
 33
0.0
  0
MTEXT
  5
E9
330
E1
100
AcDbEntity
  8
치수문자_일반주서
 62
     0
100
AcDbMText
 10
42.85159682417643
 20
48.72775634755774
 30
0.0
 40
3.5
 41
0.0
 71
     2
 72
     1
  1
\A1;85.70 [3 3/8]
  7
SLDTEXTSTYLE0
 73
     1
 44
1.0
  0
POINT
  5
EA
330
E1
100
AcDbEntity
  8
Defpoints
 62
     0
100
AcDbPoint
 10
-0.0000000000000071
 20
7.937499999999982
 30
0.0
  0
POINT
  5
EB
330
E1
100
AcDbEntity
  8
Defpoints
 62
     0
100
AcDbPoint
 10
85.70319364835288
 20
2.12365730111266
 30
0.0
  0
POINT
  5
EC
330
E1
100
AcDbEntity
  8
Defpoints
 62
     0
100
AcDbPoint
 10
85.70319364835288
 20
44.35275634755774
 30
0.0
  0
ENDBLK
  5
E3
330
E1
100
AcDbEntity
  8
0
100
AcDbBlockEnd
  0
BLOCK
  5
F5
330
F4
100
AcDbEntity
  8
0
100
AcDbBlockBegin
  2
_D_2
 70
     0
 10
0.0
 20
0.0
 30
0.0
  3
_D_2
  1
_D_2
  0
LINE
  5
F7
330
F4
100
AcDbEntity
  8
치수문자_일반주서
 62
     0
370
    -2
100
AcDbLine
 10
85.70319364835288
 20
2.18615730111266
 30
0.0
 11
85.70319364835288
 21
51.55667432272148
 31
0.0
  0
LINE
  5
F8
330
F4
100
AcDbEntity
  8
치수문자_일반주서
 62
     0
370
    -2
100
AcDbLine
 10
-66.69680635164707
 20
6.999999999999982
 30
0.0
 11
-66.69680635164707
 21
51.55667432272148
 31
0.0
  0
LINE
  5
F9
330
F4
100
AcDbEntity
  8
치수문자_일반주서
 62
     0
370
    -2
100
AcDbLine
 10
82.40119364835289
 20
51.55667432272148
 30
0.0
 11
-63.39480635164707
 21
51.55667432272148
 31
0.0
  0
SOLID
  5
FA
330
F4
100
AcDbEntity
  8
치수문자_일반주서
 62
     0
100
AcDbTrace
 10
82.40119364835289
 20
51.00634098938814
 30
0.0
 11
82.40119364835289
 21
52.10700765605481
 31
0.0
 12
85.70319364835288
 22
51.55667432272148
 32
0.0
 13
85.70319364835288
 23
51.55667432272148
 33
0.0
  0
SOLID
  5
FB
330
F4
100
AcDbEntity
  8
치수문자_일반주서
 62
     0
100
AcDbTrace
 10
-63.39480635164707
 20
52.10700765605481
 30
0.0
 11
-63.39480635164707
 21
51.00634098938814
 31
0.0
 12
-66.69680635164707
 22
51.55667432272148
 32
0.0
 13
-66.69680635164707
 23
51.55667432272148
 33
0.0
  0
MTEXT
  5
FC
330
F4
100
AcDbEntity
  8
치수문자_일반주서
 62
     0
100
AcDbMText
 10
9.503193648352882
 20
55.93167432272148
 30
0.0
 40
3.5
 41
0.0
 71
     2
 72
     1
  1
\A1;152.40 [6]
  7
SLDTEXTSTYLE0
 73
     1
 44
1.0
  0
POINT
  5
FD
330
F4
100
AcDbEntity
  8
Defpoints
 62
     0
100
AcDbPoint
 10
85.70319364835288
 20
2.12365730111266
 30
0.0
  0
POINT
  5
FE
330
F4
100
AcDbEntity
  8
Defpoints
 62
     0
100
AcDbPoint
 10
-66.69680635164707
 20
6.937499999999982
 30
0.0
  0
POINT
  5
FF
330
F4
100
AcDbEntity
  8
Defpoints
 62
     0
100
AcDbPoint
 10
-66.69680635164707
 20
51.55667432272148
 30
0.0
  0
ENDBLK
  5
F6
330
F4
100
AcDbEntity
  8
0
100
AcDbBlockEnd
  0
BLOCK
  5
109
330
108
100
AcDbEntity
  8
0
100
AcDbBlockBegin
  2
_D_3
 70
     0
 10
0.0
 20
0.0
 30
0.0
  3
_D_3
  1
_D_3
  0
LINE
  5
10B
330
108
100
AcDbEntity
  8
치수문자_일반주서
 62
     0
370
    -2
100
AcDbLine
 10
-65.75930635164707
 20
7.937499999999993
 30
0.0
 11
-73.30140025197038
 21
7.937499999999964
 31
0.0
  0
LINE
  5
10C
330
108
100
AcDbEntity
  8
치수문자_일반주서
 62
     0
370
    -2
100
AcDbLine
 10
-65.75930635164707
 20
-7.937500000000007
 30
0.0
 11
-73.30140025197032
 21
-7.937500000000036
 31
0.0
  0
LINE
  5
10D
330
108
100
AcDbEntity
  8
치수문자_일반주서
 62
     0
370
    -2
100
AcDbLine
 10
-73.30140025197036
 20
4.635499999999965
 30
0.0
 11
-73.30140025197034
 21
-4.635500000000036
 31
0.0
  0
SOLID
  5
10E
330
108
100
AcDbEntity
  8
치수문자_일반주서
 62
     0
100
AcDbTrace
 10
-72.75106691863704
 20
4.635499999999967
 30
0.0
 11
-73.85173358530369
 21
4.635499999999963
 31
0.0
 12
-73.30140025197038
 22
7.937499999999964
 32
0.0
 13
-73.30140025197038
 23
7.937499999999964
 33
0.0
  0
SOLID
  5
10F
330
108
100
AcDbEntity
  8
치수문자_일반주서
 62
     0
100
AcDbTrace
 10
-73.85173358530366
 20
-4.635500000000038
 30
0.0
 11
-72.75106691863701
 21
-4.635500000000034
 31
0.0
 12
-73.30140025197032
 22
-7.937500000000036
 32
0.0
 13
-73.30140025197032
 23
-7.937500000000036
 33
0.0
  0
MTEXT
  5
110
330
108
100
AcDbEntity
  8
치수문자_일반주서
 62
     0
100
AcDbMText
 10
-77.67640025197035
 20
-0.0001101474630771
 30
0.0
 40
3.5
 41
0.0
 71
     2
 72
     1
  1
\A1;%%c15.88 [5/8]
  7
SLDTEXTSTYLE0
 11
-3.580687802255623E-15
 21
1.0
 31
0.0
 73
     1
 44
1.0
  0
POINT
  5
111
330
108
100
AcDbEntity
  8
Defpoints
 62
     0
100
AcDbPoint
 10
-65.69680635164707
 20
7.937499999999993
 30
0.0
  0
POINT
  5
158
330
108
100
AcDbEntity
  8
Defpoints
 62
     0
100
AcDbPoint
 10
-65.69680635164707
 20
-7.937500000000007
 30
0.0
  0
POINT
  5
159
330
108
100
AcDbEntity
  8
Defpoints
 62
     0
100
AcDbPoint
 10
-73.30140025197032
 20
-7.937500000000036
 30
0.0
  0
ENDBLK
  5
10A
330
108
100
AcDbEntity
  8
0
100
AcDbBlockEnd
  0
BLOCK
  5
114
330
113
100
AcDbEntity
  8
0
100
AcDbBlockBegin
  2
_D_4
 70
     0
 10
0.0
 20
0.0
 30
0.0
  3
_D_4
  1
_D_4
  0
LINE
  5
116
330
113
100
AcDbEntity
  8
치수문자_일반주서
 62
     0
370
    -2
100
AcDbLine
 10
58.0718345707875
 20
-6.349999999999993
 30
0.0
 11
101.5163339909629
 21
-6.349999999999827
 31
0.0
  0
LINE
  5
117
330
113
100
AcDbEntity
  8
치수문자_일반주서
 62
     0
370
    -2
100
AcDbLine
 10
58.0718345707875
 20
6.350000000000007
 30
0.0
 11
101.5163339909629
 21
6.350000000000168
 31
0.0
  0
LINE
  5
118
330
113
100
AcDbEntity
  8
치수문자_일반주서
 62
     0
370
    -2
100
AcDbLine
 10
101.5163339909629
 20
6.350000000000168
 30
0.0
 11
101.5163339909628
 21
36.77700000000016
 31
0.0
  0
LINE
  5
119
330
113
100
AcDbEntity
  8
치수문자_일반주서
 62
     0
370
    -2
100
AcDbLine
 10
101.5163339909629
 20
-3.047999999999828
 30
0.0
 11
101.5163339909629
 21
3.048000000000169
 31
0.0
  0
SOLID
  5
11A
330
113
100
AcDbEntity
  8
치수문자_일반주서
 62
     0
100
AcDbTrace
 10
100.9660006576296
 20
-3.04799999999983
 30
0.0
 11
102.0666673242962
 21
-3.047999999999826
 31
0.0
 12
101.5163339909629
 22
-6.349999999999827
 32
0.0
 13
101.5163339909629
 23
-6.349999999999827
 33
0.0
  0
SOLID
  5
11B
330
113
100
AcDbEntity
  8
치수문자_일반주서
 62
     0
100
AcDbTrace
 10
102.0666673242962
 20
3.048000000000171
 30
0.0
 11
100.9660006576296
 21
3.048000000000167
 31
0.0
 12
101.5163339909629
 22
6.350000000000168
 32
0.0
 13
101.5163339909629
 23
6.350000000000168
 33
0.0
  0
MTEXT
  5
11C
330
113
100
AcDbEntity
  8
치수문자_일반주서
 62
     0
100
AcDbMText
 10
97.1413339909628
 20
23.43325000000015
 30
0.0
 40
3.5
 41
0.0
 71
     2
 72
     1
  1
\A1;%%c12.70 [1/2]
  7
SLDTEXTSTYLE0
 11
-3.356894814614647E-15
 21
1.0
 31
0.0
 73
     1
 44
1.0
  0
POINT
  5
11D
330
113
100
AcDbEntity
  8
Defpoints
 62
     0
100
AcDbPoint
 10
58.0093345707875
 20
-6.349999999999993
 30
0.0
  0
POINT
  5
11E
330
113
100
AcDbEntity
  8
Defpoints
 62
     0
100
AcDbPoint
 10
58.0093345707875
 20
6.350000000000007
 30
0.0
  0
POINT
  5
11F
330
113
100
AcDbEntity
  8
Defpoints
 62
     0
100
AcDbPoint
 10
101.5163339909629
 20
6.350000000000169
 30
0.0
  0
ENDBLK
  5
115
330
113
100
AcDbEntity
  8
0
100
AcDbBlockEnd
  0
BLOCK
  5
12D
330
12C
100
AcDbEntity
  8
0
100
AcDbBlockBegin
  2
SW_DOWELSYMBOL_0
 70
     0
 10
0.0
 20
0.0
 30
0.0
  3
SW_DOWELSYMBOL_0
  1
SW_DOWELSYMBOL_0
  0
CIRCLE
  5
12F
330
12C
100
AcDbEntity
  8
해칭선
 62
     0
100
AcDbCircle
 10
0.0
 20
0.0
 30
0.0
 40
3.000000000000008
  0
HATCH
  5
130
330
12C
100
AcDbEntity
  8
0
  6
Continuous
 62
     0
370
     0
100
AcDbHatch
 10
0.0
 20
0.0
 30
0.0
210
0.0
220
0.0
230
1.0
  2
SOLID
 70
     1
 71
     0
 91
        1
 92
        0
 93
        3
 72
     2
 10
0.0
 20
0.0
 40
3.000000000000008
 50
0.0
 51
90.0
 73
     1
 72
     1
 10
0.0
 20
3.000000000000008
 11
0.0
 21
0.0
 72
     1
 10
0.0
 20
0.0
 11
3.000000000000008
 21
0.0
 97
        0
 75
     0
 76
     1
 98
        1
 10
0.0
 20
0.0
  0
HATCH
  5
131
330
12C
100
AcDbEntity
  8
0
  6
Continuous
 62
     0
370
     0
100
AcDbHatch
 10
0.0
 20
0.0
 30
0.0
210
0.0
220
0.0
230
1.0
  2
SOLID
 70
     1
 71
     0
 91
        1
 92
        0
 93
        3
 72
     2
 10
0.0
 20
0.0
 40
3.000000000000008
 50
180.0
 51
270.0000000000008
 73
     1
 72
     1
 10
0.0
 20
-3.000000000000008
 11
0.0
 21
0.0
 72
     1
 10
0.0
 20
0.0
 11
-3.000000000000008
 21
0.0
 97
        0
 75
     0
 76
     1
 98
        1
 10
0.0
 20
0.0
  0
ENDBLK
  5
12E
330
12C
100
AcDbEntity
  8
0
100
AcDbBlockEnd
  0
ENDSEC
  0
SECTION
  2
ENTITIES
  0
LINE
  5
96
330
1F
100
AcDbEntity
  8
외형선
  6
Continuous
370
    15
100
AcDbLine
 10
0.0
 20
-7.937500000000002
 30
0.0
 11
51.9592936483529
 21
-6.349999999999993
 31
0.0
  0
LINE
  5
97
330
1F
100
AcDbEntity
  8
외형선
  6
Continuous
370
    15
100
AcDbLine
 10
51.9592936483529
 20
6.350000000000007
 30
0.0
 11
0.0
 21
7.937500000000002
 31
0.0
  0
LINE
  5
98
330
1F
100
AcDbEntity
  8
외형선
  6
Continuous
370
    15
100
AcDbLine
 10
0.0
 20
7.9375
 30
0.0
 11
-65.69680635164707
 21
7.937499999999991
 31
0.0
  0
LINE
  5
99
330
1F
100
AcDbEntity
  8
외형선
  6
Continuous
370
    15
100
AcDbLine
 10
-65.69680635164707
 20
-7.937500000000009
 30
0.0
 11
0.0
 21
-7.9375
 31
0.0
  0
LINE
  5
9A
330
1F
100
AcDbEntity
  8
외형선
  6
Continuous
370
    15
100
AcDbLine
 10
-65.69680635164707
 20
7.937499999999989
 30
0.0
 11
-66.69680635164707
 21
6.937499999999993
 31
0.0
  0
LINE
  5
9B
330
1F
100
AcDbEntity
  8
외형선
  6
Continuous
370
    15
100
AcDbLine
 10
-66.69680635164707
 20
-6.937500000000007
 30
0.0
 11
-65.69680635164707
 21
-7.937500000000007
 31
0.0
  0
LINE
  5
9C
330
1F
100
AcDbEntity
  8
외형선
  6
Continuous
370
    15
100
AcDbLine
 10
55.5406936483529
 20
6.350000000000007
 30
0.0
 11
51.9592936483529
 21
6.350000000000006
 31
0.0
  0
LINE
  5
9D
330
1F
100
AcDbEntity
  8
외형선
  6
Continuous
370
    15
100
AcDbLine
 10
51.9592936483529
 20
-6.349999999999993
 30
0.0
 11
55.5406936483529
 21
-6.349999999999993
 31
0.0
  0
LINE
  5
9E
330
1F
100
AcDbEntity
  8
외형선
  6
Continuous
370
    15
100
AcDbLine
 10
60.4779754932221
 20
6.350000000000007
 30
0.0
 11
55.5406936483529
 21
6.350000000000007
 31
0.0
  0
ARC
  5
9F
330
1F
100
AcDbEntity
  8
외형선
  6
Continuous
 62
     1
370
    15
100
AcDbCircle
 10
79.3531936483529
 20
0.0000000000000069
 30
0.0
 40
6.350000000000005
100
AcDbArc
 50
320.9693575558323
 51
0.0
  0
ARC
  5
A0
330
1F
100
AcDbEntity
  8
외형선
  6
Continuous
 62
     1
370
    15
100
AcDbCircle
 10
79.3531936483529
 20
0.0000000000000069
 30
0.0
 40
6.350000000000013
100
AcDbArc
 50
0.0
 51
39.09031688691553
  0
LINE
  5
A1
330
1F
100
AcDbEntity
  8
외형선
  6
Continuous
370
    15
100
AcDbLine
 10
55.5406936483529
 20
-6.349999999999993
 30
0.0
 11
60.4779754932221
 21
-6.349999999999993
 31
0.0
  0
LINE
  5
A2
330
1F
100
AcDbEntity
  8
외형선
  6
Continuous
370
    15
100
AcDbLine
 10
51.9592936483529
 20
6.350000000000008
 30
0.0
 11
51.9592936483529
 21
-6.349999999999998
 31
0.0
  0
LINE
  5
A3
330
1F
100
AcDbEntity
  8
외형선
  6
Continuous
370
    15
100
AcDbLine
 10
0.0
 20
7.937500000000002
 30
0.0
 11
0.0
 21
-7.937500000000002
 31
0.0
  0
LINE
  5
A4
330
1F
100
AcDbEntity
  8
외형선
  6
Continuous
370
    15
100
AcDbLine
 10
-65.69680635164707
 20
7.937499999999993
 30
0.0
 11
-65.69680635164707
 21
-7.937500000000009
 31
0.0
  0
LINE
  5
A5
330
1F
100
AcDbEntity
  8
외형선
  6
Continuous
370
    15
100
AcDbLine
 10
-66.69680635164707
 20
6.937499999999992
 30
0.0
 11
-66.69680635164707
 21
-6.937500000000007
 31
0.0
  0
LINE
  5
A6
330
1F
100
AcDbEntity
  8
외형선
  6
Continuous
370
    15
100
AcDbLine
 10
55.5406936483529
 20
6.350000000000007
 30
0.0
 11
55.5406936483529
 21
5.684879012009311
 31
0.0
  0
SPLINE
  5
A7
330
1F
100
AcDbEntity
  8
외형선
  6
Continuous
370
    15
100
AcDbSpline
210
0.0
220
0.0
230
1.0
 70
     8
 71
     3
 72
     8
 73
     4
 74
     0
 42
0.000000001
 43
0.00000001
 40
0.0
 40
0.0
 40
0.0
 40
0.0
 40
1.0
 40
1.0
 40
1.0
 40
1.0
 10
53.51068119984192
 20
6.107437023206352
 30
0.0
 10
54.18379439288206
 20
6.000718168518659
 30
0.0
 10
54.86621929839635
 20
5.858690215217251
 30
0.0
 10
55.54069364835281
 20
5.684879012009334
 30
0.0
  0
SPLINE
  5
A8
330
1F
100
AcDbEntity
  8
외형선
  6
Continuous
370
    15
100
AcDbSpline
210
0.0
220
0.0
230
1.0
 70
     8
 71
     3
 72
     8
 73
     4
 74
     0
 42
0.000000001
 43
0.00000001
 40
0.0
 40
0.0
 40
0.0
 40
0.0
 40
1.0
 40
1.0
 40
1.0
 40
1.0
 10
55.5406936483529
 20
-5.720773800548406
 30
0.0
 10
54.86619056742952
 20
-5.551458568770363
 30
0.0
 10
54.183736256492
 20
-5.348823565623928
 30
0.0
 10
53.51059518093766
 20
-5.118056872288002
 30
0.0
  0
LINE
  5
A9
330
1F
100
AcDbEntity
  8
외형선
  6
Continuous
370
    15
100
AcDbLine
 10
55.5406936483529
 20
-5.720773800548402
 30
0.0
 11
55.5406936483529
 21
-6.349999999999993
 31
0.0
  0
LINE
  5
AA
330
1F
100
AcDbEntity
  8
외형선
  6
Continuous
370
    15
100
AcDbLine
 10
53.51059518093766
 20
-5.118205086522129
 30
0.0
 11
53.51059518093766
 21
6.10751256918083
 31
0.0
  0
SPLINE
  5
AB
330
1F
100
AcDbEntity
  8
외형선
  6
Continuous
370
    15
100
AcDbSpline
210
0.0
220
0.0
230
1.0
 70
    24
 71
     3
 72
    14
 73
    10
 74
     0
 42
0.000000001
 43
0.00000001
 40
0.0
 40
0.0
 40
0.0
 40
0.0
 40
0.2499999999999999
 40
0.2499999999999999
 40
0.4999999999999998
 40
0.4999999999999998
 40
0.7499999999999999
 40
0.7499999999999999
 40
1.0
 40
1.0
 40
1.0
 40
1.0
 10
55.5406936483529
 20
-0.018510436338717
 30
0.0
 10
55.5406936483529
 20
-0.3501269537819383
 30
0.0
 10
55.5406936483529
 20
-0.7354094836366797
 30
0.0
 10
55.5406936483529
 20
-1.606727632882909
 30
0.0
 10
55.5406936483529
 20
-2.093141977828404
 30
0.0
 10
55.5406936483529
 20
-3.124091413097205
 30
0.0
 10
55.5406936483529
 20
-3.668094441212052
 30
0.0
 10
55.5406936483529
 20
-4.734050659284898
 30
0.0
 10
55.5406936483529
 20
-5.254545867792254
 30
0.0
 10
55.5406936483529
 20
-5.720773800548398
 30
0.0
  0
SPLINE
  5
AC
330
1F
100
AcDbEntity
  8
외형선
  6
Continuous
370
    15
100
AcDbSpline
210
0.0
220
0.0
230
1.0
 70
     8
 71
     3
 72
     8
 73
     4
 74
     0
 42
0.000000001
 43
0.00000001
 40
0.0
 40
0.0
 40
0.0
 40
0.0
 40
1.0
 40
1.0
 40
1.0
 40
1.0
 10
55.54069364835289
 20
-0.0185104363387134
 30
0.0
 10
54.86619056742952
 20
0.1584388462591891
 30
0.0
 10
54.183736256492
 20
0.336179082132456
 30
0.0
 10
53.51059518093766
 20
0.5102164264931708
 30
0.0
  0
SPLINE
  5
AD
330
1F
100
AcDbEntity
  8
외형선
  6
Continuous
370
    15
100
AcDbSpline
210
0.0
220
0.0
230
1.0
 70
    24
 71
     3
 72
    14
 73
    10
 74
     0
 42
0.000000001
 43
0.00000001
 40
0.0
 40
0.0
 40
0.0
 40
0.0
 40
0.2500000000000002
 40
0.2500000000000002
 40
0.5000000000000001
 40
0.5000000000000001
 40
0.75
 40
0.75
 40
1.0
 40
1.0
 40
1.0
 40
1.0
 10
55.5406936483529
 20
5.684879012009313
 30
0.0
 10
55.5406936483529
 20
5.222566702802149
 30
0.0
 10
55.5406936483529
 20
4.705012352064558
 30
0.0
 10
55.5406936483529
 20
3.64259231004282
 30
0.0
 10
55.5406936483529
 20
3.099188184508019
 30
0.0
 10
55.5406936483529
 20
2.0674019172432
 30
0.0
 10
55.5406936483529
 20
1.579566273851091
 30
0.0
 10
55.5406936483529
 20
0.704103100307962
 30
0.0
 10
55.5406936483529
 20
0.3161076840254532
 30
0.0
 10
55.5406936483529
 20
-0.018510436338718
 30
0.0
  0
SPLINE
  5
AE
330
1F
100
AcDbEntity
  8
외형선
  6
Continuous
 62
     1
370
    15
100
AcDbSpline
210
0.0
220
0.0
230
1.0
 70
     8
 71
     3
 72
    32
 73
    28
 74
     0
 42
0.000000001
 43
0.00000001
 40
0.0
 40
0.0
 40
0.0
 40
0.0
 40
0.1250000000000006
 40
0.1250000000000006
 40
0.1875000000000009
 40
0.1875000000000009
 40
0.2500000000000012
 40
0.2500000000000012
 40
0.3750000000000018
 40
0.3750000000000018
 40
0.4375000000000016
 40
0.4375000000000016
 40
0.5000000000000014
 40
0.5000000000000014
 40
0.5625000000000013
 40
0.5625000000000013
 40
0.6250000000000011
 40
0.6250000000000011
 40
0.687500000000001
 40
0.687500000000001
 40
0.7500000000000008
 40
0.7500000000000008
 40
0.8125000000000007
 40
0.8125000000000007
 40
0.8750000000000006
 40
0.8750000000000006
 40
1.0
 40
1.0
 40
1.0
 40
1.0
 10
79.3531936483529
 20
-0.920394505974011
 30
0.0
 10
79.70897304639409
 20
-1.123556055077315
 30
0.0
 10
80.05751455100906
 20
-1.320198266023446
 30
0.0
 10
80.57608328715763
 20
-1.594981494170704
 30
0.0
 10
80.74823231054305
 20
-1.683180531666183
 30
0.0
 10
81.09236526913126
 20
-1.850402156688729
 30
0.0
 10
81.26507555353255
 20
-1.929692754842947
 30
0.0
 10
81.77489321631403
 20
-2.143299569165524
 30
0.0
 10
82.10631491792026
 20
-2.256127528708952
 30
0.0
 10
82.59957209822547
 20
-2.360801621769483
 30
0.0
 10
82.76349911355133
 20
-2.384573662022772
 30
0.0
 10
83.08244338229939
 20
-2.404284266822736
 30
0.0
 10
83.23861034455295
 20
-2.400574382174626
 30
0.0
 10
83.54564349217436
 20
-2.360445986023693
 30
0.0
 10
83.69726912284032
 20
-2.323196799001155
 30
0.0
 10
83.98489377673367
 20
-2.211558576292761
 30
0.0
 10
84.12229875641921
 20
-2.137274418916164
 30
0.0
 10
84.3840983551751
 20
-1.944045267569436
 30
0.0
 10
84.50408213077367
 20
-1.828180515009324
 30
0.0
 10
84.72039789582044
 20
-1.556325609078507
 30
0.0
 10
84.81702613332158
 20
-1.398602910889425
 30
0.0
 10
84.97489329815788
 20
-1.058606829722537
 30
0.0
 10
85.03844352353582
 20
-0.8719395971982654
 30
0.0
 10
85.12941939471885
 20
-0.4830198701364404
 30
0.0
 10
85.15697114323743
 20
-0.2827274132345878
 30
0.0
 10
85.18952767787287
 20
0.3333142833596564
 30
0.0
 10
85.14408238549424
 20
0.7405143479516383
 30
0.0
 10
85.0459797759869
 20
1.138779705770563
 30
0.0
  0
SPLINE
  5
AF
330
1F
100
AcDbEntity
  8
외형선
  6
Continuous
 62
     1
370
    15
100
AcDbSpline
210
0.0
220
0.0
230
1.0
 70
     8
 71
     3
 72
    15
 73
    11
 74
     0
 42
0.000000001
 43
0.00000001
 40
0.0
 40
0.0
 40
0.0
 40
0.0
 40
0.1412912180841222
 40
0.2825307257471215
 40
0.4238168553373555
 40
0.5651481327182248
 40
0.706498216153838
 40
0.8453171312131966
 40
0.9841129432130721
 40
1.0
 40
1.0
 40
1.0
 40
1.0
 10
79.35319364835293
 20
-0.9203945059740142
 30
0.0
 10
78.46421981460435
 20
-0.4073310070425387
 30
0.0
 10
76.68659749791055
 20
0.6186082174403513
 30
0.0
 10
74.02040583818591
 20
2.136267603972951
 30
0.0
 10
71.3536420144603
 20
3.525370533735347
 30
0.0
 10
68.68603577418834
 20
4.706675369436136
 30
0.0
 10
66.03383951213668
 20
5.616766389165387
 30
0.0
 10
63.39777232914048
 20
6.162981270184318
 30
0.0
 10
61.5510889286552
 20
6.395217859410353
 30
0.0
 10
60.57792637278189
 20
6.337708602399077
 30
0.0
 10
60.4779754932221
 20
6.331801983010141
 30
0.0
  0
SPLINE
  5
B0
330
1F
100
AcDbEntity
  8
외형선
  6
Continuous
 62
     1
370
    15
100
AcDbSpline
210
0.0
220
0.0
230
1.0
 70
     8
 71
     3
 72
    11
 73
     7
 74
     0
 42
0.000000001
 43
0.00000001
 40
0.0
 40
0.0
 40
0.0
 40
0.0
 40
0.3147772139796966
 40
0.6299239772793318
 40
0.9447550092858823
 40
1.0
 40
1.0
 40
1.0
 40
1.0
 10
84.02733632518135
 20
1.493185109280035
 30
0.0
 10
82.82631409127444
 20
1.748154413559864
 30
0.0
 10
80.42285962003575
 20
2.258392356788034
 30
0.0
 10
76.81778309062948
 20
2.714049263672679
 30
0.0
 10
74.20337643640514
 20
2.918285657584587
 30
0.0
 10
72.7912850056521
 20
2.865567407659103
 30
0.0
 10
72.58048783644907
 20
2.857697621321186
 30
0.0
  0
SPLINE
  5
B1
330
1F
100
AcDbEntity
  8
외형선
  6
Continuous
 62
     1
370
    15
100
AcDbSpline
210
0.0
220
0.0
230
1.0
 70
     8
 71
     3
 72
     8
 73
     4
 74
     0
 42
0.000000001
 43
0.00000001
 40
0.0
 40
0.0
 40
0.0
 40
0.0
 40
1.0
 40
1.0
 40
1.0
 40
1.0
 10
84.0273363247242
 20
1.493185109382336
 30
0.0
 10
84.36700292829188
 20
1.37738915996972
 30
0.0
 10
84.70655169153436
 20
1.259272657426711
 30
0.0
 10
85.04597977599067
 20
1.138779705781708
 30
0.0
  0
SPLINE
  5
B2
330
1F
100
AcDbEntity
  8
외형선
  6
Continuous
 62
     1
370
    15
100
AcDbSpline
210
0.0
220
0.0
230
1.0
 70
     8
 71
     3
 72
    12
 73
     8
 74
     0
 42
0.000000001
 43
0.00000001
 40
0.0
 40
0.0
 40
0.0
 40
0.0
 40
0.1907771691096738
 40
0.3930937109380311
 40
0.5953834549248165
 40
0.7977515814245679
 40
1.0
 40
1.0
 40
1.0
 40
1.0
 10
72.9231253746048
 20
-2.868521160533206
 30
0.0
 10
71.81770777680842
 20
-2.852477202310905
 30
0.0
 10
69.54001014830354
 20
-2.81941884891793
 30
0.0
 10
66.09029188144326
 20
-2.405229362736272
 30
0.0
 10
62.57345431357214
 20
-1.764480506389885
 30
0.0
 10
59.05686665989825
 20
-0.9387348345363323
 30
0.0
 10
56.71252012313366
 20
-0.3251913957245096
 30
0.0
 10
55.54069364835289
 20
-0.0185104363387134
 30
0.0
  0
SPLINE
  5
B3
330
1F
100
AcDbEntity
  8
외형선
  6
Continuous
370
    15
100
AcDbSpline
210
0.0
220
0.0
230
1.0
 70
    24
 71
     3
 72
    14
 73
    10
 74
     0
 42
0.000000001
 43
0.00000001
 40
0.0
 40
0.0
 40
0.0
 40
0.0
 40
0.2500000000000002
 40
0.2500000000000002
 40
0.5000000000000001
 40
0.5000000000000001
 40
0.75
 40
0.75
 40
1.0
 40
1.0
 40
1.0
 40
1.0
 10
55.5406936483529
 20
5.684879012009313
 30
0.0
 10
55.5406936483529
 20
5.222566702802149
 30
0.0
 10
55.5406936483529
 20
4.705012352064558
 30
0.0
 10
55.5406936483529
 20
3.64259231004282
 30
0.0
 10
55.5406936483529
 20
3.099188184508019
 30
0.0
 10
55.5406936483529
 20
2.0674019172432
 30
0.0
 10
55.5406936483529
 20
1.579566273851091
 30
0.0
 10
55.5406936483529
 20
0.704103100307962
 30
0.0
 10
55.5406936483529
 20
0.3161076840254532
 30
0.0
 10
55.5406936483529
 20
-0.018510436338718
 30
0.0
  0
SPLINE
  5
B4
330
1F
100
AcDbEntity
  8
외형선
  6
Continuous
 62
     1
370
    15
100
AcDbSpline
210
0.0
220
0.0
230
1.0
 70
     8
 71
     3
 72
    40
 73
    36
 74
     0
 42
0.000000001
 43
0.00000001
 40
0.0
 40
0.0
 40
0.0
 40
0.0
 40
0.0625
 40
0.0625
 40
0.125
 40
0.125
 40
0.1875
 40
0.1875
 40
0.21875
 40
0.21875
 40
0.25
 40
0.25
 40
0.3125
 40
0.3125
 40
0.375
 40
0.375
 40
0.4375
 40
0.4375
 40
0.5
 40
0.5
 40
0.5625
 40
0.5625
 40
0.625
 40
0.625
 40
0.6875
 40
0.6875
 40
0.75
 40
0.75
 40
0.8125
 40
0.8125
 40
0.875
 40
0.875
 40
0.9375
 40
0.9375
 40
1.0
 40
1.0
 40
1.0
 40
1.0
 10
55.54069364835256
 20
5.684879012009444
 30
0.0
 10
56.03550436862282
 20
5.557366903274841
 30
0.0
 10
56.53109600264061
 20
5.412448325946846
 30
0.0
 10
57.52600746976366
 20
5.090057355585857
 30
0.0
 10
58.01942137294985
 20
4.913266018885881
 30
0.0
 10
59.01143153286841
 20
4.530240952471851
 30
0.0
 10
59.51063072144444
 20
4.323844851891175
 30
0.0
 10
60.25397594794318
 20
3.996179090544951
 30
0.0
 10
60.5002408866156
 20
3.884057013579947
 30
0.0
 10
60.99592659091311
 20
3.653589551549165
 30
0.0
 10
61.24464874970808
 20
3.535342208533505
 30
0.0
 10
61.99089570345274
 20
3.172746776698756
 30
0.0
 10
62.48545323445116
 20
2.921055931520609
 30
0.0
 10
63.47612449590358
 20
2.40117930865961
 30
0.0
 10
63.97530354542938
 20
2.132421557853071
 30
0.0
 10
64.96769067416535
 20
1.584597276431159
 30
0.0
 10
65.46083351024058
 20
1.30558170261703
 30
0.0
 10
66.4556653376265
 20
0.7396844731917578
 30
0.0
 10
66.95181647188771
 20
0.453848153444546
 30
0.0
 10
67.94090384438485
 20
-0.1182284788740837
 30
0.0
 10
68.43993706838022
 20
-0.4056419254471851
 30
0.0
 10
69.43333794395528
 20
-0.9753500722547117
 30
0.0
 10
69.925932690381
 20
-1.257316141586197
 30
0.0
 10
70.92035196132689
 20
-1.813605577135613
 30
0.0
 10
71.41854535335023
 20
-2.087215846560535
 30
0.0
 10
72.4058051570406
 20
-2.618432393230515
 30
0.0
 10
72.90456699192033
 20
-2.87776750103575
 30
0.0
 10
73.89873435912084
 20
-3.37668504200792
 30
0.0
 10
74.39123262026689
 20
-3.61584322921497
 30
0.0
 10
75.38499123265815
 20
-4.07206861839634
 30
0.0
 10
75.88392387168142
 20
-4.288692812365665
 30
0.0
 10
76.87226024208233
 20
-4.693178335993484
 30
0.0
 10
77.36922902106939
 20
-4.882095255220221
 30
0.0
 10
78.36391498736347
 20
-5.229029856491336
 30
0.0
 10
78.85676844772856
 20
-5.386550681647511
 30
0.0
 10
79.3531936483529
 20
-5.527565812143147
 30
0.0
  0
SPLINE
  5
B5
330
1F
100
AcDbEntity
  8
외형선
  6
Continuous
 62
     1
370
    15
100
AcDbSpline
210
0.0
220
0.0
230
1.0
 70
     8
 71
     3
 72
    14
 73
    10
 74
     0
 42
0.000000001
 43
0.00000001
 40
0.0
 40
0.0
 40
0.0
 40
0.0
 40
0.0999154537171849
 40
0.2711009723395141
 40
0.4375600741041734
 40
0.60936449495644
 40
0.7675936938545246
 40
0.9302799572388935
 40
1.0
 40
1.0
 40
1.0
 40
1.0
 10
84.27005551332269
 20
-3.985295677452664
 30
0.0
 10
84.15657100511179
 20
-4.128646556268302
 30
0.0
 10
83.8486530667263
 20
-4.517601029143393
 30
0.0
 10
83.2020435582048
 20
-5.014260594204124
 30
0.0
 10
82.3793542553268
 20
-5.449294617158897
 30
0.0
 10
81.51007897327283
 20
-5.692754310457781
 30
0.0
 10
80.6201829547057
 20
-5.753055414756669
 30
0.0
 10
79.90404795511986
 20
-5.671642558765769
 30
0.0
 10
79.4803112796417
 20
-5.560813613838536
 30
0.0
 10
79.35319364835291
 20
-5.527565812143092
 30
0.0
  0
ARC
  5
B6
330
1F
100
AcDbEntity
  8
외형선
  6
Continuous
 62
     1
370
    15
100
AcDbCircle
 10
83.51039026360193
 20
-0.5779167907098736
 30
0.0
 40
2.303276364578239
100
AcDbArc
 50
20.37169640635605
 51
48.18728424178121
  0
ARC
  5
B7
330
1F
100
AcDbEntity
  8
외형선
  6
Continuous
 62
     1
370
    15
100
AcDbCircle
 10
79.66462115269469
 20
0.0113911975996253
 30
0.0
 40
6.008743033055223
100
AcDbArc
 50
2.026535542680208
 51
27.79380095967936
  0
SPLINE
  5
B8
330
1F
100
AcDbEntity
  8
외형선
  6
Continuous
 62
     1
370
    15
100
AcDbSpline
210
0.0
220
0.0
230
1.0
 70
     8
 71
     3
 72
    22
 73
    18
 74
     0
 42
0.000000001
 43
0.00000001
 40
0.0
 40
0.0
 40
0.0
 40
0.0
 40
0.1249999999999998
 40
0.1249999999999998
 40
0.2499999999999997
 40
0.2499999999999997
 40
0.3749999999999997
 40
0.3749999999999997
 40
0.4999999999999998
 40
0.4999999999999998
 40
0.6249999999999998
 40
0.6249999999999998
 40
0.7499999999999999
 40
0.7499999999999999
 40
0.8749999999999999
 40
0.8749999999999999
 40
1.0
 40
1.0
 40
1.0
 40
1.0
 10
84.98014409523239
 20
2.813213583948444
 30
0.0
 10
84.88487543184077
 20
3.063542992697217
 30
0.0
 10
84.75906222809422
 20
3.311887018625435
 30
0.0
 10
84.45485440487579
 20
3.792672850028101
 30
0.0
 10
84.27714175058001
 20
4.023124097203851
 30
0.0
 10
83.88673850780422
 20
4.445587886965283
 30
0.0
 10
83.67286405131229
 20
4.639534891457009
 30
0.0
 10
83.21133749924441
 20
4.987231018089483
 30
0.0
 10
82.96276427003347
 20
5.140899535976819
 30
0.0
 10
82.45165655335168
 20
5.394060699326753
 30
0.0
 10
82.18706405398993
 20
5.495343654363914
 30
0.0
 10
81.6407847438898
 20
5.645874995807255
 30
0.0
 10
81.35678424630638
 20
5.694922673947932
 30
0.0
 10
80.79071267175478
 20
5.736713189349365
 30
0.0
 10
80.50633849112752
 20
5.73083469055066
 30
0.0
 10
79.93287026928549
 20
5.667613805678949
 30
0.0
 10
79.6423829240198
 20
5.609713260328284
 30
0.0
 10
79.35319364835291
 20
5.527565812143113
 30
0.0
  0
SPLINE
  5
B9
330
1F
100
AcDbEntity
  8
외형선
  6
Continuous
 62
     1
370
    15
100
AcDbSpline
210
0.0
220
0.0
230
1.0
 70
     8
 71
     3
 72
    14
 73
    10
 74
     0
 42
0.000000001
 43
0.00000001
 40
0.0
 40
0.0
 40
0.0
 40
0.0
 40
0.071984940078564
 40
0.2285387642574784
 40
0.3851134200586811
 40
0.5388842797272305
 40
0.6926295479458239
 40
0.8463301244881803
 40
1.0
 40
1.0
 40
1.0
 40
1.0
 10
72.58048783644351
 20
-2.857697621324029
 30
0.0
 10
72.1716296296489
 20
-3.072614986059272
 30
0.0
 10
70.87358104844029
 20
-3.754937551035505
 30
0.0
 10
68.68602693970861
 20
-4.702502728703818
 30
0.0
 10
66.03384440850084
 20
-5.611844852092725
 30
0.0
 10
63.39776162334708
 20
-6.186255634271159
 30
0.0
 10
60.77805139320913
 20
-6.404119650865875
 30
0.0
 10
58.15910366486628
 20
-6.282973400492107
 30
0.0
 10
56.41343886654407
 20
-5.908161188094838
 30
0.0
 10
55.5406936483529
 20
-5.720773800548406
 30
0.0
  0
SPLINE
  5
BA
330
1F
100
AcDbEntity
  8
외형선
  6
Continuous
370
    15
100
AcDbSpline
210
0.0
220
0.0
230
1.0
 70
    24
 71
     3
 72
    14
 73
    10
 74
     0
 42
0.000000001
 43
0.00000001
 40
0.0
 40
0.0
 40
0.0
 40
0.0
 40
0.2499999999999999
 40
0.2499999999999999
 40
0.4999999999999998
 40
0.4999999999999998
 40
0.7499999999999999
 40
0.7499999999999999
 40
1.0
 40
1.0
 40
1.0
 40
1.0
 10
55.5406936483529
 20
-0.018510436338717
 30
0.0
 10
55.5406936483529
 20
-0.3501269537819383
 30
0.0
 10
55.5406936483529
 20
-0.7354094836366797
 30
0.0
 10
55.5406936483529
 20
-1.606727632882909
 30
0.0
 10
55.5406936483529
 20
-2.093141977828404
 30
0.0
 10
55.5406936483529
 20
-3.124091413097205
 30
0.0
 10
55.5406936483529
 20
-3.668094441212052
 30
0.0
 10
55.5406936483529
 20
-4.734050659284898
 30
0.0
 10
55.5406936483529
 20
-5.254545867792254
 30
0.0
 10
55.5406936483529
 20
-5.720773800548398
 30
0.0
  0
SPLINE
  5
BB
330
1F
100
AcDbEntity
  8
외형선
  6
Continuous
 62
     1
370
    15
100
AcDbSpline
210
0.0
220
0.0
230
1.0
 70
     8
 71
     3
 72
    10
 73
     6
 74
     0
 42
0.000000001
 43
0.00000001
 40
0.0
 40
0.0
 40
0.0
 40
0.0
 40
0.3525141940822835
 40
0.6762575588565762
 40
1.0
 40
1.0
 40
1.0
 40
1.0
 10
72.92312537459742
 20
2.868521160529605
 30
0.0
 10
73.67892337607242
 20
3.251484417958377
 30
0.0
 10
75.12883410320435
 20
3.986154970089656
 30
0.0
 10
77.27200513584015
 20
4.875426802905039
 30
0.0
 10
78.65946480391361
 20
5.310186349123546
 30
0.0
 10
79.3531936483529
 20
5.527565812143115
 30
0.0
  0
SPLINE
  5
BC
330
1F
100
AcDbEntity
  8
외형선
  6
Continuous
 62
     1
370
    15
100
AcDbSpline
210
0.0
220
0.0
230
1.0
 70
     8
 71
     3
 72
     8
 73
     4
 74
     0
 42
0.000000001
 43
0.00000001
 40
0.0
 40
0.0
 40
0.0
 40
0.0
 40
1.0
 40
1.0
 40
1.0
 40
1.0
 10
82.25054980219029
 20
1.968507546353014
 30
0.0
 10
82.83165264344555
 20
1.826334690123599
 30
0.0
 10
83.42471653721691
 20
1.666725139557747
 30
0.0
 10
84.02733632472419
 20
1.493185109382341
 30
0.0
  0
SPLINE
  5
BD
330
1F
100
AcDbEntity
  8
외형선
  6
Continuous
 62
     1
370
    15
100
AcDbSpline
210
0.0
220
0.0
230
1.0
 70
     8
 71
     3
 72
    14
 73
    10
 74
     0
 42
0.000000001
 43
0.00000001
 40
0.0
 40
0.0
 40
0.0
 40
0.0
 40
0.25
 40
0.25
 40
0.5
 40
0.5
 40
0.75
 40
0.75
 40
1.0
 40
1.0
 40
1.0
 40
1.0
 10
84.98014409523235
 20
2.81321358394844
 30
0.0
 10
84.78898489947885
 20
2.659416109737146
 30
0.0
 10
84.57847001969225
 20
2.529217691678551
 30
0.0
 10
84.13890638705418
 20
2.314751230253846
 30
0.0
 10
83.91238196696884
 20
2.230988041781635
 30
0.0
 10
83.44899789621519
 20
2.099437128730777
 30
0.0
 10
83.2109784534753
 20
2.051696150745839
 30
0.0
 10
82.73143415347339
 20
1.987685018470683
 30
0.0
 10
82.49119206806878
 20
1.971401928389841
 30
0.0
 10
82.25054980219029
 20
1.968507546353013
 30
0.0
  0
LINE
  5
BE
330
1F
100
AcDbEntity
  8
중심선
 62
     1
100
AcDbLine
 10
-69.69680635164708
 20
-0.0000000000000079
 30
0.0
 11
88.70319364835291
 21
0.0000000000000115
 31
0.0
  0
LINE
  5
BF
330
1F
100
AcDbEntity
  8
치수문자_일반주서
 62
     1
100
AcDbLine
 10
85.7031936483529
 20
-0.0000000000000036
 30
0.0
 11
85.7031936483529
 21
2.123657301112655
 31
0.0
  0
LINE
  5
C0
330
1F
100
AcDbEntity
  8
참조1
100
AcDbLine
 10
9.503193648352914
 20
-0.0000000000000075
 30
0.0
 11
9.503193648352921
 21
-40.00000000000001
 31
0.0
  0
LINE
  5
C1
330
1F
100
AcDbEntity
  8
참조1
100
AcDbLine
 10
9.503193648352921
 20
-40.00000000000001
 30
0.0
 11
-0.9058631659557648
 21
-40.0
 31
0.0
  0
CIRCLE
  5
C2
330
1F
100
AcDbEntity
  8
해칭선
100
AcDbCircle
 10
0.0
 20
-0.0010749287238967
 30
0.0
 40
3.000000000000008
  0
INSERT
  5
C3
330
1F
100
AcDbEntity
  8
0
  6
Continuous
 62
     7
100
AcDbBlockReference
 66
     1
  2
블럭10
 10
-4.437079283772294
 20
-52.04717430164393
 30
0.0
  0
ATTRIB
  5
C4
330
C3
100
AcDbEntity
  8
FORMAT
 62
     2
100
AcDbText
 10
-14.57871529590892
 20
-49.97180738881175
 30
0.0
 40
4.233333333333333
  1
EM979905 [ 4 FLUTE ]
 41
0.75
  7
SLDTEXTSTYLE0
 11
-14.57871529590892
 21
-52.08847405547841
 31
0.0
100
AcDbAttribute
  2
AUTOATTR0
 70
     0
 74
     1
  0
SEQEND
  5
C5
330
C3
100
AcDbEntity
  8
0
  6
Continuous
 62
     7
  0
HATCH
  5
C6
330
1F
100
AcDbEntity
  8
중심선
100
AcDbHatch
 10
0.0
 20
0.0
 30
0.0
210
0.0
220
0.0
230
1.0
  2
SOLID
 70
     1
 71
     0
 91
        1
 92
        0
 93
        4
 72
     1
 10
1.277830020608542
 20
-35.8
 11
-2.16844522322874
 21
-35.8
 72
     1
 10
-2.16844522322874
 20
-35.8
 11
-4.296675082432762
 21
-38.33632558057257
 72
     1
 10
-4.296675082432762
 20
-38.33632558057258
 11
-0.8503667534823309
 21
-38.33628615127009
 72
     1
 10
-0.8503667534823309
 20
-38.33628615127009
 11
1.277830020608542
 21
-35.8
 97
        0
 75
     0
 76
     1
 98
        1
 10
-8.66488548565867
 20
-0.0000000000000036
  0
HATCH
  5
C7
330
1F
100
AcDbEntity
  8
중심선
100
AcDbHatch
 10
0.0
 20
0.0
 30
0.0
210
0.0
220
0.0
230
1.0
  2
SOLID
 70
     1
 71
     0
 91
        1
 92
        0
 93
        4
 72
     1
 10
6.290594011644549
 20
-35.79999999999997
 11
2.844318767807211
 21
-35.80000000000003
 72
     1
 10
2.844318767807211
 20
-35.80000000000003
 11
-1.686819240550177
 21
-41.20000000000002
 72
     1
 10
-1.686819240550177
 20
-41.20000000000002
 11
1.759456003287106
 21
-41.20000000000002
 72
     1
 10
1.759456003287106
 20
-41.20000000000002
 11
6.290594011644549
 21
-35.79999999999997
 97
        0
 75
     0
 76
     1
 98
        1
 10
-8.66488548565867
 20
-0.0000000000000036
  0
HATCH
  5
C8
330
1F
100
AcDbEntity
  8
중심선
100
AcDbHatch
 10
0.0
 20
0.0
 30
0.0
210
0.0
220
0.0
230
1.0
  2
SOLID
 70
     1
 71
     0
 91
        1
 92
        0
 93
        4
 72
     1
 10
11.30335800268039
 20
-35.8
 11
7.857082758843275
 21
-35.80000000000003
 72
     1
 10
7.857082758843275
 20
-35.80000000000003
 11
0.8086458569540245
 21
-44.20000000000002
 72
     1
 10
0.8086458569540245
 20
-44.20000000000002
 11
4.254921100791307
 21
-44.20000000000002
 72
     1
 10
4.254921100791307
 20
-44.20000000000002
 11
11.30335800268039
 21
-35.8
 97
        0
 75
     0
 76
     1
 98
        1
 10
-8.66488548565867
 20
-0.0000000000000036
  0
HATCH
  5
C9
330
1F
100
AcDbEntity
  8
중심선
100
AcDbHatch
 10
0.0
 20
0.0
 30
0.0
210
0.0
220
0.0
230
1.0
  2
SOLID
 70
     1
 71
     0
 91
        1
 92
        0
 93
        6
 72
     3
 10
16.10324843369259
 20
-40.00000000005127
 11
3.960054785062283
 21
1.540882976769353E-10
 40
0.3939339440162628
 50
17.09539180608439
 51
320.0019657685081
 73
     0
 72
     1
 10
17.78624808939318
 20
-38.5878940046383
 11
20.09154996309422
 21
-36.6535672945904
 72
     3
 10
16.10324843363974
 20
-40.00000000000016
 11
6.600054785286829
 21
-1.278976924368180E-13
 40
0.636358354079598
 50
39.99873849337392
 51
368.4976242363725
 73
     1
 72
     1
 10
22.52858092554035
 20
-39.03999999993002
 11
14.78331574047567
 21
-39.03999999993002
 72
     1
 10
14.78331574047567
 20
-39.03999999993002
 11
14.78329069602973
 21
-40.95999999992991
 72
     1
 10
14.78329069602973
 20
-40.95999999992992
 11
19.22467046550177
 21
-40.95999999992989
 97
        0
 75
     0
 76
     1
 98
        1
 10
-8.66488548565867
 20
-0.0000000000000036
  0
DIMENSION
  5
CA
330
1F
100
AcDbEntity
  8
치수문자_일반주서
100
AcDbDimension
  2
_D
 10
55.54069364835289
 20
22.09511459147406
 30
0.0
 11
70.62194364835288
 21
22.09511459147406
 31
0.0
 70
   160
  1
<>
 71
     2
 42
30.16249999999999
  3
SLDDIMSTYLE0
100
AcDbAlignedDimension
 13
85.70319364835288
 23
2.12365730111266
 33
0.0
 14
55.54069364835289
 24
5.68487901200931
 34
0.0
 50
0.0000000000000067
100
AcDbRotatedDimension
1001
ACAD
1000
DSTYLE
1002
{
1070
   171
1070
     6
1070
   273
1070
     7
1002
}
  0
DIMENSION
  5
DF
330
1F
100
AcDbEntity
  8
치수문자_일반주서
100
AcDbDimension
  2
_D_1
 10
85.70319364835288
 20
44.35275634755774
 30
0.0
 11
42.85159682417643
 21
44.35275634755774
 31
0.0
 70
   160
  1
<>
 71
     2
 42
85.70319364835288
  3
SLDDIMSTYLE1
100
AcDbAlignedDimension
 13
-0.0000000000000071
 23
7.937499999999982
 33
0.0
 14
85.70319364835288
 24
2.12365730111266
 34
0.0
100
AcDbRotatedDimension
1001
ACAD
1000
DSTYLE
1002
{
1070
   171
1070
     6
1070
   273
1070
     7
1002
}
  0
DIMENSION
  5
F3
330
1F
100
AcDbEntity
  8
치수문자_일반주서
100
AcDbDimension
  2
_D_2
 10
-66.69680635164707
 20
51.55667432272148
 30
0.0
 11
9.503193648352882
 21
51.55667432272148
 31
0.0
 70
   160
  1
<>
 71
     2
 42
152.3999999999999
  3
SLDDIMSTYLE1
100
AcDbAlignedDimension
 13
85.70319364835288
 23
2.12365730111266
 33
0.0
 14
-66.69680635164707
 24
6.937499999999982
 34
0.0
 50
0.0000000000000053
100
AcDbRotatedDimension
1001
ACAD
1000
DSTYLE
1002
{
1070
   171
1070
     6
1070
   273
1070
     7
1002
}
  0
DIMENSION
  5
106
330
1F
100
AcDbEntity
  8
치수문자_일반주서
100
AcDbDimension
  2
_D_3
 10
-73.30140025197032
 20
-7.937500000000036
 30
0.0
 11
-73.30140025197035
 21
-0.0001101474630616
 31
0.0
 70
   160
  1
%%c<>
 71
     2
 42
15.875
 52
-270.0
  3
SLDDIMSTYLE1
100
AcDbAlignedDimension
 13
-65.69680635164707
 23
7.937499999999993
 33
0.0
 14
-65.69680635164707
 24
-7.937500000000007
 34
0.0
 50
90.0000000000002
100
AcDbRotatedDimension
1001
ACAD
1000
DSTYLE
1002
{
1070
   171
1070
     6
1070
   273
1070
     7
1002
}
  0
DIMENSION
  5
112
330
1F
100
AcDbEntity
  8
치수문자_일반주서
100
AcDbDimension
  2
_D_4
 10
101.5163339909629
 20
6.350000000000168
 30
0.0
 11
101.5163339909628
 21
23.43325000000016
 31
0.0
 70
   160
  1
%%c<>
 71
     2
 42
12.7
 52
-270.0
  3
SLDDIMSTYLE1
100
AcDbAlignedDimension
 13
58.0093345707875
 23
-6.349999999999993
 33
0.0
 14
58.0093345707875
 24
6.350000000000007
 34
0.0
 50
90.0000000000002
100
AcDbRotatedDimension
1001
ACAD
1000
DSTYLE
1002
{
1070
   171
1070
     6
1070
   273
1070
     7
1002
}
  0
LINE
  5
125
330
1F
100
AcDbEntity
  8
참조1
100
AcDbLine
 10
97.0664774636985
 20
7.439999999999999
 30
0.0
 11
97.0664774636985
 21
-7.440000000000006
 31
0.0
  0
LINE
  5
126
330
1F
100
AcDbEntity
  8
참조1
100
AcDbLine
 10
109.7664774636985
 20
5.439999999999999
 30
0.0
 11
97.0664774636985
 21
5.439999999999999
 31
0.0
  0
SOLID
  5
127
330
1F
100
AcDbEntity
  8
참조1
100
AcDbTrace
 10
97.0664774636985
 20
5.439999999999999
 30
0.0
 11
103.4164774636985
 21
4.423999999999999
 31
0.0
 12
103.4164774636985
 22
6.455999999999999
 32
0.0
 13
103.4164774636985
 23
6.455999999999999
 33
0.0
  0
LINE
  5
128
330
1F
100
AcDbEntity
  8
참조1
100
AcDbLine
 10
109.7664774636985
 20
-5.440000000000006
 30
0.0
 11
97.0664774636985
 21
-5.440000000000006
 31
0.0
  0
SOLID
  5
129
330
1F
100
AcDbEntity
  8
참조1
100
AcDbTrace
 10
97.0664774636985
 20
-5.440000000000006
 30
0.0
 11
103.4164774636985
 21
-6.456000000000006
 31
0.0
 12
103.4164774636985
 22
-4.424000000000006
 32
0.0
 13
103.4164774636985
 23
-4.424000000000006
 33
0.0
  0
MTEXT
  5
12A
330
1F
100
AcDbEntity
  8
참조1
100
AcDbMText
 10
106.4639675561688
 20
10.98821664464993
 30
0.0
 40
3.5
 41
0.0
 71
     1
 72
     1
  1
A
  7
SLDTEXTSTYLE0
 73
     1
 44
1.0
  0
MTEXT
  5
12B
330
1F
100
AcDbEntity
  8
참조1
100
AcDbMText
 10
106.4639675561688
 20
0.1082166446499292
 30
0.0
 40
3.5
 41
0.0
 71
     1
 72
     1
  1
A
  7
SLDTEXTSTYLE0
 73
     1
 44
1.0
  0
INSERT
  5
132
330
1F
100
AcDbEntity
  8
해칭선
100
AcDbBlockReference
  2
SW_DOWELSYMBOL_0
 10
0.0
 20
-0.0010749287238967
 30
0.0
  0
ENDSEC
  0
SECTION
  2
OBJECTS
  0
DICTIONARY
  5
C
330
0
100
AcDbDictionary
281
     1
  3
ACAD_GROUP
350
D
  3
ACAD_IMAGE_VARS
350
156
  3
ACAD_LAYOUT
350
1A
  3
ACAD_MLINESTYLE
350
17
  3
ACAD_PLOTSETTINGS
350
19
  3
ACAD_PLOTSTYLENAME
350
E
  3
ACAD_SCALELIST
350
47
  3
APPDATA
350
154
  3
DWGPROPS
350
15D
  0
DICTIONARY
  5
D
102
{ACAD_REACTORS
330
C
102
}
330
C
100
AcDbDictionary
281
     1
  0
RASTERVARIABLES
  5
156
102
{ACAD_REACTORS
330
C
102
}
330
C
100
AcDbRasterVariables
 90
        0
 70
     1
 71
     1
 72
     1
  0
DICTIONARY
  5
1A
102
{ACAD_REACTORS
330
C
102
}
330
C
100
AcDbDictionary
281
     1
  3
Layout1
350
1E
  3
Layout2
350
26
  3
Model
350
22
  0
DICTIONARY
  5
17
102
{ACAD_REACTORS
330
C
102
}
330
C
100
AcDbDictionary
281
     1
  3
Standard
350
18
  0
DICTIONARY
  5
19
102
{ACAD_REACTORS
330
C
102
}
330
C
100
AcDbDictionary
281
     1
  0
ACDBDICTIONARYWDFLT
  5
E
102
{ACAD_REACTORS
330
C
102
}
330
C
100
AcDbDictionary
281
     1
  3
Normal
350
F
100
AcDbDictionaryWithDefault
340
F
  0
DICTIONARY
  5
47
102
{ACAD_REACTORS
330
C
102
}
330
C
100
AcDbDictionary
281
     1
  3
A0
350
48
  3
A1
350
49
  3
A2
350
4A
  3
A3
350
4B
  3
A4
350
4C
  3
A5
350
4D
  3
A6
350
4E
  3
A7
350
4F
  3
A8
350
50
  3
A9
350
51
  3
B0
350
52
  3
B1
350
53
  3
B2
350
54
  3
B3
350
55
  3
B4
350
56
  3
B5
350
57
  3
B6
350
58
  3
B7
350
59
  3
B8
350
5A
  3
B9
350
5B
  3
C0
350
5C
  3
C1
350
5D
  3
C2
350
5E
  3
C3
350
5F
  3
C4
350
60
  3
C5
350
61
  3
C6
350
62
  3
C7
350
63
  3
C8
350
64
  3
C9
350
65
  3
D0
350
66
  3
D1
350
67
  3
D2
350
68
  0
DICTIONARY
  5
154
102
{ACAD_REACTORS
330
C
102
}
330
C
100
AcDbDictionary
281
     1
  0
XRECORD
  5
15D
102
{ACAD_REACTORS
330
C
102
}
330
C
100
AcDbXrecord
280
     1
  1
DWGPROPS COOKIE
  2

  3

  4

  6

  7

  8
12016016
  9

300
=
301
=
302
=
303
=
304
=
305
=
306
=
307
=
308
=
309
=
 40
0.0
 41
2458298.520269572
 42
2458303.001238958
  1

 90
        0
  0
LAYOUT
  5
1E
102
{ACAD_REACTORS
330
1A
102
}
330
1A
100
AcDbPlotSettings
  1

  2
none_device
  4

  6

 40
0.0
 41
0.0
 42
0.0
 43
0.0
 44
0.0
 45
0.0
 46
0.0
 47
0.0
 48
0.0
 49
0.0
140
0.0
141
0.0
142
1.0
143
1.0
 70
   688
 72
     1
 73
     0
 74
     5
  7

 75
    16
147
1.0
148
0.0
149
0.0
100
AcDbLayout
  1
Layout1
 70
     1
 71
     1
 10
0.0
 20
0.0
 11
420.0
 21
297.0
 12
0.0
 22
0.0
 32
0.0
 14
1.000000000000000E+20
 24
1.000000000000000E+20
 34
1.000000000000000E+20
 15
-1.000000000000000E+20
 25
-1.000000000000000E+20
 35
-1.000000000000000E+20
146
0.0
 13
0.0
 23
0.0
 33
0.0
 16
1.0
 26
0.0
 36
0.0
 17
0.0
 27
1.0
 37
0.0
 76
     0
330
1B
  0
LAYOUT
  5
26
102
{ACAD_REACTORS
330
1A
102
}
330
1A
100
AcDbPlotSettings
  1

  2
none_device
  4

  6

 40
0.0
 41
0.0
 42
0.0
 43
0.0
 44
0.0
 45
0.0
 46
0.0
 47
0.0
 48
0.0
 49
0.0
140
0.0
141
0.0
142
1.0
143
1.0
 70
   688
 72
     1
 73
     0
 74
     5
  7

 75
    16
147
1.0
148
0.0
149
0.0
100
AcDbLayout
  1
Layout2
 70
     1
 71
     2
 10
0.0
 20
0.0
 11
0.0
 21
0.0
 12
0.0
 22
0.0
 32
0.0
 14
0.0
 24
0.0
 34
0.0
 15
0.0
 25
0.0
 35
0.0
146
0.0
 13
0.0
 23
0.0
 33
0.0
 16
1.0
 26
0.0
 36
0.0
 17
0.0
 27
1.0
 37
0.0
 76
     0
330
23
  0
LAYOUT
  5
22
102
{ACAD_REACTORS
330
1A
102
}
330
1A
100
AcDbPlotSettings
  1

  2
none_device
  4
ANSI_A_(11.00_x_8.50_Inches)
  6

 40
6.35
 41
19.05
 42
6.35000508
 43
19.05000254
 44
279.4
 45
215.9
 46
89.11523885263887
 47
83.26099313049464
 48
0.0
 49
0.0
140
0.0
141
0.0
142
0.0606809357796272
143
1.0
 70
  1696
 72
     0
 73
     0
 74
     0
  7

 75
     0
147
0.0235690232323232
148
0.0
149
0.0
100
AcDbLayout
  1
Model
 70
     1
 71
     0
 10
0.0
 20
0.0
 11
420.0
 21
297.0
 12
0.0
 22
0.0
 32
0.0
 14
-77.6764002519704
 24
-49.97180738881175
 34
0.0
 15
109.7664774636985
 25
55.93167432272148
 35
0.0
146
0.0
 13
0.0
 23
0.0
 33
0.0
 16
1.0
 26
0.0
 36
0.0
 17
0.0
 27
1.0
 37
0.0
 76
     0
330
1F
331
29
  0
MLINESTYLE
  5
18
102
{ACAD_REACTORS
330
17
102
}
330
17
100
AcDbMlineStyle
  2
Standard
 70
     0
  3

 62
   256
 51
90.0
 52
90.0
 71
     2
 49
0.5
 62
   256
  6
BYLAYER
 49
-0.5
 62
   256
  6
BYLAYER
  0
ACDBPLACEHOLDER
  5
F
102
{ACAD_REACTORS
330
E
102
}
330
E
  0
SCALE
  5
48
102
{ACAD_REACTORS
330
47
102
}
330
47
100
AcDbScale
 70
     0
300
1:1
140
1.0
141
1.0
290
     1
  0
SCALE
  5
49
102
{ACAD_REACTORS
330
47
102
}
330
47
100
AcDbScale
 70
     0
300
1:2
140
1.0
141
2.0
290
     0
  0
SCALE
  5
4A
102
{ACAD_REACTORS
330
47
102
}
330
47
100
AcDbScale
 70
     0
300
1:4
140
1.0
141
4.0
290
     0
  0
SCALE
  5
4B
102
{ACAD_REACTORS
330
47
102
}
330
47
100
AcDbScale
 70
     0
300
1:5
140
1.0
141
5.0
290
     0
  0
SCALE
  5
4C
102
{ACAD_REACTORS
330
47
102
}
330
47
100
AcDbScale
 70
     0
300
1:8
140
1.0
141
8.0
290
     0
  0
SCALE
  5
4D
102
{ACAD_REACTORS
330
47
102
}
330
47
100
AcDbScale
 70
     0
300
1:10
140
1.0
141
10.0
290
     0
  0
SCALE
  5
4E
102
{ACAD_REACTORS
330
47
102
}
330
47
100
AcDbScale
 70
     0
300
1:16
140
1.0
141
16.0
290
     0
  0
SCALE
  5
4F
102
{ACAD_REACTORS
330
47
102
}
330
47
100
AcDbScale
 70
     0
300
1:20
140
1.0
141
20.0
290
     0
  0
SCALE
  5
50
102
{ACAD_REACTORS
330
47
102
}
330
47
100
AcDbScale
 70
     0
300
1:30
140
1.0
141
30.0
290
     0
  0
SCALE
  5
51
102
{ACAD_REACTORS
330
47
102
}
330
47
100
AcDbScale
 70
     0
300
1:40
140
1.0
141
40.0
290
     0
  0
SCALE
  5
52
102
{ACAD_REACTORS
330
47
102
}
330
47
100
AcDbScale
 70
     0
300
1:50
140
1.0
141
50.0
290
     0
  0
SCALE
  5
53
102
{ACAD_REACTORS
330
47
102
}
330
47
100
AcDbScale
 70
     0
300
1:100
140
1.0
141
100.0
290
     0
  0
SCALE
  5
54
102
{ACAD_REACTORS
330
47
102
}
330
47
100
AcDbScale
 70
     0
300
2:1
140
2.0
141
1.0
290
     0
  0
SCALE
  5
55
102
{ACAD_REACTORS
330
47
102
}
330
47
100
AcDbScale
 70
     0
300
4:1
140
4.0
141
1.0
290
     0
  0
SCALE
  5
56
102
{ACAD_REACTORS
330
47
102
}
330
47
100
AcDbScale
 70
     0
300
8:1
140
8.0
141
1.0
290
     0
  0
SCALE
  5
57
102
{ACAD_REACTORS
330
47
102
}
330
47
100
AcDbScale
 70
     0
300
10:1
140
10.0
141
1.0
290
     0
  0
SCALE
  5
58
102
{ACAD_REACTORS
330
47
102
}
330
47
100
AcDbScale
 70
     0
300
100:1
140
100.0
141
1.0
290
     0
  0
SCALE
  5
59
102
{ACAD_REACTORS
330
47
102
}
330
47
100
AcDbScale
 70
     0
300
1/128" = 1'-0"
140
0.0078125
141
12.0
290
     0
  0
SCALE
  5
5A
102
{ACAD_REACTORS
330
47
102
}
330
47
100
AcDbScale
 70
     0
300
1/64" = 1'-0"
140
0.015625
141
12.0
290
     0
  0
SCALE
  5
5B
102
{ACAD_REACTORS
330
47
102
}
330
47
100
AcDbScale
 70
     0
300
1/32" = 1'-0"
140
0.03125
141
12.0
290
     0
  0
SCALE
  5
5C
102
{ACAD_REACTORS
330
47
102
}
330
47
100
AcDbScale
 70
     0
300
1/16" = 1'-0"
140
0.0625
141
12.0
290
     0
  0
SCALE
  5
5D
102
{ACAD_REACTORS
330
47
102
}
330
47
100
AcDbScale
 70
     0
300
3/32" = 1'-0"
140
0.09375
141
12.0
290
     0
  0
SCALE
  5
5E
102
{ACAD_REACTORS
330
47
102
}
330
47
100
AcDbScale
 70
     0
300
1/8" = 1'-0"
140
0.125
141
12.0
290
     0
  0
SCALE
  5
5F
102
{ACAD_REACTORS
330
47
102
}
330
47
100
AcDbScale
 70
     0
300
3/16" = 1'-0"
140
0.1875
141
12.0
290
     0
  0
SCALE
  5
60
102
{ACAD_REACTORS
330
47
102
}
330
47
100
AcDbScale
 70
     0
300
1/4" = 1'-0"
140
0.25
141
12.0
290
     0
  0
SCALE
  5
61
102
{ACAD_REACTORS
330
47
102
}
330
47
100
AcDbScale
 70
     0
300
3/8" = 1'-0"
140
0.375
141
12.0
290
     0
  0
SCALE
  5
62
102
{ACAD_REACTORS
330
47
102
}
330
47
100
AcDbScale
 70
     0
300
1/2" = 1'-0"
140
0.5
141
12.0
290
     0
  0
SCALE
  5
63
102
{ACAD_REACTORS
330
47
102
}
330
47
100
AcDbScale
 70
     0
300
3/4" = 1'-0"
140
0.75
141
12.0
290
     0
  0
SCALE
  5
64
102
{ACAD_REACTORS
330
47
102
}
330
47
100
AcDbScale
 70
     0
300
1" = 1'-0"
140
1.0
141
12.0
290
     0
  0
SCALE
  5
65
102
{ACAD_REACTORS
330
47
102
}
330
47
100
AcDbScale
 70
     0
300
1-1/2" = 1'-0"
140
1.5
141
12.0
290
     0
  0
SCALE
  5
66
102
{ACAD_REACTORS
330
47
102
}
330
47
100
AcDbScale
 70
     0
300
3" = 1'-0"
140
3.0
141
12.0
290
     0
  0
SCALE
  5
67
102
{ACAD_REACTORS
330
47
102
}
330
47
100
AcDbScale
 70
     0
300
6" = 1'-0"
140
6.0
141
12.0
290
     0
  0
SCALE
  5
68
102
{ACAD_REACTORS
330
47
102
}
330
47
100
AcDbScale
 70
     0
300
1'-0" = 1'-0"
140
12.0
141
12.0
290
     0
  0
ENDSEC
  0
EOF
