  0
SECTION
  2
HEADER
  9
$ACADVER
  1
AC1015
  9
$ACADMAINTVER
 70
     6
  9
$DWGCODEPAGE
  3
ANSI_949
  9
$INSBASE
 10
0.0
 20
0.0
 30
0.0
  9
$EXTMIN
 10
-39.95000000000007
 20
-49.97180738881175
 30
0.0
  9
$EXTMAX
 10
94.61912503295508
 20
27.88124999999997
 30
0.0
  9
$LIMMIN
 10
0.0
 20
0.0
  9
$LIMMAX
 10
420.0
 20
297.0
  9
$ORTHOMODE
 70
     1
  9
$REGENMODE
 70
     1
  9
$FILLMODE
 70
     1
  9
$QTEXTMODE
 70
     0
  9
$MIRRTEXT
 70
     1
  9
$LTSCALE
 40
1.0
  9
$ATTMODE
 70
     1
  9
$TEXTSIZE
 40
3.5
  9
$TRACEWID
 40
1.0
  9
$TEXTSTYLE
  7
Standard
  9
$CLAYER
  8
0
  9
$CELTYPE
  6
ByLayer
  9
$CECOLOR
 62
   256
  9
$CELTSCALE
 40
1.0
  9
$DISPSILH
 70
     0
  9
$DIMSCALE
 40
1.0
  9
$DIMASZ
 40
3.302
  9
$DIMEXO
 40
1.0
  9
$DIMDLI
 40
3.75
  9
$DIMRND
 40
0.0
  9
$DIMDLE
 40
0.0
  9
$DIMEXE
 40
1.0
  9
$DIMTP
 40
0.0
  9
$DIMTM
 40
0.0
  9
$DIMTXT
 40
3.5
  9
$DIMCEN
 40
2.5
  9
$DIMTSZ
 40
0.0
  9
$DIMTOL
 70
     0
  9
$DIMLIM
 70
     0
  9
$DIMTIH
 70
     1
  9
$DIMTOH
 70
     1
  9
$DIMSE1
 70
     0
  9
$DIMSE2
 70
     0
  9
$DIMTAD
 70
     1
  9
$DIMZIN
 70
     0
  9
$DIMBLK
  1

  9
$DIMASO
 70
     1
  9
$DIMSHO
 70
     1
  9
$DIMPOST
  1

  9
$DIMAPOST
  1

  9
$DIMALT
 70
     0
  9
$DIMALTD
 70
     3
  9
$DIMALTF
 40
0.0393700787401575
  9
$DIMLFAC
 40
1.0
  9
$DIMTOFL
 70
     1
  9
$DIMTVP
 40
0.0
  9
$DIMTIX
 70
     0
  9
$DIMSOXD
 70
     0
  9
$DIMSAH
 70
     0
  9
$DIMBLK1
  1

  9
$DIMBLK2
  1

  9
$DIMSTYLE
  2
ISO-25
  9
$DIMCLRD
 70
     0
  9
$DIMCLRE
 70
     0
  9
$DIMCLRT
 70
     0
  9
$DIMTFAC
 40
1.0
  9
$DIMGAP
 40
1.524
  9
$DIMJUST
 70
     0
  9
$DIMSD1
 70
     0
  9
$DIMSD2
 70
     0
  9
$DIMTOLJ
 70
     0
  9
$DIMTZIN
 70
     0
  9
$DIMALTZ
 70
     0
  9
$DIMALTTZ
 70
     0
  9
$DIMUPT
 70
     0
  9
$DIMDEC
 70
     2
  9
$DIMTDEC
 70
     2
  9
$DIMALTU
 70
     2
  9
$DIMALTTD
 70
     3
  9
$DIMTXSTY
  7
Standard
  9
$DIMAUNIT
 70
     0
  9
$DIMADEC
 70
     2
  9
$DIMALTRND
 40
0.0
  9
$DIMAZIN
 70
     0
  9
$DIMDSEP
 70
    44
  9
$DIMATFIT
 70
     3
  9
$DIMFRAC
 70
     0
  9
$DIMLDRBLK
  1

  9
$DIMLUNIT
 70
     2
  9
$DIMLWD
 70
    -2
  9
$DIMLWE
 70
    -2
  9
$DIMTMOVE
 70
     0
  9
$LUNITS
 70
     2
  9
$LUPREC
 70
     2
  9
$SKETCHINC
 40
1.0
  9
$FILLETRAD
 40
10.0
  9
$AUNITS
 70
     0
  9
$AUPREC
 70
     2
  9
$MENU
  1
.
  9
$ELEVATION
 40
0.0
  9
$PELEVATION
 40
0.0
  9
$THICKNESS
 40
0.0
  9
$LIMCHECK
 70
     0
  9
$CHAMFERA
 40
0.0
  9
$CHAMFERB
 40
0.0
  9
$CHAMFERC
 40
0.0
  9
$CHAMFERD
 40
0.0
  9
$SKPOLY
 70
     0
  9
$TDCREATE
 40
2458313.389958044
  9
$TDUCREATE
 40
2458313.014958044
  9
$TDUPDATE
 40
2458317.729735949
  9
$TDUUPDATE
 40
2458317.354735949
  9
$TDINDWG
 40
0.0020224653
  9
$TDUSRTIMER
 40
0.0017787153
  9
$USRTIMER
 70
     1
  9
$ANGBASE
 50
0.0
  9
$ANGDIR
 70
     0
  9
$PDMODE
 70
     0
  9
$PDSIZE
 40
-1.0
  9
$PLINEWID
 40
0.0
  9
$SPLFRAME
 70
     0
  9
$SPLINETYPE
 70
     6
  9
$SPLINESEGS
 70
     8
  9
$HANDSEED
  5
34D
  9
$SURFTAB1
 70
     6
  9
$SURFTAB2
 70
     6
  9
$SURFTYPE
 70
     6
  9
$SURFU
 70
     6
  9
$SURFV
 70
     6
  9
$UCSBASE
  2

  9
$UCSNAME
  2

  9
$UCSORG
 10
0.0
 20
0.0
 30
0.0
  9
$UCSXDIR
 10
1.0
 20
0.0
 30
0.0
  9
$UCSYDIR
 10
0.0
 20
1.0
 30
0.0
  9
$UCSORTHOREF
  2

  9
$UCSORTHOVIEW
 70
     0
  9
$UCSORGTOP
 10
0.0
 20
0.0
 30
0.0
  9
$UCSORGBOTTOM
 10
0.0
 20
0.0
 30
0.0
  9
$UCSORGLEFT
 10
0.0
 20
0.0
 30
0.0
  9
$UCSORGRIGHT
 10
0.0
 20
0.0
 30
0.0
  9
$UCSORGFRONT
 10
0.0
 20
0.0
 30
0.0
  9
$UCSORGBACK
 10
0.0
 20
0.0
 30
0.0
  9
$PUCSBASE
  2

  9
$PUCSNAME
  2

  9
$PUCSORG
 10
0.0
 20
0.0
 30
0.0
  9
$PUCSXDIR
 10
1.0
 20
0.0
 30
0.0
  9
$PUCSYDIR
 10
0.0
 20
1.0
 30
0.0
  9
$PUCSORTHOREF
  2

  9
$PUCSORTHOVIEW
 70
     0
  9
$PUCSORGTOP
 10
0.0
 20
0.0
 30
0.0
  9
$PUCSORGBOTTOM
 10
0.0
 20
0.0
 30
0.0
  9
$PUCSORGLEFT
 10
0.0
 20
0.0
 30
0.0
  9
$PUCSORGRIGHT
 10
0.0
 20
0.0
 30
0.0
  9
$PUCSORGFRONT
 10
0.0
 20
0.0
 30
0.0
  9
$PUCSORGBACK
 10
0.0
 20
0.0
 30
0.0
  9
$USERI1
 70
     0
  9
$USERI2
 70
     0
  9
$USERI3
 70
     0
  9
$USERI4
 70
     0
  9
$USERI5
 70
     0
  9
$USERR1
 40
0.0
  9
$USERR2
 40
0.0
  9
$USERR3
 40
0.0
  9
$USERR4
 40
0.0
  9
$USERR5
 40
0.0
  9
$WORLDVIEW
 70
     1
  9
$SHADEDGE
 70
     3
  9
$SHADEDIF
 70
    70
  9
$TILEMODE
 70
     1
  9
$MAXACTVP
 70
    64
  9
$PINSBASE
 10
0.0
 20
0.0
 30
0.0
  9
$PLIMCHECK
 70
     0
  9
$PEXTMIN
 10
1.000000000000000E+20
 20
1.000000000000000E+20
 30
1.000000000000000E+20
  9
$PEXTMAX
 10
-1.000000000000000E+20
 20
-1.000000000000000E+20
 30
-1.000000000000000E+20
  9
$PLIMMIN
 10
0.0
 20
0.0
  9
$PLIMMAX
 10
0.0
 20
0.0
  9
$UNITMODE
 70
     0
  9
$VISRETAIN
 70
     1
  9
$PLINEGEN
 70
     0
  9
$PSLTSCALE
 70
     1
  9
$TREEDEPTH
 70
  3020
  9
$CMLSTYLE
  2
Standard
  9
$CMLJUST
 70
     0
  9
$CMLSCALE
 40
20.0
  9
$PROXYGRAPHICS
 70
     1
  9
$MEASUREMENT
 70
     1
  9
$CELWEIGHT
370
    -1
  9
$ENDCAPS
280
     0
  9
$JOINSTYLE
280
     0
  9
$LWDISPLAY
290
     1
  9
$INSUNITS
 70
     4
  9
$HYPERLINKBASE
  1

  9
$STYLESHEET
  1

  9
$XEDIT
290
     1
  9
$CEPSNTYPE
380
     0
  9
$PSTYLEMODE
290
     1
  9
$FINGERPRINTGUID
  2
{BCECE2A3-5211-4E94-A190-ECB1A782E682}
  9
$VERSIONGUID
  2
{FAEB1C32-E019-11D5-929B-00C0DF256EC4}
  9
$EXTNAMES
290
     1
  9
$PSVPSCALE
 40
0.0
  9
$OLESTARTUP
290
     0
  0
ENDSEC
  0
SECTION
  2
CLASSES
  0
CLASS
  1
ACDBDICTIONARYWDFLT
  2
AcDbDictionaryWithDefault
  3
ObjectDBX Classes
 90
        0
280
     0
281
     0
  0
CLASS
  1
VISUALSTYLE
  2
AcDbVisualStyle
  3
ObjectDBX Classes
 90
     4095
280
     0
281
     0
  0
CLASS
  1
MATERIAL
  2
AcDbMaterial
  3
ObjectDBX Classes
 90
     1153
280
     0
281
     0
  0
CLASS
  1
SCALE
  2
AcDbScale
  3
ObjectDBX Classes
 90
     1153
280
     0
281
     0
  0
CLASS
  1
SUN
  2
AcDbSun
  3
SCENEOE
 90
     1153
280
     0
281
     0
  0
CLASS
  1
ACDBPLACEHOLDER
  2
AcDbPlaceHolder
  3
ObjectDBX Classes
 90
        0
280
     0
281
     0
  0
CLASS
  1
LAYOUT
  2
AcDbLayout
  3
ObjectDBX Classes
 90
        0
280
     0
281
     0
  0
CLASS
  1
TABLESTYLE
  2
AcDbTableStyle
  3
ObjectDBX Classes
 90
     4095
280
     0
281
     0
  0
CLASS
  1
MLEADERSTYLE
  2
AcDbMLeaderStyle
  3
ACDB_MLEADERSTYLE_CLASS
 90
     4095
280
     0
281
     0
  0
CLASS
  1
DICTIONARYVAR
  2
AcDbDictionaryVar
  3
ObjectDBX Classes
 90
        0
280
     0
281
     0
  0
ENDSEC
  0
SECTION
  2
TABLES
  0
TABLE
  2
VPORT
  5
8
330
0
100
AcDbSymbolTable
 70
     1
  0
VPORT
  5
29
330
8
100
AcDbSymbolTableRecord
100
AcDbViewportTableRecord
  2
*Active
 70
     0
 10
0.0
 20
0.0
 11
1.0
 21
1.0
 12
27.33456251647749
 22
-11.04527869440589
 13
0.0
 23
0.0
 14
10.0
 24
10.0
 15
10.0
 25
10.0
 16
0.0
 26
0.0
 36
1.0
 17
0.0
 27
0.0
 37
0.0
 40
79.41011853658796
 41
1.782762691853601
 42
50.0
 43
0.0
 44
0.0
 50
0.0
 51
0.0
 71
    16
 72
  2000
 73
     1
 74
     3
 75
     0
 76
     0
 77
     0
 78
     0
281
     0
 65
     1
110
0.0
120
0.0
130
0.0
111
1.0
121
0.0
131
0.0
112
0.0
122
1.0
132
0.0
 79
     0
146
0.0
  0
ENDTAB
  0
TABLE
  2
LTYPE
  5
5
330
0
100
AcDbSymbolTable
 70
     6
  0
LTYPE
  5
14
330
5
100
AcDbSymbolTableRecord
100
AcDbLinetypeTableRecord
  2
ByBlock
 70
     0
  3

 72
    65
 73
     0
 40
0.0
  0
LTYPE
  5
15
330
5
100
AcDbSymbolTableRecord
100
AcDbLinetypeTableRecord
  2
ByLayer
 70
     0
  3

 72
    65
 73
     0
 40
0.0
  0
LTYPE
  5
16
330
5
100
AcDbSymbolTableRecord
100
AcDbLinetypeTableRecord
  2
Continuous
 70
     0
  3
Solid line
 72
    65
 73
     0
 40
0.0
  0
LTYPE
  5
6A
330
5
100
AcDbSymbolTableRecord
100
AcDbLinetypeTableRecord
  2
HIDDEN
 70
     0
  3
Hidden __ __ __ __ __ __ __ __ __ __ __ __ __ __
 72
    65
 73
     2
 40
1.905
 49
1.27
 74
     0
 49
-0.635
 74
     0
  0
LTYPE
  5
6B
330
5
100
AcDbSymbolTableRecord
100
AcDbLinetypeTableRecord
  2
PHANTOM
 70
     0
  3
Phantom ______  __  __  ______  __  __  ______
 72
    65
 73
     6
 40
12.7
 49
6.35
 74
     0
 49
-1.27
 74
     0
 49
1.27
 74
     0
 49
-1.27
 74
     0
 49
1.27
 74
     0
 49
-1.27
 74
     0
  0
LTYPE
  5
6C
330
5
100
AcDbSymbolTableRecord
100
AcDbLinetypeTableRecord
  2
CENTER
 70
     0
  3
Center ____ _ ____ _ ____ _ ____ _ ____ _ ____
 72
    65
 73
     4
 40
10.16
 49
6.35
 74
     0
 49
-1.27
 74
     0
 49
1.27
 74
     0
 49
-1.27
 74
     0
  0
LTYPE
  5
6D
330
5
100
AcDbSymbolTableRecord
100
AcDbLinetypeTableRecord
  2
CENTERX2
 70
     0
  3
Center (2x) ________  __  ________  __  _____
 72
    65
 73
     4
 40
20.32
 49
12.7
 74
     0
 49
-2.54
 74
     0
 49
2.54
 74
     0
 49
-2.54
 74
     0
  0
LTYPE
  5
6E
330
5
100
AcDbSymbolTableRecord
100
AcDbLinetypeTableRecord
  2
DOT2
 70
     0
  3
Dot (.5x) ........................................
 72
    65
 73
     2
 40
0.635
 49
0.0
 74
     0
 49
-0.635
 74
     0
  0
ENDTAB
  0
TABLE
  2
LAYER
  5
2
330
0
100
AcDbSymbolTable
 70
    18
  0
LAYER
  5
10
330
2
100
AcDbSymbolTableRecord
100
AcDbLayerTableRecord
  2
0
 70
     0
 62
     7
  6
Continuous
370
    -3
390
F
  0
LAYER
  5
6F
330
2
100
AcDbSymbolTableRecord
100
AcDbLayerTableRecord
  2
FORMAT
 70
     0
 62
     2
  6
Continuous
370
    -3
390
F
  0
LAYER
  5
70
330
2
100
AcDbSymbolTableRecord
100
AcDbLayerTableRecord
  2
외형선
 70
     0
 62
     4
  6
Continuous
370
    30
390
F
  0
LAYER
  5
71
330
2
100
AcDbSymbolTableRecord
100
AcDbLayerTableRecord
  2
숨은선
 70
     0
 62
     2
  6
HIDDEN
370
    15
390
F
  0
LAYER
  5
72
330
2
100
AcDbSymbolTableRecord
100
AcDbLayerTableRecord
  2
중심선
 70
     0
 62
     1
  6
CENTERX2
370
    -3
390
F
  0
LAYER
  5
73
330
2
100
AcDbSymbolTableRecord
100
AcDbLayerTableRecord
  2
파단선
 70
     0
 62
     4
  6
Continuous
370
    -3
390
F
  0
LAYER
  5
74
330
2
100
AcDbSymbolTableRecord
100
AcDbLayerTableRecord
  2
해칭선
 70
     0
 62
   100
  6
Continuous
370
    -3
390
F
  0
LAYER
  5
75
330
2
100
AcDbSymbolTableRecord
100
AcDbLayerTableRecord
  2
가는실선
 70
     0
 62
     4
  6
Continuous
370
    -3
390
F
  0
LAYER
  5
76
330
2
100
AcDbSymbolTableRecord
100
AcDbLayerTableRecord
  2
치수_보조선
 70
     0
 62
     4
  6
Continuous
370
    -3
390
F
  0
LAYER
  5
77
330
2
100
AcDbSymbolTableRecord
100
AcDbLayerTableRecord
  2
치수문자_일반주서
 70
     0
 62
     7
  6
Continuous
370
    15
390
F
  0
LAYER
  5
78
330
2
100
AcDbSymbolTableRecord
100
AcDbLayerTableRecord
  2
개별주서
 70
     0
 62
   100
  6
Continuous
370
    30
390
F
  0
LAYER
  5
79
330
2
100
AcDbSymbolTableRecord
100
AcDbLayerTableRecord
  2
중간선
 70
     0
 62
     2
  6
Continuous
370
    15
390
F
  0
LAYER
  5
7A
330
2
100
AcDbSymbolTableRecord
100
AcDbLayerTableRecord
  2
윤곽선
 70
     0
 62
     3
  6
Continuous
370
    40
390
F
  0
LAYER
  5
7B
330
2
100
AcDbSymbolTableRecord
100
AcDbLayerTableRecord
  2
중심마크
 70
     0
 62
   100
  6
Continuous
370
    30
390
F
  0
LAYER
  5
7C
330
2
100
AcDbSymbolTableRecord
100
AcDbLayerTableRecord
  2
가상선
 70
     0
 62
     4
  6
PHANTOM
370
    -3
390
F
  0
LAYER
  5
7D
330
2
100
AcDbSymbolTableRecord
100
AcDbLayerTableRecord
  2
특수지정선
 70
     0
 62
     5
  6
CENTERX2
370
    60
390
F
  0
LAYER
  5
7E
330
2
100
AcDbSymbolTableRecord
100
AcDbLayerTableRecord
  2
참조1
 70
     0
 62
    -4
  6
Continuous
370
    -3
390
F
  0
LAYER
  5
161
330
2
100
AcDbSymbolTableRecord
100
AcDbLayerTableRecord
  2
Defpoints
 70
     0
 62
     7
  6
Continuous
290
     0
370
    -3
390
F
  0
ENDTAB
  0
TABLE
  2
STYLE
  5
3
330
0
100
AcDbSymbolTable
 70
     2
  0
STYLE
  5
11
330
3
100
AcDbSymbolTableRecord
100
AcDbTextStyleTableRecord
  2
Standard
 70
     0
 40
0.0
 41
1.0
 50
0.0
 71
     0
 42
3.5
  3
txt
  4

  0
STYLE
  5
94
330
3
100
AcDbSymbolTableRecord
100
AcDbTextStyleTableRecord
  2
SLDTEXTSTYLE0
 70
     0
 40
0.0
 41
0.75
 50
0.0
 71
     0
 42
3.5
  3
TXT
  4

  0
ENDTAB
  0
TABLE
  2
VIEW
  5
6
330
0
100
AcDbSymbolTable
 70
     0
  0
ENDTAB
  0
TABLE
  2
UCS
  5
7
330
0
100
AcDbSymbolTable
 70
     0
  0
ENDTAB
  0
TABLE
  2
APPID
  5
9
330
0
100
AcDbSymbolTable
 70
     2
  0
APPID
  5
12
330
9
100
AcDbSymbolTableRecord
100
AcDbRegAppTableRecord
  2
ACAD
 70
     0
  0
APPID
  5
168
330
9
100
AcDbSymbolTableRecord
100
AcDbRegAppTableRecord
  2
PE_URL
 70
     0
  0
ENDTAB
  0
TABLE
  2
DIMSTYLE
  5
A
330
0
100
AcDbSymbolTable
 70
     3
100
AcDbDimStyleTable
  0
DIMSTYLE
105
27
330
A
100
AcDbSymbolTableRecord
100
AcDbDimStyleTableRecord
  2
ISO-25
 70
     0
 41
2.5
 42
0.625
 43
3.75
 44
1.25
 73
     0
 74
     0
 77
     1
 78
     8
140
2.5
141
2.5
143
0.03937007874016
147
0.625
171
     3
172
     1
178
     0
271
     2
272
     2
274
     3
278
    44
283
     0
284
     8
340
11
  0
DIMSTYLE
105
DF
102
{ACAD_REACTORS
330
DE
330
F3
330
107
330
11C
102
}
330
A
100
AcDbSymbolTableRecord
100
AcDbDimStyleTableRecord
  2
SLDDIMSTYLE0
 70
     0
 41
3.302
 44
0.0
 45
0.000000001
 73
     0
 74
     0
 77
     1
 78
    12
 79
     3
140
3.5
143
0.0393700787401575
147
0.875
148
0.000000001
170
     1
172
     1
173
     1
178
     0
271
     2
272
     2
276
     2
284
    12
289
     0
340
94
  0
DIMSTYLE
105
11D
330
A
100
AcDbSymbolTableRecord
100
AcDbDimStyleTableRecord
  2
SLDDIMSTYLE1
 70
     0
 41
3.302
 44
0.0
 45
0.000000001
 73
     0
 74
     0
 77
     1
 78
    12
 79
     3
140
3.5
143
0.0393700787401575
147
0.875
148
0.000000001
170
     1
173
     1
178
     0
271
     2
272
     2
276
     2
284
    12
340
94
  0
ENDTAB
  0
TABLE
  2
BLOCK_RECORD
  5
1
330
0
100
AcDbSymbolTable
 70
     9
  0
BLOCK_RECORD
  5
1F
330
1
100
AcDbSymbolTableRecord
100
AcDbBlockTableRecord
  2
*Model_Space
340
22
  0
BLOCK_RECORD
  5
1B
330
1
100
AcDbSymbolTableRecord
100
AcDbBlockTableRecord
  2
*Paper_Space
340
1E
  0
BLOCK_RECORD
  5
23
330
1
100
AcDbSymbolTableRecord
100
AcDbBlockTableRecord
  2
*Paper_Space0
340
26
  0
BLOCK_RECORD
  5
7F
330
1
100
AcDbSymbolTableRecord
100
AcDbBlockTableRecord
  2
블럭10
340
0
102
{BLKREFS
331
D7
102
}
  0
BLOCK_RECORD
  5
E0
330
1
100
AcDbSymbolTableRecord
100
AcDbBlockTableRecord
  2
_D
340
0
  0
BLOCK_RECORD
  5
F4
330
1
100
AcDbSymbolTableRecord
100
AcDbBlockTableRecord
  2
_D_1
340
0
  0
BLOCK_RECORD
  5
108
330
1
100
AcDbSymbolTableRecord
100
AcDbBlockTableRecord
  2
_D_2
340
0
  0
BLOCK_RECORD
  5
11E
330
1
100
AcDbSymbolTableRecord
100
AcDbBlockTableRecord
  2
_D_3
340
0
  0
BLOCK_RECORD
  5
137
330
1
100
AcDbSymbolTableRecord
100
AcDbBlockTableRecord
  2
SW_DOWELSYMBOL_0
340
0
102
{BLKREFS
331
13D
102
}
  0
BLOCK_RECORD
  5
19A
330
1
100
AcDbSymbolTableRecord
100
AcDbBlockTableRecord
  2
*D7
340
0
  0
BLOCK_RECORD
  5
1AC
330
1
100
AcDbSymbolTableRecord
100
AcDbBlockTableRecord
  2
*D8
340
0
  0
ENDTAB
  0
ENDSEC
  0
SECTION
  2
BLOCKS
  0
BLOCK
  5
20
330
1F
100
AcDbEntity
  8
0
100
AcDbBlockBegin
  2
*Model_Space
 70
     0
 10
0.0
 20
0.0
 30
0.0
  3
*Model_Space
  1

  0
ENDBLK
  5
21
330
1F
100
AcDbEntity
  8
0
100
AcDbBlockEnd
  0
BLOCK
  5
1C
330
1B
100
AcDbEntity
 67
     1
  8
0
100
AcDbBlockBegin
  2
*Paper_Space
 70
     0
 10
0.0
 20
0.0
 30
0.0
  3
*Paper_Space
  1

  0
ENDBLK
  5
1D
330
1B
100
AcDbEntity
 67
     1
  8
0
100
AcDbBlockEnd
  0
BLOCK
  5
24
330
23
100
AcDbEntity
  8
0
100
AcDbBlockBegin
  2
*Paper_Space0
 70
     0
 10
0.0
 20
0.0
 30
0.0
  3
*Paper_Space0
  1

  0
ENDBLK
  5
25
330
23
100
AcDbEntity
  8
0
100
AcDbBlockEnd
  0
BLOCK
  5
80
330
7F
100
AcDbEntity
  8
0
100
AcDbBlockBegin
  2
블럭10
 70
     2
 10
0.0
 20
0.0
 30
0.0
  3
블럭10
  1

  0
ELLIPSE
  5
82
330
7F
100
AcDbEntity
  8
중심선
100
AcDbEllipse
 10
20.54032771741204
 20
12.0471743016438
 30
0.0
 11
6.600054785286829
 21
-1.261213355974178E-13
 31
0.0
210
0.0
220
0.0
230
1.0
 40
0.636358354079598
 41
0.9219305317359503
 42
6.513795318482858
  0
ELLIPSE
  5
83
330
7F
100
AcDbEntity
  8
중심선
100
AcDbEllipse
 10
20.54032771746488
 20
12.04717430159265
 30
0.0
 11
3.960054785062283
 21
1.540847449632565E-10
 31
0.0
210
0.0
220
0.0
230
1.0
 40
0.3939339440162632
 41
1.131841032648279
 42
5.62031148352944
  0
LINE
  5
84
330
7F
100
AcDbEntity
  8
중심선
100
AcDbLine
 10
2.268634060543552
 20
16.24717430164393
 30
0.0
 11
5.714909304380834
 21
16.24717430164393
 31
0.0
  0
LINE
  5
85
330
7F
100
AcDbEntity
  8
중심선
100
AcDbLine
 10
5.245725140726316
 20
7.84717430164391
 30
0.0
 11
8.692000384563599
 21
7.84717430164391
 31
0.0
  0
LINE
  5
86
330
7F
100
AcDbEntity
  8
중심선
100
AcDbLine
 10
15.74043728645272
 20
16.24717430164393
 30
0.0
 11
8.692000384563599
 21
7.84717430164391
 31
0.0
  0
LINE
  5
87
330
7F
100
AcDbEntity
  8
중심선
100
AcDbLine
 10
0.1404042013395286
 20
13.71084872107135
 30
0.0
 11
3.58671253028996
 21
13.71088815037384
 31
0.0
  0
LINE
  5
88
330
7F
100
AcDbEntity
  8
중심선
100
AcDbLine
 10
2.750260043222114
 20
10.84717430164391
 30
0.0
 11
6.196535287059397
 21
10.84717430164391
 31
0.0
  0
LINE
  5
89
330
7F
100
AcDbEntity
  8
중심선
100
AcDbLine
 10
12.29416204261559
 20
16.24717430164393
 30
0.0
 11
5.245725140726316
 21
7.84717430164391
 31
0.0
  0
LINE
  5
8A
330
7F
100
AcDbEntity
  8
중심선
100
AcDbLine
 10
10.72767329541681
 20
16.24717430164393
 30
0.0
 11
6.196535287059397
 21
10.84717430164391
 31
0.0
  0
LINE
  5
8B
330
7F
100
AcDbEntity
  8
중심선
100
AcDbLine
 10
7.28139805157953
 20
16.24717430164393
 30
0.0
 11
2.750260043222114
 21
10.84717430164391
 31
0.0
  0
LINE
  5
8C
330
7F
100
AcDbEntity
  8
중심선
100
AcDbLine
 10
5.714909304380834
 20
16.24717430164393
 30
0.0
 11
3.58671253028996
 21
13.71088815037384
 31
0.0
  0
LINE
  5
8D
330
7F
100
AcDbEntity
  8
중심선
100
AcDbLine
 10
2.268634060543552
 20
16.24717430164393
 30
0.0
 11
0.1404042013395286
 21
13.71084872107135
 31
0.0
  0
LINE
  5
8E
330
7F
100
AcDbEntity
  8
중심선
100
AcDbLine
 10
7.28139805157953
 20
16.24717430164393
 30
0.0
 11
10.72767329541681
 21
16.24717430164393
 31
0.0
  0
LINE
  5
8F
330
7F
100
AcDbEntity
  8
중심선
100
AcDbLine
 10
12.29416204261559
 20
16.24717430164393
 30
0.0
 11
15.74043728645272
 21
16.24717430164393
 31
0.0
  0
LINE
  5
90
330
7F
100
AcDbEntity
  8
중심선
100
AcDbLine
 10
19.22036997980202
 20
11.08717430171403
 30
0.0
 11
23.66174974927406
 21
11.08717430171406
 31
0.0
  0
LINE
  5
91
330
7F
100
AcDbEntity
  8
중심선
100
AcDbLine
 10
19.22039502424796
 20
13.00717430171391
 30
0.0
 11
19.22036997980202
 21
11.08717430171403
 31
0.0
  0
LINE
  5
92
330
7F
100
AcDbEntity
  8
중심선
100
AcDbLine
 10
19.22039502424796
 20
13.00717430171391
 30
0.0
 11
26.96566020931264
 21
13.00717430171391
 31
0.0
  0
LINE
  5
93
330
7F
100
AcDbEntity
  8
중심선
100
AcDbLine
 10
22.22332737316547
 20
13.45928029700563
 30
0.0
 11
24.52862924686651
 21
15.39360700705356
 31
0.0
  0
ATTDEF
  5
95
330
7F
100
AcDbEntity
  8
FORMAT
 62
     2
100
AcDbText
 10
4.408487351596664
 20
2.075366912832191
 30
0.0
 40
4.233333333333333
  1
E1003004
 41
0.75
  7
SLDTEXTSTYLE0
 11
4.408487351596664
 21
-0.0412997538344756
 31
0.0
100
AcDbAttributeDefinition
  3

  2
AUTOATTR0
 70
     0
 74
     1
  0
ENDBLK
  5
81
330
7F
100
AcDbEntity
  8
0
100
AcDbBlockEnd
  0
BLOCK
  5
E1
330
E0
100
AcDbEntity
  8
0
100
AcDbBlockBegin
  2
_D
 70
     0
 10
0.0
 20
0.0
 30
0.0
  3
_D
  1

  0
LINE
  5
E3
330
E0
100
AcDbEntity
  8
치수문자_일반주서
 62
     0
370
    -2
100
AcDbLine
 10
-16.95036934298443
 20
2.381249999999996
 30
0.0
 11
-36.575
 21
2.381249999999921
 31
0.0
  0
LINE
  5
E4
330
E0
100
AcDbEntity
  8
치수문자_일반주서
 62
     0
370
    -2
100
AcDbLine
 10
-16.95036934298442
 20
-2.381250000000001
 30
0.0
 11
-36.57499999999999
 21
-2.381250000000076
 31
0.0
  0
LINE
  5
E5
330
E0
100
AcDbEntity
  8
치수문자_일반주서
 62
     0
370
    -2
100
AcDbLine
 10
-36.575
 20
2.381249999999921
 30
0.0
 11
-36.57500000000007
 21
27.88124999999997
 31
0.0
  0
LINE
  5
E6
330
E0
100
AcDbEntity
  8
치수문자_일반주서
 62
     0
370
    -2
100
AcDbLine
 10
-36.575
 20
2.381249999999921
 30
0.0
 11
-36.57499999999999
 21
-2.381250000000076
 31
0.0
  0
LINE
  5
E7
330
E0
100
AcDbEntity
  8
치수문자_일반주서
 62
     0
370
    -2
100
AcDbLine
 10
-36.57500000000001
 20
4.881249999999921
 30
0.0
 11
-36.57500000000002
 21
7.381249999999921
 31
0.0
  0
LINE
  5
E8
330
E0
100
AcDbEntity
  8
치수문자_일반주서
 62
     0
370
    -2
100
AcDbLine
 10
-36.57499999999998
 20
-4.881250000000076
 30
0.0
 11
-36.57499999999997
 21
-7.381250000000076
 31
0.0
  0
SOLID
  5
E9
330
E0
100
AcDbEntity
  8
치수문자_일반주서
 62
     0
100
AcDbTrace
 10
-36.99166666666667
 20
4.881249999999921
 30
0.0
 11
-36.15833333333335
 21
4.881249999999922
 31
0.0
 12
-36.575
 22
2.381249999999921
 32
0.0
 13
-36.575
 23
2.381249999999921
 33
0.0
  0
SOLID
  5
EA
330
E0
100
AcDbEntity
  8
치수문자_일반주서
 62
     0
100
AcDbTrace
 10
-36.15833333333332
 20
-4.881250000000075
 30
0.0
 11
-36.99166666666665
 21
-4.881250000000077
 31
0.0
 12
-36.57499999999999
 22
-2.381250000000076
 32
0.0
 13
-36.57499999999999
 23
-2.381250000000076
 33
0.0
  0
MTEXT
  5
EB
330
E0
100
AcDbEntity
  8
치수문자_일반주서
 62
     0
100
AcDbMText
 10
-39.95000000000005
 20
17.63124999999996
 30
0.0
 40
2.5
 41
0.0
 71
     2
 72
     1
  1
\A1;%%c4.76 [3/16]
  7
SLDTEXTSTYLE0
 11
-2.983906501879688E-15
 21
1.0
 31
0.0
 73
     1
 44
1.0
  0
POINT
  5
213
330
E0
100
AcDbEntity
  8
Defpoints
 62
     0
100
AcDbPoint
 10
-16.88786934298443
 20
2.381249999999996
 30
0.0
  0
POINT
  5
214
330
E0
100
AcDbEntity
  8
Defpoints
 62
     0
100
AcDbPoint
 10
-16.88786934298442
 20
-2.381250000000001
 30
0.0
  0
POINT
  5
215
330
E0
100
AcDbEntity
  8
Defpoints
 62
     0
100
AcDbPoint
 10
-36.57499999999999
 20
-2.381250000000075
 30
0.0
  0
ENDBLK
  5
E2
330
E0
100
AcDbEntity
  8
0
100
AcDbBlockEnd
  0
BLOCK
  5
F5
330
F4
100
AcDbEntity
  8
0
100
AcDbBlockBegin
  2
_D_1
 70
     0
 10
0.0
 20
0.0
 30
0.0
  3
_D_1
  1

  0
LINE
  5
F7
330
F4
100
AcDbEntity
  8
치수문자_일반주서
 62
     0
370
    -2
100
AcDbLine
 10
28.63750000000002
 20
-0.7930791345885297
 30
0.0
 11
57.44411424033551
 21
-0.7930791345884227
 31
0.0
  0
LINE
  5
F8
330
F4
100
AcDbEntity
  8
치수문자_일반주서
 62
     0
370
    -2
100
AcDbLine
 10
28.63750000000002
 20
0.7930791345885305
 30
0.0
 11
57.4441142403355
 21
0.7930791345886394
 31
0.0
  0
LINE
  5
F9
330
F4
100
AcDbEntity
  8
치수문자_일반주서
 62
     0
370
    -2
100
AcDbLine
 10
57.4441142403355
 20
0.7930791345886394
 30
0.0
 11
57.4441142403354
 21
25.04307913458864
 31
0.0
  0
LINE
  5
FA
330
F4
100
AcDbEntity
  8
치수문자_일반주서
 62
     0
370
    -2
100
AcDbLine
 10
57.44411424033551
 20
-0.7930791345884227
 30
0.0
 11
57.4441142403355
 21
0.7930791345886394
 31
0.0
  0
LINE
  5
FB
330
F4
100
AcDbEntity
  8
치수문자_일반주서
 62
     0
370
    -2
100
AcDbLine
 10
57.44411424033552
 20
-3.293079134588423
 30
0.0
 11
57.44411424033554
 21
-5.793079134588423
 31
0.0
  0
LINE
  5
FC
330
F4
100
AcDbEntity
  8
치수문자_일반주서
 62
     0
370
    -2
100
AcDbLine
 10
57.44411424033549
 20
3.293079134588639
 30
0.0
 11
57.44411424033547
 21
5.793079134588639
 31
0.0
  0
SOLID
  5
FD
330
F4
100
AcDbEntity
  8
치수문자_일반주서
 62
     0
100
AcDbTrace
 10
57.86078090700219
 20
-3.293079134588421
 30
0.0
 11
57.02744757366886
 21
-3.293079134588424
 31
0.0
 12
57.44411424033551
 22
-0.7930791345884227
 32
0.0
 13
57.44411424033551
 23
-0.7930791345884227
 33
0.0
  0
SOLID
  5
FE
330
F4
100
AcDbEntity
  8
치수문자_일반주서
 62
     0
100
AcDbTrace
 10
57.02744757366882
 20
3.293079134588638
 30
0.0
 11
57.86078090700215
 21
3.293079134588641
 31
0.0
 12
57.4441142403355
 22
0.7930791345886394
 32
0.0
 13
57.4441142403355
 23
0.7930791345886394
 33
0.0
  0
MTEXT
  5
FF
330
F4
100
AcDbEntity
  8
치수문자_일반주서
 62
     0
100
AcDbMText
 10
54.06911424033544
 20
15.41807913458863
 30
0.0
 40
2.5
 41
0.0
 71
     2
 72
     1
  1
\A1;%%c1.59 [1/16]
  7
SLDTEXTSTYLE0
 11
-4.479645881294985E-15
 21
1.0
 31
0.0
 73
     1
 44
1.0
  0
POINT
  5
100
330
F4
100
AcDbEntity
  8
Defpoints
 62
     0
100
AcDbPoint
 10
28.57500000000002
 20
-0.79307913458853
 30
0.0
  0
POINT
  5
101
330
F4
100
AcDbEntity
  8
Defpoints
 62
     0
100
AcDbPoint
 10
28.57500000000002
 20
0.7930791345885303
 30
0.0
  0
POINT
  5
102
330
F4
100
AcDbEntity
  8
Defpoints
 62
     0
100
AcDbPoint
 10
57.44411424033551
 20
0.7930791345886382
 30
0.0
  0
ENDBLK
  5
F6
330
F4
100
AcDbEntity
  8
0
100
AcDbBlockEnd
  0
BLOCK
  5
109
330
108
100
AcDbEntity
  8
0
100
AcDbBlockBegin
  2
_D_2
 70
     0
 10
0.0
 20
0.0
 30
0.0
  3
_D_2
  1

  0
LINE
  5
10B
330
108
100
AcDbEntity
  8
치수문자_일반주서
 62
     0
370
    -2
100
AcDbLine
 10
28.57500000000002
 20
0.8555791345885303
 30
0.0
 11
28.57500000000002
 21
10.38125
 31
0.0
  0
LINE
  5
10C
330
108
100
AcDbEntity
  8
치수문자_일반주서
 62
     0
370
    -2
100
AcDbLine
 10
23.81250000000002
 20
0.5946024965370711
 30
0.0
 11
23.81250000000002
 21
10.38125
 31
0.0
  0
LINE
  5
10D
330
108
100
AcDbEntity
  8
치수문자_일반주서
 62
     0
370
    -2
100
AcDbLine
 10
28.57500000000002
 20
10.38125
 30
0.0
 11
52.20000000000002
 21
10.38125
 31
0.0
  0
LINE
  5
10E
330
108
100
AcDbEntity
  8
치수문자_일반주서
 62
     0
370
    -2
100
AcDbLine
 10
28.57500000000002
 20
10.38125
 30
0.0
 11
23.81250000000002
 21
10.38125
 31
0.0
  0
LINE
  5
10F
330
108
100
AcDbEntity
  8
치수문자_일반주서
 62
     0
370
    -2
100
AcDbLine
 10
31.07500000000002
 20
10.38125
 30
0.0
 11
33.57500000000002
 21
10.38125
 31
0.0
  0
LINE
  5
110
330
108
100
AcDbEntity
  8
치수문자_일반주서
 62
     0
370
    -2
100
AcDbLine
 10
21.31250000000002
 20
10.38125
 30
0.0
 11
18.81250000000002
 21
10.38125
 31
0.0
  0
SOLID
  5
111
330
108
100
AcDbEntity
  8
치수문자_일반주서
 62
     0
100
AcDbTrace
 10
31.07500000000002
 20
10.79791666666666
 30
0.0
 11
31.07500000000002
 21
9.96458333333333
 31
0.0
 12
28.57500000000002
 22
10.38125
 32
0.0
 13
28.57500000000002
 23
10.38125
 33
0.0
  0
SOLID
  5
112
330
108
100
AcDbEntity
  8
치수문자_일반주서
 62
     0
100
AcDbTrace
 10
21.31250000000002
 20
9.96458333333333
 30
0.0
 11
21.31250000000002
 21
10.79791666666666
 31
0.0
 12
23.81250000000002
 22
10.38125
 32
0.0
 13
23.81250000000002
 23
10.38125
 33
0.0
  0
MTEXT
  5
113
330
108
100
AcDbEntity
  8
치수문자_일반주서
 62
     0
100
AcDbMText
 10
42.88750000000002
 20
13.75625
 30
0.0
 40
2.5
 41
0.0
 71
     2
 72
     1
  1
\A1;4.76 [3/16]
  7
SLDTEXTSTYLE0
 73
     1
 44
1.0
  0
POINT
  5
114
330
108
100
AcDbEntity
  8
Defpoints
 62
     0
100
AcDbPoint
 10
28.57500000000002
 20
0.7930791345885303
 30
0.0
  0
POINT
  5
115
330
108
100
AcDbEntity
  8
Defpoints
 62
     0
100
AcDbPoint
 10
23.81250000000002
 20
0.5321024965370711
 30
0.0
  0
POINT
  5
116
330
108
100
AcDbEntity
  8
Defpoints
 62
     0
100
AcDbPoint
 10
23.81250000000002
 20
10.38125
 30
0.0
  0
ENDBLK
  5
10A
330
108
100
AcDbEntity
  8
0
100
AcDbBlockEnd
  0
BLOCK
  5
11F
330
11E
100
AcDbEntity
  8
0
100
AcDbBlockBegin
  2
_D_3
 70
     0
 10
0.0
 20
0.0
 30
0.0
  3
_D_3
  1

  0
LINE
  5
121
330
11E
100
AcDbEntity
  8
치수문자_일반주서
 62
     0
370
    -2
100
AcDbLine
 10
-28.57500000000001
 20
0.8555791345885346
 30
0.0
 11
-28.57500000000001
 21
18.38125
 31
0.0
  0
LINE
  5
122
330
11E
100
AcDbEntity
  8
치수문자_일반주서
 62
     0
370
    -2
100
AcDbLine
 10
28.57500000000002
 20
0.8555791345885303
 30
0.0
 11
28.57500000000002
 21
18.38125
 31
0.0
  0
LINE
  5
123
330
11E
100
AcDbEntity
  8
치수문자_일반주서
 62
     0
370
    -2
100
AcDbLine
 10
-26.07500000000001
 20
18.38125
 30
0.0
 11
26.07500000000002
 21
18.38125
 31
0.0
  0
SOLID
  5
124
330
11E
100
AcDbEntity
  8
치수문자_일반주서
 62
     0
100
AcDbTrace
 10
-26.07500000000001
 20
18.79791666666667
 30
0.0
 11
-26.07500000000001
 21
17.96458333333333
 31
0.0
 12
-28.57500000000001
 22
18.38125
 32
0.0
 13
-28.57500000000001
 23
18.38125
 33
0.0
  0
SOLID
  5
125
330
11E
100
AcDbEntity
  8
치수문자_일반주서
 62
     0
100
AcDbTrace
 10
26.07500000000002
 20
17.96458333333333
 30
0.0
 11
26.07500000000002
 21
18.79791666666667
 31
0.0
 12
28.57500000000002
 22
18.38125
 32
0.0
 13
28.57500000000002
 23
18.38125
 33
0.0
  0
MTEXT
  5
126
330
11E
100
AcDbEntity
  8
치수문자_일반주서
 62
     0
100
AcDbMText
 10
0.0000000000000231
 20
21.75625
 30
0.0
 40
2.5
 41
0.0
 71
     2
 72
     1
  1
\A1;57.15 [2 1/4]
  7
SLDTEXTSTYLE0
 73
     1
 44
1.0
  0
POINT
  5
127
330
11E
100
AcDbEntity
  8
Defpoints
 62
     0
100
AcDbPoint
 10
-28.57500000000001
 20
0.7930791345885346
 30
0.0
  0
POINT
  5
128
330
11E
100
AcDbEntity
  8
Defpoints
 62
     0
100
AcDbPoint
 10
28.57500000000002
 20
0.7930791345885303
 30
0.0
  0
POINT
  5
129
330
11E
100
AcDbEntity
  8
Defpoints
 62
     0
100
AcDbPoint
 10
28.57500000000002
 20
18.38125
 30
0.0
  0
ENDBLK
  5
120
330
11E
100
AcDbEntity
  8
0
100
AcDbBlockEnd
  0
BLOCK
  5
138
330
137
100
AcDbEntity
  8
0
100
AcDbBlockBegin
  2
SW_DOWELSYMBOL_0
 70
     0
 10
0.0
 20
0.0
 30
0.0
  3
SW_DOWELSYMBOL_0
  1

  0
CIRCLE
  5
13A
330
137
100
AcDbEntity
  8
해칭선
 62
     0
100
AcDbCircle
 10
0.0
 20
0.0
 30
0.0
 40
3.000000000000001
  0
HATCH
  5
13B
330
137
100
AcDbEntity
  8
0
  6
Continuous
 62
     0
370
     0
100
AcDbHatch
 10
0.0
 20
0.0
 30
0.0
210
0.0
220
0.0
230
1.0
  2
SOLID
 70
     1
 71
     0
 91
        1
 92
        0
 93
        3
 72
     2
 10
0.0
 20
0.0
 40
3.000000000000001
 50
0.0
 51
90.0
 73
     1
 72
     1
 10
0.0
 20
3.000000000000001
 11
0.0
 21
0.0
 72
     1
 10
0.0
 20
0.0
 11
3.000000000000001
 21
0.0
 97
        0
 75
     0
 76
     1
 98
        1
 10
0.0
 20
0.0
  0
HATCH
  5
13C
330
137
100
AcDbEntity
  8
0
  6
Continuous
 62
     0
370
     0
100
AcDbHatch
 10
0.0
 20
0.0
 30
0.0
210
0.0
220
0.0
230
1.0
  2
SOLID
 70
     1
 71
     0
 91
        1
 92
        0
 93
        3
 72
     2
 10
0.0
 20
0.0
 40
3.000000000000001
 50
180.0
 51
270.0000000000007
 73
     1
 72
     1
 10
0.0
 20
-3.000000000000001
 11
0.0
 21
0.0
 72
     1
 10
0.0
 20
0.0
 11
-3.000000000000001
 21
0.0
 97
        0
 75
     0
 76
     1
 98
        1
 10
0.0
 20
0.0
  0
ENDBLK
  5
139
330
137
100
AcDbEntity
  8
0
100
AcDbBlockEnd
  0
BLOCK
  5
19B
330
19A
100
AcDbEntity
  8
0
100
AcDbBlockBegin
  2
*D7
 70
     1
 10
0.0
 20
0.0
 30
0.0
  3
*D7
  1

  0
LINE
  5
19D
330
19A
100
AcDbEntity
  8
치수문자_일반주서
 62
     0
370
    -2
100
AcDbLine
 10
7.381249999999984
 20
0.7853214860538494
 30
0.0
 11
7.381249999999984
 21
10.31324042902825
 31
0.0
  0
LINE
  5
19E
330
19A
100
AcDbEntity
  8
치수문자_일반주서
 62
     0
370
    -2
100
AcDbLine
 10
4.999999999999998
 20
0.7641000406186218
 30
0.0
 11
4.999999999999996
 21
10.31324042902825
 31
0.0
  0
LINE
  5
19F
330
19A
100
AcDbEntity
  8
치수문자_일반주서
 62
     0
370
    -2
100
AcDbLine
 10
7.381249999999984
 20
10.31324042902825
 30
0.0
 11
31.63124999999998
 21
10.31324042902825
 31
0.0
  0
LINE
  5
1A0
330
19A
100
AcDbEntity
  8
치수문자_일반주서
 62
     0
370
    -2
100
AcDbLine
 10
7.381249999999984
 20
10.31324042902825
 30
0.0
 11
4.999999999999996
 21
10.31324042902825
 31
0.0
  0
LINE
  5
1A1
330
19A
100
AcDbEntity
  8
치수문자_일반주서
 62
     0
370
    -2
100
AcDbLine
 10
9.881249999999984
 20
10.31324042902825
 30
0.0
 11
12.38124999999998
 21
10.31324042902825
 31
0.0
  0
LINE
  5
1A2
330
19A
100
AcDbEntity
  8
치수문자_일반주서
 62
     0
370
    -2
100
AcDbLine
 10
2.499999999999996
 20
10.31324042902825
 30
0.0
 11
-0.0000000000000036
 21
10.31324042902825
 31
0.0
  0
SOLID
  5
1A3
330
19A
100
AcDbEntity
  8
치수문자_일반주서
 62
     0
100
AcDbTrace
 10
9.881249999999984
 20
10.72990709569492
 30
0.0
 11
9.881249999999984
 21
9.896573762361584
 31
0.0
 12
7.381249999999984
 22
10.31324042902825
 32
0.0
 13
7.381249999999984
 23
10.31324042902825
 33
0.0
  0
SOLID
  5
1A4
330
19A
100
AcDbEntity
  8
치수문자_일반주서
 62
     0
100
AcDbTrace
 10
2.499999999999996
 20
9.896573762361584
 30
0.0
 11
2.499999999999996
 21
10.72990709569492
 31
0.0
 12
4.999999999999996
 22
10.31324042902825
 32
0.0
 13
4.999999999999996
 23
10.31324042902825
 33
0.0
  0
MTEXT
  5
1A5
330
19A
100
AcDbEntity
  8
치수문자_일반주서
 62
     0
100
AcDbMText
 10
22.00624999999998
 20
13.68824042902825
 30
0.0
 40
2.5
 41
0.0
 71
     2
 72
     1
  1
\A1;2.38 [3/32]
  7
SLDTEXTSTYLE0
 73
     1
 44
1.0
  0
POINT
  5
1A6
330
19A
100
AcDbEntity
  8
Defpoints
 62
     0
100
AcDbPoint
 10
7.381249999999984
 20
0.7228214860538494
 30
0.0
  0
POINT
  5
1A7
330
19A
100
AcDbEntity
  8
Defpoints
 62
     0
100
AcDbPoint
 10
4.999999999999998
 20
0.7016000406186218
 30
0.0
  0
POINT
  5
1A8
330
19A
100
AcDbEntity
  8
Defpoints
 62
     0
100
AcDbPoint
 10
4.999999999999998
 20
10.31324042902825
 30
0.0
  0
ENDBLK
  5
19C
330
19A
100
AcDbEntity
  8
0
100
AcDbBlockEnd
  0
BLOCK
  5
1AD
330
1AC
100
AcDbEntity
  8
0
100
AcDbBlockBegin
  2
*D8
 70
     1
 10
0.0
 20
0.0
 30
0.0
  3
*D8
  1

  0
LINE
  5
1AF
330
1AC
100
AcDbEntity
  8
치수문자_일반주서
 62
     0
370
    -2
100
AcDbLine
 10
53.11293307069441
 20
-13.32563442905788
 30
0.0
 11
53.11293307069441
 21
-3.797715486083481
 31
0.0
  0
LINE
  5
1B0
330
1AC
100
AcDbEntity
  8
치수문자_일반주서
 62
     0
370
    -2
100
AcDbLine
 10
50.73168307069443
 20
-13.34685587449311
 30
0.0
 11
50.73168307069443
 21
-3.797715486083481
 31
0.0
  0
LINE
  5
1B1
330
1AC
100
AcDbEntity
  8
치수문자_일반주서
 62
     0
370
    -2
100
AcDbLine
 10
53.11293307069441
 20
-3.797715486083481
 30
0.0
 11
77.36293307069441
 21
-3.797715486083481
 31
0.0
  0
LINE
  5
1B2
330
1AC
100
AcDbEntity
  8
치수문자_일반주서
 62
     0
370
    -2
100
AcDbLine
 10
53.11293307069441
 20
-3.797715486083481
 30
0.0
 11
50.73168307069443
 21
-3.797715486083481
 31
0.0
  0
LINE
  5
1B3
330
1AC
100
AcDbEntity
  8
치수문자_일반주서
 62
     0
370
    -2
100
AcDbLine
 10
55.61293307069441
 20
-3.797715486083481
 30
0.0
 11
58.11293307069441
 21
-3.797715486083481
 31
0.0
  0
LINE
  5
1B4
330
1AC
100
AcDbEntity
  8
치수문자_일반주서
 62
     0
370
    -2
100
AcDbLine
 10
48.23168307069443
 20
-3.797715486083481
 30
0.0
 11
45.73168307069443
 21
-3.797715486083481
 31
0.0
  0
SOLID
  5
1B5
330
1AC
100
AcDbEntity
  8
치수문자_일반주서
 62
     0
100
AcDbTrace
 10
55.61293307069441
 20
-3.381048819416815
 30
0.0
 11
55.61293307069441
 21
-4.214382152750148
 31
0.0
 12
53.11293307069441
 22
-3.797715486083481
 32
0.0
 13
53.11293307069441
 23
-3.797715486083481
 33
0.0
  0
SOLID
  5
1B6
330
1AC
100
AcDbEntity
  8
치수문자_일반주서
 62
     0
100
AcDbTrace
 10
48.23168307069443
 20
-4.214382152750148
 30
0.0
 11
48.23168307069443
 21
-3.381048819416815
 31
0.0
 12
50.73168307069443
 22
-3.797715486083481
 32
0.0
 13
50.73168307069443
 23
-3.797715486083481
 33
0.0
  0
MTEXT
  5
1B7
330
1AC
100
AcDbEntity
  8
치수문자_일반주서
 62
     0
100
AcDbMText
 10
67.73793307069441
 20
-0.4227154860834812
 30
0.0
 40
2.5
 41
0.0
 71
     2
 72
     1
  1
\A1;2.38 [3/32]
  7
SLDTEXTSTYLE0
 73
     1
 44
1.0
  0
POINT
  5
1B8
330
1AC
100
AcDbEntity
  8
Defpoints
 62
     0
100
AcDbPoint
 10
53.11293307069441
 20
-13.38813442905788
 30
0.0
  0
POINT
  5
1B9
330
1AC
100
AcDbEntity
  8
Defpoints
 62
     0
100
AcDbPoint
 10
50.73168307069443
 20
-13.40935587449311
 30
0.0
  0
POINT
  5
1BA
330
1AC
100
AcDbEntity
  8
Defpoints
 62
     0
100
AcDbPoint
 10
50.73168307069443
 20
-3.797715486083481
 30
0.0
  0
ENDBLK
  5
1AE
330
1AC
100
AcDbEntity
  8
0
100
AcDbBlockEnd
  0
ENDSEC
  0
SECTION
  2
ENTITIES
  0
LINE
  5
96
330
1F
100
AcDbEntity
  8
외형선
  6
Continuous
370
    15
100
AcDbLine
 10
16.88786934298444
 20
2.381249999999999
 30
0.0
 11
-16.88786934298443
 21
2.381249999999997
 31
0.0
  0
LINE
  5
97
330
1F
100
AcDbEntity
  8
외형선
  6
Continuous
370
    15
100
AcDbLine
 10
-16.88786934298442
 20
-2.381250000000001
 30
0.0
 11
16.88786934298444
 21
-2.381249999999999
 31
0.0
  0
LINE
  5
98
330
1F
100
AcDbEntity
  8
외형선
  6
Continuous
370
    15
100
AcDbLine
 10
16.88786934298444
 20
-2.381250000000001
 30
0.0
 11
22.81250000000002
 21
-0.7937499999999997
 31
0.0
  0
LINE
  5
99
330
1F
100
AcDbEntity
  8
외형선
  6
Continuous
370
    15
100
AcDbLine
 10
22.81250000000002
 20
0.7937500000000002
 30
0.0
 11
16.88786934298444
 21
2.38125
 31
0.0
  0
LINE
  5
9C
330
1F
100
AcDbEntity
  8
외형선
  6
Continuous
370
    15
100
AcDbLine
 10
23.01263323624
 20
0.7937500000000002
 30
0.0
 11
22.81250000000002
 21
0.7937500000000002
 31
0.0
  0
LINE
  5
9D
330
1F
100
AcDbEntity
  8
외형선
  6
Continuous
370
    15
100
AcDbLine
 10
22.81250000000002
 20
-0.7937499999999997
 30
0.0
 11
23.01263323624
 21
-0.7937499999999997
 31
0.0
  0
SPLINE
  5
9E
330
1F
100
AcDbEntity
  8
외형선
  6
Continuous
370
    15
100
AcDbSpline
210
0.0
220
0.0
230
1.0
 70
     8
 71
     3
 72
    11
 73
     7
 74
     0
 42
0.000000001
 43
0.00000001
 40
0.0
 40
0.0
 40
0.0
 40
0.0
 40
0.1682785326243816
 40
0.490012119881705
 40
0.7890684310305073
 40
1.0
 40
1.0
 40
1.0
 40
1.0
 10
23.0179094580996
 20
-0.7794418042312259
 30
0.0
 10
23.02286109788578
 20
-0.7624585160857305
 30
0.0
 10
23.03727983253171
 20
-0.7130046915428708
 30
0.0
 10
23.08664837994703
 20
-0.6414066984272678
 30
0.0
 10
23.15389234113234
 20
-0.5796857490054648
 30
0.0
 10
23.20548871209431
 20
-0.5596052261643102
 30
0.0
 10
23.22682902998111
 20
-0.5512998990109866
 30
0.0
  0
SPLINE
  5
9F
330
1F
100
AcDbEntity
  8
외형선
  6
Continuous
370
    15
100
AcDbSpline
210
0.0
220
0.0
230
1.0
 70
     8
 71
     3
 72
     9
 73
     5
 74
     0
 42
0.000000001
 43
0.00000001
 40
0.0
 40
0.0
 40
0.0
 40
0.0
 40
0.4818247051771397
 40
0.9999999999999999
 40
0.9999999999999999
 40
0.9999999999999999
 40
0.9999999999999999
 10
23.81250000000132
 20
0.5320896026047927
 30
0.0
 10
23.68401778970374
 20
0.5266688306885526
 30
0.0
 10
23.41736020880957
 20
0.515418324315603
 30
0.0
 10
23.15075142383327
 20
0.5336914496262216
 30
0.0
 10
23.01260133807581
 20
0.5431601317213867
 30
0.0
  0
SPLINE
  5
A0
330
1F
100
AcDbEntity
  8
0
  6
Continuous
 62
     1
370
    25
100
AcDbSpline
210
0.0
220
0.0
230
1.0
 70
     8
 71
     3
 72
     9
 73
     5
 74
     0
 42
0.000000001
 43
0.00000001
 40
0.0
 40
0.0
 40
0.0
 40
0.0
 40
0.4995144150128961
 40
1.0
 40
1.0
 40
1.0
 40
1.0
 10
26.51789923710557
 20
0.2034004289238922
 30
0.0
 10
26.48158960836888
 20
0.22083667006824
 30
0.0
 10
26.40889975669412
 20
0.2557430523873525
 30
0.0
 10
26.33618441722337
 20
0.2940021550457864
 30
0.0
 10
26.29979143801082
 20
0.3131502844208744
 30
0.0
1001
PE_URL
1000

  0
LINE
  5
A1
330
1F
100
AcDbEntity
  8
0
  6
Continuous
 62
     1
370
    25
100
AcDbLine
 10
26.18869084909994
 20
0.1639868264780674
 30
0.0
 11
26.06991480587398
 21
0.2285866692649798
 31
0.0
1001
PE_URL
1000

  0
LINE
  5
A2
330
1F
100
AcDbEntity
  8
0
  6
Continuous
 62
     1
370
    25
100
AcDbLine
 10
24.69705054019089
 20
0.7937500000000006
 30
0.0
 11
24.31212136153157
 21
0.7937500000000006
 31
0.0
1001
PE_URL
1000

  0
SPLINE
  5
A3
330
1F
100
AcDbEntity
  8
0
  6
Continuous
 62
     1
370
    25
100
AcDbSpline
210
0.0
220
0.0
230
1.0
 70
     8
 71
     3
 72
     9
 73
     5
 74
     0
 42
0.000000001
 43
0.00000001
 40
0.0
 40
0.0
 40
0.0
 40
0.0
 40
0.9231036732802202
 40
1.0
 40
1.0
 40
1.0
 40
1.0
 10
26.25708627706766
 20
0.6307605084308
 30
0.0
 10
26.04729297654135
 20
0.6207175544483227
 30
0.0
 10
25.82002348710165
 20
0.6098380029167054
 30
0.0
 10
25.59276983559631
 20
0.6254938313810251
 30
0.0
 10
25.57529486456189
 20
0.626697707081686
 30
0.0
1001
PE_URL
1000

  0
SPLINE
  5
A4
330
1F
100
AcDbEntity
  8
0
  6
Continuous
 62
     1
370
    25
100
AcDbSpline
210
0.0
220
0.0
230
1.0
 70
     8
 71
     3
 72
    10
 73
     6
 74
     0
 42
0.000000001
 43
0.00000001
 40
0.0
 40
0.0
 40
0.0
 40
0.0
 40
0.4509237618627223
 40
0.6543172872886039
 40
1.0
 40
1.0
 40
1.0
 40
1.0
 10
25.06264186106869
 20
-0.6604807015711742
 30
0.0
 10
25.24292278457908
 20
-0.6456178086740377
 30
0.0
 10
25.50452116283688
 20
-0.6240508641387971
 30
0.0
 10
25.90014717944194
 20
-0.6172699937741027
 30
0.0
 10
26.11918581189435
 20
-0.6255485597847686
 30
0.0
 10
26.25708627706766
 20
-0.6307605084307996
 30
0.0
1001
PE_URL
1000

  0
SPLINE
  5
A5
330
1F
100
AcDbEntity
  8
0
  6
Continuous
 62
     1
370
    25
100
AcDbSpline
210
0.0
220
0.0
230
1.0
 70
     8
 71
     3
 72
    10
 73
     6
 74
     0
 42
0.000000001
 43
0.00000001
 40
0.0
 40
0.0
 40
0.0
 40
0.0
 40
0.5529405126555764
 40
0.7392066174604544
 40
0.9999999999999999
 40
0.9999999999999999
 40
0.9999999999999999
 40
0.9999999999999999
 10
28.27898348175261
 20
0.5428096022030493
 30
0.0
 10
28.02356937492152
 20
0.530546435241444
 30
0.0
 10
27.68211528783441
 20
0.5141522409989115
 30
0.0
 10
27.22104590816395
 20
0.5507349749759546
 30
0.0
 10
27.01463893809083
 20
0.5799334143527879
 30
0.0
 10
26.89423086393304
 20
0.5969664043362743
 30
0.0
1001
PE_URL
1000

  0
SPLINE
  5
A6
330
1F
100
AcDbEntity
  8
0
  6
Continuous
 62
     1
370
    25
100
AcDbSpline
210
0.0
220
0.0
230
1.0
 70
     8
 71
     3
 72
     9
 73
     5
 74
     0
 42
0.000000001
 43
0.00000001
 40
0.0
 40
0.0
 40
0.0
 40
0.0
 40
0.6083874665461338
 40
1.0
 40
1.0
 40
1.0
 40
1.0
 10
26.89423086393304
 20
-0.5969664043362739
 30
0.0
 10
27.01463464269624
 20
-0.5794793457191153
 30
0.0
 10
27.21254105166082
 20
-0.5507360536910364
 30
0.0
 10
27.41022343863096
 20
-0.5374815573288556
 30
0.0
 10
27.48763833901155
 20
-0.5322909304288069
 30
0.0
1001
PE_URL
1000

  0
SPLINE
  5
A7
330
1F
100
AcDbEntity
  8
0
  6
Continuous
 62
     1
370
    25
100
AcDbSpline
210
0.0
220
0.0
230
1.0
 70
     8
 71
     3
 72
     9
 73
     5
 74
     0
 42
0.000000001
 43
0.00000001
 40
0.0
 40
0.0
 40
0.0
 40
0.0
 40
0.501446608691903
 40
0.9999999999999999
 40
0.9999999999999999
 40
0.9999999999999999
 40
0.9999999999999999
 10
24.02712266016352
 20
0.5479332232879117
 30
0.0
 10
23.99125373511713
 20
0.5448918288859881
 30
0.0
 10
23.91972283945513
 20
0.5388265881420978
 30
0.0
 10
23.84817194238532
 20
0.5343309288106005
 30
0.0
 10
23.81250000000002
 20
0.5320896026047167
 30
0.0
1001
PE_URL
1000

  0
LINE
  5
A8
330
1F
100
AcDbEntity
  8
0
  6
Continuous
 62
     1
370
    25
100
AcDbLine
 10
24.31212136153157
 20
-0.7937500000000002
 30
0.0
 11
24.69705054019089
 21
-0.7937500000000002
 31
0.0
1001
PE_URL
1000

  0
LINE
  5
A9
330
1F
100
AcDbEntity
  8
외형선
  6
Continuous
370
    15
100
AcDbLine
 10
16.88786934298444
 20
2.38125
 30
0.0
 11
16.88786934298444
 21
-2.381250000000002
 31
0.0
  0
LINE
  5
AB
330
1F
100
AcDbEntity
  8
외형선
  6
Continuous
370
    15
100
AcDbLine
 10
22.81250000000002
 20
0.7937500000000002
 30
0.0
 11
22.81250000000002
 21
-0.79375
 31
0.0
  0
SPLINE
  5
AD
330
1F
100
AcDbEntity
  8
외형선
  6
Continuous
370
    15
100
AcDbSpline
210
0.0
220
0.0
230
1.0
 70
     8
 71
     3
 72
     9
 73
     5
 74
     0
 42
0.000000001
 43
0.00000001
 40
0.0
 40
0.0
 40
0.0
 40
0.0
 40
0.4388110918201313
 40
1.0
 40
1.0
 40
1.0
 40
1.0
 10
23.18569176903312
 20
0.5346076708013698
 30
0.0
 10
23.27742453882819
 20
0.5745156344005866
 30
0.0
 10
23.48647296879053
 20
0.6654612926647927
 30
0.0
 10
23.69530549988351
 20
0.7144771666163141
 30
0.0
 10
23.81250000000002
 20
0.7419843314026504
 30
0.0
  0
SPLINE
  5
AE
330
1F
100
AcDbEntity
  8
외형선
  6
Continuous
370
    15
100
AcDbSpline
210
0.0
220
0.0
230
1.0
 70
     8
 71
     3
 72
    12
 73
     8
 74
     0
 42
0.000000001
 43
0.00000001
 40
0.0
 40
0.0
 40
0.0
 40
0.0
 40
0.25
 40
0.25
 40
0.5
 40
0.5
 40
1.0
 40
1.0
 40
1.0
 40
1.0
 10
23.81250000000002
 20
-0.6352549754091272
 30
0.0
 10
23.74584066641846
 20
-0.6121457075948411
 30
0.0
 10
23.68076932734485
 20
-0.5869927279019683
 30
0.0
 10
23.54735220123915
 20
-0.5323152034019091
 30
0.0
 10
23.47974887228218
 20
-0.5028637119472886
 30
0.0
 10
23.27747314911885
 20
-0.409518058240785
 30
0.0
 10
23.1469767203825
 20
-0.3412789479558182
 30
0.0
 10
23.01266578069947
 20
-0.2685601230879187
 30
0.0
  0
LINE
  5
AF
330
1F
100
AcDbEntity
  8
외형선
  6
Continuous
370
    15
100
AcDbLine
 10
23.81250000000002
 20
-0.6352549754091268
 30
0.0
 11
23.81250000000002
 21
-0.7419843314026509
 31
0.0
  0
SPLINE
  5
B0
330
1F
100
AcDbEntity
  8
외형선
  6
Continuous
370
    15
100
AcDbSpline
210
0.0
220
0.0
230
1.0
 70
     8
 71
     3
 72
    12
 73
     8
 74
     0
 42
0.000000001
 43
0.00000001
 40
0.0
 40
0.0
 40
0.0
 40
0.0
 40
0.25
 40
0.25
 40
0.5
 40
0.5
 40
1.0
 40
1.0
 40
1.0
 40
1.0
 10
23.81250000000002
 20
-0.74198433140265
 30
0.0
 10
23.74583364545723
 20
-0.7282917226527388
 30
0.0
 10
23.68075546264456
 20
-0.7121062079833709
 30
0.0
 10
23.54732390900193
 20
-0.6745648133381887
 30
0.0
 10
23.47971328812375
 20
-0.6532434469437165
 30
0.0
 10
23.27741648814613
 20
-0.5825700539927954
 30
0.0
 10
23.14690694400372
 20
-0.5270436328005905
 30
0.0
 10
23.01258090179003
 20
-0.4643646348043836
 30
0.0
  0
ELLIPSE
  5
B1
330
1F
100
AcDbEntity
  8
외형선
  6
Continuous
370
    15
100
AcDbEllipse
 10
23.01260521053119
 20
0.0000000000000003
 30
0.0
 11
-2.802570892157518E-5
 21
0.7937500000000002
 31
0.0
210
0.0
220
0.0
230
1.0
 40
0.0000631539805833
 41
2.195367185031515
 42
3.141592651323599
  0
ELLIPSE
  5
B2
330
1F
100
AcDbEntity
  8
외형선
  6
Continuous
370
    15
100
AcDbEllipse
 10
23.01260521053119
 20
0.0000000000000003
 30
0.0
 11
2.802570891979883E-5
 21
0.7937500000000002
 31
0.0
210
0.0
220
0.0
230
1.0
 40
0.0000631539805855
 41
4.367275857787487
 42
6.283185307179586
  0
SPLINE
  5
B3
330
1F
100
AcDbEntity
  8
외형선
  6
Continuous
370
    15
100
AcDbSpline
210
0.0
220
0.0
230
1.0
 70
    24
 71
     3
 72
     8
 73
     4
 74
     0
 42
0.000000001
 43
0.00000001
 40
0.0
 40
0.0
 40
0.0
 40
0.0
 40
1.0
 40
1.0
 40
1.0
 40
1.0
 10
23.81250000000019
 20
-0.5146036576969032
 30
0.0
 10
23.81250000000019
 20
-0.5535504010202859
 30
0.0
 10
23.81250000000019
 20
-0.5940203464942778
 30
0.0
 10
23.81250000000019
 20
-0.6352549754090905
 30
0.0
  0
SPLINE
  5
B4
330
1F
100
AcDbEntity
  8
외형선
  6
Continuous
370
    15
100
AcDbSpline
210
0.0
220
0.0
230
1.0
 70
     8
 71
     3
 72
    12
 73
     8
 74
     0
 42
0.000000001
 43
0.00000001
 40
0.0
 40
0.0
 40
0.0
 40
0.0
 40
0.2500000000000001
 40
0.2500000000000001
 40
0.5
 40
0.5
 40
1.0
 40
1.0
 40
1.0
 40
1.0
 10
23.81250000000002
 20
-0.5146036576968502
 30
0.0
 10
23.74584066641846
 20
-0.4934161758616753
 30
0.0
 10
23.68076932734485
 20
-0.4705926677394043
 30
0.0
 10
23.54735220123915
 20
-0.4214160948852428
 30
0.0
 10
23.47974887228218
 20
-0.3951316381097432
 30
0.0
 10
23.27747314911885
 20
-0.3123979789334986
 30
0.0
 10
23.1469767203825
 20
-0.2526327838274945
 30
0.0
 10
23.01266578069947
 20
-0.189594668002557
 30
0.0
  0
SPLINE
  5
B5
330
1F
100
AcDbEntity
  8
외형선
  6
Continuous
370
    15
100
AcDbSpline
210
0.0
220
0.0
230
1.0
 70
    24
 71
     3
 72
    10
 73
     6
 74
     0
 42
0.000000001
 43
0.00000001
 40
0.0
 40
0.0
 40
0.0
 40
0.0
 40
0.5
 40
0.5
 40
1.0
 40
1.0
 40
1.0
 40
1.0
 10
23.81250000000002
 20
0.2009732612350304
 30
0.0
 10
23.81250000000002
 20
0.0811359492101036
 30
0.0
 10
23.81250000000002
 20
-0.0500599913004977
 30
0.0
 10
23.81250000000002
 20
-0.3001895831198801
 30
0.0
 10
23.81250000000002
 20
-0.4180465788829491
 30
0.0
 10
23.81250000000002
 20
-0.514603657696849
 30
0.0
  0
SPLINE
  5
B6
330
1F
100
AcDbEntity
  8
외형선
  6
Continuous
370
    15
100
AcDbSpline
210
0.0
220
0.0
230
1.0
 70
     8
 71
     3
 72
    12
 73
     8
 74
     0
 42
0.000000001
 43
0.00000001
 40
0.0
 40
0.0
 40
0.0
 40
0.0
 40
0.25
 40
0.25
 40
0.5
 40
0.5
 40
1.0
 40
1.0
 40
1.0
 40
1.0
 10
23.81250000000002
 20
0.2009732612350299
 30
0.0
 10
23.74583620789089
 20
0.2302245484063485
 30
0.0
 10
23.68076052283623
 20
0.2585397356649599
 30
0.0
 10
23.54733423480207
 20
0.3136129493976835
 30
0.0
 10
23.47972627524818
 20
0.3402543337053733
 30
0.0
 10
23.27743716761686
 20
0.4161843215914437
 30
0.0
 10
23.14693241035784
 20
0.4610786492962027
 30
0.0
 10
23.01261188003626
 20
0.4992796919175059
 30
0.0
  0
SPLINE
  5
B7
330
1F
100
AcDbEntity
  8
외형선
  6
Continuous
370
    15
100
AcDbSpline
210
0.0
220
0.0
230
1.0
 70
    24
 71
     3
 72
    12
 73
     8
 74
     0
 42
0.000000001
 43
0.00000001
 40
0.0
 40
0.0
 40
0.0
 40
0.0
 40
0.059577685787825
 40
0.2508638909647319
 40
0.4367591218505194
 40
0.6280453270293643
 40
1.0
 40
1.0
 40
1.0
 40
1.0
 10
23.81250000000002
 20
0.5294629110089465
 30
0.0
 10
23.81250000000002
 20
0.5301112641515972
 30
0.0
 10
23.81250000000002
 20
0.5328412861377445
 30
0.0
 10
23.81250000000002
 20
0.5124947324311234
 30
0.0
 10
23.81250000000002
 20
0.4677947907884881
 30
0.0
 10
23.81250000000002
 20
0.3783523942220726
 30
0.0
 10
23.81250000000002
 20
0.2715221398337225
 30
0.0
 10
23.81250000000002
 20
0.2009732612350302
 30
0.0
  0
SPLINE
  5
B8
330
1F
100
AcDbEntity
  8
외형선
  6
Continuous
370
    15
100
AcDbSpline
210
0.0
220
0.0
230
1.0
 70
    24
 71
     3
 72
     8
 73
     4
 74
     0
 42
0.000000001
 43
0.00000001
 40
0.0
 40
0.0
 40
0.0
 40
0.0
 40
1.0
 40
1.0
 40
1.0
 40
1.0
 10
23.81250000000046
 20
0.7419843314026625
 30
0.0
 10
23.81250000000046
 20
0.6601286566401677
 30
0.0
 10
23.81250000000046
 20
0.5786526924326613
 30
0.0
 10
23.81250000000046
 20
0.5270629508352612
 30
0.0
  0
SPLINE
  5
B9
330
1F
100
AcDbEntity
  8
0
  6
Continuous
 62
     1
370
    25
100
AcDbSpline
210
0.0
220
0.0
230
1.0
 70
     8
 71
     3
 72
    15
 73
    11
 74
     0
 42
0.000000001
 43
0.00000001
 40
0.0
 40
0.0
 40
0.0
 40
0.0
 40
0.1375474749152531
 40
0.2750930199134684
 40
0.4126366806261177
 40
0.5501785028877579
 40
0.687718532731416
 40
0.8228302151445197
 40
0.9579321540065202
 40
1.0
 40
1.0
 40
1.0
 40
1.0
 10
28.57500000000002
 20
-0.7532218149528203
 30
0.0
 10
28.39719595999449
 20
-0.7098011115577715
 30
0.0
 10
28.04159037473693
 20
-0.6229603139999069
 30
0.0
 10
27.50818766497583
 20
-0.3701677678399842
 30
0.0
 10
26.9747932353026
 20
-0.070243611431168
 30
0.0
 10
26.44140876319723
 20
0.2416721546586086
 30
0.0
 10
25.91116424510638
 20
0.5176977067094677
 30
0.0
 10
25.38409388179561
 20
0.7084722437265294
 30
0.0
 10
24.9804346941357
 20
0.7995578391412126
 30
0.0
 10
24.75142697592859
 20
0.7849244051175781
 30
0.0
 10
24.69705054019089
 20
0.7814497886678028
 30
0.0
1001
PE_URL
1000

  0
SPLINE
  5
BA
330
1F
100
AcDbEntity
  8
0
  6
Continuous
 62
     1
370
    25
100
AcDbSpline
210
0.0
220
0.0
230
1.0
 70
     8
 71
     3
 72
    13
 73
     9
 74
     0
 42
0.000000001
 43
0.00000001
 40
0.0
 40
0.0
 40
0.0
 40
0.0
 40
0.1681004082140214
 40
0.3352380877400709
 40
0.5036692837854245
 40
0.6714036300995531
 40
0.8386284581840878
 40
1.0
 40
1.0
 40
1.0
 40
1.0
 10
28.57500000000002
 20
-0.6262467348422711
 30
0.0
 10
28.45883250383519
 20
-0.6012480617294708
 30
0.0
 10
28.22716281495335
 20
-0.5513938855295863
 30
0.0
 10
27.87976213784889
 20
-0.4298492483128699
 30
0.0
 10
27.53173475950696
 20
-0.2851233690443509
 30
0.0
 10
27.18411218862736
 20
-0.1210483597127189
 30
0.0
 10
26.84166209342561
 20
0.0497830724909066
 30
0.0
 10
26.61447810092319
 20
0.1573995957754177
 30
0.0
 10
26.502909518601
 20
0.2102493709952442
 30
0.0
1001
PE_URL
1000

  0
LINE
  5
BB
330
1F
100
AcDbEntity
  8
0
  6
Continuous
 62
     1
370
    25
100
AcDbLine
 10
28.57499999999998
 20
-0.7532218149528208
 30
0.0
 11
28.57500000000002
 21
-0.6262467348422711
 31
0.0
1001
PE_URL
1000

  0
SPLINE
  5
BC
330
1F
100
AcDbEntity
  8
0
  6
Continuous
 62
     1
370
    25
100
AcDbSpline
210
0.0
220
0.0
230
1.0
 70
     8
 71
     3
 72
    36
 73
    32
 74
     0
 42
0.000000001
 43
0.00000001
 40
0.0
 40
0.0
 40
0.0
 40
0.0
 40
0.0624999999999998
 40
0.0624999999999998
 40
0.1249999999999996
 40
0.1249999999999996
 40
0.1874999999999994
 40
0.1874999999999994
 40
0.2499999999999992
 40
0.2499999999999992
 40
0.3124999999999989
 40
0.3124999999999989
 40
0.3749999999999988
 40
0.3749999999999988
 40
0.4374999999999989
 40
0.4374999999999989
 40
0.4999999999999991
 40
0.4999999999999991
 40
0.6249999999999994
 40
0.6249999999999994
 40
0.6874999999999994
 40
0.6874999999999994
 40
0.7499999999999994
 40
0.7499999999999994
 40
0.8124999999999997
 40
0.8124999999999997
 40
0.8749999999999998
 40
0.8749999999999998
 40
0.9374999999999999
 40
0.9374999999999999
 40
1.0
 40
1.0
 40
1.0
 40
1.0
 10
28.57500000000002
 20
-0.7930791345885294
 30
0.0
 10
28.47770786197655
 20
-0.790740038508503
 30
0.0
 10
28.37726991202814
 20
-0.7821895493692864
 30
0.0
 10
28.17701010243969
 20
-0.7529123289265107
 30
0.0
 10
28.07890808271416
 20
-0.7323499862544336
 30
0.0
 10
27.8822355725697
 20
-0.6802321941197379
 30
0.0
 10
27.78137381116716
 20
-0.6484039167884869
 30
0.0
 10
27.58160248253294
 20
-0.5752640597422584
 30
0.0
 10
27.48477585271036
 20
-0.5343075876678709
 30
0.0
 10
27.28647475234271
 20
-0.4441194877549455
 30
0.0
 10
27.18543927410632
 20
-0.3948800251997025
 30
0.0
 10
26.98664094316835
 20
-0.2915264537392526
 30
0.0
 10
26.89001895878069
 20
-0.2376696066590333
 30
0.0
 10
26.69056192475774
 20
-0.1259723647522312
 30
0.0
 10
26.58960427798358
 20
-0.0684596007195601
 30
0.0
 10
26.39225560043653
 20
0.0458722368811953
 30
0.0
 10
26.29476587639367
 20
0.1029013776887707
 30
0.0
 10
25.99456938342509
 20
0.2717170766322996
 30
0.0
 10
25.79930783145595
 20
0.3782869566504118
 30
0.0
 10
25.49883154819748
 20
0.5170617368858851
 30
0.0
 10
25.39996286622484
 20
0.5594041320801991
 30
0.0
 10
25.20403342514301
 20
0.6345796581970415
 30
0.0
 10
25.10330395258921
 20
0.6678396569646927
 30
0.0
 10
24.90328885365154
 20
0.7231861542809055
 30
0.0
 10
24.80610172563837
 20
0.74517028440314
 30
0.0
 10
24.60836665274101
 20
0.7775273493844935
 30
0.0
 10
24.50736778971887
 20
0.7878182189777232
 30
0.0
 10
24.30814160757151
 20
0.7958171000494024
 30
0.0
 10
24.21156817691264
 20
0.7936340050498581
 30
0.0
 10
24.01249559122391
 20
0.7769263208325182
 30
0.0
 10
23.9114785793699
 20
0.7623135510101823
 30
0.0
 10
23.81250000000002
 20
0.7419843314026513
 30
0.0
1001
PE_URL
1000

  0
SPLINE
  5
BD
330
1F
100
AcDbEntity
  8
0
  6
Continuous
 62
     1
370
    25
100
AcDbSpline
210
0.0
220
0.0
230
1.0
 70
     8
 71
     3
 72
    12
 73
     8
 74
     0
 42
0.000000001
 43
0.00000001
 40
0.0
 40
0.0
 40
0.0
 40
0.0
 40
0.0429657093183393
 40
0.3121125274055932
 40
0.5821230368364942
 40
0.8523535225155818
 40
1.0
 40
1.0
 40
1.0
 40
1.0
 10
26.59864036593377
 20
-0.0717090521278031
 30
0.0
 10
26.56172075340911
 20
-0.0577189549316957
 30
0.0
 10
26.29352842611551
 20
0.0439082418213021
 30
0.0
 10
25.79364356501719
 20
0.2567203167987258
 30
0.0
 10
25.09810743010066
 20
0.4706892608053257
 30
0.0
 10
24.50683427307366
 20
0.5708079484776903
 30
0.0
 10
24.14798211264545
 20
0.5451370855171956
 30
0.0
 10
24.0211905876382
 20
0.5360669217507876
 30
0.0
1001
PE_URL
1000

  0
SPLINE
  5
BE
330
1F
100
AcDbEntity
  8
외형선
  6
Continuous
370
    15
100
AcDbSpline
210
0.0
220
0.0
230
1.0
 70
    24
 71
     3
 72
     8
 73
     4
 74
     0
 42
0.000000001
 43
0.00000001
 40
0.0
 40
0.0
 40
0.0
 40
0.0
 40
1.0
 40
1.0
 40
1.0
 40
1.0
 10
23.81250000000046
 20
0.7419843314026622
 30
0.0
 10
23.81250000000046
 20
0.6601286566401673
 30
0.0
 10
23.81250000000046
 20
0.5786526924326612
 30
0.0
 10
23.81250000000046
 20
0.5270629508352612
 30
0.0
  0
LINE
  5
BF
330
1F
100
AcDbEntity
  8
0
  6
Continuous
 62
     1
370
    25
100
AcDbLine
 10
28.57500000000002
 20
-0.79307913458853
 30
0.0
 11
28.57499999999998
 21
-0.7532218149528183
 31
0.0
1001
PE_URL
1000

  0
SPLINE
  5
C0
330
1F
100
AcDbEntity
  8
0
  6
Continuous
 62
     1
370
    25
100
AcDbSpline
210
0.0
220
0.0
230
1.0
 70
     8
 71
     3
 72
     8
 73
     4
 74
     0
 42
0.000000001
 43
0.00000001
 40
0.0
 40
0.0
 40
0.0
 40
0.0
 40
1.0
 40
1.0
 40
1.0
 40
1.0
 10
28.08416518402696
 20
0.2217164472896031
 30
0.0
 10
28.05586283303625
 20
0.2552055529186477
 30
0.0
 10
28.03055695231343
 20
0.2874688336122965
 30
0.0
 10
28.00903983627204
 20
0.3181821699361807
 30
0.0
1001
PE_URL
1000

  0
LINE
  5
C1
330
1F
100
AcDbEntity
  8
0
  6
Continuous
 62
     1
370
    25
100
AcDbLine
 10
28.01909439046918
 20
0.3266189426618261
 30
0.0
 11
28.57500000000002
 21
0.000000000000001
 31
0.0
1001
PE_URL
1000

  0
LINE
  5
C2
330
1F
100
AcDbEntity
  8
0
  6
Continuous
 62
     1
370
    25
100
AcDbLine
 10
28.57500000000002
 20
0.000000000000001
 30
0.0
 11
28.57500000000002
 21
-0.2121240884110297
 31
0.0
1001
PE_URL
1000

  0
SPLINE
  5
C3
330
1F
100
AcDbEntity
  8
0
  6
Continuous
 62
     1
370
    25
100
AcDbSpline
210
0.0
220
0.0
230
1.0
 70
     8
 71
     3
 72
    10
 73
     6
 74
     0
 42
0.000000001
 43
0.00000001
 40
0.0
 40
0.0
 40
0.0
 40
0.0
 40
0.5
 40
0.5
 40
1.0
 40
1.0
 40
1.0
 40
1.0
 10
28.57500000000002
 20
-0.2121240884110303
 30
0.0
 10
28.49003968058415
 20
-0.1453288991865658
 30
0.0
 10
28.40649867432917
 20
-0.0757943889780222
 30
0.0
 10
28.24231817387946
 20
0.0688746449464593
 30
0.0
 10
28.16090546063872
 20
0.1447670400822723
 30
0.0
 10
28.0841651840263
 20
0.2217164472879011
 30
0.0
1001
PE_URL
1000

  0
SPLINE
  5
C4
330
1F
100
AcDbEntity
  8
0
  6
Continuous
 62
     1
370
    25
100
AcDbSpline
210
0.0
220
0.0
230
1.0
 70
     8
 71
     3
 72
    13
 73
     9
 74
     0
 42
0.000000001
 43
0.00000001
 40
0.0
 40
0.0
 40
0.0
 40
0.0
 40
0.1115437184479915
 40
0.3024548269438315
 40
0.4925652888819016
 40
0.6820900014644715
 40
0.8732023509948212
 40
1.0
 40
1.0
 40
1.0
 40
1.0
 10
28.08416518402696
 20
0.2217164472896017
 30
0.0
 10
28.01630250924444
 20
0.2508007459973011
 30
0.0
 10
27.83229041207858
 20
0.3296638738794999
 30
0.0
 10
27.53171816663509
 20
0.4411044212481685
 30
0.0
 10
27.18410526406644
 20
0.5442842073600314
 30
0.0
 10
26.83666195158438
 20
0.611120918048121
 30
0.0
 10
26.52699711123859
 20
0.6408199783646319
 30
0.0
 10
26.33337818643721
 20
0.6304268095769376
 30
0.0
 10
26.25615373743964
 20
0.6262815188529455
 30
0.0
1001
PE_URL
1000

  0
SPLINE
  5
C5
330
1F
100
AcDbEntity
  8
0
  6
Continuous
 62
     1
370
    25
100
AcDbSpline
210
0.0
220
0.0
230
1.0
 70
    24
 71
     3
 72
     8
 73
     4
 74
     0
 42
0.000000001
 43
0.00000001
 40
0.0
 40
0.0
 40
0.0
 40
0.0
 40
1.0
 40
1.0
 40
1.0
 40
1.0
 10
28.57500000000002
 20
-0.626246734842271
 30
0.0
 10
28.57500000000002
 20
-0.5302333452012686
 30
0.0
 10
28.57500000000002
 20
-0.3805014774328982
 30
0.0
 10
28.57500000000002
 20
-0.2121240884110558
 30
0.0
1001
PE_URL
1000

  0
SPLINE
  5
C6
330
1F
100
AcDbEntity
  8
0
  6
Continuous
 62
     1
370
    25
100
AcDbSpline
210
0.0
220
0.0
230
1.0
 70
     8
 71
     3
 72
    10
 73
     6
 74
     0
 42
0.000000001
 43
0.00000001
 40
0.0
 40
0.0
 40
0.0
 40
0.0
 40
0.2498842306840628
 40
0.5291545913653481
 40
0.9999999999999999
 40
0.9999999999999999
 40
0.9999999999999999
 40
0.9999999999999999
 10
25.0632947434169
 20
-0.6585077059040426
 30
0.0
 10
24.95920252144347
 20
-0.6662829932572705
 30
0.0
 10
24.73877693863708
 20
-0.6827479338054688
 30
0.0
 10
24.32178166962384
 20
-0.6519885526467575
 30
0.0
 10
24.00889685534203
 20
-0.5675840866991027
 30
0.0
 10
23.81250000000002
 20
-0.5146036576968501
 30
0.0
1001
PE_URL
1000

  0
SPLINE
  5
C7
330
1F
100
AcDbEntity
  8
0
  6
Continuous
 62
     1
370
    25
100
AcDbSpline
210
0.0
220
0.0
230
1.0
 70
     8
 71
     3
 72
    16
 73
    12
 74
     0
 42
0.000000001
 43
0.00000001
 40
0.0
 40
0.0
 40
0.0
 40
0.0
 40
0.0187929428707255
 40
0.1321471356798611
 40
0.2447156415735843
 40
0.3572467128971376
 40
0.470613767693163
 40
0.5830494925460271
 40
0.6957578973456232
 40
0.8090312672030853
 40
0.9999999999999999
 40
0.9999999999999999
 40
0.9999999999999999
 40
0.9999999999999999
 10
26.89538213277947
 20
-0.5941921285068572
 30
0.0
 10
26.87608563724966
 20
-0.5980654497140454
 30
0.0
 10
26.74039764891993
 20
-0.6253016471855597
 30
0.0
 10
26.48856030359972
 20
-0.6386790410523341
 30
0.0
 10
26.14107191608703
 20
-0.6297000978125934
 30
0.0
 10
25.79356935272986
 20
-0.576807325450376
 30
0.0
 10
25.44548486526951
 20
-0.4890680467458618
 30
0.0
 10
25.09804645271344
 20
-0.3687968919113744
 30
0.0
 10
24.75039070506029
 20
-0.2257549329642931
 30
0.0
 10
24.32175662005107
 20
-0.0313765419765608
 30
0.0
 10
24.00888522511522
 20
0.1113719352775846
 30
0.0
 10
23.81250000000002
 20
0.2009732612350299
 30
0.0
1001
PE_URL
1000

  0
SPLINE
  5
C8
330
1F
100
AcDbEntity
  8
외형선
  6
Continuous
370
    15
100
AcDbSpline
210
0.0
220
0.0
230
1.0
 70
    24
 71
     3
 72
    10
 73
     6
 74
     0
 42
0.000000001
 43
0.00000001
 40
0.0
 40
0.0
 40
0.0
 40
0.0
 40
0.5
 40
0.5
 40
1.0
 40
1.0
 40
1.0
 40
1.0
 10
23.81250000000002
 20
0.2009732612350304
 30
0.0
 10
23.81250000000002
 20
0.0811359492101036
 30
0.0
 10
23.81250000000002
 20
-0.0500599913004977
 30
0.0
 10
23.81250000000002
 20
-0.3001895831198801
 30
0.0
 10
23.81250000000002
 20
-0.4180465788829491
 30
0.0
 10
23.81250000000002
 20
-0.514603657696849
 30
0.0
  0
SPLINE
  5
C9
330
1F
100
AcDbEntity
  8
0
  6
Continuous
 62
     1
370
    25
100
AcDbSpline
210
0.0
220
0.0
230
1.0
 70
    24
 71
     3
 72
     8
 73
     4
 74
     0
 42
0.000000001
 43
0.00000001
 40
0.0
 40
0.0
 40
0.0
 40
0.0
 40
1.0
 40
1.0
 40
1.0
 40
1.0
 10
28.09172898750674
 20
0.3875666062467469
 30
0.0
 10
28.06553382861939
 20
0.3655862580857423
 30
0.0
 10
28.03789163828373
 20
0.3423917063701515
 30
0.0
 10
28.00903983626888
 20
0.3181821699406904
 30
0.0
1001
PE_URL
1000

  0
LINE
  5
CA
330
1F
100
AcDbEntity
  8
0
  6
Continuous
 62
     1
370
    25
100
AcDbLine
 10
28.57500000000002
 20
0.5556250000000001
 30
0.0
 11
28.27662876104077
 21
0.525758893778478
 31
0.0
1001
PE_URL
1000

  0
SPLINE
  5
CB
330
1F
100
AcDbEntity
  8
0
  6
Continuous
 62
     1
370
    25
100
AcDbSpline
210
0.0
220
0.0
230
1.0
 70
     8
 71
     3
 72
     8
 73
     4
 74
     0
 42
0.000000001
 43
0.00000001
 40
0.0
 40
0.0
 40
0.0
 40
0.0
 40
1.0
 40
1.0
 40
1.0
 40
1.0
 10
28.57500000000002
 20
0.5556250000000009
 30
0.0
 10
28.41167374258712
 20
0.5111936580935068
 30
0.0
 10
28.24990442684254
 20
0.4567198980990764
 30
0.0
 10
28.09172898751505
 20
0.3875666062503874
 30
0.0
1001
PE_URL
1000

  0
SPLINE
  5
CC
330
1F
100
AcDbEntity
  8
외형선
  6
Continuous
370
    15
100
AcDbSpline
210
0.0
220
0.0
230
1.0
 70
    24
 71
     3
 72
    12
 73
     8
 74
     0
 42
0.000000001
 43
0.00000001
 40
0.0
 40
0.0
 40
0.0
 40
0.0
 40
0.0604753835449734
 40
0.2515789928872584
 40
0.4372967739940383
 40
0.6284003833382593
 40
1.0
 40
1.0
 40
1.0
 40
1.0
 10
23.81250000000002
 20
0.5294447574268071
 30
0.0
 10
23.81250000000002
 20
0.5301067417474759
 30
0.0
 10
23.81250000000002
 20
0.5328606118172239
 30
0.0
 10
23.81250000000002
 20
0.5125039074531216
 30
0.0
 10
23.81250000000002
 20
0.4677923462656127
 30
0.0
 10
23.81250000000002
 20
0.3783537242371888
 30
0.0
 10
23.81250000000002
 20
0.2715226688197052
 30
0.0
 10
23.81250000000002
 20
0.2009732612350302
 30
0.0
  0
SPLINE
  5
CD
330
1F
100
AcDbEntity
  8
0
  6
Continuous
 62
     1
370
    25
100
AcDbSpline
210
0.0
220
0.0
230
1.0
 70
     8
 71
     3
 72
    11
 73
     7
 74
     0
 42
0.000000001
 43
0.00000001
 40
0.0
 40
0.0
 40
0.0
 40
0.0
 40
0.1099152090968397
 40
0.4066295278865061
 40
0.7033239523196542
 40
1.0
 40
1.0
 40
1.0
 40
1.0
 10
25.57815924136997
 20
-0.6256509624483404
 30
0.0
 10
25.51346661878662
 20
-0.6507169560940157
 30
0.0
 10
25.27413731399835
 20
-0.7434481917974123
 30
0.0
 10
24.86019102080854
 20
-0.8026370841111969
 30
0.0
 10
24.33632998345065
 20
-0.7905297643888154
 30
0.0
 10
23.98710638931842
 20
-0.6870121697516984
 30
0.0
 10
23.81250000000005
 20
-0.6352549754091364
 30
0.0
1001
PE_URL
1000

  0
SPLINE
  5
CE
330
1F
100
AcDbEntity
  8
외형선
  6
Continuous
370
    15
100
AcDbSpline
210
0.0
220
0.0
230
1.0
 70
    24
 71
     3
 72
     8
 73
     4
 74
     0
 42
0.000000001
 43
0.00000001
 40
0.0
 40
0.0
 40
0.0
 40
0.0
 40
1.0
 40
1.0
 40
1.0
 40
1.0
 10
23.81250000000002
 20
-0.5146036576968491
 30
0.0
 10
23.81250000000002
 20
-0.5535504010202419
 30
0.0
 10
23.81250000000002
 20
-0.5940203464942451
 30
0.0
 10
23.81250000000002
 20
-0.6352549754090697
 30
0.0
  0
LINE
  5
CF
330
1F
100
AcDbEntity
  8
0
  6
Continuous
 62
     1
370
    25
100
AcDbLine
 10
23.81250000000002
 20
-0.741984331402651
 30
0.0
 11
24.31212136153157
 21
-0.7902524231633103
 31
0.0
1001
PE_URL
1000

  0
SPLINE
  5
D0
330
1F
100
AcDbEntity
  8
0
  6
Continuous
 62
     1
370
    25
100
AcDbSpline
210
0.0
220
0.0
230
1.0
 70
     8
 71
     3
 72
    10
 73
     6
 74
     0
 42
0.000000001
 43
0.00000001
 40
0.0
 40
0.0
 40
0.0
 40
0.0
 40
0.0361567236989257
 40
0.5180585226500687
 40
0.9999999999999999
 40
0.9999999999999999
 40
0.9999999999999999
 40
0.9999999999999999
 10
27.48763833901155
 20
0.5322909304288074
 30
0.0
 10
27.5007431807785
 20
0.5386443672176348
 30
0.0
 10
27.68851116058451
 20
0.6296772855754533
 30
0.0
 10
28.05096360443252
 20
0.7430457311354718
 30
0.0
 10
28.40031640755851
 20
0.7764008757286827
 30
0.0
 10
28.57500000000002
 20
0.7930791345885297
 30
0.0
1001
PE_URL
1000

  0
LINE
  5
D1
330
1F
100
AcDbEntity
  8
0
  6
Continuous
 62
     1
370
    25
100
AcDbLine
 10
28.57500000000002
 20
0.000000000000001
 30
0.0
 11
28.57500000000002
 21
0.5556250000000008
 31
0.0
1001
PE_URL
1000

  0
SPLINE
  5
D2
330
1F
100
AcDbEntity
  8
0
  6
Continuous
 62
     1
370
    25
100
AcDbSpline
210
0.0
220
0.0
230
1.0
 70
    24
 71
     3
 72
     8
 73
     4
 74
     0
 42
0.000000001
 43
0.00000001
 40
0.0
 40
0.0
 40
0.0
 40
0.0
 40
1.0
 40
1.0
 40
1.0
 40
1.0
 10
28.57500000000002
 20
0.5556250000000001
 30
0.0
 10
28.57500000000002
 20
0.6229862076816108
 30
0.0
 10
28.57500000000002
 20
0.713574944746308
 30
0.0
 10
28.57500000000002
 20
0.7930791345885303
 30
0.0
1001
PE_URL
1000

  0
LINE
  5
D3
330
1F
100
AcDbEntity
  8
중심선
 62
     1
100
AcDbLine
 10
-30.07500000000001
 20
-0.0000000000000039
 30
0.0
 11
30.07500000000001
 21
0.0000000000000039
 31
0.0
  0
LINE
  5
D4
330
1F
100
AcDbEntity
  8
참조1
100
AcDbLine
 10
0.0000000000000107
 20
-0.0000000000000041
 30
0.0
 11
0.0000000000000213
 21
-40.00000000000001
 31
0.0
  0
LINE
  5
D5
330
1F
100
AcDbEntity
  8
참조1
100
AcDbLine
 10
0.0000000000000213
 20
-40.00000000000001
 30
0.0
 11
-16.05321559669921
 21
-39.99999999999999
 31
0.0
  0
CIRCLE
  5
D6
330
1F
100
AcDbEntity
  8
해칭선
100
AcDbCircle
 10
0.0000000000000107
 20
-0.0000000000000002
 30
0.0
 40
3.000000000000001
  0
INSERT
  5
D7
330
1F
100
AcDbEntity
  8
0
  6
Continuous
 62
     7
100
AcDbBlockReference
 66
     1
  2
블럭10
 10
-13.94027293212519
 20
-52.04717430164393
 30
0.0
  0
ATTRIB
  5
D8
330
D7
100
AcDbEntity
  8
FORMAT
 62
     2
100
AcDbText
 10
-23.12156822086647
 20
-49.97180738881175
 30
0.0
 40
4.233333333333333
  1
E1003004 [ 2 FLUTE ]
 41
0.75
  7
SLDTEXTSTYLE0
 11
-23.12156822086647
 21
-52.08847405547841
 31
0.0
100
AcDbAttribute
  2
AUTOATTR0
 70
     0
 74
     1
  0
SEQEND
  5
D9
330
D7
100
AcDbEntity
  8
0
  6
Continuous
 62
     7
  0
HATCH
  5
DA
330
1F
100
AcDbEntity
  8
중심선
100
AcDbHatch
 10
0.0
 20
0.0
 30
0.0
210
0.0
220
0.0
230
1.0
  2
SOLID
 70
     1
 71
     0
 91
        1
 92
        0
 93
        4
 72
     1
 10
-8.22536362774435
 20
-35.8
 11
-11.67163887158163
 21
-35.8
 72
     1
 10
-11.67163887158163
 20
-35.8
 11
-13.79986873078568
 21
-38.3363255805726
 72
     1
 10
-13.79986873078568
 20
-38.3363255805726
 11
-10.35356040183522
 21
-38.3362861512701
 72
     1
 10
-10.35356040183522
 20
-38.3362861512701
 11
-8.22536362774435
 21
-35.8
 97
        0
 75
     0
 76
     1
 98
        1
 10
13.40671167873052
 20
-0.0010749287238933
  0
HATCH
  5
DB
330
1F
100
AcDbEntity
  8
중심선
100
AcDbHatch
 10
0.0
 20
0.0
 30
0.0
210
0.0
220
0.0
230
1.0
  2
SOLID
 70
     1
 71
     0
 91
        1
 92
        0
 93
        4
 72
     1
 10
-3.212599636708401
 20
-35.8
 11
-6.658874880545678
 21
-35.8
 72
     1
 10
-6.658874880545678
 20
-35.8
 11
-11.19001288890307
 21
-41.20000000000002
 72
     1
 10
-11.19001288890307
 20
-41.20000000000002
 11
-7.743737645065789
 21
-41.20000000000002
 72
     1
 10
-7.743737645065789
 20
-41.20000000000002
 11
-3.212599636708401
 21
-35.8
 97
        0
 75
     0
 76
     1
 98
        1
 10
13.40671167873052
 20
-0.0010749287238933
  0
HATCH
  5
DC
330
1F
100
AcDbEntity
  8
중심선
100
AcDbHatch
 10
0.0
 20
0.0
 30
0.0
210
0.0
220
0.0
230
1.0
  2
SOLID
 70
     1
 71
     0
 91
        1
 92
        0
 93
        4
 72
     1
 10
1.800164354327521
 20
-35.8
 11
-1.646110889509618
 21
-35.8
 72
     1
 10
-1.646110889509618
 20
-35.8
 11
-8.694547791398868
 21
-44.20000000000002
 72
     1
 10
-8.694547791398868
 20
-44.20000000000002
 11
-5.248272547561591
 21
-44.20000000000002
 72
     1
 10
-5.248272547561591
 20
-44.20000000000002
 11
1.800164354327521
 21
-35.8
 97
        0
 75
     0
 76
     1
 98
        1
 10
13.40671167873052
 20
-0.0010749287238933
  0
HATCH
  5
DD
330
1F
100
AcDbEntity
  8
중심선
100
AcDbHatch
 10
0.0
 20
0.0
 30
0.0
210
0.0
220
0.0
230
1.0
  2
SOLID
 70
     1
 71
     0
 91
        1
 92
        0
 93
        6
 72
     3
 10
6.600054785339697
 20
-40.00000000005127
 11
3.960054785062283
 21
1.540882976769353E-10
 40
0.3939339440162628
 50
17.09539180608439
 51
320.0019657685083
 73
     0
 72
     1
 10
8.283054441040264
 20
-38.58789400463832
 11
10.58835631474133
 21
-36.6535672945904
 72
     3
 10
6.600054785286851
 20
-40.00000000000014
 11
6.600054785286829
 21
-1.278976924368180E-13
 40
0.636358354079598
 50
39.99873849337381
 51
368.4976242363724
 73
     1
 72
     1
 10
13.02538727718746
 20
-39.03999999993002
 11
5.280122092122799
 21
-39.03999999993002
 72
     1
 10
5.280122092122799
 20
-39.03999999993002
 11
5.280097047676838
 21
-40.95999999992991
 72
     1
 10
5.28009704767684
 20
-40.95999999992991
 11
9.721476817148876
 21
-40.95999999992988
 97
        0
 75
     0
 76
     1
 98
        1
 10
13.40671167873052
 20
-0.0010749287238933
  0
DIMENSION
  5
DE
330
1F
100
AcDbEntity
  8
치수문자_일반주서
100
AcDbDimension
  2
_D
 10
-36.57499999999999
 20
-2.381250000000076
 30
0.0
 11
-36.57500000000005
 21
17.63124999999997
 31
0.0
 70
   160
  1
%%c<>
 71
     2
 42
4.762499999999998
 52
-270.0
  3
SLDDIMSTYLE0
100
AcDbAlignedDimension
 13
-16.88786934298443
 23
2.381249999999996
 33
0.0
 14
-16.88786934298442
 24
-2.381250000000001
 34
0.0
 50
90.0000000000002
100
AcDbRotatedDimension
1001
PE_URL
1000

1001
ACAD
1000
DSTYLE
1002
{
1070
   171
1070
     8
1070
   273
1070
     7
1070
    41
1040
2.5
1070
   140
1040
2.5
1002
}
  0
DIMENSION
  5
F3
330
1F
100
AcDbEntity
  8
치수문자_일반주서
100
AcDbDimension
  2
_D_1
 10
57.4441142403355
 20
0.7930791345886394
 30
0.0
 11
57.44411424033544
 21
15.41807913458864
 31
0.0
 70
   160
  1
%%c<>
 71
     2
 42
1.58615826917706
 52
-270.0
  3
SLDDIMSTYLE0
100
AcDbAlignedDimension
 13
28.57500000000002
 23
-0.79307913458853
 33
0.0
 14
28.57500000000002
 24
0.7930791345885303
 34
0.0
 50
90.0000000000002
100
AcDbRotatedDimension
1001
PE_URL
1000

1001
ACAD
1000
DSTYLE
1002
{
1070
   171
1070
     8
1070
   273
1070
     7
1070
    41
1040
2.5
1070
   140
1040
2.5
1002
}
  0
DIMENSION
  5
107
330
1F
100
AcDbEntity
  8
치수문자_일반주서
100
AcDbDimension
  2
_D_2
 10
23.81250000000002
 20
10.38125
 30
0.0
 11
42.88750000000002
 21
10.38125
 31
0.0
 70
   160
  1
<>
 71
     2
 42
4.762499999999999
  3
SLDDIMSTYLE0
100
AcDbAlignedDimension
 13
28.57500000000002
 23
0.7930791345885303
 33
0.0
 14
23.81250000000002
 24
0.5321024965370711
 34
0.0
 50
0.0000000000000427
100
AcDbRotatedDimension
1001
PE_URL
1000

1001
ACAD
1000
DSTYLE
1002
{
1070
   171
1070
     8
1070
   273
1070
     7
1070
    41
1040
2.5
1070
   140
1040
2.5
1002
}
  0
DIMENSION
  5
11C
330
1F
100
AcDbEntity
  8
치수문자_일반주서
100
AcDbDimension
  2
_D_3
 10
28.57500000000002
 20
18.38125
 30
0.0
 11
0.0000000000000231
 21
18.38125
 31
0.0
 70
   160
  1
<>
 71
     2
 42
57.15000000000003
  3
SLDDIMSTYLE0
100
AcDbAlignedDimension
 13
-28.57500000000001
 23
0.7930791345885346
 33
0.0
 14
28.57500000000002
 24
0.7930791345885303
 34
0.0
100
AcDbRotatedDimension
1001
PE_URL
1000

1001
ACAD
1000
DSTYLE
1002
{
1070
   171
1070
     8
1070
   273
1070
     7
1070
    41
1040
2.5
1070
   140
1040
2.5
1002
}
  0
LINE
  5
130
330
1F
100
AcDbEntity
  8
참조1
100
AcDbLine
 10
81.91912503295507
 20
7.440000000000003
 30
0.0
 11
81.91912503295507
 21
-7.440000000000002
 31
0.0
  0
LINE
  5
131
330
1F
100
AcDbEntity
  8
참조1
100
AcDbLine
 10
94.61912503295507
 20
5.440000000000003
 30
0.0
 11
81.91912503295507
 21
5.440000000000003
 31
0.0
  0
SOLID
  5
132
330
1F
100
AcDbEntity
  8
참조1
100
AcDbTrace
 10
81.91912503295507
 20
5.440000000000003
 30
0.0
 11
88.26912503295506
 21
4.424000000000003
 31
0.0
 12
88.26912503295506
 22
6.456000000000003
 32
0.0
 13
88.26912503295506
 23
6.456000000000003
 33
0.0
  0
LINE
  5
133
330
1F
100
AcDbEntity
  8
참조1
100
AcDbLine
 10
94.61912503295507
 20
-5.440000000000002
 30
0.0
 11
81.91912503295507
 21
-5.440000000000002
 31
0.0
  0
SOLID
  5
134
330
1F
100
AcDbEntity
  8
참조1
100
AcDbTrace
 10
81.91912503295507
 20
-5.440000000000002
 30
0.0
 11
88.26912503295506
 21
-6.456000000000002
 31
0.0
 12
88.26912503295506
 22
-4.424000000000002
 32
0.0
 13
88.26912503295506
 23
-4.424000000000002
 33
0.0
  0
MTEXT
  5
135
330
1F
100
AcDbEntity
  8
참조1
100
AcDbMText
 10
91.30347516558106
 20
11.01029177718833
 30
0.0
 40
3.5
 41
0.0
 71
     1
 72
     1
  1
A
  7
SLDTEXTSTYLE0
 73
     1
 44
1.0
  0
MTEXT
  5
136
330
1F
100
AcDbEntity
  8
참조1
100
AcDbMText
 10
91.30347516558106
 20
0.1302917771883259
 30
0.0
 40
3.5
 41
0.0
 71
     1
 72
     1
  1
A
  7
SLDTEXTSTYLE0
 73
     1
 44
1.0
  0
INSERT
  5
13D
330
1F
100
AcDbEntity
  8
해칭선
100
AcDbBlockReference
  2
SW_DOWELSYMBOL_0
 10
0.0000000000000107
 20
-0.0000000000000002
 30
0.0
  0
LINE
  5
314
330
1F
100
AcDbEntity
  8
외형선
  6
Continuous
370
    15
100
AcDbLine
 10
-16.88786934298443
 20
2.381249999999996
 30
0.0
 11
-22.81250000000001
 21
0.7937499999999993
 31
0.0
  0
LINE
  5
315
330
1F
100
AcDbEntity
  8
외형선
  6
Continuous
370
    15
100
AcDbLine
 10
-22.81250000000001
 20
-0.7937500000000011
 30
0.0
 11
-16.88786934298443
 21
-2.381250000000005
 31
0.0
  0
LINE
  5
316
330
1F
100
AcDbEntity
  8
외형선
  6
Continuous
370
    15
100
AcDbLine
 10
-23.01263323623999
 20
-0.7937499999999993
 30
0.0
 11
-22.81250000000001
 21
-0.7937500000000011
 31
0.0
  0
LINE
  5
317
330
1F
100
AcDbEntity
  8
외형선
  6
Continuous
370
    15
100
AcDbLine
 10
-22.81250000000001
 20
0.7937499999999993
 30
0.0
 11
-23.01263323623999
 21
0.7937499999999993
 31
0.0
  0
SPLINE
  5
318
330
1F
100
AcDbEntity
  8
외형선
  6
Continuous
370
    15
100
AcDbSpline
210
0.0
220
0.0
230
1.0
 70
     8
 71
     3
 72
    11
 73
     7
 74
     0
 42
0.000000001
 43
0.00000001
 40
0.0
 40
0.0
 40
0.0
 40
0.0
 40
0.1682785326243816
 40
0.490012119881705
 40
0.7890684310305073
 40
1.0
 40
1.0
 40
1.0
 40
1.0
 10
-23.01790945809959
 20
0.7794418042312259
 30
0.0
 10
-23.02286109788577
 20
0.7624585160857311
 30
0.0
 10
-23.03727983253169
 20
0.7130046915428707
 30
0.0
 10
-23.08664837994701
 20
0.6414066984272679
 30
0.0
 10
-23.15389234113233
 20
0.5796857490054652
 30
0.0
 10
-23.20548871209429
 20
0.5596052261643099
 30
0.0
 10
-23.2268290299811
 20
0.5512998990109867
 30
0.0
  0
SPLINE
  5
319
330
1F
100
AcDbEntity
  8
외형선
  6
Continuous
370
    15
100
AcDbSpline
210
0.0
220
0.0
230
1.0
 70
     8
 71
     3
 72
     9
 73
     5
 74
     0
 42
0.000000001
 43
0.00000001
 40
0.0
 40
0.0
 40
0.0
 40
0.0
 40
0.4818247051771397
 40
0.9999999999999999
 40
0.9999999999999999
 40
0.9999999999999999
 40
0.9999999999999999
 10
-23.81250000000131
 20
-0.5320896026047919
 30
0.0
 10
-23.68401778970372
 20
-0.5266688306885516
 30
0.0
 10
-23.41736020880956
 20
-0.5154183243156023
 30
0.0
 10
-23.15075142383326
 20
-0.5336914496262217
 30
0.0
 10
-23.0126013380758
 20
-0.5431601317213861
 30
0.0
  0
SPLINE
  5
31A
330
1F
100
AcDbEntity
  8
0
  6
Continuous
 62
     1
370
    25
100
AcDbSpline
210
0.0
220
0.0
230
1.0
 70
     8
 71
     3
 72
     9
 73
     5
 74
     0
 42
0.000000001
 43
0.00000001
 40
0.0
 40
0.0
 40
0.0
 40
0.0
 40
0.4995144150128961
 40
1.0
 40
1.0
 40
1.0
 40
1.0
 10
-26.51789923710556
 20
-0.2034004289238904
 30
0.0
 10
-26.48158960836886
 20
-0.2208366700682375
 30
0.0
 10
-26.4088997566941
 20
-0.2557430523873502
 30
0.0
 10
-26.33618441722336
 20
-0.2940021550457849
 30
0.0
 10
-26.29979143801081
 20
-0.3131502844208728
 30
0.0
1001
PE_URL
1000

  0
LINE
  5
31B
330
1F
100
AcDbEntity
  8
0
  6
Continuous
 62
     1
370
    25
100
AcDbLine
 10
-26.18869084909993
 20
-0.1639868264780659
 30
0.0
 11
-26.06991480587396
 21
-0.2285866692649776
 31
0.0
1001
PE_URL
1000

  0
LINE
  5
31C
330
1F
100
AcDbEntity
  8
0
  6
Continuous
 62
     1
370
    25
100
AcDbLine
 10
-24.69705054019088
 20
-0.7937499999999993
 30
0.0
 11
-24.31212136153156
 21
-0.7937499999999993
 31
0.0
1001
PE_URL
1000

  0
SPLINE
  5
31D
330
1F
100
AcDbEntity
  8
0
  6
Continuous
 62
     1
370
    25
100
AcDbSpline
210
0.0
220
0.0
230
1.0
 70
     8
 71
     3
 72
     9
 73
     5
 74
     0
 42
0.000000001
 43
0.00000001
 40
0.0
 40
0.0
 40
0.0
 40
0.0
 40
0.9231036732802202
 40
1.0
 40
1.0
 40
1.0
 40
1.0
 10
-26.25708627706765
 20
-0.6307605084307983
 30
0.0
 10
-26.04729297654134
 20
-0.620717554448321
 30
0.0
 10
-25.82002348710164
 20
-0.6098380029167032
 30
0.0
 10
-25.59276983559629
 20
-0.6254938313810232
 30
0.0
 10
-25.57529486456188
 20
-0.6266977070816839
 30
0.0
1001
PE_URL
1000

  0
SPLINE
  5
31E
330
1F
100
AcDbEntity
  8
0
  6
Continuous
 62
     1
370
    25
100
AcDbSpline
210
0.0
220
0.0
230
1.0
 70
     8
 71
     3
 72
    10
 73
     6
 74
     0
 42
0.000000001
 43
0.00000001
 40
0.0
 40
0.0
 40
0.0
 40
0.0
 40
0.4509237618627223
 40
0.6543172872886039
 40
1.0
 40
1.0
 40
1.0
 40
1.0
 10
-25.06264186106868
 20
0.660480701571176
 30
0.0
 10
-25.24292278457906
 20
0.6456178086740394
 30
0.0
 10
-25.50452116283687
 20
0.6240508641387983
 30
0.0
 10
-25.90014717944192
 20
0.6172699937741051
 30
0.0
 10
-26.11918581189433
 20
0.6255485597847716
 30
0.0
 10
-26.25708627706765
 20
0.6307605084308019
 30
0.0
1001
PE_URL
1000

  0
SPLINE
  5
31F
330
1F
100
AcDbEntity
  8
0
  6
Continuous
 62
     1
370
    25
100
AcDbSpline
210
0.0
220
0.0
230
1.0
 70
     8
 71
     3
 72
    10
 73
     6
 74
     0
 42
0.000000001
 43
0.00000001
 40
0.0
 40
0.0
 40
0.0
 40
0.0
 40
0.5529405126555764
 40
0.7392066174604544
 40
0.9999999999999999
 40
0.9999999999999999
 40
0.9999999999999999
 40
0.9999999999999999
 10
-28.2789834817526
 20
-0.5428096022030449
 30
0.0
 10
-28.02356937492151
 20
-0.5305464352414404
 30
0.0
 10
-27.6821152878344
 20
-0.514152240998909
 30
0.0
 10
-27.22104590816394
 20
-0.5507349749759509
 30
0.0
 10
-27.01463893809082
 20
-0.5799334143527854
 30
0.0
 10
-26.89423086393302
 20
-0.5969664043362712
 30
0.0
1001
PE_URL
1000

  0
SPLINE
  5
320
330
1F
100
AcDbEntity
  8
0
  6
Continuous
 62
     1
370
    25
100
AcDbSpline
210
0.0
220
0.0
230
1.0
 70
     8
 71
     3
 72
     9
 73
     5
 74
     0
 42
0.000000001
 43
0.00000001
 40
0.0
 40
0.0
 40
0.0
 40
0.0
 40
0.6083874665461338
 40
1.0
 40
1.0
 40
1.0
 40
1.0
 10
-26.89423086393302
 20
0.5969664043362766
 30
0.0
 10
-27.01463464269623
 20
0.5794793457191183
 30
0.0
 10
-27.21254105166081
 20
0.5507360536910397
 30
0.0
 10
-27.41022343863094
 20
0.5374815573288583
 30
0.0
 10
-27.48763833901153
 20
0.5322909304288093
 30
0.0
1001
PE_URL
1000

  0
SPLINE
  5
321
330
1F
100
AcDbEntity
  8
0
  6
Continuous
 62
     1
370
    25
100
AcDbSpline
210
0.0
220
0.0
230
1.0
 70
     8
 71
     3
 72
     9
 73
     5
 74
     0
 42
0.000000001
 43
0.00000001
 40
0.0
 40
0.0
 40
0.0
 40
0.0
 40
0.501446608691903
 40
0.9999999999999999
 40
0.9999999999999999
 40
0.9999999999999999
 40
0.9999999999999999
 10
-24.02712266016351
 20
-0.5479332232879113
 30
0.0
 10
-23.99125373511711
 20
-0.5448918288859872
 30
0.0
 10
-23.91972283945512
 20
-0.538826588142097
 30
0.0
 10
-23.8481719423853
 20
-0.5343309288106006
 30
0.0
 10
-23.81250000000001
 20
-0.5320896026047155
 30
0.0
1001
PE_URL
1000

  0
LINE
  5
322
330
1F
100
AcDbEntity
  8
0
  6
Continuous
 62
     1
370
    25
100
AcDbLine
 10
-24.31212136153156
 20
0.7937500000000011
 30
0.0
 11
-24.69705054019088
 21
0.7937500000000011
 31
0.0
1001
PE_URL
1000

  0
LINE
  5
323
330
1F
100
AcDbEntity
  8
외형선
  6
Continuous
370
    15
100
AcDbLine
 10
-16.88786934298443
 20
-2.381250000000005
 30
0.0
 11
-16.88786934298443
 21
2.381249999999998
 31
0.0
  0
LINE
  5
324
330
1F
100
AcDbEntity
  8
외형선
  6
Continuous
370
    15
100
AcDbLine
 10
-22.81250000000001
 20
-0.7937500000000011
 30
0.0
 11
-22.81250000000001
 21
0.7937499999999993
 31
0.0
  0
SPLINE
  5
325
330
1F
100
AcDbEntity
  8
외형선
  6
Continuous
370
    15
100
AcDbSpline
210
0.0
220
0.0
230
1.0
 70
     8
 71
     3
 72
     9
 73
     5
 74
     0
 42
0.000000001
 43
0.00000001
 40
0.0
 40
0.0
 40
0.0
 40
0.0
 40
0.4388110918201313
 40
1.0
 40
1.0
 40
1.0
 40
1.0
 10
-23.18569176903311
 20
-0.5346076708013694
 30
0.0
 10
-23.27742453882817
 20
-0.5745156344005871
 30
0.0
 10
-23.48647296879052
 20
-0.6654612926647925
 30
0.0
 10
-23.6953054998835
 20
-0.7144771666163141
 30
0.0
 10
-23.81250000000001
 20
-0.7419843314026497
 30
0.0
  0
SPLINE
  5
326
330
1F
100
AcDbEntity
  8
외형선
  6
Continuous
370
    15
100
AcDbSpline
210
0.0
220
0.0
230
1.0
 70
     8
 71
     3
 72
    12
 73
     8
 74
     0
 42
0.000000001
 43
0.00000001
 40
0.0
 40
0.0
 40
0.0
 40
0.0
 40
0.25
 40
0.25
 40
0.5
 40
0.5
 40
1.0
 40
1.0
 40
1.0
 40
1.0
 10
-23.81250000000001
 20
0.6352549754091275
 30
0.0
 10
-23.74584066641845
 20
0.6121457075948413
 30
0.0
 10
-23.68076932734483
 20
0.5869927279019684
 30
0.0
 10
-23.54735220123913
 20
0.5323152034019092
 30
0.0
 10
-23.47974887228217
 20
0.5028637119472883
 30
0.0
 10
-23.27747314911883
 20
0.409518058240785
 30
0.0
 10
-23.14697672038248
 20
0.3412789479558179
 30
0.0
 10
-23.01266578069946
 20
0.2685601230879194
 30
0.0
  0
LINE
  5
327
330
1F
100
AcDbEntity
  8
외형선
  6
Continuous
370
    15
100
AcDbLine
 10
-23.81250000000001
 20
0.6352549754091275
 30
0.0
 11
-23.81250000000001
 21
0.7419843314026515
 31
0.0
  0
SPLINE
  5
328
330
1F
100
AcDbEntity
  8
외형선
  6
Continuous
370
    15
100
AcDbSpline
210
0.0
220
0.0
230
1.0
 70
     8
 71
     3
 72
    12
 73
     8
 74
     0
 42
0.000000001
 43
0.00000001
 40
0.0
 40
0.0
 40
0.0
 40
0.0
 40
0.25
 40
0.25
 40
0.5
 40
0.5
 40
1.0
 40
1.0
 40
1.0
 40
1.0
 10
-23.81250000000001
 20
0.7419843314026497
 30
0.0
 10
-23.74583364545722
 20
0.7282917226527399
 30
0.0
 10
-23.68075546264454
 20
0.7121062079833713
 30
0.0
 10
-23.54732390900192
 20
0.6745648133381899
 30
0.0
 10
-23.47971328812374
 20
0.6532434469437174
 30
0.0
 10
-23.27741648814612
 20
0.5825700539927947
 30
0.0
 10
-23.14690694400371
 20
0.5270436328005914
 30
0.0
 10
-23.01258090179001
 20
0.4643646348043831
 30
0.0
  0
ELLIPSE
  5
329
330
1F
100
AcDbEntity
  8
외형선
  6
Continuous
370
    15
100
AcDbEllipse
 10
-23.01260521053118
 20
0.0
 30
0.0
 11
2.802570892102525E-5
 21
-0.7937500000000002
 31
0.0
210
0.0
220
0.0
230
1.0
 40
0.0000631539805833
 41
2.195367185031515
 42
3.141592651323599
  0
ELLIPSE
  5
32A
330
1F
100
AcDbEntity
  8
외형선
  6
Continuous
370
    15
100
AcDbEllipse
 10
-23.01260521053118
 20
0.0
 30
0.0
 11
-2.802570892034876E-5
 21
-0.7937500000000002
 31
0.0
210
0.0
220
0.0
230
1.0
 40
0.0000631539805855
 41
4.367275857787487
 42
6.283185307179586
  0
SPLINE
  5
32B
330
1F
100
AcDbEntity
  8
외형선
  6
Continuous
370
    15
100
AcDbSpline
210
0.0
220
0.0
230
1.0
 70
    24
 71
     3
 72
     8
 73
     4
 74
     0
 42
0.000000001
 43
0.00000001
 40
0.0
 40
0.0
 40
0.0
 40
0.0
 40
1.0
 40
1.0
 40
1.0
 40
1.0
 10
-23.81250000000018
 20
0.5146036576969042
 30
0.0
 10
-23.81250000000018
 20
0.5535504010202867
 30
0.0
 10
-23.81250000000018
 20
0.594020346494279
 30
0.0
 10
-23.81250000000018
 20
0.6352549754090902
 30
0.0
  0
SPLINE
  5
32C
330
1F
100
AcDbEntity
  8
외형선
  6
Continuous
370
    15
100
AcDbSpline
210
0.0
220
0.0
230
1.0
 70
     8
 71
     3
 72
    12
 73
     8
 74
     0
 42
0.000000001
 43
0.00000001
 40
0.0
 40
0.0
 40
0.0
 40
0.0
 40
0.2500000000000001
 40
0.2500000000000001
 40
0.5
 40
0.5
 40
1.0
 40
1.0
 40
1.0
 40
1.0
 10
-23.81250000000001
 20
0.5146036576968509
 30
0.0
 10
-23.74584066641845
 20
0.4934161758616754
 30
0.0
 10
-23.68076932734484
 20
0.4705926677394051
 30
0.0
 10
-23.54735220123914
 20
0.4214160948852435
 30
0.0
 10
-23.47974887228217
 20
0.3951316381097439
 30
0.0
 10
-23.27747314911883
 20
0.3123979789334986
 30
0.0
 10
-23.14697672038248
 20
0.2526327838274938
 30
0.0
 10
-23.01266578069946
 20
0.1895946680025578
 30
0.0
  0
SPLINE
  5
32D
330
1F
100
AcDbEntity
  8
외형선
  6
Continuous
370
    15
100
AcDbSpline
210
0.0
220
0.0
230
1.0
 70
    24
 71
     3
 72
    10
 73
     6
 74
     0
 42
0.000000001
 43
0.00000001
 40
0.0
 40
0.0
 40
0.0
 40
0.0
 40
0.5
 40
0.5
 40
1.0
 40
1.0
 40
1.0
 40
1.0
 10
-23.81250000000001
 20
-0.2009732612350294
 30
0.0
 10
-23.81250000000001
 20
-0.0811359492101022
 30
0.0
 10
-23.81250000000001
 20
0.0500599913004987
 30
0.0
 10
-23.81250000000001
 20
0.3001895831198809
 30
0.0
 10
-23.81250000000001
 20
0.4180465788829491
 30
0.0
 10
-23.81250000000001
 20
0.5146036576968491
 30
0.0
  0
SPLINE
  5
32E
330
1F
100
AcDbEntity
  8
외형선
  6
Continuous
370
    15
100
AcDbSpline
210
0.0
220
0.0
230
1.0
 70
     8
 71
     3
 72
    12
 73
     8
 74
     0
 42
0.000000001
 43
0.00000001
 40
0.0
 40
0.0
 40
0.0
 40
0.0
 40
0.25
 40
0.25
 40
0.5
 40
0.5
 40
1.0
 40
1.0
 40
1.0
 40
1.0
 10
-23.81250000000001
 20
-0.2009732612350294
 30
0.0
 10
-23.74583620789088
 20
-0.2302245484063476
 30
0.0
 10
-23.68076052283622
 20
-0.258539735664959
 30
0.0
 10
-23.54733423480205
 20
-0.3136129493976831
 30
0.0
 10
-23.47972627524817
 20
-0.3402543337053724
 30
0.0
 10
-23.27743716761685
 20
-0.4161843215914426
 30
0.0
 10
-23.14693241035783
 20
-0.4610786492962031
 30
0.0
 10
-23.01261188003624
 20
-0.4992796919175059
 30
0.0
  0
SPLINE
  5
32F
330
1F
100
AcDbEntity
  8
외형선
  6
Continuous
370
    15
100
AcDbSpline
210
0.0
220
0.0
230
1.0
 70
    24
 71
     3
 72
    12
 73
     8
 74
     0
 42
0.000000001
 43
0.00000001
 40
0.0
 40
0.0
 40
0.0
 40
0.0
 40
0.059577685787825
 40
0.2508638909647319
 40
0.4367591218505194
 40
0.6280453270293643
 40
1.0
 40
1.0
 40
1.0
 40
1.0
 10
-23.81250000000001
 20
-0.5294629110089453
 30
0.0
 10
-23.81250000000001
 20
-0.5301112641515964
 30
0.0
 10
-23.81250000000001
 20
-0.5328412861377441
 30
0.0
 10
-23.81250000000001
 20
-0.5124947324311222
 30
0.0
 10
-23.81250000000001
 20
-0.4677947907884867
 30
0.0
 10
-23.81250000000001
 20
-0.3783523942220714
 30
0.0
 10
-23.81250000000001
 20
-0.2715221398337224
 30
0.0
 10
-23.81250000000001
 20
-0.2009732612350294
 30
0.0
  0
SPLINE
  5
330
330
1F
100
AcDbEntity
  8
외형선
  6
Continuous
370
    15
100
AcDbSpline
210
0.0
220
0.0
230
1.0
 70
    24
 71
     3
 72
     8
 73
     4
 74
     0
 42
0.000000001
 43
0.00000001
 40
0.0
 40
0.0
 40
0.0
 40
0.0
 40
1.0
 40
1.0
 40
1.0
 40
1.0
 10
-23.81250000000045
 20
-0.7419843314026622
 30
0.0
 10
-23.81250000000045
 20
-0.6601286566401665
 30
0.0
 10
-23.81250000000045
 20
-0.5786526924326605
 30
0.0
 10
-23.81250000000045
 20
-0.5270629508352602
 30
0.0
  0
SPLINE
  5
331
330
1F
100
AcDbEntity
  8
0
  6
Continuous
 62
     1
370
    25
100
AcDbSpline
210
0.0
220
0.0
230
1.0
 70
     8
 71
     3
 72
    15
 73
    11
 74
     0
 42
0.000000001
 43
0.00000001
 40
0.0
 40
0.0
 40
0.0
 40
0.0
 40
0.1375474749152531
 40
0.2750930199134684
 40
0.4126366806261177
 40
0.5501785028877579
 40
0.687718532731416
 40
0.8228302151445197
 40
0.9579321540065202
 40
1.0
 40
1.0
 40
1.0
 40
1.0
 10
-28.57500000000001
 20
0.7532218149528234
 30
0.0
 10
-28.39719595999448
 20
0.7098011115577751
 30
0.0
 10
-28.04159037473692
 20
0.6229603139999096
 30
0.0
 10
-27.50818766497581
 20
0.3701677678399876
 30
0.0
 10
-26.97479323530258
 20
0.0702436114311702
 30
0.0
 10
-26.44140876319722
 20
-0.2416721546586053
 30
0.0
 10
-25.91116424510637
 20
-0.5176977067094661
 30
0.0
 10
-25.3840938817956
 20
-0.7084722437265274
 30
0.0
 10
-24.98043469413569
 20
-0.7995578391412117
 30
0.0
 10
-24.75142697592857
 20
-0.784924405117577
 30
0.0
 10
-24.69705054019088
 20
-0.7814497886678016
 30
0.0
1001
PE_URL
1000

  0
SPLINE
  5
332
330
1F
100
AcDbEntity
  8
0
  6
Continuous
 62
     1
370
    25
100
AcDbSpline
210
0.0
220
0.0
230
1.0
 70
     8
 71
     3
 72
    13
 73
     9
 74
     0
 42
0.000000001
 43
0.00000001
 40
0.0
 40
0.0
 40
0.0
 40
0.0
 40
0.1681004082140214
 40
0.3352380877400709
 40
0.5036692837854245
 40
0.6714036300995531
 40
0.8386284581840878
 40
1.0
 40
1.0
 40
1.0
 40
1.0
 10
-28.57500000000001
 20
0.6262467348422742
 30
0.0
 10
-28.45883250383518
 20
0.6012480617294749
 30
0.0
 10
-28.22716281495334
 20
0.5513938855295901
 30
0.0
 10
-27.87976213784888
 20
0.4298492483128734
 30
0.0
 10
-27.53173475950695
 20
0.2851233690443547
 30
0.0
 10
-27.18411218862735
 20
0.1210483597127219
 30
0.0
 10
-26.8416620934256
 20
-0.0497830724909036
 30
0.0
 10
-26.61447810092317
 20
-0.1573995957754146
 30
0.0
 10
-26.50290951860099
 20
-0.2102493709952408
 30
0.0
1001
PE_URL
1000

  0
LINE
  5
333
330
1F
100
AcDbEntity
  8
0
  6
Continuous
 62
     1
370
    25
100
AcDbLine
 10
-28.57499999999997
 20
0.7532218149528251
 30
0.0
 11
-28.57500000000001
 21
0.6262467348422742
 31
0.0
1001
PE_URL
1000

  0
SPLINE
  5
334
330
1F
100
AcDbEntity
  8
0
  6
Continuous
 62
     1
370
    25
100
AcDbSpline
210
0.0
220
0.0
230
1.0
 70
     8
 71
     3
 72
    36
 73
    32
 74
     0
 42
0.000000001
 43
0.00000001
 40
0.0
 40
0.0
 40
0.0
 40
0.0
 40
0.0624999999999998
 40
0.0624999999999998
 40
0.1249999999999996
 40
0.1249999999999996
 40
0.1874999999999994
 40
0.1874999999999994
 40
0.2499999999999992
 40
0.2499999999999992
 40
0.3124999999999989
 40
0.3124999999999989
 40
0.3749999999999988
 40
0.3749999999999988
 40
0.4374999999999989
 40
0.4374999999999989
 40
0.4999999999999991
 40
0.4999999999999991
 40
0.6249999999999994
 40
0.6249999999999994
 40
0.6874999999999994
 40
0.6874999999999994
 40
0.7499999999999994
 40
0.7499999999999994
 40
0.8124999999999997
 40
0.8124999999999997
 40
0.8749999999999998
 40
0.8749999999999998
 40
0.9374999999999999
 40
0.9374999999999999
 40
1.0
 40
1.0
 40
1.0
 40
1.0
 10
-28.57500000000001
 20
0.7930791345885329
 30
0.0
 10
-28.47770786197653
 20
0.7907400385085062
 30
0.0
 10
-28.37726991202813
 20
0.7821895493692903
 30
0.0
 10
-28.17701010243967
 20
0.7529123289265147
 30
0.0
 10
-28.07890808271414
 20
0.7323499862544374
 30
0.0
 10
-27.88223557256968
 20
0.6802321941197409
 30
0.0
 10
-27.78137381116715
 20
0.6484039167884905
 30
0.0
 10
-27.58160248253292
 20
0.5752640597422616
 30
0.0
 10
-27.48477585271035
 20
0.5343075876678736
 30
0.0
 10
-27.2864747523427
 20
0.4441194877549482
 30
0.0
 10
-27.18543927410631
 20
0.3948800251997061
 30
0.0
 10
-26.98664094316833
 20
0.2915264537392553
 30
0.0
 10
-26.89001895878068
 20
0.2376696066590363
 30
0.0
 10
-26.69056192475772
 20
0.1259723647522347
 30
0.0
 10
-26.58960427798357
 20
0.068459600719562
 30
0.0
 10
-26.39225560043652
 20
-0.045872236881193
 30
0.0
 10
-26.29476587639365
 20
-0.1029013776887684
 30
0.0
 10
-25.99456938342508
 20
-0.2717170766322975
 30
0.0
 10
-25.79930783145593
 20
-0.3782869566504096
 30
0.0
 10
-25.49883154819747
 20
-0.5170617368858839
 30
0.0
 10
-25.39996286622483
 20
-0.5594041320801981
 30
0.0
 10
-25.204033425143
 20
-0.6345796581970404
 30
0.0
 10
-25.10330395258919
 20
-0.6678396569646914
 30
0.0
 10
-24.90328885365152
 20
-0.7231861542809046
 30
0.0
 10
-24.80610172563836
 20
-0.7451702844031391
 30
0.0
 10
-24.608366652741
 20
-0.7775273493844921
 30
0.0
 10
-24.50736778971885
 20
-0.7878182189777228
 30
0.0
 10
-24.3081416075715
 20
-0.7958171000494012
 30
0.0
 10
-24.21156817691263
 20
-0.7936340050498565
 30
0.0
 10
-24.0124955912239
 20
-0.7769263208325174
 30
0.0
 10
-23.91147857936989
 20
-0.7623135510101822
 30
0.0
 10
-23.81250000000001
 20
-0.7419843314026515
 30
0.0
1001
PE_URL
1000

  0
SPLINE
  5
335
330
1F
100
AcDbEntity
  8
0
  6
Continuous
 62
     1
370
    25
100
AcDbSpline
210
0.0
220
0.0
230
1.0
 70
     8
 71
     3
 72
    12
 73
     8
 74
     0
 42
0.000000001
 43
0.00000001
 40
0.0
 40
0.0
 40
0.0
 40
0.0
 40
0.0429657093183393
 40
0.3121125274055932
 40
0.5821230368364942
 40
0.8523535225155818
 40
1.0
 40
1.0
 40
1.0
 40
1.0
 10
-26.59864036593375
 20
0.0717090521278064
 30
0.0
 10
-26.5617207534091
 20
0.0577189549316977
 30
0.0
 10
-26.29352842611549
 20
-0.043908241821299
 30
0.0
 10
-25.79364356501718
 20
-0.2567203167987237
 30
0.0
 10
-25.09810743010065
 20
-0.4706892608053241
 30
0.0
 10
-24.50683427307365
 20
-0.5708079484776896
 30
0.0
 10
-24.14798211264544
 20
-0.5451370855171955
 30
0.0
 10
-24.02119058763818
 20
-0.5360669217507876
 30
0.0
1001
PE_URL
1000

  0
SPLINE
  5
336
330
1F
100
AcDbEntity
  8
외형선
  6
Continuous
370
    15
100
AcDbSpline
210
0.0
220
0.0
230
1.0
 70
    24
 71
     3
 72
     8
 73
     4
 74
     0
 42
0.000000001
 43
0.00000001
 40
0.0
 40
0.0
 40
0.0
 40
0.0
 40
1.0
 40
1.0
 40
1.0
 40
1.0
 10
-23.81250000000045
 20
-0.7419843314026622
 30
0.0
 10
-23.81250000000045
 20
-0.6601286566401665
 30
0.0
 10
-23.81250000000045
 20
-0.5786526924326605
 30
0.0
 10
-23.81250000000045
 20
-0.5270629508352602
 30
0.0
  0
LINE
  5
337
330
1F
100
AcDbEntity
  8
0
  6
Continuous
 62
     1
370
    25
100
AcDbLine
 10
-28.57500000000001
 20
0.7930791345885346
 30
0.0
 11
-28.57499999999997
 21
0.7532218149528216
 31
0.0
1001
PE_URL
1000

  0
SPLINE
  5
338
330
1F
100
AcDbEntity
  8
0
  6
Continuous
 62
     1
370
    25
100
AcDbSpline
210
0.0
220
0.0
230
1.0
 70
     8
 71
     3
 72
     8
 73
     4
 74
     0
 42
0.000000001
 43
0.00000001
 40
0.0
 40
0.0
 40
0.0
 40
0.0
 40
1.0
 40
1.0
 40
1.0
 40
1.0
 10
-28.08416518402695
 20
-0.2217164472895998
 30
0.0
 10
-28.05586283303624
 20
-0.2552055529186443
 30
0.0
 10
-28.03055695231342
 20
-0.2874688336122925
 30
0.0
 10
-28.00903983627202
 20
-0.3181821699361773
 30
0.0
1001
PE_URL
1000

  0
LINE
  5
339
330
1F
100
AcDbEntity
  8
0
  6
Continuous
 62
     1
370
    25
100
AcDbLine
 10
-28.01909439046916
 20
-0.3266189426618222
 30
0.0
 11
-28.57500000000001
 21
0.0000000000000036
 31
0.0
1001
PE_URL
1000

  0
LINE
  5
33A
330
1F
100
AcDbEntity
  8
0
  6
Continuous
 62
     1
370
    25
100
AcDbLine
 10
-28.57500000000001
 20
0.0000000000000036
 30
0.0
 11
-28.57500000000001
 21
0.2121240884110343
 31
0.0
1001
PE_URL
1000

  0
SPLINE
  5
33B
330
1F
100
AcDbEntity
  8
0
  6
Continuous
 62
     1
370
    25
100
AcDbSpline
210
0.0
220
0.0
230
1.0
 70
     8
 71
     3
 72
    10
 73
     6
 74
     0
 42
0.000000001
 43
0.00000001
 40
0.0
 40
0.0
 40
0.0
 40
0.0
 40
0.5
 40
0.5
 40
1.0
 40
1.0
 40
1.0
 40
1.0
 10
-28.57500000000001
 20
0.2121240884110343
 30
0.0
 10
-28.49003968058414
 20
0.1453288991865698
 30
0.0
 10
-28.40649867432916
 20
0.0757943889780269
 30
0.0
 10
-28.24231817387945
 20
-0.0688746449464563
 30
0.0
 10
-28.16090546063871
 20
-0.144767040082268
 30
0.0
 10
-28.08416518402628
 20
-0.221716447287898
 30
0.0
1001
PE_URL
1000

  0
SPLINE
  5
33C
330
1F
100
AcDbEntity
  8
0
  6
Continuous
 62
     1
370
    25
100
AcDbSpline
210
0.0
220
0.0
230
1.0
 70
     8
 71
     3
 72
    13
 73
     9
 74
     0
 42
0.000000001
 43
0.00000001
 40
0.0
 40
0.0
 40
0.0
 40
0.0
 40
0.1115437184479915
 40
0.3024548269438315
 40
0.4925652888819016
 40
0.6820900014644715
 40
0.8732023509948212
 40
1.0
 40
1.0
 40
1.0
 40
1.0
 10
-28.08416518402695
 20
-0.221716447289598
 30
0.0
 10
-28.01630250924443
 20
-0.2508007459972976
 30
0.0
 10
-27.83229041207856
 20
-0.3296638738794967
 30
0.0
 10
-27.53171816663508
 20
-0.4411044212481645
 30
0.0
 10
-27.18410526406642
 20
-0.5442842073600289
 30
0.0
 10
-26.83666195158437
 20
-0.611120918048119
 30
0.0
 10
-26.52699711123858
 20
-0.6408199783646289
 30
0.0
 10
-26.33337818643719
 20
-0.6304268095769352
 30
0.0
 10
-26.25615373743963
 20
-0.6262815188529434
 30
0.0
1001
PE_URL
1000

  0
SPLINE
  5
33D
330
1F
100
AcDbEntity
  8
0
  6
Continuous
 62
     1
370
    25
100
AcDbSpline
210
0.0
220
0.0
230
1.0
 70
    24
 71
     3
 72
     8
 73
     4
 74
     0
 42
0.000000001
 43
0.00000001
 40
0.0
 40
0.0
 40
0.0
 40
0.0
 40
1.0
 40
1.0
 40
1.0
 40
1.0
 10
-28.57500000000001
 20
0.6262467348422742
 30
0.0
 10
-28.57500000000001
 20
0.5302333452012729
 30
0.0
 10
-28.57500000000001
 20
0.3805014774329028
 30
0.0
 10
-28.57500000000001
 20
0.2121240884110592
 30
0.0
1001
PE_URL
1000

  0
SPLINE
  5
33E
330
1F
100
AcDbEntity
  8
0
  6
Continuous
 62
     1
370
    25
100
AcDbSpline
210
0.0
220
0.0
230
1.0
 70
     8
 71
     3
 72
    10
 73
     6
 74
     0
 42
0.000000001
 43
0.00000001
 40
0.0
 40
0.0
 40
0.0
 40
0.0
 40
0.2498842306840628
 40
0.5291545913653481
 40
0.9999999999999999
 40
0.9999999999999999
 40
0.9999999999999999
 40
0.9999999999999999
 10
-25.06329474341688
 20
0.6585077059040447
 30
0.0
 10
-24.95920252144346
 20
0.6662829932572727
 30
0.0
 10
-24.73877693863707
 20
0.6827479338054694
 30
0.0
 10
-24.32178166962382
 20
0.6519885526467579
 30
0.0
 10
-24.00889685534201
 20
0.5675840866991031
 30
0.0
 10
-23.81250000000001
 20
0.5146036576968509
 30
0.0
1001
PE_URL
1000

  0
SPLINE
  5
33F
330
1F
100
AcDbEntity
  8
0
  6
Continuous
 62
     1
370
    25
100
AcDbSpline
210
0.0
220
0.0
230
1.0
 70
     8
 71
     3
 72
    16
 73
    12
 74
     0
 42
0.000000001
 43
0.00000001
 40
0.0
 40
0.0
 40
0.0
 40
0.0
 40
0.0187929428707255
 40
0.1321471356798611
 40
0.2447156415735843
 40
0.3572467128971376
 40
0.470613767693163
 40
0.5830494925460271
 40
0.6957578973456232
 40
0.8090312672030853
 40
0.9999999999999999
 40
0.9999999999999999
 40
0.9999999999999999
 40
0.9999999999999999
 10
-26.89538213277945
 20
0.5941921285068599
 30
0.0
 10
-26.87608563724964
 20
0.5980654497140474
 30
0.0
 10
-26.74039764891992
 20
0.6253016471855624
 30
0.0
 10
-26.48856030359971
 20
0.6386790410523364
 30
0.0
 10
-26.14107191608701
 20
0.6297000978125951
 30
0.0
 10
-25.79356935272985
 20
0.5768073254503783
 30
0.0
 10
-25.4454848652695
 20
0.4890680467458637
 30
0.0
 10
-25.09804645271343
 20
0.3687968919113765
 30
0.0
 10
-24.75039070506028
 20
0.2257549329642946
 30
0.0
 10
-24.32175662005105
 20
0.0313765419765613
 30
0.0
 10
-24.00888522511521
 20
-0.1113719352775834
 30
0.0
 10
-23.81250000000001
 20
-0.2009732612350294
 30
0.0
1001
PE_URL
1000

  0
SPLINE
  5
340
330
1F
100
AcDbEntity
  8
외형선
  6
Continuous
370
    15
100
AcDbSpline
210
0.0
220
0.0
230
1.0
 70
    24
 71
     3
 72
    10
 73
     6
 74
     0
 42
0.000000001
 43
0.00000001
 40
0.0
 40
0.0
 40
0.0
 40
0.0
 40
0.5
 40
0.5
 40
1.0
 40
1.0
 40
1.0
 40
1.0
 10
-23.81250000000001
 20
-0.2009732612350294
 30
0.0
 10
-23.81250000000001
 20
-0.0811359492101022
 30
0.0
 10
-23.81250000000001
 20
0.0500599913004987
 30
0.0
 10
-23.81250000000001
 20
0.3001895831198809
 30
0.0
 10
-23.81250000000001
 20
0.4180465788829491
 30
0.0
 10
-23.81250000000001
 20
0.5146036576968491
 30
0.0
  0
SPLINE
  5
341
330
1F
100
AcDbEntity
  8
0
  6
Continuous
 62
     1
370
    25
100
AcDbSpline
210
0.0
220
0.0
230
1.0
 70
    24
 71
     3
 72
     8
 73
     4
 74
     0
 42
0.000000001
 43
0.00000001
 40
0.0
 40
0.0
 40
0.0
 40
0.0
 40
1.0
 40
1.0
 40
1.0
 40
1.0
 10
-28.09172898750673
 20
-0.3875666062467431
 30
0.0
 10
-28.06553382861937
 20
-0.365586258085738
 30
0.0
 10
-28.03789163828372
 20
-0.3423917063701473
 30
0.0
 10
-28.00903983626887
 20
-0.3181821699406874
 30
0.0
1001
PE_URL
1000

  0
LINE
  5
342
330
1F
100
AcDbEntity
  8
0
  6
Continuous
 62
     1
370
    25
100
AcDbLine
 10
-28.57500000000001
 20
-0.5556249999999956
 30
0.0
 11
-28.27662876104075
 21
-0.525758893778475
 31
0.0
1001
PE_URL
1000

  0
SPLINE
  5
343
330
1F
100
AcDbEntity
  8
0
  6
Continuous
 62
     1
370
    25
100
AcDbSpline
210
0.0
220
0.0
230
1.0
 70
     8
 71
     3
 72
     8
 73
     4
 74
     0
 42
0.000000001
 43
0.00000001
 40
0.0
 40
0.0
 40
0.0
 40
0.0
 40
1.0
 40
1.0
 40
1.0
 40
1.0
 10
-28.57500000000001
 20
-0.5556249999999974
 30
0.0
 10
-28.41167374258711
 20
-0.5111936580935037
 30
0.0
 10
-28.24990442684253
 20
-0.456719898099072
 30
0.0
 10
-28.09172898751503
 20
-0.3875666062503846
 30
0.0
1001
PE_URL
1000

  0
SPLINE
  5
344
330
1F
100
AcDbEntity
  8
외형선
  6
Continuous
370
    15
100
AcDbSpline
210
0.0
220
0.0
230
1.0
 70
    24
 71
     3
 72
    12
 73
     8
 74
     0
 42
0.000000001
 43
0.00000001
 40
0.0
 40
0.0
 40
0.0
 40
0.0
 40
0.0604753835449734
 40
0.2515789928872584
 40
0.4372967739940383
 40
0.6284003833382593
 40
1.0
 40
1.0
 40
1.0
 40
1.0
 10
-23.81250000000001
 20
-0.5294447574268073
 30
0.0
 10
-23.81250000000001
 20
-0.5301067417474759
 30
0.0
 10
-23.81250000000001
 20
-0.5328606118172239
 30
0.0
 10
-23.81250000000001
 20
-0.5125039074531212
 30
0.0
 10
-23.81250000000001
 20
-0.4677923462656128
 30
0.0
 10
-23.81250000000001
 20
-0.3783537242371881
 30
0.0
 10
-23.81250000000001
 20
-0.2715226688197045
 30
0.0
 10
-23.81250000000001
 20
-0.2009732612350294
 30
0.0
  0
SPLINE
  5
345
330
1F
100
AcDbEntity
  8
0
  6
Continuous
 62
     1
370
    25
100
AcDbSpline
210
0.0
220
0.0
230
1.0
 70
     8
 71
     3
 72
    11
 73
     7
 74
     0
 42
0.000000001
 43
0.00000001
 40
0.0
 40
0.0
 40
0.0
 40
0.0
 40
0.1099152090968397
 40
0.4066295278865061
 40
0.7033239523196542
 40
1.0
 40
1.0
 40
1.0
 40
1.0
 10
-25.57815924136995
 20
0.6256509624483417
 30
0.0
 10
-25.51346661878661
 20
0.6507169560940174
 30
0.0
 10
-25.27413731399834
 20
0.7434481917974143
 30
0.0
 10
-24.86019102080852
 20
0.8026370841111987
 30
0.0
 10
-24.33632998345064
 20
0.7905297643888165
 30
0.0
 10
-23.98710638931841
 20
0.6870121697517
 30
0.0
 10
-23.81250000000004
 20
0.6352549754091363
 30
0.0
1001
PE_URL
1000

  0
SPLINE
  5
346
330
1F
100
AcDbEntity
  8
외형선
  6
Continuous
370
    15
100
AcDbSpline
210
0.0
220
0.0
230
1.0
 70
    24
 71
     3
 72
     8
 73
     4
 74
     0
 42
0.000000001
 43
0.00000001
 40
0.0
 40
0.0
 40
0.0
 40
0.0
 40
1.0
 40
1.0
 40
1.0
 40
1.0
 10
-23.81250000000001
 20
0.5146036576968491
 30
0.0
 10
-23.81250000000001
 20
0.5535504010202423
 30
0.0
 10
-23.81250000000001
 20
0.5940203464942453
 30
0.0
 10
-23.81250000000001
 20
0.6352549754090706
 30
0.0
  0
LINE
  5
347
330
1F
100
AcDbEntity
  8
0
  6
Continuous
 62
     1
370
    25
100
AcDbLine
 10
-23.81250000000001
 20
0.7419843314026515
 30
0.0
 11
-24.31212136153156
 21
0.7902524231633112
 31
0.0
1001
PE_URL
1000

  0
SPLINE
  5
348
330
1F
100
AcDbEntity
  8
0
  6
Continuous
 62
     1
370
    25
100
AcDbSpline
210
0.0
220
0.0
230
1.0
 70
     8
 71
     3
 72
    10
 73
     6
 74
     0
 42
0.000000001
 43
0.00000001
 40
0.0
 40
0.0
 40
0.0
 40
0.0
 40
0.0361567236989257
 40
0.5180585226500687
 40
0.9999999999999999
 40
0.9999999999999999
 40
0.9999999999999999
 40
0.9999999999999999
 10
-27.48763833901153
 20
-0.5322909304288039
 30
0.0
 10
-27.50074318077849
 20
-0.538644367217632
 30
0.0
 10
-27.6885111605845
 20
-0.6296772855754504
 30
0.0
 10
-28.0509636044325
 20
-0.743045731135469
 30
0.0
 10
-28.4003164075585
 20
-0.7764008757286796
 30
0.0
 10
-28.57500000000001
 20
-0.7930791345885257
 30
0.0
1001
PE_URL
1000

  0
LINE
  5
349
330
1F
100
AcDbEntity
  8
0
  6
Continuous
 62
     1
370
    25
100
AcDbLine
 10
-28.57500000000001
 20
0.0000000000000036
 30
0.0
 11
-28.57500000000001
 21
-0.5556249999999974
 31
0.0
1001
PE_URL
1000

  0
SPLINE
  5
34A
330
1F
100
AcDbEntity
  8
0
  6
Continuous
 62
     1
370
    25
100
AcDbSpline
210
0.0
220
0.0
230
1.0
 70
    24
 71
     3
 72
     8
 73
     4
 74
     0
 42
0.000000001
 43
0.00000001
 40
0.0
 40
0.0
 40
0.0
 40
0.0
 40
1.0
 40
1.0
 40
1.0
 40
1.0
 10
-28.57500000000001
 20
-0.5556249999999956
 30
0.0
 10
-28.57500000000001
 20
-0.6229862076816062
 30
0.0
 10
-28.57500000000001
 20
-0.7135749447463038
 30
0.0
 10
-28.57500000000001
 20
-0.7930791345885257
 30
0.0
1001
PE_URL
1000

  0
ENDSEC
  0
SECTION
  2
OBJECTS
  0
DICTIONARY
  5
C
330
0
100
AcDbDictionary
281
     1
  3
ACAD_DETAILVIEWSTYLE
350
1C0
  3
ACAD_GROUP
350
D
  3
ACAD_LAYOUT
350
1A
  3
ACAD_MLINESTYLE
350
17
  3
ACAD_PLOTSETTINGS
350
19
  3
ACAD_PLOTSTYLENAME
350
E
  3
ACAD_SCALELIST
350
47
  3
ACAD_SECTIONVIEWSTYLE
350
1C1
  3
AcDbVariableDictionary
350
1BB
  3
APPDATA
350
15F
  3
DWGPROPS
350
34C
  0
DICTIONARY
  5
1C0
102
{ACAD_REACTORS
330
C
102
}
330
C
100
AcDbDictionary
281
     1
  0
DICTIONARY
  5
D
102
{ACAD_REACTORS
330
C
102
}
330
C
100
AcDbDictionary
281
     1
  0
DICTIONARY
  5
1A
102
{ACAD_REACTORS
330
C
102
}
330
C
100
AcDbDictionary
281
     1
  3
Layout1
350
1E
  3
Layout2
350
26
  3
Model
350
22
  0
DICTIONARY
  5
17
102
{ACAD_REACTORS
330
C
102
}
330
C
100
AcDbDictionary
281
     1
  3
Standard
350
18
  0
DICTIONARY
  5
19
102
{ACAD_REACTORS
330
C
102
}
330
C
100
AcDbDictionary
281
     1
  0
ACDBDICTIONARYWDFLT
  5
E
102
{ACAD_REACTORS
330
C
102
}
330
C
100
AcDbDictionary
281
     1
  3
Normal
350
F
100
AcDbDictionaryWithDefault
340
F
  0
DICTIONARY
  5
47
102
{ACAD_REACTORS
330
C
102
}
330
C
100
AcDbDictionary
281
     1
  3
A0
350
48
  3
A1
350
49
  3
A2
350
4A
  3
A3
350
4B
  3
A4
350
4C
  3
A5
350
4D
  3
A6
350
4E
  3
A7
350
4F
  3
A8
350
50
  3
A9
350
51
  3
B0
350
52
  3
B1
350
53
  3
B2
350
54
  3
B3
350
55
  3
B4
350
56
  3
B5
350
57
  3
B6
350
58
  3
B7
350
59
  3
B8
350
5A
  3
B9
350
5B
  3
C0
350
5C
  3
C1
350
5D
  3
C2
350
5E
  3
C3
350
5F
  3
C4
350
60
  3
C5
350
61
  3
C6
350
62
  3
C7
350
63
  3
C8
350
64
  3
C9
350
65
  3
D0
350
66
  3
D1
350
67
  3
D2
350
68
  0
DICTIONARY
  5
1C1
102
{ACAD_REACTORS
330
C
102
}
330
C
100
AcDbDictionary
281
     1
  0
DICTIONARY
  5
1BB
102
{ACAD_REACTORS
330
C
102
}
330
C
100
AcDbDictionary
281
     1
  0
DICTIONARY
  5
15F
102
{ACAD_REACTORS
330
C
102
}
330
C
100
AcDbDictionary
281
     1
  0
XRECORD
  5
34C
102
{ACAD_REACTORS
330
C
102
}
330
C
100
AcDbXrecord
280
     1
  1
DWGPROPS COOKIE
  2

  3

  4

  6

  7

  8
120170442
  9

300
=
301
=
302
=
303
=
304
=
305
=
306
=
307
=
308
=
309
=
 40
0.0
 41
2458313.014958044
 42
2458317.354735949
  1

 90
        0
  0
LAYOUT
  5
1E
102
{ACAD_REACTORS
330
1A
102
}
330
1A
100
AcDbPlotSettings
  1

  2
none_device
  4

  6

 40
0.0
 41
0.0
 42
0.0
 43
0.0
 44
0.0
 45
0.0
 46
0.0
 47
0.0
 48
0.0
 49
0.0
140
0.0
141
0.0
142
1.0
143
1.0
 70
   688
 72
     1
 73
     0
 74
     5
  7

 75
    16
147
1.0
148
0.0
149
0.0
100
AcDbLayout
  1
Layout1
 70
     1
 71
     1
 10
0.0
 20
0.0
 11
420.0
 21
297.0
 12
0.0
 22
0.0
 32
0.0
 14
1.000000000000000E+20
 24
1.000000000000000E+20
 34
1.000000000000000E+20
 15
-1.000000000000000E+20
 25
-1.000000000000000E+20
 35
-1.000000000000000E+20
146
0.0
 13
0.0
 23
0.0
 33
0.0
 16
1.0
 26
0.0
 36
0.0
 17
0.0
 27
1.0
 37
0.0
 76
     0
330
1B
  0
LAYOUT
  5
26
102
{ACAD_REACTORS
330
1A
102
}
330
1A
100
AcDbPlotSettings
  1

  2
none_device
  4

  6

 40
0.0
 41
0.0
 42
0.0
 43
0.0
 44
0.0
 45
0.0
 46
0.0
 47
0.0
 48
0.0
 49
0.0
140
0.0
141
0.0
142
1.0
143
1.0
 70
   688
 72
     1
 73
     0
 74
     5
  7

 75
    16
147
1.0
148
0.0
149
0.0
100
AcDbLayout
  1
Layout2
 70
     1
 71
     2
 10
0.0
 20
0.0
 11
0.0
 21
0.0
 12
0.0
 22
0.0
 32
0.0
 14
0.0
 24
0.0
 34
0.0
 15
0.0
 25
0.0
 35
0.0
146
0.0
 13
0.0
 23
0.0
 33
0.0
 16
1.0
 26
0.0
 36
0.0
 17
0.0
 27
1.0
 37
0.0
 76
     0
330
23
  0
LAYOUT
  5
22
102
{ACAD_REACTORS
330
1A
102
}
330
1A
100
AcDbPlotSettings
  1

  2
none_device
  4
ANSI_A_(11.00_x_8.50_Inches)
  6

 40
6.35
 41
19.05
 42
6.35000508
 43
19.05000254
 44
279.4
 45
215.9
 46
118.8242454151408
 47
92.23037677571051
 48
0.0
 49
0.0
140
0.0
141
0.0
142
0.0740881812675885
143
1.0
 70
  1696
 72
     0
 73
     0
 74
     0
  7

 75
     0
147
0.0235690232323232
148
0.0
149
0.0
100
AcDbLayout
  1
Model
 70
     1
 71
     0
 10
0.0
 20
0.0
 11
420.0
 21
297.0
 12
0.0
 22
0.0
 32
0.0
 14
-39.95000000000007
 24
-49.97180738881175
 34
0.0
 15
94.61912503295508
 25
27.88124999999997
 35
0.0
146
0.0
 13
0.0
 23
0.0
 33
0.0
 16
1.0
 26
0.0
 36
0.0
 17
0.0
 27
1.0
 37
0.0
 76
     0
330
1F
331
29
  0
MLINESTYLE
  5
18
102
{ACAD_REACTORS
330
17
102
}
330
17
100
AcDbMlineStyle
  2
Standard
 70
     0
  3

 62
   256
 51
90.0
 52
90.0
 71
     2
 49
0.5
 62
   256
  6
BYLAYER
 49
-0.5
 62
   256
  6
BYLAYER
  0
ACDBPLACEHOLDER
  5
F
102
{ACAD_REACTORS
330
E
102
}
330
E
  0
SCALE
  5
48
102
{ACAD_REACTORS
330
47
102
}
330
47
100
AcDbScale
 70
     0
300
1:1
140
1.0
141
1.0
290
     1
  0
SCALE
  5
49
102
{ACAD_REACTORS
330
47
102
}
330
47
100
AcDbScale
 70
     0
300
1:2
140
1.0
141
2.0
290
     0
  0
SCALE
  5
4A
102
{ACAD_REACTORS
330
47
102
}
330
47
100
AcDbScale
 70
     0
300
1:4
140
1.0
141
4.0
290
     0
  0
SCALE
  5
4B
102
{ACAD_REACTORS
330
47
102
}
330
47
100
AcDbScale
 70
     0
300
1:5
140
1.0
141
5.0
290
     0
  0
SCALE
  5
4C
102
{ACAD_REACTORS
330
47
102
}
330
47
100
AcDbScale
 70
     0
300
1:8
140
1.0
141
8.0
290
     0
  0
SCALE
  5
4D
102
{ACAD_REACTORS
330
47
102
}
330
47
100
AcDbScale
 70
     0
300
1:10
140
1.0
141
10.0
290
     0
  0
SCALE
  5
4E
102
{ACAD_REACTORS
330
47
102
}
330
47
100
AcDbScale
 70
     0
300
1:16
140
1.0
141
16.0
290
     0
  0
SCALE
  5
4F
102
{ACAD_REACTORS
330
47
102
}
330
47
100
AcDbScale
 70
     0
300
1:20
140
1.0
141
20.0
290
     0
  0
SCALE
  5
50
102
{ACAD_REACTORS
330
47
102
}
330
47
100
AcDbScale
 70
     0
300
1:30
140
1.0
141
30.0
290
     0
  0
SCALE
  5
51
102
{ACAD_REACTORS
330
47
102
}
330
47
100
AcDbScale
 70
     0
300
1:40
140
1.0
141
40.0
290
     0
  0
SCALE
  5
52
102
{ACAD_REACTORS
330
47
102
}
330
47
100
AcDbScale
 70
     0
300
1:50
140
1.0
141
50.0
290
     0
  0
SCALE
  5
53
102
{ACAD_REACTORS
330
47
102
}
330
47
100
AcDbScale
 70
     0
300
1:100
140
1.0
141
100.0
290
     0
  0
SCALE
  5
54
102
{ACAD_REACTORS
330
47
102
}
330
47
100
AcDbScale
 70
     0
300
2:1
140
2.0
141
1.0
290
     0
  0
SCALE
  5
55
102
{ACAD_REACTORS
330
47
102
}
330
47
100
AcDbScale
 70
     0
300
4:1
140
4.0
141
1.0
290
     0
  0
SCALE
  5
56
102
{ACAD_REACTORS
330
47
102
}
330
47
100
AcDbScale
 70
     0
300
8:1
140
8.0
141
1.0
290
     0
  0
SCALE
  5
57
102
{ACAD_REACTORS
330
47
102
}
330
47
100
AcDbScale
 70
     0
300
10:1
140
10.0
141
1.0
290
     0
  0
SCALE
  5
58
102
{ACAD_REACTORS
330
47
102
}
330
47
100
AcDbScale
 70
     0
300
100:1
140
100.0
141
1.0
290
     0
  0
SCALE
  5
59
102
{ACAD_REACTORS
330
47
102
}
330
47
100
AcDbScale
 70
     0
300
1/128" = 1'-0"
140
0.0078125
141
12.0
290
     0
  0
SCALE
  5
5A
102
{ACAD_REACTORS
330
47
102
}
330
47
100
AcDbScale
 70
     0
300
1/64" = 1'-0"
140
0.015625
141
12.0
290
     0
  0
SCALE
  5
5B
102
{ACAD_REACTORS
330
47
102
}
330
47
100
AcDbScale
 70
     0
300
1/32" = 1'-0"
140
0.03125
141
12.0
290
     0
  0
SCALE
  5
5C
102
{ACAD_REACTORS
330
47
102
}
330
47
100
AcDbScale
 70
     0
300
1/16" = 1'-0"
140
0.0625
141
12.0
290
     0
  0
SCALE
  5
5D
102
{ACAD_REACTORS
330
47
102
}
330
47
100
AcDbScale
 70
     0
300
3/32" = 1'-0"
140
0.09375
141
12.0
290
     0
  0
SCALE
  5
5E
102
{ACAD_REACTORS
330
47
102
}
330
47
100
AcDbScale
 70
     0
300
1/8" = 1'-0"
140
0.125
141
12.0
290
     0
  0
SCALE
  5
5F
102
{ACAD_REACTORS
330
47
102
}
330
47
100
AcDbScale
 70
     0
300
3/16" = 1'-0"
140
0.1875
141
12.0
290
     0
  0
SCALE
  5
60
102
{ACAD_REACTORS
330
47
102
}
330
47
100
AcDbScale
 70
     0
300
1/4" = 1'-0"
140
0.25
141
12.0
290
     0
  0
SCALE
  5
61
102
{ACAD_REACTORS
330
47
102
}
330
47
100
AcDbScale
 70
     0
300
3/8" = 1'-0"
140
0.375
141
12.0
290
     0
  0
SCALE
  5
62
102
{ACAD_REACTORS
330
47
102
}
330
47
100
AcDbScale
 70
     0
300
1/2" = 1'-0"
140
0.5
141
12.0
290
     0
  0
SCALE
  5
63
102
{ACAD_REACTORS
330
47
102
}
330
47
100
AcDbScale
 70
     0
300
3/4" = 1'-0"
140
0.75
141
12.0
290
     0
  0
SCALE
  5
64
102
{ACAD_REACTORS
330
47
102
}
330
47
100
AcDbScale
 70
     0
300
1" = 1'-0"
140
1.0
141
12.0
290
     0
  0
SCALE
  5
65
102
{ACAD_REACTORS
330
47
102
}
330
47
100
AcDbScale
 70
     0
300
1-1/2" = 1'-0"
140
1.5
141
12.0
290
     0
  0
SCALE
  5
66
102
{ACAD_REACTORS
330
47
102
}
330
47
100
AcDbScale
 70
     0
300
3" = 1'-0"
140
3.0
141
12.0
290
     0
  0
SCALE
  5
67
102
{ACAD_REACTORS
330
47
102
}
330
47
100
AcDbScale
 70
     0
300
6" = 1'-0"
140
6.0
141
12.0
290
     0
  0
SCALE
  5
68
102
{ACAD_REACTORS
330
47
102
}
330
47
100
AcDbScale
 70
     0
300
1'-0" = 1'-0"
140
12.0
141
12.0
290
     0
  0
ENDSEC
  0
EOF
