  0
SECTION
  2
HEADER
  9
$ACADVER
  1
AC1015
  9
$ACADMAINTVER
 70
     6
  9
$DWGCODEPAGE
  3
ANSI_949
  9
$INSBASE
 10
0.0
 20
0.0
 30
0.0
  9
$EXTMIN
 10
-39.95000000000009
 20
-49.97180738881174
 30
0.0
  9
$EXTMAX
 10
92.23787503295505
 20
27.88124999999997
 30
0.0
  9
$LIMMIN
 10
0.0
 20
0.0
  9
$LIMMAX
 10
420.0
 20
297.0
  9
$ORTHOMODE
 70
     1
  9
$REGENMODE
 70
     1
  9
$FILLMODE
 70
     1
  9
$QTEXTMODE
 70
     0
  9
$MIRRTEXT
 70
     1
  9
$LTSCALE
 40
1.0
  9
$ATTMODE
 70
     1
  9
$TEXTSIZE
 40
3.5
  9
$TRACEWID
 40
1.0
  9
$TEXTSTYLE
  7
Standard
  9
$CLAYER
  8
0
  9
$CELTYPE
  6
ByLayer
  9
$CECOLOR
 62
   256
  9
$CELTSCALE
 40
1.0
  9
$DISPSILH
 70
     0
  9
$DIMSCALE
 40
1.0
  9
$DIMASZ
 40
3.302
  9
$DIMEXO
 40
1.0
  9
$DIMDLI
 40
3.75
  9
$DIMRND
 40
0.0
  9
$DIMDLE
 40
0.0
  9
$DIMEXE
 40
1.0
  9
$DIMTP
 40
0.0
  9
$DIMTM
 40
0.0
  9
$DIMTXT
 40
3.5
  9
$DIMCEN
 40
2.5
  9
$DIMTSZ
 40
0.0
  9
$DIMTOL
 70
     0
  9
$DIMLIM
 70
     0
  9
$DIMTIH
 70
     1
  9
$DIMTOH
 70
     1
  9
$DIMSE1
 70
     0
  9
$DIMSE2
 70
     0
  9
$DIMTAD
 70
     1
  9
$DIMZIN
 70
     0
  9
$DIMBLK
  1

  9
$DIMASO
 70
     1
  9
$DIMSHO
 70
     1
  9
$DIMPOST
  1

  9
$DIMAPOST
  1

  9
$DIMALT
 70
     0
  9
$DIMALTD
 70
     3
  9
$DIMALTF
 40
0.0393700787401575
  9
$DIMLFAC
 40
1.0
  9
$DIMTOFL
 70
     1
  9
$DIMTVP
 40
0.0
  9
$DIMTIX
 70
     0
  9
$DIMSOXD
 70
     0
  9
$DIMSAH
 70
     0
  9
$DIMBLK1
  1

  9
$DIMBLK2
  1

  9
$DIMSTYLE
  2
ISO-25
  9
$DIMCLRD
 70
     0
  9
$DIMCLRE
 70
     0
  9
$DIMCLRT
 70
     0
  9
$DIMTFAC
 40
1.0
  9
$DIMGAP
 40
1.524
  9
$DIMJUST
 70
     0
  9
$DIMSD1
 70
     0
  9
$DIMSD2
 70
     0
  9
$DIMTOLJ
 70
     0
  9
$DIMTZIN
 70
     0
  9
$DIMALTZ
 70
     0
  9
$DIMALTTZ
 70
     0
  9
$DIMUPT
 70
     0
  9
$DIMDEC
 70
     2
  9
$DIMTDEC
 70
     2
  9
$DIMALTU
 70
     2
  9
$DIMALTTD
 70
     3
  9
$DIMTXSTY
  7
Standard
  9
$DIMAUNIT
 70
     0
  9
$DIMADEC
 70
     2
  9
$DIMALTRND
 40
0.0
  9
$DIMAZIN
 70
     0
  9
$DIMDSEP
 70
    44
  9
$DIMATFIT
 70
     3
  9
$DIMFRAC
 70
     0
  9
$DIMLDRBLK
  1

  9
$DIMLUNIT
 70
     2
  9
$DIMLWD
 70
    -2
  9
$DIMLWE
 70
    -2
  9
$DIMTMOVE
 70
     0
  9
$LUNITS
 70
     2
  9
$LUPREC
 70
     2
  9
$SKETCHINC
 40
1.0
  9
$FILLETRAD
 40
10.0
  9
$AUNITS
 70
     0
  9
$AUPREC
 70
     2
  9
$MENU
  1
.
  9
$ELEVATION
 40
0.0
  9
$PELEVATION
 40
0.0
  9
$THICKNESS
 40
0.0
  9
$LIMCHECK
 70
     0
  9
$CHAMFERA
 40
0.0
  9
$CHAMFERB
 40
0.0
  9
$CHAMFERC
 40
0.0
  9
$CHAMFERD
 40
0.0
  9
$SKPOLY
 70
     0
  9
$TDCREATE
 40
2458313.390381609
  9
$TDUCREATE
 40
2458313.015381609
  9
$TDUPDATE
 40
2458317.733503843
  9
$TDUUPDATE
 40
2458317.358503843
  9
$TDINDWG
 40
0.002030544
  9
$TDUSRTIMER
 40
0.0003427894
  9
$USRTIMER
 70
     1
  9
$ANGBASE
 50
0.0
  9
$ANGDIR
 70
     0
  9
$PDMODE
 70
     0
  9
$PDSIZE
 40
-1.0
  9
$PLINEWID
 40
0.0
  9
$SPLFRAME
 70
     0
  9
$SPLINETYPE
 70
     6
  9
$SPLINESEGS
 70
     8
  9
$HANDSEED
  5
27B
  9
$SURFTAB1
 70
     6
  9
$SURFTAB2
 70
     6
  9
$SURFTYPE
 70
     6
  9
$SURFU
 70
     6
  9
$SURFV
 70
     6
  9
$UCSBASE
  2

  9
$UCSNAME
  2

  9
$UCSORG
 10
0.0
 20
0.0
 30
0.0
  9
$UCSXDIR
 10
1.0
 20
0.0
 30
0.0
  9
$UCSYDIR
 10
0.0
 20
1.0
 30
0.0
  9
$UCSORTHOREF
  2

  9
$UCSORTHOVIEW
 70
     0
  9
$UCSORGTOP
 10
0.0
 20
0.0
 30
0.0
  9
$UCSORGBOTTOM
 10
0.0
 20
0.0
 30
0.0
  9
$UCSORGLEFT
 10
0.0
 20
0.0
 30
0.0
  9
$UCSORGRIGHT
 10
0.0
 20
0.0
 30
0.0
  9
$UCSORGFRONT
 10
0.0
 20
0.0
 30
0.0
  9
$UCSORGBACK
 10
0.0
 20
0.0
 30
0.0
  9
$PUCSBASE
  2

  9
$PUCSNAME
  2

  9
$PUCSORG
 10
0.0
 20
0.0
 30
0.0
  9
$PUCSXDIR
 10
1.0
 20
0.0
 30
0.0
  9
$PUCSYDIR
 10
0.0
 20
1.0
 30
0.0
  9
$PUCSORTHOREF
  2

  9
$PUCSORTHOVIEW
 70
     0
  9
$PUCSORGTOP
 10
0.0
 20
0.0
 30
0.0
  9
$PUCSORGBOTTOM
 10
0.0
 20
0.0
 30
0.0
  9
$PUCSORGLEFT
 10
0.0
 20
0.0
 30
0.0
  9
$PUCSORGRIGHT
 10
0.0
 20
0.0
 30
0.0
  9
$PUCSORGFRONT
 10
0.0
 20
0.0
 30
0.0
  9
$PUCSORGBACK
 10
0.0
 20
0.0
 30
0.0
  9
$USERI1
 70
     0
  9
$USERI2
 70
     0
  9
$USERI3
 70
     0
  9
$USERI4
 70
     0
  9
$USERI5
 70
     0
  9
$USERR1
 40
0.0
  9
$USERR2
 40
0.0
  9
$USERR3
 40
0.0
  9
$USERR4
 40
0.0
  9
$USERR5
 40
0.0
  9
$WORLDVIEW
 70
     1
  9
$SHADEDGE
 70
     3
  9
$SHADEDIF
 70
    70
  9
$TILEMODE
 70
     1
  9
$MAXACTVP
 70
    64
  9
$PINSBASE
 10
0.0
 20
0.0
 30
0.0
  9
$PLIMCHECK
 70
     0
  9
$PEXTMIN
 10
1.000000000000000E+20
 20
1.000000000000000E+20
 30
1.000000000000000E+20
  9
$PEXTMAX
 10
-1.000000000000000E+20
 20
-1.000000000000000E+20
 30
-1.000000000000000E+20
  9
$PLIMMIN
 10
0.0
 20
0.0
  9
$PLIMMAX
 10
0.0
 20
0.0
  9
$UNITMODE
 70
     0
  9
$VISRETAIN
 70
     1
  9
$PLINEGEN
 70
     0
  9
$PSLTSCALE
 70
     1
  9
$TREEDEPTH
 70
  3020
  9
$CMLSTYLE
  2
Standard
  9
$CMLJUST
 70
     0
  9
$CMLSCALE
 40
20.0
  9
$PROXYGRAPHICS
 70
     1
  9
$MEASUREMENT
 70
     1
  9
$CELWEIGHT
370
    -1
  9
$ENDCAPS
280
     0
  9
$JOINSTYLE
280
     0
  9
$LWDISPLAY
290
     1
  9
$INSUNITS
 70
     4
  9
$HYPERLINKBASE
  1

  9
$STYLESHEET
  1

  9
$XEDIT
290
     1
  9
$CEPSNTYPE
380
     0
  9
$PSTYLEMODE
290
     1
  9
$FINGERPRINTGUID
  2
{8AA43417-E8DF-4D37-A20B-39F8095C63FC}
  9
$VERSIONGUID
  2
{FAEB1C32-E019-11D5-929B-00C0DF256EC4}
  9
$EXTNAMES
290
     1
  9
$PSVPSCALE
 40
0.0
  9
$OLESTARTUP
290
     0
  0
ENDSEC
  0
SECTION
  2
CLASSES
  0
CLASS
  1
ACDBDICTIONARYWDFLT
  2
AcDbDictionaryWithDefault
  3
ObjectDBX Classes
 90
        0
280
     0
281
     0
  0
CLASS
  1
VISUALSTYLE
  2
AcDbVisualStyle
  3
ObjectDBX Classes
 90
     4095
280
     0
281
     0
  0
CLASS
  1
MATERIAL
  2
AcDbMaterial
  3
ObjectDBX Classes
 90
     1153
280
     0
281
     0
  0
CLASS
  1
SCALE
  2
AcDbScale
  3
ObjectDBX Classes
 90
     1153
280
     0
281
     0
  0
CLASS
  1
SUN
  2
AcDbSun
  3
SCENEOE
 90
     1153
280
     0
281
     0
  0
CLASS
  1
ACDBPLACEHOLDER
  2
AcDbPlaceHolder
  3
ObjectDBX Classes
 90
        0
280
     0
281
     0
  0
CLASS
  1
LAYOUT
  2
AcDbLayout
  3
ObjectDBX Classes
 90
        0
280
     0
281
     0
  0
CLASS
  1
TABLESTYLE
  2
AcDbTableStyle
  3
ObjectDBX Classes
 90
     4095
280
     0
281
     0
  0
CLASS
  1
MLEADERSTYLE
  2
AcDbMLeaderStyle
  3
ACDB_MLEADERSTYLE_CLASS
 90
     4095
280
     0
281
     0
  0
CLASS
  1
DICTIONARYVAR
  2
AcDbDictionaryVar
  3
ObjectDBX Classes
 90
        0
280
     0
281
     0
  0
ENDSEC
  0
SECTION
  2
TABLES
  0
TABLE
  2
VPORT
  5
8
330
0
100
AcDbSymbolTable
 70
     1
  0
VPORT
  5
29
330
8
100
AcDbSymbolTableRecord
100
AcDbViewportTableRecord
  2
*Active
 70
     0
 10
0.0
 20
0.0
 11
1.0
 21
1.0
 12
26.14393751647748
 22
-11.04527869440589
 13
0.0
 23
0.0
 14
10.0
 24
10.0
 15
10.0
 25
10.0
 16
0.0
 26
0.0
 36
1.0
 17
0.0
 27
0.0
 37
0.0
 40
79.41011853658796
 41
1.782762691853601
 42
50.0
 43
0.0
 44
0.0
 50
0.0
 51
0.0
 71
    16
 72
  2000
 73
     1
 74
     3
 75
     0
 76
     0
 77
     0
 78
     0
281
     0
 65
     1
110
0.0
120
0.0
130
0.0
111
1.0
121
0.0
131
0.0
112
0.0
122
1.0
132
0.0
 79
     0
146
0.0
  0
ENDTAB
  0
TABLE
  2
LTYPE
  5
5
330
0
100
AcDbSymbolTable
 70
     6
  0
LTYPE
  5
14
330
5
100
AcDbSymbolTableRecord
100
AcDbLinetypeTableRecord
  2
ByBlock
 70
     0
  3

 72
    65
 73
     0
 40
0.0
  0
LTYPE
  5
15
330
5
100
AcDbSymbolTableRecord
100
AcDbLinetypeTableRecord
  2
ByLayer
 70
     0
  3

 72
    65
 73
     0
 40
0.0
  0
LTYPE
  5
16
330
5
100
AcDbSymbolTableRecord
100
AcDbLinetypeTableRecord
  2
Continuous
 70
     0
  3
Solid line
 72
    65
 73
     0
 40
0.0
  0
LTYPE
  5
6A
330
5
100
AcDbSymbolTableRecord
100
AcDbLinetypeTableRecord
  2
HIDDEN
 70
     0
  3
Hidden __ __ __ __ __ __ __ __ __ __ __ __ __ __
 72
    65
 73
     2
 40
1.905
 49
1.27
 74
     0
 49
-0.635
 74
     0
  0
LTYPE
  5
6B
330
5
100
AcDbSymbolTableRecord
100
AcDbLinetypeTableRecord
  2
PHANTOM
 70
     0
  3
Phantom ______  __  __  ______  __  __  ______
 72
    65
 73
     6
 40
12.7
 49
6.35
 74
     0
 49
-1.27
 74
     0
 49
1.27
 74
     0
 49
-1.27
 74
     0
 49
1.27
 74
     0
 49
-1.27
 74
     0
  0
LTYPE
  5
6C
330
5
100
AcDbSymbolTableRecord
100
AcDbLinetypeTableRecord
  2
CENTER
 70
     0
  3
Center ____ _ ____ _ ____ _ ____ _ ____ _ ____
 72
    65
 73
     4
 40
10.16
 49
6.35
 74
     0
 49
-1.27
 74
     0
 49
1.27
 74
     0
 49
-1.27
 74
     0
  0
LTYPE
  5
6D
330
5
100
AcDbSymbolTableRecord
100
AcDbLinetypeTableRecord
  2
CENTERX2
 70
     0
  3
Center (2x) ________  __  ________  __  _____
 72
    65
 73
     4
 40
20.32
 49
12.7
 74
     0
 49
-2.54
 74
     0
 49
2.54
 74
     0
 49
-2.54
 74
     0
  0
LTYPE
  5
6E
330
5
100
AcDbSymbolTableRecord
100
AcDbLinetypeTableRecord
  2
DOT2
 70
     0
  3
Dot (.5x) ........................................
 72
    65
 73
     2
 40
0.635
 49
0.0
 74
     0
 49
-0.635
 74
     0
  0
ENDTAB
  0
TABLE
  2
LAYER
  5
2
330
0
100
AcDbSymbolTable
 70
    18
  0
LAYER
  5
10
330
2
100
AcDbSymbolTableRecord
100
AcDbLayerTableRecord
  2
0
 70
     0
 62
     7
  6
Continuous
370
    -3
390
F
  0
LAYER
  5
6F
330
2
100
AcDbSymbolTableRecord
100
AcDbLayerTableRecord
  2
FORMAT
 70
     0
 62
     2
  6
Continuous
370
    -3
390
F
  0
LAYER
  5
70
330
2
100
AcDbSymbolTableRecord
100
AcDbLayerTableRecord
  2
외형선
 70
     0
 62
     4
  6
Continuous
370
    30
390
F
  0
LAYER
  5
71
330
2
100
AcDbSymbolTableRecord
100
AcDbLayerTableRecord
  2
숨은선
 70
     0
 62
     2
  6
HIDDEN
370
    15
390
F
  0
LAYER
  5
72
330
2
100
AcDbSymbolTableRecord
100
AcDbLayerTableRecord
  2
중심선
 70
     0
 62
     1
  6
CENTERX2
370
    -3
390
F
  0
LAYER
  5
73
330
2
100
AcDbSymbolTableRecord
100
AcDbLayerTableRecord
  2
파단선
 70
     0
 62
     4
  6
Continuous
370
    -3
390
F
  0
LAYER
  5
74
330
2
100
AcDbSymbolTableRecord
100
AcDbLayerTableRecord
  2
해칭선
 70
     0
 62
   100
  6
Continuous
370
    -3
390
F
  0
LAYER
  5
75
330
2
100
AcDbSymbolTableRecord
100
AcDbLayerTableRecord
  2
가는실선
 70
     0
 62
     4
  6
Continuous
370
    -3
390
F
  0
LAYER
  5
76
330
2
100
AcDbSymbolTableRecord
100
AcDbLayerTableRecord
  2
치수_보조선
 70
     0
 62
     4
  6
Continuous
370
    -3
390
F
  0
LAYER
  5
77
330
2
100
AcDbSymbolTableRecord
100
AcDbLayerTableRecord
  2
치수문자_일반주서
 70
     0
 62
     7
  6
Continuous
370
    15
390
F
  0
LAYER
  5
78
330
2
100
AcDbSymbolTableRecord
100
AcDbLayerTableRecord
  2
개별주서
 70
     0
 62
   100
  6
Continuous
370
    30
390
F
  0
LAYER
  5
79
330
2
100
AcDbSymbolTableRecord
100
AcDbLayerTableRecord
  2
중간선
 70
     0
 62
     2
  6
Continuous
370
    15
390
F
  0
LAYER
  5
7A
330
2
100
AcDbSymbolTableRecord
100
AcDbLayerTableRecord
  2
윤곽선
 70
     0
 62
     3
  6
Continuous
370
    40
390
F
  0
LAYER
  5
7B
330
2
100
AcDbSymbolTableRecord
100
AcDbLayerTableRecord
  2
중심마크
 70
     0
 62
   100
  6
Continuous
370
    30
390
F
  0
LAYER
  5
7C
330
2
100
AcDbSymbolTableRecord
100
AcDbLayerTableRecord
  2
가상선
 70
     0
 62
     4
  6
PHANTOM
370
    -3
390
F
  0
LAYER
  5
7D
330
2
100
AcDbSymbolTableRecord
100
AcDbLayerTableRecord
  2
특수지정선
 70
     0
 62
     5
  6
CENTERX2
370
    60
390
F
  0
LAYER
  5
7E
330
2
100
AcDbSymbolTableRecord
100
AcDbLayerTableRecord
  2
참조1
 70
     0
 62
    -4
  6
Continuous
370
    -3
390
F
  0
LAYER
  5
161
330
2
100
AcDbSymbolTableRecord
100
AcDbLayerTableRecord
  2
Defpoints
 70
     0
 62
     7
  6
Continuous
290
     0
370
    -3
390
F
  0
ENDTAB
  0
TABLE
  2
STYLE
  5
3
330
0
100
AcDbSymbolTable
 70
     2
  0
STYLE
  5
11
330
3
100
AcDbSymbolTableRecord
100
AcDbTextStyleTableRecord
  2
Standard
 70
     0
 40
0.0
 41
1.0
 50
0.0
 71
     0
 42
3.5
  3
txt
  4

  0
STYLE
  5
94
330
3
100
AcDbSymbolTableRecord
100
AcDbTextStyleTableRecord
  2
SLDTEXTSTYLE0
 70
     0
 40
0.0
 41
0.75
 50
0.0
 71
     0
 42
3.5
  3
TXT
  4

  0
ENDTAB
  0
TABLE
  2
VIEW
  5
6
330
0
100
AcDbSymbolTable
 70
     0
  0
ENDTAB
  0
TABLE
  2
UCS
  5
7
330
0
100
AcDbSymbolTable
 70
     0
  0
ENDTAB
  0
TABLE
  2
APPID
  5
9
330
0
100
AcDbSymbolTable
 70
     2
  0
APPID
  5
12
330
9
100
AcDbSymbolTableRecord
100
AcDbRegAppTableRecord
  2
ACAD
 70
     0
  0
APPID
  5
168
330
9
100
AcDbSymbolTableRecord
100
AcDbRegAppTableRecord
  2
PE_URL
 70
     0
  0
ENDTAB
  0
TABLE
  2
DIMSTYLE
  5
A
330
0
100
AcDbSymbolTable
 70
     3
100
AcDbDimStyleTable
  0
DIMSTYLE
105
27
330
A
100
AcDbSymbolTableRecord
100
AcDbDimStyleTableRecord
  2
ISO-25
 70
     0
 41
2.5
 42
0.625
 43
3.75
 44
1.25
 73
     0
 74
     0
 77
     1
 78
     8
140
2.5
141
2.5
143
0.03937007874016
147
0.625
171
     3
172
     1
178
     0
271
     2
272
     2
274
     3
278
    44
283
     0
284
     8
340
11
  0
DIMSTYLE
105
DF
102
{ACAD_REACTORS
330
DE
330
F3
330
107
330
11C
102
}
330
A
100
AcDbSymbolTableRecord
100
AcDbDimStyleTableRecord
  2
SLDDIMSTYLE0
 70
     0
 41
3.302
 44
0.0
 45
0.000000001
 73
     0
 74
     0
 77
     1
 78
    12
 79
     3
140
3.5
143
0.0393700787401575
147
0.875
148
0.000000001
170
     1
172
     1
173
     1
178
     0
271
     2
272
     2
276
     2
284
    12
289
     0
340
94
  0
DIMSTYLE
105
11D
330
A
100
AcDbSymbolTableRecord
100
AcDbDimStyleTableRecord
  2
SLDDIMSTYLE1
 70
     0
 41
3.302
 44
0.0
 45
0.000000001
 73
     0
 74
     0
 77
     1
 78
    12
 79
     3
140
3.5
143
0.0393700787401575
147
0.875
148
0.000000001
170
     1
173
     1
178
     0
271
     2
272
     2
276
     2
284
    12
340
94
  0
ENDTAB
  0
TABLE
  2
BLOCK_RECORD
  5
1
330
0
100
AcDbSymbolTable
 70
     9
  0
BLOCK_RECORD
  5
1F
330
1
100
AcDbSymbolTableRecord
100
AcDbBlockTableRecord
  2
*Model_Space
340
22
  0
BLOCK_RECORD
  5
1B
330
1
100
AcDbSymbolTableRecord
100
AcDbBlockTableRecord
  2
*Paper_Space
340
1E
  0
BLOCK_RECORD
  5
23
330
1
100
AcDbSymbolTableRecord
100
AcDbBlockTableRecord
  2
*Paper_Space0
340
26
  0
BLOCK_RECORD
  5
7F
330
1
100
AcDbSymbolTableRecord
100
AcDbBlockTableRecord
  2
블럭10
340
0
102
{BLKREFS
331
D7
102
}
  0
BLOCK_RECORD
  5
E0
330
1
100
AcDbSymbolTableRecord
100
AcDbBlockTableRecord
  2
_D
340
0
  0
BLOCK_RECORD
  5
F4
330
1
100
AcDbSymbolTableRecord
100
AcDbBlockTableRecord
  2
_D_1
340
0
  0
BLOCK_RECORD
  5
108
330
1
100
AcDbSymbolTableRecord
100
AcDbBlockTableRecord
  2
_D_2
340
0
  0
BLOCK_RECORD
  5
11E
330
1
100
AcDbSymbolTableRecord
100
AcDbBlockTableRecord
  2
_D_3
340
0
  0
BLOCK_RECORD
  5
137
330
1
100
AcDbSymbolTableRecord
100
AcDbBlockTableRecord
  2
SW_DOWELSYMBOL_0
340
0
102
{BLKREFS
331
13D
102
}
  0
BLOCK_RECORD
  5
19A
330
1
100
AcDbSymbolTableRecord
100
AcDbBlockTableRecord
  2
*D7
340
0
  0
BLOCK_RECORD
  5
1AC
330
1
100
AcDbSymbolTableRecord
100
AcDbBlockTableRecord
  2
*D8
340
0
  0
ENDTAB
  0
ENDSEC
  0
SECTION
  2
BLOCKS
  0
BLOCK
  5
20
330
1F
100
AcDbEntity
  8
0
100
AcDbBlockBegin
  2
*Model_Space
 70
     0
 10
0.0
 20
0.0
 30
0.0
  3
*Model_Space
  1

  0
ENDBLK
  5
21
330
1F
100
AcDbEntity
  8
0
100
AcDbBlockEnd
  0
BLOCK
  5
1C
330
1B
100
AcDbEntity
 67
     1
  8
0
100
AcDbBlockBegin
  2
*Paper_Space
 70
     0
 10
0.0
 20
0.0
 30
0.0
  3
*Paper_Space
  1

  0
ENDBLK
  5
1D
330
1B
100
AcDbEntity
 67
     1
  8
0
100
AcDbBlockEnd
  0
BLOCK
  5
24
330
23
100
AcDbEntity
  8
0
100
AcDbBlockBegin
  2
*Paper_Space0
 70
     0
 10
0.0
 20
0.0
 30
0.0
  3
*Paper_Space0
  1

  0
ENDBLK
  5
25
330
23
100
AcDbEntity
  8
0
100
AcDbBlockEnd
  0
BLOCK
  5
80
330
7F
100
AcDbEntity
  8
0
100
AcDbBlockBegin
  2
블럭10
 70
     2
 10
0.0
 20
0.0
 30
0.0
  3
블럭10
  1

  0
ELLIPSE
  5
82
330
7F
100
AcDbEntity
  8
중심선
100
AcDbEllipse
 10
20.54032771741204
 20
12.0471743016438
 30
0.0
 11
6.600054785286829
 21
-1.261213355974178E-13
 31
0.0
210
0.0
220
0.0
230
1.0
 40
0.636358354079598
 41
0.9219305317359503
 42
6.513795318482858
  0
ELLIPSE
  5
83
330
7F
100
AcDbEntity
  8
중심선
100
AcDbEllipse
 10
20.54032771746488
 20
12.04717430159265
 30
0.0
 11
3.960054785062283
 21
1.540847449632565E-10
 31
0.0
210
0.0
220
0.0
230
1.0
 40
0.3939339440162632
 41
1.131841032648279
 42
5.62031148352944
  0
LINE
  5
84
330
7F
100
AcDbEntity
  8
중심선
100
AcDbLine
 10
2.268634060543552
 20
16.24717430164393
 30
0.0
 11
5.714909304380834
 21
16.24717430164393
 31
0.0
  0
LINE
  5
85
330
7F
100
AcDbEntity
  8
중심선
100
AcDbLine
 10
5.245725140726316
 20
7.84717430164391
 30
0.0
 11
8.692000384563599
 21
7.84717430164391
 31
0.0
  0
LINE
  5
86
330
7F
100
AcDbEntity
  8
중심선
100
AcDbLine
 10
15.74043728645272
 20
16.24717430164393
 30
0.0
 11
8.692000384563599
 21
7.84717430164391
 31
0.0
  0
LINE
  5
87
330
7F
100
AcDbEntity
  8
중심선
100
AcDbLine
 10
0.1404042013395286
 20
13.71084872107135
 30
0.0
 11
3.58671253028996
 21
13.71088815037384
 31
0.0
  0
LINE
  5
88
330
7F
100
AcDbEntity
  8
중심선
100
AcDbLine
 10
2.750260043222114
 20
10.84717430164391
 30
0.0
 11
6.196535287059397
 21
10.84717430164391
 31
0.0
  0
LINE
  5
89
330
7F
100
AcDbEntity
  8
중심선
100
AcDbLine
 10
12.29416204261559
 20
16.24717430164393
 30
0.0
 11
5.245725140726316
 21
7.84717430164391
 31
0.0
  0
LINE
  5
8A
330
7F
100
AcDbEntity
  8
중심선
100
AcDbLine
 10
10.72767329541681
 20
16.24717430164393
 30
0.0
 11
6.196535287059397
 21
10.84717430164391
 31
0.0
  0
LINE
  5
8B
330
7F
100
AcDbEntity
  8
중심선
100
AcDbLine
 10
7.28139805157953
 20
16.24717430164393
 30
0.0
 11
2.750260043222114
 21
10.84717430164391
 31
0.0
  0
LINE
  5
8C
330
7F
100
AcDbEntity
  8
중심선
100
AcDbLine
 10
5.714909304380834
 20
16.24717430164393
 30
0.0
 11
3.58671253028996
 21
13.71088815037384
 31
0.0
  0
LINE
  5
8D
330
7F
100
AcDbEntity
  8
중심선
100
AcDbLine
 10
2.268634060543552
 20
16.24717430164393
 30
0.0
 11
0.1404042013395286
 21
13.71084872107135
 31
0.0
  0
LINE
  5
8E
330
7F
100
AcDbEntity
  8
중심선
100
AcDbLine
 10
7.28139805157953
 20
16.24717430164393
 30
0.0
 11
10.72767329541681
 21
16.24717430164393
 31
0.0
  0
LINE
  5
8F
330
7F
100
AcDbEntity
  8
중심선
100
AcDbLine
 10
12.29416204261559
 20
16.24717430164393
 30
0.0
 11
15.74043728645272
 21
16.24717430164393
 31
0.0
  0
LINE
  5
90
330
7F
100
AcDbEntity
  8
중심선
100
AcDbLine
 10
19.22036997980202
 20
11.08717430171403
 30
0.0
 11
23.66174974927406
 21
11.08717430171406
 31
0.0
  0
LINE
  5
91
330
7F
100
AcDbEntity
  8
중심선
100
AcDbLine
 10
19.22039502424796
 20
13.00717430171391
 30
0.0
 11
19.22036997980202
 21
11.08717430171403
 31
0.0
  0
LINE
  5
92
330
7F
100
AcDbEntity
  8
중심선
100
AcDbLine
 10
19.22039502424796
 20
13.00717430171391
 30
0.0
 11
26.96566020931264
 21
13.00717430171391
 31
0.0
  0
LINE
  5
93
330
7F
100
AcDbEntity
  8
중심선
100
AcDbLine
 10
22.22332737316547
 20
13.45928029700563
 30
0.0
 11
24.52862924686651
 21
15.39360700705356
 31
0.0
  0
ATTDEF
  5
95
330
7F
100
AcDbEntity
  8
FORMAT
 62
     2
100
AcDbText
 10
4.408487351596664
 20
2.075366912832191
 30
0.0
 40
4.233333333333333
  1
E1003006
 41
0.75
  7
SLDTEXTSTYLE0
 11
4.408487351596664
 21
-0.0412997538344756
 31
0.0
100
AcDbAttributeDefinition
  3

  2
AUTOATTR0
 70
     0
 74
     1
  0
ENDBLK
  5
81
330
7F
100
AcDbEntity
  8
0
100
AcDbBlockEnd
  0
BLOCK
  5
E1
330
E0
100
AcDbEntity
  8
0
100
AcDbBlockBegin
  2
_D
 70
     0
 10
0.0
 20
0.0
 30
0.0
  3
_D
  1

  0
LINE
  5
E3
330
E0
100
AcDbEntity
  8
치수문자_일반주서
 62
     0
370
    -2
100
AcDbLine
 10
-16.05027700723832
 20
2.381249999999995
 30
0.0
 11
-36.57500000000002
 21
2.381249999999916
 31
0.0
  0
LINE
  5
E4
330
E0
100
AcDbEntity
  8
치수문자_일반주서
 62
     0
370
    -2
100
AcDbLine
 10
-16.05027700723831
 20
-2.381250000000006
 30
0.0
 11
-36.575
 21
-2.381250000000083
 31
0.0
  0
LINE
  5
E5
330
E0
100
AcDbEntity
  8
치수문자_일반주서
 62
     0
370
    -2
100
AcDbLine
 10
-36.57500000000002
 20
2.381249999999916
 30
0.0
 11
-36.57500000000009
 21
27.88124999999997
 31
0.0
  0
LINE
  5
E6
330
E0
100
AcDbEntity
  8
치수문자_일반주서
 62
     0
370
    -2
100
AcDbLine
 10
-36.57500000000002
 20
2.381249999999916
 30
0.0
 11
-36.575
 21
-2.381250000000083
 31
0.0
  0
LINE
  5
E7
330
E0
100
AcDbEntity
  8
치수문자_일반주서
 62
     0
370
    -2
100
AcDbLine
 10
-36.57500000000002
 20
4.881249999999916
 30
0.0
 11
-36.57500000000003
 21
7.381249999999916
 31
0.0
  0
LINE
  5
E8
330
E0
100
AcDbEntity
  8
치수문자_일반주서
 62
     0
370
    -2
100
AcDbLine
 10
-36.575
 20
-4.881250000000083
 30
0.0
 11
-36.57499999999999
 21
-7.381250000000083
 31
0.0
  0
SOLID
  5
E9
330
E0
100
AcDbEntity
  8
치수문자_일반주서
 62
     0
100
AcDbTrace
 10
-36.99166666666669
 20
4.881249999999915
 30
0.0
 11
-36.15833333333336
 21
4.881249999999917
 31
0.0
 12
-36.57500000000002
 22
2.381249999999916
 32
0.0
 13
-36.57500000000002
 23
2.381249999999916
 33
0.0
  0
SOLID
  5
EA
330
E0
100
AcDbEntity
  8
치수문자_일반주서
 62
     0
100
AcDbTrace
 10
-36.15833333333333
 20
-4.881250000000082
 30
0.0
 11
-36.99166666666666
 21
-4.881250000000084
 31
0.0
 12
-36.575
 22
-2.381250000000083
 32
0.0
 13
-36.575
 23
-2.381250000000083
 33
0.0
  0
MTEXT
  5
EB
330
E0
100
AcDbEntity
  8
치수문자_일반주서
 62
     0
100
AcDbMText
 10
-39.95000000000006
 20
17.63124999999996
 30
0.0
 40
2.5
 41
0.0
 71
     2
 72
     1
  1
\A1;%%c4.76 [3/16]
  7
SLDTEXTSTYLE0
 11
-2.983906501879686E-15
 21
1.0
 31
0.0
 73
     1
 44
1.0
  0
POINT
  5
1C5
330
E0
100
AcDbEntity
  8
Defpoints
 62
     0
100
AcDbPoint
 10
-15.98777700723832
 20
2.381249999999995
 30
0.0
  0
POINT
  5
1C6
330
E0
100
AcDbEntity
  8
Defpoints
 62
     0
100
AcDbPoint
 10
-15.98777700723831
 20
-2.381250000000006
 30
0.0
  0
POINT
  5
1C7
330
E0
100
AcDbEntity
  8
Defpoints
 62
     0
100
AcDbPoint
 10
-36.575
 20
-2.381250000000083
 30
0.0
  0
ENDBLK
  5
E2
330
E0
100
AcDbEntity
  8
0
100
AcDbBlockEnd
  0
BLOCK
  5
F5
330
F4
100
AcDbEntity
  8
0
100
AcDbBlockBegin
  2
_D_1
 70
     0
 10
0.0
 20
0.0
 30
0.0
  3
_D_1
  1

  0
LINE
  5
F7
330
F4
100
AcDbEntity
  8
치수문자_일반주서
 62
     0
370
    -2
100
AcDbLine
 10
28.63750000000001
 20
-1.189618701882794
 30
0.0
 11
56.94512694097322
 21
-1.189618701882686
 31
0.0
  0
LINE
  5
F8
330
F4
100
AcDbEntity
  8
치수문자_일반주서
 62
     0
370
    -2
100
AcDbLine
 10
28.63750000000001
 20
1.189618701882796
 30
0.0
 11
56.94512694097322
 21
1.189618701882903
 31
0.0
  0
LINE
  5
F9
330
F4
100
AcDbEntity
  8
치수문자_일반주서
 62
     0
370
    -2
100
AcDbLine
 10
56.94512694097322
 20
1.189618701882903
 30
0.0
 11
56.94512694097314
 21
27.3146187018829
 31
0.0
  0
LINE
  5
FA
330
F4
100
AcDbEntity
  8
치수문자_일반주서
 62
     0
370
    -2
100
AcDbLine
 10
56.94512694097322
 20
-1.189618701882686
 30
0.0
 11
56.94512694097322
 21
1.189618701882903
 31
0.0
  0
LINE
  5
FB
330
F4
100
AcDbEntity
  8
치수문자_일반주서
 62
     0
370
    -2
100
AcDbLine
 10
56.94512694097323
 20
-3.689618701882686
 30
0.0
 11
56.94512694097324
 21
-6.189618701882686
 31
0.0
  0
LINE
  5
FC
330
F4
100
AcDbEntity
  8
치수문자_일반주서
 62
     0
370
    -2
100
AcDbLine
 10
56.94512694097321
 20
3.689618701882903
 30
0.0
 11
56.9451269409732
 21
6.189618701882903
 31
0.0
  0
SOLID
  5
FD
330
F4
100
AcDbEntity
  8
치수문자_일반주서
 62
     0
100
AcDbTrace
 10
57.3617936076399
 20
-3.689618701882685
 30
0.0
 11
56.52846027430657
 21
-3.689618701882688
 31
0.0
 12
56.94512694097322
 22
-1.189618701882686
 32
0.0
 13
56.94512694097322
 23
-1.189618701882686
 33
0.0
  0
SOLID
  5
FE
330
F4
100
AcDbEntity
  8
치수문자_일반주서
 62
     0
100
AcDbTrace
 10
56.52846027430655
 20
3.689618701882902
 30
0.0
 11
57.36179360763987
 21
3.689618701882905
 31
0.0
 12
56.94512694097322
 22
1.189618701882903
 32
0.0
 13
56.94512694097322
 23
1.189618701882903
 33
0.0
  0
MTEXT
  5
FF
330
F4
100
AcDbEntity
  8
치수문자_일반주서
 62
     0
100
AcDbMText
 10
53.57012694097317
 20
16.75211870188289
 30
0.0
 40
2.5
 41
0.0
 71
     2
 72
     1
  1
\A1;%%c2.38 [3/32]
  7
SLDTEXTSTYLE0
 11
-2.986430587529991E-15
 21
1.0
 31
0.0
 73
     1
 44
1.0
  0
POINT
  5
100
330
F4
100
AcDbEntity
  8
Defpoints
 62
     0
100
AcDbPoint
 10
28.57500000000001
 20
-1.189618701882794
 30
0.0
  0
POINT
  5
101
330
F4
100
AcDbEntity
  8
Defpoints
 62
     0
100
AcDbPoint
 10
28.57500000000001
 20
1.189618701882796
 30
0.0
  0
POINT
  5
102
330
F4
100
AcDbEntity
  8
Defpoints
 62
     0
100
AcDbPoint
 10
56.94512694097322
 20
1.189618701882902
 30
0.0
  0
ENDBLK
  5
F6
330
F4
100
AcDbEntity
  8
0
100
AcDbBlockEnd
  0
BLOCK
  5
109
330
108
100
AcDbEntity
  8
0
100
AcDbBlockBegin
  2
_D_2
 70
     0
 10
0.0
 20
0.0
 30
0.0
  3
_D_2
  1

  0
LINE
  5
10B
330
108
100
AcDbEntity
  8
치수문자_일반주서
 62
     0
370
    -2
100
AcDbLine
 10
28.57500000000001
 20
1.252118701882796
 30
0.0
 11
28.57500000000001
 21
10.38125000000002
 31
0.0
  0
LINE
  5
10C
330
108
100
AcDbEntity
  8
치수문자_일반주서
 62
     0
370
    -2
100
AcDbLine
 10
21.43125000000001
 20
0.8606210398789852
 30
0.0
 11
21.43125000000001
 21
10.38125000000002
 31
0.0
  0
LINE
  5
10D
330
108
100
AcDbEntity
  8
치수문자_일반주서
 62
     0
370
    -2
100
AcDbLine
 10
28.57500000000001
 20
10.38125000000002
 30
0.0
 11
52.20000000000002
 21
10.38125000000002
 31
0.0
  0
LINE
  5
10E
330
108
100
AcDbEntity
  8
치수문자_일반주서
 62
     0
370
    -2
100
AcDbLine
 10
28.57500000000001
 20
10.38125000000002
 30
0.0
 11
21.43125000000001
 21
10.38125000000002
 31
0.0
  0
LINE
  5
10F
330
108
100
AcDbEntity
  8
치수문자_일반주서
 62
     0
370
    -2
100
AcDbLine
 10
31.07500000000001
 20
10.38125000000002
 30
0.0
 11
33.57500000000001
 21
10.38125000000002
 31
0.0
  0
LINE
  5
110
330
108
100
AcDbEntity
  8
치수문자_일반주서
 62
     0
370
    -2
100
AcDbLine
 10
18.93125000000001
 20
10.38125000000002
 30
0.0
 11
16.43125000000001
 21
10.38125000000002
 31
0.0
  0
SOLID
  5
111
330
108
100
AcDbEntity
  8
치수문자_일반주서
 62
     0
100
AcDbTrace
 10
31.07500000000001
 20
10.79791666666669
 30
0.0
 11
31.07500000000001
 21
9.964583333333353
 31
0.0
 12
28.57500000000001
 22
10.38125000000002
 32
0.0
 13
28.57500000000001
 23
10.38125000000002
 33
0.0
  0
SOLID
  5
112
330
108
100
AcDbEntity
  8
치수문자_일반주서
 62
     0
100
AcDbTrace
 10
18.93125000000001
 20
9.964583333333353
 30
0.0
 11
18.93125000000001
 21
10.79791666666669
 31
0.0
 12
21.43125000000001
 22
10.38125000000002
 32
0.0
 13
21.43125000000001
 23
10.38125000000002
 33
0.0
  0
MTEXT
  5
113
330
108
100
AcDbEntity
  8
치수문자_일반주서
 62
     0
100
AcDbMText
 10
42.88750000000002
 20
13.75625000000002
 30
0.0
 40
2.5
 41
0.0
 71
     2
 72
     1
  1
\A1;7.14 [9/32]
  7
SLDTEXTSTYLE0
 73
     1
 44
1.0
  0
POINT
  5
114
330
108
100
AcDbEntity
  8
Defpoints
 62
     0
100
AcDbPoint
 10
28.57500000000001
 20
1.189618701882796
 30
0.0
  0
POINT
  5
115
330
108
100
AcDbEntity
  8
Defpoints
 62
     0
100
AcDbPoint
 10
21.43125000000001
 20
0.7981210398789852
 30
0.0
  0
POINT
  5
116
330
108
100
AcDbEntity
  8
Defpoints
 62
     0
100
AcDbPoint
 10
21.43125000000001
 20
10.38125000000002
 30
0.0
  0
ENDBLK
  5
10A
330
108
100
AcDbEntity
  8
0
100
AcDbBlockEnd
  0
BLOCK
  5
11F
330
11E
100
AcDbEntity
  8
0
100
AcDbBlockBegin
  2
_D_3
 70
     0
 10
0.0
 20
0.0
 30
0.0
  3
_D_3
  1

  0
LINE
  5
121
330
11E
100
AcDbEntity
  8
치수문자_일반주서
 62
     0
370
    -2
100
AcDbLine
 10
-28.575
 20
1.252118701882781
 30
0.0
 11
-28.575
 21
18.38125000000001
 31
0.0
  0
LINE
  5
122
330
11E
100
AcDbEntity
  8
치수문자_일반주서
 62
     0
370
    -2
100
AcDbLine
 10
28.57500000000001
 20
1.252118701882796
 30
0.0
 11
28.57500000000001
 21
18.38125000000001
 31
0.0
  0
LINE
  5
123
330
11E
100
AcDbEntity
  8
치수문자_일반주서
 62
     0
370
    -2
100
AcDbLine
 10
-26.075
 20
18.38125000000001
 30
0.0
 11
26.07500000000001
 21
18.38125000000001
 31
0.0
  0
SOLID
  5
124
330
11E
100
AcDbEntity
  8
치수문자_일반주서
 62
     0
100
AcDbTrace
 10
-26.075
 20
18.79791666666668
 30
0.0
 11
-26.075
 21
17.96458333333334
 31
0.0
 12
-28.575
 22
18.38125000000001
 32
0.0
 13
-28.575
 23
18.38125000000001
 33
0.0
  0
SOLID
  5
125
330
11E
100
AcDbEntity
  8
치수문자_일반주서
 62
     0
100
AcDbTrace
 10
26.07500000000001
 20
17.96458333333334
 30
0.0
 11
26.07500000000001
 21
18.79791666666668
 31
0.0
 12
28.57500000000001
 22
18.38125000000001
 32
0.0
 13
28.57500000000001
 23
18.38125000000001
 33
0.0
  0
MTEXT
  5
126
330
11E
100
AcDbEntity
  8
치수문자_일반주서
 62
     0
100
AcDbMText
 10
0.0000000000000178
 20
21.75625000000001
 30
0.0
 40
2.5
 41
0.0
 71
     2
 72
     1
  1
\A1;57.15 [2 1/4]
  7
SLDTEXTSTYLE0
 73
     1
 44
1.0
  0
POINT
  5
127
330
11E
100
AcDbEntity
  8
Defpoints
 62
     0
100
AcDbPoint
 10
-28.575
 20
1.189618701882781
 30
0.0
  0
POINT
  5
128
330
11E
100
AcDbEntity
  8
Defpoints
 62
     0
100
AcDbPoint
 10
28.57500000000001
 20
1.189618701882796
 30
0.0
  0
POINT
  5
129
330
11E
100
AcDbEntity
  8
Defpoints
 62
     0
100
AcDbPoint
 10
28.57500000000001
 20
18.38125000000001
 30
0.0
  0
ENDBLK
  5
120
330
11E
100
AcDbEntity
  8
0
100
AcDbBlockEnd
  0
BLOCK
  5
138
330
137
100
AcDbEntity
  8
0
100
AcDbBlockBegin
  2
SW_DOWELSYMBOL_0
 70
     0
 10
0.0
 20
0.0
 30
0.0
  3
SW_DOWELSYMBOL_0
  1

  0
CIRCLE
  5
13A
330
137
100
AcDbEntity
  8
해칭선
 62
     0
100
AcDbCircle
 10
0.0
 20
0.0
 30
0.0
 40
3.000000000000001
  0
HATCH
  5
13B
330
137
100
AcDbEntity
  8
0
  6
Continuous
 62
     0
370
     0
100
AcDbHatch
 10
0.0
 20
0.0
 30
0.0
210
0.0
220
0.0
230
1.0
  2
SOLID
 70
     1
 71
     0
 91
        1
 92
        0
 93
        3
 72
     2
 10
0.0
 20
0.0
 40
3.000000000000001
 50
0.0
 51
90.0
 73
     1
 72
     1
 10
0.0
 20
3.000000000000001
 11
0.0
 21
0.0
 72
     1
 10
0.0
 20
0.0
 11
3.000000000000001
 21
0.0
 97
        0
 75
     0
 76
     1
 98
        1
 10
0.0
 20
0.0
  0
HATCH
  5
13C
330
137
100
AcDbEntity
  8
0
  6
Continuous
 62
     0
370
     0
100
AcDbHatch
 10
0.0
 20
0.0
 30
0.0
210
0.0
220
0.0
230
1.0
  2
SOLID
 70
     1
 71
     0
 91
        1
 92
        0
 93
        3
 72
     2
 10
0.0
 20
0.0
 40
3.000000000000001
 50
180.0
 51
270.0000000000007
 73
     1
 72
     1
 10
0.0
 20
-3.000000000000001
 11
0.0
 21
0.0
 72
     1
 10
0.0
 20
0.0
 11
-3.000000000000001
 21
0.0
 97
        0
 75
     0
 76
     1
 98
        1
 10
0.0
 20
0.0
  0
ENDBLK
  5
139
330
137
100
AcDbEntity
  8
0
100
AcDbBlockEnd
  0
BLOCK
  5
19B
330
19A
100
AcDbEntity
  8
0
100
AcDbBlockBegin
  2
*D7
 70
     1
 10
0.0
 20
0.0
 30
0.0
  3
*D7
  1

  0
LINE
  5
19D
330
19A
100
AcDbEntity
  8
치수문자_일반주서
 62
     0
370
    -2
100
AcDbLine
 10
7.381249999999984
 20
0.7853214860538494
 30
0.0
 11
7.381249999999984
 21
10.31324042902825
 31
0.0
  0
LINE
  5
19E
330
19A
100
AcDbEntity
  8
치수문자_일반주서
 62
     0
370
    -2
100
AcDbLine
 10
4.999999999999998
 20
0.7641000406186218
 30
0.0
 11
4.999999999999996
 21
10.31324042902825
 31
0.0
  0
LINE
  5
19F
330
19A
100
AcDbEntity
  8
치수문자_일반주서
 62
     0
370
    -2
100
AcDbLine
 10
7.381249999999984
 20
10.31324042902825
 30
0.0
 11
31.63124999999998
 21
10.31324042902825
 31
0.0
  0
LINE
  5
1A0
330
19A
100
AcDbEntity
  8
치수문자_일반주서
 62
     0
370
    -2
100
AcDbLine
 10
7.381249999999984
 20
10.31324042902825
 30
0.0
 11
4.999999999999996
 21
10.31324042902825
 31
0.0
  0
LINE
  5
1A1
330
19A
100
AcDbEntity
  8
치수문자_일반주서
 62
     0
370
    -2
100
AcDbLine
 10
9.881249999999984
 20
10.31324042902825
 30
0.0
 11
12.38124999999998
 21
10.31324042902825
 31
0.0
  0
LINE
  5
1A2
330
19A
100
AcDbEntity
  8
치수문자_일반주서
 62
     0
370
    -2
100
AcDbLine
 10
2.499999999999996
 20
10.31324042902825
 30
0.0
 11
-0.0000000000000036
 21
10.31324042902825
 31
0.0
  0
SOLID
  5
1A3
330
19A
100
AcDbEntity
  8
치수문자_일반주서
 62
     0
100
AcDbTrace
 10
9.881249999999984
 20
10.72990709569492
 30
0.0
 11
9.881249999999984
 21
9.896573762361584
 31
0.0
 12
7.381249999999984
 22
10.31324042902825
 32
0.0
 13
7.381249999999984
 23
10.31324042902825
 33
0.0
  0
SOLID
  5
1A4
330
19A
100
AcDbEntity
  8
치수문자_일반주서
 62
     0
100
AcDbTrace
 10
2.499999999999996
 20
9.896573762361584
 30
0.0
 11
2.499999999999996
 21
10.72990709569492
 31
0.0
 12
4.999999999999996
 22
10.31324042902825
 32
0.0
 13
4.999999999999996
 23
10.31324042902825
 33
0.0
  0
MTEXT
  5
1A5
330
19A
100
AcDbEntity
  8
치수문자_일반주서
 62
     0
100
AcDbMText
 10
22.00624999999998
 20
13.68824042902825
 30
0.0
 40
2.5
 41
0.0
 71
     2
 72
     1
  1
\A1;2.38 [3/32]
  7
SLDTEXTSTYLE0
 73
     1
 44
1.0
  0
POINT
  5
1A6
330
19A
100
AcDbEntity
  8
Defpoints
 62
     0
100
AcDbPoint
 10
7.381249999999984
 20
0.7228214860538494
 30
0.0
  0
POINT
  5
1A7
330
19A
100
AcDbEntity
  8
Defpoints
 62
     0
100
AcDbPoint
 10
4.999999999999998
 20
0.7016000406186218
 30
0.0
  0
POINT
  5
1A8
330
19A
100
AcDbEntity
  8
Defpoints
 62
     0
100
AcDbPoint
 10
4.999999999999998
 20
10.31324042902825
 30
0.0
  0
ENDBLK
  5
19C
330
19A
100
AcDbEntity
  8
0
100
AcDbBlockEnd
  0
BLOCK
  5
1AD
330
1AC
100
AcDbEntity
  8
0
100
AcDbBlockBegin
  2
*D8
 70
     1
 10
0.0
 20
0.0
 30
0.0
  3
*D8
  1

  0
LINE
  5
1AF
330
1AC
100
AcDbEntity
  8
치수문자_일반주서
 62
     0
370
    -2
100
AcDbLine
 10
64.38108013608972
 20
-10.45674589389042
 30
0.0
 11
64.38108013608972
 21
-0.9288269509160241
 31
0.0
  0
LINE
  5
1B0
330
1AC
100
AcDbEntity
  8
치수문자_일반주서
 62
     0
370
    -2
100
AcDbLine
 10
61.99983013608974
 20
-10.47796733932565
 30
0.0
 11
61.99983013608974
 21
-0.9288269509160241
 31
0.0
  0
LINE
  5
1B1
330
1AC
100
AcDbEntity
  8
치수문자_일반주서
 62
     0
370
    -2
100
AcDbLine
 10
64.38108013608972
 20
-0.9288269509160241
 30
0.0
 11
88.63108013608972
 21
-0.9288269509160241
 31
0.0
  0
LINE
  5
1B2
330
1AC
100
AcDbEntity
  8
치수문자_일반주서
 62
     0
370
    -2
100
AcDbLine
 10
64.38108013608972
 20
-0.9288269509160241
 30
0.0
 11
61.99983013608974
 21
-0.9288269509160241
 31
0.0
  0
LINE
  5
1B3
330
1AC
100
AcDbEntity
  8
치수문자_일반주서
 62
     0
370
    -2
100
AcDbLine
 10
66.88108013608972
 20
-0.9288269509160241
 30
0.0
 11
69.38108013608972
 21
-0.9288269509160241
 31
0.0
  0
LINE
  5
1B4
330
1AC
100
AcDbEntity
  8
치수문자_일반주서
 62
     0
370
    -2
100
AcDbLine
 10
59.49983013608974
 20
-0.9288269509160241
 30
0.0
 11
56.99983013608974
 21
-0.9288269509160241
 31
0.0
  0
SOLID
  5
1B5
330
1AC
100
AcDbEntity
  8
치수문자_일반주서
 62
     0
100
AcDbTrace
 10
66.88108013608972
 20
-0.5121602842493573
 30
0.0
 11
66.88108013608972
 21
-1.345493617582691
 31
0.0
 12
64.38108013608972
 22
-0.9288269509160241
 32
0.0
 13
64.38108013608972
 23
-0.9288269509160241
 33
0.0
  0
SOLID
  5
1B6
330
1AC
100
AcDbEntity
  8
치수문자_일반주서
 62
     0
100
AcDbTrace
 10
59.49983013608974
 20
-1.345493617582691
 30
0.0
 11
59.49983013608974
 21
-0.5121602842493573
 31
0.0
 12
61.99983013608974
 22
-0.9288269509160241
 32
0.0
 13
61.99983013608974
 23
-0.9288269509160241
 33
0.0
  0
MTEXT
  5
1B7
330
1AC
100
AcDbEntity
  8
치수문자_일반주서
 62
     0
100
AcDbMText
 10
79.00608013608972
 20
2.446173049083976
 30
0.0
 40
2.5
 41
0.0
 71
     2
 72
     1
  1
\A1;2.38 [3/32]
  7
SLDTEXTSTYLE0
 73
     1
 44
1.0
  0
POINT
  5
1B8
330
1AC
100
AcDbEntity
  8
Defpoints
 62
     0
100
AcDbPoint
 10
64.38108013608972
 20
-10.51924589389042
 30
0.0
  0
POINT
  5
1B9
330
1AC
100
AcDbEntity
  8
Defpoints
 62
     0
100
AcDbPoint
 10
61.99983013608974
 20
-10.54046733932565
 30
0.0
  0
POINT
  5
1BA
330
1AC
100
AcDbEntity
  8
Defpoints
 62
     0
100
AcDbPoint
 10
61.99983013608974
 20
-0.9288269509160241
 30
0.0
  0
ENDBLK
  5
1AE
330
1AC
100
AcDbEntity
  8
0
100
AcDbBlockEnd
  0
ENDSEC
  0
SECTION
  2
ENTITIES
  0
LINE
  5
96
330
1F
100
AcDbEntity
  8
외형선
  6
Continuous
370
    15
100
AcDbLine
 10
15.98777700723833
 20
2.381249999999999
 30
0.0
 11
-15.98777700723832
 21
2.381249999999997
 31
0.0
  0
LINE
  5
97
330
1F
100
AcDbEntity
  8
외형선
  6
Continuous
370
    15
100
AcDbLine
 10
-15.98777700723832
 20
-2.381250000000001
 30
0.0
 11
15.98777700723832
 21
-2.381249999999999
 31
0.0
  0
LINE
  5
98
330
1F
100
AcDbEntity
  8
외형선
  6
Continuous
370
    15
100
AcDbLine
 10
15.98777700723833
 20
-2.38125
 30
0.0
 11
20.43125000000001
 21
-1.190624999999999
 31
0.0
  0
LINE
  5
99
330
1F
100
AcDbEntity
  8
외형선
  6
Continuous
370
    15
100
AcDbLine
 10
20.43125000000001
 20
1.190625000000001
 30
0.0
 11
15.98777700723833
 21
2.38125
 31
0.0
  0
LINE
  5
9C
330
1F
100
AcDbEntity
  8
외형선
  6
Continuous
370
    15
100
AcDbLine
 10
20.5413444289927
 20
1.190625000000001
 30
0.0
 11
20.43125000000001
 21
1.190625000000001
 31
0.0
  0
LINE
  5
9D
330
1F
100
AcDbEntity
  8
외형선
  6
Continuous
370
    15
100
AcDbLine
 10
20.43125000000001
 20
-1.190624999999999
 30
0.0
 11
20.5413444289927
 21
-1.190624999999999
 31
0.0
  0
SPLINE
  5
9E
330
1F
100
AcDbEntity
  8
외형선
  6
Continuous
370
    15
100
AcDbSpline
210
0.0
220
0.0
230
1.0
 70
     8
 71
     3
 72
     9
 73
     5
 74
     0
 42
0.000000001
 43
0.00000001
 40
0.0
 40
0.0
 40
0.0
 40
0.0
 40
0.4994481110184787
 40
1.0
 40
1.0
 40
1.0
 40
1.0
 10
21.43125000000039
 20
0.798102429928461
 30
0.0
 10
21.28266078382528
 20
0.7912418504697035
 30
0.0
 10
20.98515397001012
 20
0.7775055297040339
 30
0.0
 10
20.6894056284525
 20
0.7882119873233294
 30
0.0
 10
20.54136823742268
 20
0.7935711249089685
 30
0.0
  0
ARC
  5
9F
330
1F
100
AcDbEntity
  8
외형선
  6
Continuous
370
    15
100
AcDbCircle
 10
20.89134092736264
 20
-1.133679212877012
 30
0.0
 40
0.3499964984117498
100
AcDbArc
 50
131.797383565216
 51
179.9919087921988
  0
SPLINE
  5
A0
330
1F
100
AcDbEntity
  8
0
  6
Continuous
 62
     1
370
    25
100
AcDbSpline
210
0.0
220
0.0
230
1.0
 70
     8
 71
     3
 72
     9
 73
     5
 74
     0
 42
0.000000001
 43
0.00000001
 40
0.0
 40
0.0
 40
0.0
 40
0.0
 40
0.5000233222159597
 40
1.0
 40
1.0
 40
1.0
 40
1.0
 10
25.49111855064847
 20
0.3050400615652016
 30
0.0
 10
25.4357755091837
 20
0.3313126519222431
 30
0.0
 10
25.32509458890281
 20
0.383855381810539
 30
0.0
 10
25.21449975753916
 20
0.4415610946673752
 30
0.0
 10
25.15920492117388
 20
0.4704126052706959
 30
0.0
1001
PE_URL
1000

  0
LINE
  5
A1
330
1F
100
AcDbEntity
  8
0
  6
Continuous
 62
     1
370
    25
100
AcDbLine
 10
22.75848442897096
 20
1.190625000000001
 30
0.0
 11
22.18068323637335
 21
1.190625000000001
 31
0.0
1001
PE_URL
1000

  0
SPLINE
  5
A2
330
1F
100
AcDbEntity
  8
0
  6
Continuous
 62
     1
370
    25
100
AcDbSpline
210
0.0
220
0.0
230
1.0
 70
     8
 71
     3
 72
    12
 73
     8
 74
     0
 42
0.000000001
 43
0.00000001
 40
0.0
 40
0.0
 40
0.0
 40
0.0
 40
0.3623729486989415
 40
0.6398810760460217
 40
0.8261178868510748
 40
0.9526697945108734
 40
1.0
 40
1.0
 40
1.0
 40
1.0
 10
25.09598494334632
 20
0.9461102746419582
 30
0.0
 10
24.97640925875436
 20
0.9407614090075216
 30
0.0
 10
24.76526155029446
 20
0.9313163389213648
 30
0.0
 10
24.49314296275291
 20
0.9290143234811256
 30
0.0
 10
24.29894288014497
 20
0.9312311695503122
 30
0.0
 10
24.18045570033743
 20
0.9337070866610646
 30
0.0
 10
24.12321458870804
 20
0.9360668425589218
 30
0.0
 10
24.1076337245997
 20
0.9367091612513231
 30
0.0
1001
PE_URL
1000

  0
SPLINE
  5
A3
330
1F
100
AcDbEntity
  8
0
  6
Continuous
 62
     1
370
    25
100
AcDbSpline
210
0.0
220
0.0
230
1.0
 70
     8
 71
     3
 72
    10
 73
     6
 74
     0
 42
0.000000001
 43
0.00000001
 40
0.0
 40
0.0
 40
0.0
 40
0.0
 40
0.4515316116245875
 40
0.6538974085756039
 40
1.0
 40
1.0
 40
1.0
 40
1.0
 10
23.30713445873084
 20
-0.9907145584668732
 30
0.0
 10
23.5775957097067
 20
-0.9684269403767939
 30
0.0
 10
23.96927130136001
 20
-0.9361505385984338
 30
0.0
 10
24.56138019183653
 20
-0.9258968844168396
 30
0.0
 10
24.88915050084435
 20
-0.9382898703404994
 30
0.0
 10
25.09598494334632
 20
-0.9461102746419573
 30
0.0
1001
PE_URL
1000

  0
SPLINE
  5
A4
330
1F
100
AcDbEntity
  8
0
  6
Continuous
 62
     1
370
    25
100
AcDbSpline
210
0.0
220
0.0
230
1.0
 70
     8
 71
     3
 72
    12
 73
     8
 74
     0
 42
0.000000001
 43
0.00000001
 40
0.0
 40
0.0
 40
0.0
 40
0.0
 40
0.2655758427069357
 40
0.4640169112401762
 40
0.5999215872404776
 40
0.7940856931920163
 40
1.0
 40
1.0
 40
1.0
 40
1.0
 10
26.05298772775934
 20
-0.8954544480347301
 30
0.0
 10
26.13303469858317
 20
-0.8834563103149627
 30
0.0
 10
26.27289360960917
 20
-0.862493037644473
 30
0.0
 10
26.45281125746924
 20
-0.8402230468022939
 30
0.0
 10
26.61149930152806
 20
-0.8232825190349538
 30
0.0
 10
26.77277085499218
 20
-0.8085893710709803
 30
0.0
 10
26.89307028050838
 20
-0.801186093644787
 30
0.0
 10
26.95498657497602
 20
-0.797375738747588
 30
0.0
1001
PE_URL
1000

  0
SPLINE
  5
A5
330
1F
100
AcDbEntity
  8
0
  6
Continuous
 62
     1
370
    25
100
AcDbSpline
210
0.0
220
0.0
230
1.0
 70
     8
 71
     3
 72
     9
 73
     5
 74
     0
 42
0.000000001
 43
0.00000001
 40
0.0
 40
0.0
 40
0.0
 40
0.0
 40
0.5020793503016383
 40
1.0
 40
1.0
 40
1.0
 40
1.0
 10
21.75231993859645
 20
0.8218624443748384
 30
0.0
 10
21.69859111679707
 20
0.8172999212855255
 30
0.0
 10
21.59157850660486
 20
0.8082126662797737
 30
0.0
 10
21.4845444613521
 20
0.8014631523096108
 30
0.0
 10
21.43125000000001
 20
0.7981024299284389
 30
0.0
1001
PE_URL
1000

  0
SPLINE
  5
A6
330
1F
100
AcDbEntity
  8
0
  6
Continuous
 62
     1
370
    25
100
AcDbSpline
210
0.0
220
0.0
230
1.0
 70
     8
 71
     3
 72
    18
 73
    14
 74
     0
 42
0.000000001
 43
0.00000001
 40
0.0
 40
0.0
 40
0.0
 40
0.0
 40
0.1378512508329152
 40
0.233012161733481
 40
0.3000752951083545
 40
0.3790981068557713
 40
0.4694469883874214
 40
0.5519402010075564
 40
0.6553541716972855
 40
0.7396244837001774
 40
0.7986092759359558
 40
0.884735857764924
 40
1.0
 40
1.0
 40
1.0
 40
1.0
 10
28.13077425664191
 20
0.81421049568632
 30
0.0
 10
28.03513021008757
 20
0.8068886402660118
 30
0.0
 10
27.87346155702925
 20
0.7945123915988608
 30
0.0
 10
27.66618419737019
 20
0.7865864453851832
 30
0.0
 10
27.49897045986636
 20
0.7833843373919389
 30
0.0
 10
27.33513080619046
 20
0.7833495306712083
 30
0.0
 10
27.16079723461133
 20
0.7870846341952047
 30
0.0
 10
26.96977808827896
 20
0.7954902244994216
 30
0.0
 10
26.78248335352118
 20
0.8079724733168531
 30
0.0
 10
26.61150311581052
 20
0.8232389944991572
 30
0.0
 10
26.45280994582164
 20
0.8402380139299871
 30
0.0
 10
26.27289413684901
 20
0.8624870213440166
 30
0.0
 10
26.13303489050142
 20
0.8834541203479508
 30
0.0
 10
26.05298772775934
 20
0.895454448034731
 30
0.0
1001
PE_URL
1000

  0
LINE
  5
A7
330
1F
100
AcDbEntity
  8
0
  6
Continuous
 62
     1
370
    25
100
AcDbLine
 10
22.18068323637335
 20
-1.190625
 30
0.0
 11
22.75848442897096
 21
-1.190625
 31
0.0
1001
PE_URL
1000

  0
LINE
  5
A8
330
1F
100
AcDbEntity
  8
외형선
  6
Continuous
370
    15
100
AcDbLine
 10
15.98777700723833
 20
2.38125
 30
0.0
 11
15.98777700723833
 21
-2.381250000000002
 31
0.0
  0
LINE
  5
AA
330
1F
100
AcDbEntity
  8
외형선
  6
Continuous
370
    15
100
AcDbLine
 10
20.43125000000001
 20
1.190625000000001
 30
0.0
 11
20.43125000000001
 21
-1.190624999999999
 31
0.0
  0
SPLINE
  5
AC
330
1F
100
AcDbEntity
  8
외형선
  6
Continuous
370
    15
100
AcDbSpline
210
0.0
220
0.0
230
1.0
 70
     8
 71
     3
 72
    10
 73
     6
 74
     0
 42
0.000000001
 43
0.00000001
 40
0.0
 40
0.0
 40
0.0
 40
0.0
 40
0.5
 40
0.5
 40
1.0
 40
1.0
 40
1.0
 40
1.0
 10
21.43125000000001
 20
1.11286418354171
 30
0.0
 10
21.28395597282357
 20
1.082457125926179
 30
0.0
 10
21.13560001364746
 20
1.043329867586395
 30
0.0
 10
20.83618394573469
 20
0.949134341881483
 30
0.0
 10
20.68951084299918
 20
0.8945829542895032
 30
0.0
 10
20.54134442899271
 20
0.8333694311170131
 30
0.0
  0
SPLINE
  5
AD
330
1F
100
AcDbEntity
  8
외형선
  6
Continuous
370
    15
100
AcDbSpline
210
0.0
220
0.0
230
1.0
 70
     8
 71
     3
 72
    10
 73
     6
 74
     0
 42
0.000000001
 43
0.00000001
 40
0.0
 40
0.0
 40
0.0
 40
0.0
 40
0.5
 40
0.5
 40
1.0
 40
1.0
 40
1.0
 40
1.0
 10
21.43125000000001
 20
-0.9526929221009637
 30
0.0
 10
21.28397233675308
 20
-0.9013923217681611
 30
0.0
 10
21.135633357819
 20
-0.8425672462400698
 30
0.0
 10
20.83625039430081
 20
-0.7123028434487076
 30
0.0
 10
20.6895918806135
 20
-0.6415486365737844
 30
0.0
 10
20.54144319366527
 20
-0.5661579771830701
 30
0.0
  0
LINE
  5
AE
330
1F
100
AcDbEntity
  8
외형선
  6
Continuous
370
    15
100
AcDbLine
 10
21.43125000000001
 20
-0.952692922100963
 30
0.0
 11
21.43125000000001
 21
-1.11286418354171
 31
0.0
  0
SPLINE
  5
AF
330
1F
100
AcDbEntity
  8
외형선
  6
Continuous
370
    15
100
AcDbSpline
210
0.0
220
0.0
230
1.0
 70
     8
 71
     3
 72
    10
 73
     6
 74
     0
 42
0.000000001
 43
0.00000001
 40
0.0
 40
0.0
 40
0.0
 40
0.0
 40
0.4999999999999999
 40
0.4999999999999999
 40
1.0
 40
1.0
 40
1.0
 40
1.0
 10
21.43125000000001
 20
-1.112864183541709
 30
0.0
 10
21.28581235500443
 20
-1.082840353413484
 30
0.0
 10
21.13938192137151
 20
-1.044319941059274
 30
0.0
 10
20.84372319897061
 20
-0.9516983731149172
 30
0.0
 10
20.6986972050633
 20
-0.8980841575797902
 30
0.0
 10
20.55254317937487
 20
-0.8379852402114258
 30
0.0
  0
SPLINE
  5
B0
330
1F
100
AcDbEntity
  8
외형선
  6
Continuous
370
    15
100
AcDbSpline
210
0.0
220
0.0
230
1.0
 70
     8
 71
     3
 72
     8
 73
     4
 74
     0
 42
0.000000001
 43
0.00000001
 40
0.0
 40
0.0
 40
0.0
 40
0.0
 40
1.0
 40
1.0
 40
1.0
 40
1.0
 10
20.54134442899271
 20
-1.002589469351484
 30
0.0
 10
20.54134442899271
 20
-0.9551426733589564
 30
0.0
 10
20.54241893067451
 20
-0.9001658587262459
 30
0.0
 10
20.55254317937506
 20
-0.8379852402114153
 30
0.0
  0
LINE
  5
B1
330
1F
100
AcDbEntity
  8
외형선
  6
Continuous
370
    15
100
AcDbLine
 10
20.5413444289927
 20
-1.190624999999999
 30
0.0
 11
20.54134442899271
 21
-1.00258946935155
 31
0.0
  0
LINE
  5
B2
330
1F
100
AcDbEntity
  8
외형선
  6
Continuous
370
    15
100
AcDbLine
 10
20.5413444289927
 20
-0.5661130879174049
 30
0.0
 11
20.5413444289927
 21
1.190625000000001
 31
0.0
  0
SPLINE
  5
B3
330
1F
100
AcDbEntity
  8
외형선
  6
Continuous
370
    15
100
AcDbSpline
210
0.0
220
0.0
230
1.0
 70
    24
 71
     3
 72
     8
 73
     4
 74
     0
 42
0.000000001
 43
0.00000001
 40
0.0
 40
0.0
 40
0.0
 40
0.0
 40
1.0
 40
1.0
 40
1.0
 40
1.0
 10
21.43125000000152
 20
-0.7717317115064278
 30
0.0
 10
21.43125000000152
 20
-0.8301453215546997
 30
0.0
 10
21.43125000000152
 20
-0.8908449451199996
 30
0.0
 10
21.43125000000152
 20
-0.9526929221008374
 30
0.0
  0
SPLINE
  5
B4
330
1F
100
AcDbEntity
  8
외형선
  6
Continuous
370
    15
100
AcDbSpline
210
0.0
220
0.0
230
1.0
 70
     8
 71
     3
 72
    10
 73
     6
 74
     0
 42
0.000000001
 43
0.00000001
 40
0.0
 40
0.0
 40
0.0
 40
0.0
 40
0.5
 40
0.5
 40
1.0
 40
1.0
 40
1.0
 40
1.0
 10
21.43125000000001
 20
-0.7717317115059472
 30
0.0
 10
21.28397233675308
 20
-0.7246992520006873
 30
0.0
 10
21.13563335781901
 20
-0.6715583413934536
 30
0.0
 10
20.83625039430082
 20
-0.555281426345883
 30
0.0
 10
20.6895918806135
 20
-0.4927530279973178
 30
0.0
 10
20.54144319366527
 20
-0.4266997336308885
 30
0.0
  0
SPLINE
  5
B5
330
1F
100
AcDbEntity
  8
외형선
  6
Continuous
370
    15
100
AcDbSpline
210
0.0
220
0.0
230
1.0
 70
    24
 71
     3
 72
    10
 73
     6
 74
     0
 42
0.000000001
 43
0.00000001
 40
0.0
 40
0.0
 40
0.0
 40
0.0
 40
0.5
 40
0.5
 40
1.0
 40
1.0
 40
1.0
 40
1.0
 10
21.43125000000004
 20
0.3016997402232313
 30
0.0
 10
21.43125000000004
 20
0.1219537598744587
 30
0.0
 10
21.43125000000004
 20
-0.0748402021915222
 30
0.0
 10
21.43125000000004
 20
-0.45005768582401
 30
0.0
 10
21.43125000000004
 20
-0.6268661246581523
 30
0.0
 10
21.43125000000004
 20
-0.771731711505956
 30
0.0
  0
SPLINE
  5
B6
330
1F
100
AcDbEntity
  8
외형선
  6
Continuous
370
    15
100
AcDbSpline
210
0.0
220
0.0
230
1.0
 70
     8
 71
     3
 72
    10
 73
     6
 74
     0
 42
0.000000001
 43
0.00000001
 40
0.0
 40
0.0
 40
0.0
 40
0.0
 40
0.5
 40
0.5
 40
1.0
 40
1.0
 40
1.0
 40
1.0
 10
21.43125000000006
 20
0.3016997402232205
 30
0.0
 10
21.28396195119203
 20
0.3666065833697677
 30
0.0
 10
21.1356121955609
 20
0.4293263022806867
 30
0.0
 10
20.83620822191347
 20
0.5474634830980628
 30
0.0
 10
20.6895404492582
 20
0.6023180437981396
 30
0.0
 10
20.54138051159746
 20
0.6522825069481449
 30
0.0
  0
SPLINE
  5
B7
330
1F
100
AcDbEntity
  8
외형선
  6
Continuous
370
    15
100
AcDbSpline
210
0.0
220
0.0
230
1.0
 70
    24
 71
     3
 72
    12
 73
     8
 74
     0
 42
0.000000001
 43
0.00000001
 40
0.0
 40
0.0
 40
0.0
 40
0.0
 40
0.0594026625508352
 40
0.2507244682556278
 40
0.4366542963499053
 40
0.6279761020546986
 40
1.0
 40
1.0
 40
1.0
 40
1.0
 10
21.43125000000001
 20
0.7941688992191301
 30
0.0
 10
21.43125000000001
 20
0.7951436095942415
 30
0.0
 10
21.43125000000001
 20
0.7992576295726196
 30
0.0
 10
21.43125000000001
 20
0.7687857475143063
 30
0.0
 10
21.43125000000001
 20
0.7017953469976027
 30
0.0
 10
21.43125000000001
 20
0.5677004683061696
 30
0.0
 10
21.43125000000001
 20
0.4074960239050221
 30
0.0
 10
21.43125000000001
 20
0.3016997402232441
 30
0.0
  0
SPLINE
  5
B8
330
1F
100
AcDbEntity
  8
외형선
  6
Continuous
370
    15
100
AcDbSpline
210
0.0
220
0.0
230
1.0
 70
    24
 71
     3
 72
    10
 73
     6
 74
     0
 42
0.000000001
 43
0.00000001
 40
0.0
 40
0.0
 40
0.0
 40
0.0
 40
0.5
 40
0.5
 40
1.0
 40
1.0
 40
1.0
 40
1.0
 10
21.43125000000013
 20
1.112864183541706
 30
0.0
 10
21.43125000000013
 20
1.05147359741465
 30
0.0
 10
21.43125000000013
 20
0.9894814563325071
 30
0.0
 10
21.43125000000013
 20
0.878219960035786
 30
0.0
 10
21.43125000000013
 20
0.8292050892160456
 30
0.0
 10
21.43125000000013
 20
0.7905243742359578
 30
0.0
  0
SPLINE
  5
B9
330
1F
100
AcDbEntity
  8
0
  6
Continuous
 62
     1
370
    25
100
AcDbSpline
210
0.0
220
0.0
230
1.0
 70
     8
 71
     3
 72
    16
 73
    12
 74
     0
 42
0.000000001
 43
0.00000001
 40
0.0
 40
0.0
 40
0.0
 40
0.0
 40
0.1147038268561944
 40
0.2293640756354615
 40
0.3439880973591002
 40
0.458583356758551
 40
0.5731574093086579
 40
0.6877178776534535
 40
0.7956954409696347
 40
0.9036944190117414
 40
1.0
 40
1.0
 40
1.0
 40
1.0
 10
28.57500000000001
 20
-1.12983272242923
 30
0.0
 10
28.35255388562219
 20
-1.077884023566419
 30
0.0
 10
27.90774616820457
 20
-0.9740063620994502
 30
0.0
 10
27.24071297460304
 20
-0.6858371656473681
 30
0.0
 10
26.57392938626353
 20
-0.3350534271321424
 30
0.0
 10
25.90734281284405
 20
0.0527128547052916
 30
0.0
 10
25.24092131090965
 20
0.4341818273437024
 30
0.0
 10
24.58728183382945
 20
0.7651286705487286
 30
0.0
 10
23.94662466094495
 20
1.012276048986708
 30
0.0
 10
23.3412822932507
 20
1.165559603967604
 30
0.0
 10
22.9451936561271
 20
1.178971201766811
 30
0.0
 10
22.75848442897096
 20
1.185293193425556
 30
0.0
1001
PE_URL
1000

  0
SPLINE
  5
BA
330
1F
100
AcDbEntity
  8
0
  6
Continuous
 62
     1
370
    25
100
AcDbSpline
210
0.0
220
0.0
230
1.0
 70
     8
 71
     3
 72
    14
 73
    10
 74
     0
 42
0.000000001
 43
0.00000001
 40
0.0
 40
0.0
 40
0.0
 40
0.0
 40
0.162340769202279
 40
0.3240106866167269
 40
0.4860374517205399
 40
0.6486288751395383
 40
0.8103958789335284
 40
0.9722039724511498
 40
1.0
 40
1.0
 40
1.0
 40
1.0
 10
28.57500000000001
 20
-0.939370102263407
 30
0.0
 10
28.40727799280756
 20
-0.9034407681491434
 30
0.0
 10
28.07252706746579
 20
-0.8317305731485339
 30
0.0
 10
27.57090572973551
 20
-0.6596223846981303
 30
0.0
 10
27.06877008494938
 20
-0.452830268982955
 30
0.0
 10
26.56603964854162
 20
-0.2186817758746864
 30
0.0
 10
26.06421541598781
 20
0.0273514092408604
 30
0.0
 10
25.70156050510728
 20
0.2093407001634199
 30
0.0
 10
25.50564514776575
 20
0.2971937020148488
 30
0.0
 10
25.4769238908686
 20
0.3100729814628698
 30
0.0
1001
PE_URL
1000

  0
LINE
  5
BB
330
1F
100
AcDbEntity
  8
0
  6
Continuous
 62
     1
370
    25
100
AcDbLine
 10
28.57500000000001
 20
-1.129832722429231
 30
0.0
 11
28.57500000000001
 21
-0.939370102263407
 31
0.0
1001
PE_URL
1000

  0
SPLINE
  5
BC
330
1F
100
AcDbEntity
  8
0
  6
Continuous
 62
     1
370
    25
100
AcDbSpline
210
0.0
220
0.0
230
1.0
 70
     8
 71
     3
 72
    38
 73
    34
 74
     0
 42
0.000000001
 43
0.00000001
 40
0.0
 40
0.0
 40
0.0
 40
0.0
 40
0.0625
 40
0.0625
 40
0.125
 40
0.125
 40
0.1875
 40
0.1875
 40
0.25
 40
0.25
 40
0.3125
 40
0.3125
 40
0.375
 40
0.375
 40
0.4375
 40
0.4375
 40
0.5
 40
0.5
 40
0.5625
 40
0.5625
 40
0.625
 40
0.625
 40
0.6875
 40
0.6875
 40
0.75
 40
0.75
 40
0.8125
 40
0.8125
 40
0.875
 40
0.875
 40
0.9375
 40
0.9375
 40
1.0
 40
1.0
 40
1.0
 40
1.0
 10
28.57500000000001
 20
-1.189618701882794
 30
0.0
 10
28.42844642802715
 20
-1.186104908430933
 30
0.0
 10
28.27768777172686
 20
-1.173251017928147
 30
0.0
 10
27.97817847105887
 20
-1.12936459707025
 30
0.0
 10
27.83218453767434
 20
-1.098630899496334
 30
0.0
 10
27.53412803350566
 20
-1.020170764738757
 30
0.0
 10
27.38289529800018
 20
-0.9723717609144633
 30
0.0
 10
27.08654599686922
 20
-0.8630514396281518
 30
0.0
 10
26.93928149566306
 20
-0.8013631988110629
 30
0.0
 10
26.63938477790134
 20
-0.6656670726282093
 30
0.0
 10
26.49135609362841
 20
-0.5923485411789752
 30
0.0
 10
26.19580058394405
 20
-0.437782798090211
 30
0.0
 10
26.0446438875219
 20
-0.3558661291829985
 30
0.0
 10
25.74608056730138
 20
-0.1884035368065383
 30
0.0
 10
25.6002904131396
 20
-0.1032076379473805
 30
0.0
 10
25.30107625666902
 20
0.0689153951137635
 30
0.0
 10
25.15013194507381
 20
0.1553574666778349
 30
0.0
 10
24.85602887527196
 20
0.3230255040629416
 30
0.0
 10
24.70643485594278
 20
0.4054732097547028
 30
0.0
 10
24.40671169687565
 20
0.5628285489544549
 30
0.0
 10
24.26035873854749
 20
0.6371079827361888
 30
0.0
 10
23.96288902401753
 20
0.7754227781687676
 30
0.0
 10
23.81162222340588
 20
0.8393858218077808
 30
0.0
 10
23.51455757239
 20
0.9524862303925533
 30
0.0
 10
23.36790314975534
 20
1.001837503052429
 30
0.0
 10
23.06808806903712
 20
1.084827738402212
 30
0.0
 10
22.91914178211628
 20
1.11800098287835
 30
0.0
 10
22.62445779677136
 20
1.16635905702062
 30
0.0
 10
22.47341904235851
 20
1.18177072215548
 30
0.0
 10
22.17442933655887
 20
1.193726317202635
 30
0.0
 10
22.02868753257902
 20
1.190414803265903
 30
0.0
 10
21.72984953888897
 20
1.165267497806184
 30
0.0
 10
21.57876127670935
 20
1.143316089676837
 30
0.0
 10
21.43125000000001
 20
1.112864183541712
 30
0.0
1001
PE_URL
1000

  0
SPLINE
  5
BD
330
1F
100
AcDbEntity
  8
0
  6
Continuous
 62
     1
370
    25
100
AcDbSpline
210
0.0
220
0.0
230
1.0
 70
     8
 71
     3
 72
    14
 73
    10
 74
     0
 42
0.000000001
 43
0.00000001
 40
0.0
 40
0.0
 40
0.0
 40
0.0
 40
0.102035162977018
 40
0.2748583371506863
 40
0.4476692244311513
 40
0.6204784543198175
 40
0.793296661149001
 40
0.9374866618290917
 40
1.0
 40
1.0
 40
1.0
 40
1.0
 10
25.62160140020302
 20
-0.1141630162010298
 30
0.0
 10
25.48989384031486
 20
-0.0615192435901983
 30
0.0
 10
25.13510515918944
 20
0.0802904951212599
 30
0.0
 10
24.55726410105789
 20
0.3128644009990173
 30
0.0
 10
23.88806469007489
 20
0.5473967560747731
 30
0.0
 10
23.21890171425285
 20
0.7264525451360587
 30
0.0
 10
22.58657537670579
 20
0.8195087990477282
 30
0.0
 10
22.0968990083893
 20
0.8451675225899189
 30
0.0
 10
21.83003854125944
 20
0.8214455813528043
 30
0.0
 10
21.74933186898763
 20
0.8142713492244344
 30
0.0
1001
PE_URL
1000

  0
SPLINE
  5
BE
330
1F
100
AcDbEntity
  8
외형선
  6
Continuous
370
    15
100
AcDbSpline
210
0.0
220
0.0
230
1.0
 70
    24
 71
     3
 72
    10
 73
     6
 74
     0
 42
0.000000001
 43
0.00000001
 40
0.0
 40
0.0
 40
0.0
 40
0.0
 40
0.4999999999999996
 40
0.4999999999999996
 40
1.0
 40
1.0
 40
1.0
 40
1.0
 10
21.43125000000013
 20
1.112864183541707
 30
0.0
 10
21.43125000000013
 20
1.051473597414651
 30
0.0
 10
21.43125000000013
 20
0.989481456332508
 30
0.0
 10
21.43125000000013
 20
0.8782199600357862
 30
0.0
 10
21.43125000000013
 20
0.8292050892160459
 30
0.0
 10
21.43125000000013
 20
0.7905243742359578
 30
0.0
  0
LINE
  5
BF
330
1F
100
AcDbEntity
  8
0
  6
Continuous
 62
     1
370
    25
100
AcDbLine
 10
28.57500000000001
 20
-1.189618701882794
 30
0.0
 11
28.57500000000001
 21
-1.129832722429231
 31
0.0
1001
PE_URL
1000

  0
SPLINE
  5
C0
330
1F
100
AcDbEntity
  8
0
  6
Continuous
 62
     1
370
    25
100
AcDbSpline
210
0.0
220
0.0
230
1.0
 70
     8
 71
     3
 72
     8
 73
     4
 74
     0
 42
0.000000001
 43
0.00000001
 40
0.0
 40
0.0
 40
0.0
 40
0.0
 40
1.0
 40
1.0
 40
1.0
 40
1.0
 10
27.83811867067988
 20
0.3332246836425586
 30
0.0
 10
27.7958596130117
 20
0.383247697711783
 30
0.0
 10
27.75814615656605
 20
0.4314055764532021
 30
0.0
 10
27.72604480894124
 20
0.4772607141681002
 30
0.0
1001
PE_URL
1000

  0
LINE
  5
C1
330
1F
100
AcDbEntity
  8
0
  6
Continuous
 62
     1
370
    25
100
AcDbLine
 10
27.74114158570376
 20
0.4899284139927393
 30
0.0
 11
28.57500000000001
 21
0.0000000000000015
 31
0.0
1001
PE_URL
1000

  0
LINE
  5
C2
330
1F
100
AcDbEntity
  8
0
  6
Continuous
 62
     1
370
    25
100
AcDbLine
 10
28.57500000000001
 20
0.0000000000000015
 30
0.0
 11
28.57500000000001
 21
-0.3181861326165445
 31
0.0
1001
PE_URL
1000

  0
SPLINE
  5
C3
330
1F
100
AcDbEntity
  8
0
  6
Continuous
 62
     1
370
    25
100
AcDbSpline
210
0.0
220
0.0
230
1.0
 70
     8
 71
     3
 72
    10
 73
     6
 74
     0
 42
0.000000001
 43
0.00000001
 40
0.0
 40
0.0
 40
0.0
 40
0.0
 40
0.5
 40
0.5
 40
1.0
 40
1.0
 40
1.0
 40
1.0
 10
28.57500000000001
 20
-0.3181861326165444
 30
0.0
 10
28.44744037202745
 20
-0.2179006366655505
 30
0.0
 10
28.32201330534632
 20
-0.1135000420721152
 30
0.0
 10
28.07552308936826
 20
0.1037219838688969
 30
0.0
 10
27.95330137272726
 20
0.217686046158932
 30
0.0
 10
27.83811867067877
 20
0.3332246836399441
 30
0.0
1001
PE_URL
1000

  0
SPLINE
  5
C4
330
1F
100
AcDbEntity
  8
0
  6
Continuous
 62
     1
370
    25
100
AcDbSpline
210
0.0
220
0.0
230
1.0
 70
     8
 71
     3
 72
    13
 73
     9
 74
     0
 42
0.000000001
 43
0.00000001
 40
0.0
 40
0.0
 40
0.0
 40
0.0
 40
0.0973647919777861
 40
0.2804110297805358
 40
0.4641041576030947
 40
0.70814355320028
 40
0.9521370176034518
 40
1.0
 40
1.0
 40
1.0
 40
1.0
 10
27.83811867067988
 20
0.3332246836425577
 30
0.0
 10
27.74915824238725
 20
0.3711922438329874
 30
0.0
 10
27.49295181704055
 20
0.4805389844256431
 30
0.0
 10
27.06871998548384
 20
0.6416945204018322
 30
0.0
 10
26.51006654749451
 20
0.8137050704914263
 30
0.0
 10
25.8958641078053
 20
0.9283390965134061
 30
0.0
 10
25.40582453232527
 20
0.9721479658762137
 30
0.0
 10
25.13895372766899
 20
0.9430614665744905
 30
0.0
 10
25.09518826432056
 20
0.9382914276758435
 30
0.0
1001
PE_URL
1000

  0
SPLINE
  5
C5
330
1F
100
AcDbEntity
  8
0
  6
Continuous
 62
     1
370
    25
100
AcDbSpline
210
0.0
220
0.0
230
1.0
 70
    24
 71
     3
 72
    10
 73
     6
 74
     0
 42
0.000000001
 43
0.00000001
 40
0.0
 40
0.0
 40
0.0
 40
0.0
 40
0.5
 40
0.5
 40
1.0
 40
1.0
 40
1.0
 40
1.0
 10
28.57500000000001
 20
-0.9393701022634067
 30
0.0
 10
28.57500000000001
 20
-0.8673600600326548
 30
0.0
 10
28.57500000000001
 20
-0.7763726105261389
 30
0.0
 10
28.57500000000001
 20
-0.5648355469887777
 30
0.0
 10
28.57500000000001
 20
-0.4444691743829647
 30
0.0
 10
28.57500000000001
 20
-0.3181861326165827
 30
0.0
1001
PE_URL
1000

  0
SPLINE
  5
C6
330
1F
100
AcDbEntity
  8
0
  6
Continuous
 62
     1
370
    25
100
AcDbSpline
210
0.0
220
0.0
230
1.0
 70
     8
 71
     3
 72
    12
 73
     8
 74
     0
 42
0.000000001
 43
0.00000001
 40
0.0
 40
0.0
 40
0.0
 40
0.0
 40
0.1372832090466598
 40
0.404135489936425
 40
0.671711941187112
 40
0.9400283784304324
 40
1.0
 40
1.0
 40
1.0
 40
1.0
 10
23.30810232097444
 20
-0.9831868361324003
 30
0.0
 10
23.22219151176544
 20
-0.9931694770152686
 30
0.0
 10
22.96928653371593
 20
-1.022556460988568
 30
0.0
 10
22.5493344296895
 20
-1.006923210669128
 30
0.0
 10
22.04717851198758
 20
-0.939478864660291
 30
0.0
 10
21.67390236061694
 20
-0.8473841653322433
 30
0.0
 10
21.46873072818056
 20
-0.7834171904802527
 30
0.0
 10
21.43125000000001
 20
-0.7717317115059472
 30
0.0
1001
PE_URL
1000

  0
SPLINE
  5
C7
330
1F
100
AcDbEntity
  8
0
  6
Continuous
 62
     1
370
    25
100
AcDbSpline
210
0.0
220
0.0
230
1.0
 70
     8
 71
     3
 72
    15
 73
    11
 74
     0
 42
0.000000001
 43
0.00000001
 40
0.0
 40
0.0
 40
0.0
 40
0.0
 40
0.034795092745779
 40
0.1794949232978824
 40
0.3241760986364863
 40
0.4688472568180647
 40
0.6135170648761412
 40
0.7581941937525658
 40
0.8789118345322409
 40
1.0
 40
1.0
 40
1.0
 40
1.0
 10
26.05676757885443
 20
-0.8863532714106671
 30
0.0
 10
26.00311628229351
 20
-0.8973846256794142
 30
0.0
 10
25.72634922691027
 20
-0.9542912734876953
 30
0.0
 10
25.22651238342419
 20
-0.963355305509901
 30
0.0
 10
24.55726921085204
 20
-0.9024348801210521
 30
0.0
 10
23.88807154299536
 20
-0.7398996480616201
 30
0.0
 10
23.21891208751659
 20
-0.5018999332795512
 30
0.0
 10
22.58656824005436
 20
-0.2275659885162791
 30
0.0
 10
21.9909395324137
 20
0.050701213944237
 30
0.0
 10
21.61800366358713
 20
0.2179481393394057
 30
0.0
 10
21.43125000000006
 20
0.3016997402232205
 30
0.0
1001
PE_URL
1000

  0
SPLINE
  5
C8
330
1F
100
AcDbEntity
  8
외형선
  6
Continuous
370
    15
100
AcDbSpline
210
0.0
220
0.0
230
1.0
 70
    24
 71
     3
 72
    10
 73
     6
 74
     0
 42
0.000000001
 43
0.00000001
 40
0.0
 40
0.0
 40
0.0
 40
0.0
 40
0.5
 40
0.5
 40
1.0
 40
1.0
 40
1.0
 40
1.0
 10
21.43125000000004
 20
0.3016997402232307
 30
0.0
 10
21.43125000000004
 20
0.1219537598744581
 30
0.0
 10
21.43125000000004
 20
-0.0748402021915227
 30
0.0
 10
21.43125000000004
 20
-0.4500576858240106
 30
0.0
 10
21.43125000000004
 20
-0.626866124658153
 30
0.0
 10
21.43125000000004
 20
-0.7717317115059564
 30
0.0
  0
SPLINE
  5
C9
330
1F
100
AcDbEntity
  8
외형선
  6
Continuous
370
    15
100
AcDbSpline
210
0.0
220
0.0
230
1.0
 70
    24
 71
     3
 72
    12
 73
     8
 74
     0
 42
0.000000001
 43
0.00000001
 40
0.0
 40
0.0
 40
0.0
 40
0.0
 40
0.0600226963016176
 40
0.2512183843021873
 40
0.437025649037942
 40
0.6282213370385114
 40
1.0
 40
1.0
 40
1.0
 40
1.0
 10
21.43125000000001
 20
0.7941498991528672
 30
0.0
 10
21.43125000000001
 20
0.795138763702658
 30
0.0
 10
21.43125000000001
 20
0.7992775473594909
 30
0.0
 10
21.43125000000001
 20
0.7687952750987336
 30
0.0
 10
21.43125000000001
 20
0.7017928085406824
 30
0.0
 10
21.43125000000001
 20
0.5677018494288871
 30
0.0
 10
21.43125000000001
 20
0.4074965732179954
 30
0.0
 10
21.43125000000001
 20
0.3016997402232441
 30
0.0
  0
SPLINE
  5
CA
330
1F
100
AcDbEntity
  8
0
  6
Continuous
 62
     1
370
    25
100
AcDbSpline
210
0.0
220
0.0
230
1.0
 70
    24
 71
     3
 72
     8
 73
     4
 74
     0
 42
0.000000001
 43
0.00000001
 40
0.0
 40
0.0
 40
0.0
 40
0.0
 40
1.0
 40
1.0
 40
1.0
 40
1.0
 10
27.8503216158765
 20
0.581541337042615
 30
0.0
 10
27.81100547470795
 20
0.5485511774887697
 30
0.0
 10
27.76939779872908
 20
0.513638191920743
 30
0.0
 10
27.72604480893628
 20
0.4772607141751746
 30
0.0
1001
PE_URL
1000

  0
LINE
  5
CB
330
1F
100
AcDbEntity
  8
0
  6
Continuous
 62
     1
370
    25
100
AcDbLine
 10
28.57500000000001
 20
0.8334375000000003
 30
0.0
 11
28.12826263280685
 21
0.8043935180459401
 31
0.0
1001
PE_URL
1000

  0
SPLINE
  5
CC
330
1F
100
AcDbEntity
  8
0
  6
Continuous
 62
     1
370
    25
100
AcDbSpline
210
0.0
220
0.0
230
1.0
 70
     8
 71
     3
 72
     8
 73
     4
 74
     0
 42
0.000000001
 43
0.00000001
 40
0.0
 40
0.0
 40
0.0
 40
0.0
 40
1.0
 40
1.0
 40
1.0
 40
1.0
 10
28.57500000000001
 20
0.8334375000000013
 30
0.0
 10
28.33008565133289
 20
0.7668707096745622
 30
0.0
 10
28.08754529027893
 20
0.68506080023718
 30
0.0
 10
27.85032161589076
 20
0.5815413370488445
 30
0.0
1001
PE_URL
1000

  0
SPLINE
  5
CD
330
1F
100
AcDbEntity
  8
0
  6
Continuous
 62
     1
370
    25
100
AcDbSpline
210
0.0
220
0.0
230
1.0
 70
     8
 71
     3
 72
    12
 73
     8
 74
     0
 42
0.000000001
 43
0.00000001
 40
0.0
 40
0.0
 40
0.0
 40
0.0
 40
0.0602444251507433
 40
0.2949352537339588
 40
0.5297566012296722
 40
0.7647912415800749
 40
1.0
 40
1.0
 40
1.0
 40
1.0
 10
24.10786783734173
 20
-0.9366194533417433
 30
0.0
 10
24.0541301887352
 20
-0.957892473549193
 30
0.0
 10
23.79104979603204
 20
-1.062037605598716
 30
0.0
 10
23.31849417191103
 20
-1.161067243111994
 30
0.0
 10
22.68995707905061
 20
-1.20857989397963
 30
0.0
 10
22.06082987872537
 20
-1.144370449184632
 30
0.0
 10
21.64116175672491
 20
-1.01660120093014
 30
0.0
 10
21.43125000000006
 20
-0.9526929221009794
 30
0.0
1001
PE_URL
1000

  0
SPLINE
  5
CE
330
1F
100
AcDbEntity
  8
외형선
  6
Continuous
370
    15
100
AcDbSpline
210
0.0
220
0.0
230
1.0
 70
    24
 71
     3
 72
     8
 73
     4
 74
     0
 42
0.000000001
 43
0.00000001
 40
0.0
 40
0.0
 40
0.0
 40
0.0
 40
1.0
 40
1.0
 40
1.0
 40
1.0
 10
21.43125000000152
 20
-0.7717317115064278
 30
0.0
 10
21.43125000000152
 20
-0.8301453215546996
 30
0.0
 10
21.43125000000152
 20
-0.8908449451199996
 30
0.0
 10
21.43125000000152
 20
-0.9526929221008372
 30
0.0
  0
SPLINE
  5
CF
330
1F
100
AcDbEntity
  8
0
  6
Continuous
 62
     1
370
    25
100
AcDbSpline
210
0.0
220
0.0
230
1.0
 70
     8
 71
     3
 72
     9
 73
     5
 74
     0
 42
0.000000001
 43
0.00000001
 40
0.0
 40
0.0
 40
0.0
 40
0.0
 40
0.8904247368658865
 40
1.0
 40
1.0
 40
1.0
 40
1.0
 10
21.43125000000001
 20
-1.112864183541711
 30
0.0
 10
21.65368712477179
 20
-1.156769936776559
 30
0.0
 10
21.90349726094873
 20
-1.206078712035194
 30
0.0
 10
22.15330994570675
 20
-1.186131504585592
 30
0.0
 10
22.18068323637335
 20
-1.183945784080511
 30
0.0
1001
PE_URL
1000

  0
SPLINE
  5
D0
330
1F
100
AcDbEntity
  8
0
  6
Continuous
 62
     1
370
    25
100
AcDbSpline
210
0.0
220
0.0
230
1.0
 70
     8
 71
     3
 72
    10
 73
     6
 74
     0
 42
0.000000001
 43
0.00000001
 40
0.0
 40
0.0
 40
0.0
 40
0.0
 40
0.2233756543436591
 40
0.6114851772303548
 40
0.9999999999999999
 40
0.9999999999999999
 40
0.9999999999999999
 40
0.9999999999999999
 10
26.95498657497602
 20
0.7973757387475893
 30
0.0
 10
27.07558559170285
 20
0.849656220449767
 30
0.0
 10
27.40572233526916
 20
0.9927727105313638
 30
0.0
 10
27.94569213081667
 20
1.140608761683631
 30
0.0
 10
28.36515774090438
 20
1.173276372359917
 30
0.0
 10
28.57500000000001
 20
1.189618701882795
 30
0.0
1001
PE_URL
1000

  0
LINE
  5
D1
330
1F
100
AcDbEntity
  8
0
  6
Continuous
 62
     1
370
    25
100
AcDbLine
 10
28.57500000000001
 20
0.0000000000000015
 30
0.0
 11
28.57500000000001
 21
0.8334375000000014
 31
0.0
1001
PE_URL
1000

  0
SPLINE
  5
D2
330
1F
100
AcDbEntity
  8
0
  6
Continuous
 62
     1
370
    25
100
AcDbSpline
210
0.0
220
0.0
230
1.0
 70
    24
 71
     3
 72
    10
 73
     6
 74
     0
 42
0.000000001
 43
0.00000001
 40
0.0
 40
0.0
 40
0.0
 40
0.0
 40
0.5
 40
0.5
 40
1.0
 40
1.0
 40
1.0
 40
1.0
 10
28.57500000000001
 20
0.8334375000000004
 30
0.0
 10
28.57500000000001
 20
0.8839584057612084
 30
0.0
 10
28.57500000000001
 20
0.942668376994912
 30
0.0
 10
28.57500000000001
 20
1.065841738519019
 30
0.0
 10
28.57500000000001
 20
1.129990559501129
 30
0.0
 10
28.57500000000001
 20
1.189618701882796
 30
0.0
1001
PE_URL
1000

  0
LINE
  5
D3
330
1F
100
AcDbEntity
  8
중심선
 62
     1
100
AcDbLine
 10
-30.075
 20
-0.0000000000000037
 30
0.0
 11
30.075
 21
0.0000000000000047
 31
0.0
  0
LINE
  5
D4
330
1F
100
AcDbEntity
  8
참조1
100
AcDbLine
 10
0.0
 20
-0.0000000000000039
 30
0.0
 11
0.0000000000000107
 21
-40.00000000000001
 31
0.0
  0
LINE
  5
D5
330
1F
100
AcDbEntity
  8
참조1
100
AcDbLine
 10
0.0000000000000107
 20
-40.00000000000001
 30
0.0
 11
-18.43446559669922
 21
-39.99999999999999
 31
0.0
  0
CIRCLE
  5
D6
330
1F
100
AcDbEntity
  8
해칭선
100
AcDbCircle
 10
0.0
 20
0.0
 30
0.0
 40
3.000000000000002
  0
INSERT
  5
D7
330
1F
100
AcDbEntity
  8
0
  6
Continuous
 62
     7
100
AcDbBlockReference
 66
     1
  2
블럭10
 10
-13.9402729321252
 20
-52.04717430164393
 30
0.0
  0
ATTRIB
  5
D8
330
D7
100
AcDbEntity
  8
FORMAT
 62
     2
100
AcDbText
 10
-23.12156822086648
 20
-49.97180738881174
 30
0.0
 40
4.233333333333333
  1
E1003006 [ 2 FLUTE ]
 41
0.75
  7
SLDTEXTSTYLE0
 11
-23.12156822086648
 21
-52.08847405547841
 31
0.0
100
AcDbAttribute
  2
AUTOATTR0
 70
     0
 74
     1
  0
SEQEND
  5
D9
330
D7
100
AcDbEntity
  8
0
  6
Continuous
 62
     7
  0
HATCH
  5
DA
330
1F
100
AcDbEntity
  8
중심선
100
AcDbHatch
 10
0.0
 20
0.0
 30
0.0
210
0.0
220
0.0
230
1.0
  2
SOLID
 70
     1
 71
     0
 91
        1
 92
        0
 93
        4
 72
     1
 10
-8.225363627744358
 20
-35.8
 11
-11.67163887158164
 21
-35.8
 72
     1
 10
-11.67163887158164
 20
-35.8
 11
-13.79986873078566
 21
-38.3363255805726
 72
     1
 10
-13.79986873078567
 20
-38.3363255805726
 11
-10.35356040183524
 21
-38.3362861512701
 72
     1
 10
-10.35356040183524
 20
-38.3362861512701
 11
-8.225363627744358
 21
-35.8
 97
        0
 75
     0
 76
     1
 98
        1
 10
11.02546167873051
 20
-0.0010749287238931
  0
HATCH
  5
DB
330
1F
100
AcDbEntity
  8
중심선
100
AcDbHatch
 10
0.0
 20
0.0
 30
0.0
210
0.0
220
0.0
230
1.0
  2
SOLID
 70
     1
 71
     0
 91
        1
 92
        0
 93
        4
 72
     1
 10
-3.212599636708379
 20
-35.8
 11
-6.65887488054566
 21
-35.8
 72
     1
 10
-6.65887488054566
 20
-35.8
 11
-11.19001288890308
 21
-41.20000000000002
 72
     1
 10
-11.19001288890308
 20
-41.20000000000002
 11
-7.743737645065799
 21
-41.20000000000002
 72
     1
 10
-7.743737645065799
 20
-41.20000000000002
 11
-3.212599636708379
 21
-35.8
 97
        0
 75
     0
 76
     1
 98
        1
 10
11.02546167873051
 20
-0.0010749287238931
  0
HATCH
  5
DC
330
1F
100
AcDbEntity
  8
중심선
100
AcDbHatch
 10
0.0
 20
0.0
 30
0.0
210
0.0
220
0.0
230
1.0
  2
SOLID
 70
     1
 71
     0
 91
        1
 92
        0
 93
        4
 72
     1
 10
1.80016435432751
 20
-35.8
 11
-1.646110889509599
 21
-35.8
 72
     1
 10
-1.646110889509599
 20
-35.8
 11
-8.694547791398879
 21
-44.20000000000002
 72
     1
 10
-8.694547791398879
 20
-44.20000000000002
 11
-5.248272547561598
 21
-44.20000000000002
 72
     1
 10
-5.248272547561598
 20
-44.20000000000002
 11
1.800164354327521
 21
-35.8
 97
        0
 75
     0
 76
     1
 98
        1
 10
11.02546167873051
 20
-0.0010749287238931
  0
HATCH
  5
DD
330
1F
100
AcDbEntity
  8
중심선
100
AcDbHatch
 10
0.0
 20
0.0
 30
0.0
210
0.0
220
0.0
230
1.0
  2
SOLID
 70
     1
 71
     0
 91
        1
 92
        0
 93
        6
 72
     3
 10
6.600054785339687
 20
-40.00000000005127
 11
3.960054785062283
 21
1.540882976769353E-10
 40
0.3939339440162628
 50
17.09539180608439
 51
320.0019657685078
 73
     0
 72
     1
 10
8.283054441040282
 20
-38.58789400463831
 11
10.58835631474132
 21
-36.65356729459035
 72
     3
 10
6.60005478528684
 20
-40.00000000000014
 11
6.600054785286829
 21
-1.278976924368180E-13
 40
0.636358354079598
 50
39.9987384933743
 51
368.4976242363725
 73
     1
 72
     1
 10
13.02538727718745
 20
-39.03999999993002
 11
5.280122092122763
 21
-39.03999999993002
 72
     1
 10
5.280122092122763
 20
-39.03999999993002
 11
5.280097047676829
 21
-40.95999999992991
 72
     1
 10
5.280097047676829
 20
-40.95999999992991
 11
9.721476817148865
 21
-40.95999999992988
 97
        0
 75
     0
 76
     1
 98
        1
 10
11.02546167873051
 20
-0.0010749287238931
  0
DIMENSION
  5
DE
330
1F
100
AcDbEntity
  8
치수문자_일반주서
100
AcDbDimension
  2
_D
 10
-36.575
 20
-2.381250000000083
 30
0.0
 11
-36.57500000000006
 21
17.63124999999997
 31
0.0
 70
   160
  1
%%c<>
 71
     2
 42
4.762500000000001
 52
-270.0
  3
SLDDIMSTYLE0
100
AcDbAlignedDimension
 13
-15.98777700723832
 23
2.381249999999995
 33
0.0
 14
-15.98777700723831
 24
-2.381250000000006
 34
0.0
 50
90.0000000000002
100
AcDbRotatedDimension
1001
PE_URL
1000

1001
ACAD
1000
DSTYLE
1002
{
1070
   171
1070
     8
1070
   273
1070
     7
1070
    41
1040
2.5
1070
   140
1040
2.5
1002
}
  0
DIMENSION
  5
F3
330
1F
100
AcDbEntity
  8
치수문자_일반주서
100
AcDbDimension
  2
_D_1
 10
56.94512694097322
 20
1.189618701882903
 30
0.0
 11
56.94512694097317
 21
16.7521187018829
 31
0.0
 70
   160
  1
%%c<>
 71
     2
 42
2.37923740376559
 52
-270.0
  3
SLDDIMSTYLE0
100
AcDbAlignedDimension
 13
28.57500000000001
 23
-1.189618701882794
 33
0.0
 14
28.57500000000001
 24
1.189618701882796
 34
0.0
 50
90.0000000000002
100
AcDbRotatedDimension
1001
PE_URL
1000

1001
ACAD
1000
DSTYLE
1002
{
1070
   171
1070
     8
1070
   273
1070
     7
1070
    41
1040
2.5
1070
   140
1040
2.5
1002
}
  0
DIMENSION
  5
107
330
1F
100
AcDbEntity
  8
치수문자_일반주서
100
AcDbDimension
  2
_D_2
 10
21.43125000000001
 20
10.38125000000002
 30
0.0
 11
42.88750000000002
 21
10.38125000000002
 31
0.0
 70
   160
  1
<>
 71
     2
 42
7.143750000000001
  3
SLDDIMSTYLE0
100
AcDbAlignedDimension
 13
28.57500000000001
 23
1.189618701882796
 33
0.0
 14
21.43125000000001
 24
0.7981210398789852
 34
0.0
100
AcDbRotatedDimension
1001
PE_URL
1000

1001
ACAD
1000
DSTYLE
1002
{
1070
   171
1070
     8
1070
   273
1070
     7
1070
    41
1040
2.5
1070
   140
1040
2.5
1002
}
  0
DIMENSION
  5
11C
330
1F
100
AcDbEntity
  8
치수문자_일반주서
100
AcDbDimension
  2
_D_3
 10
28.57500000000001
 20
18.38125000000001
 30
0.0
 11
0.0000000000000178
 21
18.38125000000001
 31
0.0
 70
   160
  1
<>
 71
     2
 42
57.15000000000001
  3
SLDDIMSTYLE0
100
AcDbAlignedDimension
 13
-28.575
 23
1.189618701882781
 33
0.0
 14
28.57500000000001
 24
1.189618701882796
 34
0.0
100
AcDbRotatedDimension
1001
PE_URL
1000

1001
ACAD
1000
DSTYLE
1002
{
1070
   171
1070
     8
1070
   273
1070
     7
1070
    41
1040
2.5
1070
   140
1040
2.5
1002
}
  0
LINE
  5
130
330
1F
100
AcDbEntity
  8
참조1
100
AcDbLine
 10
79.53787503295504
 20
7.440000000000003
 30
0.0
 11
79.53787503295504
 21
-7.440000000000002
 31
0.0
  0
LINE
  5
131
330
1F
100
AcDbEntity
  8
참조1
100
AcDbLine
 10
92.23787503295505
 20
5.440000000000003
 30
0.0
 11
79.53787503295504
 21
5.440000000000003
 31
0.0
  0
SOLID
  5
132
330
1F
100
AcDbEntity
  8
참조1
100
AcDbTrace
 10
79.53787503295504
 20
5.440000000000003
 30
0.0
 11
85.88787503295504
 21
4.424000000000003
 31
0.0
 12
85.88787503295504
 22
6.456000000000003
 32
0.0
 13
85.88787503295504
 23
6.456000000000003
 33
0.0
  0
LINE
  5
133
330
1F
100
AcDbEntity
  8
참조1
100
AcDbLine
 10
92.23787503295505
 20
-5.440000000000002
 30
0.0
 11
79.53787503295504
 21
-5.440000000000002
 31
0.0
  0
SOLID
  5
134
330
1F
100
AcDbEntity
  8
참조1
100
AcDbTrace
 10
79.53787503295504
 20
-5.440000000000002
 30
0.0
 11
85.88787503295504
 21
-6.456000000000002
 31
0.0
 12
85.88787503295504
 22
-4.424000000000002
 32
0.0
 13
85.88787503295504
 23
-4.424000000000002
 33
0.0
  0
MTEXT
  5
135
330
1F
100
AcDbEntity
  8
참조1
100
AcDbMText
 10
88.92222516558104
 20
11.01029177718833
 30
0.0
 40
3.5
 41
0.0
 71
     1
 72
     1
  1
A
  7
SLDTEXTSTYLE0
 73
     1
 44
1.0
  0
MTEXT
  5
136
330
1F
100
AcDbEntity
  8
참조1
100
AcDbMText
 10
88.92222516558104
 20
0.1302917771883261
 30
0.0
 40
3.5
 41
0.0
 71
     1
 72
     1
  1
A
  7
SLDTEXTSTYLE0
 73
     1
 44
1.0
  0
INSERT
  5
13D
330
1F
100
AcDbEntity
  8
해칭선
100
AcDbBlockReference
  2
SW_DOWELSYMBOL_0
 10
0.0
 20
0.0
 30
0.0
  0
LINE
  5
221
330
1F
100
AcDbEntity
  8
외형선
  6
Continuous
370
    15
100
AcDbLine
 10
-15.98777700723832
 20
2.381249999999995
 30
0.0
 11
-20.43125
 21
1.19062499999999
 31
0.0
  0
LINE
  5
222
330
1F
100
AcDbEntity
  8
외형선
  6
Continuous
370
    15
100
AcDbLine
 10
-20.43125
 20
-1.190625000000009
 30
0.0
 11
-15.98777700723831
 21
-2.381250000000006
 31
0.0
  0
LINE
  5
223
330
1F
100
AcDbEntity
  8
외형선
  6
Continuous
370
    15
100
AcDbLine
 10
-20.5413444289927
 20
-1.190625000000009
 30
0.0
 11
-20.43125
 21
-1.190625000000009
 31
0.0
  0
LINE
  5
224
330
1F
100
AcDbEntity
  8
외형선
  6
Continuous
370
    15
100
AcDbLine
 10
-20.43125
 20
1.19062499999999
 30
0.0
 11
-20.5413444289927
 21
1.19062499999999
 31
0.0
  0
SPLINE
  5
225
330
1F
100
AcDbEntity
  8
외형선
  6
Continuous
370
    15
100
AcDbSpline
210
0.0
220
0.0
230
1.0
 70
     8
 71
     3
 72
     9
 73
     5
 74
     0
 42
0.000000001
 43
0.00000001
 40
0.0
 40
0.0
 40
0.0
 40
0.0
 40
0.4994481110184787
 40
1.0
 40
1.0
 40
1.0
 40
1.0
 10
-21.43125000000037
 20
-0.7981024299284696
 30
0.0
 10
-21.28266078382527
 20
-0.7912418504697116
 30
0.0
 10
-20.98515397001011
 20
-0.7775055297040419
 30
0.0
 10
-20.68940562845249
 20
-0.788211987323338
 30
0.0
 10
-20.54136823742267
 20
-0.7935711249089772
 30
0.0
  0
ARC
  5
226
330
1F
100
AcDbEntity
  8
외형선
  6
Continuous
370
    15
100
AcDbCircle
 10
-20.89134092736263
 20
1.133679212877004
 30
0.0
 40
0.3499964984117498
100
AcDbArc
 50
311.7973835652159
 51
359.9919087921989
  0
SPLINE
  5
227
330
1F
100
AcDbEntity
  8
0
  6
Continuous
 62
     1
370
    25
100
AcDbSpline
210
0.0
220
0.0
230
1.0
 70
     8
 71
     3
 72
     9
 73
     5
 74
     0
 42
0.000000001
 43
0.00000001
 40
0.0
 40
0.0
 40
0.0
 40
0.0
 40
0.5000233222159597
 40
1.0
 40
1.0
 40
1.0
 40
1.0
 10
-25.49111855064846
 20
-0.3050400615652131
 30
0.0
 10
-25.4357755091837
 20
-0.3313126519222551
 30
0.0
 10
-25.3250945889028
 20
-0.3838553818105496
 30
0.0
 10
-25.21449975753915
 20
-0.4415610946673866
 30
0.0
 10
-25.15920492117386
 20
-0.4704126052707076
 30
0.0
1001
PE_URL
1000

  0
LINE
  5
228
330
1F
100
AcDbEntity
  8
0
  6
Continuous
 62
     1
370
    25
100
AcDbLine
 10
-22.75848442897094
 20
-1.190625000000011
 30
0.0
 11
-22.18068323637334
 21
-1.190625000000011
 31
0.0
1001
PE_URL
1000

  0
SPLINE
  5
229
330
1F
100
AcDbEntity
  8
0
  6
Continuous
 62
     1
370
    25
100
AcDbSpline
210
0.0
220
0.0
230
1.0
 70
     8
 71
     3
 72
    12
 73
     8
 74
     0
 42
0.000000001
 43
0.00000001
 40
0.0
 40
0.0
 40
0.0
 40
0.0
 40
0.3623729486989415
 40
0.6398810760460217
 40
0.8261178868510748
 40
0.9526697945108734
 40
1.0
 40
1.0
 40
1.0
 40
1.0
 10
-25.09598494334631
 20
-0.9461102746419703
 30
0.0
 10
-24.97640925875436
 20
-0.9407614090075336
 30
0.0
 10
-24.76526155029445
 20
-0.9313163389213768
 30
0.0
 10
-24.49314296275289
 20
-0.9290143234811372
 30
0.0
 10
-24.29894288014496
 20
-0.9312311695503224
 30
0.0
 10
-24.18045570033741
 20
-0.9337070866610746
 30
0.0
 10
-24.12321458870803
 20
-0.9360668425589329
 30
0.0
 10
-24.10763372459969
 20
-0.9367091612513343
 30
0.0
1001
PE_URL
1000

  0
SPLINE
  5
22A
330
1F
100
AcDbEntity
  8
0
  6
Continuous
 62
     1
370
    25
100
AcDbSpline
210
0.0
220
0.0
230
1.0
 70
     8
 71
     3
 72
    10
 73
     6
 74
     0
 42
0.000000001
 43
0.00000001
 40
0.0
 40
0.0
 40
0.0
 40
0.0
 40
0.4515316116245875
 40
0.6538974085756039
 40
1.0
 40
1.0
 40
1.0
 40
1.0
 10
-23.30713445873083
 20
0.9907145584668628
 30
0.0
 10
-23.5775957097067
 20
0.9684269403767838
 30
0.0
 10
-23.96927130136001
 20
0.9361505385984226
 30
0.0
 10
-24.56138019183652
 20
0.9258968844168278
 30
0.0
 10
-24.88915050084433
 20
0.9382898703404889
 30
0.0
 10
-25.09598494334631
 20
0.9461102746419459
 30
0.0
1001
PE_URL
1000

  0
SPLINE
  5
22B
330
1F
100
AcDbEntity
  8
0
  6
Continuous
 62
     1
370
    25
100
AcDbSpline
210
0.0
220
0.0
230
1.0
 70
     8
 71
     3
 72
    12
 73
     8
 74
     0
 42
0.000000001
 43
0.00000001
 40
0.0
 40
0.0
 40
0.0
 40
0.0
 40
0.2655758427069357
 40
0.4640169112401762
 40
0.5999215872404776
 40
0.7940856931920163
 40
1.0
 40
1.0
 40
1.0
 40
1.0
 10
-26.05298772775933
 20
0.895454448034718
 30
0.0
 10
-26.13303469858316
 20
0.8834563103149515
 30
0.0
 10
-26.27289360960915
 20
0.8624930376444608
 30
0.0
 10
-26.45281125746923
 20
0.8402230468022813
 30
0.0
 10
-26.61149930152805
 20
0.8232825190349422
 30
0.0
 10
-26.77277085499217
 20
0.8085893710709675
 30
0.0
 10
-26.89307028050836
 20
0.8011860936447752
 30
0.0
 10
-26.95498657497602
 20
0.797375738747576
 30
0.0
1001
PE_URL
1000

  0
SPLINE
  5
22C
330
1F
100
AcDbEntity
  8
0
  6
Continuous
 62
     1
370
    25
100
AcDbSpline
210
0.0
220
0.0
230
1.0
 70
     8
 71
     3
 72
     9
 73
     5
 74
     0
 42
0.000000001
 43
0.00000001
 40
0.0
 40
0.0
 40
0.0
 40
0.0
 40
0.5020793503016383
 40
1.0
 40
1.0
 40
1.0
 40
1.0
 10
-21.75231993859644
 20
-0.8218624443748472
 30
0.0
 10
-21.69859111679706
 20
-0.817299921285535
 30
0.0
 10
-21.59157850660484
 20
-0.8082126662797824
 30
0.0
 10
-21.4845444613521
 20
-0.8014631523096207
 30
0.0
 10
-21.43125
 20
-0.7981024299284483
 30
0.0
1001
PE_URL
1000

  0
SPLINE
  5
22D
330
1F
100
AcDbEntity
  8
0
  6
Continuous
 62
     1
370
    25
100
AcDbSpline
210
0.0
220
0.0
230
1.0
 70
     8
 71
     3
 72
    18
 73
    14
 74
     0
 42
0.000000001
 43
0.00000001
 40
0.0
 40
0.0
 40
0.0
 40
0.0
 40
0.1378512508329152
 40
0.233012161733481
 40
0.3000752951083545
 40
0.3790981068557713
 40
0.4694469883874214
 40
0.5519402010075564
 40
0.6553541716972855
 40
0.7396244837001774
 40
0.7986092759359558
 40
0.884735857764924
 40
1.0
 40
1.0
 40
1.0
 40
1.0
 10
-28.1307742566419
 20
-0.8142104956863336
 30
0.0
 10
-28.03513021008756
 20
-0.8068886402660256
 30
0.0
 10
-27.87346155702924
 20
-0.7945123915988732
 30
0.0
 10
-27.66618419737018
 20
-0.7865864453851967
 30
0.0
 10
-27.49897045986635
 20
-0.7833843373919522
 30
0.0
 10
-27.33513080619045
 20
-0.7833495306712217
 30
0.0
 10
-27.16079723461132
 20
-0.7870846341952171
 30
0.0
 10
-26.96977808827895
 20
-0.7954902244994349
 30
0.0
 10
-26.78248335352117
 20
-0.8079724733168658
 30
0.0
 10
-26.6115031158105
 20
-0.8232389944991689
 30
0.0
 10
-26.45280994582162
 20
-0.8402380139299994
 30
0.0
 10
-26.272894136849
 20
-0.8624870213440283
 30
0.0
 10
-26.1330348905014
 20
-0.8834541203479629
 30
0.0
 10
-26.05298772775933
 20
-0.8954544480347424
 30
0.0
1001
PE_URL
1000

  0
LINE
  5
22E
330
1F
100
AcDbEntity
  8
0
  6
Continuous
 62
     1
370
    25
100
AcDbLine
 10
-22.18068323637334
 20
1.19062499999999
 30
0.0
 11
-22.75848442897094
 21
1.19062499999999
 31
0.0
1001
PE_URL
1000

  0
LINE
  5
22F
330
1F
100
AcDbEntity
  8
외형선
  6
Continuous
370
    15
100
AcDbLine
 10
-15.98777700723831
 20
-2.381250000000006
 30
0.0
 11
-15.98777700723832
 21
2.381249999999997
 31
0.0
  0
LINE
  5
230
330
1F
100
AcDbEntity
  8
외형선
  6
Continuous
370
    15
100
AcDbLine
 10
-20.43125
 20
-1.190625000000009
 30
0.0
 11
-20.43125
 21
1.19062499999999
 31
0.0
  0
SPLINE
  5
231
330
1F
100
AcDbEntity
  8
외형선
  6
Continuous
370
    15
100
AcDbSpline
210
0.0
220
0.0
230
1.0
 70
     8
 71
     3
 72
    10
 73
     6
 74
     0
 42
0.000000001
 43
0.00000001
 40
0.0
 40
0.0
 40
0.0
 40
0.0
 40
0.5
 40
0.5
 40
1.0
 40
1.0
 40
1.0
 40
1.0
 10
-21.43125
 20
-1.112864183541719
 30
0.0
 10
-21.28395597282356
 20
-1.082457125926188
 30
0.0
 10
-21.13560001364744
 20
-1.043329867586404
 30
0.0
 10
-20.83618394573467
 20
-0.9491343418814926
 30
0.0
 10
-20.68951084299918
 20
-0.8945829542895127
 30
0.0
 10
-20.5413444289927
 20
-0.8333694311170221
 30
0.0
  0
SPLINE
  5
232
330
1F
100
AcDbEntity
  8
외형선
  6
Continuous
370
    15
100
AcDbSpline
210
0.0
220
0.0
230
1.0
 70
     8
 71
     3
 72
    10
 73
     6
 74
     0
 42
0.000000001
 43
0.00000001
 40
0.0
 40
0.0
 40
0.0
 40
0.0
 40
0.5
 40
0.5
 40
1.0
 40
1.0
 40
1.0
 40
1.0
 10
-21.43125
 20
0.9526929221009548
 30
0.0
 10
-21.28397233675306
 20
0.9013923217681514
 30
0.0
 10
-21.135633357819
 20
0.8425672462400604
 30
0.0
 10
-20.8362503943008
 20
0.7123028434486989
 30
0.0
 10
-20.68959188061349
 20
0.6415486365737755
 30
0.0
 10
-20.54144319366527
 20
0.5661579771830623
 30
0.0
  0
LINE
  5
233
330
1F
100
AcDbEntity
  8
외형선
  6
Continuous
370
    15
100
AcDbLine
 10
-21.43125
 20
0.952692922100953
 30
0.0
 11
-21.43125
 21
1.112864183541701
 31
0.0
  0
SPLINE
  5
234
330
1F
100
AcDbEntity
  8
외형선
  6
Continuous
370
    15
100
AcDbSpline
210
0.0
220
0.0
230
1.0
 70
     8
 71
     3
 72
    10
 73
     6
 74
     0
 42
0.000000001
 43
0.00000001
 40
0.0
 40
0.0
 40
0.0
 40
0.0
 40
0.4999999999999999
 40
0.4999999999999999
 40
1.0
 40
1.0
 40
1.0
 40
1.0
 10
-21.43125
 20
1.112864183541699
 30
0.0
 10
-21.28581235500442
 20
1.082840353413476
 30
0.0
 10
-21.13938192137151
 20
1.044319941059264
 30
0.0
 10
-20.84372319897059
 20
0.9516983731149085
 30
0.0
 10
-20.69869720506329
 20
0.8980841575797813
 30
0.0
 10
-20.55254317937486
 20
0.837985240211417
 30
0.0
  0
SPLINE
  5
235
330
1F
100
AcDbEntity
  8
외형선
  6
Continuous
370
    15
100
AcDbSpline
210
0.0
220
0.0
230
1.0
 70
     8
 71
     3
 72
     8
 73
     4
 74
     0
 42
0.000000001
 43
0.00000001
 40
0.0
 40
0.0
 40
0.0
 40
0.0
 40
1.0
 40
1.0
 40
1.0
 40
1.0
 10
-20.5413444289927
 20
1.002589469351476
 30
0.0
 10
-20.5413444289927
 20
0.9551426733589479
 30
0.0
 10
-20.54241893067451
 20
0.9001658587262382
 30
0.0
 10
-20.55254317937506
 20
0.8379852402114063
 30
0.0
  0
LINE
  5
236
330
1F
100
AcDbEntity
  8
외형선
  6
Continuous
370
    15
100
AcDbLine
 10
-20.5413444289927
 20
1.19062499999999
 30
0.0
 11
-20.5413444289927
 21
1.002589469351541
 31
0.0
  0
LINE
  5
237
330
1F
100
AcDbEntity
  8
외형선
  6
Continuous
370
    15
100
AcDbLine
 10
-20.5413444289927
 20
0.5661130879173959
 30
0.0
 11
-20.5413444289927
 21
-1.190625000000009
 31
0.0
  0
SPLINE
  5
238
330
1F
100
AcDbEntity
  8
외형선
  6
Continuous
370
    15
100
AcDbSpline
210
0.0
220
0.0
230
1.0
 70
    24
 71
     3
 72
     8
 73
     4
 74
     0
 42
0.000000001
 43
0.00000001
 40
0.0
 40
0.0
 40
0.0
 40
0.0
 40
1.0
 40
1.0
 40
1.0
 40
1.0
 10
-21.43125000000151
 20
0.7717317115064193
 30
0.0
 10
-21.43125000000151
 20
0.8301453215546906
 30
0.0
 10
-21.43125000000151
 20
0.8908449451199909
 30
0.0
 10
-21.43125000000151
 20
0.9526929221008287
 30
0.0
  0
SPLINE
  5
239
330
1F
100
AcDbEntity
  8
외형선
  6
Continuous
370
    15
100
AcDbSpline
210
0.0
220
0.0
230
1.0
 70
     8
 71
     3
 72
    10
 73
     6
 74
     0
 42
0.000000001
 43
0.00000001
 40
0.0
 40
0.0
 40
0.0
 40
0.0
 40
0.5
 40
0.5
 40
1.0
 40
1.0
 40
1.0
 40
1.0
 10
-21.43125
 20
0.7717317115059379
 30
0.0
 10
-21.28397233675306
 20
0.7246992520006776
 30
0.0
 10
-21.135633357819
 20
0.6715583413934445
 30
0.0
 10
-20.8362503943008
 20
0.5552814263458734
 30
0.0
 10
-20.68959188061349
 20
0.4927530279973083
 30
0.0
 10
-20.54144319366527
 20
0.42669973363088
 30
0.0
  0
SPLINE
  5
23A
330
1F
100
AcDbEntity
  8
외형선
  6
Continuous
370
    15
100
AcDbSpline
210
0.0
220
0.0
230
1.0
 70
    24
 71
     3
 72
    10
 73
     6
 74
     0
 42
0.000000001
 43
0.00000001
 40
0.0
 40
0.0
 40
0.0
 40
0.0
 40
0.5
 40
0.5
 40
1.0
 40
1.0
 40
1.0
 40
1.0
 10
-21.43125000000003
 20
-0.3016997402232399
 30
0.0
 10
-21.43125000000003
 20
-0.1219537598744684
 30
0.0
 10
-21.43125000000003
 20
0.0748402021915136
 30
0.0
 10
-21.43125000000003
 20
0.4500576858240016
 30
0.0
 10
-21.43125000000003
 20
0.6268661246581433
 30
0.0
 10
-21.43125000000003
 20
0.7717317115059468
 30
0.0
  0
SPLINE
  5
23B
330
1F
100
AcDbEntity
  8
외형선
  6
Continuous
370
    15
100
AcDbSpline
210
0.0
220
0.0
230
1.0
 70
     8
 71
     3
 72
    10
 73
     6
 74
     0
 42
0.000000001
 43
0.00000001
 40
0.0
 40
0.0
 40
0.0
 40
0.0
 40
0.5
 40
0.5
 40
1.0
 40
1.0
 40
1.0
 40
1.0
 10
-21.43125000000004
 20
-0.3016997402232293
 30
0.0
 10
-21.28396195119202
 20
-0.3666065833697762
 30
0.0
 10
-21.13561219556088
 20
-0.4293263022806958
 30
0.0
 10
-20.83620822191346
 20
-0.547463483098072
 30
0.0
 10
-20.68954044925819
 20
-0.6023180437981475
 30
0.0
 10
-20.54138051159745
 20
-0.6522825069481539
 30
0.0
  0
SPLINE
  5
23C
330
1F
100
AcDbEntity
  8
외형선
  6
Continuous
370
    15
100
AcDbSpline
210
0.0
220
0.0
230
1.0
 70
    24
 71
     3
 72
    12
 73
     8
 74
     0
 42
0.000000001
 43
0.00000001
 40
0.0
 40
0.0
 40
0.0
 40
0.0
 40
0.0594026625508352
 40
0.2507244682556278
 40
0.4366542963499053
 40
0.6279761020546986
 40
1.0
 40
1.0
 40
1.0
 40
1.0
 10
-21.43125
 20
-0.7941688992191389
 30
0.0
 10
-21.43125
 20
-0.7951436095942499
 30
0.0
 10
-21.43125
 20
-0.7992576295726292
 30
0.0
 10
-21.43124999999999
 20
-0.7687857475143163
 30
0.0
 10
-21.43124999999999
 20
-0.7017953469976115
 30
0.0
 10
-21.43125
 20
-0.5677004683061779
 30
0.0
 10
-21.43125
 20
-0.4074960239050306
 30
0.0
 10
-21.43124999999999
 20
-0.3016997402232524
 30
0.0
  0
SPLINE
  5
23D
330
1F
100
AcDbEntity
  8
외형선
  6
Continuous
370
    15
100
AcDbSpline
210
0.0
220
0.0
230
1.0
 70
    24
 71
     3
 72
    10
 73
     6
 74
     0
 42
0.000000001
 43
0.00000001
 40
0.0
 40
0.0
 40
0.0
 40
0.0
 40
0.5
 40
0.5
 40
1.0
 40
1.0
 40
1.0
 40
1.0
 10
-21.43125000000012
 20
-1.112864183541715
 30
0.0
 10
-21.43125000000012
 20
-1.051473597414659
 30
0.0
 10
-21.43125000000012
 20
-0.989481456332516
 30
0.0
 10
-21.43125000000012
 20
-0.8782199600357943
 30
0.0
 10
-21.43125000000012
 20
-0.8292050892160547
 30
0.0
 10
-21.43125000000012
 20
-0.790524374235966
 30
0.0
  0
SPLINE
  5
23E
330
1F
100
AcDbEntity
  8
0
  6
Continuous
 62
     1
370
    25
100
AcDbSpline
210
0.0
220
0.0
230
1.0
 70
     8
 71
     3
 72
    16
 73
    12
 74
     0
 42
0.000000001
 43
0.00000001
 40
0.0
 40
0.0
 40
0.0
 40
0.0
 40
0.1147038268561944
 40
0.2293640756354615
 40
0.3439880973591002
 40
0.458583356758551
 40
0.5731574093086579
 40
0.6877178776534535
 40
0.7956954409696347
 40
0.9036944190117414
 40
1.0
 40
1.0
 40
1.0
 40
1.0
 10
-28.575
 20
1.129832722429216
 30
0.0
 10
-28.35255388562218
 20
1.077884023566405
 30
0.0
 10
-27.90774616820456
 20
0.9740063620994379
 30
0.0
 10
-27.24071297460302
 20
0.685837165647355
 30
0.0
 10
-26.57392938626353
 20
0.3350534271321293
 30
0.0
 10
-25.90734281284405
 20
-0.0527128547053032
 30
0.0
 10
-25.24092131090964
 20
-0.4341818273437139
 30
0.0
 10
-24.58728183382943
 20
-0.7651286705487388
 30
0.0
 10
-23.94662466094494
 20
-1.012276048986718
 30
0.0
 10
-23.34128229325068
 20
-1.165559603967613
 30
0.0
 10
-22.94519365612708
 20
-1.178971201766821
 30
0.0
 10
-22.75848442897094
 20
-1.185293193425567
 30
0.0
1001
PE_URL
1000

  0
SPLINE
  5
23F
330
1F
100
AcDbEntity
  8
0
  6
Continuous
 62
     1
370
    25
100
AcDbSpline
210
0.0
220
0.0
230
1.0
 70
     8
 71
     3
 72
    14
 73
    10
 74
     0
 42
0.000000001
 43
0.00000001
 40
0.0
 40
0.0
 40
0.0
 40
0.0
 40
0.162340769202279
 40
0.3240106866167269
 40
0.4860374517205399
 40
0.6486288751395383
 40
0.8103958789335284
 40
0.9722039724511498
 40
1.0
 40
1.0
 40
1.0
 40
1.0
 10
-28.575
 20
0.9393701022633929
 30
0.0
 10
-28.40727799280755
 20
0.9034407681491301
 30
0.0
 10
-28.07252706746578
 20
0.8317305731485212
 30
0.0
 10
-27.5709057297355
 20
0.6596223846981177
 30
0.0
 10
-27.06877008494937
 20
0.4528302689829416
 30
0.0
 10
-26.56603964854162
 20
0.2186817758746734
 30
0.0
 10
-26.0642154159878
 20
-0.0273514092408715
 30
0.0
 10
-25.70156050510726
 20
-0.2093407001634319
 30
0.0
 10
-25.50564514776574
 20
-0.2971937020148602
 30
0.0
 10
-25.47692389086859
 20
-0.3100729814628821
 30
0.0
1001
PE_URL
1000

  0
LINE
  5
240
330
1F
100
AcDbEntity
  8
0
  6
Continuous
 62
     1
370
    25
100
AcDbLine
 10
-28.575
 20
1.129832722429218
 30
0.0
 11
-28.575
 21
0.9393701022633929
 31
0.0
1001
PE_URL
1000

  0
SPLINE
  5
241
330
1F
100
AcDbEntity
  8
0
  6
Continuous
 62
     1
370
    25
100
AcDbSpline
210
0.0
220
0.0
230
1.0
 70
     8
 71
     3
 72
    38
 73
    34
 74
     0
 42
0.000000001
 43
0.00000001
 40
0.0
 40
0.0
 40
0.0
 40
0.0
 40
0.0625
 40
0.0625
 40
0.125
 40
0.125
 40
0.1875
 40
0.1875
 40
0.25
 40
0.25
 40
0.3125
 40
0.3125
 40
0.375
 40
0.375
 40
0.4375
 40
0.4375
 40
0.5
 40
0.5
 40
0.5625
 40
0.5625
 40
0.625
 40
0.625
 40
0.6875
 40
0.6875
 40
0.75
 40
0.75
 40
0.8125
 40
0.8125
 40
0.875
 40
0.875
 40
0.9375
 40
0.9375
 40
1.0
 40
1.0
 40
1.0
 40
1.0
 10
-28.575
 20
1.189618701882781
 30
0.0
 10
-28.42844642802714
 20
1.18610490843092
 30
0.0
 10
-28.27768777172684
 20
1.173251017928134
 30
0.0
 10
-27.97817847105886
 20
1.129364597070238
 30
0.0
 10
-27.83218453767433
 20
1.098630899496321
 30
0.0
 10
-27.53412803350565
 20
1.020170764738744
 30
0.0
 10
-27.38289529800018
 20
0.9723717609144507
 30
0.0
 10
-27.08654599686922
 20
0.863051439628139
 30
0.0
 10
-26.93928149566305
 20
0.8013631988110499
 30
0.0
 10
-26.63938477790132
 20
0.6656670726281979
 30
0.0
 10
-26.49135609362839
 20
0.5923485411789626
 30
0.0
 10
-26.19580058394405
 20
0.437782798090199
 30
0.0
 10
-26.04464388752188
 20
0.355866129182987
 30
0.0
 10
-25.74608056730137
 20
0.1884035368065258
 30
0.0
 10
-25.60029041313959
 20
0.1032076379473692
 30
0.0
 10
-25.301076256669
 20
-0.0689153951137748
 30
0.0
 10
-25.15013194507381
 20
-0.1553574666778467
 30
0.0
 10
-24.85602887527194
 20
-0.3230255040629523
 30
0.0
 10
-24.70643485594277
 20
-0.4054732097547135
 30
0.0
 10
-24.40671169687564
 20
-0.5628285489544653
 30
0.0
 10
-24.26035873854748
 20
-0.6371079827362001
 30
0.0
 10
-23.96288902401752
 20
-0.7754227781687779
 30
0.0
 10
-23.81162222340586
 20
-0.8393858218077914
 30
0.0
 10
-23.51455757238999
 20
-0.9524862303925639
 30
0.0
 10
-23.36790314975532
 20
-1.001837503052439
 30
0.0
 10
-23.06808806903711
 20
-1.084827738402222
 30
0.0
 10
-22.91914178211627
 20
-1.11800098287836
 30
0.0
 10
-22.62445779677135
 20
-1.16635905702063
 30
0.0
 10
-22.4734190423585
 20
-1.181770722155489
 30
0.0
 10
-22.17442933655886
 20
-1.193726317202644
 30
0.0
 10
-22.02868753257901
 20
-1.190414803265913
 30
0.0
 10
-21.72984953888895
 20
-1.165267497806193
 30
0.0
 10
-21.57876127670934
 20
-1.143316089676846
 30
0.0
 10
-21.43124999999999
 20
-1.112864183541722
 30
0.0
1001
PE_URL
1000

  0
SPLINE
  5
242
330
1F
100
AcDbEntity
  8
0
  6
Continuous
 62
     1
370
    25
100
AcDbSpline
210
0.0
220
0.0
230
1.0
 70
     8
 71
     3
 72
    14
 73
    10
 74
     0
 42
0.000000001
 43
0.00000001
 40
0.0
 40
0.0
 40
0.0
 40
0.0
 40
0.102035162977018
 40
0.2748583371506863
 40
0.4476692244311513
 40
0.6204784543198175
 40
0.793296661149001
 40
0.9374866618290917
 40
1.0
 40
1.0
 40
1.0
 40
1.0
 10
-25.62160140020302
 20
0.1141630162010173
 30
0.0
 10
-25.48989384031485
 20
0.0615192435901871
 30
0.0
 10
-25.13510515918943
 20
-0.0802904951212715
 30
0.0
 10
-24.55726410105788
 20
-0.3128644009990286
 30
0.0
 10
-23.88806469007488
 20
-0.5473967560747839
 30
0.0
 10
-23.21890171425285
 20
-0.7264525451360695
 30
0.0
 10
-22.58657537670578
 20
-0.8195087990477388
 30
0.0
 10
-22.0968990083893
 20
-0.8451675225899284
 30
0.0
 10
-21.83003854125942
 20
-0.8214455813528134
 30
0.0
 10
-21.74933186898762
 20
-0.8142713492244444
 30
0.0
1001
PE_URL
1000

  0
SPLINE
  5
243
330
1F
100
AcDbEntity
  8
외형선
  6
Continuous
370
    15
100
AcDbSpline
210
0.0
220
0.0
230
1.0
 70
    24
 71
     3
 72
    10
 73
     6
 74
     0
 42
0.000000001
 43
0.00000001
 40
0.0
 40
0.0
 40
0.0
 40
0.0
 40
0.4999999999999996
 40
0.4999999999999996
 40
1.0
 40
1.0
 40
1.0
 40
1.0
 10
-21.43125000000012
 20
-1.112864183541717
 30
0.0
 10
-21.43125000000012
 20
-1.051473597414661
 30
0.0
 10
-21.43125000000012
 20
-0.9894814563325178
 30
0.0
 10
-21.43125000000012
 20
-0.878219960035796
 30
0.0
 10
-21.43125000000012
 20
-0.8292050892160547
 30
0.0
 10
-21.43125000000012
 20
-0.790524374235966
 30
0.0
  0
LINE
  5
244
330
1F
100
AcDbEntity
  8
0
  6
Continuous
 62
     1
370
    25
100
AcDbLine
 10
-28.575
 20
1.189618701882781
 30
0.0
 11
-28.575
 21
1.129832722429218
 31
0.0
1001
PE_URL
1000

  0
SPLINE
  5
245
330
1F
100
AcDbEntity
  8
0
  6
Continuous
 62
     1
370
    25
100
AcDbSpline
210
0.0
220
0.0
230
1.0
 70
     8
 71
     3
 72
     8
 73
     4
 74
     0
 42
0.000000001
 43
0.00000001
 40
0.0
 40
0.0
 40
0.0
 40
0.0
 40
1.0
 40
1.0
 40
1.0
 40
1.0
 10
-27.83811867067987
 20
-0.3332246836425711
 30
0.0
 10
-27.79585961301168
 20
-0.3832476977117964
 30
0.0
 10
-27.75814615656604
 20
-0.4314055764532154
 30
0.0
 10
-27.72604480894124
 20
-0.4772607141681139
 30
0.0
1001
PE_URL
1000

  0
LINE
  5
246
330
1F
100
AcDbEntity
  8
0
  6
Continuous
 62
     1
370
    25
100
AcDbLine
 10
-27.74114158570375
 20
-0.4899284139927517
 30
0.0
 11
-28.575
 21
-0.0000000000000157
 31
0.0
1001
PE_URL
1000

  0
LINE
  5
247
330
1F
100
AcDbEntity
  8
0
  6
Continuous
 62
     1
370
    25
100
AcDbLine
 10
-28.575
 20
-0.0000000000000157
 30
0.0
 11
-28.575
 21
0.3181861326165303
 31
0.0
1001
PE_URL
1000

  0
SPLINE
  5
248
330
1F
100
AcDbEntity
  8
0
  6
Continuous
 62
     1
370
    25
100
AcDbSpline
210
0.0
220
0.0
230
1.0
 70
     8
 71
     3
 72
    10
 73
     6
 74
     0
 42
0.000000001
 43
0.00000001
 40
0.0
 40
0.0
 40
0.0
 40
0.0
 40
0.5
 40
0.5
 40
1.0
 40
1.0
 40
1.0
 40
1.0
 10
-28.575
 20
0.3181861326165303
 30
0.0
 10
-28.44744037202744
 20
0.2179006366655368
 30
0.0
 10
-28.32201330534631
 20
0.1135000420721027
 30
0.0
 10
-28.07552308936824
 20
-0.1037219838689098
 30
0.0
 10
-27.95330137272725
 20
-0.2176860461589453
 30
0.0
 10
-27.83811867067876
 20
-0.3332246836399563
 30
0.0
1001
PE_URL
1000

  0
SPLINE
  5
249
330
1F
100
AcDbEntity
  8
0
  6
Continuous
 62
     1
370
    25
100
AcDbSpline
210
0.0
220
0.0
230
1.0
 70
     8
 71
     3
 72
    13
 73
     9
 74
     0
 42
0.000000001
 43
0.00000001
 40
0.0
 40
0.0
 40
0.0
 40
0.0
 40
0.0973647919777861
 40
0.2804110297805358
 40
0.4641041576030947
 40
0.70814355320028
 40
0.9521370176034518
 40
1.0
 40
1.0
 40
1.0
 40
1.0
 10
-27.83811867067987
 20
-0.3332246836425711
 30
0.0
 10
-27.74915824238724
 20
-0.3711922438330004
 30
0.0
 10
-27.49295181704055
 20
-0.4805389844256564
 30
0.0
 10
-27.06871998548383
 20
-0.6416945204018452
 30
0.0
 10
-26.5100665474945
 20
-0.8137050704914388
 30
0.0
 10
-25.89586410780529
 20
-0.9283390965134186
 30
0.0
 10
-25.40582453232527
 20
-0.9721479658762247
 30
0.0
 10
-25.13895372766897
 20
-0.9430614665745016
 30
0.0
 10
-25.09518826432055
 20
-0.9382914276758549
 30
0.0
1001
PE_URL
1000

  0
SPLINE
  5
24A
330
1F
100
AcDbEntity
  8
0
  6
Continuous
 62
     1
370
    25
100
AcDbSpline
210
0.0
220
0.0
230
1.0
 70
    24
 71
     3
 72
    10
 73
     6
 74
     0
 42
0.000000001
 43
0.00000001
 40
0.0
 40
0.0
 40
0.0
 40
0.0
 40
0.5
 40
0.5
 40
1.0
 40
1.0
 40
1.0
 40
1.0
 10
-28.575
 20
0.9393701022633929
 30
0.0
 10
-28.575
 20
0.8673600600326419
 30
0.0
 10
-28.575
 20
0.7763726105261262
 30
0.0
 10
-28.575
 20
0.5648355469887643
 30
0.0
 10
-28.575
 20
0.4444691743829508
 30
0.0
 10
-28.575
 20
0.3181861326165694
 30
0.0
1001
PE_URL
1000

  0
SPLINE
  5
24B
330
1F
100
AcDbEntity
  8
0
  6
Continuous
 62
     1
370
    25
100
AcDbSpline
210
0.0
220
0.0
230
1.0
 70
     8
 71
     3
 72
    12
 73
     8
 74
     0
 42
0.000000001
 43
0.00000001
 40
0.0
 40
0.0
 40
0.0
 40
0.0
 40
0.1372832090466598
 40
0.404135489936425
 40
0.671711941187112
 40
0.9400283784304324
 40
1.0
 40
1.0
 40
1.0
 40
1.0
 10
-23.30810232097444
 20
0.9831868361323901
 30
0.0
 10
-23.22219151176544
 20
0.9931694770152577
 30
0.0
 10
-22.96928653371591
 20
1.022556460988558
 30
0.0
 10
-22.54933442968949
 20
1.006923210669118
 30
0.0
 10
-22.04717851198756
 20
0.9394788646602807
 30
0.0
 10
-21.67390236061692
 20
0.8473841653322334
 30
0.0
 10
-21.46873072818054
 20
0.7834171904802434
 30
0.0
 10
-21.43125
 20
0.7717317115059379
 30
0.0
1001
PE_URL
1000

  0
SPLINE
  5
24C
330
1F
100
AcDbEntity
  8
0
  6
Continuous
 62
     1
370
    25
100
AcDbSpline
210
0.0
220
0.0
230
1.0
 70
     8
 71
     3
 72
    15
 73
    11
 74
     0
 42
0.000000001
 43
0.00000001
 40
0.0
 40
0.0
 40
0.0
 40
0.0
 40
0.034795092745779
 40
0.1794949232978824
 40
0.3241760986364863
 40
0.4688472568180647
 40
0.6135170648761412
 40
0.7581941937525658
 40
0.8789118345322409
 40
1.0
 40
1.0
 40
1.0
 40
1.0
 10
-26.05676757885442
 20
0.8863532714106557
 30
0.0
 10
-26.0031162822935
 20
0.8973846256794025
 30
0.0
 10
-25.72634922691025
 20
0.9542912734876838
 30
0.0
 10
-25.22651238342418
 20
0.9633553055098896
 30
0.0
 10
-24.55726921085202
 20
0.9024348801210407
 30
0.0
 10
-23.88807154299534
 20
0.7398996480616093
 30
0.0
 10
-23.21891208751658
 20
0.5018999332795409
 30
0.0
 10
-22.58656824005436
 20
0.2275659885162685
 30
0.0
 10
-21.99093953241369
 20
-0.0507012139442471
 30
0.0
 10
-21.61800366358713
 20
-0.2179481393394142
 30
0.0
 10
-21.43125000000004
 20
-0.3016997402232293
 30
0.0
1001
PE_URL
1000

  0
SPLINE
  5
24D
330
1F
100
AcDbEntity
  8
외형선
  6
Continuous
370
    15
100
AcDbSpline
210
0.0
220
0.0
230
1.0
 70
    24
 71
     3
 72
    10
 73
     6
 74
     0
 42
0.000000001
 43
0.00000001
 40
0.0
 40
0.0
 40
0.0
 40
0.0
 40
0.5
 40
0.5
 40
1.0
 40
1.0
 40
1.0
 40
1.0
 10
-21.43125000000003
 20
-0.3016997402232399
 30
0.0
 10
-21.43125000000003
 20
-0.1219537598744666
 30
0.0
 10
-21.43125000000003
 20
0.0748402021915136
 30
0.0
 10
-21.43125000000003
 20
0.4500576858240016
 30
0.0
 10
-21.43125000000003
 20
0.6268661246581433
 30
0.0
 10
-21.43125000000003
 20
0.7717317115059468
 30
0.0
  0
SPLINE
  5
24E
330
1F
100
AcDbEntity
  8
외형선
  6
Continuous
370
    15
100
AcDbSpline
210
0.0
220
0.0
230
1.0
 70
    24
 71
     3
 72
    12
 73
     8
 74
     0
 42
0.000000001
 43
0.00000001
 40
0.0
 40
0.0
 40
0.0
 40
0.0
 40
0.0600226963016176
 40
0.2512183843021873
 40
0.437025649037942
 40
0.6282213370385114
 40
1.0
 40
1.0
 40
1.0
 40
1.0
 10
-21.43125
 20
-0.7941498991528755
 30
0.0
 10
-21.43125
 20
-0.7951387637026668
 30
0.0
 10
-21.43125
 20
-0.7992775473594997
 30
0.0
 10
-21.43125
 20
-0.7687952750987426
 30
0.0
 10
-21.43125
 20
-0.7017928085406913
 30
0.0
 10
-21.43124999999999
 20
-0.5677018494288963
 30
0.0
 10
-21.43124999999999
 20
-0.4074965732180044
 30
0.0
 10
-21.43124999999999
 20
-0.3016997402232524
 30
0.0
  0
SPLINE
  5
24F
330
1F
100
AcDbEntity
  8
0
  6
Continuous
 62
     1
370
    25
100
AcDbSpline
210
0.0
220
0.0
230
1.0
 70
    24
 71
     3
 72
     8
 73
     4
 74
     0
 42
0.000000001
 43
0.00000001
 40
0.0
 40
0.0
 40
0.0
 40
0.0
 40
1.0
 40
1.0
 40
1.0
 40
1.0
 10
-27.85032161587649
 20
-0.5815413370426279
 30
0.0
 10
-27.81100547470794
 20
-0.5485511774887823
 30
0.0
 10
-27.76939779872907
 20
-0.5136381919207567
 30
0.0
 10
-27.72604480893628
 20
-0.4772607141751874
 30
0.0
1001
PE_URL
1000

  0
LINE
  5
250
330
1F
100
AcDbEntity
  8
0
  6
Continuous
 62
     1
370
    25
100
AcDbLine
 10
-28.575
 20
-0.8334375000000145
 30
0.0
 11
-28.12826263280683
 21
-0.8043935180459536
 31
0.0
1001
PE_URL
1000

  0
SPLINE
  5
251
330
1F
100
AcDbEntity
  8
0
  6
Continuous
 62
     1
370
    25
100
AcDbSpline
210
0.0
220
0.0
230
1.0
 70
     8
 71
     3
 72
     8
 73
     4
 74
     0
 42
0.000000001
 43
0.00000001
 40
0.0
 40
0.0
 40
0.0
 40
0.0
 40
1.0
 40
1.0
 40
1.0
 40
1.0
 10
-28.575
 20
-0.8334375000000145
 30
0.0
 10
-28.33008565133288
 20
-0.7668707096745757
 30
0.0
 10
-28.08754529027892
 20
-0.6850608002371936
 30
0.0
 10
-27.85032161589075
 20
-0.5815413370488576
 30
0.0
1001
PE_URL
1000

  0
SPLINE
  5
252
330
1F
100
AcDbEntity
  8
0
  6
Continuous
 62
     1
370
    25
100
AcDbSpline
210
0.0
220
0.0
230
1.0
 70
     8
 71
     3
 72
    12
 73
     8
 74
     0
 42
0.000000001
 43
0.00000001
 40
0.0
 40
0.0
 40
0.0
 40
0.0
 40
0.0602444251507433
 40
0.2949352537339588
 40
0.5297566012296722
 40
0.7647912415800749
 40
1.0
 40
1.0
 40
1.0
 40
1.0
 10
-24.10786783734173
 20
0.9366194533417327
 30
0.0
 10
-24.05413018873518
 20
0.9578924735491816
 30
0.0
 10
-23.79104979603204
 20
1.062037605598706
 30
0.0
 10
-23.31849417191102
 20
1.161067243111983
 30
0.0
 10
-22.6899570790506
 20
1.20857989397962
 30
0.0
 10
-22.06082987872535
 20
1.144370449184622
 30
0.0
 10
-21.64116175672491
 20
1.016601200930131
 30
0.0
 10
-21.43125000000004
 20
0.9526929221009708
 30
0.0
1001
PE_URL
1000

  0
SPLINE
  5
253
330
1F
100
AcDbEntity
  8
외형선
  6
Continuous
370
    15
100
AcDbSpline
210
0.0
220
0.0
230
1.0
 70
    24
 71
     3
 72
     8
 73
     4
 74
     0
 42
0.000000001
 43
0.00000001
 40
0.0
 40
0.0
 40
0.0
 40
0.0
 40
1.0
 40
1.0
 40
1.0
 40
1.0
 10
-21.43125000000151
 20
0.7717317115064193
 30
0.0
 10
-21.43125000000151
 20
0.8301453215546906
 30
0.0
 10
-21.43125000000151
 20
0.8908449451199909
 30
0.0
 10
-21.43125000000151
 20
0.9526929221008287
 30
0.0
  0
SPLINE
  5
254
330
1F
100
AcDbEntity
  8
0
  6
Continuous
 62
     1
370
    25
100
AcDbSpline
210
0.0
220
0.0
230
1.0
 70
     8
 71
     3
 72
     9
 73
     5
 74
     0
 42
0.000000001
 43
0.00000001
 40
0.0
 40
0.0
 40
0.0
 40
0.0
 40
0.8904247368658865
 40
1.0
 40
1.0
 40
1.0
 40
1.0
 10
-21.43125
 20
1.112864183541701
 30
0.0
 10
-21.65368712477177
 20
1.15676993677655
 30
0.0
 10
-21.90349726094872
 20
1.206078712035185
 30
0.0
 10
-22.15330994570673
 20
1.186131504585582
 30
0.0
 10
-22.18068323637334
 20
1.183945784080502
 30
0.0
1001
PE_URL
1000

  0
SPLINE
  5
255
330
1F
100
AcDbEntity
  8
0
  6
Continuous
 62
     1
370
    25
100
AcDbSpline
210
0.0
220
0.0
230
1.0
 70
     8
 71
     3
 72
    10
 73
     6
 74
     0
 42
0.000000001
 43
0.00000001
 40
0.0
 40
0.0
 40
0.0
 40
0.0
 40
0.2233756543436591
 40
0.6114851772303548
 40
0.9999999999999999
 40
0.9999999999999999
 40
0.9999999999999999
 40
0.9999999999999999
 10
-26.95498657497602
 20
-0.7973757387476021
 30
0.0
 10
-27.07558559170284
 20
-0.8496562204497786
 30
0.0
 10
-27.40572233526914
 20
-0.9927727105313762
 30
0.0
 10
-27.94569213081666
 20
-1.140608761683644
 30
0.0
 10
-28.36515774090438
 20
-1.173276372359931
 30
0.0
 10
-28.575
 20
-1.189618701882809
 30
0.0
1001
PE_URL
1000

  0
LINE
  5
256
330
1F
100
AcDbEntity
  8
0
  6
Continuous
 62
     1
370
    25
100
AcDbLine
 10
-28.575
 20
-0.0000000000000157
 30
0.0
 11
-28.575
 21
-0.8334375000000145
 31
0.0
1001
PE_URL
1000

  0
SPLINE
  5
257
330
1F
100
AcDbEntity
  8
0
  6
Continuous
 62
     1
370
    25
100
AcDbSpline
210
0.0
220
0.0
230
1.0
 70
    24
 71
     3
 72
    10
 73
     6
 74
     0
 42
0.000000001
 43
0.00000001
 40
0.0
 40
0.0
 40
0.0
 40
0.0
 40
0.5
 40
0.5
 40
1.0
 40
1.0
 40
1.0
 40
1.0
 10
-28.575
 20
-0.8334375000000145
 30
0.0
 10
-28.575
 20
-0.8839584057612215
 30
0.0
 10
-28.575
 20
-0.9426683769949251
 30
0.0
 10
-28.575
 20
-1.065841738519033
 30
0.0
 10
-28.575
 20
-1.129990559501143
 30
0.0
 10
-28.575
 20
-1.189618701882809
 30
0.0
1001
PE_URL
1000

  0
ENDSEC
  0
SECTION
  2
OBJECTS
  0
DICTIONARY
  5
C
330
0
100
AcDbDictionary
281
     1
  3
ACAD_DETAILVIEWSTYLE
350
1C0
  3
ACAD_GROUP
350
D
  3
ACAD_LAYOUT
350
1A
  3
ACAD_MLINESTYLE
350
17
  3
ACAD_PLOTSETTINGS
350
19
  3
ACAD_PLOTSTYLENAME
350
E
  3
ACAD_SCALELIST
350
47
  3
ACAD_SECTIONVIEWSTYLE
350
1C1
  3
AcDbVariableDictionary
350
1BB
  3
APPDATA
350
15F
  3
DWGPROPS
350
27A
  0
DICTIONARY
  5
1C0
102
{ACAD_REACTORS
330
C
102
}
330
C
100
AcDbDictionary
281
     1
  0
DICTIONARY
  5
D
102
{ACAD_REACTORS
330
C
102
}
330
C
100
AcDbDictionary
281
     1
  0
DICTIONARY
  5
1A
102
{ACAD_REACTORS
330
C
102
}
330
C
100
AcDbDictionary
281
     1
  3
Layout1
350
1E
  3
Layout2
350
26
  3
Model
350
22
  0
DICTIONARY
  5
17
102
{ACAD_REACTORS
330
C
102
}
330
C
100
AcDbDictionary
281
     1
  3
Standard
350
18
  0
DICTIONARY
  5
19
102
{ACAD_REACTORS
330
C
102
}
330
C
100
AcDbDictionary
281
     1
  0
ACDBDICTIONARYWDFLT
  5
E
102
{ACAD_REACTORS
330
C
102
}
330
C
100
AcDbDictionary
281
     1
  3
Normal
350
F
100
AcDbDictionaryWithDefault
340
F
  0
DICTIONARY
  5
47
102
{ACAD_REACTORS
330
C
102
}
330
C
100
AcDbDictionary
281
     1
  3
A0
350
48
  3
A1
350
49
  3
A2
350
4A
  3
A3
350
4B
  3
A4
350
4C
  3
A5
350
4D
  3
A6
350
4E
  3
A7
350
4F
  3
A8
350
50
  3
A9
350
51
  3
B0
350
52
  3
B1
350
53
  3
B2
350
54
  3
B3
350
55
  3
B4
350
56
  3
B5
350
57
  3
B6
350
58
  3
B7
350
59
  3
B8
350
5A
  3
B9
350
5B
  3
C0
350
5C
  3
C1
350
5D
  3
C2
350
5E
  3
C3
350
5F
  3
C4
350
60
  3
C5
350
61
  3
C6
350
62
  3
C7
350
63
  3
C8
350
64
  3
C9
350
65
  3
D0
350
66
  3
D1
350
67
  3
D2
350
68
  0
DICTIONARY
  5
1C1
102
{ACAD_REACTORS
330
C
102
}
330
C
100
AcDbDictionary
281
     1
  0
DICTIONARY
  5
1BB
102
{ACAD_REACTORS
330
C
102
}
330
C
100
AcDbDictionary
281
     1
  0
DICTIONARY
  5
15F
102
{ACAD_REACTORS
330
C
102
}
330
C
100
AcDbDictionary
281
     1
  0
XRECORD
  5
27A
102
{ACAD_REACTORS
330
C
102
}
330
C
100
AcDbXrecord
280
     1
  1
DWGPROPS COOKIE
  2

  3

  4

  6

  7

  8
120170442
  9

300
=
301
=
302
=
303
=
304
=
305
=
306
=
307
=
308
=
309
=
 40
0.0
 41
2458313.015381609
 42
2458317.358503843
  1

 90
        0
  0
LAYOUT
  5
1E
102
{ACAD_REACTORS
330
1A
102
}
330
1A
100
AcDbPlotSettings
  1

  2
none_device
  4

  6

 40
0.0
 41
0.0
 42
0.0
 43
0.0
 44
0.0
 45
0.0
 46
0.0
 47
0.0
 48
0.0
 49
0.0
140
0.0
141
0.0
142
1.0
143
1.0
 70
   688
 72
     1
 73
     0
 74
     5
  7

 75
    16
147
1.0
148
0.0
149
0.0
100
AcDbLayout
  1
Layout1
 70
     1
 71
     1
 10
0.0
 20
0.0
 11
420.0
 21
297.0
 12
0.0
 22
0.0
 32
0.0
 14
1.000000000000000E+20
 24
1.000000000000000E+20
 34
1.000000000000000E+20
 15
-1.000000000000000E+20
 25
-1.000000000000000E+20
 35
-1.000000000000000E+20
146
0.0
 13
0.0
 23
0.0
 33
0.0
 16
1.0
 26
0.0
 36
0.0
 17
0.0
 27
1.0
 37
0.0
 76
     0
330
1B
  0
LAYOUT
  5
26
102
{ACAD_REACTORS
330
1A
102
}
330
1A
100
AcDbPlotSettings
  1

  2
none_device
  4

  6

 40
0.0
 41
0.0
 42
0.0
 43
0.0
 44
0.0
 45
0.0
 46
0.0
 47
0.0
 48
0.0
 49
0.0
140
0.0
141
0.0
142
1.0
143
1.0
 70
   688
 72
     1
 73
     0
 74
     5
  7

 75
    16
147
1.0
148
0.0
149
0.0
100
AcDbLayout
  1
Layout2
 70
     1
 71
     2
 10
0.0
 20
0.0
 11
0.0
 21
0.0
 12
0.0
 22
0.0
 32
0.0
 14
0.0
 24
0.0
 34
0.0
 15
0.0
 25
0.0
 35
0.0
146
0.0
 13
0.0
 23
0.0
 33
0.0
 16
1.0
 26
0.0
 36
0.0
 17
0.0
 27
1.0
 37
0.0
 76
     0
330
23
  0
LAYOUT
  5
22
102
{ACAD_REACTORS
330
1A
102
}
330
1A
100
AcDbPlotSettings
  1

  2
none_device
  4
ANSI_A_(11.00_x_8.50_Inches)
  6

 40
6.35
 41
19.05
 42
6.35000508
 43
19.05000254
 44
279.4
 45
215.9
 46
106.4866812876598
 47
92.01104950028697
 48
0.0
 49
0.0
140
0.0
141
0.0
142
0.0692089877599823
143
1.0
 70
  1696
 72
     0
 73
     0
 74
     0
  7

 75
     0
147
0.0235690232323232
148
0.0
149
0.0
100
AcDbLayout
  1
Model
 70
     1
 71
     0
 10
0.0
 20
0.0
 11
420.0
 21
297.0
 12
0.0
 22
0.0
 32
0.0
 14
-39.95000000000009
 24
-49.97180738881174
 34
0.0
 15
92.23787503295505
 25
27.88124999999997
 35
0.0
146
0.0
 13
0.0
 23
0.0
 33
0.0
 16
1.0
 26
0.0
 36
0.0
 17
0.0
 27
1.0
 37
0.0
 76
     0
330
1F
331
29
  0
MLINESTYLE
  5
18
102
{ACAD_REACTORS
330
17
102
}
330
17
100
AcDbMlineStyle
  2
Standard
 70
     0
  3

 62
   256
 51
90.0
 52
90.0
 71
     2
 49
0.5
 62
   256
  6
BYLAYER
 49
-0.5
 62
   256
  6
BYLAYER
  0
ACDBPLACEHOLDER
  5
F
102
{ACAD_REACTORS
330
E
102
}
330
E
  0
SCALE
  5
48
102
{ACAD_REACTORS
330
47
102
}
330
47
100
AcDbScale
 70
     0
300
1:1
140
1.0
141
1.0
290
     1
  0
SCALE
  5
49
102
{ACAD_REACTORS
330
47
102
}
330
47
100
AcDbScale
 70
     0
300
1:2
140
1.0
141
2.0
290
     0
  0
SCALE
  5
4A
102
{ACAD_REACTORS
330
47
102
}
330
47
100
AcDbScale
 70
     0
300
1:4
140
1.0
141
4.0
290
     0
  0
SCALE
  5
4B
102
{ACAD_REACTORS
330
47
102
}
330
47
100
AcDbScale
 70
     0
300
1:5
140
1.0
141
5.0
290
     0
  0
SCALE
  5
4C
102
{ACAD_REACTORS
330
47
102
}
330
47
100
AcDbScale
 70
     0
300
1:8
140
1.0
141
8.0
290
     0
  0
SCALE
  5
4D
102
{ACAD_REACTORS
330
47
102
}
330
47
100
AcDbScale
 70
     0
300
1:10
140
1.0
141
10.0
290
     0
  0
SCALE
  5
4E
102
{ACAD_REACTORS
330
47
102
}
330
47
100
AcDbScale
 70
     0
300
1:16
140
1.0
141
16.0
290
     0
  0
SCALE
  5
4F
102
{ACAD_REACTORS
330
47
102
}
330
47
100
AcDbScale
 70
     0
300
1:20
140
1.0
141
20.0
290
     0
  0
SCALE
  5
50
102
{ACAD_REACTORS
330
47
102
}
330
47
100
AcDbScale
 70
     0
300
1:30
140
1.0
141
30.0
290
     0
  0
SCALE
  5
51
102
{ACAD_REACTORS
330
47
102
}
330
47
100
AcDbScale
 70
     0
300
1:40
140
1.0
141
40.0
290
     0
  0
SCALE
  5
52
102
{ACAD_REACTORS
330
47
102
}
330
47
100
AcDbScale
 70
     0
300
1:50
140
1.0
141
50.0
290
     0
  0
SCALE
  5
53
102
{ACAD_REACTORS
330
47
102
}
330
47
100
AcDbScale
 70
     0
300
1:100
140
1.0
141
100.0
290
     0
  0
SCALE
  5
54
102
{ACAD_REACTORS
330
47
102
}
330
47
100
AcDbScale
 70
     0
300
2:1
140
2.0
141
1.0
290
     0
  0
SCALE
  5
55
102
{ACAD_REACTORS
330
47
102
}
330
47
100
AcDbScale
 70
     0
300
4:1
140
4.0
141
1.0
290
     0
  0
SCALE
  5
56
102
{ACAD_REACTORS
330
47
102
}
330
47
100
AcDbScale
 70
     0
300
8:1
140
8.0
141
1.0
290
     0
  0
SCALE
  5
57
102
{ACAD_REACTORS
330
47
102
}
330
47
100
AcDbScale
 70
     0
300
10:1
140
10.0
141
1.0
290
     0
  0
SCALE
  5
58
102
{ACAD_REACTORS
330
47
102
}
330
47
100
AcDbScale
 70
     0
300
100:1
140
100.0
141
1.0
290
     0
  0
SCALE
  5
59
102
{ACAD_REACTORS
330
47
102
}
330
47
100
AcDbScale
 70
     0
300
1/128" = 1'-0"
140
0.0078125
141
12.0
290
     0
  0
SCALE
  5
5A
102
{ACAD_REACTORS
330
47
102
}
330
47
100
AcDbScale
 70
     0
300
1/64" = 1'-0"
140
0.015625
141
12.0
290
     0
  0
SCALE
  5
5B
102
{ACAD_REACTORS
330
47
102
}
330
47
100
AcDbScale
 70
     0
300
1/32" = 1'-0"
140
0.03125
141
12.0
290
     0
  0
SCALE
  5
5C
102
{ACAD_REACTORS
330
47
102
}
330
47
100
AcDbScale
 70
     0
300
1/16" = 1'-0"
140
0.0625
141
12.0
290
     0
  0
SCALE
  5
5D
102
{ACAD_REACTORS
330
47
102
}
330
47
100
AcDbScale
 70
     0
300
3/32" = 1'-0"
140
0.09375
141
12.0
290
     0
  0
SCALE
  5
5E
102
{ACAD_REACTORS
330
47
102
}
330
47
100
AcDbScale
 70
     0
300
1/8" = 1'-0"
140
0.125
141
12.0
290
     0
  0
SCALE
  5
5F
102
{ACAD_REACTORS
330
47
102
}
330
47
100
AcDbScale
 70
     0
300
3/16" = 1'-0"
140
0.1875
141
12.0
290
     0
  0
SCALE
  5
60
102
{ACAD_REACTORS
330
47
102
}
330
47
100
AcDbScale
 70
     0
300
1/4" = 1'-0"
140
0.25
141
12.0
290
     0
  0
SCALE
  5
61
102
{ACAD_REACTORS
330
47
102
}
330
47
100
AcDbScale
 70
     0
300
3/8" = 1'-0"
140
0.375
141
12.0
290
     0
  0
SCALE
  5
62
102
{ACAD_REACTORS
330
47
102
}
330
47
100
AcDbScale
 70
     0
300
1/2" = 1'-0"
140
0.5
141
12.0
290
     0
  0
SCALE
  5
63
102
{ACAD_REACTORS
330
47
102
}
330
47
100
AcDbScale
 70
     0
300
3/4" = 1'-0"
140
0.75
141
12.0
290
     0
  0
SCALE
  5
64
102
{ACAD_REACTORS
330
47
102
}
330
47
100
AcDbScale
 70
     0
300
1" = 1'-0"
140
1.0
141
12.0
290
     0
  0
SCALE
  5
65
102
{ACAD_REACTORS
330
47
102
}
330
47
100
AcDbScale
 70
     0
300
1-1/2" = 1'-0"
140
1.5
141
12.0
290
     0
  0
SCALE
  5
66
102
{ACAD_REACTORS
330
47
102
}
330
47
100
AcDbScale
 70
     0
300
3" = 1'-0"
140
3.0
141
12.0
290
     0
  0
SCALE
  5
67
102
{ACAD_REACTORS
330
47
102
}
330
47
100
AcDbScale
 70
     0
300
6" = 1'-0"
140
6.0
141
12.0
290
     0
  0
SCALE
  5
68
102
{ACAD_REACTORS
330
47
102
}
330
47
100
AcDbScale
 70
     0
300
1'-0" = 1'-0"
140
12.0
141
12.0
290
     0
  0
ENDSEC
  0
EOF
