  0
SECTION
  2
HEADER
  9
$ACADVER
  1
AC1015
  9
$ACADMAINTVER
 70
     6
  9
$DWGCODEPAGE
  3
ANSI_949
  9
$INSBASE
 10
0.0
 20
0.0
 30
0.0
  9
$EXTMIN
 10
-39.9500000000001
 20
-49.97180738881174
 30
0.0
  9
$EXTMAX
 10
91.04725003295506
 20
27.88124999999997
 30
0.0
  9
$LIMMIN
 10
0.0
 20
0.0
  9
$LIMMAX
 10
420.0
 20
297.0
  9
$ORTHOMODE
 70
     1
  9
$REGENMODE
 70
     1
  9
$FILLMODE
 70
     1
  9
$QTEXTMODE
 70
     0
  9
$MIRRTEXT
 70
     1
  9
$LTSCALE
 40
1.0
  9
$ATTMODE
 70
     1
  9
$TEXTSIZE
 40
3.5
  9
$TRACEWID
 40
1.0
  9
$TEXTSTYLE
  7
Standard
  9
$CLAYER
  8
0
  9
$CELTYPE
  6
ByLayer
  9
$CECOLOR
 62
   256
  9
$CELTSCALE
 40
1.0
  9
$DISPSILH
 70
     0
  9
$DIMSCALE
 40
1.0
  9
$DIMASZ
 40
3.302
  9
$DIMEXO
 40
1.0
  9
$DIMDLI
 40
3.75
  9
$DIMRND
 40
0.0
  9
$DIMDLE
 40
0.0
  9
$DIMEXE
 40
1.0
  9
$DIMTP
 40
0.0
  9
$DIMTM
 40
0.0
  9
$DIMTXT
 40
3.5
  9
$DIMCEN
 40
2.5
  9
$DIMTSZ
 40
0.0
  9
$DIMTOL
 70
     0
  9
$DIMLIM
 70
     0
  9
$DIMTIH
 70
     1
  9
$DIMTOH
 70
     1
  9
$DIMSE1
 70
     0
  9
$DIMSE2
 70
     0
  9
$DIMTAD
 70
     1
  9
$DIMZIN
 70
     0
  9
$DIMBLK
  1

  9
$DIMASO
 70
     1
  9
$DIMSHO
 70
     1
  9
$DIMPOST
  1

  9
$DIMAPOST
  1

  9
$DIMALT
 70
     0
  9
$DIMALTD
 70
     3
  9
$DIMALTF
 40
0.0393700787401575
  9
$DIMLFAC
 40
1.0
  9
$DIMTOFL
 70
     1
  9
$DIMTVP
 40
0.0
  9
$DIMTIX
 70
     0
  9
$DIMSOXD
 70
     0
  9
$DIMSAH
 70
     0
  9
$DIMBLK1
  1

  9
$DIMBLK2
  1

  9
$DIMSTYLE
  2
ISO-25
  9
$DIMCLRD
 70
     0
  9
$DIMCLRE
 70
     0
  9
$DIMCLRT
 70
     0
  9
$DIMTFAC
 40
1.0
  9
$DIMGAP
 40
1.524
  9
$DIMJUST
 70
     0
  9
$DIMSD1
 70
     0
  9
$DIMSD2
 70
     0
  9
$DIMTOLJ
 70
     0
  9
$DIMTZIN
 70
     0
  9
$DIMALTZ
 70
     0
  9
$DIMALTTZ
 70
     0
  9
$DIMUPT
 70
     0
  9
$DIMDEC
 70
     2
  9
$DIMTDEC
 70
     2
  9
$DIMALTU
 70
     2
  9
$DIMALTTD
 70
     3
  9
$DIMTXSTY
  7
Standard
  9
$DIMAUNIT
 70
     0
  9
$DIMADEC
 70
     2
  9
$DIMALTRND
 40
0.0
  9
$DIMAZIN
 70
     0
  9
$DIMDSEP
 70
    44
  9
$DIMATFIT
 70
     3
  9
$DIMFRAC
 70
     0
  9
$DIMLDRBLK
  1

  9
$DIMLUNIT
 70
     2
  9
$DIMLWD
 70
    -2
  9
$DIMLWE
 70
    -2
  9
$DIMTMOVE
 70
     0
  9
$LUNITS
 70
     2
  9
$LUPREC
 70
     2
  9
$SKETCHINC
 40
1.0
  9
$FILLETRAD
 40
10.0
  9
$AUNITS
 70
     0
  9
$AUPREC
 70
     2
  9
$MENU
  1
.
  9
$ELEVATION
 40
0.0
  9
$PELEVATION
 40
0.0
  9
$THICKNESS
 40
0.0
  9
$LIMCHECK
 70
     0
  9
$CHAMFERA
 40
0.0
  9
$CHAMFERB
 40
0.0
  9
$CHAMFERC
 40
0.0
  9
$CHAMFERD
 40
0.0
  9
$SKPOLY
 70
     0
  9
$TDCREATE
 40
2458313.390593056
  9
$TDUCREATE
 40
2458313.015593056
  9
$TDUPDATE
 40
2458317.733157489
  9
$TDUUPDATE
 40
2458317.358157489
  9
$TDINDWG
 40
0.0030927662
  9
$TDUSRTIMER
 40
0.0012930671
  9
$USRTIMER
 70
     1
  9
$ANGBASE
 50
0.0
  9
$ANGDIR
 70
     0
  9
$PDMODE
 70
     0
  9
$PDSIZE
 40
-1.0
  9
$PLINEWID
 40
0.0
  9
$SPLFRAME
 70
     0
  9
$SPLINETYPE
 70
     6
  9
$SPLINESEGS
 70
     8
  9
$HANDSEED
  5
276
  9
$SURFTAB1
 70
     6
  9
$SURFTAB2
 70
     6
  9
$SURFTYPE
 70
     6
  9
$SURFU
 70
     6
  9
$SURFV
 70
     6
  9
$UCSBASE
  2

  9
$UCSNAME
  2

  9
$UCSORG
 10
0.0
 20
0.0
 30
0.0
  9
$UCSXDIR
 10
1.0
 20
0.0
 30
0.0
  9
$UCSYDIR
 10
0.0
 20
1.0
 30
0.0
  9
$UCSORTHOREF
  2

  9
$UCSORTHOVIEW
 70
     0
  9
$UCSORGTOP
 10
0.0
 20
0.0
 30
0.0
  9
$UCSORGBOTTOM
 10
0.0
 20
0.0
 30
0.0
  9
$UCSORGLEFT
 10
0.0
 20
0.0
 30
0.0
  9
$UCSORGRIGHT
 10
0.0
 20
0.0
 30
0.0
  9
$UCSORGFRONT
 10
0.0
 20
0.0
 30
0.0
  9
$UCSORGBACK
 10
0.0
 20
0.0
 30
0.0
  9
$PUCSBASE
  2

  9
$PUCSNAME
  2

  9
$PUCSORG
 10
0.0
 20
0.0
 30
0.0
  9
$PUCSXDIR
 10
1.0
 20
0.0
 30
0.0
  9
$PUCSYDIR
 10
0.0
 20
1.0
 30
0.0
  9
$PUCSORTHOREF
  2

  9
$PUCSORTHOVIEW
 70
     0
  9
$PUCSORGTOP
 10
0.0
 20
0.0
 30
0.0
  9
$PUCSORGBOTTOM
 10
0.0
 20
0.0
 30
0.0
  9
$PUCSORGLEFT
 10
0.0
 20
0.0
 30
0.0
  9
$PUCSORGRIGHT
 10
0.0
 20
0.0
 30
0.0
  9
$PUCSORGFRONT
 10
0.0
 20
0.0
 30
0.0
  9
$PUCSORGBACK
 10
0.0
 20
0.0
 30
0.0
  9
$USERI1
 70
     0
  9
$USERI2
 70
     0
  9
$USERI3
 70
     0
  9
$USERI4
 70
     0
  9
$USERI5
 70
     0
  9
$USERR1
 40
0.0
  9
$USERR2
 40
0.0
  9
$USERR3
 40
0.0
  9
$USERR4
 40
0.0
  9
$USERR5
 40
0.0
  9
$WORLDVIEW
 70
     1
  9
$SHADEDGE
 70
     3
  9
$SHADEDIF
 70
    70
  9
$TILEMODE
 70
     1
  9
$MAXACTVP
 70
    64
  9
$PINSBASE
 10
0.0
 20
0.0
 30
0.0
  9
$PLIMCHECK
 70
     0
  9
$PEXTMIN
 10
1.000000000000000E+20
 20
1.000000000000000E+20
 30
1.000000000000000E+20
  9
$PEXTMAX
 10
-1.000000000000000E+20
 20
-1.000000000000000E+20
 30
-1.000000000000000E+20
  9
$PLIMMIN
 10
0.0
 20
0.0
  9
$PLIMMAX
 10
0.0
 20
0.0
  9
$UNITMODE
 70
     0
  9
$VISRETAIN
 70
     1
  9
$PLINEGEN
 70
     0
  9
$PSLTSCALE
 70
     1
  9
$TREEDEPTH
 70
  3020
  9
$CMLSTYLE
  2
Standard
  9
$CMLJUST
 70
     0
  9
$CMLSCALE
 40
20.0
  9
$PROXYGRAPHICS
 70
     1
  9
$MEASUREMENT
 70
     1
  9
$CELWEIGHT
370
    -1
  9
$ENDCAPS
280
     0
  9
$JOINSTYLE
280
     0
  9
$LWDISPLAY
290
     1
  9
$INSUNITS
 70
     4
  9
$HYPERLINKBASE
  1

  9
$STYLESHEET
  1

  9
$XEDIT
290
     1
  9
$CEPSNTYPE
380
     0
  9
$PSTYLEMODE
290
     1
  9
$FINGERPRINTGUID
  2
{9008FF61-D12C-4B0E-A781-B8F4FBE57D42}
  9
$VERSIONGUID
  2
{FAEB1C32-E019-11D5-929B-00C0DF256EC4}
  9
$EXTNAMES
290
     1
  9
$PSVPSCALE
 40
0.0
  9
$OLESTARTUP
290
     0
  0
ENDSEC
  0
SECTION
  2
CLASSES
  0
CLASS
  1
ACDBDICTIONARYWDFLT
  2
AcDbDictionaryWithDefault
  3
ObjectDBX Classes
 90
        0
280
     0
281
     0
  0
CLASS
  1
VISUALSTYLE
  2
AcDbVisualStyle
  3
ObjectDBX Classes
 90
     4095
280
     0
281
     0
  0
CLASS
  1
MATERIAL
  2
AcDbMaterial
  3
ObjectDBX Classes
 90
     1153
280
     0
281
     0
  0
CLASS
  1
SCALE
  2
AcDbScale
  3
ObjectDBX Classes
 90
     1153
280
     0
281
     0
  0
CLASS
  1
SUN
  2
AcDbSun
  3
SCENEOE
 90
     1153
280
     0
281
     0
  0
CLASS
  1
ACDBPLACEHOLDER
  2
AcDbPlaceHolder
  3
ObjectDBX Classes
 90
        0
280
     0
281
     0
  0
CLASS
  1
LAYOUT
  2
AcDbLayout
  3
ObjectDBX Classes
 90
        0
280
     0
281
     0
  0
CLASS
  1
TABLESTYLE
  2
AcDbTableStyle
  3
ObjectDBX Classes
 90
     4095
280
     0
281
     0
  0
CLASS
  1
MLEADERSTYLE
  2
AcDbMLeaderStyle
  3
ACDB_MLEADERSTYLE_CLASS
 90
     4095
280
     0
281
     0
  0
ENDSEC
  0
SECTION
  2
TABLES
  0
TABLE
  2
VPORT
  5
8
330
0
100
AcDbSymbolTable
 70
     1
  0
VPORT
  5
29
330
8
100
AcDbSymbolTableRecord
100
AcDbViewportTableRecord
  2
*Active
 70
     0
 10
0.0
 20
0.0
 11
1.0
 21
1.0
 12
25.54862501647747
 22
-11.04527869440588
 13
0.0
 23
0.0
 14
10.0
 24
10.0
 15
10.0
 25
10.0
 16
0.0
 26
0.0
 36
1.0
 17
0.0
 27
0.0
 37
0.0
 40
79.41011853658796
 41
1.782762691853601
 42
50.0
 43
0.0
 44
0.0
 50
0.0
 51
0.0
 71
    16
 72
  2000
 73
     1
 74
     3
 75
     0
 76
     0
 77
     0
 78
     0
281
     0
 65
     1
110
0.0
120
0.0
130
0.0
111
1.0
121
0.0
131
0.0
112
0.0
122
1.0
132
0.0
 79
     0
146
0.0
  0
ENDTAB
  0
TABLE
  2
LTYPE
  5
5
330
0
100
AcDbSymbolTable
 70
     6
  0
LTYPE
  5
14
330
5
100
AcDbSymbolTableRecord
100
AcDbLinetypeTableRecord
  2
ByBlock
 70
     0
  3

 72
    65
 73
     0
 40
0.0
  0
LTYPE
  5
15
330
5
100
AcDbSymbolTableRecord
100
AcDbLinetypeTableRecord
  2
ByLayer
 70
     0
  3

 72
    65
 73
     0
 40
0.0
  0
LTYPE
  5
16
330
5
100
AcDbSymbolTableRecord
100
AcDbLinetypeTableRecord
  2
Continuous
 70
     0
  3
Solid line
 72
    65
 73
     0
 40
0.0
  0
LTYPE
  5
6A
330
5
100
AcDbSymbolTableRecord
100
AcDbLinetypeTableRecord
  2
HIDDEN
 70
     0
  3
Hidden __ __ __ __ __ __ __ __ __ __ __ __ __ __
 72
    65
 73
     2
 40
1.905
 49
1.27
 74
     0
 49
-0.635
 74
     0
  0
LTYPE
  5
6B
330
5
100
AcDbSymbolTableRecord
100
AcDbLinetypeTableRecord
  2
PHANTOM
 70
     0
  3
Phantom ______  __  __  ______  __  __  ______
 72
    65
 73
     6
 40
12.7
 49
6.35
 74
     0
 49
-1.27
 74
     0
 49
1.27
 74
     0
 49
-1.27
 74
     0
 49
1.27
 74
     0
 49
-1.27
 74
     0
  0
LTYPE
  5
6C
330
5
100
AcDbSymbolTableRecord
100
AcDbLinetypeTableRecord
  2
CENTER
 70
     0
  3
Center ____ _ ____ _ ____ _ ____ _ ____ _ ____
 72
    65
 73
     4
 40
10.16
 49
6.35
 74
     0
 49
-1.27
 74
     0
 49
1.27
 74
     0
 49
-1.27
 74
     0
  0
LTYPE
  5
6D
330
5
100
AcDbSymbolTableRecord
100
AcDbLinetypeTableRecord
  2
CENTERX2
 70
     0
  3
Center (2x) ________  __  ________  __  _____
 72
    65
 73
     4
 40
20.32
 49
12.7
 74
     0
 49
-2.54
 74
     0
 49
2.54
 74
     0
 49
-2.54
 74
     0
  0
LTYPE
  5
6E
330
5
100
AcDbSymbolTableRecord
100
AcDbLinetypeTableRecord
  2
DOT2
 70
     0
  3
Dot (.5x) ........................................
 72
    65
 73
     2
 40
0.635
 49
0.0
 74
     0
 49
-0.635
 74
     0
  0
ENDTAB
  0
TABLE
  2
LAYER
  5
2
330
0
100
AcDbSymbolTable
 70
    18
  0
LAYER
  5
10
330
2
100
AcDbSymbolTableRecord
100
AcDbLayerTableRecord
  2
0
 70
     0
 62
     7
  6
Continuous
370
    -3
390
F
  0
LAYER
  5
6F
330
2
100
AcDbSymbolTableRecord
100
AcDbLayerTableRecord
  2
FORMAT
 70
     0
 62
     2
  6
Continuous
370
    -3
390
F
  0
LAYER
  5
70
330
2
100
AcDbSymbolTableRecord
100
AcDbLayerTableRecord
  2
외형선
 70
     0
 62
     4
  6
Continuous
370
    30
390
F
  0
LAYER
  5
71
330
2
100
AcDbSymbolTableRecord
100
AcDbLayerTableRecord
  2
숨은선
 70
     0
 62
     2
  6
HIDDEN
370
    15
390
F
  0
LAYER
  5
72
330
2
100
AcDbSymbolTableRecord
100
AcDbLayerTableRecord
  2
중심선
 70
     0
 62
     1
  6
CENTERX2
370
    -3
390
F
  0
LAYER
  5
73
330
2
100
AcDbSymbolTableRecord
100
AcDbLayerTableRecord
  2
파단선
 70
     0
 62
     4
  6
Continuous
370
    -3
390
F
  0
LAYER
  5
74
330
2
100
AcDbSymbolTableRecord
100
AcDbLayerTableRecord
  2
해칭선
 70
     0
 62
   100
  6
Continuous
370
    -3
390
F
  0
LAYER
  5
75
330
2
100
AcDbSymbolTableRecord
100
AcDbLayerTableRecord
  2
가는실선
 70
     0
 62
     4
  6
Continuous
370
    -3
390
F
  0
LAYER
  5
76
330
2
100
AcDbSymbolTableRecord
100
AcDbLayerTableRecord
  2
치수_보조선
 70
     0
 62
     4
  6
Continuous
370
    -3
390
F
  0
LAYER
  5
77
330
2
100
AcDbSymbolTableRecord
100
AcDbLayerTableRecord
  2
치수문자_일반주서
 70
     0
 62
     7
  6
Continuous
370
    15
390
F
  0
LAYER
  5
78
330
2
100
AcDbSymbolTableRecord
100
AcDbLayerTableRecord
  2
개별주서
 70
     0
 62
   100
  6
Continuous
370
    30
390
F
  0
LAYER
  5
79
330
2
100
AcDbSymbolTableRecord
100
AcDbLayerTableRecord
  2
중간선
 70
     0
 62
     2
  6
Continuous
370
    15
390
F
  0
LAYER
  5
7A
330
2
100
AcDbSymbolTableRecord
100
AcDbLayerTableRecord
  2
윤곽선
 70
     0
 62
     3
  6
Continuous
370
    40
390
F
  0
LAYER
  5
7B
330
2
100
AcDbSymbolTableRecord
100
AcDbLayerTableRecord
  2
중심마크
 70
     0
 62
   100
  6
Continuous
370
    30
390
F
  0
LAYER
  5
7C
330
2
100
AcDbSymbolTableRecord
100
AcDbLayerTableRecord
  2
가상선
 70
     0
 62
     4
  6
PHANTOM
370
    -3
390
F
  0
LAYER
  5
7D
330
2
100
AcDbSymbolTableRecord
100
AcDbLayerTableRecord
  2
특수지정선
 70
     0
 62
     5
  6
CENTERX2
370
    60
390
F
  0
LAYER
  5
7E
330
2
100
AcDbSymbolTableRecord
100
AcDbLayerTableRecord
  2
참조1
 70
     0
 62
    -4
  6
Continuous
370
    -3
390
F
  0
LAYER
  5
161
330
2
100
AcDbSymbolTableRecord
100
AcDbLayerTableRecord
  2
Defpoints
 70
     0
 62
     7
  6
Continuous
290
     0
370
    -3
390
F
  0
ENDTAB
  0
TABLE
  2
STYLE
  5
3
330
0
100
AcDbSymbolTable
 70
     2
  0
STYLE
  5
11
330
3
100
AcDbSymbolTableRecord
100
AcDbTextStyleTableRecord
  2
Standard
 70
     0
 40
0.0
 41
1.0
 50
0.0
 71
     0
 42
3.5
  3
txt
  4

  0
STYLE
  5
94
330
3
100
AcDbSymbolTableRecord
100
AcDbTextStyleTableRecord
  2
SLDTEXTSTYLE0
 70
     0
 40
0.0
 41
0.75
 50
0.0
 71
     0
 42
3.5
  3
TXT
  4

  0
ENDTAB
  0
TABLE
  2
VIEW
  5
6
330
0
100
AcDbSymbolTable
 70
     0
  0
ENDTAB
  0
TABLE
  2
UCS
  5
7
330
0
100
AcDbSymbolTable
 70
     0
  0
ENDTAB
  0
TABLE
  2
APPID
  5
9
330
0
100
AcDbSymbolTable
 70
     2
  0
APPID
  5
12
330
9
100
AcDbSymbolTableRecord
100
AcDbRegAppTableRecord
  2
ACAD
 70
     0
  0
APPID
  5
168
330
9
100
AcDbSymbolTableRecord
100
AcDbRegAppTableRecord
  2
PE_URL
 70
     0
  0
ENDTAB
  0
TABLE
  2
DIMSTYLE
  5
A
330
0
100
AcDbSymbolTable
 70
     3
100
AcDbDimStyleTable
  0
DIMSTYLE
105
27
330
A
100
AcDbSymbolTableRecord
100
AcDbDimStyleTableRecord
  2
ISO-25
 70
     0
 41
2.5
 42
0.625
 43
3.75
 44
1.25
 73
     0
 74
     0
 77
     1
 78
     8
140
2.5
141
2.5
143
0.03937007874016
147
0.625
171
     3
172
     1
178
     0
271
     2
272
     2
274
     3
278
    44
283
     0
284
     8
340
11
  0
DIMSTYLE
105
E0
102
{ACAD_REACTORS
330
DF
330
F4
330
108
330
11D
102
}
330
A
100
AcDbSymbolTableRecord
100
AcDbDimStyleTableRecord
  2
SLDDIMSTYLE0
 70
     0
 41
3.302
 44
0.0
 45
0.000000001
 73
     0
 74
     0
 77
     1
 78
    12
 79
     3
140
3.5
143
0.0393700787401575
147
0.875
148
0.000000001
170
     1
172
     1
173
     1
178
     0
271
     2
272
     2
276
     2
284
    12
289
     0
340
94
  0
DIMSTYLE
105
109
330
A
100
AcDbSymbolTableRecord
100
AcDbDimStyleTableRecord
  2
SLDDIMSTYLE1
 70
     0
 41
3.302
 44
0.0
 45
0.000000001
 73
     0
 74
     0
 77
     1
 78
    12
 79
     3
140
3.5
143
0.0393700787401575
147
0.875
148
0.000000001
170
     1
173
     1
178
     0
271
     2
272
     2
276
     2
284
    12
340
94
  0
ENDTAB
  0
TABLE
  2
BLOCK_RECORD
  5
1
330
0
100
AcDbSymbolTable
 70
     9
  0
BLOCK_RECORD
  5
1F
330
1
100
AcDbSymbolTableRecord
100
AcDbBlockTableRecord
  2
*Model_Space
340
22
  0
BLOCK_RECORD
  5
1B
330
1
100
AcDbSymbolTableRecord
100
AcDbBlockTableRecord
  2
*Paper_Space
340
1E
  0
BLOCK_RECORD
  5
23
330
1
100
AcDbSymbolTableRecord
100
AcDbBlockTableRecord
  2
*Paper_Space0
340
26
  0
BLOCK_RECORD
  5
7F
330
1
100
AcDbSymbolTableRecord
100
AcDbBlockTableRecord
  2
블럭10
340
0
102
{BLKREFS
331
D8
102
}
  0
BLOCK_RECORD
  5
E1
330
1
100
AcDbSymbolTableRecord
100
AcDbBlockTableRecord
  2
_D
340
0
  0
BLOCK_RECORD
  5
F5
330
1
100
AcDbSymbolTableRecord
100
AcDbBlockTableRecord
  2
_D_1
340
0
  0
BLOCK_RECORD
  5
10A
330
1
100
AcDbSymbolTableRecord
100
AcDbBlockTableRecord
  2
_D_2
340
0
  0
BLOCK_RECORD
  5
11E
330
1
100
AcDbSymbolTableRecord
100
AcDbBlockTableRecord
  2
_D_3
340
0
  0
BLOCK_RECORD
  5
137
330
1
100
AcDbSymbolTableRecord
100
AcDbBlockTableRecord
  2
SW_DOWELSYMBOL_0
340
0
102
{BLKREFS
331
13D
102
}
  0
BLOCK_RECORD
  5
19A
330
1
100
AcDbSymbolTableRecord
100
AcDbBlockTableRecord
  2
*D7
340
0
  0
BLOCK_RECORD
  5
1AC
330
1
100
AcDbSymbolTableRecord
100
AcDbBlockTableRecord
  2
*D8
340
0
  0
ENDTAB
  0
ENDSEC
  0
SECTION
  2
BLOCKS
  0
BLOCK
  5
20
330
1F
100
AcDbEntity
  8
0
100
AcDbBlockBegin
  2
*Model_Space
 70
     0
 10
0.0
 20
0.0
 30
0.0
  3
*Model_Space
  1

  0
ENDBLK
  5
21
330
1F
100
AcDbEntity
  8
0
100
AcDbBlockEnd
  0
BLOCK
  5
1C
330
1B
100
AcDbEntity
 67
     1
  8
0
100
AcDbBlockBegin
  2
*Paper_Space
 70
     0
 10
0.0
 20
0.0
 30
0.0
  3
*Paper_Space
  1

  0
ENDBLK
  5
1D
330
1B
100
AcDbEntity
 67
     1
  8
0
100
AcDbBlockEnd
  0
BLOCK
  5
24
330
23
100
AcDbEntity
  8
0
100
AcDbBlockBegin
  2
*Paper_Space0
 70
     0
 10
0.0
 20
0.0
 30
0.0
  3
*Paper_Space0
  1

  0
ENDBLK
  5
25
330
23
100
AcDbEntity
  8
0
100
AcDbBlockEnd
  0
BLOCK
  5
80
330
7F
100
AcDbEntity
  8
0
100
AcDbBlockBegin
  2
블럭10
 70
     2
 10
0.0
 20
0.0
 30
0.0
  3
블럭10
  1

  0
ELLIPSE
  5
82
330
7F
100
AcDbEntity
  8
중심선
100
AcDbEllipse
 10
20.54032771741204
 20
12.0471743016438
 30
0.0
 11
6.600054785286829
 21
-1.261213355974178E-13
 31
0.0
210
0.0
220
0.0
230
1.0
 40
0.636358354079598
 41
0.9219305317359503
 42
6.513795318482858
  0
ELLIPSE
  5
83
330
7F
100
AcDbEntity
  8
중심선
100
AcDbEllipse
 10
20.54032771746488
 20
12.04717430159265
 30
0.0
 11
3.960054785062283
 21
1.540847449632565E-10
 31
0.0
210
0.0
220
0.0
230
1.0
 40
0.3939339440162632
 41
1.131841032648279
 42
5.62031148352944
  0
LINE
  5
84
330
7F
100
AcDbEntity
  8
중심선
100
AcDbLine
 10
2.268634060543552
 20
16.24717430164393
 30
0.0
 11
5.714909304380834
 21
16.24717430164393
 31
0.0
  0
LINE
  5
85
330
7F
100
AcDbEntity
  8
중심선
100
AcDbLine
 10
5.245725140726316
 20
7.84717430164391
 30
0.0
 11
8.692000384563599
 21
7.84717430164391
 31
0.0
  0
LINE
  5
86
330
7F
100
AcDbEntity
  8
중심선
100
AcDbLine
 10
15.74043728645272
 20
16.24717430164393
 30
0.0
 11
8.692000384563599
 21
7.84717430164391
 31
0.0
  0
LINE
  5
87
330
7F
100
AcDbEntity
  8
중심선
100
AcDbLine
 10
0.1404042013395286
 20
13.71084872107135
 30
0.0
 11
3.58671253028996
 21
13.71088815037384
 31
0.0
  0
LINE
  5
88
330
7F
100
AcDbEntity
  8
중심선
100
AcDbLine
 10
2.750260043222114
 20
10.84717430164391
 30
0.0
 11
6.196535287059397
 21
10.84717430164391
 31
0.0
  0
LINE
  5
89
330
7F
100
AcDbEntity
  8
중심선
100
AcDbLine
 10
12.29416204261559
 20
16.24717430164393
 30
0.0
 11
5.245725140726316
 21
7.84717430164391
 31
0.0
  0
LINE
  5
8A
330
7F
100
AcDbEntity
  8
중심선
100
AcDbLine
 10
10.72767329541681
 20
16.24717430164393
 30
0.0
 11
6.196535287059397
 21
10.84717430164391
 31
0.0
  0
LINE
  5
8B
330
7F
100
AcDbEntity
  8
중심선
100
AcDbLine
 10
7.28139805157953
 20
16.24717430164393
 30
0.0
 11
2.750260043222114
 21
10.84717430164391
 31
0.0
  0
LINE
  5
8C
330
7F
100
AcDbEntity
  8
중심선
100
AcDbLine
 10
5.714909304380834
 20
16.24717430164393
 30
0.0
 11
3.58671253028996
 21
13.71088815037384
 31
0.0
  0
LINE
  5
8D
330
7F
100
AcDbEntity
  8
중심선
100
AcDbLine
 10
2.268634060543552
 20
16.24717430164393
 30
0.0
 11
0.1404042013395286
 21
13.71084872107135
 31
0.0
  0
LINE
  5
8E
330
7F
100
AcDbEntity
  8
중심선
100
AcDbLine
 10
7.28139805157953
 20
16.24717430164393
 30
0.0
 11
10.72767329541681
 21
16.24717430164393
 31
0.0
  0
LINE
  5
8F
330
7F
100
AcDbEntity
  8
중심선
100
AcDbLine
 10
12.29416204261559
 20
16.24717430164393
 30
0.0
 11
15.74043728645272
 21
16.24717430164393
 31
0.0
  0
LINE
  5
90
330
7F
100
AcDbEntity
  8
중심선
100
AcDbLine
 10
19.22036997980202
 20
11.08717430171403
 30
0.0
 11
23.66174974927406
 21
11.08717430171406
 31
0.0
  0
LINE
  5
91
330
7F
100
AcDbEntity
  8
중심선
100
AcDbLine
 10
19.22039502424796
 20
13.00717430171391
 30
0.0
 11
19.22036997980202
 21
11.08717430171403
 31
0.0
  0
LINE
  5
92
330
7F
100
AcDbEntity
  8
중심선
100
AcDbLine
 10
19.22039502424796
 20
13.00717430171391
 30
0.0
 11
26.96566020931264
 21
13.00717430171391
 31
0.0
  0
LINE
  5
93
330
7F
100
AcDbEntity
  8
중심선
100
AcDbLine
 10
22.22332737316547
 20
13.45928029700563
 30
0.0
 11
24.52862924686651
 21
15.39360700705356
 31
0.0
  0
ATTDEF
  5
95
330
7F
100
AcDbEntity
  8
FORMAT
 62
     2
100
AcDbText
 10
4.408487351596664
 20
2.075366912832191
 30
0.0
 40
4.233333333333333
  1
E1003007
 41
0.75
  7
SLDTEXTSTYLE0
 11
4.408487351596664
 21
-0.0412997538344756
 31
0.0
100
AcDbAttributeDefinition
  3

  2
AUTOATTR0
 70
     0
 74
     1
  0
ENDBLK
  5
81
330
7F
100
AcDbEntity
  8
0
100
AcDbBlockEnd
  0
BLOCK
  5
E2
330
E1
100
AcDbEntity
  8
0
100
AcDbBlockBegin
  2
_D
 70
     0
 10
0.0
 20
0.0
 30
0.0
  3
_D
  1

  0
LINE
  5
E4
330
E1
100
AcDbEntity
  8
치수문자_일반주서
 62
     0
370
    -2
100
AcDbLine
 10
-15.60023083936528
 20
2.381249999999999
 30
0.0
 11
-36.57500000000003
 21
2.381249999999921
 31
0.0
  0
LINE
  5
E5
330
E1
100
AcDbEntity
  8
치수문자_일반주서
 62
     0
370
    -2
100
AcDbLine
 10
-15.60023083936527
 20
-2.381250000000001
 30
0.0
 11
-36.57500000000002
 21
-2.38125000000008
 31
0.0
  0
LINE
  5
E6
330
E1
100
AcDbEntity
  8
치수문자_일반주서
 62
     0
370
    -2
100
AcDbLine
 10
-36.57500000000003
 20
2.381249999999921
 30
0.0
 11
-36.5750000000001
 21
27.88124999999998
 31
0.0
  0
LINE
  5
E7
330
E1
100
AcDbEntity
  8
치수문자_일반주서
 62
     0
370
    -2
100
AcDbLine
 10
-36.57500000000003
 20
2.381249999999921
 30
0.0
 11
-36.57500000000002
 21
-2.38125000000008
 31
0.0
  0
LINE
  5
E8
330
E1
100
AcDbEntity
  8
치수문자_일반주서
 62
     0
370
    -2
100
AcDbLine
 10
-36.57500000000004
 20
4.881249999999921
 30
0.0
 11
-36.57500000000005
 21
7.381249999999921
 31
0.0
  0
LINE
  5
E9
330
E1
100
AcDbEntity
  8
치수문자_일반주서
 62
     0
370
    -2
100
AcDbLine
 10
-36.57500000000001
 20
-4.88125000000008
 30
0.0
 11
-36.575
 21
-7.38125000000008
 31
0.0
  0
SOLID
  5
EA
330
E1
100
AcDbEntity
  8
치수문자_일반주서
 62
     0
100
AcDbTrace
 10
-36.9916666666667
 20
4.881249999999921
 30
0.0
 11
-36.15833333333337
 21
4.881249999999922
 31
0.0
 12
-36.57500000000003
 22
2.381249999999921
 32
0.0
 13
-36.57500000000003
 23
2.381249999999921
 33
0.0
  0
SOLID
  5
EB
330
E1
100
AcDbEntity
  8
치수문자_일반주서
 62
     0
100
AcDbTrace
 10
-36.15833333333335
 20
-4.881250000000079
 30
0.0
 11
-36.99166666666667
 21
-4.88125000000008
 31
0.0
 12
-36.57500000000002
 22
-2.38125000000008
 32
0.0
 13
-36.57500000000002
 23
-2.38125000000008
 33
0.0
  0
MTEXT
  5
EC
330
E1
100
AcDbEntity
  8
치수문자_일반주서
 62
     0
100
AcDbMText
 10
-39.95000000000007
 20
17.63124999999997
 30
0.0
 40
2.5
 41
0.0
 71
     2
 72
     1
  1
\A1;%%c4.76 [3/16]
  7
SLDTEXTSTYLE0
 11
-2.983906501879686E-15
 21
1.0
 31
0.0
 73
     1
 44
1.0
  0
POINT
  5
1BE
330
E1
100
AcDbEntity
  8
Defpoints
 62
     0
100
AcDbPoint
 10
-15.53773083936528
 20
2.381249999999999
 30
0.0
  0
POINT
  5
1BF
330
E1
100
AcDbEntity
  8
Defpoints
 62
     0
100
AcDbPoint
 10
-15.53773083936527
 20
-2.381250000000001
 30
0.0
  0
POINT
  5
1C0
330
E1
100
AcDbEntity
  8
Defpoints
 62
     0
100
AcDbPoint
 10
-36.57500000000002
 20
-2.38125000000008
 30
0.0
  0
ENDBLK
  5
E3
330
E1
100
AcDbEntity
  8
0
100
AcDbBlockEnd
  0
BLOCK
  5
F6
330
F5
100
AcDbEntity
  8
0
100
AcDbBlockBegin
  2
_D_1
 70
     0
 10
0.0
 20
0.0
 30
0.0
  3
_D_1
  1

  0
LINE
  5
F8
330
F5
100
AcDbEntity
  8
치수문자_일반주서
 62
     0
370
    -2
100
AcDbLine
 10
28.63750000000001
 20
-1.387888485529927
 30
0.0
 11
59.30686985382437
 21
-1.387888485529814
 31
0.0
  0
LINE
  5
F9
330
F5
100
AcDbEntity
  8
치수문자_일반주서
 62
     0
370
    -2
100
AcDbLine
 10
28.63750000000001
 20
1.387888485529928
 30
0.0
 11
59.30686985382436
 21
1.387888485530043
 31
0.0
  0
LINE
  5
FA
330
F5
100
AcDbEntity
  8
치수문자_일반주서
 62
     0
370
    -2
100
AcDbLine
 10
59.30686985382436
 20
1.387888485530043
 30
0.0
 11
59.30686985382429
 21
27.51288848553004
 31
0.0
  0
LINE
  5
FB
330
F5
100
AcDbEntity
  8
치수문자_일반주서
 62
     0
370
    -2
100
AcDbLine
 10
59.30686985382437
 20
-1.387888485529814
 30
0.0
 11
59.30686985382436
 21
1.387888485530043
 31
0.0
  0
LINE
  5
FC
330
F5
100
AcDbEntity
  8
치수문자_일반주서
 62
     0
370
    -2
100
AcDbLine
 10
59.30686985382437
 20
-3.887888485529814
 30
0.0
 11
59.30686985382438
 21
-6.387888485529814
 31
0.0
  0
LINE
  5
FD
330
F5
100
AcDbEntity
  8
치수문자_일반주서
 62
     0
370
    -2
100
AcDbLine
 10
59.30686985382435
 20
3.887888485530043
 30
0.0
 11
59.30686985382435
 21
6.387888485530043
 31
0.0
  0
SOLID
  5
FE
330
F5
100
AcDbEntity
  8
치수문자_일반주서
 62
     0
100
AcDbTrace
 10
59.72353652049104
 20
-3.887888485529813
 30
0.0
 11
58.89020318715771
 21
-3.887888485529815
 31
0.0
 12
59.30686985382437
 22
-1.387888485529814
 32
0.0
 13
59.30686985382437
 23
-1.387888485529814
 33
0.0
  0
SOLID
  5
FF
330
F5
100
AcDbEntity
  8
치수문자_일반주서
 62
     0
100
AcDbTrace
 10
58.89020318715769
 20
3.887888485530042
 30
0.0
 11
59.72353652049102
 21
3.887888485530044
 31
0.0
 12
59.30686985382436
 22
1.387888485530043
 32
0.0
 13
59.30686985382436
 23
1.387888485530043
 33
0.0
  0
MTEXT
  5
100
330
F5
100
AcDbEntity
  8
치수문자_일반주서
 62
     0
100
AcDbMText
 10
55.93186985382432
 20
16.95038848553004
 30
0.0
 40
2.5
 41
0.0
 71
     2
 72
     1
  1
\A1;%%c2.78 [7/64]
  7
SLDTEXTSTYLE0
 11
-2.559797646454278E-15
 21
1.0
 31
0.0
 73
     1
 44
1.0
  0
POINT
  5
101
330
F5
100
AcDbEntity
  8
Defpoints
 62
     0
100
AcDbPoint
 10
28.57500000000001
 20
-1.387888485529927
 30
0.0
  0
POINT
  5
102
330
F5
100
AcDbEntity
  8
Defpoints
 62
     0
100
AcDbPoint
 10
28.57500000000001
 20
1.387888485529928
 30
0.0
  0
POINT
  5
103
330
F5
100
AcDbEntity
  8
Defpoints
 62
     0
100
AcDbPoint
 10
59.30686985382437
 20
1.387888485530043
 30
0.0
  0
ENDBLK
  5
F7
330
F5
100
AcDbEntity
  8
0
100
AcDbBlockEnd
  0
BLOCK
  5
10B
330
10A
100
AcDbEntity
  8
0
100
AcDbBlockBegin
  2
_D_2
 70
     0
 10
0.0
 20
0.0
 30
0.0
  3
_D_2
  1

  0
LINE
  5
10D
330
10A
100
AcDbEntity
  8
치수문자_일반주서
 62
     0
370
    -2
100
AcDbLine
 10
28.57500000000001
 20
1.450388485529928
 30
0.0
 11
28.57500000000001
 21
10.38124999999999
 31
0.0
  0
LINE
  5
10E
330
10A
100
AcDbEntity
  8
치수문자_일반주서
 62
     0
370
    -2
100
AcDbLine
 10
20.24062500000001
 20
0.9936412131921488
 30
0.0
 11
20.24062500000001
 21
10.38124999999999
 31
0.0
  0
LINE
  5
10F
330
10A
100
AcDbEntity
  8
치수문자_일반주서
 62
     0
370
    -2
100
AcDbLine
 10
28.57500000000001
 20
10.38124999999999
 30
0.0
 11
54.07500000000001
 21
10.38124999999999
 31
0.0
  0
LINE
  5
110
330
10A
100
AcDbEntity
  8
치수문자_일반주서
 62
     0
370
    -2
100
AcDbLine
 10
28.57500000000001
 20
10.38124999999999
 30
0.0
 11
20.24062500000001
 21
10.38124999999999
 31
0.0
  0
LINE
  5
111
330
10A
100
AcDbEntity
  8
치수문자_일반주서
 62
     0
370
    -2
100
AcDbLine
 10
31.07500000000001
 20
10.38124999999999
 30
0.0
 11
33.57500000000001
 21
10.38124999999999
 31
0.0
  0
LINE
  5
112
330
10A
100
AcDbEntity
  8
치수문자_일반주서
 62
     0
370
    -2
100
AcDbLine
 10
17.74062500000001
 20
10.38124999999999
 30
0.0
 11
15.24062500000001
 21
10.38124999999999
 31
0.0
  0
SOLID
  5
113
330
10A
100
AcDbEntity
  8
치수문자_일반주서
 62
     0
100
AcDbTrace
 10
31.07500000000001
 20
10.79791666666666
 30
0.0
 11
31.07500000000001
 21
9.964583333333325
 31
0.0
 12
28.57500000000001
 22
10.38124999999999
 32
0.0
 13
28.57500000000001
 23
10.38124999999999
 33
0.0
  0
SOLID
  5
114
330
10A
100
AcDbEntity
  8
치수문자_일반주서
 62
     0
100
AcDbTrace
 10
17.74062500000001
 20
9.964583333333325
 30
0.0
 11
17.74062500000001
 21
10.79791666666666
 31
0.0
 12
20.24062500000001
 22
10.38124999999999
 32
0.0
 13
20.24062500000001
 23
10.38124999999999
 33
0.0
  0
MTEXT
  5
115
330
10A
100
AcDbEntity
  8
치수문자_일반주서
 62
     0
100
AcDbMText
 10
43.82500000000001
 20
13.75624999999999
 30
0.0
 40
2.5
 41
0.0
 71
     2
 72
     1
  1
\A1;8.33 [21/64]
  7
SLDTEXTSTYLE0
 73
     1
 44
1.0
  0
POINT
  5
116
330
10A
100
AcDbEntity
  8
Defpoints
 62
     0
100
AcDbPoint
 10
28.57500000000001
 20
1.387888485529928
 30
0.0
  0
POINT
  5
117
330
10A
100
AcDbEntity
  8
Defpoints
 62
     0
100
AcDbPoint
 10
20.24062500000001
 20
0.9311412131921488
 30
0.0
  0
POINT
  5
118
330
10A
100
AcDbEntity
  8
Defpoints
 62
     0
100
AcDbPoint
 10
20.24062500000001
 20
10.38124999999999
 30
0.0
  0
ENDBLK
  5
10C
330
10A
100
AcDbEntity
  8
0
100
AcDbBlockEnd
  0
BLOCK
  5
11F
330
11E
100
AcDbEntity
  8
0
100
AcDbBlockBegin
  2
_D_3
 70
     0
 10
0.0
 20
0.0
 30
0.0
  3
_D_3
  1

  0
LINE
  5
121
330
11E
100
AcDbEntity
  8
치수문자_일반주서
 62
     0
370
    -2
100
AcDbLine
 10
-28.57500000000002
 20
1.450388485529942
 30
0.0
 11
-28.57500000000002
 21
18.38125
 31
0.0
  0
LINE
  5
122
330
11E
100
AcDbEntity
  8
치수문자_일반주서
 62
     0
370
    -2
100
AcDbLine
 10
28.57500000000001
 20
1.450388485529928
 30
0.0
 11
28.57500000000001
 21
18.38125
 31
0.0
  0
LINE
  5
123
330
11E
100
AcDbEntity
  8
치수문자_일반주서
 62
     0
370
    -2
100
AcDbLine
 10
-26.07500000000002
 20
18.38125
 30
0.0
 11
26.07500000000001
 21
18.38125
 31
0.0
  0
SOLID
  5
124
330
11E
100
AcDbEntity
  8
치수문자_일반주서
 62
     0
100
AcDbTrace
 10
-26.07500000000002
 20
18.79791666666667
 30
0.0
 11
-26.07500000000002
 21
17.96458333333333
 31
0.0
 12
-28.57500000000002
 22
18.38125
 32
0.0
 13
-28.57500000000002
 23
18.38125
 33
0.0
  0
SOLID
  5
125
330
11E
100
AcDbEntity
  8
치수문자_일반주서
 62
     0
100
AcDbTrace
 10
26.07500000000001
 20
17.96458333333333
 30
0.0
 11
26.07500000000001
 21
18.79791666666667
 31
0.0
 12
28.57500000000001
 22
18.38125
 32
0.0
 13
28.57500000000001
 23
18.38125
 33
0.0
  0
MTEXT
  5
126
330
11E
100
AcDbEntity
  8
치수문자_일반주서
 62
     0
100
AcDbMText
 10
0.0000000000000178
 20
21.75625
 30
0.0
 40
2.5
 41
0.0
 71
     2
 72
     1
  1
\A1;57.15 [2 1/4]
  7
SLDTEXTSTYLE0
 73
     1
 44
1.0
  0
POINT
  5
127
330
11E
100
AcDbEntity
  8
Defpoints
 62
     0
100
AcDbPoint
 10
-28.57500000000002
 20
1.387888485529942
 30
0.0
  0
POINT
  5
128
330
11E
100
AcDbEntity
  8
Defpoints
 62
     0
100
AcDbPoint
 10
28.57500000000001
 20
1.387888485529928
 30
0.0
  0
POINT
  5
129
330
11E
100
AcDbEntity
  8
Defpoints
 62
     0
100
AcDbPoint
 10
28.57500000000001
 20
18.38125
 30
0.0
  0
ENDBLK
  5
120
330
11E
100
AcDbEntity
  8
0
100
AcDbBlockEnd
  0
BLOCK
  5
138
330
137
100
AcDbEntity
  8
0
100
AcDbBlockBegin
  2
SW_DOWELSYMBOL_0
 70
     0
 10
0.0
 20
0.0
 30
0.0
  3
SW_DOWELSYMBOL_0
  1

  0
CIRCLE
  5
13A
330
137
100
AcDbEntity
  8
해칭선
 62
     0
100
AcDbCircle
 10
0.0
 20
0.0
 30
0.0
 40
3.000000000000001
  0
HATCH
  5
13B
330
137
100
AcDbEntity
  8
0
  6
Continuous
 62
     0
370
     0
100
AcDbHatch
 10
0.0
 20
0.0
 30
0.0
210
0.0
220
0.0
230
1.0
  2
SOLID
 70
     1
 71
     0
 91
        1
 92
        0
 93
        3
 72
     2
 10
0.0
 20
0.0
 40
3.000000000000001
 50
0.0
 51
90.0
 73
     1
 72
     1
 10
0.0
 20
3.000000000000001
 11
0.0
 21
0.0
 72
     1
 10
0.0
 20
0.0
 11
3.000000000000001
 21
0.0
 97
        0
 75
     0
 76
     1
 98
        1
 10
0.0
 20
0.0
  0
HATCH
  5
13C
330
137
100
AcDbEntity
  8
0
  6
Continuous
 62
     0
370
     0
100
AcDbHatch
 10
0.0
 20
0.0
 30
0.0
210
0.0
220
0.0
230
1.0
  2
SOLID
 70
     1
 71
     0
 91
        1
 92
        0
 93
        3
 72
     2
 10
0.0
 20
0.0
 40
3.000000000000001
 50
180.0
 51
270.0000000000007
 73
     1
 72
     1
 10
0.0
 20
-3.000000000000001
 11
0.0
 21
0.0
 72
     1
 10
0.0
 20
0.0
 11
-3.000000000000001
 21
0.0
 97
        0
 75
     0
 76
     1
 98
        1
 10
0.0
 20
0.0
  0
ENDBLK
  5
139
330
137
100
AcDbEntity
  8
0
100
AcDbBlockEnd
  0
BLOCK
  5
19B
330
19A
100
AcDbEntity
  8
0
100
AcDbBlockBegin
  2
*D7
 70
     1
 10
0.0
 20
0.0
 30
0.0
  3
*D7
  1

  0
LINE
  5
19D
330
19A
100
AcDbEntity
  8
치수문자_일반주서
 62
     0
370
    -2
100
AcDbLine
 10
7.381250000000003
 20
0.8555791345833936
 30
0.0
 11
7.381250000000003
 21
12.77778956728914
 31
0.0
  0
LINE
  5
19E
330
19A
100
AcDbEntity
  8
치수문자_일반주서
 62
     0
370
    -2
100
AcDbLine
 10
5.0
 20
0.7163799115279786
 30
0.0
 11
5.0
 21
12.77778956728914
 31
0.0
  0
LINE
  5
19F
330
19A
100
AcDbEntity
  8
치수문자_일반주서
 62
     0
370
    -2
100
AcDbLine
 10
7.381250000000003
 20
12.77778956728914
 30
0.0
 11
31.63125
 21
12.77778956728914
 31
0.0
  0
LINE
  5
1A0
330
19A
100
AcDbEntity
  8
치수문자_일반주서
 62
     0
370
    -2
100
AcDbLine
 10
7.381250000000003
 20
12.77778956728914
 30
0.0
 11
5.0
 21
12.77778956728914
 31
0.0
  0
LINE
  5
1A1
330
19A
100
AcDbEntity
  8
치수문자_일반주서
 62
     0
370
    -2
100
AcDbLine
 10
9.881250000000003
 20
12.77778956728914
 30
0.0
 11
12.38125
 21
12.77778956728914
 31
0.0
  0
LINE
  5
1A2
330
19A
100
AcDbEntity
  8
치수문자_일반주서
 62
     0
370
    -2
100
AcDbLine
 10
2.5
 20
12.77778956728914
 30
0.0
 11
0.0
 21
12.77778956728914
 31
0.0
  0
SOLID
  5
1A3
330
19A
100
AcDbEntity
  8
치수문자_일반주서
 62
     0
100
AcDbTrace
 10
9.881250000000003
 20
13.1944562339558
 30
0.0
 11
9.881250000000003
 21
12.36112290062247
 31
0.0
 12
7.381250000000003
 22
12.77778956728914
 32
0.0
 13
7.381250000000003
 23
12.77778956728914
 33
0.0
  0
SOLID
  5
1A4
330
19A
100
AcDbEntity
  8
치수문자_일반주서
 62
     0
100
AcDbTrace
 10
2.5
 20
12.36112290062247
 30
0.0
 11
2.5
 21
13.1944562339558
 31
0.0
 12
5.0
 22
12.77778956728914
 32
0.0
 13
5.0
 23
12.77778956728914
 33
0.0
  0
MTEXT
  5
1A5
330
19A
100
AcDbEntity
  8
치수문자_일반주서
 62
     0
100
AcDbMText
 10
22.00625
 20
16.15278956728913
 30
0.0
 40
2.5
 41
0.0
 71
     2
 72
     1
  1
\A1;2.38 [3/32]
  7
SLDTEXTSTYLE0
 73
     1
 44
1.0
  0
POINT
  5
1A6
330
19A
100
AcDbEntity
  8
Defpoints
 62
     0
100
AcDbPoint
 10
7.381250000000003
 20
0.7930791345833936
 30
0.0
  0
POINT
  5
1A7
330
19A
100
AcDbEntity
  8
Defpoints
 62
     0
100
AcDbPoint
 10
5.0
 20
0.6538799115279786
 30
0.0
  0
POINT
  5
1A8
330
19A
100
AcDbEntity
  8
Defpoints
 62
     0
100
AcDbPoint
 10
5.0
 20
12.77778956728914
 30
0.0
  0
ENDBLK
  5
19C
330
19A
100
AcDbEntity
  8
0
100
AcDbBlockEnd
  0
BLOCK
  5
1AD
330
1AC
100
AcDbEntity
  8
0
100
AcDbBlockBegin
  2
*D8
 70
     1
 10
0.0
 20
0.0
 30
0.0
  3
*D8
  1

  0
LINE
  5
1AF
330
1AC
100
AcDbEntity
  8
치수문자_일반주서
 62
     0
370
    -2
100
AcDbLine
 10
56.69277687301814
 20
-14.21167295891749
 30
0.0
 11
56.69277687301814
 21
-2.289462526211748
 31
0.0
  0
LINE
  5
1B0
330
1AC
100
AcDbEntity
  8
치수문자_일반주서
 62
     0
370
    -2
100
AcDbLine
 10
54.31152687301814
 20
-14.35087218197291
 30
0.0
 11
54.31152687301814
 21
-2.289462526211748
 31
0.0
  0
LINE
  5
1B1
330
1AC
100
AcDbEntity
  8
치수문자_일반주서
 62
     0
370
    -2
100
AcDbLine
 10
56.69277687301814
 20
-2.289462526211748
 30
0.0
 11
80.94277687301815
 21
-2.289462526211748
 31
0.0
  0
LINE
  5
1B2
330
1AC
100
AcDbEntity
  8
치수문자_일반주서
 62
     0
370
    -2
100
AcDbLine
 10
56.69277687301814
 20
-2.289462526211748
 30
0.0
 11
54.31152687301814
 21
-2.289462526211748
 31
0.0
  0
LINE
  5
1B3
330
1AC
100
AcDbEntity
  8
치수문자_일반주서
 62
     0
370
    -2
100
AcDbLine
 10
59.19277687301814
 20
-2.289462526211748
 30
0.0
 11
61.69277687301814
 21
-2.289462526211748
 31
0.0
  0
LINE
  5
1B4
330
1AC
100
AcDbEntity
  8
치수문자_일반주서
 62
     0
370
    -2
100
AcDbLine
 10
51.81152687301814
 20
-2.289462526211748
 30
0.0
 11
49.31152687301814
 21
-2.289462526211748
 31
0.0
  0
SOLID
  5
1B5
330
1AC
100
AcDbEntity
  8
치수문자_일반주서
 62
     0
100
AcDbTrace
 10
59.19277687301814
 20
-1.872795859545082
 30
0.0
 11
59.19277687301814
 21
-2.706129192878415
 31
0.0
 12
56.69277687301814
 22
-2.289462526211748
 32
0.0
 13
56.69277687301814
 23
-2.289462526211748
 33
0.0
  0
SOLID
  5
1B6
330
1AC
100
AcDbEntity
  8
치수문자_일반주서
 62
     0
100
AcDbTrace
 10
51.81152687301814
 20
-2.706129192878415
 30
0.0
 11
51.81152687301814
 21
-1.872795859545082
 31
0.0
 12
54.31152687301814
 22
-2.289462526211748
 32
0.0
 13
54.31152687301814
 23
-2.289462526211748
 33
0.0
  0
MTEXT
  5
1B7
330
1AC
100
AcDbEntity
  8
치수문자_일반주서
 62
     0
100
AcDbMText
 10
71.31777687301815
 20
1.085537473788252
 30
0.0
 40
2.5
 41
0.0
 71
     2
 72
     1
  1
\A1;2.38 [3/32]
  7
SLDTEXTSTYLE0
 73
     1
 44
1.0
  0
POINT
  5
1B8
330
1AC
100
AcDbEntity
  8
Defpoints
 62
     0
100
AcDbPoint
 10
56.69277687301814
 20
-14.27417295891749
 30
0.0
  0
POINT
  5
1B9
330
1AC
100
AcDbEntity
  8
Defpoints
 62
     0
100
AcDbPoint
 10
54.31152687301814
 20
-14.41337218197291
 30
0.0
  0
POINT
  5
1BA
330
1AC
100
AcDbEntity
  8
Defpoints
 62
     0
100
AcDbPoint
 10
54.31152687301814
 20
-2.289462526211748
 30
0.0
  0
ENDBLK
  5
1AE
330
1AC
100
AcDbEntity
  8
0
100
AcDbBlockEnd
  0
ENDSEC
  0
SECTION
  2
ENTITIES
  0
LINE
  5
96
330
1F
100
AcDbEntity
  8
외형선
  6
Continuous
370
    15
100
AcDbLine
 10
15.53773083936527
 20
2.381249999999999
 30
0.0
 11
-15.53773083936528
 21
2.381249999999997
 31
0.0
  0
LINE
  5
97
330
1F
100
AcDbEntity
  8
외형선
  6
Continuous
370
    15
100
AcDbLine
 10
-15.53773083936527
 20
-2.381250000000001
 30
0.0
 11
15.53773083936527
 21
-2.381249999999999
 31
0.0
  0
LINE
  5
98
330
1F
100
AcDbEntity
  8
외형선
  6
Continuous
370
    15
100
AcDbLine
 10
15.53773083936527
 20
-2.38125
 30
0.0
 11
19.24062500000001
 21
-1.3890625
 31
0.0
  0
LINE
  5
99
330
1F
100
AcDbEntity
  8
외형선
  6
Continuous
370
    15
100
AcDbLine
 10
19.24062500000001
 20
1.389062500000001
 30
0.0
 11
15.53773083936527
 21
2.38125
 31
0.0
  0
LINE
  5
9C
330
1F
100
AcDbEntity
  8
외형선
  6
Continuous
370
    15
100
AcDbLine
 10
19.35060604983935
 20
1.389062500000001
 30
0.0
 11
19.24062500000001
 21
1.389062500000001
 31
0.0
  0
LINE
  5
9D
330
1F
100
AcDbEntity
  8
외형선
  6
Continuous
370
    15
100
AcDbLine
 10
19.24062500000001
 20
-1.3890625
 30
0.0
 11
19.35060604983935
 21
-1.3890625
 31
0.0
  0
SPLINE
  5
9E
330
1F
100
AcDbEntity
  8
외형선
  6
Continuous
370
    15
100
AcDbSpline
210
0.0
220
0.0
230
1.0
 70
     8
 71
     3
 72
     9
 73
     5
 74
     0
 42
0.000000001
 43
0.00000001
 40
0.0
 40
0.0
 40
0.0
 40
0.0
 40
0.4982813946047077
 40
1.0
 40
1.0
 40
1.0
 40
1.0
 10
20.24062500000007
 20
0.9311195015831821
 30
0.0
 10
20.09232373271625
 20
0.9239794020824632
 30
0.0
 10
19.79469819644376
 20
0.9096499497327865
 30
0.0
 10
19.49897241233922
 20
0.9162694910680317
 30
0.0
 10
19.35060128435886
 20
0.9195906381151073
 30
0.0
  0
ARC
  5
9F
330
1F
100
AcDbEntity
  8
외형선
  6
Continuous
370
    15
100
AcDbCircle
 10
19.70060595702044
 20
-1.264139650276502
 30
0.0
 40
0.3499999071817231
100
AcDbArc
 50
143.4864685557898
 51
179.9901248472915
  0
SPLINE
  5
A0
330
1F
100
AcDbEntity
  8
0
  6
Continuous
 62
     1
370
    25
100
AcDbSpline
210
0.0
220
0.0
230
1.0
 70
     8
 71
     3
 72
     9
 73
     5
 74
     0
 42
0.000000001
 43
0.00000001
 40
0.0
 40
0.0
 40
0.0
 40
0.0
 40
0.4802132970933899
 40
1.0
 40
1.0
 40
1.0
 40
1.0
 10
24.97713830908989
 20
0.3558800718260681
 30
0.0
 10
24.91514201861379
 20
0.3852915643221018
 30
0.0
 10
24.78604044885023
 20
0.4465382908789341
 30
0.0
 10
24.65698634730716
 20
0.513834849714859
 30
0.0
 10
24.58990574136952
 20
0.5488147061491454
 30
0.0
1001
PE_URL
1000

  0
LINE
  5
A1
330
1F
100
AcDbEntity
  8
0
  6
Continuous
 62
     1
370
    25
100
AcDbLine
 10
21.78906516713279
 20
1.389062500000001
 30
0.0
 11
21.11480792721373
 21
1.389062500000001
 31
0.0
1001
PE_URL
1000

  0
SPLINE
  5
A2
330
1F
100
AcDbEntity
  8
0
  6
Continuous
 62
     1
370
    25
100
AcDbSpline
210
0.0
220
0.0
230
1.0
 70
     8
 71
     3
 72
    15
 73
    11
 74
     0
 42
0.000000001
 43
0.00000001
 40
0.0
 40
0.0
 40
0.0
 40
0.0
 40
0.2532495881985025
 40
0.4219259657364141
 40
0.5289759985761678
 40
0.6349626816360547
 40
0.741869093673391
 40
0.8483376744287815
 40
0.955064694739171
 40
1.0
 40
1.0
 40
1.0
 40
1.0
 10
24.51613265487178
 20
1.103794440573492
 30
0.0
 10
24.41874714281211
 20
1.099153977325613
 30
0.0
 10
24.25649820682449
 20
1.09142274288905
 30
0.0
 10
24.05334433302548
 20
1.086748532975672
 30
0.0
 10
23.90662684680255
 20
1.084949110720427
 30
0.0
 10
23.78366855323509
 20
1.084626088920183
 30
0.0
 10
23.66094123451254
 20
1.085404183292603
 30
0.0
 10
23.53801797503572
 20
1.08749768932896
 30
0.0
 10
23.4388736029153
 20
1.089716882745282
 30
0.0
 10
23.38058827592763
 20
1.09204353989954
 30
0.0
 10
23.36331919508931
 20
1.092732894022721
 30
0.0
1001
PE_URL
1000

  0
SPLINE
  5
A3
330
1F
100
AcDbEntity
  8
0
  6
Continuous
 62
     1
370
    25
100
AcDbSpline
210
0.0
220
0.0
230
1.0
 70
     8
 71
     3
 72
    17
 73
    13
 74
     0
 42
0.000000001
 43
0.00000001
 40
0.0
 40
0.0
 40
0.0
 40
0.0
 40
0.1254555942493454
 40
0.2131691954051164
 40
0.2897916136648241
 40
0.3712556475610966
 40
0.4529690809726691
 40
0.6522179511552485
 40
0.69829674760333
 40
0.7656613418886646
 40
0.8666903653155327
 40
1.0
 40
1.0
 40
1.0
 40
1.0
 10
22.42874150191363
 20
-1.155875123015217
 30
0.0
 10
22.51634426136497
 20
-1.147513737729163
 30
0.0
 10
22.66519541351362
 20
-1.133306401782406
 30
0.0
 10
22.86629537619152
 20
-1.118018454988248
 30
0.0
 10
23.03688018516408
 20
-1.107097214082015
 30
0.0
 10
23.20386174766862
 20
-1.098431750891614
 30
0.0
 10
23.45608170100118
 20
-1.088450419727163
 30
0.0
 10
23.68346686762018
 20
-1.084443831907286
 30
0.0
 10
23.90112092611802
 20
-1.084924673656188
 30
0.0
 10
24.05026814278068
 20
-1.086625177385012
 30
0.0
 10
24.26010665350357
 20
-1.091533732140388
 30
0.0
 10
24.42329737348758
 20
-1.099348695566054
 30
0.0
 10
24.51613265487178
 20
-1.103794440573491
 30
0.0
1001
PE_URL
1000

  0
SPLINE
  5
A4
330
1F
100
AcDbEntity
  8
0
  6
Continuous
 62
     1
370
    25
100
AcDbSpline
210
0.0
220
0.0
230
1.0
 70
     8
 71
     3
 72
    13
 73
     9
 74
     0
 42
0.000000001
 43
0.00000001
 40
0.0
 40
0.0
 40
0.0
 40
0.0
 40
0.28323415833286
 40
0.4822601739506866
 40
0.6588758984095692
 40
0.8216961714419216
 40
0.9915028184707266
 40
1.0
 40
1.0
 40
1.0
 40
1.0
 10
25.63215501439312
 20
-1.044774738504064
 30
0.0
 10
25.73018061401881
 20
-1.030100878749476
 30
0.0
 10
25.89708789315973
 20
-1.005115833868485
 30
0.0
 10
26.12389388865985
 20
-0.9773378027006198
 30
0.0
 10
26.30967839959571
 20
-0.9579290945733198
 30
0.0
 10
26.48546463863567
 20
-0.9430950854383222
 30
0.0
 10
26.60325260497696
 20
-0.9342264464095759
 30
0.0
 10
26.66477875747106
 20
-0.9311346608462779
 30
0.0
 10
26.66771082511519
 20
-0.9309873198531351
 30
0.0
1001
PE_URL
1000

  0
SPLINE
  5
A5
330
1F
100
AcDbEntity
  8
0
  6
Continuous
 62
     1
370
    25
100
AcDbSpline
210
0.0
220
0.0
230
1.0
 70
     8
 71
     3
 72
     9
 73
     5
 74
     0
 42
0.000000001
 43
0.00000001
 40
0.0
 40
0.0
 40
0.0
 40
0.0
 40
0.5011272974705633
 40
1.0
 40
1.0
 40
1.0
 40
1.0
 10
20.50033129045386
 20
0.9500869419293594
 30
0.0
 10
20.4568484092982
 20
0.9464979181605013
 30
0.0
 10
20.37007827848485
 20
0.9393360178070908
 30
0.0
 10
20.28371118522444
 20
0.9338542205803841
 30
0.0
 10
20.24062500000001
 20
0.9311195015831785
 30
0.0
1001
PE_URL
1000

  0
SPLINE
  5
A6
330
1F
100
AcDbEntity
  8
0
  6
Continuous
 62
     1
370
    25
100
AcDbSpline
210
0.0
220
0.0
230
1.0
 70
     8
 71
     3
 72
     9
 73
     5
 74
     0
 42
0.000000001
 43
0.00000001
 40
0.0
 40
0.0
 40
0.0
 40
0.0
 40
0.4988727025294367
 40
1.0
 40
1.0
 40
1.0
 40
1.0
 10
20.24062500000001
 20
-0.9311195015831776
 30
0.0
 10
20.28371118522444
 20
-0.9338542205803833
 30
0.0
 10
20.37007827848485
 20
-0.9393360178070902
 30
0.0
 10
20.4568484092982
 20
-0.9464979181605003
 30
0.0
 10
20.50033129045386
 20
-0.9500869419293586
 30
0.0
1001
PE_URL
1000

  0
SPLINE
  5
A7
330
1F
100
AcDbEntity
  8
0
  6
Continuous
 62
     1
370
    25
100
AcDbSpline
210
0.0
220
0.0
230
1.0
 70
     8
 71
     3
 72
    19
 73
    15
 74
     0
 42
0.000000001
 43
0.00000001
 40
0.0
 40
0.0
 40
0.0
 40
0.0
 40
0.1262477989753508
 40
0.209436671264492
 40
0.2654769089347016
 40
0.3235499475099675
 40
0.3828962681449842
 40
0.4418590847308906
 40
0.5002855885981122
 40
0.6958572524272438
 40
0.7415779330534513
 40
0.7941963266472196
 40
0.8791303255950677
 40
1.0
 40
1.0
 40
1.0
 40
1.0
 10
28.05838217387304
 20
0.9500534435815706
 30
0.0
 10
27.95550803992318
 20
0.9420833452809035
 30
0.0
 10
27.78484671870773
 20
0.9288614842164712
 30
0.0
 10
27.57040536097487
 20
0.9196649874707693
 30
0.0
 10
27.41267202597244
 20
0.9154961994789779
 30
0.0
 10
27.27248740401712
 20
0.9138325724718471
 30
0.0
 10
27.12973474116919
 20
0.9142731195377503
 30
0.0
 10
26.98677375264402
 20
0.9168789799177036
 30
0.0
 10
26.73400845575114
 20
0.9254153168704004
 30
0.0
 10
26.49138172625157
 20
0.9413026503614461
 30
0.0
 10
26.25365801932806
 20
0.9637567027929269
 30
0.0
 10
26.10554682717989
 20
0.9795742187577757
 30
0.0
 10
25.89708539032477
 20
1.005120868695238
 30
0.0
 10
25.73017968796577
 20
1.030102741643631
 30
0.0
 10
25.63215501439312
 20
1.044774738504065
 30
0.0
1001
PE_URL
1000

  0
LINE
  5
A8
330
1F
100
AcDbEntity
  8
0
  6
Continuous
 62
     1
370
    25
100
AcDbLine
 10
21.11481422340132
 20
-1.3890625
 30
0.0
 11
21.78906516713278
 21
-1.3890625
 31
0.0
1001
PE_URL
1000

  0
LINE
  5
A9
330
1F
100
AcDbEntity
  8
외형선
  6
Continuous
370
    15
100
AcDbLine
 10
15.53773083936527
 20
2.38125
 30
0.0
 11
15.53773083936527
 21
-2.381250000000002
 31
0.0
  0
LINE
  5
AB
330
1F
100
AcDbEntity
  8
외형선
  6
Continuous
370
    15
100
AcDbLine
 10
19.24062500000001
 20
1.389062500000001
 30
0.0
 11
19.24062500000001
 21
-1.3890625
 31
0.0
  0
SPLINE
  5
AD
330
1F
100
AcDbEntity
  8
외형선
  6
Continuous
370
    15
100
AcDbSpline
210
0.0
220
0.0
230
1.0
 70
     8
 71
     3
 72
    10
 73
     6
 74
     0
 42
0.000000001
 43
0.00000001
 40
0.0
 40
0.0
 40
0.0
 40
0.0
 40
0.5
 40
0.5
 40
1.0
 40
1.0
 40
1.0
 40
1.0
 10
19.35060604983935
 20
1.031847217598413
 30
0.0
 10
19.4970003988767
 20
1.088956228300765
 30
0.0
 10
19.64686120025707
 20
1.140625803441966
 30
0.0
 10
19.94593561402498
 20
1.23019084634656
 30
0.0
 10
20.09349363503369
 20
1.267968069481597
 30
0.0
 10
20.24062500000071
 20
1.298341547465475
 30
0.0
  0
SPLINE
  5
AE
330
1F
100
AcDbEntity
  8
외형선
  6
Continuous
370
    15
100
AcDbSpline
210
0.0
220
0.0
230
1.0
 70
     8
 71
     3
 72
    10
 73
     6
 74
     0
 42
0.000000001
 43
0.00000001
 40
0.0
 40
0.0
 40
0.0
 40
0.0
 40
0.5
 40
0.5
 40
1.0
 40
1.0
 40
1.0
 40
1.0
 10
20.24062500000001
 20
-1.111475075784458
 30
0.0
 10
20.09349032905677
 20
-1.060224283350971
 30
0.0
 10
19.94592890926127
 20
-1.00260985063915
 30
0.0
 10
19.6468477448118
 20
-0.876029306771565
 30
0.0
 10
19.49698364273652
 20
-0.807263901185854
 30
0.0
 10
19.35058631336467
 20
-0.7348733046404549
 30
0.0
  0
LINE
  5
AF
330
1F
100
AcDbEntity
  8
외형선
  6
Continuous
370
    15
100
AcDbLine
 10
20.24062500000001
 20
-1.111475075784457
 30
0.0
 11
20.24062500000001
 21
-1.29834154746546
 31
0.0
  0
SPLINE
  5
B0
330
1F
100
AcDbEntity
  8
외형선
  6
Continuous
370
    15
100
AcDbSpline
210
0.0
220
0.0
230
1.0
 70
     8
 71
     3
 72
    10
 73
     6
 74
     0
 42
0.000000001
 43
0.00000001
 40
0.0
 40
0.0
 40
0.0
 40
0.0
 40
0.5
 40
0.5
 40
1.0
 40
1.0
 40
1.0
 40
1.0
 10
19.35192425020067
 20
-1.032361270766115
 30
0.0
 10
19.49811949249179
 20
-1.089352247749427
 30
0.0
 10
19.6477598309286
 20
-1.140915052752919
 30
0.0
 10
19.94638338396656
 20
-1.230304718179566
 30
0.0
 10
20.09371442561454
 20
-1.268013649007377
 30
0.0
 10
20.24062500000001
 20
-1.298341547465328
 30
0.0
  0
SPLINE
  5
B1
330
1F
100
AcDbEntity
  8
외형선
  6
Continuous
370
    15
100
AcDbSpline
210
0.0
220
0.0
230
1.0
 70
     8
 71
     3
 72
     8
 73
     4
 74
     0
 42
0.000000001
 43
0.00000001
 40
0.0
 40
0.0
 40
0.0
 40
0.0
 40
0.0000770651048634
 40
0.0000770651048634
 40
0.0000770651048634
 40
0.0000770651048634
 10
19.35060604983935
 20
-1.082306822422478
 30
0.0
 10
19.35060604983935
 20
-1.066204820932786
 30
0.0
 10
19.35098335170747
 20
-1.049536831421444
 30
0.0
 10
19.35192425019903
 20
-1.032361270766115
 30
0.0
  0
LINE
  5
B2
330
1F
100
AcDbEntity
  8
외형선
  6
Continuous
370
    15
100
AcDbLine
 10
19.35060604983935
 20
-1.3890625
 30
0.0
 11
19.35060604983935
 21
-1.082306822422478
 31
0.0
  0
LINE
  5
B3
330
1F
100
AcDbEntity
  8
외형선
  6
Continuous
370
    15
100
AcDbLine
 10
19.35060604983935
 20
-0.7348227859787306
 30
0.0
 11
19.35060604983935
 21
1.389062500000001
 31
0.0
  0
SPLINE
  5
B4
330
1F
100
AcDbEntity
  8
외형선
  6
Continuous
370
    15
100
AcDbSpline
210
0.0
220
0.0
230
1.0
 70
    24
 71
     3
 72
     8
 73
     4
 74
     0
 42
0.000000001
 43
0.00000001
 40
0.0
 40
0.0
 40
0.0
 40
0.0
 40
1.0
 40
1.0
 40
1.0
 40
1.0
 10
20.24062500000001
 20
-0.9003536634236043
 30
0.0
 10
20.24062500000001
 20
-0.9685028751466904
 30
0.0
 10
20.24062500000001
 20
-1.039319102639656
 30
0.0
 10
20.24062500000001
 20
-1.111475075784089
 30
0.0
  0
SPLINE
  5
B5
330
1F
100
AcDbEntity
  8
외형선
  6
Continuous
370
    15
100
AcDbSpline
210
0.0
220
0.0
230
1.0
 70
     8
 71
     3
 72
    10
 73
     6
 74
     0
 42
0.000000001
 43
0.00000001
 40
0.0
 40
0.0
 40
0.0
 40
0.0
 40
0.5
 40
0.5
 40
1.0
 40
1.0
 40
1.0
 40
1.0
 10
20.24062500000003
 20
-0.9003536634236111
 30
0.0
 10
20.09349032905679
 20
-0.8533668678675521
 30
0.0
 10
19.94592890926128
 20
-0.8012197256159215
 30
0.0
 10
19.64684774481181
 20
-0.6878692901941048
 30
0.0
 10
19.49698364273652
 20
-0.6268501340630642
 30
0.0
 10
19.35058631336467
 20
-0.5631178939300662
 30
0.0
  0
SPLINE
  5
B6
330
1F
100
AcDbEntity
  8
외형선
  6
Continuous
370
    15
100
AcDbSpline
210
0.0
220
0.0
230
1.0
 70
     8
 71
     3
 72
    10
 73
     6
 74
     0
 42
0.000000001
 43
0.00000001
 40
0.0
 40
0.0
 40
0.0
 40
0.0
 40
0.5
 40
0.5
 40
1.0
 40
1.0
 40
1.0
 40
1.0
 10
20.24062500000001
 20
0.3519830302604515
 30
0.0
 10
20.09349242558056
 20
0.4168213590106535
 30
0.0
 10
19.94593316116623
 20
0.4797254165052565
 30
0.0
 10
19.64685627774029
 20
0.5998745659977175
 30
0.0
 10
19.49699426883831
 20
0.656863818642178
 30
0.0
 10
19.35059882947742
 20
0.7093931516497635
 30
0.0
  0
SPLINE
  5
B7
330
1F
100
AcDbEntity
  8
외형선
  6
Continuous
370
    15
100
AcDbSpline
210
0.0
220
0.0
230
1.0
 70
    24
 71
     3
 72
    10
 73
     6
 74
     0
 42
0.000000001
 43
0.00000001
 40
0.0
 40
0.0
 40
0.0
 40
0.0
 40
0.5
 40
0.5
 40
1.0
 40
1.0
 40
1.0
 40
1.0
 10
20.24062499999744
 20
0.3519830302615821
 30
0.0
 10
20.24062499999744
 20
0.1422793865213951
 30
0.0
 10
20.24062499999744
 20
-0.0873135692222494
 30
0.0
 10
20.24062499999744
 20
-0.5250673001269287
 30
0.0
 10
20.24062499999744
 20
-0.731343812100204
 30
0.0
 10
20.24062499999744
 20
-0.9003536634227849
 30
0.0
  0
SPLINE
  5
B8
330
1F
100
AcDbEntity
  8
외형선
  6
Continuous
370
    15
100
AcDbSpline
210
0.0
220
0.0
230
1.0
 70
    24
 71
     3
 72
    13
 73
     9
 74
     0
 42
0.000000001
 43
0.00000001
 40
0.0
 40
0.0
 40
0.0
 40
0.0
 40
0.0593241477905428
 40
0.2504015852968228
 40
0.436093932164255
 40
0.6271713696705381
 40
0.813585684835269
 40
1.0
 40
1.0
 40
1.0
 40
1.0
 10
20.24062500000001
 20
0.9265304713188515
 30
0.0
 10
20.24062500000001
 20
0.9276694849604323
 30
0.0
 10
20.24062500000001
 20
0.9324771532059772
 30
0.0
 10
20.240625
 20
0.8967622678765913
 30
0.0
 10
20.240625
 20
0.8193094024772509
 30
0.0
 10
20.240625
 20
0.6989342944511273
 30
0.0
 10
20.24062500000001
 20
0.5441112358143755
 30
0.0
 10
20.24062500000001
 20
0.4160257654450928
 30
0.0
 10
20.24062500000001
 20
0.3519830302604512
 30
0.0
  0
SPLINE
  5
B9
330
1F
100
AcDbEntity
  8
외형선
  6
Continuous
370
    15
100
AcDbSpline
210
0.0
220
0.0
230
1.0
 70
    24
 71
     3
 72
    10
 73
     6
 74
     0
 42
0.000000001
 43
0.00000001
 40
0.0
 40
0.0
 40
0.0
 40
0.0
 40
0.5
 40
0.5
 40
1.0
 40
1.0
 40
1.0
 40
1.0
 10
20.24062500000001
 20
1.298341547465318
 30
0.0
 10
20.24062500000001
 20
1.226719196983749
 30
0.0
 10
20.24062500000001
 20
1.154395032387913
 30
0.0
 10
20.24062500000001
 20
1.024589953375067
 30
0.0
 10
20.24062500000001
 20
0.9674059374187012
 30
0.0
 10
20.24062500000001
 20
0.9222784366085994
 30
0.0
  0
SPLINE
  5
BA
330
1F
100
AcDbEntity
  8
0
  6
Continuous
 62
     1
370
    25
100
AcDbSpline
210
0.0
220
0.0
230
1.0
 70
     8
 71
     3
 72
    17
 73
    13
 74
     0
 42
0.000000001
 43
0.00000001
 40
0.0
 40
0.0
 40
0.0
 40
0.0
 40
0.0983993953439405
 40
0.1965628916488541
 40
0.2946554670639875
 40
0.3928438165119883
 40
0.4912834821055716
 40
0.5896373334345223
 40
0.6877796656824927
 40
0.7957358645966147
 40
0.9037134739995519
 40
1.0
 40
1.0
 40
1.0
 40
1.0
 10
28.57500000000001
 20
-1.318138176167435
 30
0.0
 10
28.35233337042872
 20
-1.26785885583749
 30
0.0
 10
27.90753392395599
 20
-1.167420752944192
 30
0.0
 10
27.24122949667636
 20
-0.9004901324665104
 30
0.0
 10
26.57544851871647
 20
-0.5721555078744637
 30
0.0
 10
25.90897073667309
 20
-0.1980229159706028
 30
0.0
 10
25.24136176138064
 20
0.1901771273737309
 30
0.0
 10
24.57405009201823
 20
0.5641171784129461
 30
0.0
 10
23.88568379547712
 20
0.9070137385522099
 30
0.0
 10
23.17519993195231
 20
1.180972443138984
 30
0.0
 10
22.46900231582221
 20
1.359823098494504
 30
0.0
 10
22.0068946193794
 20
1.375467542738476
 30
0.0
 10
21.78906516713279
 20
1.382842058996482
 30
0.0
1001
PE_URL
1000

  0
SPLINE
  5
BB
330
1F
100
AcDbEntity
  8
0
  6
Continuous
 62
     1
370
    25
100
AcDbSpline
210
0.0
220
0.0
230
1.0
 70
     8
 71
     3
 72
    14
 73
    10
 74
     0
 42
0.000000001
 43
0.00000001
 40
0.0
 40
0.0
 40
0.0
 40
0.0
 40
0.1599018691235636
 40
0.3191225193573
 40
0.4788082037511568
 40
0.6389017109824657
 40
0.7981636901060248
 40
0.9576735835280721
 40
1.0
 40
1.0
 40
1.0
 40
1.0
 10
28.57500000000001
 20
-1.095931785973974
 30
0.0
 10
28.38244864306447
 20
-1.05478672257832
 30
0.0
 10
27.99816624244131
 20
-0.9726718832590209
 30
0.0
 10
27.42224961147038
 20
-0.7763214716231033
 30
0.0
 10
26.84566921671044
 20
-0.5406101313185199
 30
0.0
 10
26.26861363651589
 20
-0.2732048895242522
 30
0.0
 10
25.69259714456805
 20
0.0092210622217942
 30
0.0
 10
25.25808132902119
 20
0.2265451332455603
 30
0.0
 10
25.01499889292407
 20
0.3364827148743052
 30
0.0
 10
24.96402288948513
 20
0.359537356868004
 30
0.0
1001
PE_URL
1000

  0
LINE
  5
BC
330
1F
100
AcDbEntity
  8
0
  6
Continuous
 62
     1
370
    25
100
AcDbLine
 10
28.57500000000001
 20
-1.318138176167436
 30
0.0
 11
28.57500000000001
 21
-1.095931785973974
 31
0.0
1001
PE_URL
1000

  0
SPLINE
  5
BD
330
1F
100
AcDbEntity
  8
0
  6
Continuous
 62
     1
370
    25
100
AcDbSpline
210
0.0
220
0.0
230
1.0
 70
     8
 71
     3
 72
    38
 73
    34
 74
     0
 42
0.000000001
 43
0.00000001
 40
0.0
 40
0.0
 40
0.0
 40
0.0
 40
0.0625
 40
0.0625
 40
0.125
 40
0.125
 40
0.1875
 40
0.1875
 40
0.25
 40
0.25
 40
0.3125
 40
0.3125
 40
0.375
 40
0.375
 40
0.4375
 40
0.4375
 40
0.5
 40
0.5
 40
0.5625
 40
0.5625
 40
0.625
 40
0.625
 40
0.6875
 40
0.6875
 40
0.75
 40
0.75
 40
0.8125
 40
0.8125
 40
0.875
 40
0.875
 40
0.9375
 40
0.9375
 40
1.0
 40
1.0
 40
1.0
 40
1.0
 10
20.24062500000071
 20
1.298341547465475
 30
0.0
 10
20.41272148949494
 20
1.333868771289758
 30
0.0
 10
20.58899112870448
 20
1.359478747440632
 30
0.0
 10
20.93763545467618
 20
1.388817270476913
 30
0.0
 10
21.10766755931931
 20
1.392680703403074
 30
0.0
 10
21.45648888275221
 20
1.378732509181342
 30
0.0
 10
21.63270076290052
 20
1.36075223319065
 30
0.0
 10
21.97649874580287
 20
1.304334480024627
 30
0.0
 10
22.15026941387719
 20
1.265632361469115
 30
0.0
 10
22.50005367471508
 20
1.168810420227669
 30
0.0
 10
22.67115050112216
 20
1.111233935457804
 30
0.0
 10
23.01772592730734
 20
0.9792834587755485
 30
0.0
 10
23.19420386135425
 20
0.904659907863359
 30
0.0
 10
23.54125186163916
 20
0.7432926465253435
 30
0.0
 10
23.71199697968867
 20
0.6566333071133184
 30
0.0
 10
24.0616739986003
 20
0.4730520780469429
 30
0.0
 10
24.23620035448431
 20
0.3768630880732277
 30
0.0
 10
24.57932060258646
 20
0.1812503777906117
 30
0.0
 10
24.75542229944752
 20
0.0804012942992022
 30
0.0
 10
25.1045054819965
 20
-0.1204089109387808
 30
0.0
 10
25.27459399518522
 20
-0.2198041262744546
 30
0.0
 10
25.6229178687758
 20
-0.4151771507136373
 30
0.0
 10
25.79926734793496
 20
-0.5107465977720403
 30
0.0
 10
26.14408210923335
 20
-0.6910732980422406
 30
0.0
 10
26.31678224088509
 20
-0.7766115847330028
 30
0.0
 10
26.6666617449404
 20
-0.9349237319463098
 30
0.0
 10
26.8384703296809
 20
-1.006893346232902
 30
0.0
 10
27.18421118100034
 20
-1.134433721066913
 30
0.0
 10
27.36064937242337
 20
-1.190199225528581
 30
0.0
 10
27.70838196062015
 20
-1.281736049412405
 30
0.0
 10
27.8787082162354
 20
-1.317592029915302
 30
0.0
 10
28.22813573368137
 20
-1.368792854249507
 30
0.0
 10
28.40402083269835
 20
-1.383789059836089
 30
0.0
 10
28.57500000000001
 20
-1.387888485529926
 30
0.0
1001
PE_URL
1000

  0
SPLINE
  5
BE
330
1F
100
AcDbEntity
  8
0
  6
Continuous
 62
     1
370
    25
100
AcDbSpline
210
0.0
220
0.0
230
1.0
 70
     8
 71
     3
 72
    14
 73
    10
 74
     0
 42
0.000000001
 43
0.00000001
 40
0.0
 40
0.0
 40
0.0
 40
0.0
 40
0.0839531034183859
 40
0.2501815696125281
 40
0.416411845653509
 40
0.5826624434034502
 40
0.7489517878599029
 40
0.9021927209867974
 40
1.0
 40
1.0
 40
1.0
 40
1.0
 10
25.11906002106136
 20
-0.1288012336631716
 30
0.0
 10
24.9897412428681
 20
-0.0772985111775456
 30
0.0
 10
24.60436924836862
 20
0.076180412484858
 30
0.0
 10
23.96295236696635
 20
0.3360483766708794
 30
0.0
 10
23.19476374941373
 20
0.610473895659223
 30
0.0
 10
22.42648009799128
 20
0.8248287603073917
 30
0.0
 10
21.67815814317099
 20
0.9484532582995312
 30
0.0
 10
21.03533528188857
 20
0.988571400785551
 30
0.0
 10
20.64855113856964
 20
0.9538322892958072
 30
0.0
 10
20.49786173791235
 20
0.9402980842872013
 30
0.0
1001
PE_URL
1000

  0
SPLINE
  5
BF
330
1F
100
AcDbEntity
  8
외형선
  6
Continuous
370
    15
100
AcDbSpline
210
0.0
220
0.0
230
1.0
 70
    24
 71
     3
 72
    10
 73
     6
 74
     0
 42
0.000000001
 43
0.00000001
 40
0.0
 40
0.0
 40
0.0
 40
0.0
 40
0.5
 40
0.5
 40
1.0
 40
1.0
 40
1.0
 40
1.0
 10
20.24062500000001
 20
1.298341547465318
 30
0.0
 10
20.24062500000001
 20
1.22671919698375
 30
0.0
 10
20.24062500000001
 20
1.154395032387913
 30
0.0
 10
20.24062500000001
 20
1.024589953375067
 30
0.0
 10
20.24062500000001
 20
0.9674059374187012
 30
0.0
 10
20.24062500000001
 20
0.9222784366085994
 30
0.0
  0
LINE
  5
C0
330
1F
100
AcDbEntity
  8
0
  6
Continuous
 62
     1
370
    25
100
AcDbLine
 10
28.57500000000001
 20
-1.387888485529927
 30
0.0
 11
28.57500000000001
 21
-1.318138176167436
 31
0.0
1001
PE_URL
1000

  0
SPLINE
  5
C1
330
1F
100
AcDbEntity
  8
0
  6
Continuous
 62
     1
370
    25
100
AcDbSpline
210
0.0
220
0.0
230
1.0
 70
     8
 71
     3
 72
     8
 73
     4
 74
     0
 42
0.000000001
 43
0.00000001
 40
0.0
 40
0.0
 40
0.0
 40
0.0
 40
1.0
 40
1.0
 40
1.0
 40
1.0
 10
27.71530511579319
 20
0.3887621309163179
 30
0.0
 10
27.66600288184445
 20
0.4471223140000852
 30
0.0
 10
27.62200384932251
 20
0.5033065058678576
 30
0.0
 10
27.58455227709232
 20
0.5568041665377134
 30
0.0
1001
PE_URL
1000

  0
LINE
  5
C2
330
1F
100
AcDbEntity
  8
0
  6
Continuous
 62
     1
370
    25
100
AcDbLine
 10
27.60216518332105
 20
0.5715831496581957
 30
0.0
 11
28.57500000000001
 21
0.0000000000000016
 31
0.0
1001
PE_URL
1000

  0
LINE
  5
C3
330
1F
100
AcDbEntity
  8
0
  6
Continuous
 62
     1
370
    25
100
AcDbLine
 10
28.57500000000001
 20
0.0000000000000016
 30
0.0
 11
28.57500000000001
 21
-0.371217154719302
 31
0.0
1001
PE_URL
1000

  0
SPLINE
  5
C4
330
1F
100
AcDbEntity
  8
0
  6
Continuous
 62
     1
370
    25
100
AcDbSpline
210
0.0
220
0.0
230
1.0
 70
     8
 71
     3
 72
    10
 73
     6
 74
     0
 42
0.000000001
 43
0.00000001
 40
0.0
 40
0.0
 40
0.0
 40
0.0
 40
0.5
 40
0.5
 40
1.0
 40
1.0
 40
1.0
 40
1.0
 10
28.57500000000001
 20
-0.371217154719303
 30
0.0
 10
28.42618043403185
 20
-0.2542174094430066
 30
0.0
 10
28.27984885623703
 20
-0.1324167157505185
 30
0.0
 10
27.99227693759563
 20
0.121008981180982
 30
0.0
 10
27.84968493484974
 20
0.253967053855029
 30
0.0
 10
27.71530511579319
 20
0.3887621309163197
 30
0.0
1001
PE_URL
1000

  0
SPLINE
  5
C5
330
1F
100
AcDbEntity
  8
0
  6
Continuous
 62
     1
370
    25
100
AcDbSpline
210
0.0
220
0.0
230
1.0
 70
     8
 71
     3
 72
    11
 73
     7
 74
     0
 42
0.000000001
 43
0.00000001
 40
0.0
 40
0.0
 40
0.0
 40
0.0
 40
0.261582203217732
 40
0.5231646267400618
 40
0.7847472720190646
 40
0.9999999999999999
 40
0.9999999999999999
 40
0.9999999999999999
 40
0.9999999999999999
 10
27.71530511579319
 20
0.3887621309163191
 30
0.0
 10
27.4362774736888
 20
0.5051067145189445
 30
0.0
 10
26.87822195448287
 20
0.7377959797096333
 30
0.0
 10
26.04113820129966
 20
0.9824338127662441
 30
0.0
 10
25.25347366323781
 20
1.118191575550549
 30
0.0
 10
24.74483699379069
 20
1.101477845236265
 30
0.0
 10
24.5152285444403
 20
1.093932943480568
 30
0.0
1001
PE_URL
1000

  0
SPLINE
  5
C6
330
1F
100
AcDbEntity
  8
0
  6
Continuous
 62
     1
370
    25
100
AcDbSpline
210
0.0
220
0.0
230
1.0
 70
    24
 71
     3
 72
    10
 73
     6
 74
     0
 42
0.000000001
 43
0.00000001
 40
0.0
 40
0.0
 40
0.0
 40
0.0
 40
0.5
 40
0.5
 40
1.0
 40
1.0
 40
1.0
 40
1.0
 10
28.57500000000001
 20
-1.095931785973974
 30
0.0
 10
28.57500000000001
 20
-1.011920070038097
 30
0.0
 10
28.57500000000001
 20
-0.9057680456138287
 30
0.0
 10
28.57500000000001
 20
-0.6589748048202411
 30
0.0
 10
28.57500000000001
 20
-0.5185473701134595
 30
0.0
 10
28.57500000000001
 20
-0.3712171547193474
 30
0.0
1001
PE_URL
1000

  0
SPLINE
  5
C7
330
1F
100
AcDbEntity
  8
0
  6
Continuous
 62
     1
370
    25
100
AcDbSpline
210
0.0
220
0.0
230
1.0
 70
     8
 71
     3
 72
    12
 73
     8
 74
     0
 42
0.000000001
 43
0.00000001
 40
0.0
 40
0.0
 40
0.0
 40
0.0
 40
0.0899940408209447
 40
0.3526899463256567
 40
0.616787917547045
 40
0.8800641461448303
 40
1.0
 40
1.0
 40
1.0
 40
1.0
 10
22.4300348152963
 20
-1.148228050773136
 30
0.0
 10
22.36436213437011
 20
-1.156858517155681
 30
0.0
 10
22.10698848940842
 20
-1.190681631413674
 30
0.0
 10
21.65720040371632
 20
-1.181357121194449
 30
0.0
 10
21.08006460997384
 20
-1.118347826642138
 30
0.0
 10
20.60771081757883
 20
-1.012218859041414
 30
0.0
 10
20.32812759673626
 20
-0.9270190768834019
 30
0.0
 10
20.24062500000003
 20
-0.9003536634236106
 30
0.0
1001
PE_URL
1000

  0
SPLINE
  5
C8
330
1F
100
AcDbEntity
  8
0
  6
Continuous
 62
     1
370
    25
100
AcDbSpline
210
0.0
220
0.0
230
1.0
 70
     8
 71
     3
 72
    14
 73
    10
 74
     0
 42
0.000000001
 43
0.00000001
 40
0.0
 40
0.0
 40
0.0
 40
0.0
 40
0.0807494773838441
 40
0.2357810285109296
 40
0.3908127127845681
 40
0.5431168676110364
 40
0.695416327895718
 40
0.8477106304621242
 40
1.0
 40
1.0
 40
1.0
 40
1.0
 10
25.64005672283023
 20
-1.027798845072711
 30
0.0
 10
25.49472244528945
 20
-1.053655952961347
 30
0.0
 10
25.07035975531728
 20
-1.129156323859356
 30
0.0
 10
24.36696823180782
 20
-1.111950798064743
 30
0.0
 10
23.53479165087737
 20
-0.9823702890180435
 30
0.0
 10
22.70753088447972
 20
-0.7320436741418768
 30
0.0
 10
21.88520146968391
 20
-0.4009531924465652
 30
0.0
 10
21.06290192379872
 20
-0.0201425870380097
 30
0.0
 10
20.5147143484561
 20
0.227942497153964
 30
0.0
 10
20.24062500000001
 20
0.3519830302604507
 30
0.0
1001
PE_URL
1000

  0
SPLINE
  5
C9
330
1F
100
AcDbEntity
  8
외형선
  6
Continuous
370
    15
100
AcDbSpline
210
0.0
220
0.0
230
1.0
 70
    24
 71
     3
 72
    10
 73
     6
 74
     0
 42
0.000000001
 43
0.00000001
 40
0.0
 40
0.0
 40
0.0
 40
0.0
 40
0.5
 40
0.5
 40
1.0
 40
1.0
 40
1.0
 40
1.0
 10
20.24062499999744
 20
0.3519830302615821
 30
0.0
 10
20.24062499999744
 20
0.1422793865213951
 30
0.0
 10
20.24062499999744
 20
-0.0873135692222494
 30
0.0
 10
20.24062499999744
 20
-0.5250673001269287
 30
0.0
 10
20.24062499999744
 20
-0.731343812100204
 30
0.0
 10
20.24062499999744
 20
-0.9003536634227849
 30
0.0
  0
SPLINE
  5
CA
330
1F
100
AcDbEntity
  8
외형선
  6
Continuous
370
    15
100
AcDbSpline
210
0.0
220
0.0
230
1.0
 70
    24
 71
     3
 72
    13
 73
     9
 74
     0
 42
0.000000001
 43
0.00000001
 40
0.0
 40
0.0
 40
0.0
 40
0.0
 40
0.0612237079363341
 40
0.2519152919265553
 40
0.4372326596971404
 40
0.6279242436873642
 40
0.813962121843682
 40
1.0
 40
1.0
 40
1.0
 40
1.0
 10
20.24062500000001
 20
0.9264623865541813
 30
0.0
 10
20.24062500000001
 20
0.9276524312182057
 30
0.0
 10
20.240625
 20
0.9325490710828659
 30
0.0
 10
20.24062500000001
 20
0.8967964144929186
 30
0.0
 10
20.24062500000001
 20
0.8193000667487291
 30
0.0
 10
20.24062500000001
 20
0.698936745464908
 30
0.0
 10
20.24062500000001
 20
0.5441106293816842
 30
0.0
 10
20.24062500000001
 20
0.4160255633008623
 30
0.0
 10
20.24062500000001
 20
0.3519830302604512
 30
0.0
  0
SPLINE
  5
CB
330
1F
100
AcDbEntity
  8
0
  6
Continuous
 62
     1
370
    25
100
AcDbSpline
210
0.0
220
0.0
230
1.0
 70
    24
 71
     3
 72
     8
 73
     4
 74
     0
 42
0.000000001
 43
0.00000001
 40
0.0
 40
0.0
 40
0.0
 40
0.0
 40
1.0
 40
1.0
 40
1.0
 40
1.0
 10
27.72954188518925
 20
0.678464893216383
 30
0.0
 10
27.68374130942261
 20
0.6400336469828919
 30
0.0
 10
27.63513097456621
 20
0.5992447329334639
 30
0.0
 10
27.58455227709233
 20
0.5568041665377047
 30
0.0
1001
PE_URL
1000

  0
LINE
  5
CC
330
1F
100
AcDbEntity
  8
0
  6
Continuous
 62
     1
370
    25
100
AcDbLine
 10
28.57500000000001
 20
0.9723437500000001
 30
0.0
 11
28.05537533329404
 21
0.9390925644702506
 31
0.0
1001
PE_URL
1000

  0
SPLINE
  5
CD
330
1F
100
AcDbEntity
  8
0
  6
Continuous
 62
     1
370
    25
100
AcDbSpline
210
0.0
220
0.0
230
1.0
 70
     8
 71
     3
 72
     8
 73
     4
 74
     0
 42
0.000000001
 43
0.00000001
 40
0.0
 40
0.0
 40
0.0
 40
0.0
 40
1.0
 40
1.0
 40
1.0
 40
1.0
 10
28.57500000000001
 20
0.9723437500000012
 30
0.0
 10
28.28926659322168
 20
0.8946824946203158
 30
0.0
 10
28.0063028386587
 20
0.7992376002766939
 30
0.0
 10
27.72954188520582
 20
0.6784648932236207
 30
0.0
1001
PE_URL
1000

  0
SPLINE
  5
CE
330
1F
100
AcDbEntity
  8
0
  6
Continuous
 62
     1
370
    25
100
AcDbSpline
210
0.0
220
0.0
230
1.0
 70
     8
 71
     3
 72
    12
 73
     8
 74
     0
 42
0.000000001
 43
0.00000001
 40
0.0
 40
0.0
 40
0.0
 40
0.0
 40
0.0604548934883995
 40
0.2950931605440466
 40
0.5298619172810813
 40
0.7648439191035842
 40
0.9999999999999999
 40
0.9999999999999999
 40
0.9999999999999999
 40
0.9999999999999999
 10
23.36404516892906
 20
-1.092454713540066
 30
0.0
 10
23.30111812694618
 20
-1.11736780903603
 30
0.0
 10
22.99395788513745
 20
-1.238973913432695
 30
0.0
 10
22.44240986873365
 20
-1.354586692472628
 30
0.0
 10
21.70911659182413
 20
-1.410007675704603
 30
0.0
 10
20.97513485861345
 20
-1.335099408217094
 30
0.0
 10
20.48552204954591
 20
-1.18603491807549
 30
0.0
 10
20.24062500000006
 20
-1.111475075784476
 30
0.0
1001
PE_URL
1000

  0
SPLINE
  5
CF
330
1F
100
AcDbEntity
  8
외형선
  6
Continuous
370
    15
100
AcDbSpline
210
0.0
220
0.0
230
1.0
 70
    24
 71
     3
 72
     8
 73
     4
 74
     0
 42
0.000000001
 43
0.00000001
 40
0.0
 40
0.0
 40
0.0
 40
0.0
 40
1.0
 40
1.0
 40
1.0
 40
1.0
 10
20.24062500000001
 20
-0.9003536634236043
 30
0.0
 10
20.24062500000001
 20
-0.9685028751466905
 30
0.0
 10
20.24062500000001
 20
-1.039319102639656
 30
0.0
 10
20.24062500000001
 20
-1.111475075784089
 30
0.0
  0
SPLINE
  5
D0
330
1F
100
AcDbEntity
  8
0
  6
Continuous
 62
     1
370
    25
100
AcDbSpline
210
0.0
220
0.0
230
1.0
 70
     8
 71
     3
 72
    11
 73
     7
 74
     0
 42
0.000000001
 43
0.00000001
 40
0.0
 40
0.0
 40
0.0
 40
0.0
 40
0.2496116975263352
 40
0.4997388484391395
 40
0.7514312506851042
 40
1.0
 40
1.0
 40
1.0
 40
1.0
 10
20.24062500000001
 20
-1.298341547465328
 30
0.0
 10
20.31332851571683
 20
-1.312268210939748
 30
0.0
 10
20.45888568143407
 20
-1.340150296740521
 30
0.0
 10
20.67823068450833
 20
-1.367727647161773
 30
0.0
 10
20.89705475075086
 20
-1.385773222526059
 30
0.0
 10
21.04253051824359
 20
-1.387914469354939
 30
0.0
 10
21.11481422340132
 20
-1.388978407749052
 30
0.0
1001
PE_URL
1000

  0
SPLINE
  5
D1
330
1F
100
AcDbEntity
  8
0
  6
Continuous
 62
     1
370
    25
100
AcDbSpline
210
0.0
220
0.0
230
1.0
 70
     8
 71
     3
 72
    14
 73
    10
 74
     0
 42
0.000000001
 43
0.00000001
 40
0.0
 40
0.0
 40
0.0
 40
0.0
 40
0.019880339002075
 40
0.1242080968272553
 40
0.4384473401820128
 40
0.577761322122546
 40
0.7175014935409784
 40
0.8585307097003305
 40
1.0
 40
1.0
 40
1.0
 40
1.0
 10
26.66946448188863
 20
0.9334458112976891
 30
0.0
 10
26.6821035291879
 20
0.9389763590305539
 30
0.0
 10
26.76106958759308
 20
0.9735300358184454
 30
0.0
 10
27.03874985287407
 20
1.085168534305116
 30
0.0
 10
27.39446181363383
 20
1.203727191108864
 30
0.0
 10
27.77058572580987
 20
1.295099815542987
 30
0.0
 10
28.03729339842363
 20
1.343407175744448
 30
0.0
 10
28.30603304841496
 20
1.376379907638078
 30
0.0
 10
28.48525128784375
 20
1.384048310971468
 30
0.0
 10
28.57499999999994
 20
1.387888485529926
 30
0.0
1001
PE_URL
1000

  0
LINE
  5
D2
330
1F
100
AcDbEntity
  8
0
  6
Continuous
 62
     1
370
    25
100
AcDbLine
 10
28.57500000000001
 20
0.0000000000000016
 30
0.0
 11
28.57500000000001
 21
0.9723437500000013
 31
0.0
1001
PE_URL
1000

  0
SPLINE
  5
D3
330
1F
100
AcDbEntity
  8
0
  6
Continuous
 62
     1
370
    25
100
AcDbSpline
210
0.0
220
0.0
230
1.0
 70
    24
 71
     3
 72
    10
 73
     6
 74
     0
 42
0.000000001
 43
0.00000001
 40
0.0
 40
0.0
 40
0.0
 40
0.0
 40
0.5
 40
0.5
 40
1.0
 40
1.0
 40
1.0
 40
1.0
 10
28.57500000000001
 20
0.9723437500000003
 30
0.0
 10
28.57500000000001
 20
1.03128480672141
 30
0.0
 10
28.57500000000002
 20
1.09977977316073
 30
0.0
 10
28.57500000000002
 20
1.24348202827219
 30
0.0
 10
28.57500000000001
 20
1.318322319417984
 30
0.0
 10
28.57500000000001
 20
1.387888485529929
 30
0.0
1001
PE_URL
1000

  0
LINE
  5
D4
330
1F
100
AcDbEntity
  8
중심선
 62
     1
100
AcDbLine
 10
-30.075
 20
-0.0000000000000037
 30
0.0
 11
30.075
 21
0.000000000000004
 31
0.0
  0
LINE
  5
D5
330
1F
100
AcDbEntity
  8
참조1
100
AcDbLine
 10
0.0
 20
-0.0000000000000039
 30
0.0
 11
0.0000000000000107
 21
-40.00000000000001
 31
0.0
  0
LINE
  5
D6
330
1F
100
AcDbEntity
  8
참조1
100
AcDbLine
 10
0.0000000000000107
 20
-40.00000000000001
 30
0.0
 11
-19.62509059669922
 21
-39.99999999999999
 31
0.0
  0
CIRCLE
  5
D7
330
1F
100
AcDbEntity
  8
해칭선
100
AcDbCircle
 10
0.0
 20
0.0
 30
0.0
 40
3.000000000000001
  0
INSERT
  5
D8
330
1F
100
AcDbEntity
  8
0
  6
Continuous
 62
     7
100
AcDbBlockReference
 66
     1
  2
블럭10
 10
-13.9402729321252
 20
-52.04717430164393
 30
0.0
  0
ATTRIB
  5
D9
330
D8
100
AcDbEntity
  8
FORMAT
 62
     2
100
AcDbText
 10
-23.12156822086649
 20
-49.97180738881174
 30
0.0
 40
4.233333333333333
  1
E1003007 [ 2 FLUTE ]
 41
0.75
  7
SLDTEXTSTYLE0
 11
-23.12156822086649
 21
-52.08847405547841
 31
0.0
100
AcDbAttribute
  2
AUTOATTR0
 70
     0
 74
     1
  0
SEQEND
  5
DA
330
D8
100
AcDbEntity
  8
0
  6
Continuous
 62
     7
  0
HATCH
  5
DB
330
1F
100
AcDbEntity
  8
중심선
100
AcDbHatch
 10
0.0
 20
0.0
 30
0.0
210
0.0
220
0.0
230
1.0
  2
SOLID
 70
     1
 71
     0
 91
        1
 92
        0
 93
        4
 72
     1
 10
-8.225363627744361
 20
-35.8
 11
-11.67163887158164
 21
-35.8
 72
     1
 10
-11.67163887158164
 20
-35.8
 11
-13.79986873078566
 21
-38.3363255805726
 72
     1
 10
-13.79986873078566
 20
-38.3363255805726
 11
-10.35356040183523
 21
-38.3362861512701
 72
     1
 10
-10.35356040183523
 20
-38.3362861512701
 11
-8.225363627744361
 21
-35.8
 97
        0
 75
     0
 76
     1
 98
        1
 10
9.834836678730513
 20
-0.0010749287238931
  0
HATCH
  5
DC
330
1F
100
AcDbEntity
  8
중심선
100
AcDbHatch
 10
0.0
 20
0.0
 30
0.0
210
0.0
220
0.0
230
1.0
  2
SOLID
 70
     1
 71
     0
 91
        1
 92
        0
 93
        4
 72
     1
 10
-3.212599636708411
 20
-35.8
 11
-6.658874880545689
 21
-35.8
 72
     1
 10
-6.658874880545689
 20
-35.8
 11
-11.19001288890308
 21
-41.20000000000002
 72
     1
 10
-11.19001288890308
 20
-41.20000000000002
 11
-7.743737645065799
 21
-41.20000000000002
 72
     1
 10
-7.743737645065799
 20
-41.20000000000002
 11
-3.212599636708411
 21
-35.8
 97
        0
 75
     0
 76
     1
 98
        1
 10
9.834836678730513
 20
-0.0010749287238931
  0
HATCH
  5
DD
330
1F
100
AcDbEntity
  8
중심선
100
AcDbHatch
 10
0.0
 20
0.0
 30
0.0
210
0.0
220
0.0
230
1.0
  2
SOLID
 70
     1
 71
     0
 91
        1
 92
        0
 93
        4
 72
     1
 10
1.800164354327491
 20
-35.8
 11
-1.646110889509631
 21
-35.80000000000003
 72
     1
 10
-1.646110889509631
 20
-35.80000000000003
 11
-8.694547791398879
 21
-44.20000000000002
 72
     1
 10
-8.694547791398879
 20
-44.20000000000002
 11
-5.248272547561591
 21
-44.20000000000002
 72
     1
 10
-5.248272547561591
 20
-44.20000000000002
 11
1.800164354327491
 21
-35.8
 97
        0
 75
     0
 76
     1
 98
        1
 10
9.834836678730513
 20
-0.0010749287238931
  0
HATCH
  5
DE
330
1F
100
AcDbEntity
  8
중심선
100
AcDbHatch
 10
0.0
 20
0.0
 30
0.0
210
0.0
220
0.0
230
1.0
  2
SOLID
 70
     1
 71
     0
 91
        1
 92
        0
 93
        6
 72
     3
 10
6.600054785339687
 20
-40.00000000005127
 11
3.960054785062283
 21
1.540882976769353E-10
 40
0.3939339440162628
 50
17.09539180608439
 51
320.0019657685077
 73
     0
 72
     1
 10
8.283054441040255
 20
-38.58789400463831
 11
10.58835631474132
 21
-36.65356729459039
 72
     3
 10
6.60005478528684
 20
-40.00000000000014
 11
6.600054785286829
 21
-1.278976924368180E-13
 40
0.636358354079598
 50
39.99873849337411
 51
368.4976242363724
 73
     1
 72
     1
 10
13.02538727718745
 20
-39.03999999993002
 11
5.280122092122763
 21
-39.03999999993002
 72
     1
 10
5.280122092122763
 20
-39.03999999993002
 11
5.280097047676829
 21
-40.95999999992991
 72
     1
 10
5.280097047676829
 20
-40.95999999992991
 11
9.721476817148865
 21
-40.95999999992988
 97
        0
 75
     0
 76
     1
 98
        1
 10
9.834836678730513
 20
-0.0010749287238931
  0
DIMENSION
  5
DF
330
1F
100
AcDbEntity
  8
치수문자_일반주서
100
AcDbDimension
  2
_D
 10
-36.57500000000002
 20
-2.38125000000008
 30
0.0
 11
-36.57500000000007
 21
17.63124999999998
 31
0.0
 70
   160
  1
%%c<>
 71
     2
 42
4.7625
 52
-270.0
  3
SLDDIMSTYLE0
100
AcDbAlignedDimension
 13
-15.53773083936528
 23
2.381249999999999
 33
0.0
 14
-15.53773083936527
 24
-2.381250000000001
 34
0.0
 50
90.0000000000002
100
AcDbRotatedDimension
1001
PE_URL
1000

1001
ACAD
1000
DSTYLE
1002
{
1070
   171
1070
     8
1070
   273
1070
     7
1070
    41
1040
2.5
1070
   140
1040
2.5
1002
}
  0
DIMENSION
  5
F4
330
1F
100
AcDbEntity
  8
치수문자_일반주서
100
AcDbDimension
  2
_D_1
 10
59.30686985382436
 20
1.387888485530043
 30
0.0
 11
59.30686985382432
 21
16.95038848553005
 31
0.0
 70
   160
  1
%%c<>
 71
     2
 42
2.775776971059855
 52
-270.0
  3
SLDDIMSTYLE0
100
AcDbAlignedDimension
 13
28.57500000000001
 23
-1.387888485529927
 33
0.0
 14
28.57500000000001
 24
1.387888485529928
 34
0.0
 50
90.0000000000002
100
AcDbRotatedDimension
1001
PE_URL
1000

1001
ACAD
1000
DSTYLE
1002
{
1070
   171
1070
     8
1070
   273
1070
     7
1070
    41
1040
2.5
1070
   140
1040
2.5
1002
}
  0
DIMENSION
  5
108
330
1F
100
AcDbEntity
  8
치수문자_일반주서
100
AcDbDimension
  2
_D_2
 10
20.24062500000001
 20
10.38124999999999
 30
0.0
 11
43.82500000000001
 21
10.38124999999999
 31
0.0
 70
   160
  1
<>
 71
     2
 42
8.334375000000001
  3
SLDDIMSTYLE0
100
AcDbAlignedDimension
 13
28.57500000000001
 23
1.387888485529928
 33
0.0
 14
20.24062500000001
 24
0.9311412131921488
 34
0.0
100
AcDbRotatedDimension
1001
PE_URL
1000

1001
ACAD
1000
DSTYLE
1002
{
1070
   171
1070
     8
1070
   273
1070
     7
1070
    41
1040
2.5
1070
   140
1040
2.5
1002
}
  0
DIMENSION
  5
11D
330
1F
100
AcDbEntity
  8
치수문자_일반주서
100
AcDbDimension
  2
_D_3
 10
28.57500000000001
 20
18.38125
 30
0.0
 11
0.0000000000000178
 21
18.38125
 31
0.0
 70
   160
  1
<>
 71
     2
 42
57.15000000000003
  3
SLDDIMSTYLE0
100
AcDbAlignedDimension
 13
-28.57500000000002
 23
1.387888485529942
 33
0.0
 14
28.57500000000001
 24
1.387888485529928
 34
0.0
100
AcDbRotatedDimension
1001
PE_URL
1000

1001
ACAD
1000
DSTYLE
1002
{
1070
   171
1070
     8
1070
   273
1070
     7
1070
    41
1040
2.5
1070
   140
1040
2.5
1002
}
  0
LINE
  5
130
330
1F
100
AcDbEntity
  8
참조1
100
AcDbLine
 10
78.34725003295506
 20
7.440000000000003
 30
0.0
 11
78.34725003295506
 21
-7.440000000000002
 31
0.0
  0
LINE
  5
131
330
1F
100
AcDbEntity
  8
참조1
100
AcDbLine
 10
91.04725003295505
 20
5.440000000000003
 30
0.0
 11
78.34725003295506
 21
5.440000000000003
 31
0.0
  0
SOLID
  5
132
330
1F
100
AcDbEntity
  8
참조1
100
AcDbTrace
 10
78.34725003295506
 20
5.440000000000003
 30
0.0
 11
84.69725003295505
 21
4.424000000000003
 31
0.0
 12
84.69725003295505
 22
6.456000000000003
 32
0.0
 13
84.69725003295505
 23
6.456000000000003
 33
0.0
  0
LINE
  5
133
330
1F
100
AcDbEntity
  8
참조1
100
AcDbLine
 10
91.04725003295505
 20
-5.440000000000002
 30
0.0
 11
78.34725003295506
 21
-5.440000000000002
 31
0.0
  0
SOLID
  5
134
330
1F
100
AcDbEntity
  8
참조1
100
AcDbTrace
 10
78.34725003295506
 20
-5.440000000000002
 30
0.0
 11
84.69725003295505
 21
-6.456000000000002
 31
0.0
 12
84.69725003295505
 22
-4.424000000000002
 32
0.0
 13
84.69725003295505
 23
-4.424000000000002
 33
0.0
  0
MTEXT
  5
135
330
1F
100
AcDbEntity
  8
참조1
100
AcDbMText
 10
87.73160016558106
 20
11.01029177718833
 30
0.0
 40
3.5
 41
0.0
 71
     1
 72
     1
  1
A
  7
SLDTEXTSTYLE0
 73
     1
 44
1.0
  0
MTEXT
  5
136
330
1F
100
AcDbEntity
  8
참조1
100
AcDbMText
 10
87.73160016558106
 20
0.1302917771883261
 30
0.0
 40
3.5
 41
0.0
 71
     1
 72
     1
  1
A
  7
SLDTEXTSTYLE0
 73
     1
 44
1.0
  0
INSERT
  5
13D
330
1F
100
AcDbEntity
  8
해칭선
100
AcDbBlockReference
  2
SW_DOWELSYMBOL_0
 10
0.0
 20
0.0
 30
0.0
  0
LINE
  5
21B
330
1F
100
AcDbEntity
  8
외형선
  6
Continuous
370
    15
100
AcDbLine
 10
-15.53773083936528
 20
2.381249999999997
 30
0.0
 11
-19.24062500000002
 21
1.389062500000002
 31
0.0
  0
LINE
  5
21C
330
1F
100
AcDbEntity
  8
외형선
  6
Continuous
370
    15
100
AcDbLine
 10
-19.24062500000002
 20
-1.389062499999999
 30
0.0
 11
-15.53773083936528
 21
-2.381250000000003
 31
0.0
  0
LINE
  5
21D
330
1F
100
AcDbEntity
  8
외형선
  6
Continuous
370
    15
100
AcDbLine
 10
-19.35060604983936
 20
-1.389062499999999
 30
0.0
 11
-19.24062500000002
 21
-1.389062499999999
 31
0.0
  0
LINE
  5
21E
330
1F
100
AcDbEntity
  8
외형선
  6
Continuous
370
    15
100
AcDbLine
 10
-19.24062500000002
 20
1.389062500000002
 30
0.0
 11
-19.35060604983936
 21
1.389062500000002
 31
0.0
  0
SPLINE
  5
21F
330
1F
100
AcDbEntity
  8
외형선
  6
Continuous
370
    15
100
AcDbSpline
210
0.0
220
0.0
230
1.0
 70
     8
 71
     3
 72
     9
 73
     5
 74
     0
 42
0.000000001
 43
0.00000001
 40
0.0
 40
0.0
 40
0.0
 40
0.0
 40
0.4982813946047077
 40
1.0
 40
1.0
 40
1.0
 40
1.0
 10
-20.24062500000009
 20
-0.931119501583179
 30
0.0
 10
-20.09232373271626
 20
-0.9239794020824605
 30
0.0
 10
-19.79469819644378
 20
-0.9096499497327828
 30
0.0
 10
-19.49897241233923
 20
-0.9162694910680285
 30
0.0
 10
-19.35060128435887
 20
-0.9195906381151049
 30
0.0
  0
ARC
  5
220
330
1F
100
AcDbEntity
  8
외형선
  6
Continuous
370
    15
100
AcDbCircle
 10
-19.70060595702045
 20
1.264139650276505
 30
0.0
 40
0.3499999071817231
100
AcDbArc
 50
323.486468555789
 51
359.9901248472914
  0
SPLINE
  5
221
330
1F
100
AcDbEntity
  8
0
  6
Continuous
 62
     1
370
    25
100
AcDbSpline
210
0.0
220
0.0
230
1.0
 70
     8
 71
     3
 72
     9
 73
     5
 74
     0
 42
0.000000001
 43
0.00000001
 40
0.0
 40
0.0
 40
0.0
 40
0.0
 40
0.4802132970933899
 40
1.0
 40
1.0
 40
1.0
 40
1.0
 10
-24.9771383090899
 20
-0.3558800718260586
 30
0.0
 10
-24.9151420186138
 20
-0.3852915643220915
 30
0.0
 10
-24.78604044885024
 20
-0.4465382908789245
 30
0.0
 10
-24.65698634730717
 20
-0.5138348497148486
 30
0.0
 10
-24.58990574136953
 20
-0.5488147061491355
 30
0.0
1001
PE_URL
1000

  0
LINE
  5
222
330
1F
100
AcDbEntity
  8
0
  6
Continuous
 62
     1
370
    25
100
AcDbLine
 10
-21.7890651671328
 20
-1.389062499999996
 30
0.0
 11
-21.11480792721374
 21
-1.389062499999996
 31
0.0
1001
PE_URL
1000

  0
SPLINE
  5
223
330
1F
100
AcDbEntity
  8
0
  6
Continuous
 62
     1
370
    25
100
AcDbSpline
210
0.0
220
0.0
230
1.0
 70
     8
 71
     3
 72
    15
 73
    11
 74
     0
 42
0.000000001
 43
0.00000001
 40
0.0
 40
0.0
 40
0.0
 40
0.0
 40
0.2532495881985025
 40
0.4219259657364141
 40
0.5289759985761678
 40
0.6349626816360547
 40
0.741869093673391
 40
0.8483376744287815
 40
0.955064694739171
 40
1.0
 40
1.0
 40
1.0
 40
1.0
 10
-24.51613265487179
 20
-1.103794440573482
 30
0.0
 10
-24.41874714281213
 20
-1.099153977325604
 30
0.0
 10
-24.25649820682451
 20
-1.09142274288904
 30
0.0
 10
-24.0533443330255
 20
-1.086748532975663
 30
0.0
 10
-23.90662684680256
 20
-1.084949110720417
 30
0.0
 10
-23.78366855323511
 20
-1.084626088920174
 30
0.0
 10
-23.66094123451256
 20
-1.085404183292594
 30
0.0
 10
-23.53801797503574
 20
-1.087497689328952
 30
0.0
 10
-23.43887360291532
 20
-1.089716882745273
 30
0.0
 10
-23.38058827592764
 20
-1.092043539899531
 30
0.0
 10
-23.36331919508932
 20
-1.092732894022713
 30
0.0
1001
PE_URL
1000

  0
SPLINE
  5
224
330
1F
100
AcDbEntity
  8
0
  6
Continuous
 62
     1
370
    25
100
AcDbSpline
210
0.0
220
0.0
230
1.0
 70
     8
 71
     3
 72
    17
 73
    13
 74
     0
 42
0.000000001
 43
0.00000001
 40
0.0
 40
0.0
 40
0.0
 40
0.0
 40
0.1254555942493454
 40
0.2131691954051164
 40
0.2897916136648241
 40
0.3712556475610966
 40
0.4529690809726691
 40
0.6522179511552485
 40
0.69829674760333
 40
0.7656613418886646
 40
0.8666903653155327
 40
1.0
 40
1.0
 40
1.0
 40
1.0
 10
-22.42874150191364
 20
1.155875123015223
 30
0.0
 10
-22.51634426136498
 20
1.14751373772917
 30
0.0
 10
-22.66519541351364
 20
1.133306401782413
 30
0.0
 10
-22.86629537619154
 20
1.118018454988255
 30
0.0
 10
-23.03688018516409
 20
1.107097214082023
 30
0.0
 10
-23.20386174766863
 20
1.098431750891623
 30
0.0
 10
-23.45608170100119
 20
1.08845041972717
 30
0.0
 10
-23.68346686762019
 20
1.084443831907294
 30
0.0
 10
-23.90112092611803
 20
1.084924673656197
 30
0.0
 10
-24.05026814278069
 20
1.08662517738502
 30
0.0
 10
-24.26010665350358
 20
1.091533732140397
 30
0.0
 10
-24.42329737348759
 20
1.099348695566063
 30
0.0
 10
-24.51613265487179
 20
1.1037944405735
 30
0.0
1001
PE_URL
1000

  0
SPLINE
  5
225
330
1F
100
AcDbEntity
  8
0
  6
Continuous
 62
     1
370
    25
100
AcDbSpline
210
0.0
220
0.0
230
1.0
 70
     8
 71
     3
 72
    13
 73
     9
 74
     0
 42
0.000000001
 43
0.00000001
 40
0.0
 40
0.0
 40
0.0
 40
0.0
 40
0.28323415833286
 40
0.4822601739506866
 40
0.6588758984095692
 40
0.8216961714419216
 40
0.9915028184707266
 40
1.0
 40
1.0
 40
1.0
 40
1.0
 10
-25.63215501439313
 20
1.044774738504074
 30
0.0
 10
-25.73018061401881
 20
1.030100878749487
 30
0.0
 10
-25.89708789315974
 20
1.005115833868496
 30
0.0
 10
-26.12389388865986
 20
0.9773378027006319
 30
0.0
 10
-26.30967839959572
 20
0.9579290945733325
 30
0.0
 10
-26.48546463863568
 20
0.9430950854383335
 30
0.0
 10
-26.60325260497697
 20
0.9342264464095875
 30
0.0
 10
-26.66477875747108
 20
0.93113466084629
 30
0.0
 10
-26.6677108251152
 20
0.9309873198531469
 30
0.0
1001
PE_URL
1000

  0
SPLINE
  5
226
330
1F
100
AcDbEntity
  8
0
  6
Continuous
 62
     1
370
    25
100
AcDbSpline
210
0.0
220
0.0
230
1.0
 70
     8
 71
     3
 72
     9
 73
     5
 74
     0
 42
0.000000001
 43
0.00000001
 40
0.0
 40
0.0
 40
0.0
 40
0.0
 40
0.5011272974705633
 40
1.0
 40
1.0
 40
1.0
 40
1.0
 10
-20.50033129045388
 20
-0.9500869419293563
 30
0.0
 10
-20.45684840929821
 20
-0.9464979181604976
 30
0.0
 10
-20.37007827848486
 20
-0.939336017807088
 30
0.0
 10
-20.28371118522445
 20
-0.9338542205803806
 30
0.0
 10
-20.24062500000002
 20
-0.9311195015831755
 30
0.0
1001
PE_URL
1000

  0
SPLINE
  5
227
330
1F
100
AcDbEntity
  8
0
  6
Continuous
 62
     1
370
    25
100
AcDbSpline
210
0.0
220
0.0
230
1.0
 70
     8
 71
     3
 72
     9
 73
     5
 74
     0
 42
0.000000001
 43
0.00000001
 40
0.0
 40
0.0
 40
0.0
 40
0.0
 40
0.4988727025294367
 40
1.0
 40
1.0
 40
1.0
 40
1.0
 10
-20.24062500000002
 20
0.9311195015831812
 30
0.0
 10
-20.28371118522445
 20
0.9338542205803864
 30
0.0
 10
-20.37007827848486
 20
0.9393360178070937
 30
0.0
 10
-20.45684840929821
 20
0.9464979181605033
 30
0.0
 10
-20.50033129045388
 20
0.950086941929362
 30
0.0
1001
PE_URL
1000

  0
SPLINE
  5
228
330
1F
100
AcDbEntity
  8
0
  6
Continuous
 62
     1
370
    25
100
AcDbSpline
210
0.0
220
0.0
230
1.0
 70
     8
 71
     3
 72
    19
 73
    15
 74
     0
 42
0.000000001
 43
0.00000001
 40
0.0
 40
0.0
 40
0.0
 40
0.0
 40
0.1262477989753508
 40
0.209436671264492
 40
0.2654769089347016
 40
0.3235499475099675
 40
0.3828962681449842
 40
0.4418590847308906
 40
0.5002855885981122
 40
0.6958572524272438
 40
0.7415779330534513
 40
0.7941963266472196
 40
0.8791303255950677
 40
1.0
 40
1.0
 40
1.0
 40
1.0
 10
-28.05838217387305
 20
-0.9500534435815557
 30
0.0
 10
-27.9555080399232
 20
-0.9420833452808901
 30
0.0
 10
-27.78484671870775
 20
-0.9288614842164564
 30
0.0
 10
-27.57040536097488
 20
-0.9196649874707565
 30
0.0
 10
-27.41267202597245
 20
-0.9154961994789639
 30
0.0
 10
-27.27248740401713
 20
-0.9138325724718344
 30
0.0
 10
-27.12973474116921
 20
-0.9142731195377374
 30
0.0
 10
-26.98677375264403
 20
-0.9168789799176904
 30
0.0
 10
-26.73400845575116
 20
-0.9254153168703885
 30
0.0
 10
-26.49138172625158
 20
-0.9413026503614341
 30
0.0
 10
-26.25365801932808
 20
-0.9637567027929153
 30
0.0
 10
-26.1055468271799
 20
-0.979574218757765
 30
0.0
 10
-25.89708539032478
 20
-1.005120868695227
 30
0.0
 10
-25.73017968796578
 20
-1.03010274164362
 30
0.0
 10
-25.63215501439313
 20
-1.044774738504054
 30
0.0
1001
PE_URL
1000

  0
LINE
  5
229
330
1F
100
AcDbEntity
  8
0
  6
Continuous
 62
     1
370
    25
100
AcDbLine
 10
-21.11481422340133
 20
1.389062500000005
 30
0.0
 11
-21.78906516713278
 21
1.389062500000005
 31
0.0
1001
PE_URL
1000

  0
LINE
  5
22A
330
1F
100
AcDbEntity
  8
외형선
  6
Continuous
370
    15
100
AcDbLine
 10
-15.53773083936528
 20
-2.381250000000003
 30
0.0
 11
-15.53773083936528
 21
2.381249999999999
 31
0.0
  0
LINE
  5
22B
330
1F
100
AcDbEntity
  8
외형선
  6
Continuous
370
    15
100
AcDbLine
 10
-19.24062500000002
 20
-1.389062499999999
 30
0.0
 11
-19.24062500000002
 21
1.389062500000002
 31
0.0
  0
SPLINE
  5
22C
330
1F
100
AcDbEntity
  8
외형선
  6
Continuous
370
    15
100
AcDbSpline
210
0.0
220
0.0
230
1.0
 70
     8
 71
     3
 72
    10
 73
     6
 74
     0
 42
0.000000001
 43
0.00000001
 40
0.0
 40
0.0
 40
0.0
 40
0.0
 40
0.5
 40
0.5
 40
1.0
 40
1.0
 40
1.0
 40
1.0
 10
-19.35060604983936
 20
-1.031847217598411
 30
0.0
 10
-19.49700039887671
 20
-1.088956228300763
 30
0.0
 10
-19.64686120025709
 20
-1.140625803441963
 30
0.0
 10
-19.945935614025
 20
-1.230190846346557
 30
0.0
 10
-20.0934936350337
 20
-1.267968069481593
 30
0.0
 10
-20.24062500000073
 20
-1.298341547465471
 30
0.0
  0
SPLINE
  5
22D
330
1F
100
AcDbEntity
  8
외형선
  6
Continuous
370
    15
100
AcDbSpline
210
0.0
220
0.0
230
1.0
 70
     8
 71
     3
 72
    10
 73
     6
 74
     0
 42
0.000000001
 43
0.00000001
 40
0.0
 40
0.0
 40
0.0
 40
0.0
 40
0.5
 40
0.5
 40
1.0
 40
1.0
 40
1.0
 40
1.0
 10
-20.24062500000002
 20
1.111475075784462
 30
0.0
 10
-20.09349032905678
 20
1.060224283350975
 30
0.0
 10
-19.94592890926128
 20
1.002609850639154
 30
0.0
 10
-19.64684774481182
 20
0.8760293067715674
 30
0.0
 10
-19.49698364273653
 20
0.8072639011858558
 30
0.0
 10
-19.35058631336468
 20
0.7348733046404574
 30
0.0
  0
LINE
  5
22E
330
1F
100
AcDbEntity
  8
외형선
  6
Continuous
370
    15
100
AcDbLine
 10
-20.24062500000002
 20
1.11147507578446
 30
0.0
 11
-20.24062500000002
 21
1.298341547465464
 31
0.0
  0
SPLINE
  5
22F
330
1F
100
AcDbEntity
  8
외형선
  6
Continuous
370
    15
100
AcDbSpline
210
0.0
220
0.0
230
1.0
 70
     8
 71
     3
 72
    10
 73
     6
 74
     0
 42
0.000000001
 43
0.00000001
 40
0.0
 40
0.0
 40
0.0
 40
0.0
 40
0.5
 40
0.5
 40
1.0
 40
1.0
 40
1.0
 40
1.0
 10
-19.35192425020067
 20
1.032361270766117
 30
0.0
 10
-19.49811949249179
 20
1.08935224774943
 30
0.0
 10
-19.64775983092861
 20
1.140915052752922
 30
0.0
 10
-19.94638338396657
 20
1.23030471817957
 30
0.0
 10
-20.09371442561456
 20
1.268013649007381
 30
0.0
 10
-20.24062500000002
 20
1.298341547465333
 30
0.0
  0
SPLINE
  5
230
330
1F
100
AcDbEntity
  8
외형선
  6
Continuous
370
    15
100
AcDbSpline
210
0.0
220
0.0
230
1.0
 70
     8
 71
     3
 72
     8
 73
     4
 74
     0
 42
0.000000001
 43
0.00000001
 40
0.0
 40
0.0
 40
0.0
 40
0.0
 40
0.0000770651048634
 40
0.0000770651048634
 40
0.0000770651048634
 40
0.0000770651048634
 10
-19.35060604983936
 20
1.08230682242248
 30
0.0
 10
-19.35060604983936
 20
1.066204820932788
 30
0.0
 10
-19.35098335170748
 20
1.049536831421447
 30
0.0
 10
-19.35192425019904
 20
1.032361270766117
 30
0.0
  0
LINE
  5
231
330
1F
100
AcDbEntity
  8
외형선
  6
Continuous
370
    15
100
AcDbLine
 10
-19.35060604983936
 20
1.389062500000002
 30
0.0
 11
-19.35060604983936
 21
1.08230682242248
 31
0.0
  0
LINE
  5
232
330
1F
100
AcDbEntity
  8
외형선
  6
Continuous
370
    15
100
AcDbLine
 10
-19.35060604983936
 20
0.7348227859787324
 30
0.0
 11
-19.35060604983936
 21
-1.389062499999999
 31
0.0
  0
SPLINE
  5
233
330
1F
100
AcDbEntity
  8
외형선
  6
Continuous
370
    15
100
AcDbSpline
210
0.0
220
0.0
230
1.0
 70
    24
 71
     3
 72
     8
 73
     4
 74
     0
 42
0.000000001
 43
0.00000001
 40
0.0
 40
0.0
 40
0.0
 40
0.0
 40
1.0
 40
1.0
 40
1.0
 40
1.0
 10
-20.24062500000002
 20
0.9003536634236069
 30
0.0
 10
-20.24062500000002
 20
0.968502875146694
 30
0.0
 10
-20.24062500000002
 20
1.03931910263966
 30
0.0
 10
-20.24062500000002
 20
1.111475075784093
 30
0.0
  0
SPLINE
  5
234
330
1F
100
AcDbEntity
  8
외형선
  6
Continuous
370
    15
100
AcDbSpline
210
0.0
220
0.0
230
1.0
 70
     8
 71
     3
 72
    10
 73
     6
 74
     0
 42
0.000000001
 43
0.00000001
 40
0.0
 40
0.0
 40
0.0
 40
0.0
 40
0.5
 40
0.5
 40
1.0
 40
1.0
 40
1.0
 40
1.0
 10
-20.24062500000004
 20
0.900353663423614
 30
0.0
 10
-20.0934903290568
 20
0.8533668678675552
 30
0.0
 10
-19.94592890926129
 20
0.8012197256159246
 30
0.0
 10
-19.64684774481182
 20
0.6878692901941081
 30
0.0
 10
-19.49698364273653
 20
0.6268501340630659
 30
0.0
 10
-19.35058631336468
 20
0.5631178939300681
 30
0.0
  0
SPLINE
  5
235
330
1F
100
AcDbEntity
  8
외형선
  6
Continuous
370
    15
100
AcDbSpline
210
0.0
220
0.0
230
1.0
 70
     8
 71
     3
 72
    10
 73
     6
 74
     0
 42
0.000000001
 43
0.00000001
 40
0.0
 40
0.0
 40
0.0
 40
0.0
 40
0.5
 40
0.5
 40
1.0
 40
1.0
 40
1.0
 40
1.0
 10
-20.24062500000002
 20
-0.3519830302604487
 30
0.0
 10
-20.09349242558057
 20
-0.4168213590106508
 30
0.0
 10
-19.94593316116624
 20
-0.4797254165052533
 30
0.0
 10
-19.64685627774031
 20
-0.599874565997714
 30
0.0
 10
-19.49699426883831
 20
-0.6568638186421756
 30
0.0
 10
-19.35059882947743
 20
-0.7093931516497614
 30
0.0
  0
SPLINE
  5
236
330
1F
100
AcDbEntity
  8
외형선
  6
Continuous
370
    15
100
AcDbSpline
210
0.0
220
0.0
230
1.0
 70
    24
 71
     3
 72
    10
 73
     6
 74
     0
 42
0.000000001
 43
0.00000001
 40
0.0
 40
0.0
 40
0.0
 40
0.0
 40
0.5
 40
0.5
 40
1.0
 40
1.0
 40
1.0
 40
1.0
 10
-20.24062499999746
 20
-0.3519830302615785
 30
0.0
 10
-20.24062499999746
 20
-0.1422793865213909
 30
0.0
 10
-20.24062499999746
 20
0.0873135692222536
 30
0.0
 10
-20.24062499999746
 20
0.5250673001269315
 30
0.0
 10
-20.24062499999746
 20
0.7313438121002067
 30
0.0
 10
-20.24062499999746
 20
0.900353663422788
 30
0.0
  0
SPLINE
  5
237
330
1F
100
AcDbEntity
  8
외형선
  6
Continuous
370
    15
100
AcDbSpline
210
0.0
220
0.0
230
1.0
 70
    24
 71
     3
 72
    13
 73
     9
 74
     0
 42
0.000000001
 43
0.00000001
 40
0.0
 40
0.0
 40
0.0
 40
0.0
 40
0.0593241477905428
 40
0.2504015852968228
 40
0.436093932164255
 40
0.6271713696705381
 40
0.813585684835269
 40
1.0
 40
1.0
 40
1.0
 40
1.0
 10
-20.24062500000002
 20
-0.9265304713188482
 30
0.0
 10
-20.24062500000002
 20
-0.9276694849604288
 30
0.0
 10
-20.24062500000002
 20
-0.9324771532059744
 30
0.0
 10
-20.24062500000002
 20
-0.8967622678765872
 30
0.0
 10
-20.24062500000002
 20
-0.8193094024772483
 30
0.0
 10
-20.24062500000002
 20
-0.6989342944511241
 30
0.0
 10
-20.24062500000002
 20
-0.5441112358143714
 30
0.0
 10
-20.24062500000002
 20
-0.4160257654450896
 30
0.0
 10
-20.24062500000002
 20
-0.3519830302604469
 30
0.0
  0
SPLINE
  5
238
330
1F
100
AcDbEntity
  8
외형선
  6
Continuous
370
    15
100
AcDbSpline
210
0.0
220
0.0
230
1.0
 70
    24
 71
     3
 72
    10
 73
     6
 74
     0
 42
0.000000001
 43
0.00000001
 40
0.0
 40
0.0
 40
0.0
 40
0.0
 40
0.5
 40
0.5
 40
1.0
 40
1.0
 40
1.0
 40
1.0
 10
-20.24062500000002
 20
-1.298341547465314
 30
0.0
 10
-20.24062500000002
 20
-1.226719196983746
 30
0.0
 10
-20.24062500000002
 20
-1.15439503238791
 30
0.0
 10
-20.24062500000002
 20
-1.024589953375063
 30
0.0
 10
-20.24062500000002
 20
-0.9674059374186983
 30
0.0
 10
-20.24062500000002
 20
-0.9222784366085965
 30
0.0
  0
SPLINE
  5
239
330
1F
100
AcDbEntity
  8
0
  6
Continuous
 62
     1
370
    25
100
AcDbSpline
210
0.0
220
0.0
230
1.0
 70
     8
 71
     3
 72
    17
 73
    13
 74
     0
 42
0.000000001
 43
0.00000001
 40
0.0
 40
0.0
 40
0.0
 40
0.0
 40
0.0983993953439405
 40
0.1965628916488541
 40
0.2946554670639875
 40
0.3928438165119883
 40
0.4912834821055716
 40
0.5896373334345223
 40
0.6877796656824927
 40
0.7957358645966147
 40
0.9037134739995519
 40
1.0
 40
1.0
 40
1.0
 40
1.0
 10
-28.57500000000002
 20
1.31813817616745
 30
0.0
 10
-28.35233337042873
 20
1.267858855837505
 30
0.0
 10
-27.907533923956
 20
1.167420752944207
 30
0.0
 10
-27.24122949667638
 20
0.9004901324665229
 30
0.0
 10
-26.57544851871648
 20
0.5721555078744756
 30
0.0
 10
-25.9089707366731
 20
0.1980229159706133
 30
0.0
 10
-25.24136176138065
 20
-0.1901771273737204
 30
0.0
 10
-24.57405009201825
 20
-0.5641171784129371
 30
0.0
 10
-23.88568379547713
 20
-0.9070137385522015
 30
0.0
 10
-23.17519993195233
 20
-1.180972443138977
 30
0.0
 10
-22.46900231582223
 20
-1.359823098494496
 30
0.0
 10
-22.00689461937942
 20
-1.375467542738469
 30
0.0
 10
-21.7890651671328
 20
-1.382842058996477
 30
0.0
1001
PE_URL
1000

  0
SPLINE
  5
23A
330
1F
100
AcDbEntity
  8
0
  6
Continuous
 62
     1
370
    25
100
AcDbSpline
210
0.0
220
0.0
230
1.0
 70
     8
 71
     3
 72
    14
 73
    10
 74
     0
 42
0.000000001
 43
0.00000001
 40
0.0
 40
0.0
 40
0.0
 40
0.0
 40
0.1599018691235636
 40
0.3191225193573
 40
0.4788082037511568
 40
0.6389017109824657
 40
0.7981636901060248
 40
0.9576735835280721
 40
1.0
 40
1.0
 40
1.0
 40
1.0
 10
-28.57500000000002
 20
1.095931785973989
 30
0.0
 10
-28.38244864306449
 20
1.054786722578335
 30
0.0
 10
-27.99816624244132
 20
0.9726718832590342
 30
0.0
 10
-27.42224961147038
 20
0.776321471623117
 30
0.0
 10
-26.84566921671045
 20
0.5406101313185323
 30
0.0
 10
-26.2686136365159
 20
0.2732048895242641
 30
0.0
 10
-25.69259714456806
 20
-0.0092210622217832
 30
0.0
 10
-25.2580813290212
 20
-0.2265451332455492
 30
0.0
 10
-25.01499889292408
 20
-0.3364827148742948
 30
0.0
 10
-24.96402288948514
 20
-0.359537356867994
 30
0.0
1001
PE_URL
1000

  0
LINE
  5
23B
330
1F
100
AcDbEntity
  8
0
  6
Continuous
 62
     1
370
    25
100
AcDbLine
 10
-28.57500000000002
 20
1.318138176167452
 30
0.0
 11
-28.57500000000002
 21
1.095931785973989
 31
0.0
1001
PE_URL
1000

  0
SPLINE
  5
23C
330
1F
100
AcDbEntity
  8
0
  6
Continuous
 62
     1
370
    25
100
AcDbSpline
210
0.0
220
0.0
230
1.0
 70
     8
 71
     3
 72
    38
 73
    34
 74
     0
 42
0.000000001
 43
0.00000001
 40
0.0
 40
0.0
 40
0.0
 40
0.0
 40
0.0625
 40
0.0625
 40
0.125
 40
0.125
 40
0.1875
 40
0.1875
 40
0.25
 40
0.25
 40
0.3125
 40
0.3125
 40
0.375
 40
0.375
 40
0.4375
 40
0.4375
 40
0.5
 40
0.5
 40
0.5625
 40
0.5625
 40
0.625
 40
0.625
 40
0.6875
 40
0.6875
 40
0.75
 40
0.75
 40
0.8125
 40
0.8125
 40
0.875
 40
0.875
 40
0.9375
 40
0.9375
 40
1.0
 40
1.0
 40
1.0
 40
1.0
 10
-20.24062500000073
 20
-1.298341547465471
 30
0.0
 10
-20.41272148949496
 20
-1.333868771289754
 30
0.0
 10
-20.5889911287045
 20
-1.359478747440628
 30
0.0
 10
-20.93763545467619
 20
-1.388817270476908
 30
0.0
 10
-21.10766755931933
 20
-1.392680703403069
 30
0.0
 10
-21.45648888275222
 20
-1.378732509181336
 30
0.0
 10
-21.63270076290053
 20
-1.360752233190645
 30
0.0
 10
-21.97649874580289
 20
-1.304334480024621
 30
0.0
 10
-22.1502694138772
 20
-1.265632361469109
 30
0.0
 10
-22.5000536747151
 20
-1.168810420227663
 30
0.0
 10
-22.67115050112216
 20
-1.111233935457797
 30
0.0
 10
-23.01772592730735
 20
-0.9792834587755406
 30
0.0
 10
-23.19420386135426
 20
-0.904659907863351
 30
0.0
 10
-23.54125186163918
 20
-0.7432926465253347
 30
0.0
 10
-23.71199697968868
 20
-0.6566333071133099
 30
0.0
 10
-24.06167399860031
 20
-0.4730520780469349
 30
0.0
 10
-24.23620035448432
 20
-0.3768630880732179
 30
0.0
 10
-24.57932060258647
 20
-0.1812503777906024
 30
0.0
 10
-24.75542229944754
 20
-0.0804012942991929
 30
0.0
 10
-25.1045054819965
 20
0.1204089109387907
 30
0.0
 10
-25.27459399518523
 20
0.2198041262744648
 30
0.0
 10
-25.62291786877581
 20
0.415177150713648
 30
0.0
 10
-25.79926734793496
 20
0.5107465977720518
 30
0.0
 10
-26.14408210923336
 20
0.6910732980422518
 30
0.0
 10
-26.3167822408851
 20
0.7766115847330151
 30
0.0
 10
-26.66666174494041
 20
0.934923731946322
 30
0.0
 10
-26.83847032968091
 20
1.006893346232914
 30
0.0
 10
-27.18421118100034
 20
1.134433721066927
 30
0.0
 10
-27.36064937242337
 20
1.190199225528595
 30
0.0
 10
-27.70838196062017
 20
1.281736049412418
 30
0.0
 10
-27.8787082162354
 20
1.317592029915316
 30
0.0
 10
-28.22813573368138
 20
1.368792854249522
 30
0.0
 10
-28.40402083269836
 20
1.383789059836104
 30
0.0
 10
-28.57500000000002
 20
1.38788848552994
 30
0.0
1001
PE_URL
1000

  0
SPLINE
  5
23D
330
1F
100
AcDbEntity
  8
0
  6
Continuous
 62
     1
370
    25
100
AcDbSpline
210
0.0
220
0.0
230
1.0
 70
     8
 71
     3
 72
    14
 73
    10
 74
     0
 42
0.000000001
 43
0.00000001
 40
0.0
 40
0.0
 40
0.0
 40
0.0
 40
0.0839531034183859
 40
0.2501815696125281
 40
0.416411845653509
 40
0.5826624434034502
 40
0.7489517878599029
 40
0.9021927209867974
 40
1.0
 40
1.0
 40
1.0
 40
1.0
 10
-25.11906002106137
 20
0.1288012336631826
 30
0.0
 10
-24.98974124286811
 20
0.0772985111775564
 30
0.0
 10
-24.60436924836863
 20
-0.0761804124848486
 30
0.0
 10
-23.96295236696636
 20
-0.3360483766708701
 30
0.0
 10
-23.19476374941375
 20
-0.6104738956592148
 30
0.0
 10
-22.42648009799129
 20
-0.824828760307385
 30
0.0
 10
-21.678158143171
 20
-0.9484532582995262
 30
0.0
 10
-21.03533528188859
 20
-0.9885714007855471
 30
0.0
 10
-20.64855113856965
 20
-0.9538322892958033
 30
0.0
 10
-20.49786173791237
 20
-0.9402980842871977
 30
0.0
1001
PE_URL
1000

  0
SPLINE
  5
23E
330
1F
100
AcDbEntity
  8
외형선
  6
Continuous
370
    15
100
AcDbSpline
210
0.0
220
0.0
230
1.0
 70
    24
 71
     3
 72
    10
 73
     6
 74
     0
 42
0.000000001
 43
0.00000001
 40
0.0
 40
0.0
 40
0.0
 40
0.0
 40
0.5
 40
0.5
 40
1.0
 40
1.0
 40
1.0
 40
1.0
 10
-20.24062500000002
 20
-1.298341547465314
 30
0.0
 10
-20.24062500000002
 20
-1.226719196983746
 30
0.0
 10
-20.24062500000002
 20
-1.15439503238791
 30
0.0
 10
-20.24062500000002
 20
-1.024589953375063
 30
0.0
 10
-20.24062500000002
 20
-0.9674059374186983
 30
0.0
 10
-20.24062500000002
 20
-0.9222784366085965
 30
0.0
  0
LINE
  5
23F
330
1F
100
AcDbEntity
  8
0
  6
Continuous
 62
     1
370
    25
100
AcDbLine
 10
-28.57500000000002
 20
1.387888485529942
 30
0.0
 11
-28.57500000000002
 21
1.318138176167452
 31
0.0
1001
PE_URL
1000

  0
SPLINE
  5
240
330
1F
100
AcDbEntity
  8
0
  6
Continuous
 62
     1
370
    25
100
AcDbSpline
210
0.0
220
0.0
230
1.0
 70
     8
 71
     3
 72
     8
 73
     4
 74
     0
 42
0.000000001
 43
0.00000001
 40
0.0
 40
0.0
 40
0.0
 40
0.0
 40
1.0
 40
1.0
 40
1.0
 40
1.0
 10
-27.71530511579321
 20
-0.3887621309163031
 30
0.0
 10
-27.66600288184446
 20
-0.4471223140000721
 30
0.0
 10
-27.62200384932252
 20
-0.5033065058678436
 30
0.0
 10
-27.58455227709234
 20
-0.5568041665377004
 30
0.0
1001
PE_URL
1000

  0
LINE
  5
241
330
1F
100
AcDbEntity
  8
0
  6
Continuous
 62
     1
370
    25
100
AcDbLine
 10
-27.60216518332106
 20
-0.5715831496581829
 30
0.0
 11
-28.57500000000002
 21
0.0000000000000127
 31
0.0
1001
PE_URL
1000

  0
LINE
  5
242
330
1F
100
AcDbEntity
  8
0
  6
Continuous
 62
     1
370
    25
100
AcDbLine
 10
-28.57500000000002
 20
0.0000000000000127
 30
0.0
 11
-28.57500000000002
 21
0.3712171547193164
 31
0.0
1001
PE_URL
1000

  0
SPLINE
  5
243
330
1F
100
AcDbEntity
  8
0
  6
Continuous
 62
     1
370
    25
100
AcDbSpline
210
0.0
220
0.0
230
1.0
 70
     8
 71
     3
 72
    10
 73
     6
 74
     0
 42
0.000000001
 43
0.00000001
 40
0.0
 40
0.0
 40
0.0
 40
0.0
 40
0.5
 40
0.5
 40
1.0
 40
1.0
 40
1.0
 40
1.0
 10
-28.57500000000002
 20
0.3712171547193182
 30
0.0
 10
-28.42618043403186
 20
0.2542174094430208
 30
0.0
 10
-28.27984885623705
 20
0.1324167157505339
 30
0.0
 10
-27.99227693759564
 20
-0.1210089811809671
 30
0.0
 10
-27.84968493484975
 20
-0.2539670538550156
 30
0.0
 10
-27.71530511579321
 20
-0.3887621309163067
 30
0.0
1001
PE_URL
1000

  0
SPLINE
  5
244
330
1F
100
AcDbEntity
  8
0
  6
Continuous
 62
     1
370
    25
100
AcDbSpline
210
0.0
220
0.0
230
1.0
 70
     8
 71
     3
 72
    11
 73
     7
 74
     0
 42
0.000000001
 43
0.00000001
 40
0.0
 40
0.0
 40
0.0
 40
0.0
 40
0.261582203217732
 40
0.5231646267400618
 40
0.7847472720190646
 40
0.9999999999999999
 40
0.9999999999999999
 40
0.9999999999999999
 40
0.9999999999999999
 10
-27.71530511579321
 20
-0.3887621309163049
 30
0.0
 10
-27.43627747368881
 20
-0.5051067145189305
 30
0.0
 10
-26.87822195448289
 20
-0.7377959797096201
 30
0.0
 10
-26.04113820129967
 20
-0.9824338127662331
 30
0.0
 10
-25.25347366323782
 20
-1.118191575550538
 30
0.0
 10
-24.74483699379071
 20
-1.101477845236255
 30
0.0
 10
-24.51522854444031
 20
-1.093932943480558
 30
0.0
1001
PE_URL
1000

  0
SPLINE
  5
245
330
1F
100
AcDbEntity
  8
0
  6
Continuous
 62
     1
370
    25
100
AcDbSpline
210
0.0
220
0.0
230
1.0
 70
    24
 71
     3
 72
    10
 73
     6
 74
     0
 42
0.000000001
 43
0.00000001
 40
0.0
 40
0.0
 40
0.0
 40
0.0
 40
0.5
 40
0.5
 40
1.0
 40
1.0
 40
1.0
 40
1.0
 10
-28.57500000000002
 20
1.095931785973989
 30
0.0
 10
-28.57500000000002
 20
1.011920070038112
 30
0.0
 10
-28.57500000000002
 20
0.9057680456138437
 30
0.0
 10
-28.57500000000002
 20
0.6589748048202557
 30
0.0
 10
-28.57500000000002
 20
0.5185473701134742
 30
0.0
 10
-28.57500000000002
 20
0.3712171547193626
 30
0.0
1001
PE_URL
1000

  0
SPLINE
  5
246
330
1F
100
AcDbEntity
  8
0
  6
Continuous
 62
     1
370
    25
100
AcDbSpline
210
0.0
220
0.0
230
1.0
 70
     8
 71
     3
 72
    12
 73
     8
 74
     0
 42
0.000000001
 43
0.00000001
 40
0.0
 40
0.0
 40
0.0
 40
0.0
 40
0.0899940408209447
 40
0.3526899463256567
 40
0.616787917547045
 40
0.8800641461448303
 40
1.0
 40
1.0
 40
1.0
 40
1.0
 10
-22.43003481529632
 20
1.148228050773142
 30
0.0
 10
-22.36436213437012
 20
1.156858517155687
 30
0.0
 10
-22.10698848940843
 20
1.19068163141368
 30
0.0
 10
-21.65720040371632
 20
1.181357121194454
 30
0.0
 10
-21.08006460997384
 20
1.118347826642143
 30
0.0
 10
-20.60771081757884
 20
1.012218859041419
 30
0.0
 10
-20.32812759673627
 20
0.9270190768834061
 30
0.0
 10
-20.24062500000004
 20
0.900353663423614
 30
0.0
1001
PE_URL
1000

  0
SPLINE
  5
247
330
1F
100
AcDbEntity
  8
0
  6
Continuous
 62
     1
370
    25
100
AcDbSpline
210
0.0
220
0.0
230
1.0
 70
     8
 71
     3
 72
    14
 73
    10
 74
     0
 42
0.000000001
 43
0.00000001
 40
0.0
 40
0.0
 40
0.0
 40
0.0
 40
0.0807494773838441
 40
0.2357810285109296
 40
0.3908127127845681
 40
0.5431168676110364
 40
0.695416327895718
 40
0.8477106304621242
 40
1.0
 40
1.0
 40
1.0
 40
1.0
 10
-25.64005672283024
 20
1.027798845072722
 30
0.0
 10
-25.49472244528946
 20
1.053655952961357
 30
0.0
 10
-25.07035975531729
 20
1.129156323859366
 30
0.0
 10
-24.36696823180782
 20
1.111950798064752
 30
0.0
 10
-23.53479165087737
 20
0.9823702890180519
 30
0.0
 10
-22.70753088447973
 20
0.732043674141883
 30
0.0
 10
-21.88520146968393
 20
0.4009531924465704
 30
0.0
 10
-21.06290192379873
 20
0.0201425870380148
 30
0.0
 10
-20.5147143484561
 20
-0.2279424971539591
 30
0.0
 10
-20.24062500000002
 20
-0.3519830302604469
 30
0.0
1001
PE_URL
1000

  0
SPLINE
  5
248
330
1F
100
AcDbEntity
  8
외형선
  6
Continuous
370
    15
100
AcDbSpline
210
0.0
220
0.0
230
1.0
 70
    24
 71
     3
 72
    10
 73
     6
 74
     0
 42
0.000000001
 43
0.00000001
 40
0.0
 40
0.0
 40
0.0
 40
0.0
 40
0.5
 40
0.5
 40
1.0
 40
1.0
 40
1.0
 40
1.0
 10
-20.24062499999746
 20
-0.3519830302615785
 30
0.0
 10
-20.24062499999746
 20
-0.1422793865213909
 30
0.0
 10
-20.24062499999746
 20
0.0873135692222536
 30
0.0
 10
-20.24062499999746
 20
0.5250673001269315
 30
0.0
 10
-20.24062499999746
 20
0.7313438121002067
 30
0.0
 10
-20.24062499999746
 20
0.900353663422788
 30
0.0
  0
SPLINE
  5
249
330
1F
100
AcDbEntity
  8
외형선
  6
Continuous
370
    15
100
AcDbSpline
210
0.0
220
0.0
230
1.0
 70
    24
 71
     3
 72
    13
 73
     9
 74
     0
 42
0.000000001
 43
0.00000001
 40
0.0
 40
0.0
 40
0.0
 40
0.0
 40
0.0612237079363341
 40
0.2519152919265553
 40
0.4372326596971404
 40
0.6279242436873642
 40
0.813962121843682
 40
1.0
 40
1.0
 40
1.0
 40
1.0
 10
-20.24062500000002
 20
-0.9264623865541777
 30
0.0
 10
-20.24062500000002
 20
-0.9276524312182024
 30
0.0
 10
-20.24062500000002
 20
-0.9325490710828619
 30
0.0
 10
-20.24062500000002
 20
-0.8967964144929146
 30
0.0
 10
-20.24062500000002
 20
-0.8193000667487256
 30
0.0
 10
-20.24062500000002
 20
-0.6989367454649054
 30
0.0
 10
-20.24062500000002
 20
-0.5441106293816806
 30
0.0
 10
-20.24062500000002
 20
-0.4160255633008593
 30
0.0
 10
-20.24062500000002
 20
-0.3519830302604469
 30
0.0
  0
SPLINE
  5
24A
330
1F
100
AcDbEntity
  8
0
  6
Continuous
 62
     1
370
    25
100
AcDbSpline
210
0.0
220
0.0
230
1.0
 70
    24
 71
     3
 72
     8
 73
     4
 74
     0
 42
0.000000001
 43
0.00000001
 40
0.0
 40
0.0
 40
0.0
 40
0.0
 40
1.0
 40
1.0
 40
1.0
 40
1.0
 10
-27.72954188518926
 20
-0.6784648932163699
 30
0.0
 10
-27.68374130942262
 20
-0.6400336469828785
 30
0.0
 10
-27.63513097456622
 20
-0.5992447329334512
 30
0.0
 10
-27.58455227709234
 20
-0.5568041665376915
 30
0.0
1001
PE_URL
1000

  0
LINE
  5
24B
330
1F
100
AcDbEntity
  8
0
  6
Continuous
 62
     1
370
    25
100
AcDbLine
 10
-28.57500000000002
 20
-0.9723437499999859
 30
0.0
 11
-28.05537533329406
 21
-0.9390925644702361
 31
0.0
1001
PE_URL
1000

  0
SPLINE
  5
24C
330
1F
100
AcDbEntity
  8
0
  6
Continuous
 62
     1
370
    25
100
AcDbSpline
210
0.0
220
0.0
230
1.0
 70
     8
 71
     3
 72
     8
 73
     4
 74
     0
 42
0.000000001
 43
0.00000001
 40
0.0
 40
0.0
 40
0.0
 40
0.0
 40
1.0
 40
1.0
 40
1.0
 40
1.0
 10
-28.57500000000002
 20
-0.9723437499999859
 30
0.0
 10
-28.28926659322169
 20
-0.8946824946203014
 30
0.0
 10
-28.00630283865872
 20
-0.7992376002766794
 30
0.0
 10
-27.72954188520583
 20
-0.6784648932236068
 30
0.0
1001
PE_URL
1000

  0
SPLINE
  5
24D
330
1F
100
AcDbEntity
  8
0
  6
Continuous
 62
     1
370
    25
100
AcDbSpline
210
0.0
220
0.0
230
1.0
 70
     8
 71
     3
 72
    12
 73
     8
 74
     0
 42
0.000000001
 43
0.00000001
 40
0.0
 40
0.0
 40
0.0
 40
0.0
 40
0.0604548934883995
 40
0.2950931605440466
 40
0.5298619172810813
 40
0.7648439191035842
 40
0.9999999999999999
 40
0.9999999999999999
 40
0.9999999999999999
 40
0.9999999999999999
 10
-23.36404516892907
 20
1.092454713540074
 30
0.0
 10
-23.30111812694619
 20
1.117367809036038
 30
0.0
 10
-22.99395788513747
 20
1.238973913432702
 30
0.0
 10
-22.44240986873366
 20
1.354586692472635
 30
0.0
 10
-21.70911659182413
 20
1.410007675704609
 30
0.0
 10
-20.97513485861347
 20
1.335099408217099
 30
0.0
 10
-20.48552204954593
 20
1.186034918075494
 30
0.0
 10
-20.24062500000007
 20
1.11147507578448
 30
0.0
1001
PE_URL
1000

  0
SPLINE
  5
24E
330
1F
100
AcDbEntity
  8
외형선
  6
Continuous
370
    15
100
AcDbSpline
210
0.0
220
0.0
230
1.0
 70
    24
 71
     3
 72
     8
 73
     4
 74
     0
 42
0.000000001
 43
0.00000001
 40
0.0
 40
0.0
 40
0.0
 40
0.0
 40
1.0
 40
1.0
 40
1.0
 40
1.0
 10
-20.24062500000002
 20
0.9003536634236069
 30
0.0
 10
-20.24062500000002
 20
0.968502875146694
 30
0.0
 10
-20.24062500000002
 20
1.03931910263966
 30
0.0
 10
-20.24062500000002
 20
1.111475075784093
 30
0.0
  0
SPLINE
  5
24F
330
1F
100
AcDbEntity
  8
0
  6
Continuous
 62
     1
370
    25
100
AcDbSpline
210
0.0
220
0.0
230
1.0
 70
     8
 71
     3
 72
    11
 73
     7
 74
     0
 42
0.000000001
 43
0.00000001
 40
0.0
 40
0.0
 40
0.0
 40
0.0
 40
0.2496116975263352
 40
0.4997388484391395
 40
0.7514312506851042
 40
1.0
 40
1.0
 40
1.0
 40
1.0
 10
-20.24062500000002
 20
1.298341547465333
 30
0.0
 10
-20.31332851571684
 20
1.312268210939751
 30
0.0
 10
-20.45888568143408
 20
1.340150296740525
 30
0.0
 10
-20.67823068450834
 20
1.367727647161777
 30
0.0
 10
-20.89705475075088
 20
1.385773222526064
 30
0.0
 10
-21.0425305182436
 20
1.387914469354945
 30
0.0
 10
-21.11481422340133
 20
1.388978407749056
 30
0.0
1001
PE_URL
1000

  0
SPLINE
  5
250
330
1F
100
AcDbEntity
  8
0
  6
Continuous
 62
     1
370
    25
100
AcDbSpline
210
0.0
220
0.0
230
1.0
 70
     8
 71
     3
 72
    14
 73
    10
 74
     0
 42
0.000000001
 43
0.00000001
 40
0.0
 40
0.0
 40
0.0
 40
0.0
 40
0.019880339002075
 40
0.1242080968272553
 40
0.4384473401820128
 40
0.577761322122546
 40
0.7175014935409784
 40
0.8585307097003305
 40
1.0
 40
1.0
 40
1.0
 40
1.0
 10
-26.66946448188865
 20
-0.9334458112976767
 30
0.0
 10
-26.68210352918792
 20
-0.9389763590305422
 30
0.0
 10
-26.76106958759309
 20
-0.9735300358184327
 30
0.0
 10
-27.03874985287408
 20
-1.085168534305103
 30
0.0
 10
-27.39446181363385
 20
-1.20372719110885
 30
0.0
 10
-27.77058572580989
 20
-1.295099815542974
 30
0.0
 10
-28.03729339842365
 20
-1.343407175744433
 30
0.0
 10
-28.30603304841497
 20
-1.376379907638062
 30
0.0
 10
-28.48525128784376
 20
-1.384048310971453
 30
0.0
 10
-28.57499999999995
 20
-1.387888485529911
 30
0.0
1001
PE_URL
1000

  0
LINE
  5
251
330
1F
100
AcDbEntity
  8
0
  6
Continuous
 62
     1
370
    25
100
AcDbLine
 10
-28.57500000000002
 20
0.0000000000000127
 30
0.0
 11
-28.57500000000002
 21
-0.9723437499999859
 31
0.0
1001
PE_URL
1000

  0
SPLINE
  5
252
330
1F
100
AcDbEntity
  8
0
  6
Continuous
 62
     1
370
    25
100
AcDbSpline
210
0.0
220
0.0
230
1.0
 70
    24
 71
     3
 72
    10
 73
     6
 74
     0
 42
0.000000001
 43
0.00000001
 40
0.0
 40
0.0
 40
0.0
 40
0.0
 40
0.5
 40
0.5
 40
1.0
 40
1.0
 40
1.0
 40
1.0
 10
-28.57500000000002
 20
-0.9723437499999859
 30
0.0
 10
-28.57500000000002
 20
-1.031284806721395
 30
0.0
 10
-28.57500000000004
 20
-1.099779773160716
 30
0.0
 10
-28.57500000000004
 20
-1.243482028272176
 30
0.0
 10
-28.57500000000002
 20
-1.318322319417969
 30
0.0
 10
-28.57500000000002
 20
-1.387888485529915
 30
0.0
1001
PE_URL
1000

  0
ENDSEC
  0
SECTION
  2
OBJECTS
  0
DICTIONARY
  5
C
330
0
100
AcDbDictionary
281
     1
  3
ACAD_GROUP
350
D
  3
ACAD_LAYOUT
350
1A
  3
ACAD_MLINESTYLE
350
17
  3
ACAD_PLOTSETTINGS
350
19
  3
ACAD_PLOTSTYLENAME
350
E
  3
ACAD_SCALELIST
350
47
  3
APPDATA
350
15F
  3
DWGPROPS
350
275
  0
DICTIONARY
  5
D
102
{ACAD_REACTORS
330
C
102
}
330
C
100
AcDbDictionary
281
     1
  0
DICTIONARY
  5
1A
102
{ACAD_REACTORS
330
C
102
}
330
C
100
AcDbDictionary
281
     1
  3
Layout1
350
1E
  3
Layout2
350
26
  3
Model
350
22
  0
DICTIONARY
  5
17
102
{ACAD_REACTORS
330
C
102
}
330
C
100
AcDbDictionary
281
     1
  3
Standard
350
18
  0
DICTIONARY
  5
19
102
{ACAD_REACTORS
330
C
102
}
330
C
100
AcDbDictionary
281
     1
  0
ACDBDICTIONARYWDFLT
  5
E
102
{ACAD_REACTORS
330
C
102
}
330
C
100
AcDbDictionary
281
     1
  3
Normal
350
F
100
AcDbDictionaryWithDefault
340
F
  0
DICTIONARY
  5
47
102
{ACAD_REACTORS
330
C
102
}
330
C
100
AcDbDictionary
281
     1
  3
A0
350
48
  3
A1
350
49
  3
A2
350
4A
  3
A3
350
4B
  3
A4
350
4C
  3
A5
350
4D
  3
A6
350
4E
  3
A7
350
4F
  3
A8
350
50
  3
A9
350
51
  3
B0
350
52
  3
B1
350
53
  3
B2
350
54
  3
B3
350
55
  3
B4
350
56
  3
B5
350
57
  3
B6
350
58
  3
B7
350
59
  3
B8
350
5A
  3
B9
350
5B
  3
C0
350
5C
  3
C1
350
5D
  3
C2
350
5E
  3
C3
350
5F
  3
C4
350
60
  3
C5
350
61
  3
C6
350
62
  3
C7
350
63
  3
C8
350
64
  3
C9
350
65
  3
D0
350
66
  3
D1
350
67
  3
D2
350
68
  0
DICTIONARY
  5
15F
102
{ACAD_REACTORS
330
C
102
}
330
C
100
AcDbDictionary
281
     1
  0
XRECORD
  5
275
102
{ACAD_REACTORS
330
C
102
}
330
C
100
AcDbXrecord
280
     1
  1
DWGPROPS COOKIE
  2

  3

  4

  6

  7

  8
120170442
  9

300
=
301
=
302
=
303
=
304
=
305
=
306
=
307
=
308
=
309
=
 40
0.0
 41
2458313.015593056
 42
2458317.358157489
  1

 90
        0
  0
LAYOUT
  5
1E
102
{ACAD_REACTORS
330
1A
102
}
330
1A
100
AcDbPlotSettings
  1

  2
none_device
  4

  6

 40
0.0
 41
0.0
 42
0.0
 43
0.0
 44
0.0
 45
0.0
 46
0.0
 47
0.0
 48
0.0
 49
0.0
140
0.0
141
0.0
142
1.0
143
1.0
 70
   688
 72
     1
 73
     0
 74
     5
  7

 75
    16
147
1.0
148
0.0
149
0.0
100
AcDbLayout
  1
Layout1
 70
     1
 71
     1
 10
0.0
 20
0.0
 11
420.0
 21
297.0
 12
0.0
 22
0.0
 32
0.0
 14
1.000000000000000E+20
 24
1.000000000000000E+20
 34
1.000000000000000E+20
 15
-1.000000000000000E+20
 25
-1.000000000000000E+20
 35
-1.000000000000000E+20
146
0.0
 13
0.0
 23
0.0
 33
0.0
 16
1.0
 26
0.0
 36
0.0
 17
0.0
 27
1.0
 37
0.0
 76
     0
330
1B
  0
LAYOUT
  5
26
102
{ACAD_REACTORS
330
1A
102
}
330
1A
100
AcDbPlotSettings
  1

  2
none_device
  4

  6

 40
0.0
 41
0.0
 42
0.0
 43
0.0
 44
0.0
 45
0.0
 46
0.0
 47
0.0
 48
0.0
 49
0.0
140
0.0
141
0.0
142
1.0
143
1.0
 70
   688
 72
     1
 73
     0
 74
     5
  7

 75
    16
147
1.0
148
0.0
149
0.0
100
AcDbLayout
  1
Layout2
 70
     1
 71
     2
 10
0.0
 20
0.0
 11
0.0
 21
0.0
 12
0.0
 22
0.0
 32
0.0
 14
0.0
 24
0.0
 34
0.0
 15
0.0
 25
0.0
 35
0.0
146
0.0
 13
0.0
 23
0.0
 33
0.0
 16
1.0
 26
0.0
 36
0.0
 17
0.0
 27
1.0
 37
0.0
 76
     0
330
23
  0
LAYOUT
  5
22
102
{ACAD_REACTORS
330
1A
102
}
330
1A
100
AcDbPlotSettings
  1

  2
none_device
  4
ANSI_A_(11.00_x_8.50_Inches)
  6

 40
6.35
 41
19.05
 42
6.35000508
 43
19.05000254
 44
279.4
 45
215.9
 46
97.00113029862763
 47
91.8007223744669
 48
0.0
 49
0.0
140
0.0
141
0.0
142
0.0645300131783071
143
1.0
 70
  1696
 72
     0
 73
     0
 74
     0
  7

 75
     0
147
0.0235690232323232
148
0.0
149
0.0
100
AcDbLayout
  1
Model
 70
     1
 71
     0
 10
0.0
 20
0.0
 11
420.0
 21
297.0
 12
0.0
 22
0.0
 32
0.0
 14
-39.9500000000001
 24
-49.97180738881174
 34
0.0
 15
91.04725003295506
 25
27.88124999999997
 35
0.0
146
0.0
 13
0.0
 23
0.0
 33
0.0
 16
1.0
 26
0.0
 36
0.0
 17
0.0
 27
1.0
 37
0.0
 76
     0
330
1F
331
29
  0
MLINESTYLE
  5
18
102
{ACAD_REACTORS
330
17
102
}
330
17
100
AcDbMlineStyle
  2
Standard
 70
     0
  3

 62
   256
 51
90.0
 52
90.0
 71
     2
 49
0.5
 62
   256
  6
BYLAYER
 49
-0.5
 62
   256
  6
BYLAYER
  0
ACDBPLACEHOLDER
  5
F
102
{ACAD_REACTORS
330
E
102
}
330
E
  0
SCALE
  5
48
102
{ACAD_REACTORS
330
47
102
}
330
47
100
AcDbScale
 70
     0
300
1:1
140
1.0
141
1.0
290
     1
  0
SCALE
  5
49
102
{ACAD_REACTORS
330
47
102
}
330
47
100
AcDbScale
 70
     0
300
1:2
140
1.0
141
2.0
290
     0
  0
SCALE
  5
4A
102
{ACAD_REACTORS
330
47
102
}
330
47
100
AcDbScale
 70
     0
300
1:4
140
1.0
141
4.0
290
     0
  0
SCALE
  5
4B
102
{ACAD_REACTORS
330
47
102
}
330
47
100
AcDbScale
 70
     0
300
1:5
140
1.0
141
5.0
290
     0
  0
SCALE
  5
4C
102
{ACAD_REACTORS
330
47
102
}
330
47
100
AcDbScale
 70
     0
300
1:8
140
1.0
141
8.0
290
     0
  0
SCALE
  5
4D
102
{ACAD_REACTORS
330
47
102
}
330
47
100
AcDbScale
 70
     0
300
1:10
140
1.0
141
10.0
290
     0
  0
SCALE
  5
4E
102
{ACAD_REACTORS
330
47
102
}
330
47
100
AcDbScale
 70
     0
300
1:16
140
1.0
141
16.0
290
     0
  0
SCALE
  5
4F
102
{ACAD_REACTORS
330
47
102
}
330
47
100
AcDbScale
 70
     0
300
1:20
140
1.0
141
20.0
290
     0
  0
SCALE
  5
50
102
{ACAD_REACTORS
330
47
102
}
330
47
100
AcDbScale
 70
     0
300
1:30
140
1.0
141
30.0
290
     0
  0
SCALE
  5
51
102
{ACAD_REACTORS
330
47
102
}
330
47
100
AcDbScale
 70
     0
300
1:40
140
1.0
141
40.0
290
     0
  0
SCALE
  5
52
102
{ACAD_REACTORS
330
47
102
}
330
47
100
AcDbScale
 70
     0
300
1:50
140
1.0
141
50.0
290
     0
  0
SCALE
  5
53
102
{ACAD_REACTORS
330
47
102
}
330
47
100
AcDbScale
 70
     0
300
1:100
140
1.0
141
100.0
290
     0
  0
SCALE
  5
54
102
{ACAD_REACTORS
330
47
102
}
330
47
100
AcDbScale
 70
     0
300
2:1
140
2.0
141
1.0
290
     0
  0
SCALE
  5
55
102
{ACAD_REACTORS
330
47
102
}
330
47
100
AcDbScale
 70
     0
300
4:1
140
4.0
141
1.0
290
     0
  0
SCALE
  5
56
102
{ACAD_REACTORS
330
47
102
}
330
47
100
AcDbScale
 70
     0
300
8:1
140
8.0
141
1.0
290
     0
  0
SCALE
  5
57
102
{ACAD_REACTORS
330
47
102
}
330
47
100
AcDbScale
 70
     0
300
10:1
140
10.0
141
1.0
290
     0
  0
SCALE
  5
58
102
{ACAD_REACTORS
330
47
102
}
330
47
100
AcDbScale
 70
     0
300
100:1
140
100.0
141
1.0
290
     0
  0
SCALE
  5
59
102
{ACAD_REACTORS
330
47
102
}
330
47
100
AcDbScale
 70
     0
300
1/128" = 1'-0"
140
0.0078125
141
12.0
290
     0
  0
SCALE
  5
5A
102
{ACAD_REACTORS
330
47
102
}
330
47
100
AcDbScale
 70
     0
300
1/64" = 1'-0"
140
0.015625
141
12.0
290
     0
  0
SCALE
  5
5B
102
{ACAD_REACTORS
330
47
102
}
330
47
100
AcDbScale
 70
     0
300
1/32" = 1'-0"
140
0.03125
141
12.0
290
     0
  0
SCALE
  5
5C
102
{ACAD_REACTORS
330
47
102
}
330
47
100
AcDbScale
 70
     0
300
1/16" = 1'-0"
140
0.0625
141
12.0
290
     0
  0
SCALE
  5
5D
102
{ACAD_REACTORS
330
47
102
}
330
47
100
AcDbScale
 70
     0
300
3/32" = 1'-0"
140
0.09375
141
12.0
290
     0
  0
SCALE
  5
5E
102
{ACAD_REACTORS
330
47
102
}
330
47
100
AcDbScale
 70
     0
300
1/8" = 1'-0"
140
0.125
141
12.0
290
     0
  0
SCALE
  5
5F
102
{ACAD_REACTORS
330
47
102
}
330
47
100
AcDbScale
 70
     0
300
3/16" = 1'-0"
140
0.1875
141
12.0
290
     0
  0
SCALE
  5
60
102
{ACAD_REACTORS
330
47
102
}
330
47
100
AcDbScale
 70
     0
300
1/4" = 1'-0"
140
0.25
141
12.0
290
     0
  0
SCALE
  5
61
102
{ACAD_REACTORS
330
47
102
}
330
47
100
AcDbScale
 70
     0
300
3/8" = 1'-0"
140
0.375
141
12.0
290
     0
  0
SCALE
  5
62
102
{ACAD_REACTORS
330
47
102
}
330
47
100
AcDbScale
 70
     0
300
1/2" = 1'-0"
140
0.5
141
12.0
290
     0
  0
SCALE
  5
63
102
{ACAD_REACTORS
330
47
102
}
330
47
100
AcDbScale
 70
     0
300
3/4" = 1'-0"
140
0.75
141
12.0
290
     0
  0
SCALE
  5
64
102
{ACAD_REACTORS
330
47
102
}
330
47
100
AcDbScale
 70
     0
300
1" = 1'-0"
140
1.0
141
12.0
290
     0
  0
SCALE
  5
65
102
{ACAD_REACTORS
330
47
102
}
330
47
100
AcDbScale
 70
     0
300
1-1/2" = 1'-0"
140
1.5
141
12.0
290
     0
  0
SCALE
  5
66
102
{ACAD_REACTORS
330
47
102
}
330
47
100
AcDbScale
 70
     0
300
3" = 1'-0"
140
3.0
141
12.0
290
     0
  0
SCALE
  5
67
102
{ACAD_REACTORS
330
47
102
}
330
47
100
AcDbScale
 70
     0
300
6" = 1'-0"
140
6.0
141
12.0
290
     0
  0
SCALE
  5
68
102
{ACAD_REACTORS
330
47
102
}
330
47
100
AcDbScale
 70
     0
300
1'-0" = 1'-0"
140
12.0
141
12.0
290
     0
  0
ENDSEC
  0
EOF
