  0
SECTION
  2
HEADER
  9
$ACADVER
  1
AC1015
  9
$ACADMAINTVER
 70
     6
  9
$DWGCODEPAGE
  3
ANSI_949
  9
$INSBASE
 10
0.0
 20
0.0
 30
0.0
  9
$EXTMIN
 10
-42.95000000000009
 20
-49.97180738881175
 30
0.0
  9
$EXTMAX
 10
89.06287503295505
 20
37.26342805282435
 30
0.0
  9
$LIMMIN
 10
0.0
 20
0.0
  9
$LIMMAX
 10
420.0
 20
297.0
  9
$ORTHOMODE
 70
     1
  9
$REGENMODE
 70
     1
  9
$FILLMODE
 70
     1
  9
$QTEXTMODE
 70
     0
  9
$MIRRTEXT
 70
     1
  9
$LTSCALE
 40
1.0
  9
$ATTMODE
 70
     1
  9
$TEXTSIZE
 40
3.5
  9
$TRACEWID
 40
1.0
  9
$TEXTSTYLE
  7
Standard
  9
$CLAYER
  8
0
  9
$CELTYPE
  6
ByLayer
  9
$CECOLOR
 62
   256
  9
$CELTSCALE
 40
1.0
  9
$DISPSILH
 70
     0
  9
$DIMSCALE
 40
1.0
  9
$DIMASZ
 40
3.302
  9
$DIMEXO
 40
1.0
  9
$DIMDLI
 40
3.75
  9
$DIMRND
 40
0.0
  9
$DIMDLE
 40
0.0
  9
$DIMEXE
 40
1.0
  9
$DIMTP
 40
0.0
  9
$DIMTM
 40
0.0
  9
$DIMTXT
 40
3.5
  9
$DIMCEN
 40
2.5
  9
$DIMTSZ
 40
0.0
  9
$DIMTOL
 70
     0
  9
$DIMLIM
 70
     0
  9
$DIMTIH
 70
     1
  9
$DIMTOH
 70
     1
  9
$DIMSE1
 70
     0
  9
$DIMSE2
 70
     0
  9
$DIMTAD
 70
     1
  9
$DIMZIN
 70
     0
  9
$DIMBLK
  1

  9
$DIMASO
 70
     1
  9
$DIMSHO
 70
     1
  9
$DIMPOST
  1

  9
$DIMAPOST
  1

  9
$DIMALT
 70
     0
  9
$DIMALTD
 70
     3
  9
$DIMALTF
 40
0.0393700787401575
  9
$DIMLFAC
 40
1.0
  9
$DIMTOFL
 70
     1
  9
$DIMTVP
 40
0.0
  9
$DIMTIX
 70
     0
  9
$DIMSOXD
 70
     0
  9
$DIMSAH
 70
     0
  9
$DIMBLK1
  1

  9
$DIMBLK2
  1

  9
$DIMSTYLE
  2
ISO-25
  9
$DIMCLRD
 70
     0
  9
$DIMCLRE
 70
     0
  9
$DIMCLRT
 70
     0
  9
$DIMTFAC
 40
1.0
  9
$DIMGAP
 40
1.524
  9
$DIMJUST
 70
     0
  9
$DIMSD1
 70
     0
  9
$DIMSD2
 70
     0
  9
$DIMTOLJ
 70
     0
  9
$DIMTZIN
 70
     0
  9
$DIMALTZ
 70
     0
  9
$DIMALTTZ
 70
     0
  9
$DIMUPT
 70
     0
  9
$DIMDEC
 70
     2
  9
$DIMTDEC
 70
     2
  9
$DIMALTU
 70
     2
  9
$DIMALTTD
 70
     3
  9
$DIMTXSTY
  7
Standard
  9
$DIMAUNIT
 70
     0
  9
$DIMADEC
 70
     2
  9
$DIMALTRND
 40
0.0
  9
$DIMAZIN
 70
     0
  9
$DIMDSEP
 70
    44
  9
$DIMATFIT
 70
     3
  9
$DIMFRAC
 70
     0
  9
$DIMLDRBLK
  1

  9
$DIMLUNIT
 70
     2
  9
$DIMLWD
 70
    -2
  9
$DIMLWE
 70
    -2
  9
$DIMTMOVE
 70
     0
  9
$LUNITS
 70
     2
  9
$LUPREC
 70
     2
  9
$SKETCHINC
 40
1.0
  9
$FILLETRAD
 40
10.0
  9
$AUNITS
 70
     0
  9
$AUPREC
 70
     2
  9
$MENU
  1
.
  9
$ELEVATION
 40
0.0
  9
$PELEVATION
 40
0.0
  9
$THICKNESS
 40
0.0
  9
$LIMCHECK
 70
     0
  9
$CHAMFERA
 40
0.0
  9
$CHAMFERB
 40
0.0
  9
$CHAMFERC
 40
0.0
  9
$CHAMFERD
 40
0.0
  9
$SKPOLY
 70
     0
  9
$TDCREATE
 40
2458313.391017003
  9
$TDUCREATE
 40
2458313.016017003
  9
$TDUPDATE
 40
2458317.725377697
  9
$TDUUPDATE
 40
2458317.350377697
  9
$TDINDWG
 40
0.0014521528
  9
$TDUSRTIMER
 40
0.0005784259
  9
$USRTIMER
 70
     1
  9
$ANGBASE
 50
0.0
  9
$ANGDIR
 70
     0
  9
$PDMODE
 70
     0
  9
$PDSIZE
 40
-1.0
  9
$PLINEWID
 40
0.0
  9
$SPLFRAME
 70
     0
  9
$SPLINETYPE
 70
     6
  9
$SPLINESEGS
 70
     8
  9
$HANDSEED
  5
254
  9
$SURFTAB1
 70
     6
  9
$SURFTAB2
 70
     6
  9
$SURFTYPE
 70
     6
  9
$SURFU
 70
     6
  9
$SURFV
 70
     6
  9
$UCSBASE
  2

  9
$UCSNAME
  2

  9
$UCSORG
 10
0.0
 20
0.0
 30
0.0
  9
$UCSXDIR
 10
1.0
 20
0.0
 30
0.0
  9
$UCSYDIR
 10
0.0
 20
1.0
 30
0.0
  9
$UCSORTHOREF
  2

  9
$UCSORTHOVIEW
 70
     0
  9
$UCSORGTOP
 10
0.0
 20
0.0
 30
0.0
  9
$UCSORGBOTTOM
 10
0.0
 20
0.0
 30
0.0
  9
$UCSORGLEFT
 10
0.0
 20
0.0
 30
0.0
  9
$UCSORGRIGHT
 10
0.0
 20
0.0
 30
0.0
  9
$UCSORGFRONT
 10
0.0
 20
0.0
 30
0.0
  9
$UCSORGBACK
 10
0.0
 20
0.0
 30
0.0
  9
$PUCSBASE
  2

  9
$PUCSNAME
  2

  9
$PUCSORG
 10
0.0
 20
0.0
 30
0.0
  9
$PUCSXDIR
 10
1.0
 20
0.0
 30
0.0
  9
$PUCSYDIR
 10
0.0
 20
1.0
 30
0.0
  9
$PUCSORTHOREF
  2

  9
$PUCSORTHOVIEW
 70
     0
  9
$PUCSORGTOP
 10
0.0
 20
0.0
 30
0.0
  9
$PUCSORGBOTTOM
 10
0.0
 20
0.0
 30
0.0
  9
$PUCSORGLEFT
 10
0.0
 20
0.0
 30
0.0
  9
$PUCSORGRIGHT
 10
0.0
 20
0.0
 30
0.0
  9
$PUCSORGFRONT
 10
0.0
 20
0.0
 30
0.0
  9
$PUCSORGBACK
 10
0.0
 20
0.0
 30
0.0
  9
$USERI1
 70
     0
  9
$USERI2
 70
     0
  9
$USERI3
 70
     0
  9
$USERI4
 70
     0
  9
$USERI5
 70
     0
  9
$USERR1
 40
0.0
  9
$USERR2
 40
0.0
  9
$USERR3
 40
0.0
  9
$USERR4
 40
0.0
  9
$USERR5
 40
0.0
  9
$WORLDVIEW
 70
     1
  9
$SHADEDGE
 70
     3
  9
$SHADEDIF
 70
    70
  9
$TILEMODE
 70
     1
  9
$MAXACTVP
 70
    64
  9
$PINSBASE
 10
0.0
 20
0.0
 30
0.0
  9
$PLIMCHECK
 70
     0
  9
$PEXTMIN
 10
1.000000000000000E+20
 20
1.000000000000000E+20
 30
1.000000000000000E+20
  9
$PEXTMAX
 10
-1.000000000000000E+20
 20
-1.000000000000000E+20
 30
-1.000000000000000E+20
  9
$PLIMMIN
 10
0.0
 20
0.0
  9
$PLIMMAX
 10
0.0
 20
0.0
  9
$UNITMODE
 70
     0
  9
$VISRETAIN
 70
     1
  9
$PLINEGEN
 70
     0
  9
$PSLTSCALE
 70
     1
  9
$TREEDEPTH
 70
  3020
  9
$CMLSTYLE
  2
Standard
  9
$CMLJUST
 70
     0
  9
$CMLSCALE
 40
20.0
  9
$PROXYGRAPHICS
 70
     1
  9
$MEASUREMENT
 70
     1
  9
$CELWEIGHT
370
    -1
  9
$ENDCAPS
280
     0
  9
$JOINSTYLE
280
     0
  9
$LWDISPLAY
290
     1
  9
$INSUNITS
 70
     4
  9
$HYPERLINKBASE
  1

  9
$STYLESHEET
  1

  9
$XEDIT
290
     1
  9
$CEPSNTYPE
380
     0
  9
$PSTYLEMODE
290
     1
  9
$FINGERPRINTGUID
  2
{1B342075-C245-4FAE-895A-B2ACC4FB733D}
  9
$VERSIONGUID
  2
{FAEB1C32-E019-11D5-929B-00C0DF256EC4}
  9
$EXTNAMES
290
     1
  9
$PSVPSCALE
 40
0.0
  9
$OLESTARTUP
290
     0
  0
ENDSEC
  0
SECTION
  2
CLASSES
  0
CLASS
  1
ACDBDICTIONARYWDFLT
  2
AcDbDictionaryWithDefault
  3
ObjectDBX Classes
 90
        0
280
     0
281
     0
  0
CLASS
  1
VISUALSTYLE
  2
AcDbVisualStyle
  3
ObjectDBX Classes
 90
     4095
280
     0
281
     0
  0
CLASS
  1
MATERIAL
  2
AcDbMaterial
  3
ObjectDBX Classes
 90
     1153
280
     0
281
     0
  0
CLASS
  1
SCALE
  2
AcDbScale
  3
ObjectDBX Classes
 90
     1153
280
     0
281
     0
  0
CLASS
  1
SUN
  2
AcDbSun
  3
SCENEOE
 90
     1153
280
     0
281
     0
  0
CLASS
  1
ACDBPLACEHOLDER
  2
AcDbPlaceHolder
  3
ObjectDBX Classes
 90
        0
280
     0
281
     0
  0
CLASS
  1
LAYOUT
  2
AcDbLayout
  3
ObjectDBX Classes
 90
        0
280
     0
281
     0
  0
CLASS
  1
TABLESTYLE
  2
AcDbTableStyle
  3
ObjectDBX Classes
 90
     4095
280
     0
281
     0
  0
CLASS
  1
MLEADERSTYLE
  2
AcDbMLeaderStyle
  3
ACDB_MLEADERSTYLE_CLASS
 90
     4095
280
     0
281
     0
  0
CLASS
  1
DICTIONARYVAR
  2
AcDbDictionaryVar
  3
ObjectDBX Classes
 90
        0
280
     0
281
     0
  0
ENDSEC
  0
SECTION
  2
TABLES
  0
TABLE
  2
VPORT
  5
8
330
0
100
AcDbSymbolTable
 70
     1
  0
VPORT
  5
29
330
8
100
AcDbSymbolTableRecord
100
AcDbViewportTableRecord
  2
*Active
 70
     0
 10
0.0
 20
0.0
 11
1.0
 21
1.0
 12
23.05643751647749
 22
-6.354189667993701
 13
0.0
 23
0.0
 14
10.0
 24
10.0
 15
10.0
 25
10.0
 16
0.0
 26
0.0
 36
1.0
 17
0.0
 27
0.0
 37
0.0
 40
88.97994015046882
 41
1.782762691853601
 42
50.0
 43
0.0
 44
0.0
 50
0.0
 51
0.0
 71
    16
 72
  2000
 73
     1
 74
     3
 75
     0
 76
     0
 77
     0
 78
     0
281
     0
 65
     1
110
0.0
120
0.0
130
0.0
111
1.0
121
0.0
131
0.0
112
0.0
122
1.0
132
0.0
 79
     0
146
0.0
  0
ENDTAB
  0
TABLE
  2
LTYPE
  5
5
330
0
100
AcDbSymbolTable
 70
     6
  0
LTYPE
  5
14
330
5
100
AcDbSymbolTableRecord
100
AcDbLinetypeTableRecord
  2
ByBlock
 70
     0
  3

 72
    65
 73
     0
 40
0.0
  0
LTYPE
  5
15
330
5
100
AcDbSymbolTableRecord
100
AcDbLinetypeTableRecord
  2
ByLayer
 70
     0
  3

 72
    65
 73
     0
 40
0.0
  0
LTYPE
  5
16
330
5
100
AcDbSymbolTableRecord
100
AcDbLinetypeTableRecord
  2
Continuous
 70
     0
  3
Solid line
 72
    65
 73
     0
 40
0.0
  0
LTYPE
  5
6A
330
5
100
AcDbSymbolTableRecord
100
AcDbLinetypeTableRecord
  2
HIDDEN
 70
     0
  3
Hidden __ __ __ __ __ __ __ __ __ __ __ __ __ __
 72
    65
 73
     2
 40
1.905
 49
1.27
 74
     0
 49
-0.635
 74
     0
  0
LTYPE
  5
6B
330
5
100
AcDbSymbolTableRecord
100
AcDbLinetypeTableRecord
  2
PHANTOM
 70
     0
  3
Phantom ______  __  __  ______  __  __  ______
 72
    65
 73
     6
 40
12.7
 49
6.35
 74
     0
 49
-1.27
 74
     0
 49
1.27
 74
     0
 49
-1.27
 74
     0
 49
1.27
 74
     0
 49
-1.27
 74
     0
  0
LTYPE
  5
6C
330
5
100
AcDbSymbolTableRecord
100
AcDbLinetypeTableRecord
  2
CENTER
 70
     0
  3
Center ____ _ ____ _ ____ _ ____ _ ____ _ ____
 72
    65
 73
     4
 40
10.16
 49
6.35
 74
     0
 49
-1.27
 74
     0
 49
1.27
 74
     0
 49
-1.27
 74
     0
  0
LTYPE
  5
6D
330
5
100
AcDbSymbolTableRecord
100
AcDbLinetypeTableRecord
  2
CENTERX2
 70
     0
  3
Center (2x) ________  __  ________  __  _____
 72
    65
 73
     4
 40
20.32
 49
12.7
 74
     0
 49
-2.54
 74
     0
 49
2.54
 74
     0
 49
-2.54
 74
     0
  0
LTYPE
  5
6E
330
5
100
AcDbSymbolTableRecord
100
AcDbLinetypeTableRecord
  2
DOT2
 70
     0
  3
Dot (.5x) ........................................
 72
    65
 73
     2
 40
0.635
 49
0.0
 74
     0
 49
-0.635
 74
     0
  0
ENDTAB
  0
TABLE
  2
LAYER
  5
2
102
{ACAD_XDICTIONARY
360
195
102
}
330
0
100
AcDbSymbolTable
 70
    18
  0
LAYER
  5
10
330
2
100
AcDbSymbolTableRecord
100
AcDbLayerTableRecord
  2
0
 70
     0
 62
     7
  6
Continuous
370
    -3
390
F
  0
LAYER
  5
6F
330
2
100
AcDbSymbolTableRecord
100
AcDbLayerTableRecord
  2
FORMAT
 70
     0
 62
     2
  6
Continuous
370
    -3
390
F
  0
LAYER
  5
70
330
2
100
AcDbSymbolTableRecord
100
AcDbLayerTableRecord
  2
외형선
 70
     0
 62
     4
  6
Continuous
370
    30
390
F
  0
LAYER
  5
71
330
2
100
AcDbSymbolTableRecord
100
AcDbLayerTableRecord
  2
숨은선
 70
     0
 62
     2
  6
HIDDEN
370
    15
390
F
  0
LAYER
  5
72
330
2
100
AcDbSymbolTableRecord
100
AcDbLayerTableRecord
  2
중심선
 70
     0
 62
     1
  6
CENTERX2
370
    -3
390
F
  0
LAYER
  5
73
330
2
100
AcDbSymbolTableRecord
100
AcDbLayerTableRecord
  2
파단선
 70
     0
 62
     4
  6
Continuous
370
    -3
390
F
  0
LAYER
  5
74
330
2
100
AcDbSymbolTableRecord
100
AcDbLayerTableRecord
  2
해칭선
 70
     0
 62
   100
  6
Continuous
370
    -3
390
F
  0
LAYER
  5
75
330
2
100
AcDbSymbolTableRecord
100
AcDbLayerTableRecord
  2
가는실선
 70
     0
 62
     4
  6
Continuous
370
    -3
390
F
  0
LAYER
  5
76
330
2
100
AcDbSymbolTableRecord
100
AcDbLayerTableRecord
  2
치수_보조선
 70
     0
 62
     4
  6
Continuous
370
    -3
390
F
  0
LAYER
  5
77
330
2
100
AcDbSymbolTableRecord
100
AcDbLayerTableRecord
  2
치수문자_일반주서
 70
     0
 62
     7
  6
Continuous
370
    15
390
F
  0
LAYER
  5
78
330
2
100
AcDbSymbolTableRecord
100
AcDbLayerTableRecord
  2
개별주서
 70
     0
 62
   100
  6
Continuous
370
    30
390
F
  0
LAYER
  5
79
330
2
100
AcDbSymbolTableRecord
100
AcDbLayerTableRecord
  2
중간선
 70
     0
 62
     2
  6
Continuous
370
    15
390
F
  0
LAYER
  5
7A
330
2
100
AcDbSymbolTableRecord
100
AcDbLayerTableRecord
  2
윤곽선
 70
     0
 62
     3
  6
Continuous
370
    40
390
F
  0
LAYER
  5
7B
330
2
100
AcDbSymbolTableRecord
100
AcDbLayerTableRecord
  2
중심마크
 70
     0
 62
   100
  6
Continuous
370
    30
390
F
  0
LAYER
  5
7C
330
2
100
AcDbSymbolTableRecord
100
AcDbLayerTableRecord
  2
가상선
 70
     0
 62
     4
  6
PHANTOM
370
    -3
390
F
  0
LAYER
  5
7D
330
2
100
AcDbSymbolTableRecord
100
AcDbLayerTableRecord
  2
특수지정선
 70
     0
 62
     5
  6
CENTERX2
370
    60
390
F
  0
LAYER
  5
7E
330
2
100
AcDbSymbolTableRecord
100
AcDbLayerTableRecord
  2
참조1
 70
     0
 62
    -4
  6
Continuous
370
    -3
390
F
  0
LAYER
  5
15E
330
2
100
AcDbSymbolTableRecord
100
AcDbLayerTableRecord
  2
Defpoints
 70
     0
 62
     7
  6
Continuous
290
     0
370
    -3
390
F
  0
ENDTAB
  0
TABLE
  2
STYLE
  5
3
330
0
100
AcDbSymbolTable
 70
     2
  0
STYLE
  5
11
330
3
100
AcDbSymbolTableRecord
100
AcDbTextStyleTableRecord
  2
Standard
 70
     0
 40
0.0
 41
1.0
 50
0.0
 71
     0
 42
3.5
  3
txt
  4

  0
STYLE
  5
94
330
3
100
AcDbSymbolTableRecord
100
AcDbTextStyleTableRecord
  2
SLDTEXTSTYLE0
 70
     0
 40
0.0
 41
0.75
 50
0.0
 71
     0
 42
3.5
  3
TXT
  4

  0
ENDTAB
  0
TABLE
  2
VIEW
  5
6
330
0
100
AcDbSymbolTable
 70
     0
  0
ENDTAB
  0
TABLE
  2
UCS
  5
7
330
0
100
AcDbSymbolTable
 70
     0
  0
ENDTAB
  0
TABLE
  2
APPID
  5
9
330
0
100
AcDbSymbolTable
 70
     2
  0
APPID
  5
12
330
9
100
AcDbSymbolTableRecord
100
AcDbRegAppTableRecord
  2
ACAD
 70
     0
  0
APPID
  5
165
330
9
100
AcDbSymbolTableRecord
100
AcDbRegAppTableRecord
  2
PE_URL
 70
     0
  0
ENDTAB
  0
TABLE
  2
DIMSTYLE
  5
A
330
0
100
AcDbSymbolTable
 70
     3
100
AcDbDimStyleTable
  0
DIMSTYLE
105
27
330
A
100
AcDbSymbolTableRecord
100
AcDbDimStyleTableRecord
  2
ISO-25
 70
     0
 41
2.5
 42
0.625
 43
3.75
 44
1.25
 73
     0
 74
     0
 77
     1
 78
     8
140
2.5
141
2.5
143
0.03937007874016
147
0.625
171
     3
172
     1
178
     0
271
     2
272
     2
274
     3
278
    44
283
     0
284
     8
340
11
  0
DIMSTYLE
105
DD
102
{ACAD_REACTORS
330
DC
330
F1
330
105
330
11A
102
}
330
A
100
AcDbSymbolTableRecord
100
AcDbDimStyleTableRecord
  2
SLDDIMSTYLE0
 70
     0
 41
3.302
 44
0.0
 45
0.000000001
 73
     0
 74
     0
 77
     1
 78
    12
 79
     3
140
3.5
143
0.0393700787401575
147
0.875
148
0.000000001
170
     1
172
     1
173
     1
178
     0
271
     2
272
     2
276
     2
284
    12
289
     0
340
94
  0
DIMSTYLE
105
106
330
A
100
AcDbSymbolTableRecord
100
AcDbDimStyleTableRecord
  2
SLDDIMSTYLE1
 70
     0
 41
3.302
 44
0.0
 45
0.000000001
 73
     0
 74
     0
 77
     1
 78
    12
 79
     3
140
3.5
143
0.0393700787401575
147
0.875
148
0.000000001
170
     1
173
     1
178
     0
271
     2
272
     2
276
     2
284
    12
340
94
  0
ENDTAB
  0
TABLE
  2
BLOCK_RECORD
  5
1
330
0
100
AcDbSymbolTable
 70
     9
  0
BLOCK_RECORD
  5
1F
330
1
100
AcDbSymbolTableRecord
100
AcDbBlockTableRecord
  2
*Model_Space
340
22
  0
BLOCK_RECORD
  5
1B
330
1
100
AcDbSymbolTableRecord
100
AcDbBlockTableRecord
  2
*Paper_Space
340
1E
  0
BLOCK_RECORD
  5
23
330
1
100
AcDbSymbolTableRecord
100
AcDbBlockTableRecord
  2
*Paper_Space0
340
26
  0
BLOCK_RECORD
  5
7F
330
1
100
AcDbSymbolTableRecord
100
AcDbBlockTableRecord
  2
블럭10
340
0
102
{BLKREFS
331
D5
102
}
  0
BLOCK_RECORD
  5
DE
330
1
100
AcDbSymbolTableRecord
100
AcDbBlockTableRecord
  2
_D
340
0
  0
BLOCK_RECORD
  5
F2
330
1
100
AcDbSymbolTableRecord
100
AcDbBlockTableRecord
  2
_D_1
340
0
  0
BLOCK_RECORD
  5
107
330
1
100
AcDbSymbolTableRecord
100
AcDbBlockTableRecord
  2
_D_2
340
0
  0
BLOCK_RECORD
  5
11B
330
1
100
AcDbSymbolTableRecord
100
AcDbBlockTableRecord
  2
_D_3
340
0
  0
BLOCK_RECORD
  5
134
330
1
100
AcDbSymbolTableRecord
100
AcDbBlockTableRecord
  2
SW_DOWELSYMBOL_0
340
0
102
{BLKREFS
331
13A
102
}
  0
BLOCK_RECORD
  5
199
330
1
100
AcDbSymbolTableRecord
100
AcDbBlockTableRecord
  2
*D7
340
0
  0
BLOCK_RECORD
  5
1AB
330
1
100
AcDbSymbolTableRecord
100
AcDbBlockTableRecord
  2
*D8
340
0
  0
ENDTAB
  0
ENDSEC
  0
SECTION
  2
BLOCKS
  0
BLOCK
  5
20
330
1F
100
AcDbEntity
  8
0
100
AcDbBlockBegin
  2
*Model_Space
 70
     0
 10
0.0
 20
0.0
 30
0.0
  3
*Model_Space
  1

  0
ENDBLK
  5
21
330
1F
100
AcDbEntity
  8
0
100
AcDbBlockEnd
  0
BLOCK
  5
1C
330
1B
100
AcDbEntity
 67
     1
  8
0
100
AcDbBlockBegin
  2
*Paper_Space
 70
     0
 10
0.0
 20
0.0
 30
0.0
  3
*Paper_Space
  1

  0
ENDBLK
  5
1D
330
1B
100
AcDbEntity
 67
     1
  8
0
100
AcDbBlockEnd
  0
BLOCK
  5
24
330
23
100
AcDbEntity
  8
0
100
AcDbBlockBegin
  2
*Paper_Space0
 70
     0
 10
0.0
 20
0.0
 30
0.0
  3
*Paper_Space0
  1

  0
ENDBLK
  5
25
330
23
100
AcDbEntity
  8
0
100
AcDbBlockEnd
  0
BLOCK
  5
80
330
7F
100
AcDbEntity
  8
0
100
AcDbBlockBegin
  2
블럭10
 70
     2
 10
0.0
 20
0.0
 30
0.0
  3
블럭10
  1

  0
ELLIPSE
  5
82
330
7F
100
AcDbEntity
  8
중심선
100
AcDbEllipse
 10
20.54032771741204
 20
12.0471743016438
 30
0.0
 11
6.600054785286829
 21
-1.261213355974178E-13
 31
0.0
210
0.0
220
0.0
230
1.0
 40
0.636358354079598
 41
0.9219305317359503
 42
6.513795318482858
  0
ELLIPSE
  5
83
330
7F
100
AcDbEntity
  8
중심선
100
AcDbEllipse
 10
20.54032771746488
 20
12.04717430159265
 30
0.0
 11
3.960054785062283
 21
1.540847449632565E-10
 31
0.0
210
0.0
220
0.0
230
1.0
 40
0.3939339440162632
 41
1.131841032648279
 42
5.62031148352944
  0
LINE
  5
84
330
7F
100
AcDbEntity
  8
중심선
100
AcDbLine
 10
2.268634060543552
 20
16.24717430164393
 30
0.0
 11
5.714909304380834
 21
16.24717430164393
 31
0.0
  0
LINE
  5
85
330
7F
100
AcDbEntity
  8
중심선
100
AcDbLine
 10
5.245725140726316
 20
7.84717430164391
 30
0.0
 11
8.692000384563599
 21
7.84717430164391
 31
0.0
  0
LINE
  5
86
330
7F
100
AcDbEntity
  8
중심선
100
AcDbLine
 10
15.74043728645272
 20
16.24717430164393
 30
0.0
 11
8.692000384563599
 21
7.84717430164391
 31
0.0
  0
LINE
  5
87
330
7F
100
AcDbEntity
  8
중심선
100
AcDbLine
 10
0.1404042013395286
 20
13.71084872107135
 30
0.0
 11
3.58671253028996
 21
13.71088815037384
 31
0.0
  0
LINE
  5
88
330
7F
100
AcDbEntity
  8
중심선
100
AcDbLine
 10
2.750260043222114
 20
10.84717430164391
 30
0.0
 11
6.196535287059397
 21
10.84717430164391
 31
0.0
  0
LINE
  5
89
330
7F
100
AcDbEntity
  8
중심선
100
AcDbLine
 10
12.29416204261559
 20
16.24717430164393
 30
0.0
 11
5.245725140726316
 21
7.84717430164391
 31
0.0
  0
LINE
  5
8A
330
7F
100
AcDbEntity
  8
중심선
100
AcDbLine
 10
10.72767329541681
 20
16.24717430164393
 30
0.0
 11
6.196535287059397
 21
10.84717430164391
 31
0.0
  0
LINE
  5
8B
330
7F
100
AcDbEntity
  8
중심선
100
AcDbLine
 10
7.28139805157953
 20
16.24717430164393
 30
0.0
 11
2.750260043222114
 21
10.84717430164391
 31
0.0
  0
LINE
  5
8C
330
7F
100
AcDbEntity
  8
중심선
100
AcDbLine
 10
5.714909304380834
 20
16.24717430164393
 30
0.0
 11
3.58671253028996
 21
13.71088815037384
 31
0.0
  0
LINE
  5
8D
330
7F
100
AcDbEntity
  8
중심선
100
AcDbLine
 10
2.268634060543552
 20
16.24717430164393
 30
0.0
 11
0.1404042013395286
 21
13.71084872107135
 31
0.0
  0
LINE
  5
8E
330
7F
100
AcDbEntity
  8
중심선
100
AcDbLine
 10
7.28139805157953
 20
16.24717430164393
 30
0.0
 11
10.72767329541681
 21
16.24717430164393
 31
0.0
  0
LINE
  5
8F
330
7F
100
AcDbEntity
  8
중심선
100
AcDbLine
 10
12.29416204261559
 20
16.24717430164393
 30
0.0
 11
15.74043728645272
 21
16.24717430164393
 31
0.0
  0
LINE
  5
90
330
7F
100
AcDbEntity
  8
중심선
100
AcDbLine
 10
19.22036997980202
 20
11.08717430171403
 30
0.0
 11
23.66174974927406
 21
11.08717430171406
 31
0.0
  0
LINE
  5
91
330
7F
100
AcDbEntity
  8
중심선
100
AcDbLine
 10
19.22039502424796
 20
13.00717430171391
 30
0.0
 11
19.22036997980202
 21
11.08717430171403
 31
0.0
  0
LINE
  5
92
330
7F
100
AcDbEntity
  8
중심선
100
AcDbLine
 10
19.22039502424796
 20
13.00717430171391
 30
0.0
 11
26.96566020931264
 21
13.00717430171391
 31
0.0
  0
LINE
  5
93
330
7F
100
AcDbEntity
  8
중심선
100
AcDbLine
 10
22.22332737316547
 20
13.45928029700563
 30
0.0
 11
24.52862924686651
 21
15.39360700705356
 31
0.0
  0
ATTDEF
  5
95
330
7F
100
AcDbEntity
  8
FORMAT
 62
     2
100
AcDbText
 10
4.408487351596664
 20
2.075366912832191
 30
0.0
 40
4.233333333333333
  1
E1003009
 41
0.75
  7
SLDTEXTSTYLE0
 11
4.408487351596664
 21
-0.0412997538344756
 31
0.0
100
AcDbAttributeDefinition
  3

  2
AUTOATTR0
 70
     0
 74
     1
  0
ENDBLK
  5
81
330
7F
100
AcDbEntity
  8
0
100
AcDbBlockEnd
  0
BLOCK
  5
DF
330
DE
100
AcDbEntity
  8
0
100
AcDbBlockBegin
  2
_D
 70
     0
 10
0.0
 20
0.0
 30
0.0
  3
_D
  1

  0
LINE
  5
E1
330
DE
100
AcDbEntity
  8
치수문자_일반주서
 62
     0
370
    -2
100
AcDbLine
 10
-15.09701350361917
 20
2.381249999999996
 30
0.0
 11
-38.575
 21
2.381249999999909
 31
0.0
  0
LINE
  5
E2
330
DE
100
AcDbEntity
  8
치수문자_일반주서
 62
     0
370
    -2
100
AcDbLine
 10
-15.09701350361917
 20
-2.381250000000005
 30
0.0
 11
-38.57499999999998
 21
-2.381250000000094
 31
0.0
  0
LINE
  5
E3
330
DE
100
AcDbEntity
  8
치수문자_일반주서
 62
     0
370
    -2
100
AcDbLine
 10
-38.575
 20
2.381249999999909
 30
0.0
 11
-38.5750000000001
 21
36.98524999999997
 31
0.0
  0
LINE
  5
E4
330
DE
100
AcDbEntity
  8
치수문자_일반주서
 62
     0
370
    -2
100
AcDbLine
 10
-38.575
 20
2.381249999999909
 30
0.0
 11
-38.57499999999998
 21
-2.381250000000094
 31
0.0
  0
LINE
  5
E5
330
DE
100
AcDbEntity
  8
치수문자_일반주서
 62
     0
370
    -2
100
AcDbLine
 10
-38.575
 20
5.683249999999909
 30
0.0
 11
-38.57500000000001
 21
8.985249999999908
 31
0.0
  0
LINE
  5
E6
330
DE
100
AcDbEntity
  8
치수문자_일반주서
 62
     0
370
    -2
100
AcDbLine
 10
-38.57499999999997
 20
-5.683250000000093
 30
0.0
 11
-38.57499999999997
 21
-8.985250000000093
 31
0.0
  0
SOLID
  5
E7
330
DE
100
AcDbEntity
  8
치수문자_일반주서
 62
     0
100
AcDbTrace
 10
-39.12533333333334
 20
5.683249999999907
 30
0.0
 11
-38.02466666666667
 21
5.68324999999991
 31
0.0
 12
-38.575
 22
2.381249999999909
 32
0.0
 13
-38.575
 23
2.381249999999909
 33
0.0
  0
SOLID
  5
E8
330
DE
100
AcDbEntity
  8
치수문자_일반주서
 62
     0
100
AcDbTrace
 10
-38.02466666666664
 20
-5.683250000000092
 30
0.0
 11
-39.12533333333331
 21
-5.683250000000095
 31
0.0
 12
-38.57499999999998
 22
-2.381250000000094
 32
0.0
 13
-38.57499999999998
 23
-2.381250000000094
 33
0.0
  0
MTEXT
  5
E9
330
DE
100
AcDbEntity
  8
치수문자_일반주서
 62
     0
100
AcDbMText
 10
-42.95000000000006
 20
22.98524999999995
 30
0.0
 40
3.5
 41
0.0
 71
     2
 72
     1
  1
\A1;%%c4.76 [3/16]
  7
SLDTEXTSTYLE0
 11
-2.983906501879685E-15
 21
1.0
 31
0.0
 73
     1
 44
1.0
  0
POINT
  5
1BD
330
DE
100
AcDbEntity
  8
Defpoints
 62
     0
100
AcDbPoint
 10
-15.03451350361917
 20
2.381249999999997
 30
0.0
  0
POINT
  5
1BE
330
DE
100
AcDbEntity
  8
Defpoints
 62
     0
100
AcDbPoint
 10
-15.03451350361917
 20
-2.381250000000005
 30
0.0
  0
POINT
  5
1BF
330
DE
100
AcDbEntity
  8
Defpoints
 62
     0
100
AcDbPoint
 10
-38.57499999999997
 20
-2.381250000000092
 30
0.0
  0
ENDBLK
  5
E0
330
DE
100
AcDbEntity
  8
0
100
AcDbBlockEnd
  0
BLOCK
  5
F3
330
F2
100
AcDbEntity
  8
0
100
AcDbBlockBegin
  2
_D_1
 70
     0
 10
0.0
 20
0.0
 30
0.0
  3
_D_1
  1

  0
LINE
  5
F5
330
F2
100
AcDbEntity
  8
치수문자_일반주서
 62
     0
370
    -2
100
AcDbLine
 10
28.63750000000001
 20
-1.784428052824192
 30
0.0
 11
71.49860332970009
 21
-1.784428052824033
 31
0.0
  0
LINE
  5
F6
330
F2
100
AcDbEntity
  8
치수문자_일반주서
 62
     0
370
    -2
100
AcDbLine
 10
28.63750000000001
 20
1.784428052824193
 30
0.0
 11
71.49860332970007
 21
1.784428052824353
 31
0.0
  0
LINE
  5
F7
330
F2
100
AcDbEntity
  8
치수문자_일반주서
 62
     0
370
    -2
100
AcDbLine
 10
71.49860332970007
 20
1.784428052824353
 30
0.0
 11
71.49860332969993
 21
37.26342805282435
 31
0.0
  0
LINE
  5
F8
330
F2
100
AcDbEntity
  8
치수문자_일반주서
 62
     0
370
    -2
100
AcDbLine
 10
71.49860332970009
 20
-1.784428052824033
 30
0.0
 11
71.49860332970007
 21
1.784428052824353
 31
0.0
  0
LINE
  5
F9
330
F2
100
AcDbEntity
  8
치수문자_일반주서
 62
     0
370
    -2
100
AcDbLine
 10
71.4986033297001
 20
-5.086428052824033
 30
0.0
 11
71.49860332970012
 21
-8.388428052824032
 31
0.0
  0
LINE
  5
FA
330
F2
100
AcDbEntity
  8
치수문자_일반주서
 62
     0
370
    -2
100
AcDbLine
 10
71.49860332970006
 20
5.086428052824353
 30
0.0
 11
71.49860332970005
 21
8.388428052824352
 31
0.0
  0
SOLID
  5
FB
330
F2
100
AcDbEntity
  8
치수문자_일반주서
 62
     0
100
AcDbTrace
 10
72.04893666303343
 20
-5.086428052824031
 30
0.0
 11
70.94826999636678
 21
-5.086428052824035
 31
0.0
 12
71.49860332970009
 22
-1.784428052824033
 32
0.0
 13
71.49860332970009
 23
-1.784428052824033
 33
0.0
  0
SOLID
  5
FC
330
F2
100
AcDbEntity
  8
치수문자_일반주서
 62
     0
100
AcDbTrace
 10
70.94826999636673
 20
5.086428052824351
 30
0.0
 11
72.04893666303339
 21
5.086428052824354
 31
0.0
 12
71.49860332970007
 22
1.784428052824353
 32
0.0
 13
71.49860332970007
 23
1.784428052824353
 33
0.0
  0
MTEXT
  5
FD
330
F2
100
AcDbEntity
  8
치수문자_일반주서
 62
     0
100
AcDbMText
 10
67.12360332969999
 20
22.82592805282433
 30
0.0
 40
3.5
 41
0.0
 71
     2
 72
     1
  1
\A1;%%c3.57 [9/64]
  7
SLDTEXTSTYLE0
 11
-3.981907450039989E-15
 21
1.0
 31
0.0
 73
     1
 44
1.0
  0
POINT
  5
FE
330
F2
100
AcDbEntity
  8
Defpoints
 62
     0
100
AcDbPoint
 10
28.57500000000001
 20
-1.784428052824192
 30
0.0
  0
POINT
  5
FF
330
F2
100
AcDbEntity
  8
Defpoints
 62
     0
100
AcDbPoint
 10
28.57500000000001
 20
1.784428052824193
 30
0.0
  0
POINT
  5
100
330
F2
100
AcDbEntity
  8
Defpoints
 62
     0
100
AcDbPoint
 10
71.49860332970007
 20
1.784428052824353
 30
0.0
  0
ENDBLK
  5
F4
330
F2
100
AcDbEntity
  8
0
100
AcDbBlockEnd
  0
BLOCK
  5
108
330
107
100
AcDbEntity
  8
0
100
AcDbBlockBegin
  2
_D_2
 70
     0
 10
0.0
 20
0.0
 30
0.0
  3
_D_2
  1

  0
LINE
  5
10A
330
107
100
AcDbEntity
  8
치수문자_일반주서
 62
     0
370
    -2
100
AcDbLine
 10
28.57500000000001
 20
1.846928052824193
 30
0.0
 11
28.57500000000001
 21
12.38125
 31
0.0
  0
LINE
  5
10B
330
107
100
AcDbEntity
  8
치수문자_일반주서
 62
     0
370
    -2
100
AcDbLine
 10
18.25625000000003
 20
1.336178610448875
 30
0.0
 11
18.25625000000003
 21
12.38125
 31
0.0
  0
LINE
  5
10C
330
107
100
AcDbEntity
  8
치수문자_일반주서
 62
     0
370
    -2
100
AcDbLine
 10
28.57500000000001
 20
12.38125
 30
0.0
 11
64.4915
 21
12.38125
 31
0.0
  0
LINE
  5
10D
330
107
100
AcDbEntity
  8
치수문자_일반주서
 62
     0
370
    -2
100
AcDbLine
 10
28.57500000000001
 20
12.38125
 30
0.0
 11
18.25625000000003
 21
12.38125
 31
0.0
  0
LINE
  5
10E
330
107
100
AcDbEntity
  8
치수문자_일반주서
 62
     0
370
    -2
100
AcDbLine
 10
31.87700000000001
 20
12.38125
 30
0.0
 11
35.17900000000001
 21
12.38125
 31
0.0
  0
LINE
  5
10F
330
107
100
AcDbEntity
  8
치수문자_일반주서
 62
     0
370
    -2
100
AcDbLine
 10
14.95425000000003
 20
12.38125
 30
0.0
 11
11.65225000000003
 21
12.38125
 31
0.0
  0
SOLID
  5
110
330
107
100
AcDbEntity
  8
치수문자_일반주서
 62
     0
100
AcDbTrace
 10
31.87700000000001
 20
12.93158333333333
 30
0.0
 11
31.87700000000001
 21
11.83091666666666
 31
0.0
 12
28.57500000000001
 22
12.38125
 32
0.0
 13
28.57500000000001
 23
12.38125
 33
0.0
  0
SOLID
  5
111
330
107
100
AcDbEntity
  8
치수문자_일반주서
 62
     0
100
AcDbTrace
 10
14.95425000000003
 20
11.83091666666666
 30
0.0
 11
14.95425000000003
 21
12.93158333333333
 31
0.0
 12
18.25625000000003
 22
12.38125
 32
0.0
 13
18.25625000000003
 23
12.38125
 33
0.0
  0
MTEXT
  5
112
330
107
100
AcDbEntity
  8
치수문자_일반주서
 62
     0
100
AcDbMText
 10
49.83525
 20
16.75624999999999
 30
0.0
 40
3.5
 41
0.0
 71
     2
 72
     1
  1
\A1;10.32 [13/32]
  7
SLDTEXTSTYLE0
 73
     1
 44
1.0
  0
POINT
  5
113
330
107
100
AcDbEntity
  8
Defpoints
 62
     0
100
AcDbPoint
 10
28.57500000000001
 20
1.784428052824193
 30
0.0
  0
POINT
  5
114
330
107
100
AcDbEntity
  8
Defpoints
 62
     0
100
AcDbPoint
 10
18.25625000000003
 20
1.273678610448875
 30
0.0
  0
POINT
  5
115
330
107
100
AcDbEntity
  8
Defpoints
 62
     0
100
AcDbPoint
 10
18.25625000000003
 20
12.38125
 30
0.0
  0
ENDBLK
  5
109
330
107
100
AcDbEntity
  8
0
100
AcDbBlockEnd
  0
BLOCK
  5
11C
330
11B
100
AcDbEntity
  8
0
100
AcDbBlockBegin
  2
_D_3
 70
     0
 10
0.0
 20
0.0
 30
0.0
  3
_D_3
  1

  0
LINE
  5
11E
330
11B
100
AcDbEntity
  8
치수문자_일반주서
 62
     0
370
    -2
100
AcDbLine
 10
-28.57500000000001
 20
1.846928052824199
 30
0.0
 11
-28.57500000000001
 21
22.38125
 31
0.0
  0
LINE
  5
11F
330
11B
100
AcDbEntity
  8
치수문자_일반주서
 62
     0
370
    -2
100
AcDbLine
 10
28.57500000000001
 20
1.846928052824193
 30
0.0
 11
28.575
 21
22.38125
 31
0.0
  0
LINE
  5
120
330
11B
100
AcDbEntity
  8
치수문자_일반주서
 62
     0
370
    -2
100
AcDbLine
 10
-25.27300000000001
 20
22.38125
 30
0.0
 11
25.273
 21
22.38125
 31
0.0
  0
SOLID
  5
121
330
11B
100
AcDbEntity
  8
치수문자_일반주서
 62
     0
100
AcDbTrace
 10
-25.27300000000001
 20
22.93158333333333
 30
0.0
 11
-25.27300000000001
 21
21.83091666666666
 31
0.0
 12
-28.57500000000001
 22
22.38125
 32
0.0
 13
-28.57500000000001
 23
22.38125
 33
0.0
  0
SOLID
  5
122
330
11B
100
AcDbEntity
  8
치수문자_일반주서
 62
     0
100
AcDbTrace
 10
25.273
 20
21.83091666666666
 30
0.0
 11
25.273
 21
22.93158333333333
 31
0.0
 12
28.575
 22
22.38125
 32
0.0
 13
28.575
 23
22.38125
 33
0.0
  0
MTEXT
  5
123
330
11B
100
AcDbEntity
  8
치수문자_일반주서
 62
     0
100
AcDbMText
 10
0.000000000000016
 20
26.75625
 30
0.0
 40
3.5
 41
0.0
 71
     2
 72
     1
  1
\A1;57.15 [2 1/4]
  7
SLDTEXTSTYLE0
 73
     1
 44
1.0
  0
POINT
  5
124
330
11B
100
AcDbEntity
  8
Defpoints
 62
     0
100
AcDbPoint
 10
-28.57500000000001
 20
1.784428052824199
 30
0.0
  0
POINT
  5
125
330
11B
100
AcDbEntity
  8
Defpoints
 62
     0
100
AcDbPoint
 10
28.57500000000001
 20
1.784428052824193
 30
0.0
  0
POINT
  5
126
330
11B
100
AcDbEntity
  8
Defpoints
 62
     0
100
AcDbPoint
 10
28.57500000000001
 20
22.38125
 30
0.0
  0
ENDBLK
  5
11D
330
11B
100
AcDbEntity
  8
0
100
AcDbBlockEnd
  0
BLOCK
  5
135
330
134
100
AcDbEntity
  8
0
100
AcDbBlockBegin
  2
SW_DOWELSYMBOL_0
 70
     0
 10
0.0
 20
0.0
 30
0.0
  3
SW_DOWELSYMBOL_0
  1

  0
CIRCLE
  5
137
330
134
100
AcDbEntity
  8
해칭선
 62
     0
100
AcDbCircle
 10
0.0
 20
0.0
 30
0.0
 40
3.000000000000001
  0
HATCH
  5
138
330
134
100
AcDbEntity
  8
0
  6
Continuous
 62
     0
370
     0
100
AcDbHatch
 10
0.0
 20
0.0
 30
0.0
210
0.0
220
0.0
230
1.0
  2
SOLID
 70
     1
 71
     0
 91
        1
 92
        0
 93
        3
 72
     2
 10
0.0
 20
0.0
 40
3.000000000000001
 50
0.0
 51
90.0
 73
     1
 72
     1
 10
0.0
 20
3.000000000000001
 11
0.0
 21
0.0
 72
     1
 10
0.0
 20
0.0
 11
3.000000000000001
 21
0.0
 97
        0
 75
     0
 76
     1
 98
        1
 10
0.0
 20
0.0
  0
HATCH
  5
139
330
134
100
AcDbEntity
  8
0
  6
Continuous
 62
     0
370
     0
100
AcDbHatch
 10
0.0
 20
0.0
 30
0.0
210
0.0
220
0.0
230
1.0
  2
SOLID
 70
     1
 71
     0
 91
        1
 92
        0
 93
        3
 72
     2
 10
0.0
 20
0.0
 40
3.000000000000001
 50
180.0
 51
270.0000000000007
 73
     1
 72
     1
 10
0.0
 20
-3.000000000000001
 11
0.0
 21
0.0
 72
     1
 10
0.0
 20
0.0
 11
-3.000000000000001
 21
0.0
 97
        0
 75
     0
 76
     1
 98
        1
 10
0.0
 20
0.0
  0
ENDBLK
  5
136
330
134
100
AcDbEntity
  8
0
100
AcDbBlockEnd
  0
BLOCK
  5
19A
330
199
100
AcDbEntity
  8
0
100
AcDbBlockBegin
  2
*D7
 70
     1
 10
0.0
 20
0.0
 30
0.0
  3
*D7
  1

  0
LINE
  5
19C
330
199
100
AcDbEntity
  8
치수문자_일반주서
 62
     0
370
    -2
100
AcDbLine
 10
16.129
 20
3.155101899082702
 30
0.0
 11
16.129
 21
13.88769362990564
 31
0.0
  0
LINE
  5
19D
330
199
100
AcDbEntity
  8
치수문자_일반주서
 62
     0
370
    -2
100
AcDbLine
 10
6.603999999999999
 20
2.633059590344414
 30
0.0
 11
6.603999999999999
 21
13.88769362990564
 31
0.0
  0
LINE
  5
19E
330
199
100
AcDbEntity
  8
치수문자_일반주서
 62
     0
370
    -2
100
AcDbLine
 10
16.129
 20
13.88769362990564
 30
0.0
 11
46.358
 21
13.88769362990564
 31
0.0
  0
LINE
  5
19F
330
199
100
AcDbEntity
  8
치수문자_일반주서
 62
     0
370
    -2
100
AcDbLine
 10
16.129
 20
13.88769362990564
 30
0.0
 11
6.603999999999999
 21
13.88769362990564
 31
0.0
  0
LINE
  5
1A0
330
199
100
AcDbEntity
  8
치수문자_일반주서
 62
     0
370
    -2
100
AcDbLine
 10
19.431
 20
13.88769362990564
 30
0.0
 11
22.733
 21
13.88769362990564
 31
0.0
  0
LINE
  5
1A1
330
199
100
AcDbEntity
  8
치수문자_일반주서
 62
     0
370
    -2
100
AcDbLine
 10
3.302
 20
13.88769362990564
 30
0.0
 11
0.0
 21
13.88769362990564
 31
0.0
  0
SOLID
  5
1A2
330
199
100
AcDbEntity
  8
치수문자_일반주서
 62
     0
100
AcDbTrace
 10
19.431
 20
14.43802696323897
 30
0.0
 11
19.431
 21
13.3373602965723
 31
0.0
 12
16.129
 22
13.88769362990564
 32
0.0
 13
16.129
 23
13.88769362990564
 33
0.0
  0
SOLID
  5
1A3
330
199
100
AcDbEntity
  8
치수문자_일반주서
 62
     0
100
AcDbTrace
 10
3.302
 20
13.3373602965723
 30
0.0
 11
3.302
 21
14.43802696323897
 31
0.0
 12
6.603999999999999
 22
13.88769362990564
 32
0.0
 13
6.603999999999999
 23
13.88769362990564
 33
0.0
  0
MTEXT
  5
1A4
330
199
100
AcDbEntity
  8
치수문자_일반주서
 62
     0
100
AcDbMText
 10
34.5455
 20
18.26269362990564
 30
0.0
 40
3.5
 41
0.0
 71
     2
 72
     1
  1
\A1;9.53 [3/8]
  7
SLDTEXTSTYLE0
 73
     1
 44
1.0
  0
POINT
  5
1A5
330
199
100
AcDbEntity
  8
Defpoints
 62
     0
100
AcDbPoint
 10
16.129
 20
3.092601899082702
 30
0.0
  0
POINT
  5
1A6
330
199
100
AcDbEntity
  8
Defpoints
 62
     0
100
AcDbPoint
 10
6.603999999999999
 20
2.570559590344414
 30
0.0
  0
POINT
  5
1A7
330
199
100
AcDbEntity
  8
Defpoints
 62
     0
100
AcDbPoint
 10
6.603999999999999
 20
13.88769362990564
 30
0.0
  0
ENDBLK
  5
19B
330
199
100
AcDbEntity
  8
0
100
AcDbBlockEnd
  0
BLOCK
  5
1AC
330
1AB
100
AcDbEntity
  8
0
100
AcDbBlockBegin
  2
*D8
 70
     1
 10
0.0
 20
0.0
 30
0.0
  3
*D8
  1

  0
LINE
  5
1AE
330
1AB
100
AcDbEntity
  8
치수문자_일반주서
 62
     0
370
    -2
100
AcDbLine
 10
72.7558119180214
 20
-15.1763334709972
 30
0.0
 11
72.7558119180214
 21
-4.443741740174264
 31
0.0
  0
LINE
  5
1AF
330
1AB
100
AcDbEntity
  8
치수문자_일반주서
 62
     0
370
    -2
100
AcDbLine
 10
63.23081191802139
 20
-15.69837577973549
 30
0.0
 11
63.23081191802139
 21
-4.443741740174264
 31
0.0
  0
LINE
  5
1B0
330
1AB
100
AcDbEntity
  8
치수문자_일반주서
 62
     0
370
    -2
100
AcDbLine
 10
72.7558119180214
 20
-4.443741740174264
 30
0.0
 11
102.9848119180214
 21
-4.443741740174264
 31
0.0
  0
LINE
  5
1B1
330
1AB
100
AcDbEntity
  8
치수문자_일반주서
 62
     0
370
    -2
100
AcDbLine
 10
72.7558119180214
 20
-4.443741740174264
 30
0.0
 11
63.23081191802139
 21
-4.443741740174264
 31
0.0
  0
LINE
  5
1B2
330
1AB
100
AcDbEntity
  8
치수문자_일반주서
 62
     0
370
    -2
100
AcDbLine
 10
76.0578119180214
 20
-4.443741740174264
 30
0.0
 11
79.35981191802139
 21
-4.443741740174264
 31
0.0
  0
LINE
  5
1B3
330
1AB
100
AcDbEntity
  8
치수문자_일반주서
 62
     0
370
    -2
100
AcDbLine
 10
59.92881191802139
 20
-4.443741740174264
 30
0.0
 11
56.62681191802139
 21
-4.443741740174264
 31
0.0
  0
SOLID
  5
1B4
330
1AB
100
AcDbEntity
  8
치수문자_일반주서
 62
     0
100
AcDbTrace
 10
76.0578119180214
 20
-3.893408406840931
 30
0.0
 11
76.0578119180214
 21
-4.994075073507598
 31
0.0
 12
72.7558119180214
 22
-4.443741740174264
 32
0.0
 13
72.7558119180214
 23
-4.443741740174264
 33
0.0
  0
SOLID
  5
1B5
330
1AB
100
AcDbEntity
  8
치수문자_일반주서
 62
     0
100
AcDbTrace
 10
59.92881191802139
 20
-4.994075073507598
 30
0.0
 11
59.92881191802139
 21
-3.893408406840931
 31
0.0
 12
63.23081191802139
 22
-4.443741740174264
 32
0.0
 13
63.23081191802139
 23
-4.443741740174264
 33
0.0
  0
MTEXT
  5
1B6
330
1AB
100
AcDbEntity
  8
치수문자_일반주서
 62
     0
100
AcDbMText
 10
91.17231191802139
 20
-0.0687417401742643
 30
0.0
 40
3.5
 41
0.0
 71
     2
 72
     1
  1
\A1;9.53 [3/8]
  7
SLDTEXTSTYLE0
 73
     1
 44
1.0
  0
POINT
  5
1B7
330
1AB
100
AcDbEntity
  8
Defpoints
 62
     0
100
AcDbPoint
 10
72.7558119180214
 20
-15.2388334709972
 30
0.0
  0
POINT
  5
1B8
330
1AB
100
AcDbEntity
  8
Defpoints
 62
     0
100
AcDbPoint
 10
63.23081191802139
 20
-15.76087577973549
 30
0.0
  0
POINT
  5
1B9
330
1AB
100
AcDbEntity
  8
Defpoints
 62
     0
100
AcDbPoint
 10
63.23081191802139
 20
-4.443741740174264
 30
0.0
  0
ENDBLK
  5
1AD
330
1AB
100
AcDbEntity
  8
0
100
AcDbBlockEnd
  0
ENDSEC
  0
SECTION
  2
ENTITIES
  0
LINE
  5
96
330
1F
100
AcDbEntity
  8
외형선
  6
Continuous
370
    15
100
AcDbLine
 10
15.03451350361917
 20
2.38125
 30
0.0
 11
-15.03451350361917
 21
2.381249999999998
 31
0.0
  0
LINE
  5
97
330
1F
100
AcDbEntity
  8
외형선
  6
Continuous
370
    15
100
AcDbLine
 10
-15.03451350361917
 20
-2.38125
 30
0.0
 11
15.03451350361917
 21
-2.381249999999998
 31
0.0
  0
LINE
  5
98
330
1F
100
AcDbEntity
  8
외형선
  6
Continuous
370
    15
100
AcDbLine
 10
15.03451350361917
 20
-2.38125
 30
0.0
 11
17.25625000000001
 21
-1.7859375
 31
0.0
  0
LINE
  5
99
330
1F
100
AcDbEntity
  8
외형선
  6
Continuous
370
    15
100
AcDbLine
 10
17.25625000000001
 20
1.785937500000001
 30
0.0
 11
15.03451350361917
 21
2.381250000000001
 31
0.0
  0
LINE
  5
9C
330
1F
100
AcDbEntity
  8
외형선
  6
Continuous
370
    15
100
AcDbLine
 10
17.36623108182958
 20
1.785937500000001
 30
0.0
 11
17.25625000000001
 21
1.785937500000001
 31
0.0
  0
LINE
  5
9D
330
1F
100
AcDbEntity
  8
외형선
  6
Continuous
370
    15
100
AcDbLine
 10
17.25625000000001
 20
-1.7859375
 30
0.0
 11
17.36623108182958
 21
-1.7859375
 31
0.0
  0
SPLINE
  5
9E
330
1F
100
AcDbEntity
  8
외형선
  6
Continuous
370
    15
100
AcDbSpline
210
0.0
220
0.0
230
1.0
 70
     8
 71
     3
 72
     9
 73
     5
 74
     0
 42
0.000000001
 43
0.00000001
 40
0.0
 40
0.0
 40
0.0
 40
0.0
 40
0.5264751232561067
 40
1.0
 40
1.0
 40
1.0
 40
1.0
 10
18.1178985646171
 20
1.214712803435072
 30
0.0
 10
17.98624621219709
 20
1.205307151494471
 30
0.0
 10
17.73618244545012
 20
1.187441821253547
 30
0.0
 10
17.4851136312575
 20
1.180750515018267
 30
0.0
 10
17.36622630196271
 20
1.17758201505795
 30
0.0
  0
SPLINE
  5
9F
330
1F
100
AcDbEntity
  8
0
  6
Continuous
 62
     1
370
    15
100
AcDbSpline
210
0.0
220
0.0
230
1.0
 70
     8
 71
     3
 72
     9
 73
     5
 74
     0
 42
0.000000001
 43
0.00000001
 40
0.0
 40
0.0
 40
0.0
 40
0.0
 40
0.4369416422412727
 40
1.0
 40
1.0
 40
1.0
 40
1.0
 10
23.94689053405233
 20
0.4578230959667723
 30
0.0
 10
23.87504664263017
 20
0.4921024097080374
 30
0.0
 10
23.71062218756194
 20
0.5705552519810484
 30
0.0
 10
23.54618724209937
 20
0.6567800693631383
 30
0.0
 10
23.45360077174909
 20
0.705329673436344
 30
0.0
1001
PE_URL
1000

  0
LINE
  5
A0
330
1F
100
AcDbEntity
  8
0
  6
Continuous
 62
     1
370
    15
100
AcDbLine
 10
19.84991246974755
 20
1.785937500000002
 30
0.0
 11
18.98430279970204
 21
1.785937500000002
 31
0.0
1001
PE_URL
1000

  0
SPLINE
  5
A1
330
1F
100
AcDbEntity
  8
0
  6
Continuous
 62
     1
370
    15
100
AcDbSpline
210
0.0
220
0.0
230
1.0
 70
     8
 71
     3
 72
    15
 73
    11
 74
     0
 42
0.000000001
 43
0.00000001
 40
0.0
 40
0.0
 40
0.0
 40
0.0
 40
0.2190214249381742
 40
0.3748672361176022
 40
0.4841397145291697
 40
0.5969605795318386
 40
0.7144778495038357
 40
0.8321861126454007
 40
0.9495203632045885
 40
1.0
 40
1.0
 40
1.0
 40
1.0
 10
23.35810858052299
 20
1.419171874982195
 30
0.0
 10
23.2503241586457
 20
1.41399059875797
 30
0.0
 10
23.0658451820475
 20
1.405122559029504
 30
0.0
 10
22.82864080736955
 20
1.398675415726865
 30
0.0
 10
22.64537004287154
 20
1.395602661525949
 30
0.0
 10
22.47941157374227
 20
1.39447648070972
 30
0.0
 10
22.30892836621032
 20
1.394981713531457
 30
0.0
 10
22.13631764998426
 20
1.39741749769413
 30
0.0
 10
21.99650788576655
 20
1.400319779151993
 30
0.0
 10
21.9143935258734
 20
1.403404667865544
 30
0.0
 10
21.88969292970441
 20
1.404332624808018
 30
0.0
1001
PE_URL
1000

  0
SPLINE
  5
A2
330
1F
100
AcDbEntity
  8
0
  6
Continuous
 62
     1
370
    15
100
AcDbSpline
210
0.0
220
0.0
230
1.0
 70
     8
 71
     3
 72
    19
 73
    15
 74
     0
 42
0.000000001
 43
0.00000001
 40
0.0
 40
0.0
 40
0.0
 40
0.0
 40
0.1259684863794488
 40
0.2155730597266174
 40
0.3022188907177887
 40
0.3917287445225919
 40
0.4808045856257386
 40
0.5449626671162404
 40
0.6093252577728576
 40
0.673583413831062
 40
0.7352735871280635
 40
0.7950235113078061
 40
0.8802396200394964
 40
1.0
 40
1.0
 40
1.0
 40
1.0
 10
20.67248331376752
 20
-1.486124857727507
 30
0.0
 10
20.78523559059909
 20
-1.475319553626645
 30
0.0
 10
20.97819141634829
 20
-1.45682816317457
 30
0.0
 10
21.24880864660351
 20
-1.436537953196261
 30
0.0
 10
21.48686337154282
 20
-1.421533871390679
 30
0.0
 10
21.72427427137263
 20
-1.409722312608131
 30
0.0
 10
21.94146852174243
 20
-1.401897708610254
 30
0.0
 10
22.13631510035866
 20
-1.397316965649455
 30
0.0
 10
22.3089290499999
 20
-1.395008675436947
 30
0.0
 10
22.47941139874917
 20
-1.394469580710744
 30
0.0
 10
22.64537008675616
 20
-1.395604391902029
 30
0.0
 10
22.82864079035853
 20
-1.398674744980611
 30
0.0
 10
23.06584518922336
 20
-1.405122841974262
 30
0.0
 10
23.2503241612921
 20
-1.413990703105751
 30
0.0
 10
23.35810858052299
 20
-1.419171874982194
 30
0.0
1001
PE_URL
1000

  0
SPLINE
  5
A3
330
1F
100
AcDbEntity
  8
0
  6
Continuous
 62
     1
370
    15
100
AcDbSpline
210
0.0
220
0.0
230
1.0
 70
     8
 71
     3
 72
    14
 73
    10
 74
     0
 42
0.000000001
 43
0.00000001
 40
0.0
 40
0.0
 40
0.0
 40
0.0
 40
0.2479745672339323
 40
0.4210748888358244
 40
0.5517814765048827
 40
0.6880886264046477
 40
0.8224421030725291
 40
0.9514541085758939
 40
1.0
 40
1.0
 40
1.0
 40
1.0
 10
24.79071545769514
 20
-1.343289563032679
 30
0.0
 10
24.9008128889093
 20
-1.326632629268256
 30
0.0
 10
25.0877645756356
 20
-1.298348210380314
 30
0.0
 10
25.33196431896562
 20
-1.267722948288159
 30
0.0
 10
25.52638244226532
 20
-1.245855430611937
 30
0.0
 10
25.70394282589765
 20
-1.22808638403312
 30
0.0
 10
25.88085640227307
 20
-1.213113440094131
 30
0.0
 10
26.01901218143519
 20
-1.202894876275533
 30
0.0
 10
26.09765421531293
 20
-1.198520047290189
 30
0.0
 10
26.11915563937833
 20
-1.197323930549697
 30
0.0
1001
PE_URL
1000

  0
SPLINE
  5
A4
330
1F
100
AcDbEntity
  8
0
  6
Continuous
 62
     1
370
    15
100
AcDbSpline
210
0.0
220
0.0
230
1.0
 70
     8
 71
     3
 72
    22
 73
    18
 74
     0
 42
0.000000001
 43
0.00000001
 40
0.0
 40
0.0
 40
0.0
 40
0.0
 40
0.1084024655663017
 40
0.1846200078310463
 40
0.2353687105053909
 40
0.2857425735094243
 40
0.3372257218180816
 40
0.3862957987759753
 40
0.4328346232203175
 40
0.4781621172839522
 40
0.5290778142646585
 40
0.5858887063688877
 40
0.6500774778212821
 40
0.7130270170342898
 40
0.7767855921576774
 40
0.8712555538435545
 40
1.0
 40
1.0
 40
1.0
 40
1.0
 10
27.91496592094115
 20
1.221858875016922
 30
0.0
 10
27.80120717208926
 20
1.212858956822998
 30
0.0
 10
27.60746488962209
 20
1.197531215348107
 30
0.0
 10
27.3619093556926
 20
1.185601145945616
 30
0.0
 10
27.17920911825151
 20
1.179458069851052
 30
0.0
 10
27.02081384398801
 20
1.176169889199103
 30
0.0
 10
26.86351811125203
 20
1.174940333734775
 30
0.0
 10
26.71040594946577
 20
1.175723278314622
 30
0.0
 10
26.5637979211362
 20
1.178311094390623
 30
0.0
 10
26.41518968053548
 20
1.18268217490052
 30
0.0
 10
26.25581359045792
 20
1.189299976535494
 30
0.0
 10
26.07678966421336
 20
1.19913888776328
 30
0.0
 10
25.88520168309044
 20
1.212552316534547
 30
0.0
 10
25.68655234524557
 20
1.229642461033001
 30
0.0
 10
25.45654840975048
 20
1.253137874260488
 30
0.0
 10
25.15790759963058
 20
1.288269133846775
 30
0.0
 10
24.92503214957367
 20
1.323163418733853
 30
0.0
 10
24.79071545769514
 20
1.343289563032681
 30
0.0
1001
PE_URL
1000

  0
LINE
  5
A5
330
1F
100
AcDbEntity
  8
0
  6
Continuous
 62
     1
370
    15
100
AcDbLine
 10
18.98388151829197
 20
-1.7859375
 30
0.0
 11
19.84991246974755
 21
-1.7859375
 31
0.0
1001
PE_URL
1000

  0
LINE
  5
A6
330
1F
100
AcDbEntity
  8
외형선
  6
Continuous
370
    15
100
AcDbLine
 10
15.03451350361917
 20
2.381250000000001
 30
0.0
 11
15.03451350361917
 21
-2.381250000000001
 31
0.0
  0
LINE
  5
A8
330
1F
100
AcDbEntity
  8
외형선
  6
Continuous
370
    15
100
AcDbLine
 10
17.25625000000001
 20
1.785937500000001
 30
0.0
 11
17.25625000000001
 21
-1.785937500000001
 31
0.0
  0
SPLINE
  5
AA
330
1F
100
AcDbEntity
  8
외형선
  6
Continuous
370
    15
100
AcDbSpline
210
0.0
220
0.0
230
1.0
 70
     8
 71
     3
 72
    10
 73
     6
 74
     0
 42
0.000000001
 43
0.00000001
 40
0.0
 40
0.0
 40
0.0
 40
0.0
 40
0.5
 40
0.5
 40
1.0
 40
1.0
 40
1.0
 40
1.0
 10
17.36623108182958
 20
1.547198340574647
 30
0.0
 10
17.51555169352089
 20
1.590084622638684
 30
0.0
 10
17.66503776425532
 20
1.627593672324013
 30
0.0
 10
17.95973666617042
 20
1.690844152263818
 30
0.0
 10
18.107069843517
 20
1.716773131029273
 30
0.0
 10
18.25625000000007
 20
1.736774188498425
 30
0.0
  0
SPLINE
  5
AB
330
1F
100
AcDbEntity
  8
외형선
  6
Continuous
370
    15
100
AcDbSpline
210
0.0
220
0.0
230
1.0
 70
     8
 71
     3
 72
    10
 73
     6
 74
     0
 42
0.000000001
 43
0.00000001
 40
0.0
 40
0.0
 40
0.0
 40
0.0
 40
0.5
 40
0.5
 40
1.0
 40
1.0
 40
1.0
 40
1.0
 10
18.25625000000002
 20
-1.554288515530899
 30
0.0
 10
18.10706653748724
 20
-1.512011278647217
 30
0.0
 10
17.95973022948684
 20
-1.464530110549779
 30
0.0
 10
17.66502460817939
 20
-1.359870104160603
 30
0.0
 10
17.51553513255882
 20
-1.302409634652792
 30
0.0
 10
17.36621122697621
 20
-1.240646370018364
 30
0.0
  0
LINE
  5
AC
330
1F
100
AcDbEntity
  8
외형선
  6
Continuous
370
    15
100
AcDbLine
 10
18.25625000000001
 20
-1.554288515530897
 30
0.0
 11
18.25625000000001
 21
-1.736774188498431
 31
0.0
  0
SPLINE
  5
AD
330
1F
100
AcDbEntity
  8
외형선
  6
Continuous
370
    15
100
AcDbSpline
210
0.0
220
0.0
230
1.0
 70
     8
 71
     3
 72
    10
 73
     6
 74
     0
 42
0.000000001
 43
0.00000001
 40
0.0
 40
0.0
 40
0.0
 40
0.0
 40
0.5
 40
0.5
 40
1.0
 40
1.0
 40
1.0
 40
1.0
 10
17.36623108182958
 20
-1.547198340574646
 30
0.0
 10
17.51555169352089
 20
-1.590084622638683
 30
0.0
 10
17.66503776425532
 20
-1.627593672324012
 30
0.0
 10
17.95973666617042
 20
-1.690844152263817
 30
0.0
 10
18.107069843517
 20
-1.716773131029272
 30
0.0
 10
18.25625000000007
 20
-1.736774188498424
 30
0.0
  0
LINE
  5
AE
330
1F
100
AcDbEntity
  8
외형선
  6
Continuous
370
    15
100
AcDbLine
 10
17.36623108182958
 20
-1.7859375
 30
0.0
 11
17.36623108182958
 21
-1.546893491212581
 31
0.0
  0
LINE
  5
AF
330
1F
100
AcDbEntity
  8
외형선
  6
Continuous
370
    15
100
AcDbLine
 10
17.36623108182958
 20
-1.240591311664736
 30
0.0
 11
17.36623108182958
 21
1.785937500000001
 31
0.0
  0
SPLINE
  5
B0
330
1F
100
AcDbEntity
  8
외형선
  6
Continuous
370
    15
100
AcDbSpline
210
0.0
220
0.0
230
1.0
 70
     8
 71
     3
 72
    10
 73
     6
 74
     0
 42
0.000000001
 43
0.00000001
 40
0.0
 40
0.0
 40
0.0
 40
0.0
 40
0.4999999999999999
 40
0.4999999999999999
 40
1.0
 40
1.0
 40
1.0
 40
1.0
 10
18.25625000000003
 20
-1.273678610448875
 30
0.0
 10
18.10706653748726
 20
-1.233981195600213
 30
0.0
 10
17.95973022948685
 20
-1.190040372999676
 30
0.0
 10
17.6650246081794
 20
-1.09431515077147
 30
0.0
 10
17.51553513255882
 20
-1.042276378340704
 30
0.0
 10
17.36621122697621
 20
-0.986817268591754
 30
0.0
  0
SPLINE
  5
B1
330
1F
100
AcDbEntity
  8
외형선
  6
Continuous
370
    15
100
AcDbSpline
210
0.0
220
0.0
230
1.0
 70
     8
 71
     3
 72
    10
 73
     6
 74
     0
 42
0.000000001
 43
0.00000001
 40
0.0
 40
0.0
 40
0.0
 40
0.0
 40
0.5
 40
0.5
 40
1.0
 40
1.0
 40
1.0
 40
1.0
 10
18.25625000000001
 20
0.2755330193333418
 30
0.0
 10
18.10706863704542
 20
0.3429118901527853
 30
0.0
 10
17.95973431722783
 20
0.4090569557481857
 30
0.0
 10
17.66503296320104
 20
0.5380975380391542
 30
0.0
 10
17.51554564991928
 20
0.60129266472481
 30
0.0
 10
17.36622383618498
 20
0.6621597980896359
 30
0.0
  0
SPLINE
  5
B2
330
1F
100
AcDbEntity
  8
외형선
  6
Continuous
370
    15
100
AcDbSpline
210
0.0
220
0.0
230
1.0
 70
    24
 71
     3
 72
    10
 73
     6
 74
     0
 42
0.000000001
 43
0.00000001
 40
0.0
 40
0.0
 40
0.0
 40
0.0
 40
0.5
 40
0.5
 40
1.0
 40
1.0
 40
1.0
 40
1.0
 10
18.25625000000002
 20
0.2755330193333399
 30
0.0
 10
18.25625000000002
 20
0.0009062743889386
 30
0.0
 10
18.25625000000002
 20
-0.2918289898076987
 30
0.0
 10
18.25625000000002
 20
-0.8333552217852195
 30
0.0
 10
18.25625000000002
 20
-1.079815248966207
 30
0.0
 10
18.25625000000002
 20
-1.273678610448871
 30
0.0
  0
LINE
  5
B3
330
1F
100
AcDbEntity
  8
외형선
  6
Continuous
370
    15
100
AcDbLine
 10
18.25625000000001
 20
1.226688872598812
 30
0.0
 11
18.1164097038942
 21
1.208007541680695
 31
0.0
  0
SPLINE
  5
B4
330
1F
100
AcDbEntity
  8
외형선
  6
Continuous
370
    15
100
AcDbSpline
210
0.0
220
0.0
230
1.0
 70
    24
 71
     3
 72
    14
 73
    10
 74
     0
 42
0.000000001
 43
0.00000001
 40
0.0
 40
0.0
 40
0.0
 40
0.0
 40
0.25
 40
0.25
 40
0.5
 40
0.5
 40
0.75
 40
0.75
 40
1.0
 40
1.0
 40
1.0
 40
1.0
 10
18.25625000000001
 20
1.226688872598812
 30
0.0
 10
18.25625000000001
 20
1.223450247154532
 30
0.0
 10
18.25625000000001
 20
1.200719416140755
 30
0.0
 10
18.25625000000001
 20
1.112654462156516
 30
0.0
 10
18.25625000000001
 20
1.047280306531349
 30
0.0
 10
18.25625000000001
 20
0.8782324885269609
 30
0.0
 10
18.25625000000001
 20
0.7746489018927601
 30
0.0
 10
18.25625000000001
 20
0.5409936700500404
 30
0.0
 10
18.25625000000001
 20
0.4110864815877534
 30
0.0
 10
18.25625000000001
 20
0.2755330193333421
 30
0.0
  0
SPLINE
  5
B5
330
1F
100
AcDbEntity
  8
외형선
  6
Continuous
370
    15
100
AcDbSpline
210
0.0
220
0.0
230
1.0
 70
    24
 71
     3
 72
     8
 73
     4
 74
     0
 42
0.000000001
 43
0.00000001
 40
0.0
 40
0.0
 40
0.0
 40
0.0
 40
1.0
 40
1.0
 40
1.0
 40
1.0
 10
18.25625000000001
 20
-1.27367861044887
 30
0.0
 10
18.25625000000001
 20
-1.365281429672928
 30
0.0
 10
18.25625000000001
 20
-1.459410646567936
 30
0.0
 10
18.25625000000001
 20
-1.554288515530414
 30
0.0
  0
SPLINE
  5
B6
330
1F
100
AcDbEntity
  8
외형선
  6
Continuous
370
    15
100
AcDbSpline
210
0.0
220
0.0
230
1.0
 70
    24
 71
     3
 72
    10
 73
     6
 74
     0
 42
0.000000001
 43
0.00000001
 40
0.0
 40
0.0
 40
0.0
 40
0.0
 40
0.5
 40
0.5
 40
1.0
 40
1.0
 40
1.0
 40
1.0
 10
18.25625000000004
 20
1.736774188498415
 30
0.0
 10
18.25625000000004
 20
1.644597429556922
 30
0.0
 10
18.25625000000004
 20
1.549133578532532
 30
0.0
 10
18.25625000000004
 20
1.372928452594583
 30
0.0
 10
18.25625000000004
 20
1.292610092701661
 30
0.0
 10
18.25625000000004
 20
1.226688872598814
 30
0.0
  0
SPLINE
  5
B7
330
1F
100
AcDbEntity
  8
0
  6
Continuous
 62
     1
370
    15
100
AcDbSpline
210
0.0
220
0.0
230
1.0
 70
     8
 71
     3
 72
    38
 73
    34
 74
     0
 42
0.000000001
 43
0.00000001
 40
0.0
 40
0.0
 40
0.0
 40
0.0
 40
0.0624999999999999
 40
0.0624999999999999
 40
0.1249999999999999
 40
0.1249999999999999
 40
0.1874999999999999
 40
0.1874999999999999
 40
0.2499999999999999
 40
0.2499999999999999
 40
0.3124999999999998
 40
0.3124999999999998
 40
0.3749999999999997
 40
0.3749999999999997
 40
0.4374999999999996
 40
0.4374999999999996
 40
0.4999999999999994
 40
0.4999999999999994
 40
0.5624999999999993
 40
0.5624999999999993
 40
0.6249999999999993
 40
0.6249999999999993
 40
0.6874999999999994
 40
0.6874999999999994
 40
0.7499999999999996
 40
0.7499999999999996
 40
0.8124999999999997
 40
0.8124999999999997
 40
0.8749999999999998
 40
0.8749999999999998
 40
0.9374999999999999
 40
0.9374999999999999
 40
1.0
 40
1.0
 40
1.0
 40
1.0
 10
18.25625000000006
 20
1.736774188498421
 30
0.0
 10
18.47231967204257
 20
1.76574333580156
 30
0.0
 10
18.68831274636626
 20
1.781999870791965
 30
0.0
 10
19.11432725679238
 20
1.788603229008168
 30
0.0
 10
19.33213137310249
 20
1.778935230376658
 30
0.0
 10
19.76330319110186
 20
1.733977764417137
 30
0.0
 10
19.97481135556504
 20
1.698959451182222
 30
0.0
 10
20.40687839912949
 20
1.604380102395642
 30
0.0
 10
20.6231708650535
 20
1.54498444877211
 30
0.0
 10
21.04891822206137
 20
1.405542073835333
 30
0.0
 10
21.26668381890019
 20
1.324558888815559
 30
0.0
 10
21.69797679281976
 20
1.14504025961583
 30
0.0
 10
21.90944666833807
 20
1.046943588570112
 30
0.0
 10
22.34143596780547
 20
0.8356666552495711
 30
0.0
 10
22.55803719497884
 20
0.7230444146250654
 30
0.0
 10
22.98351221837136
 20
0.4903969910471169
 30
0.0
 10
23.20123650186056
 20
0.3687607627064868
 30
0.0
 10
23.63264522063942
 20
0.1226225897940128
 30
0.0
 10
23.84408637804589
 20
-0.0014113463502913
 30
0.0
 10
24.27599249310872
 20
-0.2493940849432595
 30
0.0
 10
24.49291183835291
 20
-0.3726373770322748
 30
0.0
 10
24.91810935917594
 20
-0.6103923955699148
 30
0.0
 10
25.13578953722312
 20
-0.7266352878154104
 30
0.0
 10
25.56730858494291
 20
-0.9462165613081078
 30
0.0
 10
25.77873059627328
 20
-1.049232021928765
 30
0.0
 10
26.21054809012089
 20
-1.240044016500725
 30
0.0
 10
26.42779489704774
 20
-1.327238496195073
 30
0.0
 10
26.85270975779436
 20
-1.480108301835801
 30
0.0
 10
27.07034304021334
 20
-1.546959178203668
 30
0.0
 10
27.5019669963241
 20
-1.656845965943384
 30
0.0
 10
27.71337943441593
 20
-1.699846162336305
 30
0.0
 10
28.14510287396224
 20
-1.76126550404082
 30
0.0
 10
28.36268647259303
 20
-1.779347526326735
 30
0.0
 10
28.57500000000001
 20
-1.784428052824186
 30
0.0
1001
PE_URL
1000

  0
SPLINE
  5
B8
330
1F
100
AcDbEntity
  8
0
  6
Continuous
 62
     1
370
    15
100
AcDbSpline
210
0.0
220
0.0
230
1.0
 70
     8
 71
     3
 72
    14
 73
    10
 74
     0
 42
0.000000001
 43
0.00000001
 40
0.0
 40
0.0
 40
0.0
 40
0.0
 40
0.0391909880155346
 40
0.1981039958553028
 40
0.357008026241998
 40
0.5159043738845701
 40
0.6747943390807304
 40
0.8373975745006671
 40
0.9999999999999999
 40
0.9999999999999999
 40
0.9999999999999999
 40
0.9999999999999999
 10
24.13396738799337
 20
-0.1667502670342293
 30
0.0
 10
24.05718239319184
 20
-0.1366303142648631
 30
0.0
 10
23.66904687882616
 20
0.0156210909872646
 30
0.0
 10
22.96958455195887
 20
0.3040663951709728
 30
0.0
 10
22.03559600382577
 20
0.6554792190220439
 30
0.0
 10
21.10165367981189
 20
0.9497873951042495
 30
0.0
 10
20.16048294839083
 20
1.157171720255857
 30
0.0
 10
19.21199595560307
 20
1.267110355025875
 30
0.0
 10
18.57483145625098
 20
1.24016267770355
 30
0.0
 10
18.25625000000001
 20
1.226688872598812
 30
0.0
1001
PE_URL
1000

  0
SPLINE
  5
B9
330
1F
100
AcDbEntity
  8
외형선
  6
Continuous
370
    15
100
AcDbSpline
210
0.0
220
0.0
230
1.0
 70
    24
 71
     3
 72
    10
 73
     6
 74
     0
 42
0.000000001
 43
0.00000001
 40
0.0
 40
0.0
 40
0.0
 40
0.0
 40
0.5
 40
0.5
 40
1.0
 40
1.0
 40
1.0
 40
1.0
 10
18.25625000000004
 20
1.736774188498416
 30
0.0
 10
18.25625000000004
 20
1.644597429556924
 30
0.0
 10
18.25625000000004
 20
1.549133578532533
 30
0.0
 10
18.25625000000004
 20
1.372928452594583
 30
0.0
 10
18.25625000000004
 20
1.292610092701661
 30
0.0
 10
18.25625000000004
 20
1.226688872598814
 30
0.0
  0
SPLINE
  5
BA
330
1F
100
AcDbEntity
  8
0
  6
Continuous
 62
     1
370
    15
100
AcDbSpline
210
0.0
220
0.0
230
1.0
 70
     8
 71
     3
 72
    18
 73
    14
 74
     0
 42
0.000000001
 43
0.00000001
 40
0.0
 40
0.0
 40
0.0
 40
0.0
 40
0.0947036623287072
 40
0.1892984741679893
 40
0.2838309537656434
 40
0.3783482768459068
 40
0.472897779512682
 40
0.5675264575972051
 40
0.6622604824470044
 40
0.7490390664155793
 40
0.8356658746914928
 40
0.9222906240991802
 40
1.0
 40
1.0
 40
1.0
 40
1.0
 10
28.57500000000002
 20
-1.694749083643846
 30
0.0
 10
28.29947895828091
 20
-1.632942731367403
 30
0.0
 10
27.74875355320024
 20
-1.509401065795792
 30
0.0
 10
26.92326677927063
 20
-1.184965939820306
 30
0.0
 10
26.09841130377985
 20
-0.7853549345002976
 30
0.0
 10
25.27372161082243
 20
-0.3278844204549532
 30
0.0
 10
24.44868574491114
 20
0.1522162883721486
 30
0.0
 10
23.62291370626092
 20
0.6219119477234948
 30
0.0
 10
22.81941425236489
 20
1.035247057575196
 30
0.0
 10
22.03952648819753
 20
1.370503124781288
 30
0.0
 10
21.28353792184107
 20
1.611880899849643
 30
0.0
 10
20.55394637229454
 20
1.761518555896006
 30
0.0
 10
20.07594636409545
 20
1.774715265109799
 30
0.0
 10
19.84991246974755
 20
1.780955649053325
 30
0.0
1001
PE_URL
1000

  0
SPLINE
  5
BB
330
1F
100
AcDbEntity
  8
0
  6
Continuous
 62
     1
370
    15
100
AcDbSpline
210
0.0
220
0.0
230
1.0
 70
     8
 71
     3
 72
    12
 73
     8
 74
     0
 42
0.000000001
 43
0.00000001
 40
0.0
 40
0.0
 40
0.0
 40
0.0
 40
0.2009974255699255
 40
0.4019762268375337
 40
0.6029379260178168
 40
0.8038840575029682
 40
0.9999999999999999
 40
0.9999999999999999
 40
0.9999999999999999
 40
0.9999999999999999
 10
28.57500000000002
 20
-1.409055153395111
 30
0.0
 10
28.26351200962932
 20
-1.339751575847267
 30
0.0
 10
27.6405648911805
 20
-1.201150842379996
 30
0.0
 10
26.70620161614814
 20
-0.8501504002252875
 30
0.0
 10
25.77192878306886
 20
-0.4322145032684553
 30
0.0
 10
24.84520200083993
 20
0.0267220117977479
 30
0.0
 10
24.22990310668677
 20
0.321595519982065
 30
0.0
 10
23.92599616001212
 20
0.4672387323770327
 30
0.0
1001
PE_URL
1000

  0
LINE
  5
BC
330
1F
100
AcDbEntity
  8
0
  6
Continuous
 62
     1
370
    15
100
AcDbLine
 10
28.57499999999994
 20
-1.694749083643847
 30
0.0
 11
28.57500000000002
 21
-1.409055153395111
 31
0.0
1001
PE_URL
1000

  0
LINE
  5
BD
330
1F
100
AcDbEntity
  8
0
  6
Continuous
 62
     1
370
    15
100
AcDbLine
 10
28.57500000000001
 20
-1.784428052824192
 30
0.0
 11
28.57499999999992
 21
-1.694749083643842
 31
0.0
1001
PE_URL
1000

  0
SPLINE
  5
BE
330
1F
100
AcDbEntity
  8
0
  6
Continuous
 62
     1
370
    15
100
AcDbSpline
210
0.0
220
0.0
230
1.0
 70
     8
 71
     3
 72
     8
 73
     4
 74
     0
 42
0.000000001
 43
0.00000001
 40
0.0
 40
0.0
 40
0.0
 40
0.0
 40
1.0
 40
1.0
 40
1.0
 40
1.0
 10
27.46935610163611
 20
0.5001697058188411
 30
0.0
 10
27.40611190382926
 20
0.5750934330415877
 30
0.0
 10
27.34965597961274
 20
0.6472264353891942
 30
0.0
 10
27.30159004714618
 20
0.7159102310471599
 30
0.0
1001
PE_URL
1000

  0
LINE
  5
BF
330
1F
100
AcDbEntity
  8
0
  6
Continuous
 62
     1
370
    15
100
AcDbLine
 10
27.32421237855564
 20
0.7348926209891086
 30
0.0
 11
28.57500000000002
 21
0.0000000000000019
 31
0.0
1001
PE_URL
1000

  0
LINE
  5
C0
330
1F
100
AcDbEntity
  8
0
  6
Continuous
 62
     1
370
    15
100
AcDbLine
 10
28.57500000000002
 20
0.0000000000000019
 30
0.0
 11
28.57500000000002
 21
-0.477279198924817
 31
0.0
1001
PE_URL
1000

  0
SPLINE
  5
C1
330
1F
100
AcDbEntity
  8
0
  6
Continuous
 62
     1
370
    15
100
AcDbSpline
210
0.0
220
0.0
230
1.0
 70
     8
 71
     3
 72
    10
 73
     6
 74
     0
 42
0.000000001
 43
0.00000001
 40
0.0
 40
0.0
 40
0.0
 40
0.0
 40
0.5
 40
0.5
 40
1.0
 40
1.0
 40
1.0
 40
1.0
 10
28.57500000000002
 20
-0.4772791989248179
 30
0.0
 10
28.38360029268922
 20
-0.3268046018107798
 30
0.0
 10
28.19540107205847
 20
-0.1701549815729988
 30
0.0
 10
27.82555667289952
 20
0.1557896361788872
 30
0.0
 10
27.64219088418343
 20
0.3268069389701406
 30
0.0
 10
27.46935610163611
 20
0.5001697058188499
 30
0.0
1001
PE_URL
1000

  0
SPLINE
  5
C2
330
1F
100
AcDbEntity
  8
0
  6
Continuous
 62
     1
370
    15
100
AcDbSpline
210
0.0
220
0.0
230
1.0
 70
     8
 71
     3
 72
    12
 73
     8
 74
     0
 42
0.000000001
 43
0.00000001
 40
0.0
 40
0.0
 40
0.0
 40
0.0
 40
0.2091817566781251
 40
0.4184286187759698
 40
0.627516896382893
 40
0.8364845800193978
 40
1.0
 40
1.0
 40
1.0
 40
1.0
 10
27.46935610163611
 20
0.5001697058188446
 30
0.0
 10
27.18252580570775
 20
0.6204065750850161
 30
0.0
 10
26.60877594121511
 20
0.860917735962231
 30
0.0
 10
25.74823625070317
 20
1.14592268987125
 30
0.0
 10
24.88812867665287
 20
1.342456530038616
 30
0.0
 10
24.09077140093451
 20
1.440140741843829
 30
0.0
 10
23.58011060920222
 20
1.419025392066679
 30
0.0
 10
23.35593691375972
 20
1.40975601782307
 30
0.0
1001
PE_URL
1000

  0
SPLINE
  5
C3
330
1F
100
AcDbEntity
  8
0
  6
Continuous
 62
     1
370
    15
100
AcDbSpline
210
0.0
220
0.0
230
1.0
 70
    24
 71
     3
 72
    10
 73
     6
 74
     0
 42
0.000000001
 43
0.00000001
 40
0.0
 40
0.0
 40
0.0
 40
0.0
 40
0.5000000000000001
 40
0.5000000000000001
 40
1.0
 40
1.0
 40
1.0
 40
1.0
 10
28.57500000000002
 20
-1.40905515339511
 30
0.0
 10
28.57500000000001
 20
-1.301040090048983
 30
0.0
 10
28.57500000000002
 20
-1.164558915789209
 30
0.0
 10
28.57500000000002
 20
-0.8472533204831676
 30
0.0
 10
28.57500000000001
 20
-0.6667037615744488
 30
0.0
 10
28.57500000000002
 20
-0.4772791989248756
 30
0.0
1001
PE_URL
1000

  0
SPLINE
  5
C4
330
1F
100
AcDbEntity
  8
0
  6
Continuous
 62
     1
370
    15
100
AcDbSpline
210
0.0
220
0.0
230
1.0
 70
     8
 71
     3
 72
    10
 73
     6
 74
     0
 42
0.000000001
 43
0.00000001
 40
0.0
 40
0.0
 40
0.0
 40
0.0
 40
0.2101522228614603
 40
0.6050770568400613
 40
1.0
 40
1.0
 40
1.0
 40
1.0
 10
20.67629795601071
 20
-1.468818332854309
 30
0.0
 10
20.50677931971963
 20
-1.488368691379436
 30
0.0
 10
20.01869579564399
 20
-1.544658714085262
 30
0.0
 10
19.2119886711138
 20
-1.48966832631506
 30
0.0
 10
18.57482904860526
 20
-1.345675067502323
 30
0.0
 10
18.25625000000003
 20
-1.273678610448874
 30
0.0
1001
PE_URL
1000

  0
SPLINE
  5
C5
330
1F
100
AcDbEntity
  8
0
  6
Continuous
 62
     1
370
    15
100
AcDbSpline
210
0.0
220
0.0
230
1.0
 70
     8
 71
     3
 72
    15
 73
    11
 74
     0
 42
0.000000001
 43
0.00000001
 40
0.0
 40
0.0
 40
0.0
 40
0.0
 40
0.116982648539294
 40
0.2484191671433855
 40
0.3798394659071206
 40
0.5037439660688108
 40
0.6277661621253078
 40
0.7519687836509981
 40
0.8760603411316629
 40
1.0
 40
1.0
 40
1.0
 40
1.0
 10
24.7931842078571
 20
-1.337678227927296
 30
0.0
 10
24.53827409696753
 20
-1.372055215413914
 30
0.0
 10
23.99695828445758
 20
-1.445056662269136
 30
0.0
 10
23.16933805066126
 20
-1.423112338825885
 30
0.0
 10
22.32660338324873
 20
-1.303095934560645
 30
0.0
 10
21.50015985532685
 20
-1.089664882113772
 30
0.0
 10
20.68931614387817
 20
-0.8064959377318425
 30
0.0
 10
19.87782058248284
 20
-0.4687547993954663
 30
0.0
 10
19.06667078922183
 20
-0.0974608506024575
 30
0.0
 10
18.52627994817075
 20
0.151252501476096
 30
0.0
 10
18.25625000000001
 20
0.2755330193333418
 30
0.0
1001
PE_URL
1000

  0
SPLINE
  5
C6
330
1F
100
AcDbEntity
  8
외형선
  6
Continuous
370
    15
100
AcDbSpline
210
0.0
220
0.0
230
1.0
 70
    24
 71
     3
 72
    10
 73
     6
 74
     0
 42
0.000000001
 43
0.00000001
 40
0.0
 40
0.0
 40
0.0
 40
0.0
 40
0.5
 40
0.5
 40
1.0
 40
1.0
 40
1.0
 40
1.0
 10
18.25625000000002
 20
0.2755330193333399
 30
0.0
 10
18.25625000000002
 20
0.0009062743889386
 30
0.0
 10
18.25625000000002
 20
-0.2918289898076987
 30
0.0
 10
18.25625000000002
 20
-0.8333552217852195
 30
0.0
 10
18.25625000000002
 20
-1.079815248966207
 30
0.0
 10
18.25625000000002
 20
-1.273678610448871
 30
0.0
  0
SPLINE
  5
C7
330
1F
100
AcDbEntity
  8
외형선
  6
Continuous
370
    15
100
AcDbSpline
210
0.0
220
0.0
230
1.0
 70
    24
 71
     3
 72
    14
 73
    10
 74
     0
 42
0.000000001
 43
0.00000001
 40
0.0
 40
0.0
 40
0.0
 40
0.0
 40
0.25
 40
0.25
 40
0.5
 40
0.5
 40
0.75
 40
0.75
 40
1.0
 40
1.0
 40
1.0
 40
1.0
 10
18.25625000000001
 20
1.226688872598812
 30
0.0
 10
18.25625000000001
 20
1.223450247154532
 30
0.0
 10
18.25625000000001
 20
1.200719416140755
 30
0.0
 10
18.25625000000001
 20
1.112654462156516
 30
0.0
 10
18.25625000000001
 20
1.047280306531349
 30
0.0
 10
18.25625000000001
 20
0.8782324885269609
 30
0.0
 10
18.25625000000001
 20
0.7746489018927601
 30
0.0
 10
18.25625000000001
 20
0.5409936700500404
 30
0.0
 10
18.25625000000001
 20
0.4110864815877534
 30
0.0
 10
18.25625000000001
 20
0.2755330193333421
 30
0.0
  0
SPLINE
  5
C8
330
1F
100
AcDbEntity
  8
0
  6
Continuous
 62
     1
370
    15
100
AcDbSpline
210
0.0
220
0.0
230
1.0
 70
    24
 71
     3
 72
     8
 73
     4
 74
     0
 42
0.000000001
 43
0.00000001
 40
0.0
 40
0.0
 40
0.0
 40
0.0
 40
1.0
 40
1.0
 40
1.0
 40
1.0
 10
27.48813864972745
 20
0.8724430946696501
 30
0.0
 10
27.42918395548606
 20
0.8229742324755227
 30
0.0
 10
27.3668089417671
 20
0.7706353814692601
 30
0.0
 10
27.30159004714628
 20
0.7159102310471476
 30
0.0
1001
PE_URL
1000

  0
LINE
  5
C9
330
1F
100
AcDbEntity
  8
0
  6
Continuous
 62
     1
370
    15
100
AcDbLine
 10
28.57500000000002
 20
1.25015625
 30
0.0
 11
27.91183446577325
 21
1.2100045096614
 31
0.0
1001
PE_URL
1000

  0
SPLINE
  5
CA
330
1F
100
AcDbEntity
  8
0
  6
Continuous
 62
     1
370
    15
100
AcDbSpline
210
0.0
220
0.0
230
1.0
 70
     8
 71
     3
 72
     8
 73
     4
 74
     0
 42
0.000000001
 43
0.00000001
 40
0.0
 40
0.0
 40
0.0
 40
0.0
 40
1.0
 40
1.0
 40
1.0
 40
1.0
 10
28.57500000000002
 20
1.250156250000002
 30
0.0
 10
28.207675259259
 20
1.150382583531583
 30
0.0
 10
27.84386444133697
 20
1.027885928108344
 30
0.0
 10
27.48813864973868
 20
0.8724430946745562
 30
0.0
1001
PE_URL
1000

  0
LINE
  5
CB
330
1F
100
AcDbEntity
  8
0
  6
Continuous
 62
     1
370
    15
100
AcDbLine
 10
28.57500000000002
 20
0.0000000000000019
 30
0.0
 11
28.57500000000002
 21
1.250156250000001
 31
0.0
1001
PE_URL
1000

  0
SPLINE
  5
CC
330
1F
100
AcDbEntity
  8
0
  6
Continuous
 62
     1
370
    15
100
AcDbSpline
210
0.0
220
0.0
230
1.0
 70
     8
 71
     3
 72
    12
 73
     8
 74
     0
 42
0.000000001
 43
0.00000001
 40
0.0
 40
0.0
 40
0.0
 40
0.0
 40
0.1668642614260067
 40
0.3748630583556249
 40
0.5832165153440827
 40
0.7918523815377001
 40
1.0
 40
1.0
 40
1.0
 40
1.0
 10
21.88969292970441
 20
-1.404332624808017
 30
0.0
 10
21.68763766903227
 20
-1.473414698383552
 30
0.0
 10
21.2337175046717
 20
-1.62860860963073
 30
0.0
 10
20.52758124146726
 20
-1.759532281158401
 30
0.0
 10
19.77055542505209
 20
-1.802528935179981
 30
0.0
 10
19.01296459393037
 20
-1.742498082672632
 30
0.0
 10
18.50829112868825
 20
-1.616976022964771
 30
0.0
 10
18.25625000000009
 20
-1.55428851553092
 30
0.0
1001
PE_URL
1000

  0
SPLINE
  5
CD
330
1F
100
AcDbEntity
  8
외형선
  6
Continuous
370
    15
100
AcDbSpline
210
0.0
220
0.0
230
1.0
 70
    24
 71
     3
 72
     8
 73
     4
 74
     0
 42
0.000000001
 43
0.00000001
 40
0.0
 40
0.0
 40
0.0
 40
0.0
 40
1.0
 40
1.0
 40
1.0
 40
1.0
 10
18.25625000000001
 20
-1.27367861044887
 30
0.0
 10
18.25625000000001
 20
-1.365281429672928
 30
0.0
 10
18.25625000000001
 20
-1.459410646567936
 30
0.0
 10
18.25625000000001
 20
-1.554288515530415
 30
0.0
  0
SPLINE
  5
CE
330
1F
100
AcDbEntity
  8
0
  6
Continuous
 62
     1
370
    15
100
AcDbSpline
210
0.0
220
0.0
230
1.0
 70
     8
 71
     3
 72
     9
 73
     5
 74
     0
 42
0.000000001
 43
0.00000001
 40
0.0
 40
0.0
 40
0.0
 40
0.0
 40
0.386855871241922
 40
1.0
 40
1.0
 40
1.0
 40
1.0
 10
18.25625000000001
 20
-1.736774188498419
 30
0.0
 10
18.35017533299112
 20
-1.74837763478929
 30
0.0
 10
18.59296687364832
 20
-1.778371870765651
 30
0.0
 10
18.83529775882756
 20
-1.779982565947508
 30
0.0
 10
18.98388151829197
 20
-1.780970154241482
 30
0.0
1001
PE_URL
1000

  0
SPLINE
  5
CF
330
1F
100
AcDbEntity
  8
0
  6
Continuous
 62
     1
370
    15
100
AcDbSpline
210
0.0
220
0.0
230
1.0
 70
     8
 71
     3
 72
    13
 73
     9
 74
     0
 42
0.000000001
 43
0.00000001
 40
0.0
 40
0.0
 40
0.0
 40
0.0
 40
0.0225090230633103
 40
0.2330263506471813
 40
0.4465247123106692
 40
0.6621220747976135
 40
0.8306822850854227
 40
1.0
 40
1.0
 40
1.0
 40
1.0
 10
26.11943924327953
 20
1.197213308229732
 30
0.0
 10
26.13786587096752
 20
1.205583605243264
 30
0.0
 10
26.32862891709323
 20
1.292237733297162
 30
0.0
 10
26.69380729750512
 20
1.42756307205662
 30
0.0
 10
27.21797127962027
 20
1.592323623370023
 30
0.0
 10
27.70649343401707
 20
1.700523273602986
 30
0.0
 10
28.16006466206642
 20
1.765207014652184
 30
0.0
 10
28.43648164988166
 20
1.778011471126394
 30
0.0
 10
28.57500000000001
 20
1.784428052824171
 30
0.0
1001
PE_URL
1000

  0
SPLINE
  5
D0
330
1F
100
AcDbEntity
  8
0
  6
Continuous
 62
     1
370
    15
100
AcDbSpline
210
0.0
220
0.0
230
1.0
 70
    24
 71
     3
 72
    10
 73
     6
 74
     0
 42
0.000000001
 43
0.00000001
 40
0.0
 40
0.0
 40
0.0
 40
0.0
 40
0.5
 40
0.5
 40
1.0
 40
1.0
 40
1.0
 40
1.0
 10
28.57500000000002
 20
1.25015625
 30
0.0
 10
28.57500000000002
 20
1.325937608641813
 30
0.0
 10
28.57500000000001
 20
1.414002565492367
 30
0.0
 10
28.57500000000001
 20
1.598762607778529
 30
0.0
 10
28.57500000000001
 20
1.694985839251693
 30
0.0
 10
28.57500000000001
 20
1.784428052824193
 30
0.0
1001
PE_URL
1000

  0
LINE
  5
D1
330
1F
100
AcDbEntity
  8
중심선
 62
     1
100
AcDbLine
 10
-31.57500000000001
 20
-0.0000000000000039
 30
0.0
 11
31.57500000000001
 21
0.0000000000000039
 31
0.0
  0
LINE
  5
D2
330
1F
100
AcDbEntity
  8
참조1
100
AcDbLine
 10
0.0000000000000053
 20
-0.0000000000000039
 30
0.0
 11
0.0000000000000053
 21
-40.00000000000001
 31
0.0
  0
LINE
  5
D3
330
1F
100
AcDbEntity
  8
참조1
100
AcDbLine
 10
0.0000000000000053
 20
-40.00000000000001
 30
0.0
 11
-21.60946559669921
 21
-39.99999999999999
 31
0.0
  0
CIRCLE
  5
D4
330
1F
100
AcDbEntity
  8
해칭선
100
AcDbCircle
 10
0.0
 20
0.0
 30
0.0
 40
3.000000000000002
  0
INSERT
  5
D5
330
1F
100
AcDbEntity
  8
0
  6
Continuous
 62
     7
100
AcDbBlockReference
 66
     1
  2
블럭10
 10
-13.9402729321252
 20
-52.04717430164393
 30
0.0
  0
ATTRIB
  5
D6
330
D5
100
AcDbEntity
  8
FORMAT
 62
     2
100
AcDbText
 10
-23.12156822086648
 20
-49.97180738881175
 30
0.0
 40
4.233333333333333
  1
E1003009 [ 2 FLUTE ]
 41
0.75
  7
SLDTEXTSTYLE0
 11
-23.12156822086648
 21
-52.08847405547841
 31
0.0
100
AcDbAttribute
  2
AUTOATTR0
 70
     0
 74
     1
  0
SEQEND
  5
D7
330
D5
100
AcDbEntity
  8
0
  6
Continuous
 62
     7
  0
HATCH
  5
D8
330
1F
100
AcDbEntity
  8
중심선
100
AcDbHatch
 10
0.0
 20
0.0
 30
0.0
210
0.0
220
0.0
230
1.0
  2
SOLID
 70
     1
 71
     0
 91
        1
 92
        0
 93
        4
 72
     1
 10
-8.225363627744375
 20
-35.8
 11
-11.67163887158165
 21
-35.8
 72
     1
 10
-11.67163887158165
 20
-35.8
 11
-13.79986873078568
 21
-38.3363255805726
 72
     1
 10
-13.79986873078568
 20
-38.3363255805726
 11
-10.35356040183525
 21
-38.3362861512701
 72
     1
 10
-10.35356040183525
 20
-38.3362861512701
 11
-8.225363627744375
 21
-35.8
 97
        0
 75
     0
 76
     1
 98
        1
 10
7.850461678730518
 20
-0.0010749287238931
  0
HATCH
  5
D9
330
1F
100
AcDbEntity
  8
중심선
100
AcDbHatch
 10
0.0
 20
0.0
 30
0.0
210
0.0
220
0.0
230
1.0
  2
SOLID
 70
     1
 71
     0
 91
        1
 92
        0
 93
        4
 72
     1
 10
-3.212599636708426
 20
-35.8
 11
-6.658874880545675
 21
-35.79999999999998
 72
     1
 10
-6.658874880545675
 20
-35.79999999999998
 11
-11.19001288890309
 21
-41.20000000000002
 72
     1
 10
-11.19001288890309
 20
-41.20000000000002
 11
-7.743737645065814
 21
-41.20000000000002
 72
     1
 10
-7.743737645065814
 20
-41.20000000000002
 11
-3.212599636708426
 21
-35.8
 97
        0
 75
     0
 76
     1
 98
        1
 10
7.850461678730518
 20
-0.0010749287238931
  0
HATCH
  5
DA
330
1F
100
AcDbEntity
  8
중심선
100
AcDbHatch
 10
0.0
 20
0.0
 30
0.0
210
0.0
220
0.0
230
1.0
  2
SOLID
 70
     1
 71
     0
 91
        1
 92
        0
 93
        4
 72
     1
 10
1.800164354327476
 20
-35.8
 11
-1.646110889509645
 21
-35.8
 72
     1
 10
-1.646110889509645
 20
-35.8
 11
-8.694547791398893
 21
-44.20000000000002
 72
     1
 10
-8.694547791398893
 20
-44.20000000000002
 11
-5.248272547561605
 21
-44.20000000000002
 72
     1
 10
-5.248272547561605
 20
-44.20000000000002
 11
1.800164354327476
 21
-35.8
 97
        0
 75
     0
 76
     1
 98
        1
 10
7.850461678730518
 20
-0.0010749287238931
  0
HATCH
  5
DB
330
1F
100
AcDbEntity
  8
중심선
100
AcDbHatch
 10
0.0
 20
0.0
 30
0.0
210
0.0
220
0.0
230
1.0
  2
SOLID
 70
     1
 71
     0
 91
        1
 92
        0
 93
        6
 72
     3
 10
6.600054785339675
 20
-40.00000000005127
 11
3.960054785062284
 21
1.540882976769353E-10
 40
0.3939339440162627
 50
17.09539180608439
 51
320.0019657685078
 73
     0
 72
     1
 10
8.28305444104027
 20
-38.58789400463831
 11
10.58835631474131
 21
-36.65356729459035
 72
     3
 10
6.600054785286828
 20
-40.00000000000014
 11
6.600054785286829
 21
-1.278976924368180E-13
 40
0.636358354079598
 50
39.9987384933743
 51
368.4976242363724
 73
     1
 72
     1
 10
13.02538727718744
 20
-39.03999999993002
 11
5.280122092122749
 21
-39.03999999993002
 72
     1
 10
5.28012209212275
 20
-39.03999999993002
 11
5.280097047676817
 21
-40.95999999992991
 72
     1
 10
5.280097047676817
 20
-40.95999999992991
 11
9.721476817148854
 21
-40.95999999992988
 97
        0
 75
     0
 76
     1
 98
        1
 10
7.850461678730518
 20
-0.0010749287238931
  0
DIMENSION
  5
DC
330
1F
100
AcDbEntity
  8
치수문자_일반주서
100
AcDbDimension
  2
_D
 10
-38.57499999999998
 20
-2.381250000000094
 30
0.0
 11
-38.57500000000006
 21
22.98524999999997
 31
0.0
 70
   160
  1
%%c<>
 71
     2
 42
4.762500000000001
 52
-270.0
  3
SLDDIMSTYLE0
100
AcDbAlignedDimension
 13
-15.03451350361917
 23
2.381249999999997
 33
0.0
 14
-15.03451350361917
 24
-2.381250000000005
 34
0.0
 50
90.0000000000002
100
AcDbRotatedDimension
1001
PE_URL
1000

1001
ACAD
1000
DSTYLE
1002
{
1070
   171
1070
     8
1070
   273
1070
     7
1002
}
  0
DIMENSION
  5
F1
330
1F
100
AcDbEntity
  8
치수문자_일반주서
100
AcDbDimension
  2
_D_1
 10
71.49860332970007
 20
1.784428052824353
 30
0.0
 11
71.49860332969999
 21
22.82592805282435
 31
0.0
 70
   160
  1
%%c<>
 71
     2
 42
3.568856105648385
 52
-270.0
  3
SLDDIMSTYLE0
100
AcDbAlignedDimension
 13
28.57500000000001
 23
-1.784428052824192
 33
0.0
 14
28.57500000000001
 24
1.784428052824193
 34
0.0
 50
90.0000000000002
100
AcDbRotatedDimension
1001
PE_URL
1000

1001
ACAD
1000
DSTYLE
1002
{
1070
   171
1070
     8
1070
   273
1070
     7
1002
}
  0
DIMENSION
  5
105
330
1F
100
AcDbEntity
  8
치수문자_일반주서
100
AcDbDimension
  2
_D_2
 10
18.25625000000003
 20
12.38125
 30
0.0
 11
49.83525
 21
12.38125
 31
0.0
 70
   160
  1
<>
 71
     2
 42
10.31874999999998
  3
SLDDIMSTYLE0
100
AcDbAlignedDimension
 13
28.57500000000001
 23
1.784428052824193
 33
0.0
 14
18.25625000000003
 24
1.273678610448875
 34
0.0
100
AcDbRotatedDimension
1001
PE_URL
1000

1001
ACAD
1000
DSTYLE
1002
{
1070
   171
1070
     8
1070
   273
1070
     7
1002
}
  0
DIMENSION
  5
11A
330
1F
100
AcDbEntity
  8
치수문자_일반주서
100
AcDbDimension
  2
_D_3
 10
28.575
 20
22.38125
 30
0.0
 11
0.000000000000016
 21
22.38125
 31
0.0
 70
   160
  1
<>
 71
     2
 42
57.15000000000001
  3
SLDDIMSTYLE0
100
AcDbAlignedDimension
 13
-28.57500000000001
 23
1.784428052824199
 33
0.0
 14
28.57500000000001
 24
1.784428052824193
 34
0.0
100
AcDbRotatedDimension
1001
PE_URL
1000

1001
ACAD
1000
DSTYLE
1002
{
1070
   171
1070
     8
1070
   273
1070
     7
1002
}
  0
LINE
  5
12D
330
1F
100
AcDbEntity
  8
참조1
100
AcDbLine
 10
76.36287503295505
 20
7.440000000000003
 30
0.0
 11
76.36287503295505
 21
-7.440000000000002
 31
0.0
  0
LINE
  5
12E
330
1F
100
AcDbEntity
  8
참조1
100
AcDbLine
 10
89.06287503295505
 20
5.440000000000003
 30
0.0
 11
76.36287503295505
 21
5.440000000000003
 31
0.0
  0
SOLID
  5
12F
330
1F
100
AcDbEntity
  8
참조1
100
AcDbTrace
 10
76.36287503295505
 20
5.440000000000003
 30
0.0
 11
82.71287503295504
 21
4.424000000000003
 31
0.0
 12
82.71287503295504
 22
6.456000000000003
 32
0.0
 13
82.71287503295504
 23
6.456000000000003
 33
0.0
  0
LINE
  5
130
330
1F
100
AcDbEntity
  8
참조1
100
AcDbLine
 10
89.06287503295505
 20
-5.440000000000002
 30
0.0
 11
76.36287503295505
 21
-5.440000000000002
 31
0.0
  0
SOLID
  5
131
330
1F
100
AcDbEntity
  8
참조1
100
AcDbTrace
 10
76.36287503295505
 20
-5.440000000000002
 30
0.0
 11
82.71287503295504
 21
-6.456000000000002
 31
0.0
 12
82.71287503295504
 22
-4.424000000000002
 32
0.0
 13
82.71287503295504
 23
-4.424000000000002
 33
0.0
  0
MTEXT
  5
132
330
1F
100
AcDbEntity
  8
참조1
100
AcDbMText
 10
85.74722516558104
 20
11.01029177718833
 30
0.0
 40
3.5
 41
0.0
 71
     1
 72
     1
  1
A
  7
SLDTEXTSTYLE0
 73
     1
 44
1.0
  0
MTEXT
  5
133
330
1F
100
AcDbEntity
  8
참조1
100
AcDbMText
 10
85.74722516558104
 20
0.1302917771883261
 30
0.0
 40
3.5
 41
0.0
 71
     1
 72
     1
  1
A
  7
SLDTEXTSTYLE0
 73
     1
 44
1.0
  0
INSERT
  5
13A
330
1F
100
AcDbEntity
  8
해칭선
100
AcDbBlockReference
  2
SW_DOWELSYMBOL_0
 10
0.0
 20
0.0
 30
0.0
  0
LINE
  5
21E
330
1F
100
AcDbEntity
  8
외형선
  6
Continuous
370
    15
100
AcDbLine
 10
-15.03451350361917
 20
2.381249999999997
 30
0.0
 11
-17.25625000000001
 21
1.785937499999998
 31
0.0
  0
LINE
  5
21F
330
1F
100
AcDbEntity
  8
외형선
  6
Continuous
370
    15
100
AcDbLine
 10
-17.25625000000002
 20
-1.785937500000003
 30
0.0
 11
-15.03451350361917
 21
-2.381250000000005
 31
0.0
  0
LINE
  5
220
330
1F
100
AcDbEntity
  8
외형선
  6
Continuous
370
    15
100
AcDbLine
 10
-17.36623108182958
 20
-1.785937500000003
 30
0.0
 11
-17.25625000000002
 21
-1.785937500000003
 31
0.0
  0
LINE
  5
221
330
1F
100
AcDbEntity
  8
외형선
  6
Continuous
370
    15
100
AcDbLine
 10
-17.25625000000001
 20
1.785937499999998
 30
0.0
 11
-17.36623108182958
 21
1.785937499999998
 31
0.0
  0
SPLINE
  5
222
330
1F
100
AcDbEntity
  8
외형선
  6
Continuous
370
    15
100
AcDbSpline
210
0.0
220
0.0
230
1.0
 70
     8
 71
     3
 72
     9
 73
     5
 74
     0
 42
0.000000001
 43
0.00000001
 40
0.0
 40
0.0
 40
0.0
 40
0.0
 40
0.5264751232561067
 40
1.0
 40
1.0
 40
1.0
 40
1.0
 10
-18.1178985646171
 20
-1.214712803435073
 30
0.0
 10
-17.9862462121971
 20
-1.205307151494473
 30
0.0
 10
-17.73618244545012
 20
-1.187441821253548
 30
0.0
 10
-17.4851136312575
 20
-1.180750515018269
 30
0.0
 10
-17.36622630196271
 20
-1.177582015057952
 30
0.0
  0
SPLINE
  5
223
330
1F
100
AcDbEntity
  8
0
  6
Continuous
 62
     1
370
    15
100
AcDbSpline
210
0.0
220
0.0
230
1.0
 70
     8
 71
     3
 72
     9
 73
     5
 74
     0
 42
0.000000001
 43
0.00000001
 40
0.0
 40
0.0
 40
0.0
 40
0.0
 40
0.4369416422412727
 40
1.0
 40
1.0
 40
1.0
 40
1.0
 10
-23.94689053405233
 20
-0.4578230959667697
 30
0.0
 10
-23.87504664263018
 20
-0.4921024097080335
 30
0.0
 10
-23.71062218756193
 20
-0.5705552519810462
 30
0.0
 10
-23.54618724209937
 20
-0.6567800693631349
 30
0.0
 10
-23.45360077174908
 20
-0.7053296734363419
 30
0.0
1001
PE_URL
1000

  0
LINE
  5
224
330
1F
100
AcDbEntity
  8
0
  6
Continuous
 62
     1
370
    15
100
AcDbLine
 10
-19.84991246974755
 20
-1.785937500000003
 30
0.0
 11
-18.98430279970204
 21
-1.785937500000003
 31
0.0
1001
PE_URL
1000

  0
SPLINE
  5
225
330
1F
100
AcDbEntity
  8
0
  6
Continuous
 62
     1
370
    15
100
AcDbSpline
210
0.0
220
0.0
230
1.0
 70
     8
 71
     3
 72
    15
 73
    11
 74
     0
 42
0.000000001
 43
0.00000001
 40
0.0
 40
0.0
 40
0.0
 40
0.0
 40
0.2190214249381742
 40
0.3748672361176022
 40
0.4841397145291697
 40
0.5969605795318386
 40
0.7144778495038357
 40
0.8321861126454007
 40
0.9495203632045885
 40
1.0
 40
1.0
 40
1.0
 40
1.0
 10
-23.358108580523
 20
-1.419171874982192
 30
0.0
 10
-23.2503241586457
 20
-1.413990598757968
 30
0.0
 10
-23.06584518204751
 20
-1.405122559029502
 30
0.0
 10
-22.82864080736955
 20
-1.398675415726863
 30
0.0
 10
-22.64537004287154
 20
-1.395602661525947
 30
0.0
 10
-22.47941157374227
 20
-1.394476480709718
 30
0.0
 10
-22.30892836621032
 20
-1.394981713531456
 30
0.0
 10
-22.13631764998427
 20
-1.397417497694128
 30
0.0
 10
-21.99650788576656
 20
-1.40031977915199
 30
0.0
 10
-21.9143935258734
 20
-1.403404667865542
 30
0.0
 10
-21.88969292970441
 20
-1.404332624808017
 30
0.0
1001
PE_URL
1000

  0
SPLINE
  5
226
330
1F
100
AcDbEntity
  8
0
  6
Continuous
 62
     1
370
    15
100
AcDbSpline
210
0.0
220
0.0
230
1.0
 70
     8
 71
     3
 72
    19
 73
    15
 74
     0
 42
0.000000001
 43
0.00000001
 40
0.0
 40
0.0
 40
0.0
 40
0.0
 40
0.1259684863794488
 40
0.2155730597266174
 40
0.3022188907177887
 40
0.3917287445225919
 40
0.4808045856257386
 40
0.5449626671162404
 40
0.6093252577728576
 40
0.673583413831062
 40
0.7352735871280635
 40
0.7950235113078061
 40
0.8802396200394964
 40
1.0
 40
1.0
 40
1.0
 40
1.0
 10
-20.67248331376752
 20
1.486124857727508
 30
0.0
 10
-20.78523559059908
 20
1.475319553626646
 30
0.0
 10
-20.97819141634829
 20
1.456828163174571
 30
0.0
 10
-21.24880864660351
 20
1.436537953196262
 30
0.0
 10
-21.48686337154282
 20
1.421533871390681
 30
0.0
 10
-21.72427427137263
 20
1.409722312608133
 30
0.0
 10
-21.94146852174243
 20
1.401897708610256
 30
0.0
 10
-22.13631510035865
 20
1.397316965649457
 30
0.0
 10
-22.30892904999989
 20
1.395008675436949
 30
0.0
 10
-22.47941139874917
 20
1.394469580710746
 30
0.0
 10
-22.64537008675616
 20
1.395604391902032
 30
0.0
 10
-22.82864079035853
 20
1.398674744980613
 30
0.0
 10
-23.06584518922336
 20
1.405122841974264
 30
0.0
 10
-23.2503241612921
 20
1.413990703105753
 30
0.0
 10
-23.35810858052299
 20
1.419171874982197
 30
0.0
1001
PE_URL
1000

  0
SPLINE
  5
227
330
1F
100
AcDbEntity
  8
0
  6
Continuous
 62
     1
370
    15
100
AcDbSpline
210
0.0
220
0.0
230
1.0
 70
     8
 71
     3
 72
    14
 73
    10
 74
     0
 42
0.000000001
 43
0.00000001
 40
0.0
 40
0.0
 40
0.0
 40
0.0
 40
0.2479745672339323
 40
0.4210748888358244
 40
0.5517814765048827
 40
0.6880886264046477
 40
0.8224421030725291
 40
0.9514541085758939
 40
1.0
 40
1.0
 40
1.0
 40
1.0
 10
-24.79071545769513
 20
1.343289563032682
 30
0.0
 10
-24.9008128889093
 20
1.32663262926826
 30
0.0
 10
-25.08776457563559
 20
1.298348210380319
 30
0.0
 10
-25.33196431896563
 20
1.267722948288164
 30
0.0
 10
-25.52638244226531
 20
1.245855430611942
 30
0.0
 10
-25.70394282589765
 20
1.228086384033125
 30
0.0
 10
-25.88085640227306
 20
1.213113440094135
 30
0.0
 10
-26.0190121814352
 20
1.202894876275538
 30
0.0
 10
-26.09765421531293
 20
1.198520047290194
 30
0.0
 10
-26.11915563937832
 20
1.197323930549702
 30
0.0
1001
PE_URL
1000

  0
SPLINE
  5
228
330
1F
100
AcDbEntity
  8
0
  6
Continuous
 62
     1
370
    15
100
AcDbSpline
210
0.0
220
0.0
230
1.0
 70
     8
 71
     3
 72
    22
 73
    18
 74
     0
 42
0.000000001
 43
0.00000001
 40
0.0
 40
0.0
 40
0.0
 40
0.0
 40
0.1084024655663017
 40
0.1846200078310463
 40
0.2353687105053909
 40
0.2857425735094243
 40
0.3372257218180816
 40
0.3862957987759753
 40
0.4328346232203175
 40
0.4781621172839522
 40
0.5290778142646585
 40
0.5858887063688877
 40
0.6500774778212821
 40
0.7130270170342898
 40
0.7767855921576774
 40
0.8712555538435545
 40
1.0
 40
1.0
 40
1.0
 40
1.0
 10
-27.91496592094115
 20
-1.221858875016915
 30
0.0
 10
-27.80120717208927
 20
-1.212858956822991
 30
0.0
 10
-27.6074648896221
 20
-1.197531215348101
 30
0.0
 10
-27.36190935569261
 20
-1.185601145945609
 30
0.0
 10
-27.17920911825152
 20
-1.179458069851046
 30
0.0
 10
-27.02081384398801
 20
-1.176169889199098
 30
0.0
 10
-26.86351811125204
 20
-1.174940333734769
 30
0.0
 10
-26.71040594946577
 20
-1.175723278314617
 30
0.0
 10
-26.5637979211362
 20
-1.178311094390617
 30
0.0
 10
-26.41518968053547
 20
-1.182682174900515
 30
0.0
 10
-26.25581359045792
 20
-1.189299976535489
 30
0.0
 10
-26.07678966421337
 20
-1.199138887763276
 30
0.0
 10
-25.88520168309044
 20
-1.212552316534543
 30
0.0
 10
-25.68655234524558
 20
-1.229642461032997
 30
0.0
 10
-25.45654840975048
 20
-1.253137874260483
 30
0.0
 10
-25.15790759963058
 20
-1.288269133846771
 30
0.0
 10
-24.92503214957368
 20
-1.323163418733848
 30
0.0
 10
-24.79071545769514
 20
-1.343289563032677
 30
0.0
1001
PE_URL
1000

  0
LINE
  5
229
330
1F
100
AcDbEntity
  8
0
  6
Continuous
 62
     1
370
    15
100
AcDbLine
 10
-18.98388151829196
 20
1.7859375
 30
0.0
 11
-19.84991246974755
 21
1.7859375
 31
0.0
1001
PE_URL
1000

  0
LINE
  5
22A
330
1F
100
AcDbEntity
  8
외형선
  6
Continuous
370
    15
100
AcDbLine
 10
-15.03451350361917
 20
-2.381250000000005
 30
0.0
 11
-15.03451350361917
 21
2.381249999999998
 31
0.0
  0
LINE
  5
22B
330
1F
100
AcDbEntity
  8
외형선
  6
Continuous
370
    15
100
AcDbLine
 10
-17.25625000000002
 20
-1.785937500000003
 30
0.0
 11
-17.25625000000001
 21
1.7859375
 31
0.0
  0
SPLINE
  5
22C
330
1F
100
AcDbEntity
  8
외형선
  6
Continuous
370
    15
100
AcDbSpline
210
0.0
220
0.0
230
1.0
 70
     8
 71
     3
 72
    10
 73
     6
 74
     0
 42
0.000000001
 43
0.00000001
 40
0.0
 40
0.0
 40
0.0
 40
0.0
 40
0.5
 40
0.5
 40
1.0
 40
1.0
 40
1.0
 40
1.0
 10
-17.36623108182958
 20
-1.547198340574649
 30
0.0
 10
-17.51555169352089
 20
-1.590084622638686
 30
0.0
 10
-17.66503776425532
 20
-1.627593672324014
 30
0.0
 10
-17.95973666617042
 20
-1.690844152263819
 30
0.0
 10
-18.10706984351701
 20
-1.716773131029274
 30
0.0
 10
-18.25625000000007
 20
-1.736774188498426
 30
0.0
  0
SPLINE
  5
22D
330
1F
100
AcDbEntity
  8
외형선
  6
Continuous
370
    15
100
AcDbSpline
210
0.0
220
0.0
230
1.0
 70
     8
 71
     3
 72
    10
 73
     6
 74
     0
 42
0.000000001
 43
0.00000001
 40
0.0
 40
0.0
 40
0.0
 40
0.0
 40
0.5
 40
0.5
 40
1.0
 40
1.0
 40
1.0
 40
1.0
 10
-18.25625000000002
 20
1.554288515530898
 30
0.0
 10
-18.10706653748724
 20
1.512011278647216
 30
0.0
 10
-17.95973022948684
 20
1.464530110549777
 30
0.0
 10
-17.66502460817939
 20
1.359870104160601
 30
0.0
 10
-17.51553513255882
 20
1.30240963465279
 30
0.0
 10
-17.36621122697621
 20
1.240646370018362
 30
0.0
  0
LINE
  5
22E
330
1F
100
AcDbEntity
  8
외형선
  6
Continuous
370
    15
100
AcDbLine
 10
-18.25625000000001
 20
1.554288515530896
 30
0.0
 11
-18.25625000000001
 21
1.73677418849843
 31
0.0
  0
SPLINE
  5
22F
330
1F
100
AcDbEntity
  8
외형선
  6
Continuous
370
    15
100
AcDbSpline
210
0.0
220
0.0
230
1.0
 70
     8
 71
     3
 72
    10
 73
     6
 74
     0
 42
0.000000001
 43
0.00000001
 40
0.0
 40
0.0
 40
0.0
 40
0.0
 40
0.5
 40
0.5
 40
1.0
 40
1.0
 40
1.0
 40
1.0
 10
-17.36623108182958
 20
1.547198340574644
 30
0.0
 10
-17.51555169352089
 20
1.590084622638681
 30
0.0
 10
-17.66503776425532
 20
1.62759367232401
 30
0.0
 10
-17.95973666617042
 20
1.690844152263815
 30
0.0
 10
-18.107069843517
 20
1.716773131029271
 30
0.0
 10
-18.25625000000007
 20
1.736774188498423
 30
0.0
  0
LINE
  5
230
330
1F
100
AcDbEntity
  8
외형선
  6
Continuous
370
    15
100
AcDbLine
 10
-17.36623108182958
 20
1.785937499999998
 30
0.0
 11
-17.36623108182958
 21
1.546893491212579
 31
0.0
  0
LINE
  5
231
330
1F
100
AcDbEntity
  8
외형선
  6
Continuous
370
    15
100
AcDbLine
 10
-17.36623108182958
 20
1.240591311664734
 30
0.0
 11
-17.36623108182958
 21
-1.785937500000003
 31
0.0
  0
SPLINE
  5
232
330
1F
100
AcDbEntity
  8
외형선
  6
Continuous
370
    15
100
AcDbSpline
210
0.0
220
0.0
230
1.0
 70
     8
 71
     3
 72
    10
 73
     6
 74
     0
 42
0.000000001
 43
0.00000001
 40
0.0
 40
0.0
 40
0.0
 40
0.0
 40
0.4999999999999999
 40
0.4999999999999999
 40
1.0
 40
1.0
 40
1.0
 40
1.0
 10
-18.25625000000003
 20
1.273678610448874
 30
0.0
 10
-18.10706653748726
 20
1.233981195600212
 30
0.0
 10
-17.95973022948685
 20
1.190040372999675
 30
0.0
 10
-17.6650246081794
 20
1.094315150771468
 30
0.0
 10
-17.51553513255882
 20
1.042276378340702
 30
0.0
 10
-17.36621122697621
 20
0.986817268591752
 30
0.0
  0
SPLINE
  5
233
330
1F
100
AcDbEntity
  8
외형선
  6
Continuous
370
    15
100
AcDbSpline
210
0.0
220
0.0
230
1.0
 70
     8
 71
     3
 72
    10
 73
     6
 74
     0
 42
0.000000001
 43
0.00000001
 40
0.0
 40
0.0
 40
0.0
 40
0.0
 40
0.5
 40
0.5
 40
1.0
 40
1.0
 40
1.0
 40
1.0
 10
-18.25625000000001
 20
-0.2755330193333429
 30
0.0
 10
-18.10706863704542
 20
-0.3429118901527858
 30
0.0
 10
-17.95973431722783
 20
-0.4090569557481875
 30
0.0
 10
-17.66503296320105
 20
-0.5380975380391566
 30
0.0
 10
-17.51554564991928
 20
-0.6012926647248109
 30
0.0
 10
-17.36622383618498
 20
-0.6621597980896377
 30
0.0
  0
SPLINE
  5
234
330
1F
100
AcDbEntity
  8
외형선
  6
Continuous
370
    15
100
AcDbSpline
210
0.0
220
0.0
230
1.0
 70
    24
 71
     3
 72
    10
 73
     6
 74
     0
 42
0.000000001
 43
0.00000001
 40
0.0
 40
0.0
 40
0.0
 40
0.0
 40
0.5
 40
0.5
 40
1.0
 40
1.0
 40
1.0
 40
1.0
 10
-18.25625000000002
 20
-0.2755330193333411
 30
0.0
 10
-18.25625000000002
 20
-0.0009062743889403
 30
0.0
 10
-18.25625000000002
 20
0.2918289898076981
 30
0.0
 10
-18.25625000000002
 20
0.833355221785218
 30
0.0
 10
-18.25625000000002
 20
1.079815248966206
 30
0.0
 10
-18.25625000000002
 20
1.27367861044887
 30
0.0
  0
LINE
  5
235
330
1F
100
AcDbEntity
  8
외형선
  6
Continuous
370
    15
100
AcDbLine
 10
-18.25625000000001
 20
-1.226688872598814
 30
0.0
 11
-18.1164097038942
 21
-1.208007541680697
 31
0.0
  0
SPLINE
  5
236
330
1F
100
AcDbEntity
  8
외형선
  6
Continuous
370
    15
100
AcDbSpline
210
0.0
220
0.0
230
1.0
 70
    24
 71
     3
 72
    14
 73
    10
 74
     0
 42
0.000000001
 43
0.00000001
 40
0.0
 40
0.0
 40
0.0
 40
0.0
 40
0.25
 40
0.25
 40
0.5
 40
0.5
 40
0.75
 40
0.75
 40
1.0
 40
1.0
 40
1.0
 40
1.0
 10
-18.25625000000001
 20
-1.226688872598814
 30
0.0
 10
-18.25625000000001
 20
-1.223450247154533
 30
0.0
 10
-18.25625000000001
 20
-1.200719416140757
 30
0.0
 10
-18.25625000000001
 20
-1.112654462156516
 30
0.0
 10
-18.25625000000001
 20
-1.04728030653135
 30
0.0
 10
-18.25625000000001
 20
-0.8782324885269615
 30
0.0
 10
-18.25625000000001
 20
-0.774648901892762
 30
0.0
 10
-18.25625000000001
 20
-0.5409936700500422
 30
0.0
 10
-18.25625000000001
 20
-0.4110864815877552
 30
0.0
 10
-18.25625000000001
 20
-0.2755330193333429
 30
0.0
  0
SPLINE
  5
237
330
1F
100
AcDbEntity
  8
외형선
  6
Continuous
370
    15
100
AcDbSpline
210
0.0
220
0.0
230
1.0
 70
    24
 71
     3
 72
     8
 73
     4
 74
     0
 42
0.000000001
 43
0.00000001
 40
0.0
 40
0.0
 40
0.0
 40
0.0
 40
1.0
 40
1.0
 40
1.0
 40
1.0
 10
-18.25625000000001
 20
1.273678610448869
 30
0.0
 10
-18.25625000000001
 20
1.365281429672926
 30
0.0
 10
-18.25625000000001
 20
1.459410646567935
 30
0.0
 10
-18.25625000000001
 20
1.554288515530413
 30
0.0
  0
SPLINE
  5
238
330
1F
100
AcDbEntity
  8
외형선
  6
Continuous
370
    15
100
AcDbSpline
210
0.0
220
0.0
230
1.0
 70
    24
 71
     3
 72
    10
 73
     6
 74
     0
 42
0.000000001
 43
0.00000001
 40
0.0
 40
0.0
 40
0.0
 40
0.0
 40
0.5
 40
0.5
 40
1.0
 40
1.0
 40
1.0
 40
1.0
 10
-18.25625000000004
 20
-1.736774188498417
 30
0.0
 10
-18.25625000000004
 20
-1.644597429556922
 30
0.0
 10
-18.25625000000004
 20
-1.549133578532533
 30
0.0
 10
-18.25625000000004
 20
-1.372928452594584
 30
0.0
 10
-18.25625000000004
 20
-1.292610092701663
 30
0.0
 10
-18.25625000000004
 20
-1.226688872598815
 30
0.0
  0
SPLINE
  5
239
330
1F
100
AcDbEntity
  8
0
  6
Continuous
 62
     1
370
    15
100
AcDbSpline
210
0.0
220
0.0
230
1.0
 70
     8
 71
     3
 72
    38
 73
    34
 74
     0
 42
0.000000001
 43
0.00000001
 40
0.0
 40
0.0
 40
0.0
 40
0.0
 40
0.0624999999999999
 40
0.0624999999999999
 40
0.1249999999999999
 40
0.1249999999999999
 40
0.1874999999999999
 40
0.1874999999999999
 40
0.2499999999999999
 40
0.2499999999999999
 40
0.3124999999999998
 40
0.3124999999999998
 40
0.3749999999999997
 40
0.3749999999999997
 40
0.4374999999999996
 40
0.4374999999999996
 40
0.4999999999999994
 40
0.4999999999999994
 40
0.5624999999999993
 40
0.5624999999999993
 40
0.6249999999999993
 40
0.6249999999999993
 40
0.6874999999999994
 40
0.6874999999999994
 40
0.7499999999999996
 40
0.7499999999999996
 40
0.8124999999999997
 40
0.8124999999999997
 40
0.8749999999999998
 40
0.8749999999999998
 40
0.9374999999999999
 40
0.9374999999999999
 40
1.0
 40
1.0
 40
1.0
 40
1.0
 10
-18.25625000000007
 20
-1.736774188498422
 30
0.0
 10
-18.47231967204257
 20
-1.765743335801561
 30
0.0
 10
-18.68831274636626
 20
-1.781999870791965
 30
0.0
 10
-19.11432725679238
 20
-1.788603229008169
 30
0.0
 10
-19.33213137310249
 20
-1.778935230376659
 30
0.0
 10
-19.76330319110186
 20
-1.733977764417137
 30
0.0
 10
-19.97481135556504
 20
-1.698959451182222
 30
0.0
 10
-20.40687839912949
 20
-1.604380102395641
 30
0.0
 10
-20.6231708650535
 20
-1.544984448772108
 30
0.0
 10
-21.04891822206137
 20
-1.405542073835333
 30
0.0
 10
-21.26668381890019
 20
-1.324558888815558
 30
0.0
 10
-21.69797679281976
 20
-1.145040259615829
 30
0.0
 10
-21.90944666833807
 20
-1.04694358857011
 30
0.0
 10
-22.34143596780546
 20
-0.8356666552495697
 30
0.0
 10
-22.55803719497884
 20
-0.7230444146250627
 30
0.0
 10
-22.98351221837136
 20
-0.4903969910471148
 30
0.0
 10
-23.20123650186056
 20
-0.3687607627064843
 30
0.0
 10
-23.63264522063941
 20
-0.1226225897940105
 30
0.0
 10
-23.8440863780459
 20
0.0014113463502936
 30
0.0
 10
-24.27599249310871
 20
0.2493940849432622
 30
0.0
 10
-24.49291183835291
 20
0.3726373770322787
 30
0.0
 10
-24.91810935917594
 20
0.6103923955699184
 30
0.0
 10
-25.13578953722311
 20
0.7266352878154143
 30
0.0
 10
-25.5673085849429
 20
0.9462165613081119
 30
0.0
 10
-25.77873059627329
 20
1.04923202192877
 30
0.0
 10
-26.21054809012089
 20
1.24004401650073
 30
0.0
 10
-26.42779489704774
 20
1.327238496195078
 30
0.0
 10
-26.85270975779436
 20
1.480108301835807
 30
0.0
 10
-27.07034304021334
 20
1.546959178203674
 30
0.0
 10
-27.5019669963241
 20
1.65684596594339
 30
0.0
 10
-27.71337943441594
 20
1.699846162336311
 30
0.0
 10
-28.14510287396224
 20
1.761265504040827
 30
0.0
 10
-28.36268647259302
 20
1.779347526326742
 30
0.0
 10
-28.57500000000001
 20
1.784428052824193
 30
0.0
1001
PE_URL
1000

  0
SPLINE
  5
23A
330
1F
100
AcDbEntity
  8
0
  6
Continuous
 62
     1
370
    15
100
AcDbSpline
210
0.0
220
0.0
230
1.0
 70
     8
 71
     3
 72
    14
 73
    10
 74
     0
 42
0.000000001
 43
0.00000001
 40
0.0
 40
0.0
 40
0.0
 40
0.0
 40
0.0391909880155346
 40
0.1981039958553028
 40
0.357008026241998
 40
0.5159043738845701
 40
0.6747943390807304
 40
0.8373975745006671
 40
0.9999999999999999
 40
0.9999999999999999
 40
0.9999999999999999
 40
0.9999999999999999
 10
-24.13396738799336
 20
0.1667502670342318
 30
0.0
 10
-24.05718239319185
 20
0.1366303142648671
 30
0.0
 10
-23.66904687882615
 20
-0.0156210909872613
 30
0.0
 10
-22.96958455195887
 20
-0.3040663951709701
 30
0.0
 10
-22.03559600382577
 20
-0.6554792190220426
 30
0.0
 10
-21.10165367981189
 20
-0.9497873951042484
 30
0.0
 10
-20.16048294839083
 20
-1.157171720255856
 30
0.0
 10
-19.21199595560307
 20
-1.267110355025876
 30
0.0
 10
-18.57483145625098
 20
-1.240162677703551
 30
0.0
 10
-18.25625000000001
 20
-1.226688872598814
 30
0.0
1001
PE_URL
1000

  0
SPLINE
  5
23B
330
1F
100
AcDbEntity
  8
외형선
  6
Continuous
370
    15
100
AcDbSpline
210
0.0
220
0.0
230
1.0
 70
    24
 71
     3
 72
    10
 73
     6
 74
     0
 42
0.000000001
 43
0.00000001
 40
0.0
 40
0.0
 40
0.0
 40
0.0
 40
0.5
 40
0.5
 40
1.0
 40
1.0
 40
1.0
 40
1.0
 10
-18.25625000000004
 20
-1.736774188498417
 30
0.0
 10
-18.25625000000004
 20
-1.644597429556926
 30
0.0
 10
-18.25625000000004
 20
-1.549133578532535
 30
0.0
 10
-18.25625000000004
 20
-1.372928452594584
 30
0.0
 10
-18.25625000000004
 20
-1.292610092701663
 30
0.0
 10
-18.25625000000004
 20
-1.226688872598815
 30
0.0
  0
SPLINE
  5
23C
330
1F
100
AcDbEntity
  8
0
  6
Continuous
 62
     1
370
    15
100
AcDbSpline
210
0.0
220
0.0
230
1.0
 70
     8
 71
     3
 72
    18
 73
    14
 74
     0
 42
0.000000001
 43
0.00000001
 40
0.0
 40
0.0
 40
0.0
 40
0.0
 40
0.0947036623287072
 40
0.1892984741679893
 40
0.2838309537656434
 40
0.3783482768459068
 40
0.472897779512682
 40
0.5675264575972051
 40
0.6622604824470044
 40
0.7490390664155793
 40
0.8356658746914928
 40
0.9222906240991802
 40
1.0
 40
1.0
 40
1.0
 40
1.0
 10
-28.57500000000001
 20
1.694749083643853
 30
0.0
 10
-28.2994789582809
 20
1.632942731367409
 30
0.0
 10
-27.74875355320023
 20
1.509401065795798
 30
0.0
 10
-26.92326677927063
 20
1.184965939820312
 30
0.0
 10
-26.09841130377984
 20
0.7853549345003021
 30
0.0
 10
-25.27372161082244
 20
0.3278844204549574
 30
0.0
 10
-24.44868574491113
 20
-0.1522162883721447
 30
0.0
 10
-23.62291370626091
 20
-0.6219119477234913
 30
0.0
 10
-22.81941425236489
 20
-1.035247057575194
 30
0.0
 10
-22.03952648819753
 20
-1.370503124781287
 30
0.0
 10
-21.28353792184107
 20
-1.611880899849641
 30
0.0
 10
-20.55394637229454
 20
-1.761518555896005
 30
0.0
 10
-20.07594636409545
 20
-1.774715265109799
 30
0.0
 10
-19.84991246974755
 20
-1.780955649053325
 30
0.0
1001
PE_URL
1000

  0
SPLINE
  5
23D
330
1F
100
AcDbEntity
  8
0
  6
Continuous
 62
     1
370
    15
100
AcDbSpline
210
0.0
220
0.0
230
1.0
 70
     8
 71
     3
 72
    12
 73
     8
 74
     0
 42
0.000000001
 43
0.00000001
 40
0.0
 40
0.0
 40
0.0
 40
0.0
 40
0.2009974255699255
 40
0.4019762268375337
 40
0.6029379260178168
 40
0.8038840575029682
 40
0.9999999999999999
 40
0.9999999999999999
 40
0.9999999999999999
 40
0.9999999999999999
 10
-28.57500000000001
 20
1.409055153395118
 30
0.0
 10
-28.26351200962931
 20
1.339751575847274
 30
0.0
 10
-27.6405648911805
 20
1.201150842380003
 30
0.0
 10
-26.70620161614813
 20
0.8501504002252924
 30
0.0
 10
-25.77192878306886
 20
0.4322145032684602
 30
0.0
 10
-24.84520200083993
 20
-0.0267220117977442
 30
0.0
 10
-24.22990310668677
 20
-0.321595519982061
 30
0.0
 10
-23.92599616001212
 20
-0.4672387323770299
 30
0.0
1001
PE_URL
1000

  0
LINE
  5
23E
330
1F
100
AcDbEntity
  8
0
  6
Continuous
 62
     1
370
    15
100
AcDbLine
 10
-28.57499999999994
 20
1.694749083643855
 30
0.0
 11
-28.57500000000001
 21
1.409055153395118
 31
0.0
1001
PE_URL
1000

  0
LINE
  5
23F
330
1F
100
AcDbEntity
  8
0
  6
Continuous
 62
     1
370
    15
100
AcDbLine
 10
-28.57500000000001
 20
1.784428052824199
 30
0.0
 11
-28.57499999999993
 21
1.694749083643849
 31
0.0
1001
PE_URL
1000

  0
SPLINE
  5
240
330
1F
100
AcDbEntity
  8
0
  6
Continuous
 62
     1
370
    15
100
AcDbSpline
210
0.0
220
0.0
230
1.0
 70
     8
 71
     3
 72
     8
 73
     4
 74
     0
 42
0.000000001
 43
0.00000001
 40
0.0
 40
0.0
 40
0.0
 40
0.0
 40
1.0
 40
1.0
 40
1.0
 40
1.0
 10
-27.46935610163611
 20
-0.5001697058188357
 30
0.0
 10
-27.40611190382927
 20
-0.5750934330415818
 30
0.0
 10
-27.34965597961274
 20
-0.6472264353891874
 30
0.0
 10
-27.30159004714619
 20
-0.7159102310471537
 30
0.0
1001
PE_URL
1000

  0
LINE
  5
241
330
1F
100
AcDbEntity
  8
0
  6
Continuous
 62
     1
370
    15
100
AcDbLine
 10
-27.32421237855564
 20
-0.734892620989102
 30
0.0
 11
-28.57500000000001
 21
0.0000000000000056
 31
0.0
1001
PE_URL
1000

  0
LINE
  5
242
330
1F
100
AcDbEntity
  8
0
  6
Continuous
 62
     1
370
    15
100
AcDbLine
 10
-28.57500000000001
 20
0.0000000000000056
 30
0.0
 11
-28.57500000000001
 21
0.4772791989248247
 31
0.0
1001
PE_URL
1000

  0
SPLINE
  5
243
330
1F
100
AcDbEntity
  8
0
  6
Continuous
 62
     1
370
    15
100
AcDbSpline
210
0.0
220
0.0
230
1.0
 70
     8
 71
     3
 72
    10
 73
     6
 74
     0
 42
0.000000001
 43
0.00000001
 40
0.0
 40
0.0
 40
0.0
 40
0.0
 40
0.5
 40
0.5
 40
1.0
 40
1.0
 40
1.0
 40
1.0
 10
-28.57500000000001
 20
0.4772791989248247
 30
0.0
 10
-28.38360029268923
 20
0.3268046018107874
 30
0.0
 10
-28.19540107205847
 20
0.1701549815730046
 30
0.0
 10
-27.82555667289952
 20
-0.1557896361788804
 30
0.0
 10
-27.64219088418342
 20
-0.3268069389701346
 30
0.0
 10
-27.46935610163611
 20
-0.5001697058188446
 30
0.0
1001
PE_URL
1000

  0
SPLINE
  5
244
330
1F
100
AcDbEntity
  8
0
  6
Continuous
 62
     1
370
    15
100
AcDbSpline
210
0.0
220
0.0
230
1.0
 70
     8
 71
     3
 72
    12
 73
     8
 74
     0
 42
0.000000001
 43
0.00000001
 40
0.0
 40
0.0
 40
0.0
 40
0.0
 40
0.2091817566781251
 40
0.4184286187759698
 40
0.627516896382893
 40
0.8364845800193978
 40
1.0
 40
1.0
 40
1.0
 40
1.0
 10
-27.46935610163611
 20
-0.5001697058188392
 30
0.0
 10
-27.18252580570774
 20
-0.6204065750850096
 30
0.0
 10
-26.6087759412151
 20
-0.8609177359622266
 30
0.0
 10
-25.74823625070317
 20
-1.145922689871245
 30
0.0
 10
-24.88812867665287
 20
-1.342456530038612
 30
0.0
 10
-24.09077140093452
 20
-1.440140741843825
 30
0.0
 10
-23.58011060920222
 20
-1.419025392066675
 30
0.0
 10
-23.35593691375972
 20
-1.409756017823067
 30
0.0
1001
PE_URL
1000

  0
SPLINE
  5
245
330
1F
100
AcDbEntity
  8
0
  6
Continuous
 62
     1
370
    15
100
AcDbSpline
210
0.0
220
0.0
230
1.0
 70
    24
 71
     3
 72
    10
 73
     6
 74
     0
 42
0.000000001
 43
0.00000001
 40
0.0
 40
0.0
 40
0.0
 40
0.0
 40
0.5000000000000001
 40
0.5000000000000001
 40
1.0
 40
1.0
 40
1.0
 40
1.0
 10
-28.57500000000001
 20
1.409055153395117
 30
0.0
 10
-28.57500000000001
 20
1.30104009004899
 30
0.0
 10
-28.57500000000001
 20
1.164558915789216
 30
0.0
 10
-28.57500000000001
 20
0.8472533204831747
 30
0.0
 10
-28.57500000000001
 20
0.6667037615744553
 30
0.0
 10
-28.57500000000001
 20
0.4772791989248833
 30
0.0
1001
PE_URL
1000

  0
SPLINE
  5
246
330
1F
100
AcDbEntity
  8
0
  6
Continuous
 62
     1
370
    15
100
AcDbSpline
210
0.0
220
0.0
230
1.0
 70
     8
 71
     3
 72
    10
 73
     6
 74
     0
 42
0.000000001
 43
0.00000001
 40
0.0
 40
0.0
 40
0.0
 40
0.0
 40
0.2101522228614603
 40
0.6050770568400613
 40
1.0
 40
1.0
 40
1.0
 40
1.0
 10
-20.67629795601071
 20
1.46881833285431
 30
0.0
 10
-20.50677931971962
 20
1.488368691379437
 30
0.0
 10
-20.01869579564399
 20
1.544658714085262
 30
0.0
 10
-19.2119886711138
 20
1.48966832631506
 30
0.0
 10
-18.57482904860526
 20
1.345675067502322
 30
0.0
 10
-18.25625000000003
 20
1.273678610448872
 30
0.0
1001
PE_URL
1000

  0
SPLINE
  5
247
330
1F
100
AcDbEntity
  8
0
  6
Continuous
 62
     1
370
    15
100
AcDbSpline
210
0.0
220
0.0
230
1.0
 70
     8
 71
     3
 72
    15
 73
    11
 74
     0
 42
0.000000001
 43
0.00000001
 40
0.0
 40
0.0
 40
0.0
 40
0.0
 40
0.116982648539294
 40
0.2484191671433855
 40
0.3798394659071206
 40
0.5037439660688108
 40
0.6277661621253078
 40
0.7519687836509981
 40
0.8760603411316629
 40
1.0
 40
1.0
 40
1.0
 40
1.0
 10
-24.79318420785709
 20
1.3376782279273
 30
0.0
 10
-24.53827409696752
 20
1.372055215413918
 30
0.0
 10
-23.99695828445757
 20
1.445056662269139
 30
0.0
 10
-23.16933805066126
 20
1.423112338825888
 30
0.0
 10
-22.32660338324873
 20
1.303095934560647
 30
0.0
 10
-21.50015985532685
 20
1.089664882113773
 30
0.0
 10
-20.68931614387817
 20
0.8064959377318435
 30
0.0
 10
-19.87782058248284
 20
0.4687547993954662
 30
0.0
 10
-19.06667078922183
 20
0.0974608506024562
 30
0.0
 10
-18.52627994817075
 20
-0.1512525014760972
 30
0.0
 10
-18.25625000000001
 20
-0.2755330193333429
 30
0.0
1001
PE_URL
1000

  0
SPLINE
  5
248
330
1F
100
AcDbEntity
  8
외형선
  6
Continuous
370
    15
100
AcDbSpline
210
0.0
220
0.0
230
1.0
 70
    24
 71
     3
 72
    10
 73
     6
 74
     0
 42
0.000000001
 43
0.00000001
 40
0.0
 40
0.0
 40
0.0
 40
0.0
 40
0.5
 40
0.5
 40
1.0
 40
1.0
 40
1.0
 40
1.0
 10
-18.25625000000002
 20
-0.2755330193333411
 30
0.0
 10
-18.25625000000002
 20
-0.0009062743889403
 30
0.0
 10
-18.25625000000002
 20
0.2918289898076981
 30
0.0
 10
-18.25625000000002
 20
0.833355221785218
 30
0.0
 10
-18.25625000000002
 20
1.079815248966206
 30
0.0
 10
-18.25625000000002
 20
1.27367861044887
 30
0.0
  0
SPLINE
  5
249
330
1F
100
AcDbEntity
  8
외형선
  6
Continuous
370
    15
100
AcDbSpline
210
0.0
220
0.0
230
1.0
 70
    24
 71
     3
 72
    14
 73
    10
 74
     0
 42
0.000000001
 43
0.00000001
 40
0.0
 40
0.0
 40
0.0
 40
0.0
 40
0.25
 40
0.25
 40
0.5
 40
0.5
 40
0.75
 40
0.75
 40
1.0
 40
1.0
 40
1.0
 40
1.0
 10
-18.25625000000001
 20
-1.226688872598814
 30
0.0
 10
-18.25625000000001
 20
-1.223450247154533
 30
0.0
 10
-18.25625000000001
 20
-1.200719416140757
 30
0.0
 10
-18.25625000000001
 20
-1.112654462156516
 30
0.0
 10
-18.25625000000001
 20
-1.04728030653135
 30
0.0
 10
-18.25625000000001
 20
-0.8782324885269615
 30
0.0
 10
-18.25625000000001
 20
-0.774648901892762
 30
0.0
 10
-18.25625000000001
 20
-0.5409936700500422
 30
0.0
 10
-18.25625000000001
 20
-0.4110864815877552
 30
0.0
 10
-18.25625000000001
 20
-0.2755330193333429
 30
0.0
  0
SPLINE
  5
24A
330
1F
100
AcDbEntity
  8
0
  6
Continuous
 62
     1
370
    15
100
AcDbSpline
210
0.0
220
0.0
230
1.0
 70
    24
 71
     3
 72
     8
 73
     4
 74
     0
 42
0.000000001
 43
0.00000001
 40
0.0
 40
0.0
 40
0.0
 40
0.0
 40
1.0
 40
1.0
 40
1.0
 40
1.0
 10
-27.48813864972746
 20
-0.8724430946696449
 30
0.0
 10
-27.42918395548606
 20
-0.8229742324755163
 30
0.0
 10
-27.36680894176709
 20
-0.7706353814692546
 30
0.0
 10
-27.30159004714629
 20
-0.7159102310471412
 30
0.0
1001
PE_URL
1000

  0
LINE
  5
24B
330
1F
100
AcDbEntity
  8
0
  6
Continuous
 62
     1
370
    15
100
AcDbLine
 10
-28.57500000000001
 20
-1.250156249999993
 30
0.0
 11
-27.91183446577325
 21
-1.210004509661393
 31
0.0
1001
PE_URL
1000

  0
SPLINE
  5
24C
330
1F
100
AcDbEntity
  8
0
  6
Continuous
 62
     1
370
    15
100
AcDbSpline
210
0.0
220
0.0
230
1.0
 70
     8
 71
     3
 72
     8
 73
     4
 74
     0
 42
0.000000001
 43
0.00000001
 40
0.0
 40
0.0
 40
0.0
 40
0.0
 40
1.0
 40
1.0
 40
1.0
 40
1.0
 10
-28.57500000000001
 20
-1.250156249999994
 30
0.0
 10
-28.207675259259
 20
-1.150382583531577
 30
0.0
 10
-27.84386444133697
 20
-1.027885928108338
 30
0.0
 10
-27.48813864973868
 20
-0.8724430946745494
 30
0.0
1001
PE_URL
1000

  0
LINE
  5
24D
330
1F
100
AcDbEntity
  8
0
  6
Continuous
 62
     1
370
    15
100
AcDbLine
 10
-28.57500000000001
 20
0.0000000000000056
 30
0.0
 11
-28.57500000000001
 21
-1.250156249999994
 31
0.0
1001
PE_URL
1000

  0
SPLINE
  5
24E
330
1F
100
AcDbEntity
  8
0
  6
Continuous
 62
     1
370
    15
100
AcDbSpline
210
0.0
220
0.0
230
1.0
 70
     8
 71
     3
 72
    12
 73
     8
 74
     0
 42
0.000000001
 43
0.00000001
 40
0.0
 40
0.0
 40
0.0
 40
0.0
 40
0.1668642614260067
 40
0.3748630583556249
 40
0.5832165153440827
 40
0.7918523815377001
 40
1.0
 40
1.0
 40
1.0
 40
1.0
 10
-21.88969292970441
 20
1.404332624808019
 30
0.0
 10
-21.68763766903227
 20
1.473414698383554
 30
0.0
 10
-21.2337175046717
 20
1.628608609630732
 30
0.0
 10
-20.52758124146726
 20
1.759532281158402
 30
0.0
 10
-19.77055542505209
 20
1.802528935179981
 30
0.0
 10
-19.01296459393037
 20
1.742498082672631
 30
0.0
 10
-18.50829112868825
 20
1.61697602296477
 30
0.0
 10
-18.25625000000008
 20
1.554288515530919
 30
0.0
1001
PE_URL
1000

  0
SPLINE
  5
24F
330
1F
100
AcDbEntity
  8
외형선
  6
Continuous
370
    15
100
AcDbSpline
210
0.0
220
0.0
230
1.0
 70
    24
 71
     3
 72
     8
 73
     4
 74
     0
 42
0.000000001
 43
0.00000001
 40
0.0
 40
0.0
 40
0.0
 40
0.0
 40
1.0
 40
1.0
 40
1.0
 40
1.0
 10
-18.25625000000001
 20
1.273678610448869
 30
0.0
 10
-18.25625000000001
 20
1.365281429672926
 30
0.0
 10
-18.25625000000001
 20
1.459410646567935
 30
0.0
 10
-18.25625000000001
 20
1.554288515530414
 30
0.0
  0
SPLINE
  5
250
330
1F
100
AcDbEntity
  8
0
  6
Continuous
 62
     1
370
    15
100
AcDbSpline
210
0.0
220
0.0
230
1.0
 70
     8
 71
     3
 72
     9
 73
     5
 74
     0
 42
0.000000001
 43
0.00000001
 40
0.0
 40
0.0
 40
0.0
 40
0.0
 40
0.386855871241922
 40
1.0
 40
1.0
 40
1.0
 40
1.0
 10
-18.25625000000001
 20
1.736774188498418
 30
0.0
 10
-18.35017533299112
 20
1.748377634789289
 30
0.0
 10
-18.59296687364831
 20
1.77837187076565
 30
0.0
 10
-18.83529775882756
 20
1.779982565947507
 30
0.0
 10
-18.98388151829196
 20
1.780970154241482
 30
0.0
1001
PE_URL
1000

  0
SPLINE
  5
251
330
1F
100
AcDbEntity
  8
0
  6
Continuous
 62
     1
370
    15
100
AcDbSpline
210
0.0
220
0.0
230
1.0
 70
     8
 71
     3
 72
    13
 73
     9
 74
     0
 42
0.000000001
 43
0.00000001
 40
0.0
 40
0.0
 40
0.0
 40
0.0
 40
0.0225090230633103
 40
0.2330263506471813
 40
0.4465247123106692
 40
0.6621220747976135
 40
0.8306822850854227
 40
1.0
 40
1.0
 40
1.0
 40
1.0
 10
-26.11943924327953
 20
-1.197213308229727
 30
0.0
 10
-26.13786587096753
 20
-1.205583605243259
 30
0.0
 10
-26.32862891709323
 20
-1.292237733297156
 30
0.0
 10
-26.69380729750511
 20
-1.427563072056614
 30
0.0
 10
-27.21797127962027
 20
-1.592323623370017
 30
0.0
 10
-27.70649343401707
 20
-1.700523273602981
 30
0.0
 10
-28.16006466206641
 20
-1.765207014652178
 30
0.0
 10
-28.43648164988166
 20
-1.778011471126387
 30
0.0
 10
-28.57500000000001
 20
-1.784428052824165
 30
0.0
1001
PE_URL
1000

  0
SPLINE
  5
252
330
1F
100
AcDbEntity
  8
0
  6
Continuous
 62
     1
370
    15
100
AcDbSpline
210
0.0
220
0.0
230
1.0
 70
    24
 71
     3
 72
    10
 73
     6
 74
     0
 42
0.000000001
 43
0.00000001
 40
0.0
 40
0.0
 40
0.0
 40
0.0
 40
0.5
 40
0.5
 40
1.0
 40
1.0
 40
1.0
 40
1.0
 10
-28.57500000000001
 20
-1.250156249999993
 30
0.0
 10
-28.57500000000001
 20
-1.325937608641807
 30
0.0
 10
-28.57500000000001
 20
-1.41400256549236
 30
0.0
 10
-28.57500000000001
 20
-1.598762607778521
 30
0.0
 10
-28.57500000000001
 20
-1.694985839251686
 30
0.0
 10
-28.57500000000001
 20
-1.784428052824186
 30
0.0
1001
PE_URL
1000

  0
ENDSEC
  0
SECTION
  2
OBJECTS
  0
DICTIONARY
  5
C
330
0
100
AcDbDictionary
281
     1
  3
ACAD_DETAILVIEWSTYLE
350
1C5
  3
ACAD_GROUP
350
D
  3
ACAD_LAYOUT
350
1A
  3
ACAD_MLINESTYLE
350
17
  3
ACAD_PLOTSETTINGS
350
19
  3
ACAD_PLOTSTYLENAME
350
E
  3
ACAD_SCALELIST
350
47
  3
ACAD_SECTIONVIEWSTYLE
350
1C6
  3
AcDbVariableDictionary
350
1C0
  3
APPDATA
350
15C
  3
DWGPROPS
350
253
  0
DICTIONARY
  5
195
330
2
100
AcDbDictionary
280
     1
281
     1
  3
ACAD_LAYERSTATES
360
196
  0
DICTIONARY
  5
1C5
102
{ACAD_REACTORS
330
C
102
}
330
C
100
AcDbDictionary
281
     1
  0
DICTIONARY
  5
D
102
{ACAD_REACTORS
330
C
102
}
330
C
100
AcDbDictionary
281
     1
  0
DICTIONARY
  5
1A
102
{ACAD_REACTORS
330
C
102
}
330
C
100
AcDbDictionary
281
     1
  3
Layout1
350
1E
  3
Layout2
350
26
  3
Model
350
22
  0
DICTIONARY
  5
17
102
{ACAD_REACTORS
330
C
102
}
330
C
100
AcDbDictionary
281
     1
  3
Standard
350
18
  0
DICTIONARY
  5
19
102
{ACAD_REACTORS
330
C
102
}
330
C
100
AcDbDictionary
281
     1
  0
ACDBDICTIONARYWDFLT
  5
E
102
{ACAD_REACTORS
330
C
102
}
330
C
100
AcDbDictionary
281
     1
  3
Normal
350
F
100
AcDbDictionaryWithDefault
340
F
  0
DICTIONARY
  5
47
102
{ACAD_REACTORS
330
C
102
}
330
C
100
AcDbDictionary
281
     1
  3
A0
350
48
  3
A1
350
49
  3
A2
350
4A
  3
A3
350
4B
  3
A4
350
4C
  3
A5
350
4D
  3
A6
350
4E
  3
A7
350
4F
  3
A8
350
50
  3
A9
350
51
  3
B0
350
52
  3
B1
350
53
  3
B2
350
54
  3
B3
350
55
  3
B4
350
56
  3
B5
350
57
  3
B6
350
58
  3
B7
350
59
  3
B8
350
5A
  3
B9
350
5B
  3
C0
350
5C
  3
C1
350
5D
  3
C2
350
5E
  3
C3
350
5F
  3
C4
350
60
  3
C5
350
61
  3
C6
350
62
  3
C7
350
63
  3
C8
350
64
  3
C9
350
65
  3
D0
350
66
  3
D1
350
67
  3
D2
350
68
  0
DICTIONARY
  5
1C6
102
{ACAD_REACTORS
330
C
102
}
330
C
100
AcDbDictionary
281
     1
  0
DICTIONARY
  5
1C0
102
{ACAD_REACTORS
330
C
102
}
330
C
100
AcDbDictionary
281
     1
  0
DICTIONARY
  5
15C
102
{ACAD_REACTORS
330
C
102
}
330
C
100
AcDbDictionary
281
     1
  0
XRECORD
  5
253
102
{ACAD_REACTORS
330
C
102
}
330
C
100
AcDbXrecord
280
     1
  1
DWGPROPS COOKIE
  2

  3

  4

  6

  7

  8
120170442
  9

300
=
301
=
302
=
303
=
304
=
305
=
306
=
307
=
308
=
309
=
 40
0.0
 41
2458313.016017003
 42
2458317.350377697
  1

 90
        0
  0
DICTIONARY
  5
196
102
{ACAD_REACTORS
330
195
102
}
330
195
100
AcDbDictionary
281
     1
  0
LAYOUT
  5
1E
102
{ACAD_REACTORS
330
1A
102
}
330
1A
100
AcDbPlotSettings
  1

  2
none_device
  4

  6

 40
0.0
 41
0.0
 42
0.0
 43
0.0
 44
0.0
 45
0.0
 46
0.0
 47
0.0
 48
0.0
 49
0.0
140
0.0
141
0.0
142
1.0
143
1.0
 70
   688
 72
     1
 73
     0
 74
     5
  7

 75
    16
147
1.0
148
0.0
149
0.0
100
AcDbLayout
  1
Layout1
 70
     1
 71
     1
 10
0.0
 20
0.0
 11
420.0
 21
297.0
 12
0.0
 22
0.0
 32
0.0
 14
1.000000000000000E+20
 24
1.000000000000000E+20
 34
1.000000000000000E+20
 15
-1.000000000000000E+20
 25
-1.000000000000000E+20
 35
-1.000000000000000E+20
146
0.0
 13
0.0
 23
0.0
 33
0.0
 16
1.0
 26
0.0
 36
0.0
 17
0.0
 27
1.0
 37
0.0
 76
     0
330
1B
  0
LAYOUT
  5
26
102
{ACAD_REACTORS
330
1A
102
}
330
1A
100
AcDbPlotSettings
  1

  2
none_device
  4

  6

 40
0.0
 41
0.0
 42
0.0
 43
0.0
 44
0.0
 45
0.0
 46
0.0
 47
0.0
 48
0.0
 49
0.0
140
0.0
141
0.0
142
1.0
143
1.0
 70
   688
 72
     1
 73
     0
 74
     5
  7

 75
    16
147
1.0
148
0.0
149
0.0
100
AcDbLayout
  1
Layout2
 70
     1
 71
     2
 10
0.0
 20
0.0
 11
0.0
 21
0.0
 12
0.0
 22
0.0
 32
0.0
 14
0.0
 24
0.0
 34
0.0
 15
0.0
 25
0.0
 35
0.0
146
0.0
 13
0.0
 23
0.0
 33
0.0
 16
1.0
 26
0.0
 36
0.0
 17
0.0
 27
1.0
 37
0.0
 76
     0
330
23
  0
LAYOUT
  5
22
102
{ACAD_REACTORS
330
1A
102
}
330
1A
100
AcDbPlotSettings
  1

  2
none_device
  4
ANSI_A_(11.00_x_8.50_Inches)
  6

 40
6.35
 41
19.05
 42
6.35000508
 43
19.05000254
 44
279.4
 45
215.9
 46
83.75340574529196
 47
87.51960887143163
 48
0.0
 49
0.0
140
0.0
141
0.0
142
0.0579952566289232
143
1.0
 70
  1696
 72
     0
 73
     0
 74
     0
  7

 75
     0
147
0.0235690232323232
148
0.0
149
0.0
100
AcDbLayout
  1
Model
 70
     1
 71
     0
 10
0.0
 20
0.0
 11
420.0
 21
297.0
 12
0.0
 22
0.0
 32
0.0
 14
-42.95000000000009
 24
-49.97180738881175
 34
0.0
 15
89.06287503295505
 25
37.26342805282435
 35
0.0
146
0.0
 13
0.0
 23
0.0
 33
0.0
 16
1.0
 26
0.0
 36
0.0
 17
0.0
 27
1.0
 37
0.0
 76
     0
330
1F
331
29
  0
MLINESTYLE
  5
18
102
{ACAD_REACTORS
330
17
102
}
330
17
100
AcDbMlineStyle
  2
Standard
 70
     0
  3

 62
   256
 51
90.0
 52
90.0
 71
     2
 49
0.5
 62
   256
  6
BYLAYER
 49
-0.5
 62
   256
  6
BYLAYER
  0
ACDBPLACEHOLDER
  5
F
102
{ACAD_REACTORS
330
E
102
}
330
E
  0
SCALE
  5
48
102
{ACAD_REACTORS
330
47
102
}
330
47
100
AcDbScale
 70
     0
300
1:1
140
1.0
141
1.0
290
     1
  0
SCALE
  5
49
102
{ACAD_REACTORS
330
47
102
}
330
47
100
AcDbScale
 70
     0
300
1:2
140
1.0
141
2.0
290
     0
  0
SCALE
  5
4A
102
{ACAD_REACTORS
330
47
102
}
330
47
100
AcDbScale
 70
     0
300
1:4
140
1.0
141
4.0
290
     0
  0
SCALE
  5
4B
102
{ACAD_REACTORS
330
47
102
}
330
47
100
AcDbScale
 70
     0
300
1:5
140
1.0
141
5.0
290
     0
  0
SCALE
  5
4C
102
{ACAD_REACTORS
330
47
102
}
330
47
100
AcDbScale
 70
     0
300
1:8
140
1.0
141
8.0
290
     0
  0
SCALE
  5
4D
102
{ACAD_REACTORS
330
47
102
}
330
47
100
AcDbScale
 70
     0
300
1:10
140
1.0
141
10.0
290
     0
  0
SCALE
  5
4E
102
{ACAD_REACTORS
330
47
102
}
330
47
100
AcDbScale
 70
     0
300
1:16
140
1.0
141
16.0
290
     0
  0
SCALE
  5
4F
102
{ACAD_REACTORS
330
47
102
}
330
47
100
AcDbScale
 70
     0
300
1:20
140
1.0
141
20.0
290
     0
  0
SCALE
  5
50
102
{ACAD_REACTORS
330
47
102
}
330
47
100
AcDbScale
 70
     0
300
1:30
140
1.0
141
30.0
290
     0
  0
SCALE
  5
51
102
{ACAD_REACTORS
330
47
102
}
330
47
100
AcDbScale
 70
     0
300
1:40
140
1.0
141
40.0
290
     0
  0
SCALE
  5
52
102
{ACAD_REACTORS
330
47
102
}
330
47
100
AcDbScale
 70
     0
300
1:50
140
1.0
141
50.0
290
     0
  0
SCALE
  5
53
102
{ACAD_REACTORS
330
47
102
}
330
47
100
AcDbScale
 70
     0
300
1:100
140
1.0
141
100.0
290
     0
  0
SCALE
  5
54
102
{ACAD_REACTORS
330
47
102
}
330
47
100
AcDbScale
 70
     0
300
2:1
140
2.0
141
1.0
290
     0
  0
SCALE
  5
55
102
{ACAD_REACTORS
330
47
102
}
330
47
100
AcDbScale
 70
     0
300
4:1
140
4.0
141
1.0
290
     0
  0
SCALE
  5
56
102
{ACAD_REACTORS
330
47
102
}
330
47
100
AcDbScale
 70
     0
300
8:1
140
8.0
141
1.0
290
     0
  0
SCALE
  5
57
102
{ACAD_REACTORS
330
47
102
}
330
47
100
AcDbScale
 70
     0
300
10:1
140
10.0
141
1.0
290
     0
  0
SCALE
  5
58
102
{ACAD_REACTORS
330
47
102
}
330
47
100
AcDbScale
 70
     0
300
100:1
140
100.0
141
1.0
290
     0
  0
SCALE
  5
59
102
{ACAD_REACTORS
330
47
102
}
330
47
100
AcDbScale
 70
     0
300
1/128" = 1'-0"
140
0.0078125
141
12.0
290
     0
  0
SCALE
  5
5A
102
{ACAD_REACTORS
330
47
102
}
330
47
100
AcDbScale
 70
     0
300
1/64" = 1'-0"
140
0.015625
141
12.0
290
     0
  0
SCALE
  5
5B
102
{ACAD_REACTORS
330
47
102
}
330
47
100
AcDbScale
 70
     0
300
1/32" = 1'-0"
140
0.03125
141
12.0
290
     0
  0
SCALE
  5
5C
102
{ACAD_REACTORS
330
47
102
}
330
47
100
AcDbScale
 70
     0
300
1/16" = 1'-0"
140
0.0625
141
12.0
290
     0
  0
SCALE
  5
5D
102
{ACAD_REACTORS
330
47
102
}
330
47
100
AcDbScale
 70
     0
300
3/32" = 1'-0"
140
0.09375
141
12.0
290
     0
  0
SCALE
  5
5E
102
{ACAD_REACTORS
330
47
102
}
330
47
100
AcDbScale
 70
     0
300
1/8" = 1'-0"
140
0.125
141
12.0
290
     0
  0
SCALE
  5
5F
102
{ACAD_REACTORS
330
47
102
}
330
47
100
AcDbScale
 70
     0
300
3/16" = 1'-0"
140
0.1875
141
12.0
290
     0
  0
SCALE
  5
60
102
{ACAD_REACTORS
330
47
102
}
330
47
100
AcDbScale
 70
     0
300
1/4" = 1'-0"
140
0.25
141
12.0
290
     0
  0
SCALE
  5
61
102
{ACAD_REACTORS
330
47
102
}
330
47
100
AcDbScale
 70
     0
300
3/8" = 1'-0"
140
0.375
141
12.0
290
     0
  0
SCALE
  5
62
102
{ACAD_REACTORS
330
47
102
}
330
47
100
AcDbScale
 70
     0
300
1/2" = 1'-0"
140
0.5
141
12.0
290
     0
  0
SCALE
  5
63
102
{ACAD_REACTORS
330
47
102
}
330
47
100
AcDbScale
 70
     0
300
3/4" = 1'-0"
140
0.75
141
12.0
290
     0
  0
SCALE
  5
64
102
{ACAD_REACTORS
330
47
102
}
330
47
100
AcDbScale
 70
     0
300
1" = 1'-0"
140
1.0
141
12.0
290
     0
  0
SCALE
  5
65
102
{ACAD_REACTORS
330
47
102
}
330
47
100
AcDbScale
 70
     0
300
1-1/2" = 1'-0"
140
1.5
141
12.0
290
     0
  0
SCALE
  5
66
102
{ACAD_REACTORS
330
47
102
}
330
47
100
AcDbScale
 70
     0
300
3" = 1'-0"
140
3.0
141
12.0
290
     0
  0
SCALE
  5
67
102
{ACAD_REACTORS
330
47
102
}
330
47
100
AcDbScale
 70
     0
300
6" = 1'-0"
140
6.0
141
12.0
290
     0
  0
SCALE
  5
68
102
{ACAD_REACTORS
330
47
102
}
330
47
100
AcDbScale
 70
     0
300
1'-0" = 1'-0"
140
12.0
141
12.0
290
     0
  0
ENDSEC
  0
EOF
