  0
SECTION
  2
HEADER
  9
$ACADVER
  1
AC1015
  9
$ACADMAINTVER
 70
     6
  9
$DWGCODEPAGE
  3
ANSI_949
  9
$INSBASE
 10
0.0
 20
0.0
 30
0.0
  9
$EXTMIN
 10
-42.9500000000001
 20
-49.97180738881175
 30
0.0
  9
$EXTMAX
 10
86.68162503295505
 20
38.53496762011859
 30
0.0
  9
$LIMMIN
 10
0.0
 20
0.0
  9
$LIMMAX
 10
420.0
 20
297.0
  9
$ORTHOMODE
 70
     1
  9
$REGENMODE
 70
     1
  9
$FILLMODE
 70
     1
  9
$QTEXTMODE
 70
     0
  9
$MIRRTEXT
 70
     1
  9
$LTSCALE
 40
1.0
  9
$ATTMODE
 70
     1
  9
$TEXTSIZE
 40
3.5
  9
$TRACEWID
 40
1.0
  9
$TEXTSTYLE
  7
Standard
  9
$CLAYER
  8
0
  9
$CELTYPE
  6
ByLayer
  9
$CECOLOR
 62
   256
  9
$CELTSCALE
 40
1.0
  9
$DISPSILH
 70
     0
  9
$DIMSCALE
 40
1.0
  9
$DIMASZ
 40
3.302
  9
$DIMEXO
 40
1.0
  9
$DIMDLI
 40
3.75
  9
$DIMRND
 40
0.0
  9
$DIMDLE
 40
0.0
  9
$DIMEXE
 40
1.0
  9
$DIMTP
 40
0.0
  9
$DIMTM
 40
0.0
  9
$DIMTXT
 40
3.5
  9
$DIMCEN
 40
2.5
  9
$DIMTSZ
 40
0.0
  9
$DIMTOL
 70
     0
  9
$DIMLIM
 70
     0
  9
$DIMTIH
 70
     1
  9
$DIMTOH
 70
     1
  9
$DIMSE1
 70
     0
  9
$DIMSE2
 70
     0
  9
$DIMTAD
 70
     1
  9
$DIMZIN
 70
     0
  9
$DIMBLK
  1

  9
$DIMASO
 70
     1
  9
$DIMSHO
 70
     1
  9
$DIMPOST
  1

  9
$DIMAPOST
  1

  9
$DIMALT
 70
     0
  9
$DIMALTD
 70
     3
  9
$DIMALTF
 40
0.0393700787401575
  9
$DIMLFAC
 40
1.0
  9
$DIMTOFL
 70
     1
  9
$DIMTVP
 40
0.0
  9
$DIMTIX
 70
     0
  9
$DIMSOXD
 70
     0
  9
$DIMSAH
 70
     0
  9
$DIMBLK1
  1

  9
$DIMBLK2
  1

  9
$DIMSTYLE
  2
ISO-25
  9
$DIMCLRD
 70
     0
  9
$DIMCLRE
 70
     0
  9
$DIMCLRT
 70
     0
  9
$DIMTFAC
 40
1.0
  9
$DIMGAP
 40
1.524
  9
$DIMJUST
 70
     0
  9
$DIMSD1
 70
     0
  9
$DIMSD2
 70
     0
  9
$DIMTOLJ
 70
     0
  9
$DIMTZIN
 70
     0
  9
$DIMALTZ
 70
     0
  9
$DIMALTTZ
 70
     0
  9
$DIMUPT
 70
     0
  9
$DIMDEC
 70
     2
  9
$DIMTDEC
 70
     2
  9
$DIMALTU
 70
     2
  9
$DIMALTTD
 70
     3
  9
$DIMTXSTY
  7
Standard
  9
$DIMAUNIT
 70
     0
  9
$DIMADEC
 70
     2
  9
$DIMALTRND
 40
0.0
  9
$DIMAZIN
 70
     0
  9
$DIMDSEP
 70
    44
  9
$DIMATFIT
 70
     3
  9
$DIMFRAC
 70
     0
  9
$DIMLDRBLK
  1

  9
$DIMLUNIT
 70
     2
  9
$DIMLWD
 70
    -2
  9
$DIMLWE
 70
    -2
  9
$DIMTMOVE
 70
     0
  9
$LUNITS
 70
     2
  9
$LUPREC
 70
     2
  9
$SKETCHINC
 40
1.0
  9
$FILLETRAD
 40
10.0
  9
$AUNITS
 70
     0
  9
$AUPREC
 70
     2
  9
$MENU
  1
.
  9
$ELEVATION
 40
0.0
  9
$PELEVATION
 40
0.0
  9
$THICKNESS
 40
0.0
  9
$LIMCHECK
 70
     0
  9
$CHAMFERA
 40
0.0
  9
$CHAMFERB
 40
0.0
  9
$CHAMFERC
 40
0.0
  9
$CHAMFERD
 40
0.0
  9
$SKPOLY
 70
     0
  9
$TDCREATE
 40
2458313.391440579
  9
$TDUCREATE
 40
2458313.016440579
  9
$TDUPDATE
 40
2458317.724168148
  9
$TDUUPDATE
 40
2458317.349168148
  9
$TDINDWG
 40
0.0011190394
  9
$TDUSRTIMER
 40
0.0006973727
  9
$USRTIMER
 70
     1
  9
$ANGBASE
 50
0.0
  9
$ANGDIR
 70
     0
  9
$PDMODE
 70
     0
  9
$PDSIZE
 40
-1.0
  9
$PLINEWID
 40
0.0
  9
$SPLFRAME
 70
     0
  9
$SPLINETYPE
 70
     6
  9
$SPLINESEGS
 70
     8
  9
$HANDSEED
  5
258
  9
$SURFTAB1
 70
     6
  9
$SURFTAB2
 70
     6
  9
$SURFTYPE
 70
     6
  9
$SURFU
 70
     6
  9
$SURFV
 70
     6
  9
$UCSBASE
  2

  9
$UCSNAME
  2

  9
$UCSORG
 10
0.0
 20
0.0
 30
0.0
  9
$UCSXDIR
 10
1.0
 20
0.0
 30
0.0
  9
$UCSYDIR
 10
0.0
 20
1.0
 30
0.0
  9
$UCSORTHOREF
  2

  9
$UCSORTHOVIEW
 70
     0
  9
$UCSORGTOP
 10
0.0
 20
0.0
 30
0.0
  9
$UCSORGBOTTOM
 10
0.0
 20
0.0
 30
0.0
  9
$UCSORGLEFT
 10
0.0
 20
0.0
 30
0.0
  9
$UCSORGRIGHT
 10
0.0
 20
0.0
 30
0.0
  9
$UCSORGFRONT
 10
0.0
 20
0.0
 30
0.0
  9
$UCSORGBACK
 10
0.0
 20
0.0
 30
0.0
  9
$PUCSBASE
  2

  9
$PUCSNAME
  2

  9
$PUCSORG
 10
0.0
 20
0.0
 30
0.0
  9
$PUCSXDIR
 10
1.0
 20
0.0
 30
0.0
  9
$PUCSYDIR
 10
0.0
 20
1.0
 30
0.0
  9
$PUCSORTHOREF
  2

  9
$PUCSORTHOVIEW
 70
     0
  9
$PUCSORGTOP
 10
0.0
 20
0.0
 30
0.0
  9
$PUCSORGBOTTOM
 10
0.0
 20
0.0
 30
0.0
  9
$PUCSORGLEFT
 10
0.0
 20
0.0
 30
0.0
  9
$PUCSORGRIGHT
 10
0.0
 20
0.0
 30
0.0
  9
$PUCSORGFRONT
 10
0.0
 20
0.0
 30
0.0
  9
$PUCSORGBACK
 10
0.0
 20
0.0
 30
0.0
  9
$USERI1
 70
     0
  9
$USERI2
 70
     0
  9
$USERI3
 70
     0
  9
$USERI4
 70
     0
  9
$USERI5
 70
     0
  9
$USERR1
 40
0.0
  9
$USERR2
 40
0.0
  9
$USERR3
 40
0.0
  9
$USERR4
 40
0.0
  9
$USERR5
 40
0.0
  9
$WORLDVIEW
 70
     1
  9
$SHADEDGE
 70
     3
  9
$SHADEDIF
 70
    70
  9
$TILEMODE
 70
     1
  9
$MAXACTVP
 70
    64
  9
$PINSBASE
 10
0.0
 20
0.0
 30
0.0
  9
$PLIMCHECK
 70
     0
  9
$PEXTMIN
 10
1.000000000000000E+20
 20
1.000000000000000E+20
 30
1.000000000000000E+20
  9
$PEXTMAX
 10
-1.000000000000000E+20
 20
-1.000000000000000E+20
 30
-1.000000000000000E+20
  9
$PLIMMIN
 10
0.0
 20
0.0
  9
$PLIMMAX
 10
0.0
 20
0.0
  9
$UNITMODE
 70
     0
  9
$VISRETAIN
 70
     1
  9
$PLINEGEN
 70
     0
  9
$PSLTSCALE
 70
     1
  9
$TREEDEPTH
 70
  3020
  9
$CMLSTYLE
  2
Standard
  9
$CMLJUST
 70
     0
  9
$CMLSCALE
 40
20.0
  9
$PROXYGRAPHICS
 70
     1
  9
$MEASUREMENT
 70
     1
  9
$CELWEIGHT
370
    -1
  9
$ENDCAPS
280
     0
  9
$JOINSTYLE
280
     0
  9
$LWDISPLAY
290
     1
  9
$INSUNITS
 70
     4
  9
$HYPERLINKBASE
  1

  9
$STYLESHEET
  1

  9
$XEDIT
290
     1
  9
$CEPSNTYPE
380
     0
  9
$PSTYLEMODE
290
     1
  9
$FINGERPRINTGUID
  2
{8C5BF5E9-AFE8-47D8-ADC6-4B8B93AB18C9}
  9
$VERSIONGUID
  2
{FAEB1C32-E019-11D5-929B-00C0DF256EC4}
  9
$EXTNAMES
290
     1
  9
$PSVPSCALE
 40
0.0
  9
$OLESTARTUP
290
     0
  0
ENDSEC
  0
SECTION
  2
CLASSES
  0
CLASS
  1
ACDBDICTIONARYWDFLT
  2
AcDbDictionaryWithDefault
  3
ObjectDBX Classes
 90
        0
280
     0
281
     0
  0
CLASS
  1
VISUALSTYLE
  2
AcDbVisualStyle
  3
ObjectDBX Classes
 90
     4095
280
     0
281
     0
  0
CLASS
  1
MATERIAL
  2
AcDbMaterial
  3
ObjectDBX Classes
 90
     1153
280
     0
281
     0
  0
CLASS
  1
SCALE
  2
AcDbScale
  3
ObjectDBX Classes
 90
     1153
280
     0
281
     0
  0
CLASS
  1
SUN
  2
AcDbSun
  3
SCENEOE
 90
     1153
280
     0
281
     0
  0
CLASS
  1
ACDBPLACEHOLDER
  2
AcDbPlaceHolder
  3
ObjectDBX Classes
 90
        0
280
     0
281
     0
  0
CLASS
  1
LAYOUT
  2
AcDbLayout
  3
ObjectDBX Classes
 90
        0
280
     0
281
     0
  0
CLASS
  1
TABLESTYLE
  2
AcDbTableStyle
  3
ObjectDBX Classes
 90
     4095
280
     0
281
     0
  0
CLASS
  1
MLEADERSTYLE
  2
AcDbMLeaderStyle
  3
ACDB_MLEADERSTYLE_CLASS
 90
     4095
280
     0
281
     0
  0
CLASS
  1
DICTIONARYVAR
  2
AcDbDictionaryVar
  3
ObjectDBX Classes
 90
        0
280
     0
281
     0
  0
ENDSEC
  0
SECTION
  2
TABLES
  0
TABLE
  2
VPORT
  5
8
330
0
100
AcDbSymbolTable
 70
     1
  0
VPORT
  5
29
330
8
100
AcDbSymbolTableRecord
100
AcDbViewportTableRecord
  2
*Active
 70
     0
 10
0.0
 20
0.0
 11
1.0
 21
1.0
 12
21.86581251647748
 22
-5.718419884346581
 13
0.0
 23
0.0
 14
10.0
 24
10.0
 15
10.0
 25
10.0
 16
0.0
 26
0.0
 36
1.0
 17
0.0
 27
0.0
 37
0.0
 40
90.27691050910894
 41
1.782762691853601
 42
50.0
 43
0.0
 44
0.0
 50
0.0
 51
0.0
 71
    16
 72
  2000
 73
     1
 74
     3
 75
     0
 76
     0
 77
     0
 78
     0
281
     0
 65
     1
110
0.0
120
0.0
130
0.0
111
1.0
121
0.0
131
0.0
112
0.0
122
1.0
132
0.0
 79
     0
146
0.0
  0
ENDTAB
  0
TABLE
  2
LTYPE
  5
5
330
0
100
AcDbSymbolTable
 70
     6
  0
LTYPE
  5
14
330
5
100
AcDbSymbolTableRecord
100
AcDbLinetypeTableRecord
  2
ByBlock
 70
     0
  3

 72
    65
 73
     0
 40
0.0
  0
LTYPE
  5
15
330
5
100
AcDbSymbolTableRecord
100
AcDbLinetypeTableRecord
  2
ByLayer
 70
     0
  3

 72
    65
 73
     0
 40
0.0
  0
LTYPE
  5
16
330
5
100
AcDbSymbolTableRecord
100
AcDbLinetypeTableRecord
  2
Continuous
 70
     0
  3
Solid line
 72
    65
 73
     0
 40
0.0
  0
LTYPE
  5
6A
330
5
100
AcDbSymbolTableRecord
100
AcDbLinetypeTableRecord
  2
HIDDEN
 70
     0
  3
Hidden __ __ __ __ __ __ __ __ __ __ __ __ __ __
 72
    65
 73
     2
 40
1.905
 49
1.27
 74
     0
 49
-0.635
 74
     0
  0
LTYPE
  5
6B
330
5
100
AcDbSymbolTableRecord
100
AcDbLinetypeTableRecord
  2
PHANTOM
 70
     0
  3
Phantom ______  __  __  ______  __  __  ______
 72
    65
 73
     6
 40
12.7
 49
6.35
 74
     0
 49
-1.27
 74
     0
 49
1.27
 74
     0
 49
-1.27
 74
     0
 49
1.27
 74
     0
 49
-1.27
 74
     0
  0
LTYPE
  5
6C
330
5
100
AcDbSymbolTableRecord
100
AcDbLinetypeTableRecord
  2
CENTER
 70
     0
  3
Center ____ _ ____ _ ____ _ ____ _ ____ _ ____
 72
    65
 73
     4
 40
10.16
 49
6.35
 74
     0
 49
-1.27
 74
     0
 49
1.27
 74
     0
 49
-1.27
 74
     0
  0
LTYPE
  5
6D
330
5
100
AcDbSymbolTableRecord
100
AcDbLinetypeTableRecord
  2
CENTERX2
 70
     0
  3
Center (2x) ________  __  ________  __  _____
 72
    65
 73
     4
 40
20.32
 49
12.7
 74
     0
 49
-2.54
 74
     0
 49
2.54
 74
     0
 49
-2.54
 74
     0
  0
LTYPE
  5
6E
330
5
100
AcDbSymbolTableRecord
100
AcDbLinetypeTableRecord
  2
DOT2
 70
     0
  3
Dot (.5x) ........................................
 72
    65
 73
     2
 40
0.635
 49
0.0
 74
     0
 49
-0.635
 74
     0
  0
ENDTAB
  0
TABLE
  2
LAYER
  5
2
102
{ACAD_XDICTIONARY
360
197
102
}
330
0
100
AcDbSymbolTable
 70
    18
  0
LAYER
  5
10
330
2
100
AcDbSymbolTableRecord
100
AcDbLayerTableRecord
  2
0
 70
     0
 62
     7
  6
Continuous
370
    -3
390
F
  0
LAYER
  5
6F
330
2
100
AcDbSymbolTableRecord
100
AcDbLayerTableRecord
  2
FORMAT
 70
     0
 62
     2
  6
Continuous
370
    -3
390
F
  0
LAYER
  5
70
330
2
100
AcDbSymbolTableRecord
100
AcDbLayerTableRecord
  2
외형선
 70
     0
 62
     4
  6
Continuous
370
    30
390
F
  0
LAYER
  5
71
330
2
100
AcDbSymbolTableRecord
100
AcDbLayerTableRecord
  2
숨은선
 70
     0
 62
     2
  6
HIDDEN
370
    15
390
F
  0
LAYER
  5
72
330
2
100
AcDbSymbolTableRecord
100
AcDbLayerTableRecord
  2
중심선
 70
     0
 62
     1
  6
CENTERX2
370
    -3
390
F
  0
LAYER
  5
73
330
2
100
AcDbSymbolTableRecord
100
AcDbLayerTableRecord
  2
파단선
 70
     0
 62
     4
  6
Continuous
370
    -3
390
F
  0
LAYER
  5
74
330
2
100
AcDbSymbolTableRecord
100
AcDbLayerTableRecord
  2
해칭선
 70
     0
 62
   100
  6
Continuous
370
    -3
390
F
  0
LAYER
  5
75
330
2
100
AcDbSymbolTableRecord
100
AcDbLayerTableRecord
  2
가는실선
 70
     0
 62
     4
  6
Continuous
370
    -3
390
F
  0
LAYER
  5
76
330
2
100
AcDbSymbolTableRecord
100
AcDbLayerTableRecord
  2
치수_보조선
 70
     0
 62
     4
  6
Continuous
370
    -3
390
F
  0
LAYER
  5
77
330
2
100
AcDbSymbolTableRecord
100
AcDbLayerTableRecord
  2
치수문자_일반주서
 70
     0
 62
     7
  6
Continuous
370
    15
390
F
  0
LAYER
  5
78
330
2
100
AcDbSymbolTableRecord
100
AcDbLayerTableRecord
  2
개별주서
 70
     0
 62
   100
  6
Continuous
370
    30
390
F
  0
LAYER
  5
79
330
2
100
AcDbSymbolTableRecord
100
AcDbLayerTableRecord
  2
중간선
 70
     0
 62
     2
  6
Continuous
370
    15
390
F
  0
LAYER
  5
7A
330
2
100
AcDbSymbolTableRecord
100
AcDbLayerTableRecord
  2
윤곽선
 70
     0
 62
     3
  6
Continuous
370
    40
390
F
  0
LAYER
  5
7B
330
2
100
AcDbSymbolTableRecord
100
AcDbLayerTableRecord
  2
중심마크
 70
     0
 62
   100
  6
Continuous
370
    30
390
F
  0
LAYER
  5
7C
330
2
100
AcDbSymbolTableRecord
100
AcDbLayerTableRecord
  2
가상선
 70
     0
 62
     4
  6
PHANTOM
370
    -3
390
F
  0
LAYER
  5
7D
330
2
100
AcDbSymbolTableRecord
100
AcDbLayerTableRecord
  2
특수지정선
 70
     0
 62
     5
  6
CENTERX2
370
    60
390
F
  0
LAYER
  5
7E
330
2
100
AcDbSymbolTableRecord
100
AcDbLayerTableRecord
  2
참조1
 70
     0
 62
    -4
  6
Continuous
370
    -3
390
F
  0
LAYER
  5
160
330
2
100
AcDbSymbolTableRecord
100
AcDbLayerTableRecord
  2
Defpoints
 70
     0
 62
     7
  6
Continuous
290
     0
370
    -3
390
F
  0
ENDTAB
  0
TABLE
  2
STYLE
  5
3
330
0
100
AcDbSymbolTable
 70
     2
  0
STYLE
  5
11
330
3
100
AcDbSymbolTableRecord
100
AcDbTextStyleTableRecord
  2
Standard
 70
     0
 40
0.0
 41
1.0
 50
0.0
 71
     0
 42
3.5
  3
txt
  4

  0
STYLE
  5
94
330
3
100
AcDbSymbolTableRecord
100
AcDbTextStyleTableRecord
  2
SLDTEXTSTYLE0
 70
     0
 40
0.0
 41
0.75
 50
0.0
 71
     0
 42
3.5
  3
TXT
  4

  0
ENDTAB
  0
TABLE
  2
VIEW
  5
6
330
0
100
AcDbSymbolTable
 70
     0
  0
ENDTAB
  0
TABLE
  2
UCS
  5
7
330
0
100
AcDbSymbolTable
 70
     0
  0
ENDTAB
  0
TABLE
  2
APPID
  5
9
330
0
100
AcDbSymbolTable
 70
     2
  0
APPID
  5
12
330
9
100
AcDbSymbolTableRecord
100
AcDbRegAppTableRecord
  2
ACAD
 70
     0
  0
APPID
  5
167
330
9
100
AcDbSymbolTableRecord
100
AcDbRegAppTableRecord
  2
PE_URL
 70
     0
  0
ENDTAB
  0
TABLE
  2
DIMSTYLE
  5
A
330
0
100
AcDbSymbolTable
 70
     4
100
AcDbDimStyleTable
  0
DIMSTYLE
105
27
330
A
100
AcDbSymbolTableRecord
100
AcDbDimStyleTableRecord
  2
ISO-25
 70
     0
 41
2.5
 42
0.625
 43
3.75
 44
1.25
 73
     0
 74
     0
 77
     1
 78
     8
140
2.5
141
2.5
143
0.03937007874016
147
0.625
171
     3
172
     1
178
     0
271
     2
272
     2
274
     3
278
    44
283
     0
284
     8
340
11
  0
DIMSTYLE
105
DE
102
{ACAD_REACTORS
330
DD
330
F2
330
106
330
11B
102
}
330
A
100
AcDbSymbolTableRecord
100
AcDbDimStyleTableRecord
  2
SLDDIMSTYLE0
 70
     0
 41
3.302
 44
0.0
 45
0.000000001
 73
     0
 74
     0
 77
     1
 78
    12
 79
     3
140
3.5
143
0.0393700787401575
147
0.875
148
0.000000001
170
     1
172
     1
173
     1
178
     0
271
     2
272
     2
276
     2
284
    12
289
     0
340
94
  0
DIMSTYLE
105
107
330
A
100
AcDbSymbolTableRecord
100
AcDbDimStyleTableRecord
  2
SLDDIMSTYLE1
 70
     0
 41
3.302
 44
0.0
 45
0.000000001
 73
     0
 74
     0
 77
     1
 78
     4
 79
     1
140
3.5
143
0.0393700787401575
147
0.875
148
0.000000001
170
     1
173
     1
178
     0
271
     2
272
     2
276
     2
284
    12
340
94
  0
DIMSTYLE
105
11C
330
A
100
AcDbSymbolTableRecord
100
AcDbDimStyleTableRecord
  2
SLDDIMSTYLE2
 70
     0
 41
3.302
 44
0.0
 45
0.000000001
 73
     0
 74
     0
 77
     1
 78
    12
 79
     3
140
3.5
143
0.0393700787401575
147
0.875
148
0.000000001
170
     1
173
     1
178
     0
271
     2
272
     2
276
     2
284
    12
340
94
  0
ENDTAB
  0
TABLE
  2
BLOCK_RECORD
  5
1
330
0
100
AcDbSymbolTable
 70
     9
  0
BLOCK_RECORD
  5
1F
330
1
100
AcDbSymbolTableRecord
100
AcDbBlockTableRecord
  2
*Model_Space
340
22
  0
BLOCK_RECORD
  5
1B
330
1
100
AcDbSymbolTableRecord
100
AcDbBlockTableRecord
  2
*Paper_Space
340
1E
  0
BLOCK_RECORD
  5
23
330
1
100
AcDbSymbolTableRecord
100
AcDbBlockTableRecord
  2
*Paper_Space0
340
26
  0
BLOCK_RECORD
  5
7F
330
1
100
AcDbSymbolTableRecord
100
AcDbBlockTableRecord
  2
블럭10
340
0
102
{BLKREFS
331
D6
102
}
  0
BLOCK_RECORD
  5
DF
330
1
100
AcDbSymbolTableRecord
100
AcDbBlockTableRecord
  2
_D
340
0
  0
BLOCK_RECORD
  5
F3
330
1
100
AcDbSymbolTableRecord
100
AcDbBlockTableRecord
  2
_D_1
340
0
  0
BLOCK_RECORD
  5
108
330
1
100
AcDbSymbolTableRecord
100
AcDbBlockTableRecord
  2
_D_2
340
0
  0
BLOCK_RECORD
  5
11D
330
1
100
AcDbSymbolTableRecord
100
AcDbBlockTableRecord
  2
_D_3
340
0
  0
BLOCK_RECORD
  5
136
330
1
100
AcDbSymbolTableRecord
100
AcDbBlockTableRecord
  2
SW_DOWELSYMBOL_0
340
0
102
{BLKREFS
331
13C
102
}
  0
BLOCK_RECORD
  5
19B
330
1
100
AcDbSymbolTableRecord
100
AcDbBlockTableRecord
  2
*D7
340
0
  0
BLOCK_RECORD
  5
1AD
330
1
100
AcDbSymbolTableRecord
100
AcDbBlockTableRecord
  2
*D8
340
0
  0
ENDTAB
  0
ENDSEC
  0
SECTION
  2
BLOCKS
  0
BLOCK
  5
20
330
1F
100
AcDbEntity
  8
0
100
AcDbBlockBegin
  2
*Model_Space
 70
     0
 10
0.0
 20
0.0
 30
0.0
  3
*Model_Space
  1

  0
ENDBLK
  5
21
330
1F
100
AcDbEntity
  8
0
100
AcDbBlockEnd
  0
BLOCK
  5
1C
330
1B
100
AcDbEntity
 67
     1
  8
0
100
AcDbBlockBegin
  2
*Paper_Space
 70
     0
 10
0.0
 20
0.0
 30
0.0
  3
*Paper_Space
  1

  0
ENDBLK
  5
1D
330
1B
100
AcDbEntity
 67
     1
  8
0
100
AcDbBlockEnd
  0
BLOCK
  5
24
330
23
100
AcDbEntity
  8
0
100
AcDbBlockBegin
  2
*Paper_Space0
 70
     0
 10
0.0
 20
0.0
 30
0.0
  3
*Paper_Space0
  1

  0
ENDBLK
  5
25
330
23
100
AcDbEntity
  8
0
100
AcDbBlockEnd
  0
BLOCK
  5
80
330
7F
100
AcDbEntity
  8
0
100
AcDbBlockBegin
  2
블럭10
 70
     2
 10
0.0
 20
0.0
 30
0.0
  3
블럭10
  1

  0
ELLIPSE
  5
82
330
7F
100
AcDbEntity
  8
중심선
100
AcDbEllipse
 10
20.54032771741204
 20
12.0471743016438
 30
0.0
 11
6.600054785286829
 21
-1.261213355974178E-13
 31
0.0
210
0.0
220
0.0
230
1.0
 40
0.636358354079598
 41
0.9219305317359503
 42
6.513795318482858
  0
ELLIPSE
  5
83
330
7F
100
AcDbEntity
  8
중심선
100
AcDbEllipse
 10
20.54032771746488
 20
12.04717430159265
 30
0.0
 11
3.960054785062283
 21
1.540847449632565E-10
 31
0.0
210
0.0
220
0.0
230
1.0
 40
0.3939339440162632
 41
1.131841032648279
 42
5.62031148352944
  0
LINE
  5
84
330
7F
100
AcDbEntity
  8
중심선
100
AcDbLine
 10
2.268634060543552
 20
16.24717430164393
 30
0.0
 11
5.714909304380834
 21
16.24717430164393
 31
0.0
  0
LINE
  5
85
330
7F
100
AcDbEntity
  8
중심선
100
AcDbLine
 10
5.245725140726316
 20
7.84717430164391
 30
0.0
 11
8.692000384563599
 21
7.84717430164391
 31
0.0
  0
LINE
  5
86
330
7F
100
AcDbEntity
  8
중심선
100
AcDbLine
 10
15.74043728645272
 20
16.24717430164393
 30
0.0
 11
8.692000384563599
 21
7.84717430164391
 31
0.0
  0
LINE
  5
87
330
7F
100
AcDbEntity
  8
중심선
100
AcDbLine
 10
0.1404042013395286
 20
13.71084872107135
 30
0.0
 11
3.58671253028996
 21
13.71088815037384
 31
0.0
  0
LINE
  5
88
330
7F
100
AcDbEntity
  8
중심선
100
AcDbLine
 10
2.750260043222114
 20
10.84717430164391
 30
0.0
 11
6.196535287059397
 21
10.84717430164391
 31
0.0
  0
LINE
  5
89
330
7F
100
AcDbEntity
  8
중심선
100
AcDbLine
 10
12.29416204261559
 20
16.24717430164393
 30
0.0
 11
5.245725140726316
 21
7.84717430164391
 31
0.0
  0
LINE
  5
8A
330
7F
100
AcDbEntity
  8
중심선
100
AcDbLine
 10
10.72767329541681
 20
16.24717430164393
 30
0.0
 11
6.196535287059397
 21
10.84717430164391
 31
0.0
  0
LINE
  5
8B
330
7F
100
AcDbEntity
  8
중심선
100
AcDbLine
 10
7.28139805157953
 20
16.24717430164393
 30
0.0
 11
2.750260043222114
 21
10.84717430164391
 31
0.0
  0
LINE
  5
8C
330
7F
100
AcDbEntity
  8
중심선
100
AcDbLine
 10
5.714909304380834
 20
16.24717430164393
 30
0.0
 11
3.58671253028996
 21
13.71088815037384
 31
0.0
  0
LINE
  5
8D
330
7F
100
AcDbEntity
  8
중심선
100
AcDbLine
 10
2.268634060543552
 20
16.24717430164393
 30
0.0
 11
0.1404042013395286
 21
13.71084872107135
 31
0.0
  0
LINE
  5
8E
330
7F
100
AcDbEntity
  8
중심선
100
AcDbLine
 10
7.28139805157953
 20
16.24717430164393
 30
0.0
 11
10.72767329541681
 21
16.24717430164393
 31
0.0
  0
LINE
  5
8F
330
7F
100
AcDbEntity
  8
중심선
100
AcDbLine
 10
12.29416204261559
 20
16.24717430164393
 30
0.0
 11
15.74043728645272
 21
16.24717430164393
 31
0.0
  0
LINE
  5
90
330
7F
100
AcDbEntity
  8
중심선
100
AcDbLine
 10
19.22036997980202
 20
11.08717430171403
 30
0.0
 11
23.66174974927406
 21
11.08717430171406
 31
0.0
  0
LINE
  5
91
330
7F
100
AcDbEntity
  8
중심선
100
AcDbLine
 10
19.22039502424796
 20
13.00717430171391
 30
0.0
 11
19.22036997980202
 21
11.08717430171403
 31
0.0
  0
LINE
  5
92
330
7F
100
AcDbEntity
  8
중심선
100
AcDbLine
 10
19.22039502424796
 20
13.00717430171391
 30
0.0
 11
26.96566020931264
 21
13.00717430171391
 31
0.0
  0
LINE
  5
93
330
7F
100
AcDbEntity
  8
중심선
100
AcDbLine
 10
22.22332737316547
 20
13.45928029700563
 30
0.0
 11
24.52862924686651
 21
15.39360700705356
 31
0.0
  0
ATTDEF
  5
95
330
7F
100
AcDbEntity
  8
FORMAT
 62
     2
100
AcDbText
 10
4.408487351596664
 20
2.075366912832191
 30
0.0
 40
4.233333333333333
  1
E1003011
 41
0.75
  7
SLDTEXTSTYLE0
 11
4.408487351596664
 21
-0.0412997538344756
 31
0.0
100
AcDbAttributeDefinition
  3

  2
AUTOATTR0
 70
     0
 74
     1
  0
ENDBLK
  5
81
330
7F
100
AcDbEntity
  8
0
100
AcDbBlockEnd
  0
BLOCK
  5
E0
330
DF
100
AcDbEntity
  8
0
100
AcDbBlockBegin
  2
_D
 70
     0
 10
0.0
 20
0.0
 30
0.0
  3
_D
  1

  0
LINE
  5
E2
330
DF
100
AcDbEntity
  8
치수문자_일반주서
 62
     0
370
    -2
100
AcDbLine
 10
-14.19692116787305
 20
2.381249999999998
 30
0.0
 11
-38.575
 21
2.381249999999905
 31
0.0
  0
LINE
  5
E3
330
DF
100
AcDbEntity
  8
치수문자_일반주서
 62
     0
370
    -2
100
AcDbLine
 10
-14.19692116787305
 20
-2.381250000000005
 30
0.0
 11
-38.57499999999998
 21
-2.381250000000097
 31
0.0
  0
LINE
  5
E4
330
DF
100
AcDbEntity
  8
치수문자_일반주서
 62
     0
370
    -2
100
AcDbLine
 10
-38.575
 20
2.381249999999905
 30
0.0
 11
-38.5750000000001
 21
36.98524999999997
 31
0.0
  0
LINE
  5
E5
330
DF
100
AcDbEntity
  8
치수문자_일반주서
 62
     0
370
    -2
100
AcDbLine
 10
-38.575
 20
2.381249999999905
 30
0.0
 11
-38.57499999999998
 21
-2.381250000000097
 31
0.0
  0
LINE
  5
E6
330
DF
100
AcDbEntity
  8
치수문자_일반주서
 62
     0
370
    -2
100
AcDbLine
 10
-38.575
 20
5.683249999999905
 30
0.0
 11
-38.57500000000001
 21
8.985249999999905
 31
0.0
  0
LINE
  5
E7
330
DF
100
AcDbEntity
  8
치수문자_일반주서
 62
     0
370
    -2
100
AcDbLine
 10
-38.57499999999997
 20
-5.683250000000097
 30
0.0
 11
-38.57499999999997
 21
-8.985250000000097
 31
0.0
  0
SOLID
  5
E8
330
DF
100
AcDbEntity
  8
치수문자_일반주서
 62
     0
100
AcDbTrace
 10
-39.12533333333334
 20
5.683249999999903
 30
0.0
 11
-38.02466666666667
 21
5.683249999999907
 31
0.0
 12
-38.575
 22
2.381249999999905
 32
0.0
 13
-38.575
 23
2.381249999999905
 33
0.0
  0
SOLID
  5
E9
330
DF
100
AcDbEntity
  8
치수문자_일반주서
 62
     0
100
AcDbTrace
 10
-38.02466666666664
 20
-5.683250000000095
 30
0.0
 11
-39.12533333333331
 21
-5.683250000000099
 31
0.0
 12
-38.57499999999998
 22
-2.381250000000097
 32
0.0
 13
-38.57499999999998
 23
-2.381250000000097
 33
0.0
  0
MTEXT
  5
EA
330
DF
100
AcDbEntity
  8
치수문자_일반주서
 62
     0
100
AcDbMText
 10
-42.95000000000006
 20
22.98524999999995
 30
0.0
 40
3.5
 41
0.0
 71
     2
 72
     1
  1
\A1;%%c4.76 [3/16]
  7
SLDTEXTSTYLE0
 11
-2.983906501879684E-15
 21
1.0
 31
0.0
 73
     1
 44
1.0
  0
POINT
  5
1C6
330
DF
100
AcDbEntity
  8
Defpoints
 62
     0
100
AcDbPoint
 10
-14.13442116787305
 20
2.381249999999998
 30
0.0
  0
POINT
  5
1C7
330
DF
100
AcDbEntity
  8
Defpoints
 62
     0
100
AcDbPoint
 10
-14.13442116787305
 20
-2.381250000000005
 30
0.0
  0
POINT
  5
1C8
330
DF
100
AcDbEntity
  8
Defpoints
 62
     0
100
AcDbPoint
 10
-38.57499999999997
 20
-2.381250000000096
 30
0.0
  0
ENDBLK
  5
E1
330
DF
100
AcDbEntity
  8
0
100
AcDbBlockEnd
  0
BLOCK
  5
F4
330
F3
100
AcDbEntity
  8
0
100
AcDbBlockBegin
  2
_D_1
 70
     0
 10
0.0
 20
0.0
 30
0.0
  3
_D_1
  1

  0
LINE
  5
F6
330
F3
100
AcDbEntity
  8
치수문자_일반주서
 62
     0
370
    -2
100
AcDbLine
 10
28.63750000000002
 20
-2.180967620118456
 30
0.0
 11
62.69012326412965
 21
-2.180967620118327
 31
0.0
  0
LINE
  5
F7
330
F3
100
AcDbEntity
  8
치수문자_일반주서
 62
     0
370
    -2
100
AcDbLine
 10
28.63750000000002
 20
2.180967620118457
 30
0.0
 11
62.69012326412964
 21
2.180967620118587
 31
0.0
  0
LINE
  5
F8
330
F3
100
AcDbEntity
  8
치수문자_일반주서
 62
     0
370
    -2
100
AcDbLine
 10
62.69012326412964
 20
2.180967620118587
 30
0.0
 11
62.69012326412952
 21
38.53496762011859
 31
0.0
  0
LINE
  5
F9
330
F3
100
AcDbEntity
  8
치수문자_일반주서
 62
     0
370
    -2
100
AcDbLine
 10
62.69012326412965
 20
-2.180967620118327
 30
0.0
 11
62.69012326412964
 21
2.180967620118587
 31
0.0
  0
LINE
  5
FA
330
F3
100
AcDbEntity
  8
치수문자_일반주서
 62
     0
370
    -2
100
AcDbLine
 10
62.69012326412967
 20
-5.482967620118327
 30
0.0
 11
62.69012326412968
 21
-8.784967620118326
 31
0.0
  0
LINE
  5
FB
330
F3
100
AcDbEntity
  8
치수문자_일반주서
 62
     0
370
    -2
100
AcDbLine
 10
62.69012326412962
 20
5.482967620118586
 30
0.0
 11
62.69012326412961
 21
8.784967620118586
 31
0.0
  0
SOLID
  5
FC
330
F3
100
AcDbEntity
  8
치수문자_일반주서
 62
     0
100
AcDbTrace
 10
63.240456597463
 20
-5.482967620118325
 30
0.0
 11
62.13978993079633
 21
-5.482967620118329
 31
0.0
 12
62.69012326412965
 22
-2.180967620118327
 32
0.0
 13
62.69012326412965
 23
-2.180967620118327
 33
0.0
  0
SOLID
  5
FD
330
F3
100
AcDbEntity
  8
치수문자_일반주서
 62
     0
100
AcDbTrace
 10
62.13978993079629
 20
5.482967620118584
 30
0.0
 11
63.24045659746296
 21
5.482967620118588
 31
0.0
 12
62.69012326412964
 22
2.180967620118587
 32
0.0
 13
62.69012326412964
 23
2.180967620118587
 33
0.0
  0
MTEXT
  5
FE
330
F3
100
AcDbEntity
  8
치수문자_일반주서
 62
     0
100
AcDbMText
 10
58.31512326412957
 20
23.65996762011857
 30
0.0
 40
3.5
 41
0.0
 71
     2
 72
     1
  1
\A1;%%c4.36 [11/64]
  7
SLDTEXTSTYLE0
 11
-3.257924277305447E-15
 21
1.0
 31
0.0
 73
     1
 44
1.0
  0
POINT
  5
FF
330
F3
100
AcDbEntity
  8
Defpoints
 62
     0
100
AcDbPoint
 10
28.57500000000002
 20
-2.180967620118456
 30
0.0
  0
POINT
  5
100
330
F3
100
AcDbEntity
  8
Defpoints
 62
     0
100
AcDbPoint
 10
28.57500000000002
 20
2.180967620118457
 30
0.0
  0
POINT
  5
101
330
F3
100
AcDbEntity
  8
Defpoints
 62
     0
100
AcDbPoint
 10
62.69012326412964
 20
2.180967620118584
 30
0.0
  0
ENDBLK
  5
F5
330
F3
100
AcDbEntity
  8
0
100
AcDbBlockEnd
  0
BLOCK
  5
109
330
108
100
AcDbEntity
  8
0
100
AcDbBlockBegin
  2
_D_2
 70
     0
 10
0.0
 20
0.0
 30
0.0
  3
_D_2
  1

  0
LINE
  5
10B
330
108
100
AcDbEntity
  8
치수문자_일반주서
 62
     0
370
    -2
100
AcDbLine
 10
28.57500000000002
 20
2.243467620118457
 30
0.0
 11
28.57500000000002
 21
12.38125
 31
0.0
  0
LINE
  5
10C
330
108
100
AcDbEntity
  8
치수문자_일반주서
 62
     0
370
    -2
100
AcDbLine
 10
15.87500000000007
 20
1.595290351805907
 30
0.0
 11
15.87500000000007
 21
12.38125
 31
0.0
  0
LINE
  5
10D
330
108
100
AcDbEntity
  8
치수문자_일반주서
 62
     0
370
    -2
100
AcDbLine
 10
28.57500000000002
 20
12.38125
 30
0.0
 11
57.05400000000002
 21
12.38125
 31
0.0
  0
LINE
  5
10E
330
108
100
AcDbEntity
  8
치수문자_일반주서
 62
     0
370
    -2
100
AcDbLine
 10
28.57500000000002
 20
12.38125
 30
0.0
 11
15.87500000000007
 21
12.38125
 31
0.0
  0
LINE
  5
10F
330
108
100
AcDbEntity
  8
치수문자_일반주서
 62
     0
370
    -2
100
AcDbLine
 10
31.87700000000002
 20
12.38125
 30
0.0
 11
35.17900000000002
 21
12.38125
 31
0.0
  0
LINE
  5
110
330
108
100
AcDbEntity
  8
치수문자_일반주서
 62
     0
370
    -2
100
AcDbLine
 10
12.57300000000007
 20
12.38125
 30
0.0
 11
9.271000000000072
 21
12.38125
 31
0.0
  0
SOLID
  5
111
330
108
100
AcDbEntity
  8
치수문자_일반주서
 62
     0
100
AcDbTrace
 10
31.87700000000002
 20
12.93158333333333
 30
0.0
 11
31.87700000000002
 21
11.83091666666666
 31
0.0
 12
28.57500000000002
 22
12.38125
 32
0.0
 13
28.57500000000002
 23
12.38125
 33
0.0
  0
SOLID
  5
112
330
108
100
AcDbEntity
  8
치수문자_일반주서
 62
     0
100
AcDbTrace
 10
12.57300000000007
 20
11.83091666666666
 30
0.0
 11
12.57300000000007
 21
12.93158333333333
 31
0.0
 12
15.87500000000007
 22
12.38125
 32
0.0
 13
15.87500000000007
 23
12.38125
 33
0.0
  0
MTEXT
  5
113
330
108
100
AcDbEntity
  8
치수문자_일반주서
 62
     0
100
AcDbMText
 10
46.11650000000002
 20
16.75624999999999
 30
0.0
 40
3.5
 41
0.0
 71
     2
 72
     1
  1
\A1;12.7 [1/2]
  7
SLDTEXTSTYLE0
 73
     1
 44
1.0
  0
POINT
  5
114
330
108
100
AcDbEntity
  8
Defpoints
 62
     0
100
AcDbPoint
 10
28.57500000000002
 20
2.180967620118457
 30
0.0
  0
POINT
  5
115
330
108
100
AcDbEntity
  8
Defpoints
 62
     0
100
AcDbPoint
 10
15.87500000000007
 20
1.532790351805907
 30
0.0
  0
POINT
  5
116
330
108
100
AcDbEntity
  8
Defpoints
 62
     0
100
AcDbPoint
 10
15.87500000000007
 20
12.38125
 30
0.0
  0
ENDBLK
  5
10A
330
108
100
AcDbEntity
  8
0
100
AcDbBlockEnd
  0
BLOCK
  5
11E
330
11D
100
AcDbEntity
  8
0
100
AcDbBlockBegin
  2
_D_3
 70
     0
 10
0.0
 20
0.0
 30
0.0
  3
_D_3
  1

  0
LINE
  5
120
330
11D
100
AcDbEntity
  8
치수문자_일반주서
 62
     0
370
    -2
100
AcDbLine
 10
-28.575
 20
2.243467620118454
 30
0.0
 11
-28.575
 21
22.38125000000001
 31
0.0
  0
LINE
  5
121
330
11D
100
AcDbEntity
  8
치수문자_일반주서
 62
     0
370
    -2
100
AcDbLine
 10
28.57500000000002
 20
2.243467620118457
 30
0.0
 11
28.57500000000002
 21
22.38125000000001
 31
0.0
  0
LINE
  5
122
330
11D
100
AcDbEntity
  8
치수문자_일반주서
 62
     0
370
    -2
100
AcDbLine
 10
-25.273
 20
22.38125000000001
 30
0.0
 11
25.27300000000002
 21
22.38125000000001
 31
0.0
  0
SOLID
  5
123
330
11D
100
AcDbEntity
  8
치수문자_일반주서
 62
     0
100
AcDbTrace
 10
-25.273
 20
22.93158333333334
 30
0.0
 11
-25.273
 21
21.83091666666667
 31
0.0
 12
-28.575
 22
22.38125000000001
 32
0.0
 13
-28.575
 23
22.38125000000001
 33
0.0
  0
SOLID
  5
124
330
11D
100
AcDbEntity
  8
치수문자_일반주서
 62
     0
100
AcDbTrace
 10
25.27300000000002
 20
21.83091666666667
 30
0.0
 11
25.27300000000002
 21
22.93158333333334
 31
0.0
 12
28.57500000000002
 22
22.38125000000001
 32
0.0
 13
28.57500000000002
 23
22.38125000000001
 33
0.0
  0
MTEXT
  5
125
330
11D
100
AcDbEntity
  8
치수문자_일반주서
 62
     0
100
AcDbMText
 10
0.000000000000016
 20
26.75625000000001
 30
0.0
 40
3.5
 41
0.0
 71
     2
 72
     1
  1
\A1;57.15 [2 1/4]
  7
SLDTEXTSTYLE0
 73
     1
 44
1.0
  0
POINT
  5
126
330
11D
100
AcDbEntity
  8
Defpoints
 62
     0
100
AcDbPoint
 10
-28.575
 20
2.180967620118454
 30
0.0
  0
POINT
  5
127
330
11D
100
AcDbEntity
  8
Defpoints
 62
     0
100
AcDbPoint
 10
28.57500000000002
 20
2.180967620118457
 30
0.0
  0
POINT
  5
128
330
11D
100
AcDbEntity
  8
Defpoints
 62
     0
100
AcDbPoint
 10
28.57500000000002
 20
22.38125000000001
 30
0.0
  0
ENDBLK
  5
11F
330
11D
100
AcDbEntity
  8
0
100
AcDbBlockEnd
  0
BLOCK
  5
137
330
136
100
AcDbEntity
  8
0
100
AcDbBlockBegin
  2
SW_DOWELSYMBOL_0
 70
     0
 10
0.0
 20
0.0
 30
0.0
  3
SW_DOWELSYMBOL_0
  1

  0
CIRCLE
  5
139
330
136
100
AcDbEntity
  8
해칭선
 62
     0
100
AcDbCircle
 10
0.0
 20
0.0
 30
0.0
 40
3.000000000000001
  0
HATCH
  5
13A
330
136
100
AcDbEntity
  8
0
  6
Continuous
 62
     0
370
     0
100
AcDbHatch
 10
0.0
 20
0.0
 30
0.0
210
0.0
220
0.0
230
1.0
  2
SOLID
 70
     1
 71
     0
 91
        1
 92
        0
 93
        3
 72
     2
 10
0.0
 20
0.0
 40
3.000000000000001
 50
0.0
 51
90.0
 73
     1
 72
     1
 10
0.0
 20
3.000000000000001
 11
0.0
 21
0.0
 72
     1
 10
0.0
 20
0.0
 11
3.000000000000001
 21
0.0
 97
        0
 75
     0
 76
     1
 98
        1
 10
0.0
 20
0.0
  0
HATCH
  5
13B
330
136
100
AcDbEntity
  8
0
  6
Continuous
 62
     0
370
     0
100
AcDbHatch
 10
0.0
 20
0.0
 30
0.0
210
0.0
220
0.0
230
1.0
  2
SOLID
 70
     1
 71
     0
 91
        1
 92
        0
 93
        3
 72
     2
 10
0.0
 20
0.0
 40
3.000000000000001
 50
180.0
 51
270.0000000000007
 73
     1
 72
     1
 10
0.0
 20
-3.000000000000001
 11
0.0
 21
0.0
 72
     1
 10
0.0
 20
0.0
 11
-3.000000000000001
 21
0.0
 97
        0
 75
     0
 76
     1
 98
        1
 10
0.0
 20
0.0
  0
ENDBLK
  5
138
330
136
100
AcDbEntity
  8
0
100
AcDbBlockEnd
  0
BLOCK
  5
19C
330
19B
100
AcDbEntity
  8
0
100
AcDbBlockBegin
  2
*D7
 70
     1
 10
0.0
 20
0.0
 30
0.0
  3
*D7
  1

  0
LINE
  5
19E
330
19B
100
AcDbEntity
  8
치수문자_일반주서
 62
     0
370
    -2
100
AcDbLine
 10
16.129
 20
3.155101899082702
 30
0.0
 11
16.129
 21
13.88769362990564
 31
0.0
  0
LINE
  5
19F
330
19B
100
AcDbEntity
  8
치수문자_일반주서
 62
     0
370
    -2
100
AcDbLine
 10
6.603999999999999
 20
2.633059590344414
 30
0.0
 11
6.603999999999999
 21
13.88769362990564
 31
0.0
  0
LINE
  5
1A0
330
19B
100
AcDbEntity
  8
치수문자_일반주서
 62
     0
370
    -2
100
AcDbLine
 10
16.129
 20
13.88769362990564
 30
0.0
 11
46.358
 21
13.88769362990564
 31
0.0
  0
LINE
  5
1A1
330
19B
100
AcDbEntity
  8
치수문자_일반주서
 62
     0
370
    -2
100
AcDbLine
 10
16.129
 20
13.88769362990564
 30
0.0
 11
6.603999999999999
 21
13.88769362990564
 31
0.0
  0
LINE
  5
1A2
330
19B
100
AcDbEntity
  8
치수문자_일반주서
 62
     0
370
    -2
100
AcDbLine
 10
19.431
 20
13.88769362990564
 30
0.0
 11
22.733
 21
13.88769362990564
 31
0.0
  0
LINE
  5
1A3
330
19B
100
AcDbEntity
  8
치수문자_일반주서
 62
     0
370
    -2
100
AcDbLine
 10
3.302
 20
13.88769362990564
 30
0.0
 11
0.0
 21
13.88769362990564
 31
0.0
  0
SOLID
  5
1A4
330
19B
100
AcDbEntity
  8
치수문자_일반주서
 62
     0
100
AcDbTrace
 10
19.431
 20
14.43802696323897
 30
0.0
 11
19.431
 21
13.3373602965723
 31
0.0
 12
16.129
 22
13.88769362990564
 32
0.0
 13
16.129
 23
13.88769362990564
 33
0.0
  0
SOLID
  5
1A5
330
19B
100
AcDbEntity
  8
치수문자_일반주서
 62
     0
100
AcDbTrace
 10
3.302
 20
13.3373602965723
 30
0.0
 11
3.302
 21
14.43802696323897
 31
0.0
 12
6.603999999999999
 22
13.88769362990564
 32
0.0
 13
6.603999999999999
 23
13.88769362990564
 33
0.0
  0
MTEXT
  5
1A6
330
19B
100
AcDbEntity
  8
치수문자_일반주서
 62
     0
100
AcDbMText
 10
34.5455
 20
18.26269362990564
 30
0.0
 40
3.5
 41
0.0
 71
     2
 72
     1
  1
\A1;9.53 [3/8]
  7
SLDTEXTSTYLE0
 73
     1
 44
1.0
  0
POINT
  5
1A7
330
19B
100
AcDbEntity
  8
Defpoints
 62
     0
100
AcDbPoint
 10
16.129
 20
3.092601899082702
 30
0.0
  0
POINT
  5
1A8
330
19B
100
AcDbEntity
  8
Defpoints
 62
     0
100
AcDbPoint
 10
6.603999999999999
 20
2.570559590344414
 30
0.0
  0
POINT
  5
1A9
330
19B
100
AcDbEntity
  8
Defpoints
 62
     0
100
AcDbPoint
 10
6.603999999999999
 20
13.88769362990564
 30
0.0
  0
ENDBLK
  5
19D
330
19B
100
AcDbEntity
  8
0
100
AcDbBlockEnd
  0
BLOCK
  5
1AE
330
1AD
100
AcDbEntity
  8
0
100
AcDbBlockBegin
  2
*D8
 70
     1
 10
0.0
 20
0.0
 30
0.0
  3
*D8
  1

  0
LINE
  5
1B0
330
1AD
100
AcDbEntity
  8
치수문자_일반주서
 62
     0
370
    -2
100
AcDbLine
 10
84.21496339302963
 20
-10.39589691716214
 30
0.0
 11
84.21496339302963
 21
0.3366948136607952
 31
0.0
  0
LINE
  5
1B1
330
1AD
100
AcDbEntity
  8
치수문자_일반주서
 62
     0
370
    -2
100
AcDbLine
 10
74.68996339302963
 20
-10.91793922590043
 30
0.0
 11
74.68996339302963
 21
0.3366948136607952
 31
0.0
  0
LINE
  5
1B2
330
1AD
100
AcDbEntity
  8
치수문자_일반주서
 62
     0
370
    -2
100
AcDbLine
 10
84.21496339302963
 20
0.3366948136607952
 30
0.0
 11
114.4439633930296
 21
0.3366948136607952
 31
0.0
  0
LINE
  5
1B3
330
1AD
100
AcDbEntity
  8
치수문자_일반주서
 62
     0
370
    -2
100
AcDbLine
 10
84.21496339302963
 20
0.3366948136607952
 30
0.0
 11
74.68996339302963
 21
0.3366948136607952
 31
0.0
  0
LINE
  5
1B4
330
1AD
100
AcDbEntity
  8
치수문자_일반주서
 62
     0
370
    -2
100
AcDbLine
 10
87.51696339302964
 20
0.3366948136607952
 30
0.0
 11
90.81896339302963
 21
0.3366948136607952
 31
0.0
  0
LINE
  5
1B5
330
1AD
100
AcDbEntity
  8
치수문자_일반주서
 62
     0
370
    -2
100
AcDbLine
 10
71.38796339302962
 20
0.3366948136607952
 30
0.0
 11
68.08596339302963
 21
0.3366948136607952
 31
0.0
  0
SOLID
  5
1B6
330
1AD
100
AcDbEntity
  8
치수문자_일반주서
 62
     0
100
AcDbTrace
 10
87.51696339302964
 20
0.8870281469941285
 30
0.0
 11
87.51696339302964
 21
-0.213638519672538
 31
0.0
 12
84.21496339302963
 22
0.3366948136607952
 32
0.0
 13
84.21496339302963
 23
0.3366948136607952
 33
0.0
  0
SOLID
  5
1B7
330
1AD
100
AcDbEntity
  8
치수문자_일반주서
 62
     0
100
AcDbTrace
 10
71.38796339302962
 20
-0.213638519672538
 30
0.0
 11
71.38796339302962
 21
0.8870281469941285
 31
0.0
 12
74.68996339302963
 22
0.3366948136607952
 32
0.0
 13
74.68996339302963
 23
0.3366948136607952
 33
0.0
  0
MTEXT
  5
1B8
330
1AD
100
AcDbEntity
  8
치수문자_일반주서
 62
     0
100
AcDbMText
 10
102.6314633930296
 20
4.711694813660795
 30
0.0
 40
3.5
 41
0.0
 71
     2
 72
     1
  1
\A1;9.53 [3/8]
  7
SLDTEXTSTYLE0
 73
     1
 44
1.0
  0
POINT
  5
1B9
330
1AD
100
AcDbEntity
  8
Defpoints
 62
     0
100
AcDbPoint
 10
84.21496339302963
 20
-10.45839691716214
 30
0.0
  0
POINT
  5
1BA
330
1AD
100
AcDbEntity
  8
Defpoints
 62
     0
100
AcDbPoint
 10
74.68996339302963
 20
-10.98043922590043
 30
0.0
  0
POINT
  5
1BB
330
1AD
100
AcDbEntity
  8
Defpoints
 62
     0
100
AcDbPoint
 10
74.68996339302963
 20
0.3366948136607952
 30
0.0
  0
ENDBLK
  5
1AF
330
1AD
100
AcDbEntity
  8
0
100
AcDbBlockEnd
  0
ENDSEC
  0
SECTION
  2
ENTITIES
  0
LINE
  5
96
330
1F
100
AcDbEntity
  8
외형선
  6
Continuous
370
    15
100
AcDbLine
 10
14.13442116787306
 20
2.38125
 30
0.0
 11
-14.13442116787305
 21
2.381249999999998
 31
0.0
  0
LINE
  5
97
330
1F
100
AcDbEntity
  8
외형선
  6
Continuous
370
    15
100
AcDbLine
 10
-14.13442116787306
 20
-2.38125
 30
0.0
 11
14.13442116787306
 21
-2.381249999999998
 31
0.0
  0
LINE
  5
98
330
1F
100
AcDbEntity
  8
외형선
  6
Continuous
370
    15
100
AcDbLine
 10
14.13442116787306
 20
-2.38125
 30
0.0
 11
14.87500000000001
 21
-2.182812499999999
 31
0.0
  0
LINE
  5
99
330
1F
100
AcDbEntity
  8
외형선
  6
Continuous
370
    15
100
AcDbLine
 10
14.87500000000001
 20
2.182812500000001
 30
0.0
 11
14.13442116787306
 21
2.381250000000001
 31
0.0
  0
LINE
  5
9C
330
1F
100
AcDbEntity
  8
외형선
  6
Continuous
370
    15
100
AcDbLine
 10
14.98495716263087
 20
2.182812500000001
 30
0.0
 11
14.87500000000001
 21
2.182812500000001
 31
0.0
  0
LINE
  5
9D
330
1F
100
AcDbEntity
  8
외형선
  6
Continuous
370
    15
100
AcDbLine
 10
14.87500000000001
 20
-2.182812499999999
 30
0.0
 11
14.98495716263087
 21
-2.182812499999999
 31
0.0
  0
SPLINE
  5
9E
330
1F
100
AcDbEntity
  8
외형선
  6
Continuous
370
    15
100
AcDbSpline
210
0.0
220
0.0
230
1.0
 70
     8
 71
     3
 72
     9
 73
     5
 74
     0
 42
0.000000001
 43
0.00000001
 40
0.0
 40
0.0
 40
0.0
 40
0.0
 40
0.556771621364947
 40
1.0
 40
1.0
 40
1.0
 40
1.0
 10
15.87499999999995
 20
1.487825713884127
 30
0.0
 10
15.70801025605751
 20
1.476592549206374
 30
0.0
 10
15.40808522838985
 20
1.456417015384778
 30
0.0
 10
15.11489608963066
 20
1.446298412662169
 30
0.0
 10
14.98494634302502
 20
1.441813560783374
 30
0.0
  0
SPLINE
  5
9F
330
1F
100
AcDbEntity
  8
0
  6
Continuous
 62
     1
370
    15
100
AcDbSpline
210
0.0
220
0.0
230
1.0
 70
     8
 71
     3
 72
     9
 73
     5
 74
     0
 42
0.000000001
 43
0.00000001
 40
0.0
 40
0.0
 40
0.0
 40
0.0
 40
0.4369729354008562
 40
1.0
 40
1.0
 40
1.0
 40
1.0
 10
22.92059382959933
 20
0.559307823615917
 30
0.0
 10
22.83218199289715
 20
0.6012620526133305
 30
0.0
 10
22.62985404638243
 20
0.6972730995193068
 30
0.0
 10
22.42753145462994
 20
0.8028092715312087
 30
0.0
 10
22.31361835969344
 20
0.8622289926681002
 30
0.0
1001
PE_URL
1000

  0
LINE
  5
A0
330
1F
100
AcDbEntity
  8
0
  6
Continuous
 62
     1
370
    15
100
AcDbLine
 10
17.9106912447685
 20
2.182812500000002
 30
0.0
 11
16.85320164365944
 21
2.182812500000002
 31
0.0
1001
PE_URL
1000

  0
SPLINE
  5
A1
330
1F
100
AcDbEntity
  8
0
  6
Continuous
 62
     1
370
    15
100
AcDbSpline
210
0.0
220
0.0
230
1.0
 70
     8
 71
     3
 72
    15
 73
    11
 74
     0
 42
0.000000001
 43
0.00000001
 40
0.0
 40
0.0
 40
0.0
 40
0.0
 40
0.2108306915643941
 40
0.3681070384333746
 40
0.4737433361319343
 40
0.5712399573109602
 40
0.6727407141575361
 40
0.7758754372810106
 40
0.8795934951262596
 40
0.9999999999999999
 40
0.9999999999999999
 40
0.9999999999999999
 40
0.9999999999999999
 10
22.19773225122544
 20
1.734545597278719
 30
0.0
 10
22.07173171857674
 20
1.728418934821819
 30
0.0
 10
21.85173679008611
 20
1.717721879493887
 30
0.0
 10
21.56921650815642
 20
1.709893665802721
 30
0.0
 10
21.35578962052875
 20
1.706161720896088
 30
0.0
 10
21.17513691537226
 20
1.704605281776689
 30
0.0
 10
20.99540400562494
 20
1.704577199392532
 30
0.0
 10
20.81189850816476
 20
1.706288901575339
 30
0.0
 10
20.61705813799363
 20
1.709506099542196
 30
0.0
 10
20.48360201041733
 20
1.713914577026994
 30
0.0
 10
20.41190533567314
 20
1.716282944685225
 30
0.0
1001
PE_URL
1000

  0
SPLINE
  5
A2
330
1F
100
AcDbEntity
  8
0
  6
Continuous
 62
     1
370
    15
100
AcDbSpline
210
0.0
220
0.0
230
1.0
 70
     8
 71
     3
 72
    18
 73
    14
 74
     0
 42
0.000000001
 43
0.00000001
 40
0.0
 40
0.0
 40
0.0
 40
0.0
 40
0.1139255693738903
 40
0.1991462113427989
 40
0.2550916250791509
 40
0.3000024666496758
 40
0.3453497676367305
 40
0.5275723787312218
 40
0.6102063890346318
 40
0.6889190873025198
 40
0.7594988018973557
 40
0.8588345980122304
 40
1.0
 40
1.0
 40
1.0
 40
1.0
 10
18.91489325647494
 20
-1.816406196872455
 30
0.0
 10
19.0396823513092
 20
-1.804446430906024
 30
0.0
 10
19.25781841672206
 20
-1.783540306900227
 30
0.0
 10
19.53689762785087
 20
-1.762023723774909
 30
0.0
 10
19.74042989619375
 20
-1.748187240444246
 30
0.0
 10
19.90036309140881
 20
-1.738513249220571
 30
0.0
 10
20.198317653843
 20
-1.722491674792036
 30
0.0
 10
20.53794046247869
 20
-1.710416742723613
 30
0.0
 10
20.91382735832426
 20
-1.704825836833281
 30
0.0
 10
21.16744792786924
 20
-1.704320932623393
 30
0.0
 10
21.43951267050779
 20
-1.707120946190188
 30
0.0
 10
21.7797448798092
 20
-1.714723425988223
 30
0.0
 10
22.04313304003482
 20
-1.727214055095488
 30
0.0
 10
22.19773225122544
 20
-1.734545597278718
 30
0.0
1001
PE_URL
1000

  0
SPLINE
  5
A3
330
1F
100
AcDbEntity
  8
0
  6
Continuous
 62
     1
370
    15
100
AcDbSpline
210
0.0
220
0.0
230
1.0
 70
     8
 71
     3
 72
    14
 73
    10
 74
     0
 42
0.000000001
 43
0.00000001
 40
0.0
 40
0.0
 40
0.0
 40
0.0
 40
0.2343484612562773
 40
0.4019957761994164
 40
0.5304740307719495
 40
0.6585750076882103
 40
0.7840469278728526
 40
0.9057019780588956
 40
1.0
 40
1.0
 40
1.0
 40
1.0
 10
23.9515844242595
 20
-1.641729237521786
 30
0.0
 10
24.07861294573038
 20
-1.622407859879137
 30
0.0
 10
24.29651464994643
 20
-1.589264428251458
 30
0.0
 10
24.58370716522327
 20
-1.552599969097647
 30
0.0
 10
24.81391210313511
 20
-1.526371446756751
 30
0.0
 10
25.02106590565744
 20
-1.505407245553495
 30
0.0
 10
25.2244254106926
 20
-1.487473629009192
 30
0.0
 10
25.40924997074631
 20
-1.473117066470062
 30
0.0
 10
25.52625956792877
 20
-1.466126234618782
 30
0.0
 10
25.57735295342104
 20
-1.463073619488999
 30
0.0
1001
PE_URL
1000

  0
SPLINE
  5
A4
330
1F
100
AcDbEntity
  8
0
  6
Continuous
 62
     1
370
    15
100
AcDbSpline
210
0.0
220
0.0
230
1.0
 70
     8
 71
     3
 72
     9
 73
     5
 74
     0
 42
0.000000001
 43
0.00000001
 40
0.0
 40
0.0
 40
0.0
 40
0.0
 40
0.4999418564678219
 40
0.9999999999999999
 40
0.9999999999999999
 40
0.9999999999999999
 40
0.9999999999999999
 10
16.07834247545708
 20
1.507545689880062
 30
0.0
 10
16.04440124295253
 20
1.504113910363466
 30
0.0
 10
15.97651088317278
 20
1.49724955309432
 30
0.0
 10
15.90883958415646
 20
1.490967237138218
 30
0.0
 10
15.87499999999995
 20
1.487825713884127
 30
0.0
1001
PE_URL
1000

  0
SPLINE
  5
A5
330
1F
100
AcDbEntity
  8
0
  6
Continuous
 62
     1
370
    15
100
AcDbSpline
210
0.0
220
0.0
230
1.0
 70
     8
 71
     3
 72
    19
 73
    15
 74
     0
 42
0.000000001
 43
0.00000001
 40
0.0
 40
0.0
 40
0.0
 40
0.0
 40
0.1000062161918216
 40
0.1740323918031171
 40
0.2233183854596662
 40
0.2681019036869906
 40
0.3144380539042225
 40
0.495256372941809
 40
0.6049420079392984
 40
0.7168010604554528
 40
0.7599262227669155
 40
0.8186923705064839
 40
0.898803963283746
 40
1.0
 40
1.0
 40
1.0
 40
1.0
 10
27.76719427044511
 20
1.4932826868123
 30
0.0
 10
27.63905097340981
 20
1.483067939800337
 30
0.0
 10
27.41605399056413
 20
1.465292076240557
 30
0.0
 10
27.13108479871152
 20
1.450803624238944
 30
0.0
 10
26.91917127553338
 20
1.4430773071408
 30
0.0
 10
26.74182974098931
 20
1.438731796804718
 30
0.0
 10
26.39617510005019
 20
1.4342155834142
 30
0.0
 10
25.96781619590445
 20
1.441290835830212
 30
0.0
 10
25.45690555748192
 20
1.468379254099543
 30
0.0
 10
25.11978865119376
 20
1.49584941146523
 30
0.0
 10
24.84793623916035
 20
1.522800568950018
 30
0.0
 10
24.61662667614958
 20
1.548519088196874
 30
0.0
 10
24.31148418760571
 20
1.587023431255797
 30
0.0
 10
24.08050462609048
 20
1.622132993502162
 30
0.0
 10
23.9515844242595
 20
1.641729237521787
 30
0.0
1001
PE_URL
1000

  0
LINE
  5
A6
330
1F
100
AcDbEntity
  8
0
  6
Continuous
 62
     1
370
    15
100
AcDbLine
 10
16.85243372882503
 20
-2.1828125
 30
0.0
 11
17.9106912447685
 21
-2.1828125
 31
0.0
1001
PE_URL
1000

  0
LINE
  5
A7
330
1F
100
AcDbEntity
  8
외형선
  6
Continuous
370
    15
100
AcDbLine
 10
14.13442116787306
 20
2.381250000000001
 30
0.0
 11
14.13442116787306
 21
-2.381250000000001
 31
0.0
  0
LINE
  5
A9
330
1F
100
AcDbEntity
  8
외형선
  6
Continuous
370
    15
100
AcDbLine
 10
14.87500000000001
 20
2.182812500000001
 30
0.0
 11
14.87500000000001
 21
-2.182812500000002
 31
0.0
  0
SPLINE
  5
AB
330
1F
100
AcDbEntity
  8
외형선
  6
Continuous
370
    15
100
AcDbSpline
210
0.0
220
0.0
230
1.0
 70
     8
 71
     3
 72
    10
 73
     6
 74
     0
 42
0.000000001
 43
0.00000001
 40
0.0
 40
0.0
 40
0.0
 40
0.0
 40
0.5
 40
0.5
 40
1.0
 40
1.0
 40
1.0
 40
1.0
 10
14.98495716263087
 20
1.921855977208652
 30
0.0
 10
15.13408802320326
 20
1.962553373598755
 30
0.0
 10
15.28354008389821
 20
1.998806457626437
 30
0.0
 10
15.57998586028907
 20
2.061726676716336
 30
0.0
 10
15.7264232054355
 20
2.088393045852429
 30
0.0
 10
15.87500000000007
 20
2.110305073698815
 30
0.0
  0
SPLINE
  5
AC
330
1F
100
AcDbEntity
  8
외형선
  6
Continuous
370
    15
100
AcDbSpline
210
0.0
220
0.0
230
1.0
 70
     8
 71
     3
 72
    10
 73
     6
 74
     0
 42
0.000000001
 43
0.00000001
 40
0.0
 40
0.0
 40
0.0
 40
0.0
 40
0.4999999999999999
 40
0.4999999999999999
 40
1.0
 40
1.0
 40
1.0
 40
1.0
 10
15.87500000000011
 20
-1.87413744668908
 30
0.0
 10
15.72641574429445
 20
-1.830185579041003
 30
0.0
 10
15.57997109664229
 20
-1.782128565237855
 30
0.0
 10
15.28351018731355
 20
-1.677641000566046
 30
0.0
 10
15.13405051350248
 20
-1.621242839278018
 30
0.0
 10
14.98491222885161
 20
-1.56125291001969
 30
0.0
  0
LINE
  5
AD
330
1F
100
AcDbEntity
  8
외형선
  6
Continuous
370
    15
100
AcDbLine
 10
15.87500000000001
 20
-1.874137446689051
 30
0.0
 11
15.87500000000001
 21
-2.110305073698861
 31
0.0
  0
SPLINE
  5
AE
330
1F
100
AcDbEntity
  8
외형선
  6
Continuous
370
    15
100
AcDbSpline
210
0.0
220
0.0
230
1.0
 70
     8
 71
     3
 72
    10
 73
     6
 74
     0
 42
0.000000001
 43
0.00000001
 40
0.0
 40
0.0
 40
0.0
 40
0.0
 40
0.5
 40
0.5
 40
1.0
 40
1.0
 40
1.0
 40
1.0
 10
14.98495716263087
 20
-1.921855977208651
 30
0.0
 10
15.13408802320326
 20
-1.962553373598754
 30
0.0
 10
15.28354008389821
 20
-1.998806457626436
 30
0.0
 10
15.57998586028907
 20
-2.061726676716335
 30
0.0
 10
15.7264232054355
 20
-2.088393045852428
 30
0.0
 10
15.87500000000007
 20
-2.110305073698814
 30
0.0
  0
LINE
  5
AF
330
1F
100
AcDbEntity
  8
외형선
  6
Continuous
370
    15
100
AcDbLine
 10
14.98495716263087
 20
-2.182812499999999
 30
0.0
 11
14.98495716263087
 21
-1.921502282013182
 31
0.0
  0
LINE
  5
B0
330
1F
100
AcDbEntity
  8
외형선
  6
Continuous
370
    15
100
AcDbLine
 10
14.98495716263087
 20
-1.561187529813777
 30
0.0
 11
14.98495716263087
 21
2.182812500000001
 31
0.0
  0
SPLINE
  5
B1
330
1F
100
AcDbEntity
  8
외형선
  6
Continuous
370
    15
100
AcDbSpline
210
0.0
220
0.0
230
1.0
 70
     8
 71
     3
 72
    10
 73
     6
 74
     0
 42
0.000000001
 43
0.00000001
 40
0.0
 40
0.0
 40
0.0
 40
0.0
 40
0.5
 40
0.5
 40
1.0
 40
1.0
 40
1.0
 40
1.0
 10
15.87500000000014
 20
-1.532790351805923
 30
0.0
 10
15.72641574429447
 20
-1.49172813337554
 30
0.0
 10
15.57997109664231
 20
-1.447333016073836
 30
0.0
 10
15.28351018731356
 20
-1.351723991295387
 30
0.0
 10
15.13405051350249
 20
-1.300543195596172
 30
0.0
 10
14.98491222885161
 20
-1.246499082120017
 30
0.0
  0
SPLINE
  5
B2
330
1F
100
AcDbEntity
  8
외형선
  6
Continuous
370
    15
100
AcDbSpline
210
0.0
220
0.0
230
1.0
 70
     8
 71
     3
 72
    10
 73
     6
 74
     0
 42
0.000000001
 43
0.00000001
 40
0.0
 40
0.0
 40
0.0
 40
0.0
 40
0.5
 40
0.5
 40
1.0
 40
1.0
 40
1.0
 40
1.0
 10
15.87500000000007
 20
0.376568649104633
 30
0.0
 10
15.72642048212905
 20
0.4435384663336562
 30
0.0
 10
15.57998047157946
 20
0.5093196628548096
 30
0.0
 10
15.28352917168772
 20
0.6387606862878598
 30
0.0
 10
15.13407433221508
 20
0.7023289240615405
 30
0.0
 10
14.98494076185963
 20
0.7640752082323247
 30
0.0
  0
SPLINE
  5
B3
330
1F
100
AcDbEntity
  8
외형선
  6
Continuous
370
    15
100
AcDbSpline
210
0.0
220
0.0
230
1.0
 70
    24
 71
     3
 72
    10
 73
     6
 74
     0
 42
0.000000001
 43
0.00000001
 40
0.0
 40
0.0
 40
0.0
 40
0.0
 40
0.4999999999999999
 40
0.4999999999999999
 40
1.0
 40
1.0
 40
1.0
 40
1.0
 10
15.87500000000002
 20
0.3765686491046602
 30
0.0
 10
15.87500000000002
 20
0.0416174031456304
 30
0.0
 10
15.87500000000002
 20
-0.31715450865824
 30
0.0
 10
15.87500000000002
 20
-0.9845700930615213
 30
0.0
 10
15.87500000000002
 20
-1.290340948074593
 30
0.0
 10
15.87500000000002
 20
-1.53279035180589
 30
0.0
  0
LINE
  5
B4
330
1F
100
AcDbEntity
  8
외형선
  6
Continuous
370
    15
100
AcDbLine
 10
15.85335424320251
 20
1.489147087983081
 30
0.0
 11
15.8162446767419
 21
1.484223955414208
 31
0.0
  0
SPLINE
  5
B5
330
1F
100
AcDbEntity
  8
외형선
  6
Continuous
370
    15
100
AcDbSpline
210
0.0
220
0.0
230
1.0
 70
    24
 71
     3
 72
    13
 73
     9
 74
     0
 42
0.000000001
 43
0.00000001
 40
0.0
 40
0.0
 40
0.0
 40
0.0
 40
0.1101836565284742
 40
0.2909267137166021
 40
0.4665759316843481
 40
0.6473189888724877
 40
0.8211916656662154
 40
1.0
 40
1.0
 40
1.0
 40
1.0
 10
15.87500000000001
 20
1.480094279574641
 30
0.0
 10
15.87500000000001
 20
1.475673427715327
 30
0.0
 10
15.87500000000001
 20
1.464000699256495
 30
0.0
 10
15.87500000000001
 20
1.369170696723884
 30
0.0
 10
15.87500000000001
 20
1.205901758027547
 30
0.0
 10
15.87500000000001
 20
0.98159875675714
 30
0.0
 10
15.87500000000001
 20
0.7061583328533991
 30
0.0
 10
15.87500000000001
 20
0.4874521181111019
 30
0.0
 10
15.87500000000001
 20
0.3765686491046625
 30
0.0
  0
SPLINE
  5
B6
330
1F
100
AcDbEntity
  8
외형선
  6
Continuous
370
    15
100
AcDbSpline
210
0.0
220
0.0
230
1.0
 70
    24
 71
     3
 72
     8
 73
     4
 74
     0
 42
0.000000001
 43
0.00000001
 40
0.0
 40
0.0
 40
0.0
 40
0.0
 40
1.0
 40
1.0
 40
1.0
 40
1.0
 10
15.87500000000001
 20
-1.53279035180589
 30
0.0
 10
15.87500000000001
 20
-1.644000112723444
 30
0.0
 10
15.87500000000001
 20
-1.7585023449686
 30
0.0
 10
15.87500000000001
 20
-1.874137446676706
 30
0.0
  0
SPLINE
  5
B7
330
1F
100
AcDbEntity
  8
외형선
  6
Continuous
370
    15
100
AcDbSpline
210
0.0
220
0.0
230
1.0
 70
    24
 71
     3
 72
    13
 73
     9
 74
     0
 42
0.000000001
 43
0.00000001
 40
0.0
 40
0.0
 40
0.0
 40
0.0
 40
0.0736859045961542
 40
0.3126373206814838
 40
0.5448544250097864
 40
0.7838058410951183
 40
0.9317507875101464
 40
0.9999999999999999
 40
0.9999999999999999
 40
0.9999999999999999
 40
0.9999999999999999
 10
15.87500000000001
 20
2.110305073698805
 30
0.0
 10
15.87500000000001
 20
2.094967818418478
 30
0.0
 10
15.87500000000001
 20
2.029894336268413
 30
0.0
 10
15.87500000000001
 20
1.91650117320474
 30
0.0
 10
15.87500000000001
 20
1.773442442613869
 30
0.0
 10
15.87500000000001
 20
1.656849278388889
 30
0.0
 10
15.87500000000001
 20
1.576535105826583
 30
0.0
 10
15.87500000000001
 20
1.542151386586608
 30
0.0
 10
15.87500000000001
 20
1.531296968629679
 30
0.0
  0
SPLINE
  5
B8
330
1F
100
AcDbEntity
  8
0
  6
Continuous
 62
     1
370
    15
100
AcDbSpline
210
0.0
220
0.0
230
1.0
 70
     8
 71
     3
 72
    19
 73
    15
 74
     0
 42
0.000000001
 43
0.00000001
 40
0.0
 40
0.0
 40
0.0
 40
0.0
 40
0.0834372877792405
 40
0.1667702613164307
 40
0.2500557066354773
 40
0.3333509788014087
 40
0.416713315057178
 40
0.5001804055981347
 40
0.5835756586954823
 40
0.6668859286495271
 40
0.7541485909621347
 40
0.8414213972383211
 40
0.9287313356461954
 40
1.0
 40
1.0
 40
1.0
 40
1.0
 10
28.57500000000002
 20
-2.071359991120256
 30
0.0
 10
28.27832801926579
 20
-2.006315772564507
 30
0.0
 10
27.68535496046724
 20
-1.876308654471626
 30
0.0
 10
26.79656285761703
 20
-1.547356099277588
 30
0.0
 10
25.90835513985682
 20
-1.141513387659652
 30
0.0
 10
25.02002075827708
 20
-0.6706677847603881
 30
0.0
 10
24.13092427675875
 20
-0.1633215909024591
 30
0.0
 10
23.24110145518509
 20
0.35272097473927
 30
0.0
 10
22.35172751113924
 20
0.849737847598641
 30
0.0
 10
21.44909536861088
 20
1.30687183638449
 30
0.0
 10
20.53257316866421
 20
1.696453423861187
 30
0.0
 10
19.60184749923484
 20
1.985849945889892
 30
0.0
 10
18.72790560339631
 20
2.158379447641002
 30
0.0
 10
18.16408462447265
 20
2.168383485929512
 30
0.0
 10
17.9106912447685
 20
2.172879517768296
 30
0.0
1001
PE_URL
1000

  0
SPLINE
  5
B9
330
1F
100
AcDbEntity
  8
0
  6
Continuous
 62
     1
370
    15
100
AcDbSpline
210
0.0
220
0.0
230
1.0
 70
     8
 71
     3
 72
    14
 73
    10
 74
     0
 42
0.000000001
 43
0.00000001
 40
0.0
 40
0.0
 40
0.0
 40
0.0
 40
0.1500259284262689
 40
0.2997865782273451
 40
0.4494791379223574
 40
0.5993019965495747
 40
0.7494060563683107
 40
0.8993276678590766
 40
1.0
 40
1.0
 40
1.0
 40
1.0
 10
28.57500000000002
 20
-1.722178520816246
 30
0.0
 10
28.29151069490128
 20
-1.662083153222938
 30
0.0
 10
27.72503335574346
 20
-1.541998679778294
 30
0.0
 10
26.87602586290767
 20
-1.260930473369487
 30
0.0
 10
26.02742314778433
 20
-0.9228369018674938
 30
0.0
 10
25.17810285329187
 20
-0.5362485289282964
 30
0.0
 10
24.32794414245608
 20
-0.1247823173033239
 30
0.0
 10
23.57091852283187
 20
0.2513581256850311
 30
0.0
 10
23.09758484787811
 20
0.4730769180416067
 30
0.0
 10
22.90743019271029
 20
0.5621490942583305
 30
0.0
1001
PE_URL
1000

  0
LINE
  5
BA
330
1F
100
AcDbEntity
  8
0
  6
Continuous
 62
     1
370
    15
100
AcDbLine
 10
28.57499999999994
 20
-2.071359991120257
 30
0.0
 11
28.57500000000002
 21
-1.722178520816246
 31
0.0
1001
PE_URL
1000

  0
SPLINE
  5
BB
330
1F
100
AcDbEntity
  8
0
  6
Continuous
 62
     1
370
    15
100
AcDbSpline
210
0.0
220
0.0
230
1.0
 70
     8
 71
     3
 72
    46
 73
    42
 74
     0
 42
0.000000001
 43
0.00000001
 40
0.0
 40
0.0
 40
0.0
 40
0.0
 40
0.0625
 40
0.0625
 40
0.1250000000000002
 40
0.1250000000000002
 40
0.1875000000000003
 40
0.1875000000000003
 40
0.2187500000000003
 40
0.2187500000000003
 40
0.2500000000000006
 40
0.2500000000000006
 40
0.3125000000000006
 40
0.3125000000000006
 40
0.3750000000000006
 40
0.3750000000000006
 40
0.4375000000000007
 40
0.4375000000000007
 40
0.4687500000000008
 40
0.4687500000000008
 40
0.5000000000000009
 40
0.5000000000000009
 40
0.5625000000000009
 40
0.5625000000000009
 40
0.5937500000000007
 40
0.5937500000000007
 40
0.6250000000000007
 40
0.6250000000000007
 40
0.6875000000000003
 40
0.6875000000000003
 40
0.7500000000000001
 40
0.7500000000000001
 40
0.8124999999999999
 40
0.8124999999999999
 40
0.8437499999999999
 40
0.8437499999999999
 40
0.8749999999999999
 40
0.8749999999999999
 40
0.9375
 40
0.9375
 40
1.0
 40
1.0
 40
1.0
 40
1.0
 10
15.87500000000008
 20
2.110305073698817
 30
0.0
 10
16.13980791314584
 20
2.149358806038369
 30
0.0
 10
16.40772214751667
 20
2.172881256534089
 30
0.0
 10
16.93226285329306
 20
2.187626093357981
 30
0.0
 10
17.19916864791157
 20
2.178976085471778
 30
0.0
 10
17.72956932513835
 20
2.129794837515798
 30
0.0
 10
17.99093313131379
 20
2.089525571151006
 30
0.0
 10
18.38972975699499
 20
2.006241923002872
 30
0.0
 10
18.52282738332559
 20
1.974711945666355
 30
0.0
 10
18.78715912686371
 20
1.904677148433752
 30
0.0
 10
18.9176228098151
 20
1.866267023107547
 30
0.0
 10
19.31398826889129
 20
1.74051706160219
 30
0.0
 10
19.58205670000391
 20
1.64275109824208
 30
0.0
 10
20.10830995078486
 20
1.425852958292183
 30
0.0
 10
20.37335617452781
 20
1.305858551332492
 30
0.0
 10
20.90445623263136
 20
1.04827028425909
 30
0.0
 10
21.16553812027312
 20
0.9115651905140526
 30
0.0
 10
21.56408445200905
 20
0.6968067287572728
 30
0.0
 10
21.69727862643961
 20
0.6237401501410259
 30
0.0
 10
21.96215814428993
 20
0.475860719358161
 30
0.0
 10
22.0928585151926
 20
0.4012385386815704
 30
0.0
 10
22.48820600080704
 20
0.1749722868836446
 30
0.0
 10
22.75630868721104
 20
0.020862515897827
 30
0.0
 10
23.1521138992089
 20
-0.2076397570316808
 30
0.0
 10
23.28266201768696
 20
-0.2833012198282027
 30
0.0
 10
23.54732057139083
 20
-0.4339886755140681
 30
0.0
 10
23.68048050800752
 20
-0.5088291554309782
 30
0.0
 10
24.07915566883699
 20
-0.7299757039889108
 30
0.0
 10
24.34031457233075
 20
-0.8722746500266408
 30
0.0
 10
24.87114296677413
 20
-1.143538292566719
 30
0.0
 10
25.13694400044817
 20
-1.271757534971418
 30
0.0
 10
25.66248990173911
 20
-1.506850036763817
 30
0.0
 10
25.9305068503992
 20
-1.614897704764737
 30
0.0
 10
26.32725658673883
 20
-1.757310424427073
 30
0.0
 10
26.45774562263881
 20
-1.801446086721708
 30
0.0
 10
26.72180716264864
 20
-1.883308979861998
 30
0.0
 10
26.85484537998567
 20
-1.920956188597399
 30
0.0
 10
27.25369572764262
 20
-2.023040748058012
 30
0.0
 10
27.51529046896594
 20
-2.076361086278912
 30
0.0
 10
28.04531998794613
 20
-2.152319433832712
 30
0.0
 10
28.31313133492353
 20
-2.174710304139685
 30
0.0
 10
28.57500000000002
 20
-2.180967620118454
 30
0.0
1001
PE_URL
1000

  0
SPLINE
  5
BC
330
1F
100
AcDbEntity
  8
0
  6
Continuous
 62
     1
370
    15
100
AcDbSpline
210
0.0
220
0.0
230
1.0
 70
     8
 71
     3
 72
    15
 73
    11
 74
     0
 42
0.000000001
 43
0.00000001
 40
0.0
 40
0.0
 40
0.0
 40
0.0
 40
0.032570488911987
 40
0.1928125828267949
 40
0.3530630838856335
 40
0.5133200201008373
 40
0.673581413339343
 40
0.7917409105705956
 40
0.9101480165290531
 40
0.9999999999999999
 40
0.9999999999999999
 40
0.9999999999999999
 40
0.9999999999999999
 10
23.14391125682517
 20
-0.2021557605470827
 30
0.0
 10
23.06717775637136
 20
-0.1721195037114411
 30
0.0
 10
22.61292653368261
 20
0.0056907918164723
 30
0.0
 10
21.78113345219256
 20
0.3494353077893804
 30
0.0
 10
20.64849787760909
 20
0.7782375009897213
 30
0.0
 10
19.51587684473165
 20
1.13968813437338
 30
0.0
 10
18.48219119749192
 20
1.377154844234796
 30
0.0
 10
17.5477688469646
 20
1.50028285961538
 30
0.0
 10
16.7787400749839
 20
1.542372600765276
 30
0.0
 10
16.28817824638703
 20
1.513244410827038
 30
0.0
 10
16.0765286447522
 20
1.500677249182186
 30
0.0
1001
PE_URL
1000

  0
SPLINE
  5
BD
330
1F
100
AcDbEntity
  8
외형선
  6
Continuous
370
    15
100
AcDbSpline
210
0.0
220
0.0
230
1.0
 70
    24
 71
     3
 72
    13
 73
     9
 74
     0
 42
0.000000001
 43
0.00000001
 40
0.0
 40
0.0
 40
0.0
 40
0.0
 40
0.0736859045961513
 40
0.312637320681482
 40
0.5448544250097844
 40
0.783805841095116
 40
0.9317507875101451
 40
1.0
 40
1.0
 40
1.0
 40
1.0
 10
15.87500000000001
 20
2.110305073698806
 30
0.0
 10
15.87500000000001
 20
2.09496781841848
 30
0.0
 10
15.87500000000002
 20
2.029894336268415
 30
0.0
 10
15.87500000000002
 20
1.916501173204741
 30
0.0
 10
15.87500000000001
 20
1.773442442613871
 30
0.0
 10
15.87500000000002
 20
1.65684927838889
 30
0.0
 10
15.87500000000001
 20
1.576535105826585
 30
0.0
 10
15.87500000000002
 20
1.542151386586609
 30
0.0
 10
15.87500000000002
 20
1.531296968629679
 30
0.0
  0
LINE
  5
BE
330
1F
100
AcDbEntity
  8
0
  6
Continuous
 62
     1
370
    15
100
AcDbLine
 10
28.57500000000002
 20
-2.180967620118456
 30
0.0
 11
28.57499999999986
 21
-2.071359991120252
 31
0.0
1001
PE_URL
1000

  0
SPLINE
  5
BF
330
1F
100
AcDbEntity
  8
0
  6
Continuous
 62
     1
370
    15
100
AcDbSpline
210
0.0
220
0.0
230
1.0
 70
     8
 71
     3
 72
     8
 73
     4
 74
     0
 42
0.000000001
 43
0.00000001
 40
0.0
 40
0.0
 40
0.0
 40
0.0
 40
1.0
 40
1.0
 40
1.0
 40
1.0
 10
27.22377037530583
 20
0.6112018266196729
 30
0.0
 10
27.14645019123443
 20
0.7028228990928422
 30
0.0
 10
27.07741771646471
 20
0.7910358002691478
 30
0.0
 10
27.0186440777241
 20
0.8750299397561774
 30
0.0
1001
PE_URL
1000

  0
LINE
  5
C0
330
1F
100
AcDbEntity
  8
0
  6
Continuous
 62
     1
370
    15
100
AcDbLine
 10
27.04625957379023
 20
0.8982020923200211
 30
0.0
 11
28.57500000000002
 21
0.0000000000000022
 31
0.0
1001
PE_URL
1000

  0
LINE
  5
C1
330
1F
100
AcDbEntity
  8
0
  6
Continuous
 62
     1
370
    15
100
AcDbLine
 10
28.57500000000002
 20
0.0000000000000022
 30
0.0
 11
28.57500000000002
 21
-0.5833412431303322
 31
0.0
1001
PE_URL
1000

  0
SPLINE
  5
C2
330
1F
100
AcDbEntity
  8
0
  6
Continuous
 62
     1
370
    15
100
AcDbSpline
210
0.0
220
0.0
230
1.0
 70
     8
 71
     3
 72
    10
 73
     6
 74
     0
 42
0.000000001
 43
0.00000001
 40
0.0
 40
0.0
 40
0.0
 40
0.0
 40
0.5
 40
0.5
 40
1.0
 40
1.0
 40
1.0
 40
1.0
 10
28.57500000000002
 20
-0.583341243130332
 30
0.0
 10
28.34108965399492
 20
-0.3994465620390386
 30
0.0
 10
28.11108997950519
 20
-0.2080072785352077
 30
0.0
 10
27.65910341293784
 20
0.1903298247571111
 30
0.0
 10
27.43501505108799
 20
0.3993333841186742
 30
0.0
 10
27.22377037530583
 20
0.6112018266196785
 30
0.0
1001
PE_URL
1000

  0
SPLINE
  5
C3
330
1F
100
AcDbEntity
  8
0
  6
Continuous
 62
     1
370
    15
100
AcDbSpline
210
0.0
220
0.0
230
1.0
 70
     8
 71
     3
 72
    13
 73
     9
 74
     0
 42
0.000000001
 43
0.00000001
 40
0.0
 40
0.0
 40
0.0
 40
0.0
 40
0.2033888453001499
 40
0.4067973141547003
 40
0.5760404817933409
 40
0.745075049094898
 40
0.9138767367342787
 40
0.9999999999999999
 40
0.9999999999999999
 40
0.9999999999999999
 40
0.9999999999999999
 10
27.22377037530583
 20
0.6112018266196755
 30
0.0
 10
26.88292214898863
 20
0.7543653217443883
 30
0.0
 10
26.2011928103142
 20
1.040706124829177
 30
0.0
 10
25.23585038525717
 20
1.363141507208
 30
0.0
 10
24.3279736077086
 20
1.588345984215479
 30
0.0
 10
23.47827819796261
 20
1.714591584885842
 30
0.0
 10
22.7680336108401
 20
1.762183142239954
 30
0.0
 10
22.34094456661908
 20
1.733287075004213
 30
0.0
 10
22.19665777922241
 20
1.723524893636513
 30
0.0
1001
PE_URL
1000

  0
SPLINE
  5
C4
330
1F
100
AcDbEntity
  8
0
  6
Continuous
 62
     1
370
    15
100
AcDbSpline
210
0.0
220
0.0
230
1.0
 70
    24
 71
     3
 72
    10
 73
     6
 74
     0
 42
0.000000001
 43
0.00000001
 40
0.0
 40
0.0
 40
0.0
 40
0.0
 40
0.5
 40
0.5
 40
1.0
 40
1.0
 40
1.0
 40
1.0
 10
28.57500000000002
 20
-1.722178520816246
 30
0.0
 10
28.57500000000002
 20
-1.590160110059867
 30
0.0
 10
28.57500000000001
 20
-1.423349785964587
 30
0.0
 10
28.57500000000001
 20
-1.035531836146092
 30
0.0
 10
28.57500000000002
 20
-0.8148601530354358
 30
0.0
 10
28.57500000000002
 20
-0.5833412431304023
 30
0.0
1001
PE_URL
1000

  0
SPLINE
  5
C5
330
1F
100
AcDbEntity
  8
0
  6
Continuous
 62
     1
370
    15
100
AcDbSpline
210
0.0
220
0.0
230
1.0
 70
     8
 71
     3
 72
    11
 73
     7
 74
     0
 42
0.000000001
 43
0.00000001
 40
0.0
 40
0.0
 40
0.0
 40
0.0
 40
0.1758290056772516
 40
0.4502122816535454
 40
0.7251478518909498
 40
1.0
 40
1.0
 40
1.0
 40
1.0
 10
18.91806999829902
 20
-1.805401634039336
 30
0.0
 10
18.73974813823889
 20
-1.824073690905947
 30
0.0
 10
18.28315287298591
 20
-1.871883716861007
 30
0.0
 10
17.54777419456998
 20
-1.844435559120083
 30
0.0
 10
16.71154260634275
 20
-1.742823823109805
 30
0.0
 10
16.15381932670362
 20
-1.602794426446157
 30
0.0
 10
15.87500000000007
 20
-1.532790351805906
 30
0.0
1001
PE_URL
1000

  0
SPLINE
  5
C6
330
1F
100
AcDbEntity
  8
0
  6
Continuous
 62
     1
370
    15
100
AcDbSpline
210
0.0
220
0.0
230
1.0
 70
     8
 71
     3
 72
    17
 73
    13
 74
     0
 42
0.000000001
 43
0.00000001
 40
0.0
 40
0.0
 40
0.0
 40
0.0
 40
0.0591375326850653
 40
0.1641412796347186
 40
0.2691409359004665
 40
0.3742773470161306
 40
0.4795604126581932
 40
0.5846484767011473
 40
0.6896357236615629
 40
0.7929605171061542
 40
0.8964961923728572
 40
1.0
 40
1.0
 40
1.0
 40
1.0
 10
23.95582698853119
 20
-1.630660897641776
 30
0.0
 10
23.79651980827297
 20
-1.657275450151332
 30
0.0
 10
23.35434910490869
 20
-1.731146416819632
 30
0.0
 10
22.62953269996327
 20
-1.758575402016456
 30
0.0
 10
21.78080147224972
 20
-1.716692229252809
 30
0.0
 10
20.93118014916212
 20
-1.584609545893204
 30
0.0
 10
20.08102723524018
 20
-1.374216354968484
 30
0.0
 10
19.23164709170155
 20
-1.094175859943561
 30
0.0
 10
18.38760195933201
 20
-0.7610213666156913
 30
0.0
 10
17.54777251796542
 20
-0.3923661651179472
 30
0.0
 10
16.71155375807589
 20
-0.0058482081641883
 30
0.0
 10
16.1538226372574
 20
0.2491094444258974
 30
0.0
 10
15.87500000000001
 20
0.3765686491046614
 30
0.0
1001
PE_URL
1000

  0
SPLINE
  5
C7
330
1F
100
AcDbEntity
  8
외형선
  6
Continuous
370
    15
100
AcDbSpline
210
0.0
220
0.0
230
1.0
 70
    24
 71
     3
 72
    10
 73
     6
 74
     0
 42
0.000000001
 43
0.00000001
 40
0.0
 40
0.0
 40
0.0
 40
0.0
 40
0.5
 40
0.5
 40
1.0
 40
1.0
 40
1.0
 40
1.0
 10
15.87500000000001
 20
0.3765686491046614
 30
0.0
 10
15.87500000000001
 20
0.0416174031456317
 30
0.0
 10
15.87500000000001
 20
-0.3171545086582389
 30
0.0
 10
15.87500000000001
 20
-0.98457009306152
 30
0.0
 10
15.87500000000001
 20
-1.290340948074592
 30
0.0
 10
15.87500000000001
 20
-1.532790351805889
 30
0.0
  0
SPLINE
  5
C8
330
1F
100
AcDbEntity
  8
외형선
  6
Continuous
370
    15
100
AcDbSpline
210
0.0
220
0.0
230
1.0
 70
    24
 71
     3
 72
    13
 73
     9
 74
     0
 42
0.000000001
 43
0.00000001
 40
0.0
 40
0.0
 40
0.0
 40
0.0
 40
0.111392648162667
 40
0.2918901301310519
 40
0.4673006938679179
 40
0.647798175836315
 40
0.8214346121819993
 40
1.0
 40
1.0
 40
1.0
 40
1.0
 10
15.87500000000001
 20
1.480342100753084
 30
0.0
 10
15.87500000000001
 20
1.475883209114698
 30
0.0
 10
15.87500000000001
 20
1.464199256160568
 30
0.0
 10
15.87500000000002
 20
1.369194831353293
 30
0.0
 10
15.87500000000001
 20
1.205895157001786
 30
0.0
 10
15.87500000000002
 20
0.9816004612141127
 30
0.0
 10
15.87500000000001
 20
0.7061578997103609
 30
0.0
 10
15.87500000000002
 20
0.487451972389299
 30
0.0
 10
15.87500000000002
 20
0.3765686491046615
 30
0.0
  0
SPLINE
  5
C9
330
1F
100
AcDbEntity
  8
0
  6
Continuous
 62
     1
370
    15
100
AcDbSpline
210
0.0
220
0.0
230
1.0
 70
    24
 71
     3
 72
     8
 73
     4
 74
     0
 42
0.000000001
 43
0.00000001
 40
0.0
 40
0.0
 40
0.0
 40
0.0
 40
1.0
 40
1.0
 40
1.0
 40
1.0
 10
27.24659204667294
 20
1.066300996425048
 30
0.0
 10
27.17453698133779
 20
1.005839617677875
 30
0.0
 10
27.09831618377888
 20
0.9418827745618443
 30
0.0
 10
27.01864407772417
 20
0.8750299397562151
 30
0.0
1001
PE_URL
1000

  0
LINE
  5
CA
330
1F
100
AcDbEntity
  8
0
  6
Continuous
 62
     1
370
    15
100
AcDbLine
 10
28.57500000000002
 20
1.527968750000001
 30
0.0
 11
27.76370167294524
 21
1.479221914997158
 31
0.0
1001
PE_URL
1000

  0
SPLINE
  5
CB
330
1F
100
AcDbEntity
  8
0
  6
Continuous
 62
     1
370
    15
100
AcDbSpline
210
0.0
220
0.0
230
1.0
 70
     8
 71
     3
 72
     8
 73
     4
 74
     0
 42
0.000000001
 43
0.00000001
 40
0.0
 40
0.0
 40
0.0
 40
0.0
 40
1.0
 40
1.0
 40
1.0
 40
1.0
 10
28.57500000000002
 20
1.527968750000002
 30
0.0
 10
28.12602903056684
 20
1.406075596436755
 30
0.0
 10
27.68133569784086
 20
1.256449324117445
 30
0.0
 10
27.24659204668418
 20
1.066300996432595
 30
0.0
1001
PE_URL
1000

  0
LINE
  5
CC
330
1F
100
AcDbEntity
  8
0
  6
Continuous
 62
     1
370
    15
100
AcDbLine
 10
28.57500000000002
 20
0.0000000000000022
 30
0.0
 11
28.57500000000002
 21
1.527968750000002
 31
0.0
1001
PE_URL
1000

  0
SPLINE
  5
CD
330
1F
100
AcDbEntity
  8
0
  6
Continuous
 62
     1
370
    15
100
AcDbSpline
210
0.0
220
0.0
230
1.0
 70
     8
 71
     3
 72
    12
 73
     8
 74
     0
 42
0.000000001
 43
0.00000001
 40
0.0
 40
0.0
 40
0.0
 40
0.0
 40
0.1775771267743704
 40
0.3830682589084674
 40
0.5887096662564387
 40
0.7944384116521152
 40
1.0
 40
1.0
 40
1.0
 40
1.0
 10
20.40653458633884
 20
-1.717953471414756
 30
0.0
 10
20.13834929077109
 20
-1.807947790376064
 30
0.0
 10
19.55982166109206
 20
-2.002082968156953
 30
0.0
 10
18.67064576594063
 20
-2.159340278751724
 30
0.0
 10
17.73880539848959
 20
-2.201803767825036
 30
0.0
 10
16.80671066871101
 20
-2.116758562355164
 30
0.0
 10
16.18548606331719
 20
-1.954989236424327
 30
0.0
 10
15.87499999999734
 20
-1.874137446688264
 30
0.0
1001
PE_URL
1000

  0
SPLINE
  5
CE
330
1F
100
AcDbEntity
  8
외형선
  6
Continuous
370
    15
100
AcDbSpline
210
0.0
220
0.0
230
1.0
 70
    24
 71
     3
 72
     8
 73
     4
 74
     0
 42
0.000000001
 43
0.00000001
 40
0.0
 40
0.0
 40
0.0
 40
0.0
 40
1.0
 40
1.0
 40
1.0
 40
1.0
 10
15.87500000000001
 20
-1.53279035180589
 30
0.0
 10
15.87500000000001
 20
-1.644000112723447
 30
0.0
 10
15.87500000000001
 20
-1.758502344968608
 30
0.0
 10
15.87500000000001
 20
-1.874137446676717
 30
0.0
  0
SPLINE
  5
CF
330
1F
100
AcDbEntity
  8
0
  6
Continuous
 62
     1
370
    15
100
AcDbSpline
210
0.0
220
0.0
230
1.0
 70
     8
 71
     3
 72
    10
 73
     6
 74
     0
 42
0.000000001
 43
0.00000001
 40
0.0
 40
0.0
 40
0.0
 40
0.0
 40
0.3515571439429516
 40
0.7038383118195894
 40
1.0
 40
1.0
 40
1.0
 40
1.0
 10
15.87500000000001
 20
-2.110305073698805
 30
0.0
 10
15.98961135856269
 20
-2.125401931386551
 30
0.0
 10
16.21907011517154
 20
-2.155626738396725
 30
0.0
 10
16.5450632611027
 20
-2.179043007480813
 30
0.0
 10
16.75606392288584
 20
-2.180761309420587
 30
0.0
 10
16.85243372882503
 20
-2.181546105179432
 30
0.0
1001
PE_URL
1000

  0
SPLINE
  5
D0
330
1F
100
AcDbEntity
  8
0
  6
Continuous
 62
     1
370
    15
100
AcDbSpline
210
0.0
220
0.0
230
1.0
 70
     8
 71
     3
 72
    16
 73
    12
 74
     0
 42
0.000000001
 43
0.00000001
 40
0.0
 40
0.0
 40
0.0
 40
0.0
 40
0.0559139468214853
 40
0.1612521130686071
 40
0.2643301748772441
 40
0.4711338011585658
 40
0.5749037843376751
 40
0.6807088288865656
 40
0.7867005088644318
 40
0.8932552687967179
 40
1.0
 40
1.0
 40
1.0
 40
1.0
 10
25.57957035562212
 20
1.463831179304359
 30
0.0
 10
25.63536928234983
 20
1.488982532394556
 30
0.0
 10
25.79628968509892
 20
1.561517366060965
 30
0.0
 10
26.06062709423535
 20
1.661543846060885
 30
0.0
 10
26.4748881755922
 20
1.810855748300648
 30
0.0
 10
26.88794128051154
 20
1.933852904281438
 30
0.0
 10
27.30409254912463
 20
2.031359812528592
 30
0.0
 10
27.61856390091567
 20
2.091793456679351
 30
0.0
 10
27.93655878846005
 20
2.137237956305143
 30
0.0
 10
28.25572735988587
 20
2.168826597828095
 30
0.0
 10
28.46851261553633
 20
2.176918210472978
 30
0.0
 10
28.57499999999987
 20
2.180967620118453
 30
0.0
1001
PE_URL
1000

  0
SPLINE
  5
D1
330
1F
100
AcDbEntity
  8
0
  6
Continuous
 62
     1
370
    15
100
AcDbSpline
210
0.0
220
0.0
230
1.0
 70
    24
 71
     3
 72
    10
 73
     6
 74
     0
 42
0.000000001
 43
0.00000001
 40
0.0
 40
0.0
 40
0.0
 40
0.0
 40
0.5
 40
0.5
 40
1.0
 40
1.0
 40
1.0
 40
1.0
 10
28.57500000000002
 20
1.52796875
 30
0.0
 10
28.57500000000001
 20
1.620590410562215
 30
0.0
 10
28.57500000000002
 20
1.728225357824004
 30
0.0
 10
28.57500000000002
 20
1.954043187284867
 30
0.0
 10
28.57500000000002
 20
2.071649359085402
 30
0.0
 10
28.57500000000002
 20
2.180967620118457
 30
0.0
1001
PE_URL
1000

  0
LINE
  5
D2
330
1F
100
AcDbEntity
  8
중심선
 62
     1
100
AcDbLine
 10
-31.57500000000001
 20
-0.0000000000000039
 30
0.0
 11
31.57500000000001
 21
0.0000000000000039
 31
0.0
  0
LINE
  5
D3
330
1F
100
AcDbEntity
  8
참조1
100
AcDbLine
 10
0.0000000000000071
 20
-0.0000000000000039
 30
0.0
 11
0.0000000000000071
 21
-40.00000000000001
 31
0.0
  0
LINE
  5
D4
330
1F
100
AcDbEntity
  8
참조1
100
AcDbLine
 10
0.0000000000000071
 20
-40.00000000000001
 30
0.0
 11
-23.99071559669921
 21
-39.99999999999999
 31
0.0
  0
CIRCLE
  5
D5
330
1F
100
AcDbEntity
  8
해칭선
100
AcDbCircle
 10
0.0
 20
0.0
 30
0.0
 40
3.000000000000001
  0
INSERT
  5
D6
330
1F
100
AcDbEntity
  8
0
  6
Continuous
 62
     7
100
AcDbBlockReference
 66
     1
  2
블럭10
 10
-13.9402729321252
 20
-52.04717430164393
 30
0.0
  0
ATTRIB
  5
D7
330
D6
100
AcDbEntity
  8
FORMAT
 62
     2
100
AcDbText
 10
-23.12156822086648
 20
-49.97180738881175
 30
0.0
 40
4.233333333333333
  1
E1003011 [ 2 FLUTE ]
 41
0.75
  7
SLDTEXTSTYLE0
 11
-23.12156822086648
 21
-52.08847405547841
 31
0.0
100
AcDbAttribute
  2
AUTOATTR0
 70
     0
 74
     1
  0
SEQEND
  5
D8
330
D6
100
AcDbEntity
  8
0
  6
Continuous
 62
     7
  0
HATCH
  5
D9
330
1F
100
AcDbEntity
  8
중심선
100
AcDbHatch
 10
0.0
 20
0.0
 30
0.0
210
0.0
220
0.0
230
1.0
  2
SOLID
 70
     1
 71
     0
 91
        1
 92
        0
 93
        4
 72
     1
 10
-8.225363627744372
 20
-35.8
 11
-11.67163887158165
 21
-35.8
 72
     1
 10
-11.67163887158165
 20
-35.8
 11
-13.79986873078567
 21
-38.3363255805726
 72
     1
 10
-13.79986873078567
 20
-38.3363255805726
 11
-10.35356040183524
 21
-38.3362861512701
 72
     1
 10
-10.35356040183524
 20
-38.3362861512701
 11
-8.225363627744365
 21
-35.8
 97
        0
 75
     0
 76
     1
 98
        1
 10
5.469211678730517
 20
-0.0010749287238931
  0
HATCH
  5
DA
330
1F
100
AcDbEntity
  8
중심선
100
AcDbHatch
 10
0.0
 20
0.0
 30
0.0
210
0.0
220
0.0
230
1.0
  2
SOLID
 70
     1
 71
     0
 91
        1
 92
        0
 93
        4
 72
     1
 10
-3.212599636708424
 20
-35.8
 11
-6.658874880545643
 21
-35.8
 72
     1
 10
-6.658874880545643
 20
-35.8
 11
-11.19001288890309
 21
-41.20000000000002
 72
     1
 10
-11.19001288890309
 20
-41.20000000000002
 11
-7.743737645065814
 21
-41.20000000000002
 72
     1
 10
-7.743737645065814
 20
-41.20000000000002
 11
-3.212599636708424
 21
-35.8
 97
        0
 75
     0
 76
     1
 98
        1
 10
5.469211678730517
 20
-0.0010749287238931
  0
HATCH
  5
DB
330
1F
100
AcDbEntity
  8
중심선
100
AcDbHatch
 10
0.0
 20
0.0
 30
0.0
210
0.0
220
0.0
230
1.0
  2
SOLID
 70
     1
 71
     0
 91
        1
 92
        0
 93
        4
 72
     1
 10
1.800164354327507
 20
-35.79999999999998
 11
-1.646110889509643
 21
-35.79999999999998
 72
     1
 10
-1.646110889509643
 20
-35.79999999999998
 11
-8.694547791398893
 21
-44.20000000000002
 72
     1
 10
-8.694547791398893
 20
-44.20000000000002
 11
-5.248272547561612
 21
-44.20000000000002
 72
     1
 10
-5.248272547561612
 20
-44.20000000000002
 11
1.800164354327507
 21
-35.79999999999998
 97
        0
 75
     0
 76
     1
 98
        1
 10
5.469211678730517
 20
-0.0010749287238931
  0
HATCH
  5
DC
330
1F
100
AcDbEntity
  8
중심선
100
AcDbHatch
 10
0.0
 20
0.0
 30
0.0
210
0.0
220
0.0
230
1.0
  2
SOLID
 70
     1
 71
     0
 91
        1
 92
        0
 93
        6
 72
     3
 10
6.600054785339674
 20
-40.00000000005127
 11
3.960054785062285
 21
1.540882976769353E-10
 40
0.3939339440162626
 50
17.09539180608438
 51
320.0019657685077
 73
     0
 72
     1
 10
8.283054441040242
 20
-38.58789400463831
 11
10.58835631474131
 21
-36.65356729459039
 72
     3
 10
6.600054785286829
 20
-40.00000000000014
 11
6.60005478528683
 21
-1.278976924368180E-13
 40
0.636358354079598
 50
39.99873849337413
 51
368.4976242363724
 73
     1
 72
     1
 10
13.02538727718744
 20
-39.03999999993002
 11
5.280122092122751
 21
-39.03999999993002
 72
     1
 10
5.280122092122751
 20
-39.03999999993002
 11
5.280097047676817
 21
-40.95999999992991
 72
     1
 10
5.280097047676817
 20
-40.95999999992991
 11
9.721476817148854
 21
-40.95999999992988
 97
        0
 75
     0
 76
     1
 98
        1
 10
5.469211678730517
 20
-0.0010749287238931
  0
DIMENSION
  5
DD
330
1F
100
AcDbEntity
  8
치수문자_일반주서
100
AcDbDimension
  2
_D
 10
-38.57499999999998
 20
-2.381250000000097
 30
0.0
 11
-38.57500000000006
 21
22.98524999999997
 31
0.0
 70
   160
  1
%%c<>
 71
     2
 42
4.762500000000003
 52
-270.0
  3
SLDDIMSTYLE0
100
AcDbAlignedDimension
 13
-14.13442116787305
 23
2.381249999999998
 33
0.0
 14
-14.13442116787305
 24
-2.381250000000005
 34
0.0
 50
90.0000000000002
100
AcDbRotatedDimension
1001
PE_URL
1000

1001
ACAD
1000
DSTYLE
1002
{
1070
   171
1070
     8
1070
   273
1070
     7
1002
}
  0
DIMENSION
  5
F2
330
1F
100
AcDbEntity
  8
치수문자_일반주서
100
AcDbDimension
  2
_D_1
 10
62.69012326412964
 20
2.180967620118587
 30
0.0
 11
62.69012326412957
 21
23.65996762011859
 31
0.0
 70
   160
  1
%%c<>
 71
     2
 42
4.361935240236913
 52
-270.0
  3
SLDDIMSTYLE0
100
AcDbAlignedDimension
 13
28.57500000000002
 23
-2.180967620118456
 33
0.0
 14
28.57500000000002
 24
2.180967620118457
 34
0.0
 50
90.0000000000002
100
AcDbRotatedDimension
1001
PE_URL
1000

1001
ACAD
1000
DSTYLE
1002
{
1070
   171
1070
     8
1070
   273
1070
     7
1002
}
  0
DIMENSION
  5
106
330
1F
100
AcDbEntity
  8
치수문자_일반주서
100
AcDbDimension
  2
_D_2
 10
15.87500000000007
 20
12.38125
 30
0.0
 11
46.11650000000002
 21
12.38125
 31
0.0
 70
   160
  1
<>
 71
     2
 42
12.69999999999994
  3
SLDDIMSTYLE0
100
AcDbAlignedDimension
 13
28.57500000000002
 23
2.180967620118457
 33
0.0
 14
15.87500000000007
 24
1.532790351805907
 34
0.0
100
AcDbRotatedDimension
1001
PE_URL
1000

1001
ACAD
1000
DSTYLE
1002
{
1070
   171
1070
     8
1070
   273
1070
     7
1002
}
  0
DIMENSION
  5
11B
330
1F
100
AcDbEntity
  8
치수문자_일반주서
100
AcDbDimension
  2
_D_3
 10
28.57500000000002
 20
22.38125000000001
 30
0.0
 11
0.000000000000016
 21
22.38125000000001
 31
0.0
 70
   160
  1
<>
 71
     2
 42
57.15000000000002
  3
SLDDIMSTYLE0
100
AcDbAlignedDimension
 13
-28.575
 23
2.180967620118454
 33
0.0
 14
28.57500000000002
 24
2.180967620118457
 34
0.0
100
AcDbRotatedDimension
1001
PE_URL
1000

1001
ACAD
1000
DSTYLE
1002
{
1070
   171
1070
     8
1070
   273
1070
     7
1002
}
  0
LINE
  5
12F
330
1F
100
AcDbEntity
  8
참조1
100
AcDbLine
 10
73.98162503295505
 20
7.440000000000003
 30
0.0
 11
73.98162503295505
 21
-7.440000000000002
 31
0.0
  0
LINE
  5
130
330
1F
100
AcDbEntity
  8
참조1
100
AcDbLine
 10
86.68162503295505
 20
5.440000000000003
 30
0.0
 11
73.98162503295505
 21
5.440000000000003
 31
0.0
  0
SOLID
  5
131
330
1F
100
AcDbEntity
  8
참조1
100
AcDbTrace
 10
73.98162503295505
 20
5.440000000000003
 30
0.0
 11
80.33162503295505
 21
4.424000000000003
 31
0.0
 12
80.33162503295505
 22
6.456000000000003
 32
0.0
 13
80.33162503295505
 23
6.456000000000003
 33
0.0
  0
LINE
  5
132
330
1F
100
AcDbEntity
  8
참조1
100
AcDbLine
 10
86.68162503295505
 20
-5.440000000000002
 30
0.0
 11
73.98162503295505
 21
-5.440000000000002
 31
0.0
  0
SOLID
  5
133
330
1F
100
AcDbEntity
  8
참조1
100
AcDbTrace
 10
73.98162503295505
 20
-5.440000000000002
 30
0.0
 11
80.33162503295505
 21
-6.456000000000002
 31
0.0
 12
80.33162503295505
 22
-4.424000000000002
 32
0.0
 13
80.33162503295505
 23
-4.424000000000002
 33
0.0
  0
MTEXT
  5
134
330
1F
100
AcDbEntity
  8
참조1
100
AcDbMText
 10
83.36597516558105
 20
11.01029177718833
 30
0.0
 40
3.5
 41
0.0
 71
     1
 72
     1
  1
A
  7
SLDTEXTSTYLE0
 73
     1
 44
1.0
  0
MTEXT
  5
135
330
1F
100
AcDbEntity
  8
참조1
100
AcDbMText
 10
83.36597516558105
 20
0.1302917771883261
 30
0.0
 40
3.5
 41
0.0
 71
     1
 72
     1
  1
A
  7
SLDTEXTSTYLE0
 73
     1
 44
1.0
  0
INSERT
  5
13C
330
1F
100
AcDbEntity
  8
해칭선
100
AcDbBlockReference
  2
SW_DOWELSYMBOL_0
 10
0.0
 20
0.0
 30
0.0
  0
LINE
  5
221
330
1F
100
AcDbEntity
  8
외형선
  6
Continuous
370
    15
100
AcDbLine
 10
-14.13442116787305
 20
2.381249999999997
 30
0.0
 11
-14.875
 21
2.182812499999996
 31
0.0
  0
LINE
  5
222
330
1F
100
AcDbEntity
  8
외형선
  6
Continuous
370
    15
100
AcDbLine
 10
-14.875
 20
-2.182812500000004
 30
0.0
 11
-14.13442116787305
 21
-2.381250000000005
 31
0.0
  0
LINE
  5
223
330
1F
100
AcDbEntity
  8
외형선
  6
Continuous
370
    15
100
AcDbLine
 10
-14.98495716263085
 20
-2.182812500000004
 30
0.0
 11
-14.875
 21
-2.182812500000004
 31
0.0
  0
LINE
  5
224
330
1F
100
AcDbEntity
  8
외형선
  6
Continuous
370
    15
100
AcDbLine
 10
-14.875
 20
2.182812499999996
 30
0.0
 11
-14.98495716263085
 21
2.182812499999996
 31
0.0
  0
SPLINE
  5
225
330
1F
100
AcDbEntity
  8
외형선
  6
Continuous
370
    15
100
AcDbSpline
210
0.0
220
0.0
230
1.0
 70
     8
 71
     3
 72
     9
 73
     5
 74
     0
 42
0.000000001
 43
0.00000001
 40
0.0
 40
0.0
 40
0.0
 40
0.0
 40
0.556771621364947
 40
1.0
 40
1.0
 40
1.0
 40
1.0
 10
-15.87499999999994
 20
-1.487825713884129
 30
0.0
 10
-15.70801025605749
 20
-1.476592549206376
 30
0.0
 10
-15.40808522838983
 20
-1.456417015384781
 30
0.0
 10
-15.11489608963065
 20
-1.446298412662171
 30
0.0
 10
-14.98494634302501
 20
-1.441813560783377
 30
0.0
  0
SPLINE
  5
226
330
1F
100
AcDbEntity
  8
0
  6
Continuous
 62
     1
370
    15
100
AcDbSpline
210
0.0
220
0.0
230
1.0
 70
     8
 71
     3
 72
     9
 73
     5
 74
     0
 42
0.000000001
 43
0.00000001
 40
0.0
 40
0.0
 40
0.0
 40
0.0
 40
0.4369729354008562
 40
1.0
 40
1.0
 40
1.0
 40
1.0
 10
-22.92059382959931
 20
-0.5593078236159206
 30
0.0
 10
-22.83218199289713
 20
-0.6012620526133341
 30
0.0
 10
-22.62985404638242
 20
-0.6972730995193108
 30
0.0
 10
-22.42753145462992
 20
-0.8028092715312114
 30
0.0
 10
-22.31361835969342
 20
-0.8622289926681039
 30
0.0
1001
PE_URL
1000

  0
LINE
  5
227
330
1F
100
AcDbEntity
  8
0
  6
Continuous
 62
     1
370
    15
100
AcDbLine
 10
-17.91069124476849
 20
-2.182812500000004
 30
0.0
 11
-16.85320164365942
 21
-2.182812500000004
 31
0.0
1001
PE_URL
1000

  0
SPLINE
  5
228
330
1F
100
AcDbEntity
  8
0
  6
Continuous
 62
     1
370
    15
100
AcDbSpline
210
0.0
220
0.0
230
1.0
 70
     8
 71
     3
 72
    15
 73
    11
 74
     0
 42
0.000000001
 43
0.00000001
 40
0.0
 40
0.0
 40
0.0
 40
0.0
 40
0.2108306915643941
 40
0.3681070384333746
 40
0.4737433361319343
 40
0.5712399573109602
 40
0.6727407141575361
 40
0.7758754372810106
 40
0.8795934951262596
 40
0.9999999999999999
 40
0.9999999999999999
 40
0.9999999999999999
 40
0.9999999999999999
 10
-22.19773225122542
 20
-1.734545597278721
 30
0.0
 10
-22.07173171857673
 20
-1.728418934821821
 30
0.0
 10
-21.8517367900861
 20
-1.71772187949389
 30
0.0
 10
-21.56921650815641
 20
-1.709893665802724
 30
0.0
 10
-21.35578962052874
 20
-1.706161720896091
 30
0.0
 10
-21.17513691537225
 20
-1.704605281776691
 30
0.0
 10
-20.99540400562492
 20
-1.704577199392535
 30
0.0
 10
-20.81189850816475
 20
-1.706288901575341
 30
0.0
 10
-20.61705813799361
 20
-1.709506099542199
 30
0.0
 10
-20.48360201041731
 20
-1.713914577026997
 30
0.0
 10
-20.41190533567312
 20
-1.716282944685227
 30
0.0
1001
PE_URL
1000

  0
SPLINE
  5
229
330
1F
100
AcDbEntity
  8
0
  6
Continuous
 62
     1
370
    15
100
AcDbSpline
210
0.0
220
0.0
230
1.0
 70
     8
 71
     3
 72
    18
 73
    14
 74
     0
 42
0.000000001
 43
0.00000001
 40
0.0
 40
0.0
 40
0.0
 40
0.0
 40
0.1139255693738903
 40
0.1991462113427989
 40
0.2550916250791509
 40
0.3000024666496758
 40
0.3453497676367305
 40
0.5275723787312218
 40
0.6102063890346318
 40
0.6889190873025198
 40
0.7594988018973557
 40
0.8588345980122304
 40
1.0
 40
1.0
 40
1.0
 40
1.0
 10
-18.91489325647493
 20
1.816406196872452
 30
0.0
 10
-19.03968235130919
 20
1.804446430906021
 30
0.0
 10
-19.25781841672205
 20
1.783540306900224
 30
0.0
 10
-19.53689762785086
 20
1.762023723774906
 30
0.0
 10
-19.74042989619374
 20
1.748187240444243
 30
0.0
 10
-19.9003630914088
 20
1.738513249220568
 30
0.0
 10
-20.19831765384298
 20
1.722491674792033
 30
0.0
 10
-20.53794046247868
 20
1.71041674272361
 30
0.0
 10
-20.91382735832425
 20
1.704825836833278
 30
0.0
 10
-21.16744792786922
 20
1.70432093262339
 30
0.0
 10
-21.43951267050778
 20
1.707120946190185
 30
0.0
 10
-21.77974487980918
 20
1.71472342598822
 30
0.0
 10
-22.0431330400348
 20
1.727214055095485
 30
0.0
 10
-22.19773225122542
 20
1.734545597278714
 30
0.0
1001
PE_URL
1000

  0
SPLINE
  5
22A
330
1F
100
AcDbEntity
  8
0
  6
Continuous
 62
     1
370
    15
100
AcDbSpline
210
0.0
220
0.0
230
1.0
 70
     8
 71
     3
 72
    14
 73
    10
 74
     0
 42
0.000000001
 43
0.00000001
 40
0.0
 40
0.0
 40
0.0
 40
0.0
 40
0.2343484612562773
 40
0.4019957761994164
 40
0.5304740307719495
 40
0.6585750076882103
 40
0.7840469278728526
 40
0.9057019780588956
 40
1.0
 40
1.0
 40
1.0
 40
1.0
 10
-23.95158442425948
 20
1.641729237521784
 30
0.0
 10
-24.07861294573037
 20
1.622407859879134
 30
0.0
 10
-24.29651464994641
 20
1.589264428251455
 30
0.0
 10
-24.58370716522326
 20
1.552599969097644
 30
0.0
 10
-24.81391210313509
 20
1.526371446756748
 30
0.0
 10
-25.02106590565742
 20
1.505407245553492
 30
0.0
 10
-25.22442541069259
 20
1.487473629009189
 30
0.0
 10
-25.40924997074629
 20
1.473117066470059
 30
0.0
 10
-25.52625956792875
 20
1.466126234618779
 30
0.0
 10
-25.57735295342102
 20
1.463073619488996
 30
0.0
1001
PE_URL
1000

  0
SPLINE
  5
22B
330
1F
100
AcDbEntity
  8
0
  6
Continuous
 62
     1
370
    15
100
AcDbSpline
210
0.0
220
0.0
230
1.0
 70
     8
 71
     3
 72
     9
 73
     5
 74
     0
 42
0.000000001
 43
0.00000001
 40
0.0
 40
0.0
 40
0.0
 40
0.0
 40
0.4999418564678219
 40
0.9999999999999999
 40
0.9999999999999999
 40
0.9999999999999999
 40
0.9999999999999999
 10
-16.07834247545707
 20
-1.507545689880064
 30
0.0
 10
-16.04440124295251
 20
-1.504113910363468
 30
0.0
 10
-15.97651088317276
 20
-1.497249553094324
 30
0.0
 10
-15.90883958415645
 20
-1.490967237138221
 30
0.0
 10
-15.87499999999994
 20
-1.487825713884129
 30
0.0
1001
PE_URL
1000

  0
SPLINE
  5
22C
330
1F
100
AcDbEntity
  8
0
  6
Continuous
 62
     1
370
    15
100
AcDbSpline
210
0.0
220
0.0
230
1.0
 70
     8
 71
     3
 72
    19
 73
    15
 74
     0
 42
0.000000001
 43
0.00000001
 40
0.0
 40
0.0
 40
0.0
 40
0.0
 40
0.1000062161918216
 40
0.1740323918031171
 40
0.2233183854596662
 40
0.2681019036869906
 40
0.3144380539042225
 40
0.495256372941809
 40
0.6049420079392984
 40
0.7168010604554528
 40
0.7599262227669155
 40
0.8186923705064839
 40
0.898803963283746
 40
1.0
 40
1.0
 40
1.0
 40
1.0
 10
-27.76719427044509
 20
-1.493282686812303
 30
0.0
 10
-27.63905097340979
 20
-1.483067939800341
 30
0.0
 10
-27.41605399056411
 20
-1.46529207624056
 30
0.0
 10
-27.1310847987115
 20
-1.450803624238947
 30
0.0
 10
-26.91917127553336
 20
-1.443077307140804
 30
0.0
 10
-26.74182974098929
 20
-1.43873179680472
 30
0.0
 10
-26.39617510005017
 20
-1.434215583414204
 30
0.0
 10
-25.96781619590443
 20
-1.441290835830216
 30
0.0
 10
-25.4569055574819
 20
-1.468379254099545
 30
0.0
 10
-25.11978865119374
 20
-1.495849411465233
 30
0.0
 10
-24.84793623916033
 20
-1.522800568950021
 30
0.0
 10
-24.61662667614956
 20
-1.548519088196876
 30
0.0
 10
-24.3114841876057
 20
-1.587023431255801
 30
0.0
 10
-24.08050462609046
 20
-1.622132993502164
 30
0.0
 10
-23.95158442425948
 20
-1.64172923752179
 30
0.0
1001
PE_URL
1000

  0
LINE
  5
22D
330
1F
100
AcDbEntity
  8
0
  6
Continuous
 62
     1
370
    15
100
AcDbLine
 10
-16.85243372882502
 20
2.182812499999998
 30
0.0
 11
-17.91069124476849
 21
2.182812499999998
 31
0.0
1001
PE_URL
1000

  0
LINE
  5
22E
330
1F
100
AcDbEntity
  8
외형선
  6
Continuous
370
    15
100
AcDbLine
 10
-14.13442116787305
 20
-2.381250000000005
 30
0.0
 11
-14.13442116787305
 21
2.381249999999998
 31
0.0
  0
LINE
  5
22F
330
1F
100
AcDbEntity
  8
외형선
  6
Continuous
370
    15
100
AcDbLine
 10
-14.875
 20
-2.182812500000004
 30
0.0
 11
-14.875
 21
2.182812499999999
 31
0.0
  0
SPLINE
  5
230
330
1F
100
AcDbEntity
  8
외형선
  6
Continuous
370
    15
100
AcDbSpline
210
0.0
220
0.0
230
1.0
 70
     8
 71
     3
 72
    10
 73
     6
 74
     0
 42
0.000000001
 43
0.00000001
 40
0.0
 40
0.0
 40
0.0
 40
0.0
 40
0.5
 40
0.5
 40
1.0
 40
1.0
 40
1.0
 40
1.0
 10
-14.98495716263085
 20
-1.921855977208654
 30
0.0
 10
-15.13408802320325
 20
-1.962553373598759
 30
0.0
 10
-15.28354008389819
 20
-1.99880645762644
 30
0.0
 10
-15.57998586028905
 20
-2.06172667671634
 30
0.0
 10
-15.72642320543549
 20
-2.088393045852431
 30
0.0
 10
-15.87500000000006
 20
-2.110305073698818
 30
0.0
  0
SPLINE
  5
231
330
1F
100
AcDbEntity
  8
외형선
  6
Continuous
370
    15
100
AcDbSpline
210
0.0
220
0.0
230
1.0
 70
     8
 71
     3
 72
    10
 73
     6
 74
     0
 42
0.000000001
 43
0.00000001
 40
0.0
 40
0.0
 40
0.0
 40
0.0
 40
0.4999999999999999
 40
0.4999999999999999
 40
1.0
 40
1.0
 40
1.0
 40
1.0
 10
-15.87500000000009
 20
1.874137446689077
 30
0.0
 10
-15.72641574429443
 20
1.830185579041
 30
0.0
 10
-15.57997109664228
 20
1.782128565237852
 30
0.0
 10
-15.28351018731353
 20
1.677641000566043
 30
0.0
 10
-15.13405051350247
 20
1.621242839278015
 30
0.0
 10
-14.9849122288516
 20
1.561252910019687
 30
0.0
  0
LINE
  5
232
330
1F
100
AcDbEntity
  8
외형선
  6
Continuous
370
    15
100
AcDbLine
 10
-15.875
 20
1.874137446689048
 30
0.0
 11
-15.875
 21
2.110305073698858
 31
0.0
  0
SPLINE
  5
233
330
1F
100
AcDbEntity
  8
외형선
  6
Continuous
370
    15
100
AcDbSpline
210
0.0
220
0.0
230
1.0
 70
     8
 71
     3
 72
    10
 73
     6
 74
     0
 42
0.000000001
 43
0.00000001
 40
0.0
 40
0.0
 40
0.0
 40
0.0
 40
0.5
 40
0.5
 40
1.0
 40
1.0
 40
1.0
 40
1.0
 10
-14.98495716263085
 20
1.921855977208648
 30
0.0
 10
-15.13408802320325
 20
1.962553373598751
 30
0.0
 10
-15.28354008389819
 20
1.998806457626433
 30
0.0
 10
-15.57998586028905
 20
2.061726676716332
 30
0.0
 10
-15.72642320543549
 20
2.088393045852425
 30
0.0
 10
-15.87500000000006
 20
2.110305073698811
 30
0.0
  0
LINE
  5
234
330
1F
100
AcDbEntity
  8
외형선
  6
Continuous
370
    15
100
AcDbLine
 10
-14.98495716263085
 20
2.182812499999996
 30
0.0
 11
-14.98495716263085
 21
1.92150228201318
 31
0.0
  0
LINE
  5
235
330
1F
100
AcDbEntity
  8
외형선
  6
Continuous
370
    15
100
AcDbLine
 10
-14.98495716263085
 20
1.561187529813774
 30
0.0
 11
-14.98495716263085
 21
-2.182812500000004
 31
0.0
  0
SPLINE
  5
236
330
1F
100
AcDbEntity
  8
외형선
  6
Continuous
370
    15
100
AcDbSpline
210
0.0
220
0.0
230
1.0
 70
     8
 71
     3
 72
    10
 73
     6
 74
     0
 42
0.000000001
 43
0.00000001
 40
0.0
 40
0.0
 40
0.0
 40
0.0
 40
0.5
 40
0.5
 40
1.0
 40
1.0
 40
1.0
 40
1.0
 10
-15.87500000000012
 20
1.53279035180592
 30
0.0
 10
-15.72641574429446
 20
1.491728133375537
 30
0.0
 10
-15.57997109664229
 20
1.447333016073833
 30
0.0
 10
-15.28351018731354
 20
1.351723991295384
 30
0.0
 10
-15.13405051350247
 20
1.30054319559617
 30
0.0
 10
-14.9849122288516
 20
1.246499082120014
 30
0.0
  0
SPLINE
  5
237
330
1F
100
AcDbEntity
  8
외형선
  6
Continuous
370
    15
100
AcDbSpline
210
0.0
220
0.0
230
1.0
 70
     8
 71
     3
 72
    10
 73
     6
 74
     0
 42
0.000000001
 43
0.00000001
 40
0.0
 40
0.0
 40
0.0
 40
0.0
 40
0.5
 40
0.5
 40
1.0
 40
1.0
 40
1.0
 40
1.0
 10
-15.87500000000006
 20
-0.3765686491046353
 30
0.0
 10
-15.72642048212903
 20
-0.4435384663336596
 30
0.0
 10
-15.57998047157944
 20
-0.5093196628548122
 30
0.0
 10
-15.28352917168771
 20
-0.6387606862878632
 30
0.0
 10
-15.13407433221506
 20
-0.7023289240615431
 30
0.0
 10
-14.98494076185962
 20
-0.7640752082323272
 30
0.0
  0
SPLINE
  5
238
330
1F
100
AcDbEntity
  8
외형선
  6
Continuous
370
    15
100
AcDbSpline
210
0.0
220
0.0
230
1.0
 70
    24
 71
     3
 72
    10
 73
     6
 74
     0
 42
0.000000001
 43
0.00000001
 40
0.0
 40
0.0
 40
0.0
 40
0.0
 40
0.4999999999999999
 40
0.4999999999999999
 40
1.0
 40
1.0
 40
1.0
 40
1.0
 10
-15.875
 20
-0.3765686491046638
 30
0.0
 10
-15.875
 20
-0.0416174031456326
 30
0.0
 10
-15.875
 20
0.3171545086582362
 30
0.0
 10
-15.875
 20
0.9845700930615175
 30
0.0
 10
-15.875
 20
1.29034094807459
 30
0.0
 10
-15.875
 20
1.532790351805887
 30
0.0
  0
LINE
  5
239
330
1F
100
AcDbEntity
  8
외형선
  6
Continuous
370
    15
100
AcDbLine
 10
-15.8533542432025
 20
-1.489147087983085
 30
0.0
 11
-15.81624467674188
 21
-1.484223955414212
 31
0.0
  0
SPLINE
  5
23A
330
1F
100
AcDbEntity
  8
외형선
  6
Continuous
370
    15
100
AcDbSpline
210
0.0
220
0.0
230
1.0
 70
    24
 71
     3
 72
    13
 73
     9
 74
     0
 42
0.000000001
 43
0.00000001
 40
0.0
 40
0.0
 40
0.0
 40
0.0
 40
0.1101836565284742
 40
0.2909267137166021
 40
0.4665759316843481
 40
0.6473189888724877
 40
0.8211916656662154
 40
1.0
 40
1.0
 40
1.0
 40
1.0
 10
-15.875
 20
-1.480094279574643
 30
0.0
 10
-15.875
 20
-1.47567342771533
 30
0.0
 10
-15.875
 20
-1.464000699256498
 30
0.0
 10
-15.875
 20
-1.369170696723888
 30
0.0
 10
-15.875
 20
-1.205901758027551
 30
0.0
 10
-15.875
 20
-0.9815987567571438
 30
0.0
 10
-15.875
 20
-0.7061583328534018
 30
0.0
 10
-15.875
 20
-0.4874521181111057
 30
0.0
 10
-15.875
 20
-0.3765686491046655
 30
0.0
  0
SPLINE
  5
23B
330
1F
100
AcDbEntity
  8
외형선
  6
Continuous
370
    15
100
AcDbSpline
210
0.0
220
0.0
230
1.0
 70
    24
 71
     3
 72
     8
 73
     4
 74
     0
 42
0.000000001
 43
0.00000001
 40
0.0
 40
0.0
 40
0.0
 40
0.0
 40
1.0
 40
1.0
 40
1.0
 40
1.0
 10
-15.875
 20
1.532790351805887
 30
0.0
 10
-15.875
 20
1.644000112723441
 30
0.0
 10
-15.875
 20
1.758502344968597
 30
0.0
 10
-15.875
 20
1.874137446676703
 30
0.0
  0
SPLINE
  5
23C
330
1F
100
AcDbEntity
  8
외형선
  6
Continuous
370
    15
100
AcDbSpline
210
0.0
220
0.0
230
1.0
 70
    24
 71
     3
 72
    13
 73
     9
 74
     0
 42
0.000000001
 43
0.00000001
 40
0.0
 40
0.0
 40
0.0
 40
0.0
 40
0.0736859045961542
 40
0.3126373206814838
 40
0.5448544250097864
 40
0.7838058410951183
 40
0.9317507875101464
 40
0.9999999999999999
 40
0.9999999999999999
 40
0.9999999999999999
 40
0.9999999999999999
 10
-15.875
 20
-2.110305073698807
 30
0.0
 10
-15.875
 20
-2.094967818418481
 30
0.0
 10
-15.875
 20
-2.029894336268416
 30
0.0
 10
-15.875
 20
-1.916501173204743
 30
0.0
 10
-15.875
 20
-1.773442442613872
 30
0.0
 10
-15.875
 20
-1.656849278388892
 30
0.0
 10
-15.87499999999999
 20
-1.576535105826586
 30
0.0
 10
-15.875
 20
-1.54215138658661
 30
0.0
 10
-15.875
 20
-1.531296968629682
 30
0.0
  0
SPLINE
  5
23D
330
1F
100
AcDbEntity
  8
0
  6
Continuous
 62
     1
370
    15
100
AcDbSpline
210
0.0
220
0.0
230
1.0
 70
     8
 71
     3
 72
    19
 73
    15
 74
     0
 42
0.000000001
 43
0.00000001
 40
0.0
 40
0.0
 40
0.0
 40
0.0
 40
0.0834372877792405
 40
0.1667702613164307
 40
0.2500557066354773
 40
0.3333509788014087
 40
0.416713315057178
 40
0.5001804055981347
 40
0.5835756586954823
 40
0.6668859286495271
 40
0.7541485909621347
 40
0.8414213972383211
 40
0.9287313356461954
 40
1.0
 40
1.0
 40
1.0
 40
1.0
 10
-28.575
 20
2.071359991120253
 30
0.0
 10
-28.27832801926577
 20
2.006315772564504
 30
0.0
 10
-27.68535496046722
 20
1.876308654471623
 30
0.0
 10
-26.79656285761702
 20
1.547356099277585
 30
0.0
 10
-25.90835513985681
 20
1.141513387659648
 30
0.0
 10
-25.02002075827707
 20
0.6706677847603848
 30
0.0
 10
-24.13092427675873
 20
0.163321590902456
 30
0.0
 10
-23.24110145518507
 20
-0.3527209747392736
 30
0.0
 10
-22.35172751113922
 20
-0.8497378475986446
 30
0.0
 10
-21.44909536861087
 20
-1.306871836384493
 30
0.0
 10
-20.5325731686642
 20
-1.696453423861189
 30
0.0
 10
-19.60184749923483
 20
-1.985849945889896
 30
0.0
 10
-18.72790560339629
 20
-2.158379447641005
 30
0.0
 10
-18.16408462447264
 20
-2.168383485929515
 30
0.0
 10
-17.91069124476849
 20
-2.172879517768299
 30
0.0
1001
PE_URL
1000

  0
SPLINE
  5
23E
330
1F
100
AcDbEntity
  8
0
  6
Continuous
 62
     1
370
    15
100
AcDbSpline
210
0.0
220
0.0
230
1.0
 70
     8
 71
     3
 72
    14
 73
    10
 74
     0
 42
0.000000001
 43
0.00000001
 40
0.0
 40
0.0
 40
0.0
 40
0.0
 40
0.1500259284262689
 40
0.2997865782273451
 40
0.4494791379223574
 40
0.5993019965495747
 40
0.7494060563683107
 40
0.8993276678590766
 40
1.0
 40
1.0
 40
1.0
 40
1.0
 10
-28.575
 20
1.722178520816243
 30
0.0
 10
-28.29151069490126
 20
1.662083153222935
 30
0.0
 10
-27.72503335574345
 20
1.541998679778291
 30
0.0
 10
-26.87602586290766
 20
1.260930473369484
 30
0.0
 10
-26.02742314778432
 20
0.9228369018674913
 30
0.0
 10
-25.17810285329185
 20
0.5362485289282939
 30
0.0
 10
-24.32794414245606
 20
0.1247823173033214
 30
0.0
 10
-23.57091852283186
 20
-0.2513581256850334
 30
0.0
 10
-23.09758484787809
 20
-0.4730769180416094
 30
0.0
 10
-22.90743019271028
 20
-0.562149094258334
 30
0.0
1001
PE_URL
1000

  0
LINE
  5
23F
330
1F
100
AcDbEntity
  8
0
  6
Continuous
 62
     1
370
    15
100
AcDbLine
 10
-28.57499999999992
 20
2.071359991120254
 30
0.0
 11
-28.575
 21
1.722178520816243
 31
0.0
1001
PE_URL
1000

  0
SPLINE
  5
240
330
1F
100
AcDbEntity
  8
0
  6
Continuous
 62
     1
370
    15
100
AcDbSpline
210
0.0
220
0.0
230
1.0
 70
     8
 71
     3
 72
    46
 73
    42
 74
     0
 42
0.000000001
 43
0.00000001
 40
0.0
 40
0.0
 40
0.0
 40
0.0
 40
0.0625
 40
0.0625
 40
0.1250000000000002
 40
0.1250000000000002
 40
0.1875000000000003
 40
0.1875000000000003
 40
0.2187500000000003
 40
0.2187500000000003
 40
0.2500000000000006
 40
0.2500000000000006
 40
0.3125000000000006
 40
0.3125000000000006
 40
0.3750000000000006
 40
0.3750000000000006
 40
0.4375000000000007
 40
0.4375000000000007
 40
0.4687500000000008
 40
0.4687500000000008
 40
0.5000000000000009
 40
0.5000000000000009
 40
0.5625000000000009
 40
0.5625000000000009
 40
0.5937500000000007
 40
0.5937500000000007
 40
0.6250000000000007
 40
0.6250000000000007
 40
0.6875000000000003
 40
0.6875000000000003
 40
0.7500000000000001
 40
0.7500000000000001
 40
0.8124999999999999
 40
0.8124999999999999
 40
0.8437499999999999
 40
0.8437499999999999
 40
0.8749999999999999
 40
0.8749999999999999
 40
0.9375
 40
0.9375
 40
1.0
 40
1.0
 40
1.0
 40
1.0
 10
-15.87500000000006
 20
-2.110305073698819
 30
0.0
 10
-16.13980791314583
 20
-2.149358806038371
 30
0.0
 10
-16.40772214751665
 20
-2.172881256534092
 30
0.0
 10
-16.93226285329304
 20
-2.187626093357984
 30
0.0
 10
-17.19916864791155
 20
-2.178976085471781
 30
0.0
 10
-17.72956932513834
 20
-2.129794837515801
 30
0.0
 10
-17.99093313131378
 20
-2.089525571151009
 30
0.0
 10
-18.38972975699497
 20
-2.006241923002875
 30
0.0
 10
-18.52282738332558
 20
-1.974711945666358
 30
0.0
 10
-18.78715912686369
 20
-1.904677148433755
 30
0.0
 10
-18.91762280981509
 20
-1.86626702310755
 30
0.0
 10
-19.31398826889128
 20
-1.740517061602194
 30
0.0
 10
-19.58205670000389
 20
-1.642751098242083
 30
0.0
 10
-20.10830995078484
 20
-1.425852958292186
 30
0.0
 10
-20.3733561745278
 20
-1.305858551332495
 30
0.0
 10
-20.90445623263135
 20
-1.048270284259093
 30
0.0
 10
-21.16553812027311
 20
-0.9115651905140554
 30
0.0
 10
-21.56408445200904
 20
-0.6968067287572752
 30
0.0
 10
-21.69727862643959
 20
-0.6237401501410298
 30
0.0
 10
-21.96215814428991
 20
-0.4758607193581647
 30
0.0
 10
-22.09285851519259
 20
-0.4012385386815731
 30
0.0
 10
-22.48820600080702
 20
-0.1749722868836476
 30
0.0
 10
-22.75630868721102
 20
-0.0208625158978301
 30
0.0
 10
-23.15211389920888
 20
0.2076397570316771
 30
0.0
 10
-23.28266201768694
 20
0.2833012198282002
 30
0.0
 10
-23.54732057139082
 20
0.4339886755140657
 30
0.0
 10
-23.6804805080075
 20
0.5088291554309754
 30
0.0
 10
-24.07915566883697
 20
0.7299757039889079
 30
0.0
 10
-24.34031457233074
 20
0.8722746500266381
 30
0.0
 10
-24.87114296677411
 20
1.143538292566715
 30
0.0
 10
-25.13694400044816
 20
1.271757534971414
 30
0.0
 10
-25.66248990173909
 20
1.506850036763814
 30
0.0
 10
-25.93050685039919
 20
1.614897704764734
 30
0.0
 10
-26.32725658673881
 20
1.75731042442707
 30
0.0
 10
-26.45774562263879
 20
1.801446086721705
 30
0.0
 10
-26.72180716264863
 20
1.883308979861995
 30
0.0
 10
-26.85484537998565
 20
1.920956188597396
 30
0.0
 10
-27.2536957276426
 20
2.023040748058009
 30
0.0
 10
-27.51529046896593
 20
2.076361086278909
 30
0.0
 10
-28.04531998794611
 20
2.152319433832709
 30
0.0
 10
-28.31313133492351
 20
2.174710304139682
 30
0.0
 10
-28.575
 20
2.180967620118451
 30
0.0
1001
PE_URL
1000

  0
SPLINE
  5
241
330
1F
100
AcDbEntity
  8
0
  6
Continuous
 62
     1
370
    15
100
AcDbSpline
210
0.0
220
0.0
230
1.0
 70
     8
 71
     3
 72
    15
 73
    11
 74
     0
 42
0.000000001
 43
0.00000001
 40
0.0
 40
0.0
 40
0.0
 40
0.0
 40
0.032570488911987
 40
0.1928125828267949
 40
0.3530630838856335
 40
0.5133200201008373
 40
0.673581413339343
 40
0.7917409105705956
 40
0.9101480165290531
 40
0.9999999999999999
 40
0.9999999999999999
 40
0.9999999999999999
 40
0.9999999999999999
 10
-23.14391125682515
 20
0.2021557605470792
 30
0.0
 10
-23.06717775637134
 20
0.1721195037114376
 30
0.0
 10
-22.61292653368259
 20
-0.0056907918164748
 30
0.0
 10
-21.78113345219255
 20
-0.3494353077893828
 30
0.0
 10
-20.64849787760907
 20
-0.7782375009897249
 30
0.0
 10
-19.51587684473164
 20
-1.139688134373383
 30
0.0
 10
-18.4821911974919
 20
-1.377154844234798
 30
0.0
 10
-17.54776884696458
 20
-1.500282859615383
 30
0.0
 10
-16.77874007498389
 20
-1.542372600765279
 30
0.0
 10
-16.28817824638701
 20
-1.513244410827042
 30
0.0
 10
-16.07652864475219
 20
-1.500677249182189
 30
0.0
1001
PE_URL
1000

  0
SPLINE
  5
242
330
1F
100
AcDbEntity
  8
외형선
  6
Continuous
370
    15
100
AcDbSpline
210
0.0
220
0.0
230
1.0
 70
    24
 71
     3
 72
    13
 73
     9
 74
     0
 42
0.000000001
 43
0.00000001
 40
0.0
 40
0.0
 40
0.0
 40
0.0
 40
0.0736859045961513
 40
0.312637320681482
 40
0.5448544250097844
 40
0.783805841095116
 40
0.9317507875101451
 40
1.0
 40
1.0
 40
1.0
 40
1.0
 10
-15.875
 20
-2.110305073698809
 30
0.0
 10
-15.875
 20
-2.094967818418483
 30
0.0
 10
-15.875
 20
-2.029894336268418
 30
0.0
 10
-15.875
 20
-1.916501173204743
 30
0.0
 10
-15.875
 20
-1.773442442613874
 30
0.0
 10
-15.875
 20
-1.656849278388893
 30
0.0
 10
-15.875
 20
-1.576535105826588
 30
0.0
 10
-15.875
 20
-1.542151386586612
 30
0.0
 10
-15.875
 20
-1.531296968629682
 30
0.0
  0
LINE
  5
243
330
1F
100
AcDbEntity
  8
0
  6
Continuous
 62
     1
370
    15
100
AcDbLine
 10
-28.575
 20
2.180967620118454
 30
0.0
 11
-28.57499999999984
 21
2.071359991120249
 31
0.0
1001
PE_URL
1000

  0
SPLINE
  5
244
330
1F
100
AcDbEntity
  8
0
  6
Continuous
 62
     1
370
    15
100
AcDbSpline
210
0.0
220
0.0
230
1.0
 70
     8
 71
     3
 72
     8
 73
     4
 74
     0
 42
0.000000001
 43
0.00000001
 40
0.0
 40
0.0
 40
0.0
 40
0.0
 40
1.0
 40
1.0
 40
1.0
 40
1.0
 10
-27.22377037530581
 20
-0.6112018266196768
 30
0.0
 10
-27.14645019123441
 20
-0.7028228990928456
 30
0.0
 10
-27.07741771646469
 20
-0.7910358002691511
 30
0.0
 10
-27.01864407772409
 20
-0.8750299397561798
 30
0.0
1001
PE_URL
1000

  0
LINE
  5
245
330
1F
100
AcDbEntity
  8
0
  6
Continuous
 62
     1
370
    15
100
AcDbLine
 10
-27.04625957379021
 20
-0.8982020923200247
 30
0.0
 11
-28.575
 21
-0.0000000000000051
 31
0.0
1001
PE_URL
1000

  0
LINE
  5
246
330
1F
100
AcDbEntity
  8
0
  6
Continuous
 62
     1
370
    15
100
AcDbLine
 10
-28.575
 20
-0.0000000000000051
 30
0.0
 11
-28.575
 21
0.5833412431303293
 31
0.0
1001
PE_URL
1000

  0
SPLINE
  5
247
330
1F
100
AcDbEntity
  8
0
  6
Continuous
 62
     1
370
    15
100
AcDbSpline
210
0.0
220
0.0
230
1.0
 70
     8
 71
     3
 72
    10
 73
     6
 74
     0
 42
0.000000001
 43
0.00000001
 40
0.0
 40
0.0
 40
0.0
 40
0.0
 40
0.5
 40
0.5
 40
1.0
 40
1.0
 40
1.0
 40
1.0
 10
-28.575
 20
0.5833412431303293
 30
0.0
 10
-28.3410896539949
 20
0.3994465620390353
 30
0.0
 10
-28.11108997950517
 20
0.2080072785352043
 30
0.0
 10
-27.65910341293782
 20
-0.1903298247571141
 30
0.0
 10
-27.43501505108798
 20
-0.3993333841186765
 30
0.0
 10
-27.22377037530581
 20
-0.6112018266196821
 30
0.0
1001
PE_URL
1000

  0
SPLINE
  5
248
330
1F
100
AcDbEntity
  8
0
  6
Continuous
 62
     1
370
    15
100
AcDbSpline
210
0.0
220
0.0
230
1.0
 70
     8
 71
     3
 72
    13
 73
     9
 74
     0
 42
0.000000001
 43
0.00000001
 40
0.0
 40
0.0
 40
0.0
 40
0.0
 40
0.2033888453001499
 40
0.4067973141547003
 40
0.5760404817933409
 40
0.745075049094898
 40
0.9138767367342787
 40
0.9999999999999999
 40
0.9999999999999999
 40
0.9999999999999999
 40
0.9999999999999999
 10
-27.22377037530581
 20
-0.6112018266196786
 30
0.0
 10
-26.88292214898861
 20
-0.7543653217443909
 30
0.0
 10
-26.20119281031418
 20
-1.04070612482918
 30
0.0
 10
-25.23585038525715
 20
-1.363141507208002
 30
0.0
 10
-24.32797360770858
 20
-1.588345984215483
 30
0.0
 10
-23.47827819796259
 20
-1.714591584885845
 30
0.0
 10
-22.76803361084008
 20
-1.762183142239957
 30
0.0
 10
-22.34094456661906
 20
-1.733287075004217
 30
0.0
 10
-22.1966577792224
 20
-1.723524893636515
 30
0.0
1001
PE_URL
1000

  0
SPLINE
  5
249
330
1F
100
AcDbEntity
  8
0
  6
Continuous
 62
     1
370
    15
100
AcDbSpline
210
0.0
220
0.0
230
1.0
 70
    24
 71
     3
 72
    10
 73
     6
 74
     0
 42
0.000000001
 43
0.00000001
 40
0.0
 40
0.0
 40
0.0
 40
0.0
 40
0.5
 40
0.5
 40
1.0
 40
1.0
 40
1.0
 40
1.0
 10
-28.575
 20
1.722178520816243
 30
0.0
 10
-28.575
 20
1.590160110059865
 30
0.0
 10
-28.57499999999999
 20
1.423349785964584
 30
0.0
 10
-28.57499999999999
 20
1.035531836146088
 30
0.0
 10
-28.575
 20
0.8148601530354329
 30
0.0
 10
-28.575
 20
0.5833412431303986
 30
0.0
1001
PE_URL
1000

  0
SPLINE
  5
24A
330
1F
100
AcDbEntity
  8
0
  6
Continuous
 62
     1
370
    15
100
AcDbSpline
210
0.0
220
0.0
230
1.0
 70
     8
 71
     3
 72
    11
 73
     7
 74
     0
 42
0.000000001
 43
0.00000001
 40
0.0
 40
0.0
 40
0.0
 40
0.0
 40
0.1758290056772516
 40
0.4502122816535454
 40
0.7251478518909498
 40
1.0
 40
1.0
 40
1.0
 40
1.0
 10
-18.91806999829901
 20
1.805401634039333
 30
0.0
 10
-18.73974813823888
 20
1.824073690905945
 30
0.0
 10
-18.28315287298589
 20
1.871883716861004
 30
0.0
 10
-17.54777419456997
 20
1.84443555912008
 30
0.0
 10
-16.71154260634274
 20
1.742823823109802
 30
0.0
 10
-16.15381932670361
 20
1.602794426446154
 30
0.0
 10
-15.87500000000006
 20
1.532790351805903
 30
0.0
1001
PE_URL
1000

  0
SPLINE
  5
24B
330
1F
100
AcDbEntity
  8
0
  6
Continuous
 62
     1
370
    15
100
AcDbSpline
210
0.0
220
0.0
230
1.0
 70
     8
 71
     3
 72
    17
 73
    13
 74
     0
 42
0.000000001
 43
0.00000001
 40
0.0
 40
0.0
 40
0.0
 40
0.0
 40
0.0591375326850653
 40
0.1641412796347186
 40
0.2691409359004665
 40
0.3742773470161306
 40
0.4795604126581932
 40
0.5846484767011473
 40
0.6896357236615629
 40
0.7929605171061542
 40
0.8964961923728572
 40
1.0
 40
1.0
 40
1.0
 40
1.0
 10
-23.95582698853117
 20
1.630660897641773
 30
0.0
 10
-23.79651980827295
 20
1.657275450151329
 30
0.0
 10
-23.35434910490867
 20
1.731146416819629
 30
0.0
 10
-22.62953269996325
 20
1.758575402016453
 30
0.0
 10
-21.7808014722497
 20
1.716692229252806
 30
0.0
 10
-20.93118014916211
 20
1.584609545893201
 30
0.0
 10
-20.08102723524017
 20
1.37421635496848
 30
0.0
 10
-19.23164709170154
 20
1.094175859943558
 30
0.0
 10
-18.387601959332
 20
0.7610213666156886
 30
0.0
 10
-17.5477725179654
 20
0.3923661651179436
 30
0.0
 10
-16.71155375807588
 20
0.0058482081641851
 30
0.0
 10
-16.15382263725739
 20
-0.2491094444259009
 30
0.0
 10
-15.875
 20
-0.3765686491046638
 30
0.0
1001
PE_URL
1000

  0
SPLINE
  5
24C
330
1F
100
AcDbEntity
  8
외형선
  6
Continuous
370
    15
100
AcDbSpline
210
0.0
220
0.0
230
1.0
 70
    24
 71
     3
 72
    10
 73
     6
 74
     0
 42
0.000000001
 43
0.00000001
 40
0.0
 40
0.0
 40
0.0
 40
0.0
 40
0.5
 40
0.5
 40
1.0
 40
1.0
 40
1.0
 40
1.0
 10
-15.875
 20
-0.3765686491046638
 30
0.0
 10
-15.875
 20
-0.0416174031456344
 30
0.0
 10
-15.875
 20
0.3171545086582362
 30
0.0
 10
-15.875
 20
0.9845700930615175
 30
0.0
 10
-15.875
 20
1.290340948074588
 30
0.0
 10
-15.875
 20
1.532790351805886
 30
0.0
  0
SPLINE
  5
24D
330
1F
100
AcDbEntity
  8
외형선
  6
Continuous
370
    15
100
AcDbSpline
210
0.0
220
0.0
230
1.0
 70
    24
 71
     3
 72
    13
 73
     9
 74
     0
 42
0.000000001
 43
0.00000001
 40
0.0
 40
0.0
 40
0.0
 40
0.0
 40
0.111392648162667
 40
0.2918901301310519
 40
0.4673006938679179
 40
0.647798175836315
 40
0.8214346121819993
 40
1.0
 40
1.0
 40
1.0
 40
1.0
 10
-15.875
 20
-1.480342100753088
 30
0.0
 10
-15.875
 20
-1.475883209114702
 30
0.0
 10
-15.875
 20
-1.464199256160571
 30
0.0
 10
-15.875
 20
-1.369194831353296
 30
0.0
 10
-15.87499999999999
 20
-1.205895157001789
 30
0.0
 10
-15.875
 20
-0.9816004612141158
 30
0.0
 10
-15.875
 20
-0.7061578997103639
 30
0.0
 10
-15.875
 20
-0.4874519723893013
 30
0.0
 10
-15.875
 20
-0.3765686491046638
 30
0.0
  0
SPLINE
  5
24E
330
1F
100
AcDbEntity
  8
0
  6
Continuous
 62
     1
370
    15
100
AcDbSpline
210
0.0
220
0.0
230
1.0
 70
    24
 71
     3
 72
     8
 73
     4
 74
     0
 42
0.000000001
 43
0.00000001
 40
0.0
 40
0.0
 40
0.0
 40
0.0
 40
1.0
 40
1.0
 40
1.0
 40
1.0
 10
-27.24659204667293
 20
-1.066300996425051
 30
0.0
 10
-27.17453698133778
 20
-1.005839617677878
 30
0.0
 10
-27.09831618377887
 20
-0.941882774561847
 30
0.0
 10
-27.01864407772415
 20
-0.8750299397562189
 30
0.0
1001
PE_URL
1000

  0
LINE
  5
24F
330
1F
100
AcDbEntity
  8
0
  6
Continuous
 62
     1
370
    15
100
AcDbLine
 10
-28.575
 20
-1.527968750000005
 30
0.0
 11
-27.76370167294522
 21
-1.479221914997161
 31
0.0
1001
PE_URL
1000

  0
SPLINE
  5
250
330
1F
100
AcDbEntity
  8
0
  6
Continuous
 62
     1
370
    15
100
AcDbSpline
210
0.0
220
0.0
230
1.0
 70
     8
 71
     3
 72
     8
 73
     4
 74
     0
 42
0.000000001
 43
0.00000001
 40
0.0
 40
0.0
 40
0.0
 40
0.0
 40
1.0
 40
1.0
 40
1.0
 40
1.0
 10
-28.575
 20
-1.527968750000005
 30
0.0
 10
-28.12602903056682
 20
-1.406075596436757
 30
0.0
 10
-27.68133569784084
 20
-1.256449324117447
 30
0.0
 10
-27.24659204668416
 20
-1.066300996432598
 30
0.0
1001
PE_URL
1000

  0
LINE
  5
251
330
1F
100
AcDbEntity
  8
0
  6
Continuous
 62
     1
370
    15
100
AcDbLine
 10
-28.575
 20
-0.0000000000000051
 30
0.0
 11
-28.575
 21
-1.527968750000005
 31
0.0
1001
PE_URL
1000

  0
SPLINE
  5
252
330
1F
100
AcDbEntity
  8
0
  6
Continuous
 62
     1
370
    15
100
AcDbSpline
210
0.0
220
0.0
230
1.0
 70
     8
 71
     3
 72
    12
 73
     8
 74
     0
 42
0.000000001
 43
0.00000001
 40
0.0
 40
0.0
 40
0.0
 40
0.0
 40
0.1775771267743704
 40
0.3830682589084674
 40
0.5887096662564387
 40
0.7944384116521152
 40
1.0
 40
1.0
 40
1.0
 40
1.0
 10
-20.40653458633882
 20
1.717953471414753
 30
0.0
 10
-20.13834929077107
 20
1.807947790376061
 30
0.0
 10
-19.55982166109205
 20
2.00208296815695
 30
0.0
 10
-18.67064576594061
 20
2.159340278751721
 30
0.0
 10
-17.73880539848958
 20
2.201803767825033
 30
0.0
 10
-16.80671066871099
 20
2.116758562355161
 30
0.0
 10
-16.18548606331717
 20
1.954989236424324
 30
0.0
 10
-15.87499999999733
 20
1.874137446688261
 30
0.0
1001
PE_URL
1000

  0
SPLINE
  5
253
330
1F
100
AcDbEntity
  8
외형선
  6
Continuous
370
    15
100
AcDbSpline
210
0.0
220
0.0
230
1.0
 70
    24
 71
     3
 72
     8
 73
     4
 74
     0
 42
0.000000001
 43
0.00000001
 40
0.0
 40
0.0
 40
0.0
 40
0.0
 40
1.0
 40
1.0
 40
1.0
 40
1.0
 10
-15.875
 20
1.532790351805887
 30
0.0
 10
-15.875
 20
1.644000112723444
 30
0.0
 10
-15.875
 20
1.758502344968605
 30
0.0
 10
-15.875
 20
1.874137446676714
 30
0.0
  0
SPLINE
  5
254
330
1F
100
AcDbEntity
  8
0
  6
Continuous
 62
     1
370
    15
100
AcDbSpline
210
0.0
220
0.0
230
1.0
 70
     8
 71
     3
 72
    10
 73
     6
 74
     0
 42
0.000000001
 43
0.00000001
 40
0.0
 40
0.0
 40
0.0
 40
0.0
 40
0.3515571439429516
 40
0.7038383118195894
 40
1.0
 40
1.0
 40
1.0
 40
1.0
 10
-15.875
 20
2.110305073698802
 30
0.0
 10
-15.98961135856268
 20
2.125401931386549
 30
0.0
 10
-16.21907011517153
 20
2.155626738396722
 30
0.0
 10
-16.54506326110269
 20
2.17904300748081
 30
0.0
 10
-16.75606392288583
 20
2.180761309420584
 30
0.0
 10
-16.85243372882502
 20
2.181546105179429
 30
0.0
1001
PE_URL
1000

  0
SPLINE
  5
255
330
1F
100
AcDbEntity
  8
0
  6
Continuous
 62
     1
370
    15
100
AcDbSpline
210
0.0
220
0.0
230
1.0
 70
     8
 71
     3
 72
    16
 73
    12
 74
     0
 42
0.000000001
 43
0.00000001
 40
0.0
 40
0.0
 40
0.0
 40
0.0
 40
0.0559139468214853
 40
0.1612521130686071
 40
0.2643301748772441
 40
0.4711338011585658
 40
0.5749037843376751
 40
0.6807088288865656
 40
0.7867005088644318
 40
0.8932552687967179
 40
1.0
 40
1.0
 40
1.0
 40
1.0
 10
-25.57957035562211
 20
-1.463831179304362
 30
0.0
 10
-25.63536928234982
 20
-1.488982532394558
 30
0.0
 10
-25.7962896850989
 20
-1.561517366060968
 30
0.0
 10
-26.06062709423533
 20
-1.661543846060889
 30
0.0
 10
-26.47488817559218
 20
-1.810855748300652
 30
0.0
 10
-26.88794128051152
 20
-1.933852904281441
 30
0.0
 10
-27.30409254912461
 20
-2.031359812528595
 30
0.0
 10
-27.61856390091566
 20
-2.091793456679354
 30
0.0
 10
-27.93655878846003
 20
-2.137237956305146
 30
0.0
 10
-28.25572735988585
 20
-2.168826597828097
 30
0.0
 10
-28.46851261553631
 20
-2.176918210472981
 30
0.0
 10
-28.57499999999986
 20
-2.180967620118455
 30
0.0
1001
PE_URL
1000

  0
SPLINE
  5
256
330
1F
100
AcDbEntity
  8
0
  6
Continuous
 62
     1
370
    15
100
AcDbSpline
210
0.0
220
0.0
230
1.0
 70
    24
 71
     3
 72
    10
 73
     6
 74
     0
 42
0.000000001
 43
0.00000001
 40
0.0
 40
0.0
 40
0.0
 40
0.0
 40
0.5
 40
0.5
 40
1.0
 40
1.0
 40
1.0
 40
1.0
 10
-28.575
 20
-1.527968750000003
 30
0.0
 10
-28.57499999999999
 20
-1.620590410562219
 30
0.0
 10
-28.575
 20
-1.728225357824007
 30
0.0
 10
-28.575
 20
-1.95404318728487
 30
0.0
 10
-28.575
 20
-2.071649359085405
 30
0.0
 10
-28.575
 20
-2.18096762011846
 30
0.0
1001
PE_URL
1000

  0
ENDSEC
  0
SECTION
  2
OBJECTS
  0
DICTIONARY
  5
C
330
0
100
AcDbDictionary
281
     1
  3
ACAD_DETAILVIEWSTYLE
350
1C1
  3
ACAD_GROUP
350
D
  3
ACAD_LAYOUT
350
1A
  3
ACAD_MLINESTYLE
350
17
  3
ACAD_PLOTSETTINGS
350
19
  3
ACAD_PLOTSTYLENAME
350
E
  3
ACAD_SCALELIST
350
47
  3
ACAD_SECTIONVIEWSTYLE
350
1C2
  3
AcDbVariableDictionary
350
1BC
  3
APPDATA
350
15E
  3
DWGPROPS
350
257
  0
DICTIONARY
  5
197
330
2
100
AcDbDictionary
280
     1
281
     1
  3
ACAD_LAYERSTATES
360
198
  0
DICTIONARY
  5
1C1
102
{ACAD_REACTORS
330
C
102
}
330
C
100
AcDbDictionary
281
     1
  0
DICTIONARY
  5
D
102
{ACAD_REACTORS
330
C
102
}
330
C
100
AcDbDictionary
281
     1
  0
DICTIONARY
  5
1A
102
{ACAD_REACTORS
330
C
102
}
330
C
100
AcDbDictionary
281
     1
  3
Layout1
350
1E
  3
Layout2
350
26
  3
Model
350
22
  0
DICTIONARY
  5
17
102
{ACAD_REACTORS
330
C
102
}
330
C
100
AcDbDictionary
281
     1
  3
Standard
350
18
  0
DICTIONARY
  5
19
102
{ACAD_REACTORS
330
C
102
}
330
C
100
AcDbDictionary
281
     1
  0
ACDBDICTIONARYWDFLT
  5
E
102
{ACAD_REACTORS
330
C
102
}
330
C
100
AcDbDictionary
281
     1
  3
Normal
350
F
100
AcDbDictionaryWithDefault
340
F
  0
DICTIONARY
  5
47
102
{ACAD_REACTORS
330
C
102
}
330
C
100
AcDbDictionary
281
     1
  3
A0
350
48
  3
A1
350
49
  3
A2
350
4A
  3
A3
350
4B
  3
A4
350
4C
  3
A5
350
4D
  3
A6
350
4E
  3
A7
350
4F
  3
A8
350
50
  3
A9
350
51
  3
B0
350
52
  3
B1
350
53
  3
B2
350
54
  3
B3
350
55
  3
B4
350
56
  3
B5
350
57
  3
B6
350
58
  3
B7
350
59
  3
B8
350
5A
  3
B9
350
5B
  3
C0
350
5C
  3
C1
350
5D
  3
C2
350
5E
  3
C3
350
5F
  3
C4
350
60
  3
C5
350
61
  3
C6
350
62
  3
C7
350
63
  3
C8
350
64
  3
C9
350
65
  3
D0
350
66
  3
D1
350
67
  3
D2
350
68
  0
DICTIONARY
  5
1C2
102
{ACAD_REACTORS
330
C
102
}
330
C
100
AcDbDictionary
281
     1
  0
DICTIONARY
  5
1BC
102
{ACAD_REACTORS
330
C
102
}
330
C
100
AcDbDictionary
281
     1
  0
DICTIONARY
  5
15E
102
{ACAD_REACTORS
330
C
102
}
330
C
100
AcDbDictionary
281
     1
  0
XRECORD
  5
257
102
{ACAD_REACTORS
330
C
102
}
330
C
100
AcDbXrecord
280
     1
  1
DWGPROPS COOKIE
  2

  3

  4

  6

  7

  8
120170442
  9

300
=
301
=
302
=
303
=
304
=
305
=
306
=
307
=
308
=
309
=
 40
0.0
 41
2458313.016440579
 42
2458317.349168148
  1

 90
        0
  0
DICTIONARY
  5
198
102
{ACAD_REACTORS
330
197
102
}
330
197
100
AcDbDictionary
281
     1
  0
LAYOUT
  5
1E
102
{ACAD_REACTORS
330
1A
102
}
330
1A
100
AcDbPlotSettings
  1

  2
none_device
  4

  6

 40
0.0
 41
0.0
 42
0.0
 43
0.0
 44
0.0
 45
0.0
 46
0.0
 47
0.0
 48
0.0
 49
0.0
140
0.0
141
0.0
142
1.0
143
1.0
 70
   688
 72
     1
 73
     0
 74
     5
  7

 75
    16
147
1.0
148
0.0
149
0.0
100
AcDbLayout
  1
Layout1
 70
     1
 71
     1
 10
0.0
 20
0.0
 11
420.0
 21
297.0
 12
0.0
 22
0.0
 32
0.0
 14
1.000000000000000E+20
 24
1.000000000000000E+20
 34
1.000000000000000E+20
 15
-1.000000000000000E+20
 25
-1.000000000000000E+20
 35
-1.000000000000000E+20
146
0.0
 13
0.0
 23
0.0
 33
0.0
 16
1.0
 26
0.0
 36
0.0
 17
0.0
 27
1.0
 37
0.0
 76
     0
330
1B
  0
LAYOUT
  5
26
102
{ACAD_REACTORS
330
1A
102
}
330
1A
100
AcDbPlotSettings
  1

  2
none_device
  4

  6

 40
0.0
 41
0.0
 42
0.0
 43
0.0
 44
0.0
 45
0.0
 46
0.0
 47
0.0
 48
0.0
 49
0.0
140
0.0
141
0.0
142
1.0
143
1.0
 70
   688
 72
     1
 73
     0
 74
     5
  7

 75
    16
147
1.0
148
0.0
149
0.0
100
AcDbLayout
  1
Layout2
 70
     1
 71
     2
 10
0.0
 20
0.0
 11
0.0
 21
0.0
 12
0.0
 22
0.0
 32
0.0
 14
0.0
 24
0.0
 34
0.0
 15
0.0
 25
0.0
 35
0.0
146
0.0
 13
0.0
 23
0.0
 33
0.0
 16
1.0
 26
0.0
 36
0.0
 17
0.0
 27
1.0
 37
0.0
 76
     0
330
23
  0
LAYOUT
  5
22
102
{ACAD_REACTORS
330
1A
102
}
330
1A
100
AcDbPlotSettings
  1

  2
none_device
  4
ANSI_A_(11.00_x_8.50_Inches)
  6

 40
6.35
 41
19.05
 42
6.35000508
 43
19.05000254
 44
279.4
 45
215.9
 46
71.01408976598276
 47
81.04013216757463
 48
0.0
 49
0.0
140
0.0
141
0.0
142
0.0517112847516924
143
1.0
 70
  1696
 72
     0
 73
     0
 74
     0
  7

 75
     0
147
0.0235690232323232
148
0.0
149
0.0
100
AcDbLayout
  1
Model
 70
     1
 71
     0
 10
0.0
 20
0.0
 11
420.0
 21
297.0
 12
0.0
 22
0.0
 32
0.0
 14
-42.9500000000001
 24
-49.97180738881175
 34
0.0
 15
86.68162503295505
 25
38.53496762011859
 35
0.0
146
0.0
 13
0.0
 23
0.0
 33
0.0
 16
1.0
 26
0.0
 36
0.0
 17
0.0
 27
1.0
 37
0.0
 76
     0
330
1F
331
29
  0
MLINESTYLE
  5
18
102
{ACAD_REACTORS
330
17
102
}
330
17
100
AcDbMlineStyle
  2
Standard
 70
     0
  3

 62
   256
 51
90.0
 52
90.0
 71
     2
 49
0.5
 62
   256
  6
BYLAYER
 49
-0.5
 62
   256
  6
BYLAYER
  0
ACDBPLACEHOLDER
  5
F
102
{ACAD_REACTORS
330
E
102
}
330
E
  0
SCALE
  5
48
102
{ACAD_REACTORS
330
47
102
}
330
47
100
AcDbScale
 70
     0
300
1:1
140
1.0
141
1.0
290
     1
  0
SCALE
  5
49
102
{ACAD_REACTORS
330
47
102
}
330
47
100
AcDbScale
 70
     0
300
1:2
140
1.0
141
2.0
290
     0
  0
SCALE
  5
4A
102
{ACAD_REACTORS
330
47
102
}
330
47
100
AcDbScale
 70
     0
300
1:4
140
1.0
141
4.0
290
     0
  0
SCALE
  5
4B
102
{ACAD_REACTORS
330
47
102
}
330
47
100
AcDbScale
 70
     0
300
1:5
140
1.0
141
5.0
290
     0
  0
SCALE
  5
4C
102
{ACAD_REACTORS
330
47
102
}
330
47
100
AcDbScale
 70
     0
300
1:8
140
1.0
141
8.0
290
     0
  0
SCALE
  5
4D
102
{ACAD_REACTORS
330
47
102
}
330
47
100
AcDbScale
 70
     0
300
1:10
140
1.0
141
10.0
290
     0
  0
SCALE
  5
4E
102
{ACAD_REACTORS
330
47
102
}
330
47
100
AcDbScale
 70
     0
300
1:16
140
1.0
141
16.0
290
     0
  0
SCALE
  5
4F
102
{ACAD_REACTORS
330
47
102
}
330
47
100
AcDbScale
 70
     0
300
1:20
140
1.0
141
20.0
290
     0
  0
SCALE
  5
50
102
{ACAD_REACTORS
330
47
102
}
330
47
100
AcDbScale
 70
     0
300
1:30
140
1.0
141
30.0
290
     0
  0
SCALE
  5
51
102
{ACAD_REACTORS
330
47
102
}
330
47
100
AcDbScale
 70
     0
300
1:40
140
1.0
141
40.0
290
     0
  0
SCALE
  5
52
102
{ACAD_REACTORS
330
47
102
}
330
47
100
AcDbScale
 70
     0
300
1:50
140
1.0
141
50.0
290
     0
  0
SCALE
  5
53
102
{ACAD_REACTORS
330
47
102
}
330
47
100
AcDbScale
 70
     0
300
1:100
140
1.0
141
100.0
290
     0
  0
SCALE
  5
54
102
{ACAD_REACTORS
330
47
102
}
330
47
100
AcDbScale
 70
     0
300
2:1
140
2.0
141
1.0
290
     0
  0
SCALE
  5
55
102
{ACAD_REACTORS
330
47
102
}
330
47
100
AcDbScale
 70
     0
300
4:1
140
4.0
141
1.0
290
     0
  0
SCALE
  5
56
102
{ACAD_REACTORS
330
47
102
}
330
47
100
AcDbScale
 70
     0
300
8:1
140
8.0
141
1.0
290
     0
  0
SCALE
  5
57
102
{ACAD_REACTORS
330
47
102
}
330
47
100
AcDbScale
 70
     0
300
10:1
140
10.0
141
1.0
290
     0
  0
SCALE
  5
58
102
{ACAD_REACTORS
330
47
102
}
330
47
100
AcDbScale
 70
     0
300
100:1
140
100.0
141
1.0
290
     0
  0
SCALE
  5
59
102
{ACAD_REACTORS
330
47
102
}
330
47
100
AcDbScale
 70
     0
300
1/128" = 1'-0"
140
0.0078125
141
12.0
290
     0
  0
SCALE
  5
5A
102
{ACAD_REACTORS
330
47
102
}
330
47
100
AcDbScale
 70
     0
300
1/64" = 1'-0"
140
0.015625
141
12.0
290
     0
  0
SCALE
  5
5B
102
{ACAD_REACTORS
330
47
102
}
330
47
100
AcDbScale
 70
     0
300
1/32" = 1'-0"
140
0.03125
141
12.0
290
     0
  0
SCALE
  5
5C
102
{ACAD_REACTORS
330
47
102
}
330
47
100
AcDbScale
 70
     0
300
1/16" = 1'-0"
140
0.0625
141
12.0
290
     0
  0
SCALE
  5
5D
102
{ACAD_REACTORS
330
47
102
}
330
47
100
AcDbScale
 70
     0
300
3/32" = 1'-0"
140
0.09375
141
12.0
290
     0
  0
SCALE
  5
5E
102
{ACAD_REACTORS
330
47
102
}
330
47
100
AcDbScale
 70
     0
300
1/8" = 1'-0"
140
0.125
141
12.0
290
     0
  0
SCALE
  5
5F
102
{ACAD_REACTORS
330
47
102
}
330
47
100
AcDbScale
 70
     0
300
3/16" = 1'-0"
140
0.1875
141
12.0
290
     0
  0
SCALE
  5
60
102
{ACAD_REACTORS
330
47
102
}
330
47
100
AcDbScale
 70
     0
300
1/4" = 1'-0"
140
0.25
141
12.0
290
     0
  0
SCALE
  5
61
102
{ACAD_REACTORS
330
47
102
}
330
47
100
AcDbScale
 70
     0
300
3/8" = 1'-0"
140
0.375
141
12.0
290
     0
  0
SCALE
  5
62
102
{ACAD_REACTORS
330
47
102
}
330
47
100
AcDbScale
 70
     0
300
1/2" = 1'-0"
140
0.5
141
12.0
290
     0
  0
SCALE
  5
63
102
{ACAD_REACTORS
330
47
102
}
330
47
100
AcDbScale
 70
     0
300
3/4" = 1'-0"
140
0.75
141
12.0
290
     0
  0
SCALE
  5
64
102
{ACAD_REACTORS
330
47
102
}
330
47
100
AcDbScale
 70
     0
300
1" = 1'-0"
140
1.0
141
12.0
290
     0
  0
SCALE
  5
65
102
{ACAD_REACTORS
330
47
102
}
330
47
100
AcDbScale
 70
     0
300
1-1/2" = 1'-0"
140
1.5
141
12.0
290
     0
  0
SCALE
  5
66
102
{ACAD_REACTORS
330
47
102
}
330
47
100
AcDbScale
 70
     0
300
3" = 1'-0"
140
3.0
141
12.0
290
     0
  0
SCALE
  5
67
102
{ACAD_REACTORS
330
47
102
}
330
47
100
AcDbScale
 70
     0
300
6" = 1'-0"
140
6.0
141
12.0
290
     0
  0
SCALE
  5
68
102
{ACAD_REACTORS
330
47
102
}
330
47
100
AcDbScale
 70
     0
300
1'-0" = 1'-0"
140
12.0
141
12.0
290
     0
  0
ENDSEC
  0
EOF
