  0
SECTION
  2
HEADER
  9
$ACADVER
  1
AC1015
  9
$ACADMAINTVER
 70
     6
  9
$DWGCODEPAGE
  3
ANSI_949
  9
$INSBASE
 10
0.0
 20
0.0
 30
0.0
  9
$EXTMIN
 10
-39.95000000000009
 20
-49.97180738881175
 30
0.0
  9
$EXTMAX
 10
92.3384838153456
 20
27.88124999999999
 30
0.0
  9
$LIMMIN
 10
0.0
 20
0.0
  9
$LIMMAX
 10
420.0
 20
297.0
  9
$ORTHOMODE
 70
     1
  9
$REGENMODE
 70
     1
  9
$FILLMODE
 70
     1
  9
$QTEXTMODE
 70
     0
  9
$MIRRTEXT
 70
     1
  9
$LTSCALE
 40
1.0
  9
$ATTMODE
 70
     1
  9
$TEXTSIZE
 40
3.5
  9
$TRACEWID
 40
1.0
  9
$TEXTSTYLE
  7
Standard
  9
$CLAYER
  8
0
  9
$CELTYPE
  6
ByLayer
  9
$CECOLOR
 62
   256
  9
$CELTSCALE
 40
1.0
  9
$DISPSILH
 70
     0
  9
$DIMSCALE
 40
1.0
  9
$DIMASZ
 40
3.302
  9
$DIMEXO
 40
1.0
  9
$DIMDLI
 40
3.75
  9
$DIMRND
 40
0.0
  9
$DIMDLE
 40
0.0
  9
$DIMEXE
 40
1.0
  9
$DIMTP
 40
0.0
  9
$DIMTM
 40
0.0
  9
$DIMTXT
 40
3.5
  9
$DIMCEN
 40
2.5
  9
$DIMTSZ
 40
0.0
  9
$DIMTOL
 70
     0
  9
$DIMLIM
 70
     0
  9
$DIMTIH
 70
     1
  9
$DIMTOH
 70
     1
  9
$DIMSE1
 70
     0
  9
$DIMSE2
 70
     0
  9
$DIMTAD
 70
     1
  9
$DIMZIN
 70
     0
  9
$DIMBLK
  1

  9
$DIMASO
 70
     1
  9
$DIMSHO
 70
     1
  9
$DIMPOST
  1

  9
$DIMAPOST
  1

  9
$DIMALT
 70
     0
  9
$DIMALTD
 70
     3
  9
$DIMALTF
 40
0.0393700787401575
  9
$DIMLFAC
 40
1.0
  9
$DIMTOFL
 70
     1
  9
$DIMTVP
 40
0.0
  9
$DIMTIX
 70
     0
  9
$DIMSOXD
 70
     0
  9
$DIMSAH
 70
     0
  9
$DIMBLK1
  1

  9
$DIMBLK2
  1

  9
$DIMSTYLE
  2
ISO-25
  9
$DIMCLRD
 70
     0
  9
$DIMCLRE
 70
     0
  9
$DIMCLRT
 70
     0
  9
$DIMTFAC
 40
1.0
  9
$DIMGAP
 40
1.524
  9
$DIMJUST
 70
     0
  9
$DIMSD1
 70
     0
  9
$DIMSD2
 70
     0
  9
$DIMTOLJ
 70
     0
  9
$DIMTZIN
 70
     0
  9
$DIMALTZ
 70
     0
  9
$DIMALTTZ
 70
     0
  9
$DIMUPT
 70
     0
  9
$DIMDEC
 70
     2
  9
$DIMTDEC
 70
     2
  9
$DIMALTU
 70
     2
  9
$DIMALTTD
 70
     3
  9
$DIMTXSTY
  7
Standard
  9
$DIMAUNIT
 70
     0
  9
$DIMADEC
 70
     2
  9
$DIMALTRND
 40
0.0
  9
$DIMAZIN
 70
     0
  9
$DIMDSEP
 70
    44
  9
$DIMATFIT
 70
     3
  9
$DIMFRAC
 70
     0
  9
$DIMLDRBLK
  1

  9
$DIMLUNIT
 70
     2
  9
$DIMLWD
 70
    -2
  9
$DIMLWE
 70
    -2
  9
$DIMTMOVE
 70
     0
  9
$LUNITS
 70
     2
  9
$LUPREC
 70
     2
  9
$SKETCHINC
 40
1.0
  9
$FILLETRAD
 40
10.0
  9
$AUNITS
 70
     0
  9
$AUPREC
 70
     2
  9
$MENU
  1
.
  9
$ELEVATION
 40
0.0
  9
$PELEVATION
 40
0.0
  9
$THICKNESS
 40
0.0
  9
$LIMCHECK
 70
     0
  9
$CHAMFERA
 40
0.0
  9
$CHAMFERB
 40
0.0
  9
$CHAMFERC
 40
0.0
  9
$CHAMFERD
 40
0.0
  9
$SKPOLY
 70
     0
  9
$TDCREATE
 40
2458313.457257974
  9
$TDUCREATE
 40
2458313.082257974
  9
$TDUPDATE
 40
2458317.737037303
  9
$TDUUPDATE
 40
2458317.362037303
  9
$TDINDWG
 40
0.0006788079
  9
$TDUSRTIMER
 40
0.0016937847
  9
$USRTIMER
 70
     1
  9
$ANGBASE
 50
0.0
  9
$ANGDIR
 70
     0
  9
$PDMODE
 70
     0
  9
$PDSIZE
 40
-1.0
  9
$PLINEWID
 40
0.0
  9
$SPLFRAME
 70
     0
  9
$SPLINETYPE
 70
     6
  9
$SPLINESEGS
 70
     8
  9
$HANDSEED
  5
23D
  9
$SURFTAB1
 70
     6
  9
$SURFTAB2
 70
     6
  9
$SURFTYPE
 70
     6
  9
$SURFU
 70
     6
  9
$SURFV
 70
     6
  9
$UCSBASE
  2

  9
$UCSNAME
  2

  9
$UCSORG
 10
0.0
 20
0.0
 30
0.0
  9
$UCSXDIR
 10
1.0
 20
0.0
 30
0.0
  9
$UCSYDIR
 10
0.0
 20
1.0
 30
0.0
  9
$UCSORTHOREF
  2

  9
$UCSORTHOVIEW
 70
     0
  9
$UCSORGTOP
 10
0.0
 20
0.0
 30
0.0
  9
$UCSORGBOTTOM
 10
0.0
 20
0.0
 30
0.0
  9
$UCSORGLEFT
 10
0.0
 20
0.0
 30
0.0
  9
$UCSORGRIGHT
 10
0.0
 20
0.0
 30
0.0
  9
$UCSORGFRONT
 10
0.0
 20
0.0
 30
0.0
  9
$UCSORGBACK
 10
0.0
 20
0.0
 30
0.0
  9
$PUCSBASE
  2

  9
$PUCSNAME
  2

  9
$PUCSORG
 10
0.0
 20
0.0
 30
0.0
  9
$PUCSXDIR
 10
1.0
 20
0.0
 30
0.0
  9
$PUCSYDIR
 10
0.0
 20
1.0
 30
0.0
  9
$PUCSORTHOREF
  2

  9
$PUCSORTHOVIEW
 70
     0
  9
$PUCSORGTOP
 10
0.0
 20
0.0
 30
0.0
  9
$PUCSORGBOTTOM
 10
0.0
 20
0.0
 30
0.0
  9
$PUCSORGLEFT
 10
0.0
 20
0.0
 30
0.0
  9
$PUCSORGRIGHT
 10
0.0
 20
0.0
 30
0.0
  9
$PUCSORGFRONT
 10
0.0
 20
0.0
 30
0.0
  9
$PUCSORGBACK
 10
0.0
 20
0.0
 30
0.0
  9
$USERI1
 70
     0
  9
$USERI2
 70
     0
  9
$USERI3
 70
     0
  9
$USERI4
 70
     0
  9
$USERI5
 70
     0
  9
$USERR1
 40
0.0
  9
$USERR2
 40
0.0
  9
$USERR3
 40
0.0
  9
$USERR4
 40
0.0
  9
$USERR5
 40
0.0
  9
$WORLDVIEW
 70
     1
  9
$SHADEDGE
 70
     3
  9
$SHADEDIF
 70
    70
  9
$TILEMODE
 70
     1
  9
$MAXACTVP
 70
    64
  9
$PINSBASE
 10
0.0
 20
0.0
 30
0.0
  9
$PLIMCHECK
 70
     0
  9
$PEXTMIN
 10
1.000000000000000E+20
 20
1.000000000000000E+20
 30
1.000000000000000E+20
  9
$PEXTMAX
 10
-1.000000000000000E+20
 20
-1.000000000000000E+20
 30
-1.000000000000000E+20
  9
$PLIMMIN
 10
0.0
 20
0.0
  9
$PLIMMAX
 10
0.0
 20
0.0
  9
$UNITMODE
 70
     0
  9
$VISRETAIN
 70
     1
  9
$PLINEGEN
 70
     0
  9
$PSLTSCALE
 70
     1
  9
$TREEDEPTH
 70
  3020
  9
$CMLSTYLE
  2
Standard
  9
$CMLJUST
 70
     0
  9
$CMLSCALE
 40
20.0
  9
$PROXYGRAPHICS
 70
     1
  9
$MEASUREMENT
 70
     1
  9
$CELWEIGHT
370
    -1
  9
$ENDCAPS
280
     0
  9
$JOINSTYLE
280
     0
  9
$LWDISPLAY
290
     1
  9
$INSUNITS
 70
     4
  9
$HYPERLINKBASE
  1

  9
$STYLESHEET
  1

  9
$XEDIT
290
     1
  9
$CEPSNTYPE
380
     0
  9
$PSTYLEMODE
290
     1
  9
$FINGERPRINTGUID
  2
{87B0C624-3DA7-4D1A-8397-DCB1B765E30F}
  9
$VERSIONGUID
  2
{FAEB1C32-E019-11D5-929B-00C0DF256EC4}
  9
$EXTNAMES
290
     1
  9
$PSVPSCALE
 40
0.0
  9
$OLESTARTUP
290
     0
  0
ENDSEC
  0
SECTION
  2
CLASSES
  0
CLASS
  1
ACDBDICTIONARYWDFLT
  2
AcDbDictionaryWithDefault
  3
ObjectDBX Classes
 90
        0
280
     0
281
     0
  0
CLASS
  1
VISUALSTYLE
  2
AcDbVisualStyle
  3
ObjectDBX Classes
 90
     4095
280
     0
281
     0
  0
CLASS
  1
MATERIAL
  2
AcDbMaterial
  3
ObjectDBX Classes
 90
     1153
280
     0
281
     0
  0
CLASS
  1
SCALE
  2
AcDbScale
  3
ObjectDBX Classes
 90
     1153
280
     0
281
     0
  0
CLASS
  1
SUN
  2
AcDbSun
  3
SCENEOE
 90
     1153
280
     0
281
     0
  0
CLASS
  1
ACDBPLACEHOLDER
  2
AcDbPlaceHolder
  3
ObjectDBX Classes
 90
        0
280
     0
281
     0
  0
CLASS
  1
LAYOUT
  2
AcDbLayout
  3
ObjectDBX Classes
 90
        0
280
     0
281
     0
  0
CLASS
  1
TABLESTYLE
  2
AcDbTableStyle
  3
ObjectDBX Classes
 90
     4095
280
     0
281
     0
  0
CLASS
  1
MLEADERSTYLE
  2
AcDbMLeaderStyle
  3
ACDB_MLEADERSTYLE_CLASS
 90
     4095
280
     0
281
     0
  0
CLASS
  1
DICTIONARYVAR
  2
AcDbDictionaryVar
  3
ObjectDBX Classes
 90
        0
280
     0
281
     0
  0
ENDSEC
  0
SECTION
  2
TABLES
  0
TABLE
  2
VPORT
  5
8
330
0
100
AcDbSymbolTable
 70
     1
  0
VPORT
  5
29
330
8
100
AcDbSymbolTableRecord
100
AcDbViewportTableRecord
  2
*Active
 70
     0
 10
0.0
 20
0.0
 11
1.0
 21
1.0
 12
26.19424190767275
 22
-11.04527869440588
 13
0.0
 23
0.0
 14
10.0
 24
10.0
 15
10.0
 25
10.0
 16
0.0
 26
0.0
 36
1.0
 17
0.0
 27
0.0
 37
0.0
 40
79.41011853658797
 41
1.782762691853601
 42
50.0
 43
0.0
 44
0.0
 50
0.0
 51
0.0
 71
    16
 72
  2000
 73
     1
 74
     3
 75
     0
 76
     0
 77
     0
 78
     0
281
     0
 65
     1
110
0.0
120
0.0
130
0.0
111
1.0
121
0.0
131
0.0
112
0.0
122
1.0
132
0.0
 79
     0
146
0.0
  0
ENDTAB
  0
TABLE
  2
LTYPE
  5
5
330
0
100
AcDbSymbolTable
 70
     6
  0
LTYPE
  5
14
330
5
100
AcDbSymbolTableRecord
100
AcDbLinetypeTableRecord
  2
ByBlock
 70
     0
  3

 72
    65
 73
     0
 40
0.0
  0
LTYPE
  5
15
330
5
100
AcDbSymbolTableRecord
100
AcDbLinetypeTableRecord
  2
ByLayer
 70
     0
  3

 72
    65
 73
     0
 40
0.0
  0
LTYPE
  5
16
330
5
100
AcDbSymbolTableRecord
100
AcDbLinetypeTableRecord
  2
Continuous
 70
     0
  3
Solid line
 72
    65
 73
     0
 40
0.0
  0
LTYPE
  5
6A
330
5
100
AcDbSymbolTableRecord
100
AcDbLinetypeTableRecord
  2
HIDDEN
 70
     0
  3
Hidden __ __ __ __ __ __ __ __ __ __ __ __ __ __
 72
    65
 73
     2
 40
1.905
 49
1.27
 74
     0
 49
-0.635
 74
     0
  0
LTYPE
  5
6B
330
5
100
AcDbSymbolTableRecord
100
AcDbLinetypeTableRecord
  2
PHANTOM
 70
     0
  3
Phantom ______  __  __  ______  __  __  ______
 72
    65
 73
     6
 40
12.7
 49
6.35
 74
     0
 49
-1.27
 74
     0
 49
1.27
 74
     0
 49
-1.27
 74
     0
 49
1.27
 74
     0
 49
-1.27
 74
     0
  0
LTYPE
  5
6C
330
5
100
AcDbSymbolTableRecord
100
AcDbLinetypeTableRecord
  2
CENTER
 70
     0
  3
Center ____ _ ____ _ ____ _ ____ _ ____ _ ____
 72
    65
 73
     4
 40
10.16
 49
6.35
 74
     0
 49
-1.27
 74
     0
 49
1.27
 74
     0
 49
-1.27
 74
     0
  0
LTYPE
  5
6D
330
5
100
AcDbSymbolTableRecord
100
AcDbLinetypeTableRecord
  2
CENTERX2
 70
     0
  3
Center (2x) ________  __  ________  __  _____
 72
    65
 73
     4
 40
20.32
 49
12.7
 74
     0
 49
-2.54
 74
     0
 49
2.54
 74
     0
 49
-2.54
 74
     0
  0
LTYPE
  5
6E
330
5
100
AcDbSymbolTableRecord
100
AcDbLinetypeTableRecord
  2
DOT2
 70
     0
  3
Dot (.5x) ........................................
 72
    65
 73
     2
 40
0.635
 49
0.0
 74
     0
 49
-0.635
 74
     0
  0
ENDTAB
  0
TABLE
  2
LAYER
  5
2
330
0
100
AcDbSymbolTable
 70
    18
  0
LAYER
  5
10
330
2
100
AcDbSymbolTableRecord
100
AcDbLayerTableRecord
  2
0
 70
     0
 62
     7
  6
Continuous
370
    -3
390
F
  0
LAYER
  5
6F
330
2
100
AcDbSymbolTableRecord
100
AcDbLayerTableRecord
  2
FORMAT
 70
     0
 62
     2
  6
Continuous
370
    -3
390
F
  0
LAYER
  5
70
330
2
100
AcDbSymbolTableRecord
100
AcDbLayerTableRecord
  2
외형선
 70
     0
 62
     4
  6
Continuous
370
    30
390
F
  0
LAYER
  5
71
330
2
100
AcDbSymbolTableRecord
100
AcDbLayerTableRecord
  2
숨은선
 70
     0
 62
     2
  6
HIDDEN
370
    15
390
F
  0
LAYER
  5
72
330
2
100
AcDbSymbolTableRecord
100
AcDbLayerTableRecord
  2
중심선
 70
     0
 62
     1
  6
CENTERX2
370
    -3
390
F
  0
LAYER
  5
73
330
2
100
AcDbSymbolTableRecord
100
AcDbLayerTableRecord
  2
파단선
 70
     0
 62
     4
  6
Continuous
370
    -3
390
F
  0
LAYER
  5
74
330
2
100
AcDbSymbolTableRecord
100
AcDbLayerTableRecord
  2
해칭선
 70
     0
 62
   100
  6
Continuous
370
    -3
390
F
  0
LAYER
  5
75
330
2
100
AcDbSymbolTableRecord
100
AcDbLayerTableRecord
  2
가는실선
 70
     0
 62
     4
  6
Continuous
370
    -3
390
F
  0
LAYER
  5
76
330
2
100
AcDbSymbolTableRecord
100
AcDbLayerTableRecord
  2
치수_보조선
 70
     0
 62
     4
  6
Continuous
370
    -3
390
F
  0
LAYER
  5
77
330
2
100
AcDbSymbolTableRecord
100
AcDbLayerTableRecord
  2
치수문자_일반주서
 70
     0
 62
     7
  6
Continuous
370
    15
390
F
  0
LAYER
  5
78
330
2
100
AcDbSymbolTableRecord
100
AcDbLayerTableRecord
  2
개별주서
 70
     0
 62
   100
  6
Continuous
370
    30
390
F
  0
LAYER
  5
79
330
2
100
AcDbSymbolTableRecord
100
AcDbLayerTableRecord
  2
중간선
 70
     0
 62
     2
  6
Continuous
370
    15
390
F
  0
LAYER
  5
7A
330
2
100
AcDbSymbolTableRecord
100
AcDbLayerTableRecord
  2
윤곽선
 70
     0
 62
     3
  6
Continuous
370
    40
390
F
  0
LAYER
  5
7B
330
2
100
AcDbSymbolTableRecord
100
AcDbLayerTableRecord
  2
중심마크
 70
     0
 62
   100
  6
Continuous
370
    30
390
F
  0
LAYER
  5
7C
330
2
100
AcDbSymbolTableRecord
100
AcDbLayerTableRecord
  2
가상선
 70
     0
 62
     4
  6
PHANTOM
370
    -3
390
F
  0
LAYER
  5
7D
330
2
100
AcDbSymbolTableRecord
100
AcDbLayerTableRecord
  2
특수지정선
 70
     0
 62
     5
  6
CENTERX2
370
    60
390
F
  0
LAYER
  5
7E
330
2
100
AcDbSymbolTableRecord
100
AcDbLayerTableRecord
  2
참조1
 70
     0
 62
    -4
  6
Continuous
370
    -3
390
F
  0
LAYER
  5
157
330
2
100
AcDbSymbolTableRecord
100
AcDbLayerTableRecord
  2
Defpoints
 70
     0
 62
     7
  6
Continuous
290
     0
370
    -3
390
F
  0
ENDTAB
  0
TABLE
  2
STYLE
  5
3
330
0
100
AcDbSymbolTable
 70
     2
  0
STYLE
  5
11
330
3
100
AcDbSymbolTableRecord
100
AcDbTextStyleTableRecord
  2
Standard
 70
     0
 40
0.0
 41
1.0
 50
0.0
 71
     0
 42
3.5
  3
txt
  4

  0
STYLE
  5
94
330
3
100
AcDbSymbolTableRecord
100
AcDbTextStyleTableRecord
  2
SLDTEXTSTYLE0
 70
     0
 40
0.0
 41
0.75
 50
0.0
 71
     0
 42
3.5
  3
TXT
  4

  0
ENDTAB
  0
TABLE
  2
VIEW
  5
6
330
0
100
AcDbSymbolTable
 70
     0
  0
ENDTAB
  0
TABLE
  2
UCS
  5
7
330
0
100
AcDbSymbolTable
 70
     0
  0
ENDTAB
  0
TABLE
  2
APPID
  5
9
330
0
100
AcDbSymbolTable
 70
     2
  0
APPID
  5
12
330
9
100
AcDbSymbolTableRecord
100
AcDbRegAppTableRecord
  2
ACAD
 70
     0
  0
APPID
  5
15E
330
9
100
AcDbSymbolTableRecord
100
AcDbRegAppTableRecord
  2
PE_URL
 70
     0
  0
ENDTAB
  0
TABLE
  2
DIMSTYLE
  5
A
330
0
100
AcDbSymbolTable
 70
     3
100
AcDbDimStyleTable
  0
DIMSTYLE
105
27
330
A
100
AcDbSymbolTableRecord
100
AcDbDimStyleTableRecord
  2
ISO-25
 70
     0
 41
2.5
 42
0.625
 43
3.75
 44
1.25
 73
     0
 74
     0
 77
     1
 78
     8
140
2.5
141
2.5
143
0.03937007874016
147
0.625
171
     3
172
     1
178
     0
271
     2
272
     2
274
     3
278
    44
283
     0
284
     8
340
11
  0
DIMSTYLE
105
D5
102
{ACAD_REACTORS
330
D4
330
E9
330
112
330
FE
102
}
330
A
100
AcDbSymbolTableRecord
100
AcDbDimStyleTableRecord
  2
SLDDIMSTYLE0
 70
     0
 41
3.302
 44
0.0
 45
0.000000001
 73
     0
 74
     0
 77
     1
 78
    12
 79
     3
140
3.5
143
0.0393700787401575
147
0.875
148
0.000000001
170
     1
172
     1
173
     1
178
     0
271
     2
272
     2
276
     2
284
    12
289
     0
340
94
  0
DIMSTYLE
105
FF
330
A
100
AcDbSymbolTableRecord
100
AcDbDimStyleTableRecord
  2
SLDDIMSTYLE1
 70
     0
 41
3.302
 44
0.0
 45
0.000000001
 73
     0
 74
     0
 77
     1
 78
    12
 79
     3
140
3.5
143
0.0393700787401575
147
0.875
148
0.000000001
170
     1
173
     1
178
     0
271
     2
272
     2
276
     2
284
    12
340
94
  0
ENDTAB
  0
TABLE
  2
BLOCK_RECORD
  5
1
330
0
100
AcDbSymbolTable
 70
     9
  0
BLOCK_RECORD
  5
1F
330
1
100
AcDbSymbolTableRecord
100
AcDbBlockTableRecord
  2
*Model_Space
340
22
  0
BLOCK_RECORD
  5
1B
330
1
100
AcDbSymbolTableRecord
100
AcDbBlockTableRecord
  2
*Paper_Space
340
1E
  0
BLOCK_RECORD
  5
23
330
1
100
AcDbSymbolTableRecord
100
AcDbBlockTableRecord
  2
*Paper_Space0
340
26
  0
BLOCK_RECORD
  5
7F
330
1
100
AcDbSymbolTableRecord
100
AcDbBlockTableRecord
  2
블럭10
340
0
102
{BLKREFS
331
CD
102
}
  0
BLOCK_RECORD
  5
D6
330
1
100
AcDbSymbolTableRecord
100
AcDbBlockTableRecord
  2
_D
340
0
  0
BLOCK_RECORD
  5
EA
330
1
100
AcDbSymbolTableRecord
100
AcDbBlockTableRecord
  2
_D_1
340
0
  0
BLOCK_RECORD
  5
100
330
1
100
AcDbSymbolTableRecord
100
AcDbBlockTableRecord
  2
_D_2
340
0
  0
BLOCK_RECORD
  5
113
330
1
100
AcDbSymbolTableRecord
100
AcDbBlockTableRecord
  2
_D_3
340
0
  0
BLOCK_RECORD
  5
12D
330
1
100
AcDbSymbolTableRecord
100
AcDbBlockTableRecord
  2
SW_DOWELSYMBOL_0
340
0
102
{BLKREFS
331
133
102
}
  0
BLOCK_RECORD
  5
190
330
1
100
AcDbSymbolTableRecord
100
AcDbBlockTableRecord
  2
*D7
340
0
  0
BLOCK_RECORD
  5
1A2
330
1
100
AcDbSymbolTableRecord
100
AcDbBlockTableRecord
  2
*D8
340
0
  0
ENDTAB
  0
ENDSEC
  0
SECTION
  2
BLOCKS
  0
BLOCK
  5
20
330
1F
100
AcDbEntity
  8
0
100
AcDbBlockBegin
  2
*Model_Space
 70
     0
 10
0.0
 20
0.0
 30
0.0
  3
*Model_Space
  1

  0
ENDBLK
  5
21
330
1F
100
AcDbEntity
  8
0
100
AcDbBlockEnd
  0
BLOCK
  5
1C
330
1B
100
AcDbEntity
 67
     1
  8
0
100
AcDbBlockBegin
  2
*Paper_Space
 70
     0
 10
0.0
 20
0.0
 30
0.0
  3
*Paper_Space
  1

  0
ENDBLK
  5
1D
330
1B
100
AcDbEntity
 67
     1
  8
0
100
AcDbBlockEnd
  0
BLOCK
  5
24
330
23
100
AcDbEntity
  8
0
100
AcDbBlockBegin
  2
*Paper_Space0
 70
     0
 10
0.0
 20
0.0
 30
0.0
  3
*Paper_Space0
  1

  0
ENDBLK
  5
25
330
23
100
AcDbEntity
  8
0
100
AcDbBlockEnd
  0
BLOCK
  5
80
330
7F
100
AcDbEntity
  8
0
100
AcDbBlockBegin
  2
블럭10
 70
     2
 10
0.0
 20
0.0
 30
0.0
  3
블럭10
  1

  0
ELLIPSE
  5
82
330
7F
100
AcDbEntity
  8
중심선
100
AcDbEllipse
 10
20.54032771741204
 20
12.0471743016438
 30
0.0
 11
6.600054785286829
 21
-1.261213355974178E-13
 31
0.0
210
0.0
220
0.0
230
1.0
 40
0.636358354079598
 41
0.9219305317359503
 42
6.513795318482858
  0
ELLIPSE
  5
83
330
7F
100
AcDbEntity
  8
중심선
100
AcDbEllipse
 10
20.54032771746488
 20
12.04717430159265
 30
0.0
 11
3.960054785062283
 21
1.540847449632565E-10
 31
0.0
210
0.0
220
0.0
230
1.0
 40
0.3939339440162632
 41
1.131841032648279
 42
5.62031148352944
  0
LINE
  5
84
330
7F
100
AcDbEntity
  8
중심선
100
AcDbLine
 10
2.268634060543552
 20
16.24717430164393
 30
0.0
 11
5.714909304380834
 21
16.24717430164393
 31
0.0
  0
LINE
  5
85
330
7F
100
AcDbEntity
  8
중심선
100
AcDbLine
 10
5.245725140726316
 20
7.84717430164391
 30
0.0
 11
8.692000384563599
 21
7.84717430164391
 31
0.0
  0
LINE
  5
86
330
7F
100
AcDbEntity
  8
중심선
100
AcDbLine
 10
15.74043728645272
 20
16.24717430164393
 30
0.0
 11
8.692000384563599
 21
7.84717430164391
 31
0.0
  0
LINE
  5
87
330
7F
100
AcDbEntity
  8
중심선
100
AcDbLine
 10
0.1404042013395286
 20
13.71084872107135
 30
0.0
 11
3.58671253028996
 21
13.71088815037384
 31
0.0
  0
LINE
  5
88
330
7F
100
AcDbEntity
  8
중심선
100
AcDbLine
 10
2.750260043222114
 20
10.84717430164391
 30
0.0
 11
6.196535287059397
 21
10.84717430164391
 31
0.0
  0
LINE
  5
89
330
7F
100
AcDbEntity
  8
중심선
100
AcDbLine
 10
12.29416204261559
 20
16.24717430164393
 30
0.0
 11
5.245725140726316
 21
7.84717430164391
 31
0.0
  0
LINE
  5
8A
330
7F
100
AcDbEntity
  8
중심선
100
AcDbLine
 10
10.72767329541681
 20
16.24717430164393
 30
0.0
 11
6.196535287059397
 21
10.84717430164391
 31
0.0
  0
LINE
  5
8B
330
7F
100
AcDbEntity
  8
중심선
100
AcDbLine
 10
7.28139805157953
 20
16.24717430164393
 30
0.0
 11
2.750260043222114
 21
10.84717430164391
 31
0.0
  0
LINE
  5
8C
330
7F
100
AcDbEntity
  8
중심선
100
AcDbLine
 10
5.714909304380834
 20
16.24717430164393
 30
0.0
 11
3.58671253028996
 21
13.71088815037384
 31
0.0
  0
LINE
  5
8D
330
7F
100
AcDbEntity
  8
중심선
100
AcDbLine
 10
2.268634060543552
 20
16.24717430164393
 30
0.0
 11
0.1404042013395286
 21
13.71084872107135
 31
0.0
  0
LINE
  5
8E
330
7F
100
AcDbEntity
  8
중심선
100
AcDbLine
 10
7.28139805157953
 20
16.24717430164393
 30
0.0
 11
10.72767329541681
 21
16.24717430164393
 31
0.0
  0
LINE
  5
8F
330
7F
100
AcDbEntity
  8
중심선
100
AcDbLine
 10
12.29416204261559
 20
16.24717430164393
 30
0.0
 11
15.74043728645272
 21
16.24717430164393
 31
0.0
  0
LINE
  5
90
330
7F
100
AcDbEntity
  8
중심선
100
AcDbLine
 10
19.22036997980202
 20
11.08717430171403
 30
0.0
 11
23.66174974927406
 21
11.08717430171406
 31
0.0
  0
LINE
  5
91
330
7F
100
AcDbEntity
  8
중심선
100
AcDbLine
 10
19.22039502424796
 20
13.00717430171391
 30
0.0
 11
19.22036997980202
 21
11.08717430171403
 31
0.0
  0
LINE
  5
92
330
7F
100
AcDbEntity
  8
중심선
100
AcDbLine
 10
19.22039502424796
 20
13.00717430171391
 30
0.0
 11
26.96566020931264
 21
13.00717430171391
 31
0.0
  0
LINE
  5
93
330
7F
100
AcDbEntity
  8
중심선
100
AcDbLine
 10
22.22332737316547
 20
13.45928029700563
 30
0.0
 11
24.52862924686651
 21
15.39360700705356
 31
0.0
  0
ATTDEF
  5
95
330
7F
100
AcDbEntity
  8
FORMAT
 62
     2
100
AcDbText
 10
4.408487351596664
 20
2.075366912832191
 30
0.0
 40
4.233333333333333
  1
E1004004
 41
0.75
  7
SLDTEXTSTYLE0
 11
4.408487351596664
 21
-0.0412997538344756
 31
0.0
100
AcDbAttributeDefinition
  3

  2
AUTOATTR0
 70
     0
 74
     1
  0
ENDBLK
  5
81
330
7F
100
AcDbEntity
  8
0
100
AcDbBlockEnd
  0
BLOCK
  5
D7
330
D6
100
AcDbEntity
  8
0
100
AcDbBlockBegin
  2
_D
 70
     0
 10
0.0
 20
0.0
 30
0.0
  3
_D
  1

  0
LINE
  5
D9
330
D6
100
AcDbEntity
  8
치수문자_일반주서
 62
     0
370
    -2
100
AcDbLine
 10
28.6375
 20
0.7908310570256071
 30
0.0
 11
57.24808507711293
 21
0.7908310570257129
 31
0.0
  0
LINE
  5
DA
330
D6
100
AcDbEntity
  8
치수문자_일반주서
 62
     0
370
    -2
100
AcDbLine
 10
28.6375
 20
-0.7908310570256066
 30
0.0
 11
57.24808507711293
 21
-0.7908310570254997
 31
0.0
  0
LINE
  5
DB
330
D6
100
AcDbEntity
  8
치수문자_일반주서
 62
     0
370
    -2
100
AcDbLine
 10
57.24808507711293
 20
0.7908310570257129
 30
0.0
 11
57.24808507711282
 21
25.04083105702572
 31
0.0
  0
LINE
  5
DC
330
D6
100
AcDbEntity
  8
치수문자_일반주서
 62
     0
370
    -2
100
AcDbLine
 10
57.24808507711293
 20
0.7908310570257129
 30
0.0
 11
57.24808507711293
 21
-0.7908310570254997
 31
0.0
  0
LINE
  5
DD
330
D6
100
AcDbEntity
  8
치수문자_일반주서
 62
     0
370
    -2
100
AcDbLine
 10
57.24808507711291
 20
3.290831057025713
 30
0.0
 11
57.2480850771129
 21
5.790831057025713
 31
0.0
  0
LINE
  5
DE
330
D6
100
AcDbEntity
  8
치수문자_일반주서
 62
     0
370
    -2
100
AcDbLine
 10
57.24808507711295
 20
-3.2908310570255
 30
0.0
 11
57.24808507711296
 21
-5.7908310570255
 31
0.0
  0
SOLID
  5
DF
330
D6
100
AcDbEntity
  8
치수문자_일반주서
 62
     0
100
AcDbTrace
 10
56.83141841044625
 20
3.290831057025711
 30
0.0
 11
57.66475174377958
 21
3.290831057025715
 31
0.0
 12
57.24808507711293
 22
0.7908310570257129
 32
0.0
 13
57.24808507711293
 23
0.7908310570257129
 33
0.0
  0
SOLID
  5
E0
330
D6
100
AcDbEntity
  8
치수문자_일반주서
 62
     0
100
AcDbTrace
 10
57.66475174377961
 20
-3.290831057025498
 30
0.0
 11
56.83141841044628
 21
-3.290831057025501
 31
0.0
 12
57.24808507711293
 22
-0.7908310570254997
 32
0.0
 13
57.24808507711293
 23
-0.7908310570254997
 33
0.0
  0
MTEXT
  5
E1
330
D6
100
AcDbEntity
  8
치수문자_일반주서
 62
     0
100
AcDbMText
 10
53.87308507711286
 20
15.4158310570257
 30
0.0
 40
2.5
 41
0.0
 71
     2
 72
     1
  1
\A1;%%c1.58 [1/16]
  7
SLDTEXTSTYLE0
 11
-4.492380069344527E-15
 21
1.0
 31
0.0
 73
     1
 44
1.0
  0
POINT
  5
E2
330
D6
100
AcDbEntity
  8
Defpoints
 62
     0
100
AcDbPoint
 10
28.575
 20
0.7908310570256069
 30
0.0
  0
POINT
  5
E3
330
D6
100
AcDbEntity
  8
Defpoints
 62
     0
100
AcDbPoint
 10
28.575
 20
-0.7908310570256069
 30
0.0
  0
POINT
  5
E4
330
D6
100
AcDbEntity
  8
Defpoints
 62
     0
100
AcDbPoint
 10
57.24808507711293
 20
-0.7908310570254997
 30
0.0
  0
ENDBLK
  5
D8
330
D6
100
AcDbEntity
  8
0
100
AcDbBlockEnd
  0
BLOCK
  5
EB
330
EA
100
AcDbEntity
  8
0
100
AcDbBlockBegin
  2
_D_1
 70
     0
 10
0.0
 20
0.0
 30
0.0
  3
_D_1
  1

  0
LINE
  5
ED
330
EA
100
AcDbEntity
  8
치수문자_일반주서
 62
     0
370
    -2
100
AcDbLine
 10
28.575
 20
0.8533310570256069
 30
0.0
 11
28.575
 21
10.38125
 31
0.0
  0
LINE
  5
EE
330
EA
100
AcDbEntity
  8
치수문자_일반주서
 62
     0
370
    -2
100
AcDbLine
 10
23.81249999999999
 20
0.7911536034444561
 30
0.0
 11
23.81249999999999
 21
10.38125
 31
0.0
  0
LINE
  5
EF
330
EA
100
AcDbEntity
  8
치수문자_일반주서
 62
     0
370
    -2
100
AcDbLine
 10
28.575
 20
10.38125
 30
0.0
 11
52.2
 21
10.38125
 31
0.0
  0
LINE
  5
F0
330
EA
100
AcDbEntity
  8
치수문자_일반주서
 62
     0
370
    -2
100
AcDbLine
 10
28.575
 20
10.38125
 30
0.0
 11
23.81249999999999
 21
10.38125
 31
0.0
  0
LINE
  5
F1
330
EA
100
AcDbEntity
  8
치수문자_일반주서
 62
     0
370
    -2
100
AcDbLine
 10
31.075
 20
10.38125
 30
0.0
 11
33.575
 21
10.38125
 31
0.0
  0
LINE
  5
F2
330
EA
100
AcDbEntity
  8
치수문자_일반주서
 62
     0
370
    -2
100
AcDbLine
 10
21.31249999999999
 20
10.38125
 30
0.0
 11
18.81249999999999
 21
10.38125
 31
0.0
  0
SOLID
  5
F3
330
EA
100
AcDbEntity
  8
치수문자_일반주서
 62
     0
100
AcDbTrace
 10
31.075
 20
10.79791666666666
 30
0.0
 11
31.075
 21
9.96458333333333
 31
0.0
 12
28.575
 22
10.38125
 32
0.0
 13
28.575
 23
10.38125
 33
0.0
  0
SOLID
  5
F4
330
EA
100
AcDbEntity
  8
치수문자_일반주서
 62
     0
100
AcDbTrace
 10
21.31249999999999
 20
9.96458333333333
 30
0.0
 11
21.31249999999999
 21
10.79791666666666
 31
0.0
 12
23.81249999999999
 22
10.38125
 32
0.0
 13
23.81249999999999
 23
10.38125
 33
0.0
  0
MTEXT
  5
F5
330
EA
100
AcDbEntity
  8
치수문자_일반주서
 62
     0
100
AcDbMText
 10
42.8875
 20
13.75625
 30
0.0
 40
2.5
 41
0.0
 71
     2
 72
     1
  1
\A1;4.76 [3/16]
  7
SLDTEXTSTYLE0
 73
     1
 44
1.0
  0
POINT
  5
F6
330
EA
100
AcDbEntity
  8
Defpoints
 62
     0
100
AcDbPoint
 10
28.575
 20
0.7908310570256069
 30
0.0
  0
POINT
  5
F7
330
EA
100
AcDbEntity
  8
Defpoints
 62
     0
100
AcDbPoint
 10
23.81249999999999
 20
0.7286536034444561
 30
0.0
  0
POINT
  5
F8
330
EA
100
AcDbEntity
  8
Defpoints
 62
     0
100
AcDbPoint
 10
23.81249999999999
 20
10.38125
 30
0.0
  0
ENDBLK
  5
EC
330
EA
100
AcDbEntity
  8
0
100
AcDbBlockEnd
  0
BLOCK
  5
101
330
100
100
AcDbEntity
  8
0
100
AcDbBlockBegin
  2
_D_2
 70
     0
 10
0.0
 20
0.0
 30
0.0
  3
_D_2
  1

  0
LINE
  5
103
330
100
100
AcDbEntity
  8
치수문자_일반주서
 62
     0
370
    -2
100
AcDbLine
 10
28.575
 20
0.8533310570256069
 30
0.0
 11
28.57500000000001
 21
18.38125000000001
 31
0.0
  0
LINE
  5
104
330
100
100
AcDbEntity
  8
치수문자_일반주서
 62
     0
370
    -2
100
AcDbLine
 10
-28.57500000000001
 20
0.8533310570256101
 30
0.0
 11
-28.57500000000001
 21
18.38125000000001
 31
0.0
  0
LINE
  5
105
330
100
100
AcDbEntity
  8
치수문자_일반주서
 62
     0
370
    -2
100
AcDbLine
 10
26.07500000000001
 20
18.38125000000001
 30
0.0
 11
-26.07500000000001
 21
18.38125000000001
 31
0.0
  0
SOLID
  5
106
330
100
100
AcDbEntity
  8
치수문자_일반주서
 62
     0
100
AcDbTrace
 10
26.07500000000001
 20
17.96458333333334
 30
0.0
 11
26.07500000000001
 21
18.79791666666668
 31
0.0
 12
28.57500000000001
 22
18.38125000000001
 32
0.0
 13
28.57500000000001
 23
18.38125000000001
 33
0.0
  0
SOLID
  5
107
330
100
100
AcDbEntity
  8
치수문자_일반주서
 62
     0
100
AcDbTrace
 10
-26.07500000000001
 20
18.79791666666668
 30
0.0
 11
-26.07500000000001
 21
17.96458333333334
 31
0.0
 12
-28.57500000000001
 22
18.38125000000001
 32
0.0
 13
-28.57500000000001
 23
18.38125000000001
 33
0.0
  0
MTEXT
  5
108
330
100
100
AcDbEntity
  8
치수문자_일반주서
 62
     0
100
AcDbMText
 10
-1.458179486121114
 20
21.75625000000001
 30
0.0
 40
2.5
 41
0.0
 71
     2
 72
     1
  1
\A1;57.15 [2 1/4]
  7
SLDTEXTSTYLE0
 73
     1
 44
1.0
  0
POINT
  5
109
330
100
100
AcDbEntity
  8
Defpoints
 62
     0
100
AcDbPoint
 10
28.575
 20
0.7908310570256069
 30
0.0
  0
POINT
  5
10A
330
100
100
AcDbEntity
  8
Defpoints
 62
     0
100
AcDbPoint
 10
-28.57500000000001
 20
0.7908310570256101
 30
0.0
  0
POINT
  5
10B
330
100
100
AcDbEntity
  8
Defpoints
 62
     0
100
AcDbPoint
 10
-28.57500000000001
 20
18.38125000000001
 30
0.0
  0
ENDBLK
  5
102
330
100
100
AcDbEntity
  8
0
100
AcDbBlockEnd
  0
BLOCK
  5
114
330
113
100
AcDbEntity
  8
0
100
AcDbBlockBegin
  2
_D_3
 70
     0
 10
0.0
 20
0.0
 30
0.0
  3
_D_3
  1

  0
LINE
  5
116
330
113
100
AcDbEntity
  8
치수문자_일반주서
 62
     0
370
    -2
100
AcDbLine
 10
-16.95036934298439
 20
2.381250000000005
 30
0.0
 11
-36.57500000000002
 21
2.38124999999993
 31
0.0
  0
LINE
  5
117
330
113
100
AcDbEntity
  8
치수문자_일반주서
 62
     0
370
    -2
100
AcDbLine
 10
-16.9503693429844
 20
-2.381250000000007
 30
0.0
 11
-36.575
 21
-2.38125000000008
 31
0.0
  0
LINE
  5
118
330
113
100
AcDbEntity
  8
치수문자_일반주서
 62
     0
370
    -2
100
AcDbLine
 10
-36.57500000000002
 20
2.38124999999993
 30
0.0
 11
-36.57500000000009
 21
27.88124999999998
 31
0.0
  0
LINE
  5
119
330
113
100
AcDbEntity
  8
치수문자_일반주서
 62
     0
370
    -2
100
AcDbLine
 10
-36.57500000000002
 20
2.38124999999993
 30
0.0
 11
-36.575
 21
-2.38125000000008
 31
0.0
  0
LINE
  5
11A
330
113
100
AcDbEntity
  8
치수문자_일반주서
 62
     0
370
    -2
100
AcDbLine
 10
-36.57500000000002
 20
4.88124999999993
 30
0.0
 11
-36.57500000000003
 21
7.38124999999993
 31
0.0
  0
LINE
  5
11B
330
113
100
AcDbEntity
  8
치수문자_일반주서
 62
     0
370
    -2
100
AcDbLine
 10
-36.575
 20
-4.88125000000008
 30
0.0
 11
-36.57499999999999
 21
-7.38125000000008
 31
0.0
  0
SOLID
  5
11C
330
113
100
AcDbEntity
  8
치수문자_일반주서
 62
     0
100
AcDbTrace
 10
-36.99166666666669
 20
4.881249999999929
 30
0.0
 11
-36.15833333333336
 21
4.881249999999931
 31
0.0
 12
-36.57500000000002
 22
2.38124999999993
 32
0.0
 13
-36.57500000000002
 23
2.38124999999993
 33
0.0
  0
SOLID
  5
11D
330
113
100
AcDbEntity
  8
치수문자_일반주서
 62
     0
100
AcDbTrace
 10
-36.15833333333333
 20
-4.881250000000079
 30
0.0
 11
-36.99166666666666
 21
-4.88125000000008
 31
0.0
 12
-36.575
 22
-2.38125000000008
 32
0.0
 13
-36.575
 23
-2.38125000000008
 33
0.0
  0
MTEXT
  5
11E
330
113
100
AcDbEntity
  8
치수문자_일반주서
 62
     0
100
AcDbMText
 10
-39.95000000000006
 20
17.63124999999997
 30
0.0
 40
2.5
 41
0.0
 71
     2
 72
     1
  1
\A1;%%c4.76 [3/16]
  7
SLDTEXTSTYLE0
 11
-2.983906501879678E-15
 21
1.0
 31
0.0
 73
     1
 44
1.0
  0
POINT
  5
1BA
330
113
100
AcDbEntity
  8
Defpoints
 62
     0
100
AcDbPoint
 10
-16.88786934298439
 20
2.381250000000005
 30
0.0
  0
POINT
  5
1BB
330
113
100
AcDbEntity
  8
Defpoints
 62
     0
100
AcDbPoint
 10
-16.8878693429844
 20
-2.381250000000006
 30
0.0
  0
POINT
  5
1BC
330
113
100
AcDbEntity
  8
Defpoints
 62
     0
100
AcDbPoint
 10
-36.575
 20
-2.38125000000008
 30
0.0
  0
ENDBLK
  5
115
330
113
100
AcDbEntity
  8
0
100
AcDbBlockEnd
  0
BLOCK
  5
12E
330
12D
100
AcDbEntity
  8
0
100
AcDbBlockBegin
  2
SW_DOWELSYMBOL_0
 70
     0
 10
0.0
 20
0.0
 30
0.0
  3
SW_DOWELSYMBOL_0
  1

  0
CIRCLE
  5
130
330
12D
100
AcDbEntity
  8
해칭선
 62
     0
100
AcDbCircle
 10
0.0
 20
0.0
 30
0.0
 40
3.000000000000001
  0
HATCH
  5
131
330
12D
100
AcDbEntity
  8
0
  6
Continuous
 62
     0
370
     0
100
AcDbHatch
 10
0.0
 20
0.0
 30
0.0
210
0.0
220
0.0
230
1.0
  2
SOLID
 70
     1
 71
     0
 91
        1
 92
        0
 93
        3
 72
     2
 10
0.0
 20
0.0
 40
3.000000000000001
 50
0.0
 51
90.0
 73
     1
 72
     1
 10
0.0
 20
3.000000000000001
 11
0.0
 21
0.0
 72
     1
 10
0.0
 20
0.0
 11
3.000000000000001
 21
0.0
 97
        0
 75
     0
 76
     1
 98
        1
 10
0.0
 20
0.0
  0
HATCH
  5
132
330
12D
100
AcDbEntity
  8
0
  6
Continuous
 62
     0
370
     0
100
AcDbHatch
 10
0.0
 20
0.0
 30
0.0
210
0.0
220
0.0
230
1.0
  2
SOLID
 70
     1
 71
     0
 91
        1
 92
        0
 93
        3
 72
     2
 10
0.0
 20
0.0
 40
3.000000000000001
 50
180.0
 51
270.0000000000007
 73
     1
 72
     1
 10
0.0
 20
-3.000000000000001
 11
0.0
 21
0.0
 72
     1
 10
0.0
 20
0.0
 11
-3.000000000000001
 21
0.0
 97
        0
 75
     0
 76
     1
 98
        1
 10
0.0
 20
0.0
  0
ENDBLK
  5
12F
330
12D
100
AcDbEntity
  8
0
100
AcDbBlockEnd
  0
BLOCK
  5
191
330
190
100
AcDbEntity
  8
0
100
AcDbBlockBegin
  2
*D7
 70
     1
 10
0.0
 20
0.0
 30
0.0
  3
*D7
  1

  0
LINE
  5
193
330
190
100
AcDbEntity
  8
치수문자_일반주서
 62
     0
370
    -2
100
AcDbLine
 10
7.381250000000003
 20
0.8555791345833936
 30
0.0
 11
7.381250000000003
 21
12.77778956728914
 31
0.0
  0
LINE
  5
194
330
190
100
AcDbEntity
  8
치수문자_일반주서
 62
     0
370
    -2
100
AcDbLine
 10
5.0
 20
0.7163799115279786
 30
0.0
 11
5.0
 21
12.77778956728914
 31
0.0
  0
LINE
  5
195
330
190
100
AcDbEntity
  8
치수문자_일반주서
 62
     0
370
    -2
100
AcDbLine
 10
7.381250000000003
 20
12.77778956728914
 30
0.0
 11
31.63125
 21
12.77778956728914
 31
0.0
  0
LINE
  5
196
330
190
100
AcDbEntity
  8
치수문자_일반주서
 62
     0
370
    -2
100
AcDbLine
 10
7.381250000000003
 20
12.77778956728914
 30
0.0
 11
5.0
 21
12.77778956728914
 31
0.0
  0
LINE
  5
197
330
190
100
AcDbEntity
  8
치수문자_일반주서
 62
     0
370
    -2
100
AcDbLine
 10
9.881250000000003
 20
12.77778956728914
 30
0.0
 11
12.38125
 21
12.77778956728914
 31
0.0
  0
LINE
  5
198
330
190
100
AcDbEntity
  8
치수문자_일반주서
 62
     0
370
    -2
100
AcDbLine
 10
2.5
 20
12.77778956728914
 30
0.0
 11
0.0
 21
12.77778956728914
 31
0.0
  0
SOLID
  5
199
330
190
100
AcDbEntity
  8
치수문자_일반주서
 62
     0
100
AcDbTrace
 10
9.881250000000003
 20
13.1944562339558
 30
0.0
 11
9.881250000000003
 21
12.36112290062247
 31
0.0
 12
7.381250000000003
 22
12.77778956728914
 32
0.0
 13
7.381250000000003
 23
12.77778956728914
 33
0.0
  0
SOLID
  5
19A
330
190
100
AcDbEntity
  8
치수문자_일반주서
 62
     0
100
AcDbTrace
 10
2.5
 20
12.36112290062247
 30
0.0
 11
2.5
 21
13.1944562339558
 31
0.0
 12
5.0
 22
12.77778956728914
 32
0.0
 13
5.0
 23
12.77778956728914
 33
0.0
  0
MTEXT
  5
19B
330
190
100
AcDbEntity
  8
치수문자_일반주서
 62
     0
100
AcDbMText
 10
22.00625
 20
16.15278956728913
 30
0.0
 40
2.5
 41
0.0
 71
     2
 72
     1
  1
\A1;2.38 [3/32]
  7
SLDTEXTSTYLE0
 73
     1
 44
1.0
  0
POINT
  5
19C
330
190
100
AcDbEntity
  8
Defpoints
 62
     0
100
AcDbPoint
 10
7.381250000000003
 20
0.7930791345833936
 30
0.0
  0
POINT
  5
19D
330
190
100
AcDbEntity
  8
Defpoints
 62
     0
100
AcDbPoint
 10
5.0
 20
0.6538799115279786
 30
0.0
  0
POINT
  5
19E
330
190
100
AcDbEntity
  8
Defpoints
 62
     0
100
AcDbPoint
 10
5.0
 20
12.77778956728914
 30
0.0
  0
ENDBLK
  5
192
330
190
100
AcDbEntity
  8
0
100
AcDbBlockEnd
  0
BLOCK
  5
1A3
330
1A2
100
AcDbEntity
  8
0
100
AcDbBlockBegin
  2
*D8
 70
     1
 10
0.0
 20
0.0
 30
0.0
  3
*D8
  1

  0
LINE
  5
1A5
330
1A2
100
AcDbEntity
  8
치수문자_일반주서
 62
     0
370
    -2
100
AcDbLine
 10
62.405324569978
 20
-9.468277780908167
 30
0.0
 11
62.405324569978
 21
2.453932651797574
 31
0.0
  0
LINE
  5
1A6
330
1A2
100
AcDbEntity
  8
치수문자_일반주서
 62
     0
370
    -2
100
AcDbLine
 10
60.024074569978
 20
-9.607477003963583
 30
0.0
 11
60.024074569978
 21
2.453932651797574
 31
0.0
  0
LINE
  5
1A7
330
1A2
100
AcDbEntity
  8
치수문자_일반주서
 62
     0
370
    -2
100
AcDbLine
 10
62.405324569978
 20
2.453932651797574
 30
0.0
 11
86.655324569978
 21
2.453932651797574
 31
0.0
  0
LINE
  5
1A8
330
1A2
100
AcDbEntity
  8
치수문자_일반주서
 62
     0
370
    -2
100
AcDbLine
 10
62.405324569978
 20
2.453932651797574
 30
0.0
 11
60.024074569978
 21
2.453932651797574
 31
0.0
  0
LINE
  5
1A9
330
1A2
100
AcDbEntity
  8
치수문자_일반주서
 62
     0
370
    -2
100
AcDbLine
 10
64.905324569978
 20
2.453932651797574
 30
0.0
 11
67.405324569978
 21
2.453932651797574
 31
0.0
  0
LINE
  5
1AA
330
1A2
100
AcDbEntity
  8
치수문자_일반주서
 62
     0
370
    -2
100
AcDbLine
 10
57.524074569978
 20
2.453932651797574
 30
0.0
 11
55.024074569978
 21
2.453932651797574
 31
0.0
  0
SOLID
  5
1AB
330
1A2
100
AcDbEntity
  8
치수문자_일반주서
 62
     0
100
AcDbTrace
 10
64.905324569978
 20
2.870599318464241
 30
0.0
 11
64.905324569978
 21
2.037265985130908
 31
0.0
 12
62.405324569978
 22
2.453932651797574
 32
0.0
 13
62.405324569978
 23
2.453932651797574
 33
0.0
  0
SOLID
  5
1AC
330
1A2
100
AcDbEntity
  8
치수문자_일반주서
 62
     0
100
AcDbTrace
 10
57.524074569978
 20
2.037265985130908
 30
0.0
 11
57.524074569978
 21
2.870599318464241
 31
0.0
 12
60.024074569978
 22
2.453932651797574
 32
0.0
 13
60.024074569978
 23
2.453932651797574
 33
0.0
  0
MTEXT
  5
1AD
330
1A2
100
AcDbEntity
  8
치수문자_일반주서
 62
     0
100
AcDbMText
 10
77.030324569978
 20
5.828932651797574
 30
0.0
 40
2.5
 41
0.0
 71
     2
 72
     1
  1
\A1;2.38 [3/32]
  7
SLDTEXTSTYLE0
 73
     1
 44
1.0
  0
POINT
  5
1AE
330
1A2
100
AcDbEntity
  8
Defpoints
 62
     0
100
AcDbPoint
 10
62.405324569978
 20
-9.530777780908167
 30
0.0
  0
POINT
  5
1AF
330
1A2
100
AcDbEntity
  8
Defpoints
 62
     0
100
AcDbPoint
 10
60.024074569978
 20
-9.669977003963583
 30
0.0
  0
POINT
  5
1B0
330
1A2
100
AcDbEntity
  8
Defpoints
 62
     0
100
AcDbPoint
 10
60.024074569978
 20
2.453932651797574
 30
0.0
  0
ENDBLK
  5
1A4
330
1A2
100
AcDbEntity
  8
0
100
AcDbBlockEnd
  0
ENDSEC
  0
SECTION
  2
ENTITIES
  0
LINE
  5
96
330
1F
100
AcDbEntity
  8
0
  6
Continuous
 62
     1
370
    25
100
AcDbLine
 10
26.14852405461853
 20
0.220074153077515
 30
0.0
 11
26.11365797858392
 21
0.2384720855337367
 31
0.0
1001
PE_URL
1000

  0
LINE
  5
97
330
1F
100
AcDbEntity
  8
0
  6
Continuous
 62
     1
370
    25
100
AcDbLine
 10
28.30222712260268
 20
0.2227586265156209
 30
0.0
 11
28.27490336328165
 21
0.2375467159948097
 31
0.0
1001
PE_URL
1000

  0
LINE
  5
98
330
1F
100
AcDbEntity
  8
0
  6
Continuous
 62
     1
370
    25
100
AcDbLine
 10
27.26552978925572
 20
-0.1483277906958821
 30
0.0
 11
27.43685108145932
 21
-0.2381634787763792
 31
0.0
1001
PE_URL
1000

  0
LINE
  5
99
330
1F
100
AcDbEntity
  8
0
  6
Continuous
 62
     1
370
    25
100
AcDbLine
 10
26.53247910889765
 20
-0.7937500000000002
 30
0.0
 11
27.0167395701946
 21
-0.7937500000000002
 31
0.0
1001
PE_URL
1000

  0
LINE
  5
9A
330
1F
100
AcDbEntity
  8
0
  6
Continuous
 62
     1
370
    25
100
AcDbLine
 10
24.85741338879049
 20
0.7937500000000002
 30
0.0
 11
24.37285618334342
 21
0.7937500000000002
 31
0.0
1001
PE_URL
1000

  0
LINE
  5
9B
330
1F
100
AcDbEntity
  8
0
  6
Continuous
 62
     1
370
    25
100
AcDbLine
 10
27.01673957019459
 20
0.7937500000000002
 30
0.0
 11
26.53247910889766
 21
0.7937500000000002
 31
0.0
1001
PE_URL
1000

  0
LINE
  5
9C
330
1F
100
AcDbEntity
  8
0
  6
Continuous
 62
     1
370
    25
100
AcDbLine
 10
24.37285618334342
 20
-0.7937500000000002
 30
0.0
 11
24.85741338879048
 21
-0.7937500000000002
 31
0.0
1001
PE_URL
1000

  0
LINE
  5
9D
330
1F
100
AcDbEntity
  8
외형선
  6
Continuous
370
    15
100
AcDbLine
 10
16.88786934298439
 20
-2.381250000000005
 30
0.0
 11
22.81249999999999
 21
-0.7937499999999997
 31
0.0
  0
LINE
  5
9E
330
1F
100
AcDbEntity
  8
외형선
  6
Continuous
370
    15
100
AcDbLine
 10
22.81249999999999
 20
0.7937499999999997
 30
0.0
 11
16.88786934298439
 21
2.381250000000006
 31
0.0
  0
LINE
  5
9F
330
1F
100
AcDbEntity
  8
외형선
  6
Continuous
370
    15
100
AcDbLine
 10
-16.88786934298439
 20
-2.381250000000003
 30
0.0
 11
16.88786934298439
 21
-2.381250000000003
 31
0.0
  0
LINE
  5
A0
330
1F
100
AcDbEntity
  8
외형선
  6
Continuous
370
    15
100
AcDbLine
 10
16.88786934298439
 20
2.381250000000003
 30
0.0
 11
-16.88786934298439
 21
2.381250000000003
 31
0.0
  0
LINE
  5
A3
330
1F
100
AcDbEntity
  8
외형선
  6
Continuous
370
    15
100
AcDbLine
 10
22.81249999999999
 20
-0.7937499999999998
 30
0.0
 11
23.31236883352285
 21
-0.7937499999999998
 31
0.0
  0
LINE
  5
A4
330
1F
100
AcDbEntity
  8
외형선
  6
Continuous
370
    15
100
AcDbLine
 10
23.31236883352285
 20
0.7937499999999998
 30
0.0
 11
22.81249999999999
 21
0.7937499999999998
 31
0.0
  0
SPLINE
  5
A5
330
1F
100
AcDbEntity
  8
0
  6
Continuous
 62
     1
370
    25
100
AcDbSpline
210
0.0
220
0.0
230
1.0
 70
     8
 71
     3
 72
    11
 73
     7
 74
     0
 42
0.000000001
 43
0.00000001
 40
0.0
 40
0.0
 40
0.0
 40
0.0
 40
0.2835213741710528
 40
0.5670454966749272
 40
0.8505724658924984
 40
1.0
 40
1.0
 40
1.0
 40
1.0
 10
23.81250000000001
 20
-0.5754245743197609
 30
0.0
 10
23.99026898489262
 20
-0.6379274491351341
 30
0.0
 10
24.34580867789304
 20
-0.7629338046415497
 30
0.0
 10
24.87912221312737
 20
-0.8097035337601647
 30
0.0
 10
25.32835884727962
 20
-0.7679584353361697
 30
0.0
 10
25.59982480427281
 20
-0.6721826740569962
 30
0.0
 10
25.69351707040261
 20
-0.6391271550005974
 30
0.0
1001
PE_URL
1000

  0
SPLINE
  5
A6
330
1F
100
AcDbEntity
  8
외형선
  6
Continuous
370
    15
100
AcDbSpline
210
0.0
220
0.0
230
1.0
 70
    24
 71
     3
 72
    20
 73
    16
 74
     0
 42
0.000000001
 43
0.00000001
 40
0.0
 40
0.0
 40
0.0
 40
0.0
 40
0.1249999999999999
 40
0.1249999999999999
 40
0.25
 40
0.25
 40
0.4999999999999999
 40
0.4999999999999999
 40
0.6249999999999999
 40
0.6249999999999999
 40
0.7499999999999998
 40
0.7499999999999998
 40
0.8749999999999999
 40
0.8749999999999999
 40
1.0
 40
1.0
 40
1.0
 40
1.0
 10
23.81249999999999
 20
0.3148062716773789
 30
0.0
 10
23.8125
 20
0.3108596084079697
 30
0.0
 10
23.81249999999999
 20
0.3027801361961836
 30
0.0
 10
23.81249999999997
 20
0.2828106678932853
 30
0.0
 10
23.81249999999997
 20
0.268894660512689
 30
0.0
 10
23.81249999999999
 20
0.2095284159504907
 30
0.0
 10
23.8125
 20
0.1444037017945561
 30
0.0
 10
23.8125
 20
-0.0021054630203507
 30
0.0
 10
23.81249999999999
 20
-0.0586517768077774
 30
0.0
 10
23.81249999999998
 20
-0.179091647547212
 30
0.0
 10
23.81249999999999
 20
-0.2427770175981232
 30
0.0
 10
23.81249999999999
 20
-0.3628743527096621
 30
0.0
 10
23.81249999999999
 20
-0.4189387210836247
 30
0.0
 10
23.81249999999999
 20
-0.5119735757020271
 30
0.0
 10
23.81250000000001
 20
-0.5488970810362559
 30
0.0
 10
23.8125
 20
-0.5754245743187822
 30
0.0
  0
SPLINE
  5
A7
330
1F
100
AcDbEntity
  8
0
  6
Continuous
 62
     1
370
    25
100
AcDbSpline
210
0.0
220
0.0
230
1.0
 70
     8
 71
     3
 72
    13
 73
     9
 74
     0
 42
0.000000001
 43
0.00000001
 40
0.0
 40
0.0
 40
0.0
 40
0.0
 40
0.0334818237188992
 40
0.2295709980939572
 40
0.4221981066014027
 40
0.6148113238446548
 40
0.8074116265914654
 40
1.0
 40
1.0
 40
1.0
 40
1.0
 10
26.53247910889765
 20
-0.785354074919254
 30
0.0
 10
26.50212135258404
 20
-0.788006121723004
 30
0.0
 10
26.2939707907951
 20
-0.806190108259709
 30
0.0
 10
25.91116426982556
 20
-0.7250898284164252
 30
0.0
 10
25.38409355857944
 20
-0.5470426242303118
 30
0.0
 10
24.86019056456848
 20
-0.2821077963988401
 30
0.0
 10
24.33633009749919
 20
0.0237555794486801
 30
0.0
 10
23.98710642733379
 20
0.2177913773715821
 30
0.0
 10
23.81250000000001
 20
0.3148062716773743
 30
0.0
1001
PE_URL
1000

  0
SPLINE
  5
A8
330
1F
100
AcDbEntity
  8
0
  6
Continuous
 62
     1
370
    25
100
AcDbSpline
210
0.0
220
0.0
230
1.0
 70
     8
 71
     3
 72
    15
 73
    11
 74
     0
 42
0.000000001
 43
0.00000001
 40
0.0
 40
0.0
 40
0.0
 40
0.0
 40
0.1319495806298711
 40
0.2639004403215565
 40
0.3958526248610758
 40
0.527806179889446
 40
0.6597611508978619
 40
0.7893863490832879
 40
0.9190209263016934
 40
1.0
 40
1.0
 40
1.0
 40
1.0
 10
23.81250000000001
 20
0.5467409091781228
 30
0.0
 10
23.99026899513612
 20
0.4643302360380305
 30
0.0
 10
24.34580870862364
 20
0.2995080909046432
 30
0.0
 10
24.87912209020301
 20
-0.0139788344264676
 30
0.0
 10
25.4124423493978
 20
-0.3196337282740233
 30
0.0
 10
25.94576729236167
 20
-0.5790692438111559
 30
0.0
 10
26.47596566206219
 20
-0.7520888170835388
 30
0.0
 10
27.00301388876294
 20
-0.8106529658981423
 30
0.0
 10
27.46140012956443
 20
-0.7726442169417397
 30
0.0
 10
27.74515352792845
 20
-0.6766948840567717
 30
0.0
 10
27.854254183362
 20
-0.6398032197929593
 30
0.0
1001
PE_URL
1000

  0
SPLINE
  5
A9
330
1F
100
AcDbEntity
  8
외형선
  6
Continuous
370
    15
100
AcDbSpline
210
0.0
220
0.0
230
1.0
 70
    24
 71
     3
 72
    10
 73
     6
 74
     0
 42
0.000000001
 43
0.00000001
 40
0.0
 40
0.0
 40
0.0
 40
0.0
 40
0.3272781882506153
 40
0.6582359347024221
 40
0.9999999999999999
 40
0.9999999999999999
 40
0.9999999999999999
 40
0.9999999999999999
 10
23.81249999999999
 20
0.7286536034444561
 30
0.0
 10
23.81249999999999
 20
0.7121377904322189
 30
0.0
 10
23.8125
 20
0.6789204786596559
 30
0.0
 10
23.81249999999999
 20
0.6293536930988446
 30
0.0
 10
23.8125
 20
0.5981206778541295
 30
0.0
 10
23.8125
 20
0.5822533132539286
 30
0.0
  0
SPLINE
  5
AA
330
1F
100
AcDbEntity
  8
0
  6
Continuous
 62
     1
370
    25
100
AcDbSpline
210
0.0
220
0.0
230
1.0
 70
     8
 71
     3
 72
    36
 73
    32
 74
     0
 42
0.000000001
 43
0.00000001
 40
0.0
 40
0.0
 40
0.0
 40
0.0
 40
0.0624999999999994
 40
0.0624999999999994
 40
0.1249999999999988
 40
0.1249999999999988
 40
0.1874999999999981
 40
0.1874999999999981
 40
0.2499999999999975
 40
0.2499999999999975
 40
0.3124999999999969
 40
0.3124999999999969
 40
0.3749999999999962
 40
0.3749999999999962
 40
0.4374999999999956
 40
0.4374999999999956
 40
0.499999999999995
 40
0.499999999999995
 40
0.6249999999999938
 40
0.6249999999999938
 40
0.6874999999999948
 40
0.6874999999999948
 40
0.7499999999999958
 40
0.7499999999999958
 40
0.8124999999999969
 40
0.8124999999999969
 40
0.8749999999999979
 40
0.8749999999999979
 40
0.937499999999999
 40
0.937499999999999
 40
1.0
 40
1.0
 40
1.0
 40
1.0
 10
28.57499999999999
 20
-0.7908310570256069
 30
0.0
 10
28.4777078619765
 20
-0.78595537569379
 30
0.0
 10
28.37726991202813
 20
-0.7748587195038048
 30
0.0
 10
28.17701010243965
 20
-0.7406491482248708
 30
0.0
 10
28.07890808271412
 20
-0.7177144346727754
 30
0.0
 10
27.88223557256968
 20
-0.6611104365634279
 30
0.0
 10
27.78137381116714
 20
-0.6271526452388672
 30
0.0
 10
27.5816024825329
 20
-0.5501339842453207
 30
0.0
 10
27.48477585271032
 20
-0.5074384314895101
 30
0.0
 10
27.28647475234269
 20
-0.4141882837930578
 30
0.0
 10
27.18543927410629
 20
-0.3636325739671608
 30
0.0
 10
26.98664094316831
 20
-0.2581689915868172
 30
0.0
 10
26.89001895878065
 20
-0.2035171881966948
 30
0.0
 10
26.69056192475772
 20
-0.0907576220544848
 30
0.0
 10
26.58960427798356
 20
-0.0329865725951167
 30
0.0
 10
26.39225560043651
 20
0.0813038660253446
 30
0.0
 10
26.29476587639365
 20
0.1380377404558975
 30
0.0
 10
25.99456938342505
 20
0.3051419965956439
 30
0.0
 10
25.79930783145594
 20
0.4094897507230185
 30
0.0
 10
25.49883154819745
 20
0.5435606540526324
 30
0.0
 10
25.39996286622483
 20
0.5841207851706999
 30
0.0
 10
25.204033425143
 20
0.6553902329195783
 30
0.0
 10
25.10330395258919
 20
0.686500604942701
 30
0.0
 10
24.90328885365151
 20
0.7372978332252054
 30
0.0
 10
24.80610172563835
 20
0.7569009879529598
 30
0.0
 10
24.608366652741
 20
0.7843250511804343
 30
0.0
 10
24.50736778971886
 20
0.7920588888370187
 30
0.0
 10
24.30814160757149
 20
0.7949401877165867
 30
0.0
 10
24.21156817691262
 20
0.7902112387907065
 30
0.0
 10
24.01249559122388
 20
0.7684541050163011
 30
0.0
 10
23.91147857936988
 20
0.7513514744196593
 30
0.0
 10
23.81250000000001
 20
0.7286536034444581
 30
0.0
1001
PE_URL
1000

  0
LINE
  5
AB
330
1F
100
AcDbEntity
  8
0
  6
Continuous
 62
     1
370
    25
100
AcDbLine
 10
28.575
 20
-0.7188845709717482
 30
0.0
 11
28.575
 21
0.068009570971758
 31
0.0
1001
PE_URL
1000

  0
SPLINE
  5
AC
330
1F
100
AcDbEntity
  8
0
  6
Continuous
 62
     1
370
    25
100
AcDbSpline
210
0.0
220
0.0
230
1.0
 70
     8
 71
     3
 72
    15
 73
    11
 74
     0
 42
0.000000001
 43
0.00000001
 40
0.0
 40
0.0
 40
0.0
 40
0.0
 40
0.0058390710005007
 40
0.1492979329698631
 40
0.2927582849393434
 40
0.4362201763671254
 40
0.5771491308905334
 40
0.7180882823303634
 40
0.8590383384554312
 40
1.0
 40
1.0
 40
1.0
 40
1.0
 10
24.85741338879049
 20
0.7914439043289284
 30
0.0
 10
24.86464911189289
 20
0.792207504988395
 30
0.0
 10
25.04965773786085
 20
0.8117318437167694
 30
0.0
 10
25.41244245490068
 20
0.7399422380066527
 30
0.0
 10
25.94576724830839
 20
0.5740881798037151
 30
0.0
 10
26.47596573209604
 20
0.3112923276001507
 30
0.0
 10
27.00301365664102
 20
0.008026772037377
 30
0.0
 10
27.52696555151589
 20
-0.2935438171602086
 30
0.0
 10
28.05096303695646
 20
-0.5601722739006135
 30
0.0
 10
28.40031621839461
 20
-0.6659790200376241
 30
0.0
 10
28.575
 20
-0.7188845709717482
 30
0.0
1001
PE_URL
1000

  0
SPLINE
  5
AD
330
1F
100
AcDbEntity
  8
0
  6
Continuous
 62
     1
370
    25
100
AcDbSpline
210
0.0
220
0.0
230
1.0
 70
     8
 71
     3
 72
    13
 73
     9
 74
     0
 42
0.000000001
 43
0.00000001
 40
0.0
 40
0.0
 40
0.0
 40
0.0
 40
0.185115681863882
 40
0.3702287663852252
 40
0.5553393149762784
 40
0.7404473893226234
 40
0.9255530513769382
 40
0.9999999999999999
 40
0.9999999999999999
 40
0.9999999999999999
 40
0.9999999999999999
 10
28.575
 20
0.0680095709717579
 30
0.0
 10
28.39719595721606
 20
0.1692826329173719
 30
0.0
 10
28.04159036640176
 20
0.3718273358547986
 30
0.0
 10
27.50818769831577
 20
0.617302252898712
 30
0.0
 10
26.9747931102802
 20
0.7732770783681705
 30
0.0
 10
26.4414092299381
 20
0.8084728926275283
 30
0.0
 10
26.01431144545241
 20
0.7574433880922119
 30
0.0
 10
25.76502064486218
 20
0.665499293169566
 30
0.0
 10
25.69351707040262
 20
0.639127155000598
 30
0.0
1001
PE_URL
1000

  0
LINE
  5
AE
330
1F
100
AcDbEntity
  8
외형선
  6
Continuous
370
    15
100
AcDbLine
 10
23.81249999999999
 20
0.3148062716773772
 30
0.0
 11
23.81250000000001
 21
0.546740909178124
 31
0.0
  0
LINE
  5
AF
330
1F
100
AcDbEntity
  8
0
  6
Continuous
 62
     1
370
    25
100
AcDbLine
 10
28.575
 20
-0.7908310570256069
 30
0.0
 11
28.575
 21
-0.7188845709717482
 31
0.0
1001
PE_URL
1000

  0
SPLINE
  5
B0
330
1F
100
AcDbEntity
  8
0
  6
Continuous
 62
     1
370
    25
100
AcDbSpline
210
0.0
220
0.0
230
1.0
 70
     8
 71
     3
 72
    10
 73
     6
 74
     0
 42
0.000000001
 43
0.00000001
 40
0.0
 40
0.0
 40
0.0
 40
0.0
 40
0.327430115356721
 40
0.6637012138840632
 40
1.0
 40
1.0
 40
1.0
 40
1.0
 10
27.01673957019459
 20
0.7922954799646752
 30
0.0
 10
27.18681016848237
 20
0.7820803263846194
 30
0.0
 10
27.53154346342264
 20
0.7613741985328522
 30
0.0
 10
28.05096322606703
 20
0.5947369137189267
 30
0.0
 10
28.4003162814332
 20
0.4225930083480395
 30
0.0
 10
28.575
 20
0.3365175123507856
 30
0.0
1001
PE_URL
1000

  0
LINE
  5
B1
330
1F
100
AcDbEntity
  8
0
  6
Continuous
 62
     1
370
    25
100
AcDbLine
 10
28.575
 20
0.068009570971758
 30
0.0
 11
28.575
 21
0.3365175123507856
 31
0.0
1001
PE_URL
1000

  0
SPLINE
  5
B2
330
1F
100
AcDbEntity
  8
0
  6
Continuous
 62
     1
370
    25
100
AcDbSpline
210
0.0
220
0.0
230
1.0
 70
     8
 71
     3
 72
     9
 73
     5
 74
     0
 42
0.000000001
 43
0.00000001
 40
0.0
 40
0.0
 40
0.0
 40
0.0
 40
0.7400825516460434
 40
0.9999999999999999
 40
0.9999999999999999
 40
0.9999999999999999
 40
0.9999999999999999
 10
28.575
 20
0.790831057025607
 30
0.0
 10
28.39719588703839
 20
0.7756159256074795
 30
0.0
 10
28.15694685999927
 20
0.7550572306561024
 30
0.0
 10
27.91669883658096
 20
0.663579800119904
 30
0.0
 10
27.85425418336199
 20
0.6398032197929591
 30
0.0
1001
PE_URL
1000

  0
SPLINE
  5
B3
330
1F
100
AcDbEntity
  8
0
  6
Continuous
 62
     1
370
    25
100
AcDbSpline
210
0.0
220
0.0
230
1.0
 70
     8
 71
     3
 72
     9
 73
     5
 74
     0
 42
0.000000001
 43
0.00000001
 40
0.0
 40
0.0
 40
0.0
 40
0.0
 40
0.0651999094626564
 40
1.0
 40
1.0
 40
1.0
 40
1.0
 10
24.37285618334342
 20
-0.7900485010380319
 30
0.0
 10
24.36067764714423
 20
-0.7912733370517641
 30
0.0
 10
24.17389002275081
 20
-0.8100591915694554
 30
0.0
 10
23.98710585599463
 20
-0.7679847733785875
 30
0.0
 10
23.81250000000001
 20
-0.7286536034444578
 30
0.0
1001
PE_URL
1000

  0
LINE
  5
B4
330
1F
100
AcDbEntity
  8
0
  6
Continuous
 62
     1
370
    25
100
AcDbLine
 10
28.575
 20
0.3365175123507856
 30
0.0
 11
28.575
 21
0.7908310570256069
 31
0.0
1001
PE_URL
1000

  0
LINE
  5
B5
330
1F
100
AcDbEntity
  8
외형선
  6
Continuous
370
    15
100
AcDbLine
 10
23.81249999999999
 20
-0.7286536034444561
 30
0.0
 11
23.81250000000001
 21
-0.5754245743197599
 31
0.0
  0
LINE
  5
B6
330
1F
100
AcDbEntity
  8
외형선
  6
Continuous
370
    15
100
AcDbLine
 10
22.81249999999999
 20
0.0
 30
0.0
 11
22.81249999999999
 21
0.7937499999999997
 31
0.0
  0
LINE
  5
B7
330
1F
100
AcDbEntity
  8
외형선
  6
Continuous
370
    15
100
AcDbLine
 10
22.81249999999999
 20
-0.79375
 30
0.0
 11
22.81249999999999
 21
0.0
 31
0.0
  0
LINE
  5
B8
330
1F
100
AcDbEntity
  8
외형선
  6
Continuous
370
    15
100
AcDbLine
 10
16.88786934298439
 20
0.0
 30
0.0
 11
16.88786934298439
 21
2.381250000000006
 31
0.0
  0
LINE
  5
B9
330
1F
100
AcDbEntity
  8
외형선
  6
Continuous
370
    15
100
AcDbLine
 10
16.88786934298439
 20
-2.381250000000007
 30
0.0
 11
16.88786934298439
 21
0.0
 31
0.0
  0
SPLINE
  5
BE
330
1F
100
AcDbEntity
  8
외형선
  6
Continuous
370
    15
100
AcDbSpline
210
0.0
220
0.0
230
1.0
 70
     8
 71
     3
 72
     9
 73
     5
 74
     0
 42
0.000000001
 43
0.00000001
 40
0.0
 40
0.0
 40
0.0
 40
0.0
 40
0.9956739213998822
 40
1.0
 40
1.0
 40
1.0
 40
1.0
 10
23.8125
 20
0.7286536034444572
 30
0.0
 10
23.71982206021443
 20
0.70635978429022
 30
0.0
 10
23.62674144637726
 20
0.6839691012813762
 30
0.0
 10
23.53335575511951
 20
0.6497918322746742
 30
0.0
 10
23.53295176127901
 20
0.6496439787226139
 30
0.0
  0
LINE
  5
BF
330
1F
100
AcDbEntity
  8
외형선
  6
Continuous
370
    15
100
AcDbLine
 10
23.31236883352284
 20
0.7156769659311238
 30
0.0
 11
23.31236883352285
 21
0.7937499999999998
 31
0.0
  0
SPLINE
  5
C0
330
1F
100
AcDbEntity
  8
외형선
  6
Continuous
370
    15
100
AcDbSpline
210
0.0
220
0.0
230
1.0
 70
     8
 71
     3
 72
    10
 73
     6
 74
     0
 42
0.000000001
 43
0.00000001
 40
0.0
 40
0.0
 40
0.0
 40
0.0
 40
0.5
 40
0.5
 40
1.0
 40
1.0
 40
1.0
 40
1.0
 10
23.81249999999998
 20
0.5467409091781305
 30
0.0
 10
23.72932731208099
 20
0.5816043038961572
 30
0.0
 10
23.64804039670793
 20
0.6132217902080693
 30
0.0
 10
23.480631752566
 20
0.6699699782663058
 30
0.0
 10
23.39594496459161
 20
0.6948763340499161
 30
0.0
 10
23.31236883352284
 20
0.7157050628249934
 30
0.0
  0
SPLINE
  5
C1
330
1F
100
AcDbEntity
  8
외형선
  6
Continuous
370
    15
100
AcDbSpline
210
0.0
220
0.0
230
1.0
 70
     8
 71
     3
 72
    10
 73
     6
 74
     0
 42
0.000000001
 43
0.00000001
 40
0.0
 40
0.0
 40
0.0
 40
0.0
 40
0.5
 40
0.5
 40
1.0
 40
1.0
 40
1.0
 40
1.0
 10
23.8125
 20
0.3148062716773747
 30
0.0
 10
23.72932731208099
 20
0.3589533924701002
 30
0.0
 10
23.64804039670793
 20
0.4010509167147781
 30
0.0
 10
23.48063175256602
 20
0.4811824708674501
 30
0.0
 10
23.39594496459161
 20
0.5189434009467602
 30
0.0
 10
23.31236883352285
 20
0.5534703433505873
 30
0.0
  0
LINE
  5
C2
330
1F
100
AcDbEntity
  8
외형선
  6
Continuous
370
    15
100
AcDbLine
 10
23.31236883352284
 20
-0.3432863861786819
 30
0.0
 11
23.31236883352285
 21
0.5535111525594705
 31
0.0
  0
SPLINE
  5
C3
330
1F
100
AcDbEntity
  8
외형선
  6
Continuous
370
    15
100
AcDbSpline
210
0.0
220
0.0
230
1.0
 70
     8
 71
     3
 72
    10
 73
     6
 74
     0
 42
0.000000001
 43
0.00000001
 40
0.0
 40
0.0
 40
0.0
 40
0.0
 40
0.5000000000000001
 40
0.5000000000000001
 40
1.0
 40
1.0
 40
1.0
 40
1.0
 10
23.81249999999998
 20
-0.5754245743197528
 30
0.0
 10
23.72932731208099
 20
-0.5422990441011251
 30
0.0
 10
23.64804039670793
 20
-0.5062812275240598
 30
0.0
 10
23.48063175256601
 20
-0.4283711866490364
 30
0.0
 10
23.39594496459161
 20
-0.3866602605491835
 30
0.0
 10
23.31236883352284
 20
-0.3432278041573415
 30
0.0
  0
SPLINE
  5
C4
330
1F
100
AcDbEntity
  8
외형선
  6
Continuous
370
    15
100
AcDbSpline
210
0.0
220
0.0
230
1.0
 70
     8
 71
     3
 72
    10
 73
     6
 74
     0
 42
0.000000001
 43
0.00000001
 40
0.0
 40
0.0
 40
0.0
 40
0.0
 40
0.5
 40
0.5
 40
1.0
 40
1.0
 40
1.0
 40
1.0
 10
23.8125
 20
-0.7286536034444572
 30
0.0
 10
23.72932731208099
 20
-0.7095803559694543
 30
0.0
 10
23.64804039670793
 20
-0.6866729989824112
 30
0.0
 10
23.48063175256602
 20
-0.6331074751250044
 30
0.0
 10
23.39594496459161
 20
-0.6025421340656828
 30
0.0
 10
23.31236883352285
 20
-0.5689548677455752
 30
0.0
  0
LINE
  5
C5
330
1F
100
AcDbEntity
  8
외형선
  6
Continuous
370
    15
100
AcDbLine
 10
23.31236883352285
 20
-0.7937499999999998
 30
0.0
 11
23.31236883352285
 21
-0.5689151663405437
 31
0.0
  0
LINE
  5
C6
330
1F
100
AcDbEntity
  8
외형선
  6
Continuous
370
    15
100
AcDbLine
 10
23.31236883352284
 20
-0.7157050628249934
 30
0.0
 11
23.53295176127901
 21
-0.649643978722614
 31
0.0
  0
SPLINE
  5
C7
330
1F
100
AcDbEntity
  8
외형선
  6
Continuous
370
    15
100
AcDbSpline
210
0.0
220
0.0
230
1.0
 70
    24
 71
     3
 72
    20
 73
    16
 74
     0
 42
0.000000001
 43
0.00000001
 40
0.0
 40
0.0
 40
0.0
 40
0.0
 40
0.125
 40
0.125
 40
0.25
 40
0.25
 40
0.375
 40
0.375
 40
0.5
 40
0.5
 40
0.75
 40
0.75
 40
0.875
 40
0.875
 40
1.0
 40
1.0
 40
1.0
 40
1.0
 10
23.81249999999999
 20
-0.5754245743197526
 30
0.0
 10
23.81249999999998
 20
-0.5488970810374164
 30
0.0
 10
23.81249999999999
 20
-0.5119735757033518
 30
0.0
 10
23.81249999999998
 20
-0.4189387210851326
 30
0.0
 10
23.8125
 20
-0.3628743527111862
 30
0.0
 10
23.81249999999999
 20
-0.2427770175995222
 30
0.0
 10
23.8125
 20
-0.1790916475484726
 30
0.0
 10
23.8125
 20
-0.0586517768087117
 30
0.0
 10
23.81249999999999
 20
-0.0021054630211009
 30
0.0
 10
23.8125
 20
0.1444037017942822
 30
0.0
 10
23.81249999999999
 20
0.2095284159504126
 30
0.0
 10
23.81249999999999
 20
0.2688946605127304
 30
0.0
 10
23.81249999999999
 20
0.2828106678933429
 30
0.0
 10
23.81249999999999
 20
0.3027801361962488
 30
0.0
 10
23.81250000000004
 20
0.310859608408044
 30
0.0
 10
23.81250000000001
 20
0.3148062716774266
 30
0.0
  0
SPLINE
  5
C8
330
1F
100
AcDbEntity
  8
외형선
  6
Continuous
370
    15
100
AcDbSpline
210
0.0
220
0.0
230
1.0
 70
    24
 71
     3
 72
    10
 73
     6
 74
     0
 42
0.000000001
 43
0.00000001
 40
0.0
 40
0.0
 40
0.0
 40
0.0
 40
0.3883457798830693
 40
0.9216309461113034
 40
1.0
 40
1.0
 40
1.0
 40
1.0
 10
23.81249999999999
 20
0.5822533132539287
 30
0.0
 10
23.81249999999999
 20
0.6003793777072716
 30
0.0
 10
23.81250000000001
 20
0.6433965618683536
 30
0.0
 10
23.81249999999983
 20
0.6937809233825919
 30
0.0
 10
23.81249999999999
 20
0.7246929559624394
 30
0.0
 10
23.8125
 20
0.7286536034449274
 30
0.0
  0
LINE
  5
C9
330
1F
100
AcDbEntity
  8
중심선
 62
     1
100
AcDbLine
 10
-30.07500000000001
 20
-0.0000000000000037
 30
0.0
 11
30.075
 21
0.0000000000000037
 31
0.0
  0
LINE
  5
CA
330
1F
100
AcDbEntity
  8
참조1
100
AcDbLine
 10
-0.000000000000016
 20
-0.0000000000000039
 30
0.0
 11
-0.0000000000000053
 21
-40.00000000000001
 31
0.0
  0
LINE
  5
CB
330
1F
100
AcDbEntity
  8
참조1
100
AcDbLine
 10
-0.0000000000000053
 20
-40.00000000000001
 30
0.0
 11
-18.33385681430868
 21
-39.99999999999999
 31
0.0
  0
CIRCLE
  5
CC
330
1F
100
AcDbEntity
  8
해칭선
100
AcDbCircle
 10
0.0
 20
0.0
 30
0.0
 40
3.0
  0
INSERT
  5
CD
330
1F
100
AcDbEntity
  8
0
  6
Continuous
 62
     7
100
AcDbBlockReference
 66
     1
  2
블럭10
 10
-13.94027293212521
 20
-52.04717430164393
 30
0.0
  0
ATTRIB
  5
CE
330
CD
100
AcDbEntity
  8
FORMAT
 62
     2
100
AcDbText
 10
-23.12156822086648
 20
-49.97180738881175
 30
0.0
 40
4.233333333333333
  1
E1004004 [ 4 FLUTE ]
 41
0.75
  7
SLDTEXTSTYLE0
 11
-23.12156822086648
 21
-52.08847405547841
 31
0.0
100
AcDbAttribute
  2
AUTOATTR0
 70
     0
 74
     1
  0
SEQEND
  5
CF
330
CD
100
AcDbEntity
  8
0
  6
Continuous
 62
     7
  0
HATCH
  5
D0
330
1F
100
AcDbEntity
  8
중심선
100
AcDbHatch
 10
0.0
 20
0.0
 30
0.0
210
0.0
220
0.0
230
1.0
  2
SOLID
 70
     1
 71
     0
 91
        1
 92
        0
 93
        4
 72
     1
 10
-8.225363627744365
 20
-35.8
 11
-11.67163887158165
 21
-35.8
 72
     1
 10
-11.67163887158165
 20
-35.8
 11
-13.79986873078566
 21
-38.3363255805726
 72
     1
 10
-13.79986873078566
 20
-38.3363255805726
 11
-10.35356040183524
 21
-38.3362861512701
 72
     1
 10
-10.35356040183524
 20
-38.3362861512701
 11
-8.225363627744365
 21
-35.8
 97
        0
 75
     0
 76
     1
 98
        1
 10
10.91911934298438
 20
-0.0010749287238931
  0
HATCH
  5
D1
330
1F
100
AcDbEntity
  8
중심선
100
AcDbHatch
 10
0.0
 20
0.0
 30
0.0
210
0.0
220
0.0
230
1.0
  2
SOLID
 70
     1
 71
     0
 91
        1
 92
        0
 93
        4
 72
     1
 10
-3.212599636708376
 20
-35.80000000000003
 11
-6.658874880545667
 21
-35.79999999999998
 72
     1
 10
-6.658874880545667
 20
-35.79999999999998
 11
-11.19001288890308
 21
-41.20000000000002
 72
     1
 10
-11.19001288890308
 20
-41.20000000000002
 11
-7.743737645065796
 21
-41.20000000000002
 72
     1
 10
-7.743737645065796
 20
-41.20000000000002
 11
-3.212599636708376
 21
-35.80000000000003
 97
        0
 75
     0
 76
     1
 98
        1
 10
10.91911934298438
 20
-0.0010749287238931
  0
HATCH
  5
D2
330
1F
100
AcDbEntity
  8
중심선
100
AcDbHatch
 10
0.0
 20
0.0
 30
0.0
210
0.0
220
0.0
230
1.0
  2
SOLID
 70
     1
 71
     0
 91
        1
 92
        0
 93
        4
 72
     1
 10
1.800164354327514
 20
-35.8
 11
-1.646110889509607
 21
-35.8
 72
     1
 10
-1.646110889509607
 20
-35.8
 11
-8.694547791398875
 21
-44.20000000000002
 72
     1
 10
-8.694547791398875
 20
-44.20000000000002
 11
-5.248272547561594
 21
-44.20000000000002
 72
     1
 10
-5.248272547561594
 20
-44.20000000000002
 11
1.800164354327514
 21
-35.8
 97
        0
 75
     0
 76
     1
 98
        1
 10
10.91911934298438
 20
-0.0010749287238931
  0
HATCH
  5
D3
330
1F
100
AcDbEntity
  8
중심선
100
AcDbHatch
 10
0.0
 20
0.0
 30
0.0
210
0.0
220
0.0
230
1.0
  2
SOLID
 70
     1
 71
     0
 91
        1
 92
        0
 93
        6
 72
     3
 10
6.600054785339685
 20
-40.00000000005127
 11
3.960054785062283
 21
1.540882976769353E-10
 40
0.3939339440162628
 50
17.09539180608439
 51
320.0019657685075
 73
     0
 72
     1
 10
8.283054441040282
 20
-38.58789400463827
 11
10.58835631474135
 21
-36.65356729459039
 72
     3
 10
6.600054785286838
 20
-40.00000000000014
 11
6.600054785286829
 21
-1.278976924368180E-13
 40
0.636358354079598
 50
39.99873849337382
 51
368.4976242363724
 73
     1
 72
     1
 10
13.02538727718745
 20
-39.03999999993002
 11
5.280122092122761
 21
-39.03999999993002
 72
     1
 10
5.280122092122761
 20
-39.03999999993002
 11
5.280097047676827
 21
-40.95999999992991
 72
     1
 10
5.280097047676827
 20
-40.95999999992991
 11
9.721476817148865
 21
-40.95999999992988
 97
        0
 75
     0
 76
     1
 98
        1
 10
10.91911934298438
 20
-0.0010749287238931
  0
DIMENSION
  5
D4
330
1F
100
AcDbEntity
  8
치수문자_일반주서
100
AcDbDimension
  2
_D
 10
57.24808507711293
 20
-0.7908310570254997
 30
0.0
 11
57.24808507711286
 21
15.41583105702572
 31
0.0
 70
   160
  1
%%c<>
 71
     2
 42
1.581662114051214
 52
-270.0
  3
SLDDIMSTYLE0
100
AcDbAlignedDimension
 13
28.575
 23
0.7908310570256069
 33
0.0
 14
28.575
 24
-0.7908310570256069
 34
0.0
 50
90.0000000000002
100
AcDbRotatedDimension
1001
PE_URL
1000

1001
ACAD
1000
DSTYLE
1002
{
1070
   171
1070
     8
1070
   273
1070
     7
1070
    41
1040
2.5
1070
   140
1040
2.5
1002
}
  0
DIMENSION
  5
E9
330
1F
100
AcDbEntity
  8
치수문자_일반주서
100
AcDbDimension
  2
_D_1
 10
23.81249999999999
 20
10.38125
 30
0.0
 11
42.8875
 21
10.38125
 31
0.0
 70
   160
  1
<>
 71
     2
 42
4.762500000000014
  3
SLDDIMSTYLE0
100
AcDbAlignedDimension
 13
28.575
 23
0.7908310570256069
 33
0.0
 14
23.81249999999999
 24
0.7286536034444561
 34
0.0
100
AcDbRotatedDimension
1001
PE_URL
1000

1001
ACAD
1000
DSTYLE
1002
{
1070
   171
1070
     8
1070
   273
1070
     7
1070
    41
1040
2.5
1070
   140
1040
2.5
1002
}
  0
DIMENSION
  5
FE
330
1F
100
AcDbEntity
  8
치수문자_일반주서
100
AcDbDimension
  2
_D_2
 10
-28.57500000000001
 20
18.38125000000001
 30
0.0
 11
-1.458179486121114
 21
18.38125000000001
 31
0.0
 70
   160
  1
<>
 71
     2
 42
57.15000000000002
  3
SLDDIMSTYLE0
100
AcDbAlignedDimension
 13
28.575
 23
0.7908310570256069
 33
0.0
 14
-28.57500000000001
 24
0.7908310570256101
 34
0.0
100
AcDbRotatedDimension
1001
PE_URL
1000

1001
ACAD
1000
DSTYLE
1002
{
1070
   171
1070
     8
1070
   273
1070
     7
1070
    41
1040
2.5
1070
   140
1040
2.5
1002
}
  0
DIMENSION
  5
112
330
1F
100
AcDbEntity
  8
치수문자_일반주서
100
AcDbDimension
  2
_D_3
 10
-36.575
 20
-2.38125000000008
 30
0.0
 11
-36.57500000000006
 21
17.63124999999998
 31
0.0
 70
   160
  1
%%c<>
 71
     2
 42
4.762500000000012
 52
-270.0
  3
SLDDIMSTYLE0
100
AcDbAlignedDimension
 13
-16.88786934298439
 23
2.381250000000005
 33
0.0
 14
-16.8878693429844
 24
-2.381250000000006
 34
0.0
 50
90.0000000000002
100
AcDbRotatedDimension
1001
PE_URL
1000

1001
ACAD
1000
DSTYLE
1002
{
1070
   171
1070
     8
1070
   273
1070
     7
1070
    41
1040
2.5
1070
   140
1040
2.5
1002
}
  0
LINE
  5
126
330
1F
100
AcDbEntity
  8
참조1
100
AcDbLine
 10
79.6384838153456
 20
7.440000000000003
 30
0.0
 11
79.6384838153456
 21
-7.440000000000002
 31
0.0
  0
LINE
  5
127
330
1F
100
AcDbEntity
  8
참조1
100
AcDbLine
 10
92.33848381534558
 20
5.440000000000003
 30
0.0
 11
79.6384838153456
 21
5.440000000000003
 31
0.0
  0
SOLID
  5
128
330
1F
100
AcDbEntity
  8
참조1
100
AcDbTrace
 10
79.6384838153456
 20
5.440000000000003
 30
0.0
 11
85.98848381534559
 21
4.424000000000003
 31
0.0
 12
85.98848381534559
 22
6.456000000000003
 32
0.0
 13
85.98848381534559
 23
6.456000000000003
 33
0.0
  0
LINE
  5
129
330
1F
100
AcDbEntity
  8
참조1
100
AcDbLine
 10
92.33848381534558
 20
-5.440000000000002
 30
0.0
 11
79.6384838153456
 21
-5.440000000000002
 31
0.0
  0
SOLID
  5
12A
330
1F
100
AcDbEntity
  8
참조1
100
AcDbTrace
 10
79.6384838153456
 20
-5.440000000000002
 30
0.0
 11
85.98848381534559
 21
-6.456000000000002
 31
0.0
 12
85.98848381534559
 22
-4.424000000000002
 32
0.0
 13
85.98848381534559
 23
-4.424000000000002
 33
0.0
  0
MTEXT
  5
12B
330
1F
100
AcDbEntity
  8
참조1
100
AcDbMText
 10
89.02283394797159
 20
11.01029177718834
 30
0.0
 40
3.5
 41
0.0
 71
     1
 72
     1
  1
A
  7
SLDTEXTSTYLE0
 73
     1
 44
1.0
  0
MTEXT
  5
12C
330
1F
100
AcDbEntity
  8
참조1
100
AcDbMText
 10
89.02283394797159
 20
0.1302917771883288
 30
0.0
 40
3.5
 41
0.0
 71
     1
 72
     1
  1
A
  7
SLDTEXTSTYLE0
 73
     1
 44
1.0
  0
INSERT
  5
133
330
1F
100
AcDbEntity
  8
해칭선
100
AcDbBlockReference
  2
SW_DOWELSYMBOL_0
 10
0.0
 20
0.0
 30
0.0
  0
LINE
  5
20D
330
1F
100
AcDbEntity
  8
0
  6
Continuous
 62
     1
370
    25
100
AcDbLine
 10
-26.14852405461853
 20
-0.2200741530775116
 30
0.0
 11
-26.11365797858392
 21
-0.2384720855337343
 31
0.0
1001
PE_URL
1000

  0
LINE
  5
20E
330
1F
100
AcDbEntity
  8
0
  6
Continuous
 62
     1
370
    25
100
AcDbLine
 10
-28.30222712260269
 20
-0.2227586265156167
 30
0.0
 11
-28.27490336328166
 21
-0.2375467159948063
 31
0.0
1001
PE_URL
1000

  0
LINE
  5
20F
330
1F
100
AcDbEntity
  8
0
  6
Continuous
 62
     1
370
    25
100
AcDbLine
 10
-27.26552978925572
 20
0.148327790695886
 30
0.0
 11
-27.43685108145932
 21
0.2381634787763825
 31
0.0
1001
PE_URL
1000

  0
LINE
  5
210
330
1F
100
AcDbEntity
  8
0
  6
Continuous
 62
     1
370
    25
100
AcDbLine
 10
-26.53247910889766
 20
0.7937500000000031
 30
0.0
 11
-27.01673957019461
 21
0.7937500000000031
 31
0.0
1001
PE_URL
1000

  0
LINE
  5
211
330
1F
100
AcDbEntity
  8
0
  6
Continuous
 62
     1
370
    25
100
AcDbLine
 10
-24.85741338879049
 20
-0.7937499999999973
 30
0.0
 11
-24.37285618334343
 21
-0.7937499999999973
 31
0.0
1001
PE_URL
1000

  0
LINE
  5
212
330
1F
100
AcDbEntity
  8
0
  6
Continuous
 62
     1
370
    25
100
AcDbLine
 10
-27.0167395701946
 20
-0.7937499999999973
 30
0.0
 11
-26.53247910889767
 21
-0.7937499999999973
 31
0.0
1001
PE_URL
1000

  0
LINE
  5
213
330
1F
100
AcDbEntity
  8
0
  6
Continuous
 62
     1
370
    25
100
AcDbLine
 10
-24.37285618334343
 20
0.7937500000000031
 30
0.0
 11
-24.85741338879049
 21
0.7937500000000031
 31
0.0
1001
PE_URL
1000

  0
LINE
  5
214
330
1F
100
AcDbEntity
  8
외형선
  6
Continuous
370
    15
100
AcDbLine
 10
-16.88786934298439
 20
2.381250000000004
 30
0.0
 11
-22.8125
 21
0.7937500000000013
 31
0.0
  0
LINE
  5
215
330
1F
100
AcDbEntity
  8
외형선
  6
Continuous
370
    15
100
AcDbLine
 10
-22.8125
 20
-0.7937499999999991
 30
0.0
 11
-16.8878693429844
 21
-2.381250000000006
 31
0.0
  0
LINE
  5
216
330
1F
100
AcDbEntity
  8
외형선
  6
Continuous
370
    15
100
AcDbLine
 10
-22.8125
 20
0.7937500000000013
 30
0.0
 11
-23.31236883352285
 21
0.7937500000000013
 31
0.0
  0
LINE
  5
217
330
1F
100
AcDbEntity
  8
외형선
  6
Continuous
370
    15
100
AcDbLine
 10
-23.31236883352285
 20
-0.7937499999999991
 30
0.0
 11
-22.8125
 21
-0.7937499999999991
 31
0.0
  0
SPLINE
  5
218
330
1F
100
AcDbEntity
  8
0
  6
Continuous
 62
     1
370
    25
100
AcDbSpline
210
0.0
220
0.0
230
1.0
 70
     8
 71
     3
 72
    11
 73
     7
 74
     0
 42
0.000000001
 43
0.00000001
 40
0.0
 40
0.0
 40
0.0
 40
0.0
 40
0.2835213741710528
 40
0.5670454966749272
 40
0.8505724658924984
 40
1.0
 40
1.0
 40
1.0
 40
1.0
 10
-23.81250000000001
 20
0.5754245743197635
 30
0.0
 10
-23.99026898489263
 20
0.6379274491351359
 30
0.0
 10
-24.34580867789305
 20
0.7629338046415521
 30
0.0
 10
-24.87912221312737
 20
0.8097035337601677
 30
0.0
 10
-25.32835884727962
 20
0.7679584353361728
 30
0.0
 10
-25.59982480427282
 20
0.6721826740569983
 30
0.0
 10
-25.69351707040262
 20
0.6391271550005995
 30
0.0
1001
PE_URL
1000

  0
SPLINE
  5
219
330
1F
100
AcDbEntity
  8
외형선
  6
Continuous
370
    15
100
AcDbSpline
210
0.0
220
0.0
230
1.0
 70
    24
 71
     3
 72
    20
 73
    16
 74
     0
 42
0.000000001
 43
0.00000001
 40
0.0
 40
0.0
 40
0.0
 40
0.0
 40
0.1249999999999999
 40
0.1249999999999999
 40
0.25
 40
0.25
 40
0.4999999999999999
 40
0.4999999999999999
 40
0.6249999999999999
 40
0.6249999999999999
 40
0.7499999999999998
 40
0.7499999999999998
 40
0.8749999999999999
 40
0.8749999999999999
 40
1.0
 40
1.0
 40
1.0
 40
1.0
 10
-23.8125
 20
-0.3148062716773762
 30
0.0
 10
-23.8125
 20
-0.3108596084079679
 30
0.0
 10
-23.8125
 20
-0.3027801361961814
 30
0.0
 10
-23.81249999999998
 20
-0.2828106678932831
 30
0.0
 10
-23.81249999999998
 20
-0.2688946605126873
 30
0.0
 10
-23.8125
 20
-0.2095284159504886
 30
0.0
 10
-23.8125
 20
-0.1444037017945534
 30
0.0
 10
-23.8125
 20
0.0021054630203532
 30
0.0
 10
-23.8125
 20
0.0586517768077786
 30
0.0
 10
-23.81249999999998
 20
0.179091647547214
 30
0.0
 10
-23.8125
 20
0.2427770175981244
 30
0.0
 10
-23.8125
 20
0.3628743527096641
 30
0.0
 10
-23.8125
 20
0.4189387210836258
 30
0.0
 10
-23.8125
 20
0.5119735757020296
 30
0.0
 10
-23.81250000000001
 20
0.5488970810362572
 30
0.0
 10
-23.8125
 20
0.5754245743187847
 30
0.0
  0
SPLINE
  5
21A
330
1F
100
AcDbEntity
  8
0
  6
Continuous
 62
     1
370
    25
100
AcDbSpline
210
0.0
220
0.0
230
1.0
 70
     8
 71
     3
 72
    13
 73
     9
 74
     0
 42
0.000000001
 43
0.00000001
 40
0.0
 40
0.0
 40
0.0
 40
0.0
 40
0.0334818237188992
 40
0.2295709980939572
 40
0.4221981066014027
 40
0.6148113238446548
 40
0.8074116265914654
 40
1.0
 40
1.0
 40
1.0
 40
1.0
 10
-26.53247910889766
 20
0.7853540749192567
 30
0.0
 10
-26.50212135258405
 20
0.7880061217230063
 30
0.0
 10
-26.29397079079511
 20
0.8061901082597116
 30
0.0
 10
-25.91116426982556
 20
0.7250898284164278
 30
0.0
 10
-25.38409355857945
 20
0.547042624230315
 30
0.0
 10
-24.86019056456849
 20
0.2821077963988421
 30
0.0
 10
-24.33633009749919
 20
-0.0237555794486785
 30
0.0
 10
-23.9871064273338
 20
-0.2177913773715809
 30
0.0
 10
-23.81250000000001
 20
-0.3148062716773727
 30
0.0
1001
PE_URL
1000

  0
SPLINE
  5
21B
330
1F
100
AcDbEntity
  8
0
  6
Continuous
 62
     1
370
    25
100
AcDbSpline
210
0.0
220
0.0
230
1.0
 70
     8
 71
     3
 72
    15
 73
    11
 74
     0
 42
0.000000001
 43
0.00000001
 40
0.0
 40
0.0
 40
0.0
 40
0.0
 40
0.1319495806298711
 40
0.2639004403215565
 40
0.3958526248610758
 40
0.527806179889446
 40
0.6597611508978619
 40
0.7893863490832879
 40
0.9190209263016934
 40
1.0
 40
1.0
 40
1.0
 40
1.0
 10
-23.81250000000001
 20
-0.5467409091781208
 30
0.0
 10
-23.99026899513613
 20
-0.4643302360380283
 30
0.0
 10
-24.34580870862365
 20
-0.2995080909046412
 30
0.0
 10
-24.87912209020302
 20
0.0139788344264693
 30
0.0
 10
-25.41244234939781
 20
0.3196337282740259
 30
0.0
 10
-25.94576729236167
 20
0.5790692438111587
 30
0.0
 10
-26.47596566206219
 20
0.7520888170835411
 30
0.0
 10
-27.00301388876295
 20
0.810652965898145
 30
0.0
 10
-27.46140012956444
 20
0.7726442169417427
 30
0.0
 10
-27.74515352792846
 20
0.6766948840567759
 30
0.0
 10
-27.85425418336201
 20
0.6398032197929633
 30
0.0
1001
PE_URL
1000

  0
SPLINE
  5
21C
330
1F
100
AcDbEntity
  8
외형선
  6
Continuous
370
    15
100
AcDbSpline
210
0.0
220
0.0
230
1.0
 70
    24
 71
     3
 72
    10
 73
     6
 74
     0
 42
0.000000001
 43
0.00000001
 40
0.0
 40
0.0
 40
0.0
 40
0.0
 40
0.3272781882506153
 40
0.6582359347024221
 40
0.9999999999999999
 40
0.9999999999999999
 40
0.9999999999999999
 40
0.9999999999999999
 10
-23.8125
 20
-0.7286536034444546
 30
0.0
 10
-23.8125
 20
-0.7121377904322175
 30
0.0
 10
-23.8125
 20
-0.6789204786596537
 30
0.0
 10
-23.8125
 20
-0.6293536930988421
 30
0.0
 10
-23.8125
 20
-0.5981206778541279
 30
0.0
 10
-23.8125
 20
-0.5822533132539272
 30
0.0
  0
SPLINE
  5
21D
330
1F
100
AcDbEntity
  8
0
  6
Continuous
 62
     1
370
    25
100
AcDbSpline
210
0.0
220
0.0
230
1.0
 70
     8
 71
     3
 72
    36
 73
    32
 74
     0
 42
0.000000001
 43
0.00000001
 40
0.0
 40
0.0
 40
0.0
 40
0.0
 40
0.0624999999999994
 40
0.0624999999999994
 40
0.1249999999999988
 40
0.1249999999999988
 40
0.1874999999999981
 40
0.1874999999999981
 40
0.2499999999999975
 40
0.2499999999999975
 40
0.3124999999999969
 40
0.3124999999999969
 40
0.3749999999999962
 40
0.3749999999999962
 40
0.4374999999999956
 40
0.4374999999999956
 40
0.499999999999995
 40
0.499999999999995
 40
0.6249999999999938
 40
0.6249999999999938
 40
0.6874999999999948
 40
0.6874999999999948
 40
0.7499999999999958
 40
0.7499999999999958
 40
0.8124999999999969
 40
0.8124999999999969
 40
0.8749999999999979
 40
0.8749999999999979
 40
0.937499999999999
 40
0.937499999999999
 40
1.0
 40
1.0
 40
1.0
 40
1.0
 10
-28.57499999999999
 20
0.7908310570256101
 30
0.0
 10
-28.47770786197651
 20
0.785955375693794
 30
0.0
 10
-28.37726991202813
 20
0.7748587195038079
 30
0.0
 10
-28.17701010243966
 20
0.7406491482248738
 30
0.0
 10
-28.07890808271413
 20
0.7177144346727788
 30
0.0
 10
-27.88223557256968
 20
0.6611104365634317
 30
0.0
 10
-27.78137381116715
 20
0.6271526452388712
 30
0.0
 10
-27.58160248253291
 20
0.5501339842453243
 30
0.0
 10
-27.48477585271033
 20
0.5074384314895133
 30
0.0
 10
-27.2864747523427
 20
0.4141882837930616
 30
0.0
 10
-27.1854392741063
 20
0.3636325739671647
 30
0.0
 10
-26.98664094316832
 20
0.2581689915868213
 30
0.0
 10
-26.89001895878066
 20
0.2035171881966973
 30
0.0
 10
-26.69056192475773
 20
0.0907576220544882
 30
0.0
 10
-26.58960427798357
 20
0.0329865725951193
 30
0.0
 10
-26.39225560043652
 20
-0.081303866025342
 30
0.0
 10
-26.29476587639367
 20
-0.1380377404558943
 30
0.0
 10
-25.99456938342506
 20
-0.3051419965956403
 30
0.0
 10
-25.79930783145595
 20
-0.4094897507230148
 30
0.0
 10
-25.49883154819746
 20
-0.5435606540526299
 30
0.0
 10
-25.39996286622483
 20
-0.5841207851706967
 30
0.0
 10
-25.204033425143
 20
-0.6553902329195755
 30
0.0
 10
-25.1033039525892
 20
-0.6865006049426989
 30
0.0
 10
-24.90328885365152
 20
-0.7372978332252023
 30
0.0
 10
-24.80610172563836
 20
-0.7569009879529582
 30
0.0
 10
-24.60836665274101
 20
-0.7843250511804312
 30
0.0
 10
-24.50736778971886
 20
-0.792058888837017
 30
0.0
 10
-24.3081416075715
 20
-0.7949401877165838
 30
0.0
 10
-24.21156817691262
 20
-0.7902112387907037
 30
0.0
 10
-24.01249559122389
 20
-0.7684541050162996
 30
0.0
 10
-23.91147857936989
 20
-0.7513514744196568
 30
0.0
 10
-23.81250000000001
 20
-0.7286536034444564
 30
0.0
1001
PE_URL
1000

  0
LINE
  5
21E
330
1F
100
AcDbEntity
  8
0
  6
Continuous
 62
     1
370
    25
100
AcDbLine
 10
-28.57500000000001
 20
0.7188845709717528
 30
0.0
 11
-28.57500000000001
 21
-0.0680095709717532
 31
0.0
1001
PE_URL
1000

  0
SPLINE
  5
21F
330
1F
100
AcDbEntity
  8
0
  6
Continuous
 62
     1
370
    25
100
AcDbSpline
210
0.0
220
0.0
230
1.0
 70
     8
 71
     3
 72
    15
 73
    11
 74
     0
 42
0.000000001
 43
0.00000001
 40
0.0
 40
0.0
 40
0.0
 40
0.0
 40
0.0058390710005007
 40
0.1492979329698631
 40
0.2927582849393434
 40
0.4362201763671254
 40
0.5771491308905334
 40
0.7180882823303634
 40
0.8590383384554312
 40
1.0
 40
1.0
 40
1.0
 40
1.0
 10
-24.85741338879049
 20
-0.7914439043289254
 30
0.0
 10
-24.8646491118929
 20
-0.7922075049883934
 30
0.0
 10
-25.04965773786087
 20
-0.8117318437167673
 30
0.0
 10
-25.4124424549007
 20
-0.7399422380066498
 30
0.0
 10
-25.94576724830839
 20
-0.5740881798037127
 30
0.0
 10
-26.47596573209605
 20
-0.3112923276001475
 30
0.0
 10
-27.00301365664103
 20
-0.0080267720373734
 30
0.0
 10
-27.5269655515159
 20
0.2935438171602114
 30
0.0
 10
-28.05096303695647
 20
0.5601722739006176
 30
0.0
 10
-28.40031621839462
 20
0.6659790200376288
 30
0.0
 10
-28.57500000000001
 20
0.7188845709717528
 30
0.0
1001
PE_URL
1000

  0
SPLINE
  5
220
330
1F
100
AcDbEntity
  8
0
  6
Continuous
 62
     1
370
    25
100
AcDbSpline
210
0.0
220
0.0
230
1.0
 70
     8
 71
     3
 72
    13
 73
     9
 74
     0
 42
0.000000001
 43
0.00000001
 40
0.0
 40
0.0
 40
0.0
 40
0.0
 40
0.185115681863882
 40
0.3702287663852252
 40
0.5553393149762784
 40
0.7404473893226234
 40
0.9255530513769382
 40
0.9999999999999999
 40
0.9999999999999999
 40
0.9999999999999999
 40
0.9999999999999999
 10
-28.57500000000001
 20
-0.0680095709717532
 30
0.0
 10
-28.39719595721607
 20
-0.1692826329173688
 30
0.0
 10
-28.04159036640176
 20
-0.371827335854794
 30
0.0
 10
-27.50818769831577
 20
-0.6173022528987084
 30
0.0
 10
-26.9747931102802
 20
-0.7732770783681671
 30
0.0
 10
-26.44140922993811
 20
-0.8084728926275255
 30
0.0
 10
-26.01431144545241
 20
-0.7574433880922091
 30
0.0
 10
-25.76502064486218
 20
-0.6654992931695636
 30
0.0
 10
-25.69351707040263
 20
-0.6391271550005955
 30
0.0
1001
PE_URL
1000

  0
LINE
  5
221
330
1F
100
AcDbEntity
  8
외형선
  6
Continuous
370
    15
100
AcDbLine
 10
-23.8125
 20
-0.3148062716773745
 30
0.0
 11
-23.81250000000002
 21
-0.5467409091781226
 31
0.0
  0
LINE
  5
222
330
1F
100
AcDbEntity
  8
0
  6
Continuous
 62
     1
370
    25
100
AcDbLine
 10
-28.57500000000001
 20
0.7908310570256101
 30
0.0
 11
-28.57500000000001
 21
0.7188845709717528
 31
0.0
1001
PE_URL
1000

  0
SPLINE
  5
223
330
1F
100
AcDbEntity
  8
0
  6
Continuous
 62
     1
370
    25
100
AcDbSpline
210
0.0
220
0.0
230
1.0
 70
     8
 71
     3
 72
    10
 73
     6
 74
     0
 42
0.000000001
 43
0.00000001
 40
0.0
 40
0.0
 40
0.0
 40
0.0
 40
0.327430115356721
 40
0.6637012138840632
 40
1.0
 40
1.0
 40
1.0
 40
1.0
 10
-27.0167395701946
 20
-0.7922954799646715
 30
0.0
 10
-27.18681016848238
 20
-0.7820803263846157
 30
0.0
 10
-27.53154346342264
 20
-0.7613741985328486
 30
0.0
 10
-28.05096322606704
 20
-0.5947369137189236
 30
0.0
 10
-28.4003162814332
 20
-0.4225930083480358
 30
0.0
 10
-28.57500000000001
 20
-0.3365175123507808
 30
0.0
1001
PE_URL
1000

  0
LINE
  5
224
330
1F
100
AcDbEntity
  8
0
  6
Continuous
 62
     1
370
    25
100
AcDbLine
 10
-28.57500000000001
 20
-0.0680095709717532
 30
0.0
 11
-28.57500000000001
 21
-0.3365175123507808
 31
0.0
1001
PE_URL
1000

  0
SPLINE
  5
225
330
1F
100
AcDbEntity
  8
0
  6
Continuous
 62
     1
370
    25
100
AcDbSpline
210
0.0
220
0.0
230
1.0
 70
     8
 71
     3
 72
     9
 73
     5
 74
     0
 42
0.000000001
 43
0.00000001
 40
0.0
 40
0.0
 40
0.0
 40
0.0
 40
0.7400825516460434
 40
0.9999999999999999
 40
0.9999999999999999
 40
0.9999999999999999
 40
0.9999999999999999
 10
-28.57500000000001
 20
-0.7908310570256025
 30
0.0
 10
-28.3971958870384
 20
-0.775615925607475
 30
0.0
 10
-28.15694685999927
 20
-0.7550572306560992
 30
0.0
 10
-27.91669883658096
 20
-0.6635798001199011
 30
0.0
 10
-27.854254183362
 20
-0.6398032197929557
 30
0.0
1001
PE_URL
1000

  0
SPLINE
  5
226
330
1F
100
AcDbEntity
  8
0
  6
Continuous
 62
     1
370
    25
100
AcDbSpline
210
0.0
220
0.0
230
1.0
 70
     8
 71
     3
 72
     9
 73
     5
 74
     0
 42
0.000000001
 43
0.00000001
 40
0.0
 40
0.0
 40
0.0
 40
0.0
 40
0.0651999094626564
 40
1.0
 40
1.0
 40
1.0
 40
1.0
 10
-24.37285618334343
 20
0.7900485010380331
 30
0.0
 10
-24.36067764714424
 20
0.7912733370517666
 30
0.0
 10
-24.17389002275082
 20
0.8100591915694582
 30
0.0
 10
-23.98710585599465
 20
0.7679847733785901
 30
0.0
 10
-23.81250000000001
 20
0.7286536034444604
 30
0.0
1001
PE_URL
1000

  0
LINE
  5
227
330
1F
100
AcDbEntity
  8
0
  6
Continuous
 62
     1
370
    25
100
AcDbLine
 10
-28.57500000000001
 20
-0.3365175123507808
 30
0.0
 11
-28.57500000000001
 21
-0.7908310570256025
 31
0.0
1001
PE_URL
1000

  0
LINE
  5
228
330
1F
100
AcDbEntity
  8
외형선
  6
Continuous
370
    15
100
AcDbLine
 10
-23.8125
 20
0.7286536034444586
 30
0.0
 11
-23.81250000000002
 21
0.5754245743197617
 31
0.0
  0
LINE
  5
229
330
1F
100
AcDbEntity
  8
외형선
  6
Continuous
370
    15
100
AcDbLine
 10
-22.8125
 20
0.000000000000002
 30
0.0
 11
-22.8125
 21
-0.7937499999999991
 31
0.0
  0
LINE
  5
22A
330
1F
100
AcDbEntity
  8
외형선
  6
Continuous
370
    15
100
AcDbLine
 10
-22.8125
 20
0.7937500000000013
 30
0.0
 11
-22.8125
 21
0.000000000000002
 31
0.0
  0
LINE
  5
22B
330
1F
100
AcDbEntity
  8
외형선
  6
Continuous
370
    15
100
AcDbLine
 10
-16.88786934298439
 20
-0.0000000000000015
 30
0.0
 11
-16.8878693429844
 21
-2.381250000000006
 31
0.0
  0
LINE
  5
22C
330
1F
100
AcDbEntity
  8
외형선
  6
Continuous
370
    15
100
AcDbLine
 10
-16.88786934298439
 20
2.381250000000005
 30
0.0
 11
-16.88786934298439
 21
-0.0000000000000015
 31
0.0
  0
SPLINE
  5
22D
330
1F
100
AcDbEntity
  8
외형선
  6
Continuous
370
    15
100
AcDbSpline
210
0.0
220
0.0
230
1.0
 70
     8
 71
     3
 72
     9
 73
     5
 74
     0
 42
0.000000001
 43
0.00000001
 40
0.0
 40
0.0
 40
0.0
 40
0.0
 40
0.9956739213998822
 40
1.0
 40
1.0
 40
1.0
 40
1.0
 10
-23.8125
 20
-0.7286536034444546
 30
0.0
 10
-23.71982206021444
 20
-0.7063597842902174
 30
0.0
 10
-23.62674144637726
 20
-0.6839691012813736
 30
0.0
 10
-23.53335575511951
 20
-0.6497918322746725
 30
0.0
 10
-23.53295176127901
 20
-0.6496439787226114
 30
0.0
  0
LINE
  5
22E
330
1F
100
AcDbEntity
  8
외형선
  6
Continuous
370
    15
100
AcDbLine
 10
-23.31236883352285
 20
-0.7156769659311217
 30
0.0
 11
-23.31236883352285
 21
-0.7937499999999991
 31
0.0
  0
SPLINE
  5
22F
330
1F
100
AcDbEntity
  8
외형선
  6
Continuous
370
    15
100
AcDbSpline
210
0.0
220
0.0
230
1.0
 70
     8
 71
     3
 72
    10
 73
     6
 74
     0
 42
0.000000001
 43
0.00000001
 40
0.0
 40
0.0
 40
0.0
 40
0.0
 40
0.5
 40
0.5
 40
1.0
 40
1.0
 40
1.0
 40
1.0
 10
-23.81249999999998
 20
-0.5467409091781279
 30
0.0
 10
-23.72932731208099
 20
-0.5816043038961547
 30
0.0
 10
-23.64804039670794
 20
-0.613221790208067
 30
0.0
 10
-23.480631752566
 20
-0.6699699782663033
 30
0.0
 10
-23.39594496459162
 20
-0.6948763340499153
 30
0.0
 10
-23.31236883352285
 20
-0.715705062824991
 30
0.0
  0
SPLINE
  5
230
330
1F
100
AcDbEntity
  8
외형선
  6
Continuous
370
    15
100
AcDbSpline
210
0.0
220
0.0
230
1.0
 70
     8
 71
     3
 72
    10
 73
     6
 74
     0
 42
0.000000001
 43
0.00000001
 40
0.0
 40
0.0
 40
0.0
 40
0.0
 40
0.5
 40
0.5
 40
1.0
 40
1.0
 40
1.0
 40
1.0
 10
-23.8125
 20
-0.3148062716773727
 30
0.0
 10
-23.729327312081
 20
-0.3589533924700984
 30
0.0
 10
-23.64804039670794
 20
-0.4010509167147764
 30
0.0
 10
-23.48063175256602
 20
-0.4811824708674483
 30
0.0
 10
-23.39594496459162
 20
-0.5189434009467584
 30
0.0
 10
-23.31236883352285
 20
-0.5534703433505859
 30
0.0
  0
LINE
  5
231
330
1F
100
AcDbEntity
  8
외형선
  6
Continuous
370
    15
100
AcDbLine
 10
-23.31236883352285
 20
0.3432863861786831
 30
0.0
 11
-23.31236883352285
 21
-0.5535111525594691
 31
0.0
  0
SPLINE
  5
232
330
1F
100
AcDbEntity
  8
외형선
  6
Continuous
370
    15
100
AcDbSpline
210
0.0
220
0.0
230
1.0
 70
     8
 71
     3
 72
    10
 73
     6
 74
     0
 42
0.000000001
 43
0.00000001
 40
0.0
 40
0.0
 40
0.0
 40
0.0
 40
0.5000000000000001
 40
0.5000000000000001
 40
1.0
 40
1.0
 40
1.0
 40
1.0
 10
-23.81249999999998
 20
0.5754245743197546
 30
0.0
 10
-23.72932731208099
 20
0.5422990441011264
 30
0.0
 10
-23.64804039670794
 20
0.5062812275240616
 30
0.0
 10
-23.48063175256602
 20
0.4283711866490381
 30
0.0
 10
-23.39594496459162
 20
0.3866602605491852
 30
0.0
 10
-23.31236883352285
 20
0.3432278041573425
 30
0.0
  0
SPLINE
  5
233
330
1F
100
AcDbEntity
  8
외형선
  6
Continuous
370
    15
100
AcDbSpline
210
0.0
220
0.0
230
1.0
 70
     8
 71
     3
 72
    10
 73
     6
 74
     0
 42
0.000000001
 43
0.00000001
 40
0.0
 40
0.0
 40
0.0
 40
0.0
 40
0.5
 40
0.5
 40
1.0
 40
1.0
 40
1.0
 40
1.0
 10
-23.8125
 20
0.7286536034444586
 30
0.0
 10
-23.729327312081
 20
0.7095803559694558
 30
0.0
 10
-23.64804039670794
 20
0.6866729989824132
 30
0.0
 10
-23.48063175256602
 20
0.6331074751250052
 30
0.0
 10
-23.39594496459162
 20
0.6025421340656847
 30
0.0
 10
-23.31236883352285
 20
0.5689548677455767
 30
0.0
  0
LINE
  5
234
330
1F
100
AcDbEntity
  8
외형선
  6
Continuous
370
    15
100
AcDbLine
 10
-23.31236883352285
 20
0.7937500000000013
 30
0.0
 11
-23.31236883352285
 21
0.5689151663405456
 31
0.0
  0
LINE
  5
235
330
1F
100
AcDbEntity
  8
외형선
  6
Continuous
370
    15
100
AcDbLine
 10
-23.31236883352285
 20
0.715705062824995
 30
0.0
 11
-23.53295176127901
 21
0.6496439787226154
 31
0.0
  0
SPLINE
  5
236
330
1F
100
AcDbEntity
  8
외형선
  6
Continuous
370
    15
100
AcDbSpline
210
0.0
220
0.0
230
1.0
 70
    24
 71
     3
 72
    20
 73
    16
 74
     0
 42
0.000000001
 43
0.00000001
 40
0.0
 40
0.0
 40
0.0
 40
0.0
 40
0.125
 40
0.125
 40
0.25
 40
0.25
 40
0.375
 40
0.375
 40
0.5
 40
0.5
 40
0.75
 40
0.75
 40
0.875
 40
0.875
 40
1.0
 40
1.0
 40
1.0
 40
1.0
 10
-23.8125
 20
0.5754245743197546
 30
0.0
 10
-23.81249999999998
 20
0.548897081037419
 30
0.0
 10
-23.8125
 20
0.511973575703353
 30
0.0
 10
-23.81249999999998
 20
0.4189387210851339
 30
0.0
 10
-23.8125
 20
0.3628743527111882
 30
0.0
 10
-23.8125
 20
0.2427770175995241
 30
0.0
 10
-23.8125
 20
0.1790916475484752
 30
0.0
 10
-23.8125
 20
0.058651776808713
 30
0.0
 10
-23.8125
 20
0.0021054630211029
 30
0.0
 10
-23.8125
 20
-0.1444037017942798
 30
0.0
 10
-23.8125
 20
-0.2095284159504104
 30
0.0
 10
-23.8125
 20
-0.2688946605127282
 30
0.0
 10
-23.8125
 20
-0.2828106678933417
 30
0.0
 10
-23.8125
 20
-0.3027801361962472
 30
0.0
 10
-23.81250000000005
 20
-0.3108596084080426
 30
0.0
 10
-23.81250000000002
 20
-0.3148062716774242
 30
0.0
  0
SPLINE
  5
237
330
1F
100
AcDbEntity
  8
외형선
  6
Continuous
370
    15
100
AcDbSpline
210
0.0
220
0.0
230
1.0
 70
    24
 71
     3
 72
    10
 73
     6
 74
     0
 42
0.000000001
 43
0.00000001
 40
0.0
 40
0.0
 40
0.0
 40
0.0
 40
0.3883457798830693
 40
0.9216309461113034
 40
1.0
 40
1.0
 40
1.0
 40
1.0
 10
-23.8125
 20
-0.5822533132539272
 30
0.0
 10
-23.8125
 20
-0.6003793777072699
 30
0.0
 10
-23.81250000000002
 20
-0.6433965618683517
 30
0.0
 10
-23.81249999999983
 20
-0.69378092338259
 30
0.0
 10
-23.8125
 20
-0.7246929559624371
 30
0.0
 10
-23.8125
 20
-0.7286536034449254
 30
0.0
  0
ENDSEC
  0
SECTION
  2
OBJECTS
  0
DICTIONARY
  5
C
330
0
100
AcDbDictionary
281
     1
  3
ACAD_DETAILVIEWSTYLE
350
1B6
  3
ACAD_GROUP
350
D
  3
ACAD_LAYOUT
350
1A
  3
ACAD_MLINESTYLE
350
17
  3
ACAD_PLOTSETTINGS
350
19
  3
ACAD_PLOTSTYLENAME
350
E
  3
ACAD_SCALELIST
350
47
  3
ACAD_SECTIONVIEWSTYLE
350
1B7
  3
AcDbVariableDictionary
350
1B1
  3
APPDATA
350
155
  3
DWGPROPS
350
23C
  0
DICTIONARY
  5
1B6
102
{ACAD_REACTORS
330
C
102
}
330
C
100
AcDbDictionary
281
     1
  0
DICTIONARY
  5
D
102
{ACAD_REACTORS
330
C
102
}
330
C
100
AcDbDictionary
281
     1
  0
DICTIONARY
  5
1A
102
{ACAD_REACTORS
330
C
102
}
330
C
100
AcDbDictionary
281
     1
  3
Layout1
350
1E
  3
Layout2
350
26
  3
Model
350
22
  0
DICTIONARY
  5
17
102
{ACAD_REACTORS
330
C
102
}
330
C
100
AcDbDictionary
281
     1
  3
Standard
350
18
  0
DICTIONARY
  5
19
102
{ACAD_REACTORS
330
C
102
}
330
C
100
AcDbDictionary
281
     1
  0
ACDBDICTIONARYWDFLT
  5
E
102
{ACAD_REACTORS
330
C
102
}
330
C
100
AcDbDictionary
281
     1
  3
Normal
350
F
100
AcDbDictionaryWithDefault
340
F
  0
DICTIONARY
  5
47
102
{ACAD_REACTORS
330
C
102
}
330
C
100
AcDbDictionary
281
     1
  3
A0
350
48
  3
A1
350
49
  3
A2
350
4A
  3
A3
350
4B
  3
A4
350
4C
  3
A5
350
4D
  3
A6
350
4E
  3
A7
350
4F
  3
A8
350
50
  3
A9
350
51
  3
B0
350
52
  3
B1
350
53
  3
B2
350
54
  3
B3
350
55
  3
B4
350
56
  3
B5
350
57
  3
B6
350
58
  3
B7
350
59
  3
B8
350
5A
  3
B9
350
5B
  3
C0
350
5C
  3
C1
350
5D
  3
C2
350
5E
  3
C3
350
5F
  3
C4
350
60
  3
C5
350
61
  3
C6
350
62
  3
C7
350
63
  3
C8
350
64
  3
C9
350
65
  3
D0
350
66
  3
D1
350
67
  3
D2
350
68
  0
DICTIONARY
  5
1B7
102
{ACAD_REACTORS
330
C
102
}
330
C
100
AcDbDictionary
281
     1
  0
DICTIONARY
  5
1B1
102
{ACAD_REACTORS
330
C
102
}
330
C
100
AcDbDictionary
281
     1
  0
DICTIONARY
  5
155
102
{ACAD_REACTORS
330
C
102
}
330
C
100
AcDbDictionary
281
     1
  0
XRECORD
  5
23C
102
{ACAD_REACTORS
330
C
102
}
330
C
100
AcDbXrecord
280
     1
  1
DWGPROPS COOKIE
  2

  3

  4

  6

  7

  8
120170442
  9

300
=
301
=
302
=
303
=
304
=
305
=
306
=
307
=
308
=
309
=
 40
0.0
 41
2458313.082257974
 42
2458317.362037303
  1

 90
        0
  0
LAYOUT
  5
1E
102
{ACAD_REACTORS
330
1A
102
}
330
1A
100
AcDbPlotSettings
  1

  2
none_device
  4

  6

 40
0.0
 41
0.0
 42
0.0
 43
0.0
 44
0.0
 45
0.0
 46
0.0
 47
0.0
 48
0.0
 49
0.0
140
0.0
141
0.0
142
1.0
143
1.0
 70
   688
 72
     1
 73
     0
 74
     5
  7

 75
    16
147
1.0
148
0.0
149
0.0
100
AcDbLayout
  1
Layout1
 70
     1
 71
     1
 10
0.0
 20
0.0
 11
420.0
 21
297.0
 12
0.0
 22
0.0
 32
0.0
 14
1.000000000000000E+20
 24
1.000000000000000E+20
 34
1.000000000000000E+20
 15
-1.000000000000000E+20
 25
-1.000000000000000E+20
 35
-1.000000000000000E+20
146
0.0
 13
0.0
 23
0.0
 33
0.0
 16
1.0
 26
0.0
 36
0.0
 17
0.0
 27
1.0
 37
0.0
 76
     0
330
1B
  0
LAYOUT
  5
26
102
{ACAD_REACTORS
330
1A
102
}
330
1A
100
AcDbPlotSettings
  1

  2
none_device
  4

  6

 40
0.0
 41
0.0
 42
0.0
 43
0.0
 44
0.0
 45
0.0
 46
0.0
 47
0.0
 48
0.0
 49
0.0
140
0.0
141
0.0
142
1.0
143
1.0
 70
   688
 72
     1
 73
     0
 74
     5
  7

 75
    16
147
1.0
148
0.0
149
0.0
100
AcDbLayout
  1
Layout2
 70
     1
 71
     2
 10
0.0
 20
0.0
 11
0.0
 21
0.0
 12
0.0
 22
0.0
 32
0.0
 14
0.0
 24
0.0
 34
0.0
 15
0.0
 25
0.0
 35
0.0
146
0.0
 13
0.0
 23
0.0
 33
0.0
 16
1.0
 26
0.0
 36
0.0
 17
0.0
 27
1.0
 37
0.0
 76
     0
330
23
  0
LAYOUT
  5
22
102
{ACAD_REACTORS
330
1A
102
}
330
1A
100
AcDbPlotSettings
  1

  2
none_device
  4
ANSI_A_(11.00_x_8.50_Inches)
  6

 40
6.35
 41
19.05
 42
6.35000508
 43
19.05000254
 44
279.4
 45
215.9
 46
116.0200047679344
 47
80.81387414645758
 48
0.0
 49
0.0
140
0.0
141
0.0
142
0.0752558462788414
143
1.0
 70
  1696
 72
     0
 73
     0
 74
     0
  7

 75
     0
147
0.0235690232323232
148
0.0
149
0.0
100
AcDbLayout
  1
Model
 70
     1
 71
     0
 10
0.0
 20
0.0
 11
420.0
 21
297.0
 12
0.0
 22
0.0
 32
0.0
 14
-39.95000000000009
 24
-49.97180738881175
 34
0.0
 15
92.3384838153456
 25
27.88124999999999
 35
0.0
146
0.0
 13
0.0
 23
0.0
 33
0.0
 16
1.0
 26
0.0
 36
0.0
 17
0.0
 27
1.0
 37
0.0
 76
     0
330
1F
331
29
  0
MLINESTYLE
  5
18
102
{ACAD_REACTORS
330
17
102
}
330
17
100
AcDbMlineStyle
  2
Standard
 70
     0
  3

 62
   256
 51
90.0
 52
90.0
 71
     2
 49
0.5
 62
   256
  6
BYLAYER
 49
-0.5
 62
   256
  6
BYLAYER
  0
ACDBPLACEHOLDER
  5
F
102
{ACAD_REACTORS
330
E
102
}
330
E
  0
SCALE
  5
48
102
{ACAD_REACTORS
330
47
102
}
330
47
100
AcDbScale
 70
     0
300
1:1
140
1.0
141
1.0
290
     1
  0
SCALE
  5
49
102
{ACAD_REACTORS
330
47
102
}
330
47
100
AcDbScale
 70
     0
300
1:2
140
1.0
141
2.0
290
     0
  0
SCALE
  5
4A
102
{ACAD_REACTORS
330
47
102
}
330
47
100
AcDbScale
 70
     0
300
1:4
140
1.0
141
4.0
290
     0
  0
SCALE
  5
4B
102
{ACAD_REACTORS
330
47
102
}
330
47
100
AcDbScale
 70
     0
300
1:5
140
1.0
141
5.0
290
     0
  0
SCALE
  5
4C
102
{ACAD_REACTORS
330
47
102
}
330
47
100
AcDbScale
 70
     0
300
1:8
140
1.0
141
8.0
290
     0
  0
SCALE
  5
4D
102
{ACAD_REACTORS
330
47
102
}
330
47
100
AcDbScale
 70
     0
300
1:10
140
1.0
141
10.0
290
     0
  0
SCALE
  5
4E
102
{ACAD_REACTORS
330
47
102
}
330
47
100
AcDbScale
 70
     0
300
1:16
140
1.0
141
16.0
290
     0
  0
SCALE
  5
4F
102
{ACAD_REACTORS
330
47
102
}
330
47
100
AcDbScale
 70
     0
300
1:20
140
1.0
141
20.0
290
     0
  0
SCALE
  5
50
102
{ACAD_REACTORS
330
47
102
}
330
47
100
AcDbScale
 70
     0
300
1:30
140
1.0
141
30.0
290
     0
  0
SCALE
  5
51
102
{ACAD_REACTORS
330
47
102
}
330
47
100
AcDbScale
 70
     0
300
1:40
140
1.0
141
40.0
290
     0
  0
SCALE
  5
52
102
{ACAD_REACTORS
330
47
102
}
330
47
100
AcDbScale
 70
     0
300
1:50
140
1.0
141
50.0
290
     0
  0
SCALE
  5
53
102
{ACAD_REACTORS
330
47
102
}
330
47
100
AcDbScale
 70
     0
300
1:100
140
1.0
141
100.0
290
     0
  0
SCALE
  5
54
102
{ACAD_REACTORS
330
47
102
}
330
47
100
AcDbScale
 70
     0
300
2:1
140
2.0
141
1.0
290
     0
  0
SCALE
  5
55
102
{ACAD_REACTORS
330
47
102
}
330
47
100
AcDbScale
 70
     0
300
4:1
140
4.0
141
1.0
290
     0
  0
SCALE
  5
56
102
{ACAD_REACTORS
330
47
102
}
330
47
100
AcDbScale
 70
     0
300
8:1
140
8.0
141
1.0
290
     0
  0
SCALE
  5
57
102
{ACAD_REACTORS
330
47
102
}
330
47
100
AcDbScale
 70
     0
300
10:1
140
10.0
141
1.0
290
     0
  0
SCALE
  5
58
102
{ACAD_REACTORS
330
47
102
}
330
47
100
AcDbScale
 70
     0
300
100:1
140
100.0
141
1.0
290
     0
  0
SCALE
  5
59
102
{ACAD_REACTORS
330
47
102
}
330
47
100
AcDbScale
 70
     0
300
1/128" = 1'-0"
140
0.0078125
141
12.0
290
     0
  0
SCALE
  5
5A
102
{ACAD_REACTORS
330
47
102
}
330
47
100
AcDbScale
 70
     0
300
1/64" = 1'-0"
140
0.015625
141
12.0
290
     0
  0
SCALE
  5
5B
102
{ACAD_REACTORS
330
47
102
}
330
47
100
AcDbScale
 70
     0
300
1/32" = 1'-0"
140
0.03125
141
12.0
290
     0
  0
SCALE
  5
5C
102
{ACAD_REACTORS
330
47
102
}
330
47
100
AcDbScale
 70
     0
300
1/16" = 1'-0"
140
0.0625
141
12.0
290
     0
  0
SCALE
  5
5D
102
{ACAD_REACTORS
330
47
102
}
330
47
100
AcDbScale
 70
     0
300
3/32" = 1'-0"
140
0.09375
141
12.0
290
     0
  0
SCALE
  5
5E
102
{ACAD_REACTORS
330
47
102
}
330
47
100
AcDbScale
 70
     0
300
1/8" = 1'-0"
140
0.125
141
12.0
290
     0
  0
SCALE
  5
5F
102
{ACAD_REACTORS
330
47
102
}
330
47
100
AcDbScale
 70
     0
300
3/16" = 1'-0"
140
0.1875
141
12.0
290
     0
  0
SCALE
  5
60
102
{ACAD_REACTORS
330
47
102
}
330
47
100
AcDbScale
 70
     0
300
1/4" = 1'-0"
140
0.25
141
12.0
290
     0
  0
SCALE
  5
61
102
{ACAD_REACTORS
330
47
102
}
330
47
100
AcDbScale
 70
     0
300
3/8" = 1'-0"
140
0.375
141
12.0
290
     0
  0
SCALE
  5
62
102
{ACAD_REACTORS
330
47
102
}
330
47
100
AcDbScale
 70
     0
300
1/2" = 1'-0"
140
0.5
141
12.0
290
     0
  0
SCALE
  5
63
102
{ACAD_REACTORS
330
47
102
}
330
47
100
AcDbScale
 70
     0
300
3/4" = 1'-0"
140
0.75
141
12.0
290
     0
  0
SCALE
  5
64
102
{ACAD_REACTORS
330
47
102
}
330
47
100
AcDbScale
 70
     0
300
1" = 1'-0"
140
1.0
141
12.0
290
     0
  0
SCALE
  5
65
102
{ACAD_REACTORS
330
47
102
}
330
47
100
AcDbScale
 70
     0
300
1-1/2" = 1'-0"
140
1.5
141
12.0
290
     0
  0
SCALE
  5
66
102
{ACAD_REACTORS
330
47
102
}
330
47
100
AcDbScale
 70
     0
300
3" = 1'-0"
140
3.0
141
12.0
290
     0
  0
SCALE
  5
67
102
{ACAD_REACTORS
330
47
102
}
330
47
100
AcDbScale
 70
     0
300
6" = 1'-0"
140
6.0
141
12.0
290
     0
  0
SCALE
  5
68
102
{ACAD_REACTORS
330
47
102
}
330
47
100
AcDbScale
 70
     0
300
1'-0" = 1'-0"
140
12.0
141
12.0
290
     0
  0
ENDSEC
  0
EOF
