  0
SECTION
  2
HEADER
  9
$ACADVER
  1
AC1015
  9
$ACADMAINTVER
 70
     6
  9
$DWGCODEPAGE
  3
ANSI_949
  9
$INSBASE
 10
0.0
 20
0.0
 30
0.0
  9
$EXTMIN
 10
-39.95000000000008
 20
-49.97180738881175
 30
0.0
  9
$EXTMAX
 10
92.3384838153456
 20
27.88124999999998
 30
0.0
  9
$LIMMIN
 10
0.0
 20
0.0
  9
$LIMMAX
 10
420.0
 20
297.0
  9
$ORTHOMODE
 70
     1
  9
$REGENMODE
 70
     1
  9
$FILLMODE
 70
     1
  9
$QTEXTMODE
 70
     0
  9
$MIRRTEXT
 70
     1
  9
$LTSCALE
 40
1.0
  9
$ATTMODE
 70
     1
  9
$TEXTSIZE
 40
3.5
  9
$TRACEWID
 40
1.0
  9
$TEXTSTYLE
  7
Standard
  9
$CLAYER
  8
0
  9
$CELTYPE
  6
ByLayer
  9
$CECOLOR
 62
   256
  9
$CELTSCALE
 40
1.0
  9
$DISPSILH
 70
     0
  9
$DIMSCALE
 40
1.0
  9
$DIMASZ
 40
3.302
  9
$DIMEXO
 40
1.0
  9
$DIMDLI
 40
3.75
  9
$DIMRND
 40
0.0
  9
$DIMDLE
 40
0.0
  9
$DIMEXE
 40
1.0
  9
$DIMTP
 40
0.0
  9
$DIMTM
 40
0.0
  9
$DIMTXT
 40
3.5
  9
$DIMCEN
 40
2.5
  9
$DIMTSZ
 40
0.0
  9
$DIMTOL
 70
     0
  9
$DIMLIM
 70
     0
  9
$DIMTIH
 70
     1
  9
$DIMTOH
 70
     1
  9
$DIMSE1
 70
     0
  9
$DIMSE2
 70
     0
  9
$DIMTAD
 70
     1
  9
$DIMZIN
 70
     0
  9
$DIMBLK
  1

  9
$DIMASO
 70
     1
  9
$DIMSHO
 70
     1
  9
$DIMPOST
  1

  9
$DIMAPOST
  1

  9
$DIMALT
 70
     0
  9
$DIMALTD
 70
     3
  9
$DIMALTF
 40
0.0393700787401575
  9
$DIMLFAC
 40
1.0
  9
$DIMTOFL
 70
     1
  9
$DIMTVP
 40
0.0
  9
$DIMTIX
 70
     0
  9
$DIMSOXD
 70
     0
  9
$DIMSAH
 70
     0
  9
$DIMBLK1
  1

  9
$DIMBLK2
  1

  9
$DIMSTYLE
  2
ISO-25
  9
$DIMCLRD
 70
     0
  9
$DIMCLRE
 70
     0
  9
$DIMCLRT
 70
     0
  9
$DIMTFAC
 40
1.0
  9
$DIMGAP
 40
1.524
  9
$DIMJUST
 70
     0
  9
$DIMSD1
 70
     0
  9
$DIMSD2
 70
     0
  9
$DIMTOLJ
 70
     0
  9
$DIMTZIN
 70
     0
  9
$DIMALTZ
 70
     0
  9
$DIMALTTZ
 70
     0
  9
$DIMUPT
 70
     0
  9
$DIMDEC
 70
     2
  9
$DIMTDEC
 70
     2
  9
$DIMALTU
 70
     2
  9
$DIMALTTD
 70
     3
  9
$DIMTXSTY
  7
Standard
  9
$DIMAUNIT
 70
     0
  9
$DIMADEC
 70
     2
  9
$DIMALTRND
 40
0.0
  9
$DIMAZIN
 70
     0
  9
$DIMDSEP
 70
    44
  9
$DIMATFIT
 70
     3
  9
$DIMFRAC
 70
     0
  9
$DIMLDRBLK
  1

  9
$DIMLUNIT
 70
     2
  9
$DIMLWD
 70
    -2
  9
$DIMLWE
 70
    -2
  9
$DIMTMOVE
 70
     0
  9
$LUNITS
 70
     2
  9
$LUPREC
 70
     2
  9
$SKETCHINC
 40
1.0
  9
$FILLETRAD
 40
10.0
  9
$AUNITS
 70
     0
  9
$AUPREC
 70
     2
  9
$MENU
  1
.
  9
$ELEVATION
 40
0.0
  9
$PELEVATION
 40
0.0
  9
$THICKNESS
 40
0.0
  9
$LIMCHECK
 70
     0
  9
$CHAMFERA
 40
0.0
  9
$CHAMFERB
 40
0.0
  9
$CHAMFERC
 40
0.0
  9
$CHAMFERD
 40
0.0
  9
$SKPOLY
 70
     0
  9
$TDCREATE
 40
2458313.457893357
  9
$TDUCREATE
 40
2458313.082893357
  9
$TDUPDATE
 40
2458317.745736215
  9
$TDUUPDATE
 40
2458317.370736215
  9
$TDINDWG
 40
0.001673588
  9
$TDUSRTIMER
 40
0.0016735764
  9
$USRTIMER
 70
     1
  9
$ANGBASE
 50
0.0
  9
$ANGDIR
 70
     0
  9
$PDMODE
 70
     0
  9
$PDSIZE
 40
-1.0
  9
$PLINEWID
 40
0.0
  9
$SPLFRAME
 70
     0
  9
$SPLINETYPE
 70
     6
  9
$SPLINESEGS
 70
     8
  9
$HANDSEED
  5
20A
  9
$SURFTAB1
 70
     6
  9
$SURFTAB2
 70
     6
  9
$SURFTYPE
 70
     6
  9
$SURFU
 70
     6
  9
$SURFV
 70
     6
  9
$UCSBASE
  2

  9
$UCSNAME
  2

  9
$UCSORG
 10
0.0
 20
0.0
 30
0.0
  9
$UCSXDIR
 10
1.0
 20
0.0
 30
0.0
  9
$UCSYDIR
 10
0.0
 20
1.0
 30
0.0
  9
$UCSORTHOREF
  2

  9
$UCSORTHOVIEW
 70
     0
  9
$UCSORGTOP
 10
0.0
 20
0.0
 30
0.0
  9
$UCSORGBOTTOM
 10
0.0
 20
0.0
 30
0.0
  9
$UCSORGLEFT
 10
0.0
 20
0.0
 30
0.0
  9
$UCSORGRIGHT
 10
0.0
 20
0.0
 30
0.0
  9
$UCSORGFRONT
 10
0.0
 20
0.0
 30
0.0
  9
$UCSORGBACK
 10
0.0
 20
0.0
 30
0.0
  9
$PUCSBASE
  2

  9
$PUCSNAME
  2

  9
$PUCSORG
 10
0.0
 20
0.0
 30
0.0
  9
$PUCSXDIR
 10
1.0
 20
0.0
 30
0.0
  9
$PUCSYDIR
 10
0.0
 20
1.0
 30
0.0
  9
$PUCSORTHOREF
  2

  9
$PUCSORTHOVIEW
 70
     0
  9
$PUCSORGTOP
 10
0.0
 20
0.0
 30
0.0
  9
$PUCSORGBOTTOM
 10
0.0
 20
0.0
 30
0.0
  9
$PUCSORGLEFT
 10
0.0
 20
0.0
 30
0.0
  9
$PUCSORGRIGHT
 10
0.0
 20
0.0
 30
0.0
  9
$PUCSORGFRONT
 10
0.0
 20
0.0
 30
0.0
  9
$PUCSORGBACK
 10
0.0
 20
0.0
 30
0.0
  9
$USERI1
 70
     0
  9
$USERI2
 70
     0
  9
$USERI3
 70
     0
  9
$USERI4
 70
     0
  9
$USERI5
 70
     0
  9
$USERR1
 40
0.0
  9
$USERR2
 40
0.0
  9
$USERR3
 40
0.0
  9
$USERR4
 40
0.0
  9
$USERR5
 40
0.0
  9
$WORLDVIEW
 70
     1
  9
$SHADEDGE
 70
     3
  9
$SHADEDIF
 70
    70
  9
$TILEMODE
 70
     1
  9
$MAXACTVP
 70
    64
  9
$PINSBASE
 10
0.0
 20
0.0
 30
0.0
  9
$PLIMCHECK
 70
     0
  9
$PEXTMIN
 10
1.000000000000000E+20
 20
1.000000000000000E+20
 30
1.000000000000000E+20
  9
$PEXTMAX
 10
-1.000000000000000E+20
 20
-1.000000000000000E+20
 30
-1.000000000000000E+20
  9
$PLIMMIN
 10
0.0
 20
0.0
  9
$PLIMMAX
 10
0.0
 20
0.0
  9
$UNITMODE
 70
     0
  9
$VISRETAIN
 70
     1
  9
$PLINEGEN
 70
     0
  9
$PSLTSCALE
 70
     1
  9
$TREEDEPTH
 70
  3020
  9
$CMLSTYLE
  2
Standard
  9
$CMLJUST
 70
     0
  9
$CMLSCALE
 40
20.0
  9
$PROXYGRAPHICS
 70
     1
  9
$MEASUREMENT
 70
     1
  9
$CELWEIGHT
370
    -1
  9
$ENDCAPS
280
     0
  9
$JOINSTYLE
280
     0
  9
$LWDISPLAY
290
     1
  9
$INSUNITS
 70
     4
  9
$HYPERLINKBASE
  1

  9
$STYLESHEET
  1

  9
$XEDIT
290
     1
  9
$CEPSNTYPE
380
     0
  9
$PSTYLEMODE
290
     1
  9
$FINGERPRINTGUID
  2
{D2B7DBB2-94DE-470E-95C5-5D71A16DE904}
  9
$VERSIONGUID
  2
{FAEB1C32-E019-11D5-929B-00C0DF256EC4}
  9
$EXTNAMES
290
     1
  9
$PSVPSCALE
 40
0.0
  9
$OLESTARTUP
290
     0
  0
ENDSEC
  0
SECTION
  2
CLASSES
  0
CLASS
  1
ACDBDICTIONARYWDFLT
  2
AcDbDictionaryWithDefault
  3
ObjectDBX Classes
 90
        0
280
     0
281
     0
  0
CLASS
  1
VISUALSTYLE
  2
AcDbVisualStyle
  3
ObjectDBX Classes
 90
     4095
280
     0
281
     0
  0
CLASS
  1
MATERIAL
  2
AcDbMaterial
  3
ObjectDBX Classes
 90
     1153
280
     0
281
     0
  0
CLASS
  1
SCALE
  2
AcDbScale
  3
ObjectDBX Classes
 90
     1153
280
     0
281
     0
  0
CLASS
  1
SUN
  2
AcDbSun
  3
SCENEOE
 90
     1153
280
     0
281
     0
  0
CLASS
  1
ACDBPLACEHOLDER
  2
AcDbPlaceHolder
  3
ObjectDBX Classes
 90
        0
280
     0
281
     0
  0
CLASS
  1
LAYOUT
  2
AcDbLayout
  3
ObjectDBX Classes
 90
        0
280
     0
281
     0
  0
CLASS
  1
TABLESTYLE
  2
AcDbTableStyle
  3
ObjectDBX Classes
 90
     4095
280
     0
281
     0
  0
CLASS
  1
MLEADERSTYLE
  2
AcDbMLeaderStyle
  3
ACDB_MLEADERSTYLE_CLASS
 90
     4095
280
     0
281
     0
  0
CLASS
  1
DICTIONARYVAR
  2
AcDbDictionaryVar
  3
ObjectDBX Classes
 90
        0
280
     0
281
     0
  0
ENDSEC
  0
SECTION
  2
TABLES
  0
TABLE
  2
VPORT
  5
8
330
0
100
AcDbSymbolTable
 70
     1
  0
VPORT
  5
29
330
8
100
AcDbSymbolTableRecord
100
AcDbViewportTableRecord
  2
*Active
 70
     0
 10
0.0
 20
0.0
 11
1.0
 21
1.0
 12
26.19424190767275
 22
-11.04527869440589
 13
0.0
 23
0.0
 14
10.0
 24
10.0
 15
10.0
 25
10.0
 16
0.0
 26
0.0
 36
1.0
 17
0.0
 27
0.0
 37
0.0
 40
79.41011853658796
 41
1.782762691853601
 42
50.0
 43
0.0
 44
0.0
 50
0.0
 51
0.0
 71
    16
 72
  2000
 73
     1
 74
     3
 75
     0
 76
     0
 77
     0
 78
     0
281
     0
 65
     1
110
0.0
120
0.0
130
0.0
111
1.0
121
0.0
131
0.0
112
0.0
122
1.0
132
0.0
 79
     0
146
0.0
  0
ENDTAB
  0
TABLE
  2
LTYPE
  5
5
330
0
100
AcDbSymbolTable
 70
     6
  0
LTYPE
  5
14
330
5
100
AcDbSymbolTableRecord
100
AcDbLinetypeTableRecord
  2
ByBlock
 70
     0
  3

 72
    65
 73
     0
 40
0.0
  0
LTYPE
  5
15
330
5
100
AcDbSymbolTableRecord
100
AcDbLinetypeTableRecord
  2
ByLayer
 70
     0
  3

 72
    65
 73
     0
 40
0.0
  0
LTYPE
  5
16
330
5
100
AcDbSymbolTableRecord
100
AcDbLinetypeTableRecord
  2
Continuous
 70
     0
  3
Solid line
 72
    65
 73
     0
 40
0.0
  0
LTYPE
  5
6A
330
5
100
AcDbSymbolTableRecord
100
AcDbLinetypeTableRecord
  2
HIDDEN
 70
     0
  3
Hidden __ __ __ __ __ __ __ __ __ __ __ __ __ __
 72
    65
 73
     2
 40
1.905
 49
1.27
 74
     0
 49
-0.635
 74
     0
  0
LTYPE
  5
6B
330
5
100
AcDbSymbolTableRecord
100
AcDbLinetypeTableRecord
  2
PHANTOM
 70
     0
  3
Phantom ______  __  __  ______  __  __  ______
 72
    65
 73
     6
 40
12.7
 49
6.35
 74
     0
 49
-1.27
 74
     0
 49
1.27
 74
     0
 49
-1.27
 74
     0
 49
1.27
 74
     0
 49
-1.27
 74
     0
  0
LTYPE
  5
6C
330
5
100
AcDbSymbolTableRecord
100
AcDbLinetypeTableRecord
  2
CENTER
 70
     0
  3
Center ____ _ ____ _ ____ _ ____ _ ____ _ ____
 72
    65
 73
     4
 40
10.16
 49
6.35
 74
     0
 49
-1.27
 74
     0
 49
1.27
 74
     0
 49
-1.27
 74
     0
  0
LTYPE
  5
6D
330
5
100
AcDbSymbolTableRecord
100
AcDbLinetypeTableRecord
  2
CENTERX2
 70
     0
  3
Center (2x) ________  __  ________  __  _____
 72
    65
 73
     4
 40
20.32
 49
12.7
 74
     0
 49
-2.54
 74
     0
 49
2.54
 74
     0
 49
-2.54
 74
     0
  0
LTYPE
  5
6E
330
5
100
AcDbSymbolTableRecord
100
AcDbLinetypeTableRecord
  2
DOT2
 70
     0
  3
Dot (.5x) ........................................
 72
    65
 73
     2
 40
0.635
 49
0.0
 74
     0
 49
-0.635
 74
     0
  0
ENDTAB
  0
TABLE
  2
LAYER
  5
2
330
0
100
AcDbSymbolTable
 70
    18
  0
LAYER
  5
10
330
2
100
AcDbSymbolTableRecord
100
AcDbLayerTableRecord
  2
0
 70
     0
 62
     7
  6
Continuous
370
    -3
390
F
  0
LAYER
  5
6F
330
2
100
AcDbSymbolTableRecord
100
AcDbLayerTableRecord
  2
FORMAT
 70
     0
 62
     2
  6
Continuous
370
    -3
390
F
  0
LAYER
  5
70
330
2
100
AcDbSymbolTableRecord
100
AcDbLayerTableRecord
  2
외형선
 70
     0
 62
     4
  6
Continuous
370
    30
390
F
  0
LAYER
  5
71
330
2
100
AcDbSymbolTableRecord
100
AcDbLayerTableRecord
  2
숨은선
 70
     0
 62
     2
  6
HIDDEN
370
    15
390
F
  0
LAYER
  5
72
330
2
100
AcDbSymbolTableRecord
100
AcDbLayerTableRecord
  2
중심선
 70
     0
 62
     1
  6
CENTERX2
370
    -3
390
F
  0
LAYER
  5
73
330
2
100
AcDbSymbolTableRecord
100
AcDbLayerTableRecord
  2
파단선
 70
     0
 62
     4
  6
Continuous
370
    -3
390
F
  0
LAYER
  5
74
330
2
100
AcDbSymbolTableRecord
100
AcDbLayerTableRecord
  2
해칭선
 70
     0
 62
   100
  6
Continuous
370
    -3
390
F
  0
LAYER
  5
75
330
2
100
AcDbSymbolTableRecord
100
AcDbLayerTableRecord
  2
가는실선
 70
     0
 62
     4
  6
Continuous
370
    -3
390
F
  0
LAYER
  5
76
330
2
100
AcDbSymbolTableRecord
100
AcDbLayerTableRecord
  2
치수_보조선
 70
     0
 62
     4
  6
Continuous
370
    -3
390
F
  0
LAYER
  5
77
330
2
100
AcDbSymbolTableRecord
100
AcDbLayerTableRecord
  2
치수문자_일반주서
 70
     0
 62
     7
  6
Continuous
370
    15
390
F
  0
LAYER
  5
78
330
2
100
AcDbSymbolTableRecord
100
AcDbLayerTableRecord
  2
개별주서
 70
     0
 62
   100
  6
Continuous
370
    30
390
F
  0
LAYER
  5
79
330
2
100
AcDbSymbolTableRecord
100
AcDbLayerTableRecord
  2
중간선
 70
     0
 62
     2
  6
Continuous
370
    15
390
F
  0
LAYER
  5
7A
330
2
100
AcDbSymbolTableRecord
100
AcDbLayerTableRecord
  2
윤곽선
 70
     0
 62
     3
  6
Continuous
370
    40
390
F
  0
LAYER
  5
7B
330
2
100
AcDbSymbolTableRecord
100
AcDbLayerTableRecord
  2
중심마크
 70
     0
 62
   100
  6
Continuous
370
    30
390
F
  0
LAYER
  5
7C
330
2
100
AcDbSymbolTableRecord
100
AcDbLayerTableRecord
  2
가상선
 70
     0
 62
     4
  6
PHANTOM
370
    -3
390
F
  0
LAYER
  5
7D
330
2
100
AcDbSymbolTableRecord
100
AcDbLayerTableRecord
  2
특수지정선
 70
     0
 62
     5
  6
CENTERX2
370
    60
390
F
  0
LAYER
  5
7E
330
2
100
AcDbSymbolTableRecord
100
AcDbLayerTableRecord
  2
참조1
 70
     0
 62
    -4
  6
Continuous
370
    -3
390
F
  0
LAYER
  5
152
330
2
100
AcDbSymbolTableRecord
100
AcDbLayerTableRecord
  2
Defpoints
 70
     0
 62
     7
  6
Continuous
290
     0
370
    -3
390
F
  0
ENDTAB
  0
TABLE
  2
STYLE
  5
3
330
0
100
AcDbSymbolTable
 70
     2
  0
STYLE
  5
11
330
3
100
AcDbSymbolTableRecord
100
AcDbTextStyleTableRecord
  2
Standard
 70
     0
 40
0.0
 41
1.0
 50
0.0
 71
     0
 42
3.5
  3
txt
  4

  0
STYLE
  5
94
330
3
100
AcDbSymbolTableRecord
100
AcDbTextStyleTableRecord
  2
SLDTEXTSTYLE0
 70
     0
 40
0.0
 41
0.75
 50
0.0
 71
     0
 42
3.5
  3
TXT
  4

  0
ENDTAB
  0
TABLE
  2
VIEW
  5
6
330
0
100
AcDbSymbolTable
 70
     0
  0
ENDTAB
  0
TABLE
  2
UCS
  5
7
330
0
100
AcDbSymbolTable
 70
     0
  0
ENDTAB
  0
TABLE
  2
APPID
  5
9
330
0
100
AcDbSymbolTable
 70
     2
  0
APPID
  5
12
330
9
100
AcDbSymbolTableRecord
100
AcDbRegAppTableRecord
  2
ACAD
 70
     0
  0
APPID
  5
159
330
9
100
AcDbSymbolTableRecord
100
AcDbRegAppTableRecord
  2
PE_URL
 70
     0
  0
ENDTAB
  0
TABLE
  2
DIMSTYLE
  5
A
330
0
100
AcDbSymbolTable
 70
     3
100
AcDbDimStyleTable
  0
DIMSTYLE
105
27
330
A
100
AcDbSymbolTableRecord
100
AcDbDimStyleTableRecord
  2
ISO-25
 70
     0
 41
2.5
 42
0.625
 43
3.75
 44
1.25
 73
     0
 74
     0
 77
     1
 78
     8
140
2.5
141
2.5
143
0.03937007874016
147
0.625
171
     3
172
     1
178
     0
271
     2
272
     2
274
     3
278
    44
283
     0
284
     8
340
11
  0
DIMSTYLE
105
D1
102
{ACAD_REACTORS
330
D0
330
10D
330
178
330
E5
330
FA
102
}
330
A
100
AcDbSymbolTableRecord
100
AcDbDimStyleTableRecord
  2
SLDDIMSTYLE0
 70
     0
 41
3.302
 44
0.0
 45
0.000000001
 73
     0
 74
     0
 77
     1
 78
    12
 79
     3
140
3.5
143
0.0393700787401575
147
0.875
148
0.000000001
170
     1
172
     1
173
     1
178
     0
271
     2
272
     2
276
     2
284
    12
289
     0
340
94
  0
DIMSTYLE
105
E6
330
A
100
AcDbSymbolTableRecord
100
AcDbDimStyleTableRecord
  2
SLDDIMSTYLE1
 70
     0
 41
3.302
 44
0.0
 45
0.000000001
 73
     0
 74
     0
 77
     1
 78
    12
 79
     3
140
3.5
143
0.0393700787401575
147
0.875
148
0.000000001
170
     1
173
     1
178
     0
271
     2
272
     2
276
     2
284
    12
340
94
  0
ENDTAB
  0
TABLE
  2
BLOCK_RECORD
  5
1
330
0
100
AcDbSymbolTable
 70
    10
  0
BLOCK_RECORD
  5
1F
330
1
100
AcDbSymbolTableRecord
100
AcDbBlockTableRecord
  2
*Model_Space
340
22
  0
BLOCK_RECORD
  5
1B
330
1
100
AcDbSymbolTableRecord
100
AcDbBlockTableRecord
  2
*Paper_Space
340
1E
  0
BLOCK_RECORD
  5
23
330
1
100
AcDbSymbolTableRecord
100
AcDbBlockTableRecord
  2
*Paper_Space0
340
26
  0
BLOCK_RECORD
  5
7F
330
1
100
AcDbSymbolTableRecord
100
AcDbBlockTableRecord
  2
블럭10
340
0
102
{BLKREFS
331
C9
102
}
  0
BLOCK_RECORD
  5
D2
330
1
100
AcDbSymbolTableRecord
100
AcDbBlockTableRecord
  2
_D
340
0
  0
BLOCK_RECORD
  5
E7
330
1
100
AcDbSymbolTableRecord
100
AcDbBlockTableRecord
  2
_D_1
340
0
  0
BLOCK_RECORD
  5
FB
330
1
100
AcDbSymbolTableRecord
100
AcDbBlockTableRecord
  2
_D_2
340
0
  0
BLOCK_RECORD
  5
10E
330
1
100
AcDbSymbolTableRecord
100
AcDbBlockTableRecord
  2
_D_3
340
0
  0
BLOCK_RECORD
  5
128
330
1
100
AcDbSymbolTableRecord
100
AcDbBlockTableRecord
  2
SW_DOWELSYMBOL_0
340
0
102
{BLKREFS
331
12E
102
}
  0
BLOCK_RECORD
  5
18B
330
1
100
AcDbSymbolTableRecord
100
AcDbBlockTableRecord
  2
*D8
340
0
  0
BLOCK_RECORD
  5
19D
330
1
100
AcDbSymbolTableRecord
100
AcDbBlockTableRecord
  2
*D9
340
0
  0
ENDTAB
  0
ENDSEC
  0
SECTION
  2
BLOCKS
  0
BLOCK
  5
20
330
1F
100
AcDbEntity
  8
0
100
AcDbBlockBegin
  2
*Model_Space
 70
     0
 10
0.0
 20
0.0
 30
0.0
  3
*Model_Space
  1

  0
ENDBLK
  5
21
330
1F
100
AcDbEntity
  8
0
100
AcDbBlockEnd
  0
BLOCK
  5
1C
330
1B
100
AcDbEntity
 67
     1
  8
0
100
AcDbBlockBegin
  2
*Paper_Space
 70
     0
 10
0.0
 20
0.0
 30
0.0
  3
*Paper_Space
  1

  0
ENDBLK
  5
1D
330
1B
100
AcDbEntity
 67
     1
  8
0
100
AcDbBlockEnd
  0
BLOCK
  5
24
330
23
100
AcDbEntity
  8
0
100
AcDbBlockBegin
  2
*Paper_Space0
 70
     0
 10
0.0
 20
0.0
 30
0.0
  3
*Paper_Space0
  1

  0
ENDBLK
  5
25
330
23
100
AcDbEntity
  8
0
100
AcDbBlockEnd
  0
BLOCK
  5
80
330
7F
100
AcDbEntity
  8
0
100
AcDbBlockBegin
  2
블럭10
 70
     2
 10
0.0
 20
0.0
 30
0.0
  3
블럭10
  1

  0
ELLIPSE
  5
82
330
7F
100
AcDbEntity
  8
중심선
100
AcDbEllipse
 10
20.54032771741204
 20
12.0471743016438
 30
0.0
 11
6.600054785286829
 21
-1.261213355974178E-13
 31
0.0
210
0.0
220
0.0
230
1.0
 40
0.636358354079598
 41
0.9219305317359503
 42
6.513795318482858
  0
ELLIPSE
  5
83
330
7F
100
AcDbEntity
  8
중심선
100
AcDbEllipse
 10
20.54032771746488
 20
12.04717430159265
 30
0.0
 11
3.960054785062283
 21
1.540847449632565E-10
 31
0.0
210
0.0
220
0.0
230
1.0
 40
0.3939339440162632
 41
1.131841032648279
 42
5.62031148352944
  0
LINE
  5
84
330
7F
100
AcDbEntity
  8
중심선
100
AcDbLine
 10
2.268634060543552
 20
16.24717430164393
 30
0.0
 11
5.714909304380834
 21
16.24717430164393
 31
0.0
  0
LINE
  5
85
330
7F
100
AcDbEntity
  8
중심선
100
AcDbLine
 10
5.245725140726316
 20
7.84717430164391
 30
0.0
 11
8.692000384563599
 21
7.84717430164391
 31
0.0
  0
LINE
  5
86
330
7F
100
AcDbEntity
  8
중심선
100
AcDbLine
 10
15.74043728645272
 20
16.24717430164393
 30
0.0
 11
8.692000384563599
 21
7.84717430164391
 31
0.0
  0
LINE
  5
87
330
7F
100
AcDbEntity
  8
중심선
100
AcDbLine
 10
0.1404042013395286
 20
13.71084872107135
 30
0.0
 11
3.58671253028996
 21
13.71088815037384
 31
0.0
  0
LINE
  5
88
330
7F
100
AcDbEntity
  8
중심선
100
AcDbLine
 10
2.750260043222114
 20
10.84717430164391
 30
0.0
 11
6.196535287059397
 21
10.84717430164391
 31
0.0
  0
LINE
  5
89
330
7F
100
AcDbEntity
  8
중심선
100
AcDbLine
 10
12.29416204261559
 20
16.24717430164393
 30
0.0
 11
5.245725140726316
 21
7.84717430164391
 31
0.0
  0
LINE
  5
8A
330
7F
100
AcDbEntity
  8
중심선
100
AcDbLine
 10
10.72767329541681
 20
16.24717430164393
 30
0.0
 11
6.196535287059397
 21
10.84717430164391
 31
0.0
  0
LINE
  5
8B
330
7F
100
AcDbEntity
  8
중심선
100
AcDbLine
 10
7.28139805157953
 20
16.24717430164393
 30
0.0
 11
2.750260043222114
 21
10.84717430164391
 31
0.0
  0
LINE
  5
8C
330
7F
100
AcDbEntity
  8
중심선
100
AcDbLine
 10
5.714909304380834
 20
16.24717430164393
 30
0.0
 11
3.58671253028996
 21
13.71088815037384
 31
0.0
  0
LINE
  5
8D
330
7F
100
AcDbEntity
  8
중심선
100
AcDbLine
 10
2.268634060543552
 20
16.24717430164393
 30
0.0
 11
0.1404042013395286
 21
13.71084872107135
 31
0.0
  0
LINE
  5
8E
330
7F
100
AcDbEntity
  8
중심선
100
AcDbLine
 10
7.28139805157953
 20
16.24717430164393
 30
0.0
 11
10.72767329541681
 21
16.24717430164393
 31
0.0
  0
LINE
  5
8F
330
7F
100
AcDbEntity
  8
중심선
100
AcDbLine
 10
12.29416204261559
 20
16.24717430164393
 30
0.0
 11
15.74043728645272
 21
16.24717430164393
 31
0.0
  0
LINE
  5
90
330
7F
100
AcDbEntity
  8
중심선
100
AcDbLine
 10
19.22036997980202
 20
11.08717430171403
 30
0.0
 11
23.66174974927406
 21
11.08717430171406
 31
0.0
  0
LINE
  5
91
330
7F
100
AcDbEntity
  8
중심선
100
AcDbLine
 10
19.22039502424796
 20
13.00717430171391
 30
0.0
 11
19.22036997980202
 21
11.08717430171403
 31
0.0
  0
LINE
  5
92
330
7F
100
AcDbEntity
  8
중심선
100
AcDbLine
 10
19.22039502424796
 20
13.00717430171391
 30
0.0
 11
26.96566020931264
 21
13.00717430171391
 31
0.0
  0
LINE
  5
93
330
7F
100
AcDbEntity
  8
중심선
100
AcDbLine
 10
22.22332737316547
 20
13.45928029700563
 30
0.0
 11
24.52862924686651
 21
15.39360700705356
 31
0.0
  0
ATTDEF
  5
95
330
7F
100
AcDbEntity
  8
FORMAT
 62
     2
100
AcDbText
 10
4.408487351596664
 20
2.075366912832191
 30
0.0
 40
4.233333333333333
  1
E1004007
 41
0.75
  7
SLDTEXTSTYLE0
 11
4.408487351596664
 21
-0.0412997538344756
 31
0.0
100
AcDbAttributeDefinition
  3

  2
AUTOATTR0
 70
     0
 74
     1
  0
ENDBLK
  5
81
330
7F
100
AcDbEntity
  8
0
100
AcDbBlockEnd
  0
BLOCK
  5
D3
330
D2
100
AcDbEntity
  8
0
100
AcDbBlockBegin
  2
_D
 70
     0
 10
0.0
 20
0.0
 30
0.0
  3
_D
  1

  0
LINE
  5
D5
330
D2
100
AcDbEntity
  8
치수문자_일반주서
 62
     0
370
    -2
100
AcDbLine
 10
28.6375
 20
1.383954349794813
 30
0.0
 11
58.65920357824261
 21
1.383954349794925
 31
0.0
  0
LINE
  5
D6
330
D2
100
AcDbEntity
  8
치수문자_일반주서
 62
     0
370
    -2
100
AcDbLine
 10
28.6375
 20
-1.383954349794812
 30
0.0
 11
58.65920357824262
 21
-1.383954349794699
 31
0.0
  0
LINE
  5
D7
330
D2
100
AcDbEntity
  8
치수문자_일반주서
 62
     0
370
    -2
100
AcDbLine
 10
58.65920357824261
 20
1.383954349794925
 30
0.0
 11
58.65920357824254
 21
27.51406250000007
 31
0.0
  0
LINE
  5
D8
330
D2
100
AcDbEntity
  8
치수문자_일반주서
 62
     0
370
    -2
100
AcDbLine
 10
58.65920357824261
 20
1.383954349794925
 30
0.0
 11
58.65920357824262
 21
-1.383954349794699
 31
0.0
  0
LINE
  5
D9
330
D2
100
AcDbEntity
  8
치수문자_일반주서
 62
     0
370
    -2
100
AcDbLine
 10
58.6592035782426
 20
3.883954349794925
 30
0.0
 11
58.6592035782426
 21
6.383954349794925
 31
0.0
  0
LINE
  5
DA
330
D2
100
AcDbEntity
  8
치수문자_일반주서
 62
     0
370
    -2
100
AcDbLine
 10
58.65920357824263
 20
-3.883954349794699
 30
0.0
 11
58.65920357824263
 21
-6.383954349794699
 31
0.0
  0
SOLID
  5
DB
330
D2
100
AcDbEntity
  8
치수문자_일반주서
 62
     0
100
AcDbTrace
 10
58.24253691157594
 20
3.883954349794924
 30
0.0
 11
59.07587024490927
 21
3.883954349794926
 31
0.0
 12
58.65920357824261
 22
1.383954349794925
 32
0.0
 13
58.65920357824261
 23
1.383954349794925
 33
0.0
  0
SOLID
  5
DC
330
D2
100
AcDbEntity
  8
치수문자_일반주서
 62
     0
100
AcDbTrace
 10
59.07587024490929
 20
-3.883954349794698
 30
0.0
 11
58.24253691157596
 21
-3.8839543497947
 31
0.0
 12
58.65920357824262
 22
-1.383954349794699
 32
0.0
 13
58.65920357824262
 23
-1.383954349794699
 33
0.0
  0
MTEXT
  5
DD
330
D2
100
AcDbEntity
  8
치수문자_일반주서
 62
     0
100
AcDbMText
 10
55.28420357824257
 20
16.95156250000005
 30
0.0
 40
2.5
 41
0.0
 71
     2
 72
     1
  1
\A1;%%c2.77 [7/64]
  7
SLDTEXTSTYLE0
 11
-2.567074325339728E-15
 21
1.0
 31
0.0
 73
     1
 44
1.0
  0
POINT
  5
DE
330
D2
100
AcDbEntity
  8
Defpoints
 62
     0
100
AcDbPoint
 10
28.575
 20
1.383954349794813
 30
0.0
  0
POINT
  5
DF
330
D2
100
AcDbEntity
  8
Defpoints
 62
     0
100
AcDbPoint
 10
28.575
 20
-1.383954349794813
 30
0.0
  0
POINT
  5
E0
330
D2
100
AcDbEntity
  8
Defpoints
 62
     0
100
AcDbPoint
 10
58.65920357824262
 20
-1.3839543497947
 30
0.0
  0
ENDBLK
  5
D4
330
D2
100
AcDbEntity
  8
0
100
AcDbBlockEnd
  0
BLOCK
  5
E8
330
E7
100
AcDbEntity
  8
0
100
AcDbBlockBegin
  2
_D_1
 70
     0
 10
0.0
 20
0.0
 30
0.0
  3
_D_1
  1

  0
LINE
  5
EA
330
E7
100
AcDbEntity
  8
치수문자_일반주서
 62
     0
370
    -2
100
AcDbLine
 10
28.575
 20
1.446454349794813
 30
0.0
 11
28.575
 21
10.38124999999999
 31
0.0
  0
LINE
  5
EB
330
E7
100
AcDbEntity
  8
치수문자_일반주서
 62
     0
370
    -2
100
AcDbLine
 10
20.240625
 20
1.337497512490297
 30
0.0
 11
20.240625
 21
10.38124999999999
 31
0.0
  0
LINE
  5
EC
330
E7
100
AcDbEntity
  8
치수문자_일반주서
 62
     0
370
    -2
100
AcDbLine
 10
28.575
 20
10.38124999999999
 30
0.0
 11
54.075
 21
10.38124999999999
 31
0.0
  0
LINE
  5
ED
330
E7
100
AcDbEntity
  8
치수문자_일반주서
 62
     0
370
    -2
100
AcDbLine
 10
28.575
 20
10.38124999999999
 30
0.0
 11
20.240625
 21
10.38124999999999
 31
0.0
  0
LINE
  5
EE
330
E7
100
AcDbEntity
  8
치수문자_일반주서
 62
     0
370
    -2
100
AcDbLine
 10
31.075
 20
10.38124999999999
 30
0.0
 11
33.575
 21
10.38124999999999
 31
0.0
  0
LINE
  5
EF
330
E7
100
AcDbEntity
  8
치수문자_일반주서
 62
     0
370
    -2
100
AcDbLine
 10
17.740625
 20
10.38124999999999
 30
0.0
 11
15.240625
 21
10.38124999999999
 31
0.0
  0
SOLID
  5
F0
330
E7
100
AcDbEntity
  8
치수문자_일반주서
 62
     0
100
AcDbTrace
 10
31.075
 20
10.79791666666666
 30
0.0
 11
31.075
 21
9.964583333333328
 31
0.0
 12
28.575
 22
10.38124999999999
 32
0.0
 13
28.575
 23
10.38124999999999
 33
0.0
  0
SOLID
  5
F1
330
E7
100
AcDbEntity
  8
치수문자_일반주서
 62
     0
100
AcDbTrace
 10
17.740625
 20
9.964583333333328
 30
0.0
 11
17.740625
 21
10.79791666666666
 31
0.0
 12
20.240625
 22
10.38124999999999
 32
0.0
 13
20.240625
 23
10.38124999999999
 33
0.0
  0
MTEXT
  5
F2
330
E7
100
AcDbEntity
  8
치수문자_일반주서
 62
     0
100
AcDbMText
 10
43.825
 20
13.75624999999999
 30
0.0
 40
2.5
 41
0.0
 71
     2
 72
     1
  1
\A1;8.33 [21/64]
  7
SLDTEXTSTYLE0
 73
     1
 44
1.0
  0
POINT
  5
F3
330
E7
100
AcDbEntity
  8
Defpoints
 62
     0
100
AcDbPoint
 10
28.575
 20
1.383954349794813
 30
0.0
  0
POINT
  5
F4
330
E7
100
AcDbEntity
  8
Defpoints
 62
     0
100
AcDbPoint
 10
20.240625
 20
1.274997512490297
 30
0.0
  0
POINT
  5
F5
330
E7
100
AcDbEntity
  8
Defpoints
 62
     0
100
AcDbPoint
 10
20.240625
 20
10.38124999999999
 30
0.0
  0
ENDBLK
  5
E9
330
E7
100
AcDbEntity
  8
0
100
AcDbBlockEnd
  0
BLOCK
  5
FC
330
FB
100
AcDbEntity
  8
0
100
AcDbBlockBegin
  2
_D_2
 70
     0
 10
0.0
 20
0.0
 30
0.0
  3
_D_2
  1

  0
LINE
  5
FE
330
FB
100
AcDbEntity
  8
치수문자_일반주서
 62
     0
370
    -2
100
AcDbLine
 10
28.575
 20
1.446454349794813
 30
0.0
 11
28.575
 21
18.38125
 31
0.0
  0
LINE
  5
FF
330
FB
100
AcDbEntity
  8
치수문자_일반주서
 62
     0
370
    -2
100
AcDbLine
 10
-28.575
 20
1.44645434979482
 30
0.0
 11
-28.575
 21
18.38125
 31
0.0
  0
LINE
  5
100
330
FB
100
AcDbEntity
  8
치수문자_일반주서
 62
     0
370
    -2
100
AcDbLine
 10
26.075
 20
18.38125
 30
0.0
 11
-26.075
 21
18.38125
 31
0.0
  0
SOLID
  5
101
330
FB
100
AcDbEntity
  8
치수문자_일반주서
 62
     0
100
AcDbTrace
 10
26.075
 20
17.96458333333333
 30
0.0
 11
26.075
 21
18.79791666666667
 31
0.0
 12
28.575
 22
18.38125
 32
0.0
 13
28.575
 23
18.38125
 33
0.0
  0
SOLID
  5
102
330
FB
100
AcDbEntity
  8
치수문자_일반주서
 62
     0
100
AcDbTrace
 10
-26.075
 20
18.79791666666667
 30
0.0
 11
-26.075
 21
17.96458333333333
 31
0.0
 12
-28.575
 22
18.38125
 32
0.0
 13
-28.575
 23
18.38125
 33
0.0
  0
MTEXT
  5
103
330
FB
100
AcDbEntity
  8
치수문자_일반주서
 62
     0
100
AcDbMText
 10
-1.458179486121107
 20
21.75625
 30
0.0
 40
2.5
 41
0.0
 71
     2
 72
     1
  1
\A1;57.15 [2 1/4]
  7
SLDTEXTSTYLE0
 73
     1
 44
1.0
  0
POINT
  5
104
330
FB
100
AcDbEntity
  8
Defpoints
 62
     0
100
AcDbPoint
 10
28.575
 20
1.383954349794813
 30
0.0
  0
POINT
  5
105
330
FB
100
AcDbEntity
  8
Defpoints
 62
     0
100
AcDbPoint
 10
-28.575
 20
1.38395434979482
 30
0.0
  0
POINT
  5
106
330
FB
100
AcDbEntity
  8
Defpoints
 62
     0
100
AcDbPoint
 10
-28.575
 20
18.38125
 30
0.0
  0
ENDBLK
  5
FD
330
FB
100
AcDbEntity
  8
0
100
AcDbBlockEnd
  0
BLOCK
  5
10F
330
10E
100
AcDbEntity
  8
0
100
AcDbBlockBegin
  2
_D_3
 70
     0
 10
0.0
 20
0.0
 30
0.0
  3
_D_3
  1

  0
LINE
  5
111
330
10E
100
AcDbEntity
  8
치수문자_일반주서
 62
     0
370
    -2
100
AcDbLine
 10
-15.60023083936524
 20
2.381250000000005
 30
0.0
 11
-36.57500000000001
 21
2.381249999999925
 31
0.0
  0
LINE
  5
112
330
10E
100
AcDbEntity
  8
치수문자_일반주서
 62
     0
370
    -2
100
AcDbLine
 10
-15.60023083936524
 20
-2.381250000000007
 30
0.0
 11
-36.575
 21
-2.381250000000083
 31
0.0
  0
LINE
  5
113
330
10E
100
AcDbEntity
  8
치수문자_일반주서
 62
     0
370
    -2
100
AcDbLine
 10
-36.57500000000001
 20
2.381249999999925
 30
0.0
 11
-36.57500000000008
 21
27.88124999999998
 31
0.0
  0
LINE
  5
114
330
10E
100
AcDbEntity
  8
치수문자_일반주서
 62
     0
370
    -2
100
AcDbLine
 10
-36.57500000000001
 20
2.381249999999925
 30
0.0
 11
-36.575
 21
-2.381250000000083
 31
0.0
  0
LINE
  5
115
330
10E
100
AcDbEntity
  8
치수문자_일반주서
 62
     0
370
    -2
100
AcDbLine
 10
-36.57500000000002
 20
4.881249999999925
 30
0.0
 11
-36.57500000000002
 21
7.381249999999925
 31
0.0
  0
LINE
  5
116
330
10E
100
AcDbEntity
  8
치수문자_일반주서
 62
     0
370
    -2
100
AcDbLine
 10
-36.57499999999999
 20
-4.881250000000083
 30
0.0
 11
-36.57499999999998
 21
-7.381250000000083
 31
0.0
  0
SOLID
  5
117
330
10E
100
AcDbEntity
  8
치수문자_일반주서
 62
     0
100
AcDbTrace
 10
-36.99166666666668
 20
4.881249999999924
 30
0.0
 11
-36.15833333333335
 21
4.881249999999926
 31
0.0
 12
-36.57500000000001
 22
2.381249999999925
 32
0.0
 13
-36.57500000000001
 23
2.381249999999925
 33
0.0
  0
SOLID
  5
118
330
10E
100
AcDbEntity
  8
치수문자_일반주서
 62
     0
100
AcDbTrace
 10
-36.15833333333332
 20
-4.881250000000082
 30
0.0
 11
-36.99166666666665
 21
-4.881250000000084
 31
0.0
 12
-36.575
 22
-2.381250000000083
 32
0.0
 13
-36.575
 23
-2.381250000000083
 33
0.0
  0
MTEXT
  5
119
330
10E
100
AcDbEntity
  8
치수문자_일반주서
 62
     0
100
AcDbMText
 10
-39.95000000000005
 20
17.63124999999997
 30
0.0
 40
2.5
 41
0.0
 71
     2
 72
     1
  1
\A1;%%c4.76 [3/16]
  7
SLDTEXTSTYLE0
 11
-2.983906501879679E-15
 21
1.0
 31
0.0
 73
     1
 44
1.0
  0
POINT
  5
1B6
330
10E
100
AcDbEntity
  8
Defpoints
 62
     0
100
AcDbPoint
 10
-15.53773083936524
 20
2.381250000000005
 30
0.0
  0
POINT
  5
1B7
330
10E
100
AcDbEntity
  8
Defpoints
 62
     0
100
AcDbPoint
 10
-15.53773083936524
 20
-2.381250000000006
 30
0.0
  0
POINT
  5
1B8
330
10E
100
AcDbEntity
  8
Defpoints
 62
     0
100
AcDbPoint
 10
-36.575
 20
-2.381250000000085
 30
0.0
  0
ENDBLK
  5
110
330
10E
100
AcDbEntity
  8
0
100
AcDbBlockEnd
  0
BLOCK
  5
129
330
128
100
AcDbEntity
  8
0
100
AcDbBlockBegin
  2
SW_DOWELSYMBOL_0
 70
     0
 10
0.0
 20
0.0
 30
0.0
  3
SW_DOWELSYMBOL_0
  1

  0
CIRCLE
  5
12B
330
128
100
AcDbEntity
  8
해칭선
 62
     0
100
AcDbCircle
 10
0.0
 20
0.0
 30
0.0
 40
3.000000000000001
  0
HATCH
  5
12C
330
128
100
AcDbEntity
  8
0
  6
Continuous
 62
     0
370
     0
100
AcDbHatch
 10
0.0
 20
0.0
 30
0.0
210
0.0
220
0.0
230
1.0
  2
SOLID
 70
     1
 71
     0
 91
        1
 92
        0
 93
        3
 72
     2
 10
0.0
 20
0.0
 40
3.000000000000001
 50
0.0
 51
90.0
 73
     1
 72
     1
 10
0.0
 20
3.000000000000001
 11
0.0
 21
0.0
 72
     1
 10
0.0
 20
0.0
 11
3.000000000000001
 21
0.0
 97
        0
 75
     0
 76
     1
 98
        1
 10
0.0
 20
0.0
  0
HATCH
  5
12D
330
128
100
AcDbEntity
  8
0
  6
Continuous
 62
     0
370
     0
100
AcDbHatch
 10
0.0
 20
0.0
 30
0.0
210
0.0
220
0.0
230
1.0
  2
SOLID
 70
     1
 71
     0
 91
        1
 92
        0
 93
        3
 72
     2
 10
0.0
 20
0.0
 40
3.000000000000001
 50
180.0
 51
270.0000000000008
 73
     1
 72
     1
 10
0.0
 20
-3.000000000000001
 11
0.0
 21
0.0
 72
     1
 10
0.0
 20
0.0
 11
-3.000000000000001
 21
0.0
 97
        0
 75
     0
 76
     1
 98
        1
 10
0.0
 20
0.0
  0
ENDBLK
  5
12A
330
128
100
AcDbEntity
  8
0
100
AcDbBlockEnd
  0
BLOCK
  5
18C
330
18B
100
AcDbEntity
  8
0
100
AcDbBlockBegin
  2
*D8
 70
     1
 10
0.0
 20
0.0
 30
0.0
  3
*D8
  1

  0
LINE
  5
18E
330
18B
100
AcDbEntity
  8
치수문자_일반주서
 62
     0
370
    -2
100
AcDbLine
 10
9.762500000000015
 20
1.572215627997356
 30
0.0
 11
9.762500000000015
 21
11.10013457097175
 31
0.0
  0
LINE
  5
18F
330
18B
100
AcDbEntity
  8
치수문자_일반주서
 62
     0
370
    -2
100
AcDbLine
 10
5.0
 20
1.510038174416205
 30
0.0
 11
5.0
 21
11.10013457097175
 31
0.0
  0
LINE
  5
190
330
18B
100
AcDbEntity
  8
치수문자_일반주서
 62
     0
370
    -2
100
AcDbLine
 10
9.762500000000015
 20
11.10013457097175
 30
0.0
 11
33.38750000000002
 21
11.10013457097175
 31
0.0
  0
LINE
  5
191
330
18B
100
AcDbEntity
  8
치수문자_일반주서
 62
     0
370
    -2
100
AcDbLine
 10
9.762500000000015
 20
11.10013457097175
 30
0.0
 11
5.0
 21
11.10013457097175
 31
0.0
  0
LINE
  5
192
330
18B
100
AcDbEntity
  8
치수문자_일반주서
 62
     0
370
    -2
100
AcDbLine
 10
12.26250000000002
 20
11.10013457097175
 30
0.0
 11
14.76250000000002
 21
11.10013457097175
 31
0.0
  0
LINE
  5
193
330
18B
100
AcDbEntity
  8
치수문자_일반주서
 62
     0
370
    -2
100
AcDbLine
 10
2.5
 20
11.10013457097175
 30
0.0
 11
0.0
 21
11.10013457097175
 31
0.0
  0
SOLID
  5
194
330
18B
100
AcDbEntity
  8
치수문자_일반주서
 62
     0
100
AcDbTrace
 10
12.26250000000002
 20
11.51680123763841
 30
0.0
 11
12.26250000000002
 21
10.68346790430508
 31
0.0
 12
9.762500000000015
 22
11.10013457097175
 32
0.0
 13
9.762500000000015
 23
11.10013457097175
 33
0.0
  0
SOLID
  5
195
330
18B
100
AcDbEntity
  8
치수문자_일반주서
 62
     0
100
AcDbTrace
 10
2.5
 20
10.68346790430508
 30
0.0
 11
2.5
 21
11.51680123763841
 31
0.0
 12
5.0
 22
11.10013457097175
 32
0.0
 13
5.0
 23
11.10013457097175
 33
0.0
  0
MTEXT
  5
196
330
18B
100
AcDbEntity
  8
치수문자_일반주서
 62
     0
100
AcDbMText
 10
24.07500000000002
 20
14.47513457097175
 30
0.0
 40
2.5
 41
0.0
 71
     2
 72
     1
  1
\A1;4.76 [3/16]
  7
SLDTEXTSTYLE0
 73
     1
 44
1.0
  0
POINT
  5
197
330
18B
100
AcDbEntity
  8
Defpoints
 62
     0
100
AcDbPoint
 10
9.762500000000015
 20
1.509715627997356
 30
0.0
  0
POINT
  5
198
330
18B
100
AcDbEntity
  8
Defpoints
 62
     0
100
AcDbPoint
 10
5.0
 20
1.447538174416205
 30
0.0
  0
POINT
  5
199
330
18B
100
AcDbEntity
  8
Defpoints
 62
     0
100
AcDbPoint
 10
5.0
 20
11.10013457097175
 30
0.0
  0
ENDBLK
  5
18D
330
18B
100
AcDbEntity
  8
0
100
AcDbBlockEnd
  0
BLOCK
  5
19E
330
19D
100
AcDbEntity
  8
0
100
AcDbBlockBegin
  2
*D9
 70
     1
 10
0.0
 20
0.0
 30
0.0
  3
*D9
  1

  0
LINE
  5
1A0
330
19D
100
AcDbEntity
  8
치수문자_일반주서
 62
     0
370
    -2
100
AcDbLine
 10
64.89686650806851
 20
-0.312166493101937
 30
0.0
 11
64.89686650806851
 21
9.215752449872452
 31
0.0
  0
LINE
  5
1A1
330
19D
100
AcDbEntity
  8
치수문자_일반주서
 62
     0
370
    -2
100
AcDbLine
 10
60.1343665080685
 20
-0.374343946683088
 30
0.0
 11
60.1343665080685
 21
9.215752449872452
 31
0.0
  0
LINE
  5
1A2
330
19D
100
AcDbEntity
  8
치수문자_일반주서
 62
     0
370
    -2
100
AcDbLine
 10
64.89686650806851
 20
9.215752449872452
 30
0.0
 11
88.52186650806851
 21
9.215752449872452
 31
0.0
  0
LINE
  5
1A3
330
19D
100
AcDbEntity
  8
치수문자_일반주서
 62
     0
370
    -2
100
AcDbLine
 10
64.89686650806851
 20
9.215752449872452
 30
0.0
 11
60.1343665080685
 21
9.215752449872452
 31
0.0
  0
LINE
  5
1A4
330
19D
100
AcDbEntity
  8
치수문자_일반주서
 62
     0
370
    -2
100
AcDbLine
 10
67.39686650806851
 20
9.215752449872452
 30
0.0
 11
69.89686650806851
 21
9.215752449872452
 31
0.0
  0
LINE
  5
1A5
330
19D
100
AcDbEntity
  8
치수문자_일반주서
 62
     0
370
    -2
100
AcDbLine
 10
57.6343665080685
 20
9.215752449872452
 30
0.0
 11
55.1343665080685
 21
9.215752449872452
 31
0.0
  0
SOLID
  5
1A6
330
19D
100
AcDbEntity
  8
치수문자_일반주서
 62
     0
100
AcDbTrace
 10
67.39686650806851
 20
9.632419116539118
 30
0.0
 11
67.39686650806851
 21
8.799085783205786
 31
0.0
 12
64.89686650806851
 22
9.215752449872452
 32
0.0
 13
64.89686650806851
 23
9.215752449872452
 33
0.0
  0
SOLID
  5
1A7
330
19D
100
AcDbEntity
  8
치수문자_일반주서
 62
     0
100
AcDbTrace
 10
57.6343665080685
 20
8.799085783205786
 30
0.0
 11
57.6343665080685
 21
9.632419116539118
 31
0.0
 12
60.1343665080685
 22
9.215752449872452
 32
0.0
 13
60.1343665080685
 23
9.215752449872452
 33
0.0
  0
MTEXT
  5
1A8
330
19D
100
AcDbEntity
  8
치수문자_일반주서
 62
     0
100
AcDbMText
 10
79.20936650806851
 20
12.59075244987245
 30
0.0
 40
2.5
 41
0.0
 71
     2
 72
     1
  1
\A1;4.76 [3/16]
  7
SLDTEXTSTYLE0
 73
     1
 44
1.0
  0
POINT
  5
1A9
330
19D
100
AcDbEntity
  8
Defpoints
 62
     0
100
AcDbPoint
 10
64.89686650806851
 20
-0.374666493101937
 30
0.0
  0
POINT
  5
1AA
330
19D
100
AcDbEntity
  8
Defpoints
 62
     0
100
AcDbPoint
 10
60.1343665080685
 20
-0.436843946683088
 30
0.0
  0
POINT
  5
1AB
330
19D
100
AcDbEntity
  8
Defpoints
 62
     0
100
AcDbPoint
 10
60.1343665080685
 20
9.215752449872452
 30
0.0
  0
ENDBLK
  5
19F
330
19D
100
AcDbEntity
  8
0
100
AcDbBlockEnd
  0
ENDSEC
  0
SECTION
  2
ENTITIES
  0
LINE
  5
96
330
1F
100
AcDbEntity
  8
0
  6
Continuous
 62
     1
370
    25
100
AcDbLine
 10
25.00200868254147
 20
-1.3890625
 30
0.0
 11
25.84850781771831
 21
-1.3890625
 31
0.0
1001
PE_URL
1000

  0
LINE
  5
97
330
1F
100
AcDbEntity
  8
0
  6
Continuous
 62
     1
370
    25
100
AcDbLine
 10
22.07032813834127
 20
1.3890625
 30
0.0
 11
21.22305280200722
 21
1.3890625
 31
0.0
1001
PE_URL
1000

  0
LINE
  5
98
330
1F
100
AcDbEntity
  8
0
  6
Continuous
 62
     1
370
    25
100
AcDbLine
 10
25.84850781771831
 20
1.3890625
 30
0.0
 11
25.00200868254148
 21
1.3890625
 31
0.0
1001
PE_URL
1000

  0
LINE
  5
99
330
1F
100
AcDbEntity
  8
0
  6
Continuous
 62
     1
370
    25
100
AcDbLine
 10
21.22305280200722
 20
-1.3890625
 30
0.0
 11
22.07032813834125
 21
-1.3890625
 31
0.0
1001
PE_URL
1000

  0
LINE
  5
9A
330
1F
100
AcDbEntity
  8
외형선
  6
Continuous
370
    15
100
AcDbLine
 10
15.53773083936524
 20
-2.381250000000005
 30
0.0
 11
19.240625
 21
-1.3890625
 31
0.0
  0
LINE
  5
9B
330
1F
100
AcDbEntity
  8
외형선
  6
Continuous
370
    15
100
AcDbLine
 10
19.240625
 20
1.3890625
 30
0.0
 11
15.53773083936524
 21
2.381250000000006
 31
0.0
  0
LINE
  5
9C
330
1F
100
AcDbEntity
  8
외형선
  6
Continuous
370
    15
100
AcDbLine
 10
-15.53773083936524
 20
-2.381250000000003
 30
0.0
 11
15.53773083936524
 21
-2.381250000000003
 31
0.0
  0
LINE
  5
9D
330
1F
100
AcDbEntity
  8
외형선
  6
Continuous
370
    15
100
AcDbLine
 10
15.53773083936524
 20
2.381250000000003
 30
0.0
 11
-15.53773083936524
 21
2.381250000000003
 31
0.0
  0
LINE
  5
A0
330
1F
100
AcDbEntity
  8
외형선
  6
Continuous
370
    15
100
AcDbLine
 10
19.240625
 20
-1.3890625
 30
0.0
 11
19.74060848295901
 21
-1.3890625
 31
0.0
  0
LINE
  5
A1
330
1F
100
AcDbEntity
  8
외형선
  6
Continuous
370
    15
100
AcDbLine
 10
19.74060848295901
 20
1.3890625
 30
0.0
 11
19.240625
 21
1.3890625
 31
0.0
  0
SPLINE
  5
A2
330
1F
100
AcDbEntity
  8
0
  6
Continuous
 62
     1
370
    25
100
AcDbSpline
210
0.0
220
0.0
230
1.0
 70
     8
 71
     3
 72
    18
 73
    14
 74
     0
 42
0.000000001
 43
0.00000001
 40
0.0
 40
0.0
 40
0.0
 40
0.0
 40
0.0945889479695207
 40
0.1889463544527992
 40
0.2831760534672489
 40
0.3774380013295358
 40
0.4718913732400212
 40
0.5664620086075686
 40
0.6607902518375816
 40
0.7644934786745097
 40
0.8681946146849783
 40
0.9719309322702138
 40
1.0
 40
1.0
 40
1.0
 40
1.0
 10
20.24062499999999
 20
0.9570638806176031
 30
0.0
 10
20.46349164613662
 20
0.8569040461505699
 30
0.0
 10
20.90867938974284
 20
0.656829555510925
 30
0.0
 10
21.57544102602101
 20
0.2866669015285292
 30
0.0
 10
22.24126501313477
 20
-0.1000031501690201
 30
0.0
 10
22.90734700204855
 20
-0.4805265278794672
 30
0.0
 10
23.57454589080117
 20
-0.8238655198446947
 30
0.0
 10
24.24223480681533
 20
-1.104302940370397
 30
0.0
 10
24.93103726101245
 20
-1.307001906458368
 30
0.0
 10
25.64162704109804
 20
-1.40680919238801
 30
0.0
 10
26.37427884394805
 20
-1.372243289428631
 30
0.0
 10
26.92886477208345
 20
-1.272509240276702
 30
0.0
 10
27.23930878898511
 20
-1.156604520961237
 30
0.0
 10
27.30542045897411
 20
-1.131921634075454
 30
0.0
1001
PE_URL
1000

  0
SPLINE
  5
A3
330
1F
100
AcDbEntity
  8
외형선
  6
Continuous
370
    15
100
AcDbSpline
210
0.0
220
0.0
230
1.0
 70
    24
 71
     3
 72
    10
 73
     6
 74
     0
 42
0.000000001
 43
0.00000001
 40
0.0
 40
0.0
 40
0.0
 40
0.0
 40
0.3006647401720892
 40
0.6047270125634564
 40
1.0
 40
1.0
 40
1.0
 40
1.0
 10
20.240625
 20
1.274997512490297
 30
0.0
 10
20.24062500000001
 20
1.246015048149884
 30
0.0
 10
20.24062500000003
 20
1.187722615630949
 30
0.0
 10
20.24062499999996
 20
1.093235240810344
 30
0.0
 10
20.24062499999999
 20
1.031328914444302
 30
0.0
 10
20.240625
 20
0.9963386887692107
 30
0.0
  0
SPLINE
  5
A4
330
1F
100
AcDbEntity
  8
0
  6
Continuous
 62
     1
370
    25
100
AcDbSpline
210
0.0
220
0.0
230
1.0
 70
     8
 71
     3
 72
    38
 73
    34
 74
     0
 42
0.000000001
 43
0.00000001
 40
0.0
 40
0.0
 40
0.0
 40
0.0
 40
0.0625
 40
0.0625
 40
0.125
 40
0.125
 40
0.1875
 40
0.1875
 40
0.25
 40
0.25
 40
0.3125
 40
0.3125
 40
0.375
 40
0.375
 40
0.4375
 40
0.4375
 40
0.5
 40
0.5
 40
0.5625
 40
0.5625
 40
0.625
 40
0.625
 40
0.6875
 40
0.6875
 40
0.75
 40
0.75
 40
0.8125
 40
0.8125
 40
0.875
 40
0.875
 40
0.9375
 40
0.9375
 40
1.0
 40
1.0
 40
1.0
 40
1.0
 10
28.575
 20
-1.383954349794813
 30
0.0
 10
28.40402083269832
 20
-1.375409385140607
 30
0.0
 10
28.22813573368134
 20
-1.355956276906886
 30
0.0
 10
27.87870821623531
 20
-1.296131777575856
 30
0.0
 10
27.70838196062006
 20
-1.256133824747041
 30
0.0
 10
27.36064937242325
 20
-1.156718968758017
 30
0.0
 10
27.1842111810002
 20
-1.097229146716323
 30
0.0
 10
26.83847032968075
 20
-0.9629256902533714
 30
0.0
 10
26.66666174494023
 20
-0.8878969692584291
 30
0.0
 10
26.31678224088489
 20
-0.724213549622873
 30
0.0
 10
26.14408210923315
 20
-0.6363921425447637
 30
0.0
 10
25.79926734793471
 20
-0.4523815828920152
 30
0.0
 10
25.62291786877555
 20
-0.3554009749631669
 30
0.0
 10
25.27459399518494
 20
-0.1581745462752652
 30
0.0
 10
25.1045054819962
 20
-0.058331668183883
 30
0.0
 10
24.75542229944719
 20
0.1424073736223113
 30
0.0
 10
24.5793206025861
 20
0.2427288006619601
 30
0.0
 10
24.23620035448395
 20
0.4363550340952439
 30
0.0
 10
24.0616739985999
 20
0.5310729041150334
 30
0.0
 10
23.71199697968824
 20
0.710822212477281
 30
0.0
 10
23.54125186163871
 20
0.7951424824070471
 30
0.0
 10
23.19420386135376
 20
0.9510393796767032
 30
0.0
 10
23.01772592730683
 20
1.022524513967902
 30
0.0
 10
22.67115050112164
 20
1.147611161041286
 30
0.0
 10
22.50005367471454
 20
1.201460623683751
 30
0.0
 10
22.15026941387663
 20
1.290322120422457
 30
0.0
 10
21.97649874580233
 20
1.324826863822218
 30
0.0
 10
21.63270076289992
 20
1.372628734763493
 30
0.0
 10
21.45648888275158
 20
1.386138349773127
 30
0.0
 10
21.10766755931869
 20
1.391128487813203
 30
0.0
 10
20.93763545467552
 20
1.3828007031707
 30
0.0
 10
20.58899112870379
 20
1.344623408341541
 30
0.0
 10
20.41272148949425
 20
1.314660842044614
 30
0.0
 10
20.240625
 20
1.274997512490298
 30
0.0
1001
PE_URL
1000

  0
SPLINE
  5
A5
330
1F
100
AcDbEntity
  8
0
  6
Continuous
 62
     1
370
    25
100
AcDbSpline
210
0.0
220
0.0
230
1.0
 70
     8
 71
     3
 72
    12
 73
     8
 74
     0
 42
0.000000001
 43
0.00000001
 40
0.0
 40
0.0
 40
0.0
 40
0.0
 40
0.2016886054606266
 40
0.4028835033532011
 40
0.6038060952116351
 40
0.8047974501263068
 40
1.0
 40
1.0
 40
1.0
 40
1.0
 10
20.24062499999999
 20
-1.006738971791307
 30
0.0
 10
20.46349174174913
 20
-1.087679129162293
 30
0.0
 10
20.90867967634633
 20
-1.249361312888573
 30
0.0
 10
21.57543988352477
 20
-1.376632884586832
 30
0.0
 10
22.2412692919882
 20
-1.402493764818885
 30
0.0
 10
22.90048951290085
 20
-1.32730674855309
 30
0.0
 10
23.33815505210452
 20
-1.19622752192849
 30
0.0
 10
23.55379044732857
 20
-1.131645510536212
 30
0.0
1001
PE_URL
1000

  0
SPLINE
  5
A6
330
1F
100
AcDbEntity
  8
외형선
  6
Continuous
370
    15
100
AcDbSpline
210
0.0
220
0.0
230
1.0
 70
    24
 71
     3
 72
    22
 73
    18
 74
     0
 42
0.000000001
 43
0.00000001
 40
0.0
 40
0.0
 40
0.0
 40
0.0
 40
0.125
 40
0.125
 40
0.25
 40
0.25
 40
0.375
 40
0.375
 40
0.5
 40
0.5
 40
0.625
 40
0.625
 40
0.75
 40
0.75
 40
0.875
 40
0.875
 40
1.0
 40
1.0
 40
1.0
 40
1.0
 10
20.24062500000001
 20
0.5512494644440095
 30
0.0
 10
20.24062500000002
 20
0.5443250876353465
 30
0.0
 10
20.24062500000001
 20
0.5301702819416676
 30
0.0
 10
20.24062500000001
 20
0.4951959444603808
 30
0.0
 10
20.240625
 20
0.4708280829034226
 30
0.0
 10
20.240625
 20
0.4015369247883394
 30
0.0
 10
20.24062499999999
 20
0.3564828196313518
 30
0.0
 10
20.24062499999999
 20
0.2395488642704019
 30
0.0
 10
20.24062500000001
 20
0.1674153775446915
 30
0.0
 10
20.24062500000002
 20
-0.0035336980010962
 30
0.0
 10
20.240625
 20
-0.1024974276396579
 30
0.0
 10
20.24062500000002
 20
-0.313271915058026
 30
0.0
 10
20.24062500000001
 20
-0.4247182316552683
 30
0.0
 10
20.24062500000002
 20
-0.6348708744168834
 30
0.0
 10
20.24062500000001
 20
-0.7329689524877937
 30
0.0
 10
20.24062500000002
 20
-0.895743591780629
 30
0.0
 10
20.24062499999999
 20
-0.9603380868508471
 30
0.0
 10
20.240625
 20
-1.006738971791312
 30
0.0
  0
SPLINE
  5
A7
330
1F
100
AcDbEntity
  8
0
  6
Continuous
 62
     1
370
    25
100
AcDbSpline
210
0.0
220
0.0
230
1.0
 70
     8
 71
     3
 72
    14
 73
    10
 74
     0
 42
0.000000001
 43
0.00000001
 40
0.0
 40
0.0
 40
0.0
 40
0.0
 40
0.0899579955661885
 40
0.2298459704304824
 40
0.3837222203038436
 40
0.5376289877923115
 40
0.6916213476494264
 40
0.8457535817998478
 40
1.0
 40
1.0
 40
1.0
 40
1.0
 10
25.00200868254146
 20
-1.376814354357021
 30
0.0
 10
24.85920747141476
 20
-1.377408212087156
 30
0.0
 10
24.49434515157886
 20
-1.378925540318197
 30
0.0
 10
23.88569186983446
 20
-1.256935882610588
 30
0.0
 10
23.17519963002835
 20
-1.023926932595399
 30
0.0
 10
22.44241580484743
 20
-0.6840326282630343
 30
0.0
 10
21.70911500692189
 20
-0.2832903806694478
 30
0.0
 10
20.97513525533141
 20
0.147635772497688
 30
0.0
 10
20.48552218181784
 20
0.4166783607959774
 30
0.0
 10
20.240625
 20
0.5512494644440086
 30
0.0
1001
PE_URL
1000

  0
LINE
  5
A8
330
1F
100
AcDbEntity
  8
0
  6
Continuous
 62
     1
370
    25
100
AcDbLine
 10
28.575
 20
-1.25804799920056
 30
0.0
 11
28.575
 21
0.1190167492005765
 31
0.0
1001
PE_URL
1000

  0
SPLINE
  5
A9
330
1F
100
AcDbEntity
  8
0
  6
Continuous
 62
     1
370
    25
100
AcDbSpline
210
0.0
220
0.0
230
1.0
 70
     8
 71
     3
 72
    17
 73
    13
 74
     0
 42
0.000000001
 43
0.00000001
 40
0.0
 40
0.0
 40
0.0
 40
0.0
 40
0.0262786331096704
 40
0.1286622387862835
 40
0.2312537617053481
 40
0.333972651561128
 40
0.436428264648382
 40
0.5490666147424799
 40
0.6617026938634437
 40
0.7743769858217127
 40
0.8871296195432176
 40
1.0
 40
1.0
 40
1.0
 40
1.0
 10
22.07032813834127
 20
1.378925281534695
 30
0.0
 10
22.12728365138348
 20
1.381951073758059
 30
0.0
 10
22.40614228868971
 20
1.396765588650652
 30
0.0
 10
22.90734462098574
 20
1.317125132108294
 30
0.0
 10
23.57454650354978
 20
1.141881424848296
 30
0.0
 10
24.24223474284432
 20
0.8715394077333969
 30
0.0
 10
24.93103689715462
 20
0.5251532139528445
 30
0.0
 10
25.64162874692824
 20
0.1216184319243584
 30
0.0
 10
26.3742724480157
 20
-0.3061540658739115
 30
0.0
 10
27.10724463027903
 20
-0.7035786356280763
 30
0.0
 10
27.84080534273078
 20
-1.0445505699262
 30
0.0
 10
28.33018331639927
 20
-1.186857434035406
 30
0.0
 10
28.57500000000002
 20
-1.25804799920056
 30
0.0
1001
PE_URL
1000

  0
SPLINE
  5
AA
330
1F
100
AcDbEntity
  8
0
  6
Continuous
 62
     1
370
    25
100
AcDbSpline
210
0.0
220
0.0
230
1.0
 70
     8
 71
     3
 72
    15
 73
    11
 74
     0
 42
0.000000001
 43
0.00000001
 40
0.0
 40
0.0
 40
0.0
 40
0.0
 40
0.1329806623050065
 40
0.2656425217318308
 40
0.3982085359874387
 40
0.5309039828912638
 40
0.6639390679338272
 40
0.7968581803354406
 40
0.9294914378557244
 40
1.0
 40
1.0
 40
1.0
 40
1.0
 10
28.575
 20
0.1190167492005765
 30
0.0
 10
28.35233337235105
 20
0.2459987682267394
 30
0.0
 10
27.90753392971844
 20
0.499658384324465
 30
0.0
 10
27.24122947369786
 20
0.8400869966480928
 30
0.0
 10
26.57544860485861
 20
1.116990849650124
 30
0.0
 10
25.90897041436805
 20
1.308217749672619
 30
0.0
 10
25.24136296721586
 20
1.400816417883502
 30
0.0
 10
24.57404560061732
 20
1.381730722094421
 30
0.0
 10
24.01182292547917
 20
1.292161475548337
 30
0.0
 10
23.67180676887107
 20
1.173003939563041
 30
0.0
 10
23.55379044732858
 20
1.13164551053621
 30
0.0
1001
PE_URL
1000

  0
LINE
  5
AB
330
1F
100
AcDbEntity
  8
외형선
  6
Continuous
370
    15
100
AcDbLine
 10
20.240625
 20
0.5512494644440132
 30
0.0
 11
20.24062499999999
 21
0.9570638806176016
 31
0.0
  0
LINE
  5
AC
330
1F
100
AcDbEntity
  8
0
  6
Continuous
 62
     1
370
    25
100
AcDbLine
 10
28.575
 20
-1.383954349794813
 30
0.0
 11
28.575
 21
-1.25804799920056
 31
0.0
1001
PE_URL
1000

  0
SPLINE
  5
AD
330
1F
100
AcDbEntity
  8
0
  6
Continuous
 62
     1
370
    25
100
AcDbSpline
210
0.0
220
0.0
230
1.0
 70
     8
 71
     3
 72
    11
 73
     7
 74
     0
 42
0.000000001
 43
0.00000001
 40
0.0
 40
0.0
 40
0.0
 40
0.0
 40
0.1928458936759745
 40
0.4616790052070435
 40
0.7306990347973039
 40
1.0
 40
1.0
 40
1.0
 40
1.0
 10
25.84850781771832
 20
1.376033805938718
 30
0.0
 10
26.02373778651773
 20
1.374850857905213
 30
0.0
 10
26.44324372535664
 20
1.372018843902167
 30
0.0
 10
27.1072438024746
 20
1.218473885255298
 30
0.0
 10
27.84080554999403
 20
0.9571495508865676
 30
0.0
 10
28.33018338551107
 20
0.7116963132410918
 30
0.0
 10
28.57500000000002
 20
0.5889056466138753
 30
0.0
1001
PE_URL
1000

  0
LINE
  5
AE
330
1F
100
AcDbEntity
  8
0
  6
Continuous
 62
     1
370
    25
100
AcDbLine
 10
28.575
 20
0.1190167492005765
 30
0.0
 11
28.575
 21
0.5889056466138753
 31
0.0
1001
PE_URL
1000

  0
SPLINE
  5
AF
330
1F
100
AcDbEntity
  8
0
  6
Continuous
 62
     1
370
    25
100
AcDbSpline
210
0.0
220
0.0
230
1.0
 70
     8
 71
     3
 72
     9
 73
     5
 74
     0
 42
0.000000001
 43
0.00000001
 40
0.0
 40
0.0
 40
0.0
 40
0.0
 40
0.5259773925593394
 40
1.0
 40
1.0
 40
1.0
 40
1.0
 10
28.575
 20
1.383954349794813
 30
0.0
 10
28.35233137307118
 20
1.364189864360928
 30
0.0
 10
27.92898879204251
 20
1.326613181953129
 30
0.0
 10
27.50595027830417
 20
1.194531389655711
 30
0.0
 10
27.30542045897411
 20
1.131921634075454
 30
0.0
1001
PE_URL
1000

  0
SPLINE
  5
B0
330
1F
100
AcDbEntity
  8
0
  6
Continuous
 62
     1
370
    25
100
AcDbSpline
210
0.0
220
0.0
230
1.0
 70
     8
 71
     3
 72
     9
 73
     5
 74
     0
 42
0.000000001
 43
0.00000001
 40
0.0
 40
0.0
 40
0.0
 40
0.0
 40
0.2522167549264813
 40
1.0
 40
1.0
 40
1.0
 40
1.0
 10
21.22305280200722
 20
-1.374661373628113
 30
0.0
 10
21.14046851214336
 20
-1.378811710048603
 30
0.0
 10
20.81303471462293
 20
-1.395267145064008
 30
0.0
 10
20.48552859151733
 20
-1.326454474549678
 30
0.0
 10
20.240625
 20
-1.274997512490298
 30
0.0
1001
PE_URL
1000

  0
LINE
  5
B1
330
1F
100
AcDbEntity
  8
0
  6
Continuous
 62
     1
370
    25
100
AcDbLine
 10
28.575
 20
0.5889056466138753
 30
0.0
 11
28.575
 21
1.383954349794813
 31
0.0
1001
PE_URL
1000

  0
LINE
  5
B2
330
1F
100
AcDbEntity
  8
외형선
  6
Continuous
370
    15
100
AcDbLine
 10
20.240625
 20
-1.274997512490297
 30
0.0
 11
20.24062499999999
 21
-1.006738971791312
 31
0.0
  0
LINE
  5
B3
330
1F
100
AcDbEntity
  8
외형선
  6
Continuous
370
    15
100
AcDbLine
 10
19.240625
 20
0.0
 30
0.0
 11
19.240625
 21
1.3890625
 31
0.0
  0
LINE
  5
B4
330
1F
100
AcDbEntity
  8
외형선
  6
Continuous
370
    15
100
AcDbLine
 10
19.240625
 20
-1.3890625
 30
0.0
 11
19.240625
 21
0.0
 31
0.0
  0
LINE
  5
B5
330
1F
100
AcDbEntity
  8
외형선
  6
Continuous
370
    15
100
AcDbLine
 10
15.53773083936524
 20
0.0
 30
0.0
 11
15.53773083936524
 21
2.381250000000006
 31
0.0
  0
LINE
  5
B6
330
1F
100
AcDbEntity
  8
외형선
  6
Continuous
370
    15
100
AcDbLine
 10
15.53773083936524
 20
-2.381250000000007
 30
0.0
 11
15.53773083936524
 21
0.0
 31
0.0
  0
SPLINE
  5
BB
330
1F
100
AcDbEntity
  8
외형선
  6
Continuous
370
    15
100
AcDbSpline
210
0.0
220
0.0
230
1.0
 70
     8
 71
     3
 72
     8
 73
     4
 74
     0
 42
0.000000001
 43
0.00000001
 40
0.0
 40
0.0
 40
0.0
 40
0.0
 40
1.0
 40
1.0
 40
1.0
 40
1.0
 10
20.24062500000001
 20
1.274997512490298
 30
0.0
 10
20.07519893480386
 20
1.236871525376723
 30
0.0
 10
19.90876766255756
 20
1.189494597948975
 30
0.0
 10
19.74060848295902
 20
1.133676435171457
 30
0.0
  0
LINE
  5
BC
330
1F
100
AcDbEntity
  8
외형선
  6
Continuous
370
    15
100
AcDbLine
 10
19.74060848295901
 20
1.144328695774584
 30
0.0
 11
19.74060848295901
 21
1.3890625
 31
0.0
  0
SPLINE
  5
BD
330
1F
100
AcDbEntity
  8
외형선
  6
Continuous
370
    15
100
AcDbSpline
210
0.0
220
0.0
230
1.0
 70
     8
 71
     3
 72
     8
 73
     4
 74
     0
 42
0.000000001
 43
0.00000001
 40
0.0
 40
0.0
 40
0.0
 40
0.0
 40
1.0
 40
1.0
 40
1.0
 40
1.0
 10
20.240625
 20
0.9570638806175996
 30
0.0
 10
20.07519893480386
 20
1.026692822758998
 30
0.0
 10
19.90876766255757
 20
1.089578607656784
 30
0.0
 10
19.74060848295903
 20
1.144334887063288
 30
0.0
  0
SPLINE
  5
BE
330
1F
100
AcDbEntity
  8
외형선
  6
Continuous
370
    15
100
AcDbSpline
210
0.0
220
0.0
230
1.0
 70
     8
 71
     3
 72
     8
 73
     4
 74
     0
 42
0.000000001
 43
0.00000001
 40
0.0
 40
0.0
 40
0.0
 40
0.0
 40
1.0
 40
1.0
 40
1.0
 40
1.0
 10
20.24062500000001
 20
0.5512494644440096
 30
0.0
 10
20.07519893480386
 20
0.6394319333015055
 30
0.0
 10
19.90876766255756
 20
0.7238288229347973
 30
0.0
 10
19.74060848295902
 20
0.8026657892567706
 30
0.0
  0
LINE
  5
BF
330
1F
100
AcDbEntity
  8
외형선
  6
Continuous
370
    15
100
AcDbLine
 10
19.74060848295901
 20
-0.787404892627092
 30
0.0
 11
19.74060848295901
 21
0.8026695384865687
 31
0.0
  0
SPLINE
  5
C0
330
1F
100
AcDbEntity
  8
외형선
  6
Continuous
370
    15
100
AcDbSpline
210
0.0
220
0.0
230
1.0
 70
     8
 71
     3
 72
     8
 73
     4
 74
     0
 42
0.000000001
 43
0.00000001
 40
0.0
 40
0.0
 40
0.0
 40
0.0
 40
1.0
 40
1.0
 40
1.0
 40
1.0
 10
20.240625
 20
-1.00673897179131
 30
0.0
 10
20.07519893480386
 20
-0.9405457008080954
 30
0.0
 10
19.90876766255757
 20
-0.8669740602795779
 30
0.0
 10
19.74060848295903
 20
-0.7873958948052096
 30
0.0
  0
SPLINE
  5
C1
330
1F
100
AcDbEntity
  8
외형선
  6
Continuous
370
    15
100
AcDbSpline
210
0.0
220
0.0
230
1.0
 70
     8
 71
     3
 72
     8
 73
     4
 74
     0
 42
0.000000001
 43
0.00000001
 40
0.0
 40
0.0
 40
0.0
 40
0.0
 40
1.0
 40
1.0
 40
1.0
 40
1.0
 10
20.24062500000001
 20
-1.274997512490298
 30
0.0
 10
20.07519893480386
 20
-1.236871525376723
 30
0.0
 10
19.90876766255756
 20
-1.189494597948975
 30
0.0
 10
19.74060848295902
 20
-1.133676435171457
 30
0.0
  0
LINE
  5
C2
330
1F
100
AcDbEntity
  8
외형선
  6
Continuous
370
    15
100
AcDbLine
 10
19.74060848295901
 20
-1.3890625
 30
0.0
 11
19.74060848295901
 21
-1.133673780631807
 31
0.0
  0
SPLINE
  5
C3
330
1F
100
AcDbEntity
  8
외형선
  6
Continuous
370
    15
100
AcDbSpline
210
0.0
220
0.0
230
1.0
 70
    24
 71
     3
 72
    22
 73
    18
 74
     0
 42
0.000000001
 43
0.00000001
 40
0.0
 40
0.0
 40
0.0
 40
0.0
 40
0.125
 40
0.125
 40
0.25
 40
0.25
 40
0.375
 40
0.375
 40
0.5
 40
0.5
 40
0.625
 40
0.625
 40
0.75
 40
0.75
 40
0.875
 40
0.875
 40
1.0
 40
1.0
 40
1.0
 40
1.0
 10
20.24062500000002
 20
-1.006738971791311
 30
0.0
 10
20.24062500000001
 20
-0.9603380868508258
 30
0.0
 10
20.24062500000001
 20
-0.8957435917805713
 30
0.0
 10
20.24062500000001
 20
-0.7329689524876367
 30
0.0
 10
20.24062500000002
 20
-0.6348708744166647
 30
0.0
 10
20.24062500000001
 20
-0.4247182316549348
 30
0.0
 10
20.24062500000002
 20
-0.3132719150576411
 30
0.0
 10
20.24062500000001
 20
-0.1024974276392106
 30
0.0
 10
20.24062500000002
 20
-0.0035336980006372
 30
0.0
 10
20.240625
 20
0.1674153775451357
 30
0.0
 10
20.24062500000002
 20
0.2395488642708215
 30
0.0
 10
20.24062500000001
 20
0.3564828196317067
 30
0.0
 10
20.24062499999999
 20
0.4015369247886547
 30
0.0
 10
20.240625
 20
0.4708280829036599
 30
0.0
 10
20.24062500000002
 20
0.4951959444605797
 30
0.0
 10
20.24062500000002
 20
0.5301702819417968
 30
0.0
 10
20.24062500000002
 20
0.5443250876354719
 30
0.0
 10
20.24062500000002
 20
0.5512494644440863
 30
0.0
  0
SPLINE
  5
C4
330
1F
100
AcDbEntity
  8
외형선
  6
Continuous
370
    15
100
AcDbSpline
210
0.0
220
0.0
230
1.0
 70
    24
 71
     3
 72
    10
 73
     6
 74
     0
 42
0.000000001
 43
0.00000001
 40
0.0
 40
0.0
 40
0.0
 40
0.0
 40
0.4422100260469588
 40
0.9311849496155006
 40
1.0
 40
1.0
 40
1.0
 40
1.0
 10
20.24062499999999
 20
0.9963386887692105
 30
0.0
 10
20.24062499999998
 20
1.035696508194623
 30
0.0
 10
20.24062499999996
 20
1.118574342119487
 30
0.0
 10
20.24062500000002
 20
1.214550584592633
 30
0.0
 10
20.240625
 20
1.268359106753171
 30
0.0
 10
20.240625
 20
1.274997512490999
 30
0.0
  0
LINE
  5
C5
330
1F
100
AcDbEntity
  8
중심선
 62
     1
100
AcDbLine
 10
-31.575
 20
-0.0000000000000039
 30
0.0
 11
31.575
 21
0.0000000000000039
 31
0.0
  0
LINE
  5
C6
330
1F
100
AcDbEntity
  8
참조1
100
AcDbLine
 10
-0.0000000000000018
 20
-0.0000000000000039
 30
0.0
 11
0.0000000000000053
 21
-40.00000000000001
 31
0.0
  0
LINE
  5
C7
330
1F
100
AcDbEntity
  8
참조1
100
AcDbLine
 10
0.0000000000000053
 20
-40.00000000000001
 30
0.0
 11
-18.33385681430867
 21
-40.0
 31
0.0
  0
CIRCLE
  5
C8
330
1F
100
AcDbEntity
  8
해칭선
100
AcDbCircle
 10
0.0
 20
0.0
 30
0.0
 40
3.000000000000001
  0
INSERT
  5
C9
330
1F
100
AcDbEntity
  8
0
  6
Continuous
 62
     7
100
AcDbBlockReference
 66
     1
  2
블럭10
 10
-13.9402729321252
 20
-52.04717430164393
 30
0.0
  0
ATTRIB
  5
CA
330
C9
100
AcDbEntity
  8
FORMAT
 62
     2
100
AcDbText
 10
-23.12156822086648
 20
-49.97180738881175
 30
0.0
 40
4.233333333333333
  1
E1004007 [ 4 FLUTE ]
 41
0.75
  7
SLDTEXTSTYLE0
 11
-23.12156822086648
 21
-52.08847405547841
 31
0.0
100
AcDbAttribute
  2
AUTOATTR0
 70
     0
 74
     1
  0
SEQEND
  5
CB
330
C9
100
AcDbEntity
  8
0
  6
Continuous
 62
     7
  0
HATCH
  5
CC
330
1F
100
AcDbEntity
  8
중심선
100
AcDbHatch
 10
0.0
 20
0.0
 30
0.0
210
0.0
220
0.0
230
1.0
  2
SOLID
 70
     1
 71
     0
 91
        1
 92
        0
 93
        4
 72
     1
 10
-8.22536362774435
 20
-35.8
 11
-11.67163887158163
 21
-35.8
 72
     1
 10
-11.67163887158163
 20
-35.8
 11
-13.79986873078565
 21
-38.3363255805726
 72
     1
 10
-13.79986873078565
 20
-38.3363255805726
 11
-10.35356040183522
 21
-38.33628615127011
 72
     1
 10
-10.35356040183522
 20
-38.33628615127011
 11
-8.22536362774435
 21
-35.8
 97
        0
 75
     0
 76
     1
 98
        1
 10
10.91911934298439
 20
-0.0010749287238931
  0
HATCH
  5
CD
330
1F
100
AcDbEntity
  8
중심선
100
AcDbHatch
 10
0.0
 20
0.0
 30
0.0
210
0.0
220
0.0
230
1.0
  2
SOLID
 70
     1
 71
     0
 91
        1
 92
        0
 93
        4
 72
     1
 10
-3.21259963670837
 20
-35.80000000000003
 11
-6.658874880545653
 21
-35.79999999999998
 72
     1
 10
-6.658874880545653
 20
-35.79999999999998
 11
-11.19001288890307
 21
-41.20000000000002
 72
     1
 10
-11.19001288890307
 20
-41.20000000000002
 11
-7.743737645065789
 21
-41.20000000000002
 72
     1
 10
-7.743737645065789
 20
-41.20000000000002
 11
-3.21259963670837
 21
-35.80000000000003
 97
        0
 75
     0
 76
     1
 98
        1
 10
10.91911934298439
 20
-0.0010749287238931
  0
HATCH
  5
CE
330
1F
100
AcDbEntity
  8
중심선
100
AcDbHatch
 10
0.0
 20
0.0
 30
0.0
210
0.0
220
0.0
230
1.0
  2
SOLID
 70
     1
 71
     0
 91
        1
 92
        0
 93
        4
 72
     1
 10
1.800164354327524
 20
-35.8
 11
-1.646110889509592
 21
-35.8
 72
     1
 10
-1.646110889509592
 20
-35.8
 11
-8.694547791398868
 21
-44.20000000000002
 72
     1
 10
-8.694547791398868
 20
-44.20000000000002
 11
-5.248272547561587
 21
-44.20000000000002
 72
     1
 10
-5.248272547561587
 20
-44.20000000000002
 11
1.800164354327524
 21
-35.8
 97
        0
 75
     0
 76
     1
 98
        1
 10
10.91911934298439
 20
-0.0010749287238931
  0
HATCH
  5
CF
330
1F
100
AcDbEntity
  8
중심선
100
AcDbHatch
 10
0.0
 20
0.0
 30
0.0
210
0.0
220
0.0
230
1.0
  2
SOLID
 70
     1
 71
     0
 91
        1
 92
        0
 93
        6
 72
     3
 10
6.600054785339696
 20
-40.00000000005127
 11
3.960054785062283
 21
1.540882976769353E-10
 40
0.3939339440162628
 50
17.09539180608437
 51
320.0019657685075
 73
     0
 72
     1
 10
8.283054441040292
 20
-38.58789400463827
 11
10.58835631474136
 21
-36.65356729459038
 72
     3
 10
6.600054785286849
 20
-40.00000000000015
 11
6.600054785286829
 21
-1.278976924368180E-13
 40
0.636358354079598
 50
39.99873849337385
 51
368.4976242363725
 73
     1
 72
     1
 10
13.02538727718746
 20
-39.03999999993002
 11
5.280122092122772
 21
-39.03999999993002
 72
     1
 10
5.280122092122772
 20
-39.03999999993002
 11
5.280097047676838
 21
-40.95999999992991
 72
     1
 10
5.280097047676838
 20
-40.95999999992991
 11
9.721476817148876
 21
-40.95999999992988
 97
        0
 75
     0
 76
     1
 98
        1
 10
10.91911934298439
 20
-0.0010749287238931
  0
DIMENSION
  5
D0
330
1F
100
AcDbEntity
  8
치수문자_일반주서
100
AcDbDimension
  2
_D
 10
58.65920357824262
 20
-1.383954349794699
 30
0.0
 11
58.65920357824257
 21
16.95156250000007
 31
0.0
 70
   160
  1
%%c<>
 71
     2
 42
2.767908699589625
 52
-270.0
  3
SLDDIMSTYLE0
100
AcDbAlignedDimension
 13
28.575
 23
1.383954349794813
 33
0.0
 14
28.575
 24
-1.383954349794813
 34
0.0
 50
90.0000000000002
100
AcDbRotatedDimension
1001
PE_URL
1000

1001
ACAD
1000
DSTYLE
1002
{
1070
   171
1070
     8
1070
   273
1070
     7
1070
    41
1040
2.5
1070
   140
1040
2.5
1002
}
  0
DIMENSION
  5
E5
330
1F
100
AcDbEntity
  8
치수문자_일반주서
100
AcDbDimension
  2
_D_1
 10
20.240625
 20
10.38124999999999
 30
0.0
 11
43.825
 21
10.38124999999999
 31
0.0
 70
   160
  1
<>
 71
     2
 42
8.334374999999998
  3
SLDDIMSTYLE0
100
AcDbAlignedDimension
 13
28.575
 23
1.383954349794813
 33
0.0
 14
20.240625
 24
1.274997512490297
 34
0.0
100
AcDbRotatedDimension
1001
PE_URL
1000

1001
ACAD
1000
DSTYLE
1002
{
1070
   171
1070
     8
1070
   273
1070
     7
1070
    41
1040
2.5
1070
   140
1040
2.5
1002
}
  0
DIMENSION
  5
FA
330
1F
100
AcDbEntity
  8
치수문자_일반주서
100
AcDbDimension
  2
_D_2
 10
-28.575
 20
18.38125
 30
0.0
 11
-1.458179486121107
 21
18.38125
 31
0.0
 70
   160
  1
<>
 71
     2
 42
57.14999999999999
  3
SLDDIMSTYLE0
100
AcDbAlignedDimension
 13
28.575
 23
1.383954349794813
 33
0.0
 14
-28.575
 24
1.38395434979482
 34
0.0
100
AcDbRotatedDimension
1001
PE_URL
1000

1001
ACAD
1000
DSTYLE
1002
{
1070
   171
1070
     8
1070
   273
1070
     7
1070
    41
1040
2.5
1070
   140
1040
2.5
1002
}
  0
DIMENSION
  5
10D
330
1F
100
AcDbEntity
  8
치수문자_일반주서
100
AcDbDimension
  2
_D_3
 10
-36.575
 20
-2.381250000000083
 30
0.0
 11
-36.57500000000005
 21
17.63124999999998
 31
0.0
 70
   160
  1
%%c<>
 71
     2
 42
4.762500000000012
 52
-270.0
  3
SLDDIMSTYLE0
100
AcDbAlignedDimension
 13
-15.53773083936524
 23
2.381250000000005
 33
0.0
 14
-15.53773083936524
 24
-2.381250000000006
 34
0.0
 50
90.0000000000002
100
AcDbRotatedDimension
1001
PE_URL
1000

1001
ACAD
1000
DSTYLE
1002
{
1070
   171
1070
     8
1070
   273
1070
     7
1070
    41
1040
2.5
1070
   140
1040
2.5
1002
}
  0
LINE
  5
121
330
1F
100
AcDbEntity
  8
참조1
100
AcDbLine
 10
79.6384838153456
 20
7.440000000000002
 30
0.0
 11
79.6384838153456
 21
-7.440000000000002
 31
0.0
  0
LINE
  5
122
330
1F
100
AcDbEntity
  8
참조1
100
AcDbLine
 10
92.3384838153456
 20
5.440000000000002
 30
0.0
 11
79.6384838153456
 21
5.440000000000002
 31
0.0
  0
SOLID
  5
123
330
1F
100
AcDbEntity
  8
참조1
100
AcDbTrace
 10
79.6384838153456
 20
5.440000000000002
 30
0.0
 11
85.98848381534559
 21
4.424000000000002
 31
0.0
 12
85.98848381534559
 22
6.456000000000002
 32
0.0
 13
85.98848381534559
 23
6.456000000000002
 33
0.0
  0
LINE
  5
124
330
1F
100
AcDbEntity
  8
참조1
100
AcDbLine
 10
92.3384838153456
 20
-5.440000000000002
 30
0.0
 11
79.6384838153456
 21
-5.440000000000002
 31
0.0
  0
SOLID
  5
125
330
1F
100
AcDbEntity
  8
참조1
100
AcDbTrace
 10
79.6384838153456
 20
-5.440000000000002
 30
0.0
 11
85.98848381534559
 21
-6.456000000000002
 31
0.0
 12
85.98848381534559
 22
-4.424000000000002
 32
0.0
 13
85.98848381534559
 23
-4.424000000000002
 33
0.0
  0
MTEXT
  5
126
330
1F
100
AcDbEntity
  8
참조1
100
AcDbMText
 10
89.02283394797159
 20
11.01029177718833
 30
0.0
 40
3.5
 41
0.0
 71
     1
 72
     1
  1
A
  7
SLDTEXTSTYLE0
 73
     1
 44
1.0
  0
MTEXT
  5
127
330
1F
100
AcDbEntity
  8
참조1
100
AcDbMText
 10
89.02283394797159
 20
0.1302917771883287
 30
0.0
 40
3.5
 41
0.0
 71
     1
 72
     1
  1
A
  7
SLDTEXTSTYLE0
 73
     1
 44
1.0
  0
INSERT
  5
12E
330
1F
100
AcDbEntity
  8
해칭선
100
AcDbBlockReference
  2
SW_DOWELSYMBOL_0
 10
0.0
 20
0.0
 30
0.0
  0
LINE
  5
1E2
330
1F
100
AcDbEntity
  8
0
  6
Continuous
 62
     1
370
    25
100
AcDbLine
 10
-25.00200868254147
 20
1.389062500000005
 30
0.0
 11
-25.84850781771831
 21
1.389062500000006
 31
0.0
1001
PE_URL
1000

  0
LINE
  5
1E3
330
1F
100
AcDbEntity
  8
0
  6
Continuous
 62
     1
370
    25
100
AcDbLine
 10
-22.07032813834127
 20
-1.389062499999998
 30
0.0
 11
-21.22305280200722
 21
-1.389062499999998
 31
0.0
1001
PE_URL
1000

  0
LINE
  5
1E4
330
1F
100
AcDbEntity
  8
0
  6
Continuous
 62
     1
370
    25
100
AcDbLine
 10
-25.84850781771831
 20
-1.389062499999994
 30
0.0
 11
-25.00200868254149
 21
-1.389062499999996
 31
0.0
1001
PE_URL
1000

  0
LINE
  5
1E5
330
1F
100
AcDbEntity
  8
0
  6
Continuous
 62
     1
370
    25
100
AcDbLine
 10
-21.22305280200722
 20
1.389062500000003
 30
0.0
 11
-22.07032813834124
 21
1.389062500000003
 31
0.0
1001
PE_URL
1000

  0
LINE
  5
1E6
330
1F
100
AcDbEntity
  8
외형선
  6
Continuous
370
    15
100
AcDbLine
 10
-15.53773083936524
 20
2.381250000000004
 30
0.0
 11
-19.240625
 21
1.389062500000001
 31
0.0
  0
LINE
  5
1E7
330
1F
100
AcDbEntity
  8
외형선
  6
Continuous
370
    15
100
AcDbLine
 10
-19.240625
 20
-1.389062499999999
 30
0.0
 11
-15.53773083936524
 21
-2.381250000000006
 31
0.0
  0
LINE
  5
1E8
330
1F
100
AcDbEntity
  8
외형선
  6
Continuous
370
    15
100
AcDbLine
 10
-19.240625
 20
1.389062500000001
 30
0.0
 11
-19.74060848295901
 21
1.389062500000002
 31
0.0
  0
LINE
  5
1E9
330
1F
100
AcDbEntity
  8
외형선
  6
Continuous
370
    15
100
AcDbLine
 10
-19.74060848295902
 20
-1.389062499999999
 30
0.0
 11
-19.240625
 21
-1.389062499999999
 31
0.0
  0
SPLINE
  5
1EA
330
1F
100
AcDbEntity
  8
0
  6
Continuous
 62
     1
370
    25
100
AcDbSpline
210
0.0
220
0.0
230
1.0
 70
     8
 71
     3
 72
    18
 73
    14
 74
     0
 42
0.000000001
 43
0.00000001
 40
0.0
 40
0.0
 40
0.0
 40
0.0
 40
0.0945889479695207
 40
0.1889463544527992
 40
0.2831760534672489
 40
0.3774380013295358
 40
0.4718913732400212
 40
0.5664620086075686
 40
0.6607902518375816
 40
0.7644934786745097
 40
0.8681946146849783
 40
0.9719309322702138
 40
1.0
 40
1.0
 40
1.0
 40
1.0
 10
-20.24062499999999
 20
-0.9570638806176015
 30
0.0
 10
-20.46349164613662
 20
-0.8569040461505677
 30
0.0
 10
-20.90867938974284
 20
-0.6568295555109225
 30
0.0
 10
-21.57544102602101
 20
-0.2866669015285265
 30
0.0
 10
-22.24126501313477
 20
0.1000031501690233
 30
0.0
 10
-22.90734700204855
 20
0.4805265278794713
 30
0.0
 10
-23.57454589080117
 20
0.8238655198446987
 30
0.0
 10
-24.24223480681533
 20
1.104302940370401
 30
0.0
 10
-24.93103726101245
 20
1.307001906458373
 30
0.0
 10
-25.64162704109804
 20
1.406809192388016
 30
0.0
 10
-26.37427884394805
 20
1.372243289428637
 30
0.0
 10
-26.92886477208345
 20
1.272509240276708
 30
0.0
 10
-27.23930878898511
 20
1.156604520961244
 30
0.0
 10
-27.30542045897411
 20
1.131921634075461
 30
0.0
1001
PE_URL
1000

  0
SPLINE
  5
1EB
330
1F
100
AcDbEntity
  8
외형선
  6
Continuous
370
    15
100
AcDbSpline
210
0.0
220
0.0
230
1.0
 70
    24
 71
     3
 72
    10
 73
     6
 74
     0
 42
0.000000001
 43
0.00000001
 40
0.0
 40
0.0
 40
0.0
 40
0.0
 40
0.3006647401720892
 40
0.6047270125634564
 40
1.0
 40
1.0
 40
1.0
 40
1.0
 10
-20.240625
 20
-1.274997512490296
 30
0.0
 10
-20.24062500000001
 20
-1.246015048149884
 30
0.0
 10
-20.24062500000003
 20
-1.187722615630948
 30
0.0
 10
-20.24062499999996
 20
-1.093235240810342
 30
0.0
 10
-20.24062499999999
 20
-1.0313289144443
 30
0.0
 10
-20.240625
 20
-0.9963386887692083
 30
0.0
  0
SPLINE
  5
1EC
330
1F
100
AcDbEntity
  8
0
  6
Continuous
 62
     1
370
    25
100
AcDbSpline
210
0.0
220
0.0
230
1.0
 70
     8
 71
     3
 72
    38
 73
    34
 74
     0
 42
0.000000001
 43
0.00000001
 40
0.0
 40
0.0
 40
0.0
 40
0.0
 40
0.0625
 40
0.0625
 40
0.125
 40
0.125
 40
0.1875
 40
0.1875
 40
0.25
 40
0.25
 40
0.3125
 40
0.3125
 40
0.375
 40
0.375
 40
0.4375
 40
0.4375
 40
0.5
 40
0.5
 40
0.5625
 40
0.5625
 40
0.625
 40
0.625
 40
0.6875
 40
0.6875
 40
0.75
 40
0.75
 40
0.8125
 40
0.8125
 40
0.875
 40
0.875
 40
0.9375
 40
0.9375
 40
1.0
 40
1.0
 40
1.0
 40
1.0
 10
-28.575
 20
1.38395434979482
 30
0.0
 10
-28.40402083269832
 20
1.375409385140615
 30
0.0
 10
-28.22813573368134
 20
1.355956276906894
 30
0.0
 10
-27.87870821623531
 20
1.296131777575863
 30
0.0
 10
-27.70838196062006
 20
1.256133824747049
 30
0.0
 10
-27.36064937242325
 20
1.156718968758024
 30
0.0
 10
-27.18421118100019
 20
1.09722914671633
 30
0.0
 10
-26.83847032968075
 20
0.9629256902533785
 30
0.0
 10
-26.66666174494023
 20
0.887896969258436
 30
0.0
 10
-26.31678224088489
 20
0.7242135496228796
 30
0.0
 10
-26.14408210923315
 20
0.6363921425447698
 30
0.0
 10
-25.79926734793472
 20
0.4523815828920211
 30
0.0
 10
-25.62291786877555
 20
0.3554009749631731
 30
0.0
 10
-25.27459399518494
 20
0.1581745462752704
 30
0.0
 10
-25.1045054819962
 20
0.0583316681838879
 30
0.0
 10
-24.75542229944719
 20
-0.1424073736223066
 30
0.0
 10
-24.5793206025861
 20
-0.2427288006619548
 30
0.0
 10
-24.23620035448396
 20
-0.4363550340952391
 30
0.0
 10
-24.0616739985999
 20
-0.5310729041150297
 30
0.0
 10
-23.71199697968824
 20
-0.7108222124772767
 30
0.0
 10
-23.54125186163871
 20
-0.7951424824070423
 30
0.0
 10
-23.19420386135376
 20
-0.9510393796766985
 30
0.0
 10
-23.01772592730683
 20
-1.022524513967898
 30
0.0
 10
-22.67115050112164
 20
-1.147611161041283
 30
0.0
 10
-22.50005367471454
 20
-1.201460623683747
 30
0.0
 10
-22.15026941387663
 20
-1.290322120422454
 30
0.0
 10
-21.97649874580233
 20
-1.324826863822215
 30
0.0
 10
-21.63270076289992
 20
-1.37262873476349
 30
0.0
 10
-21.45648888275158
 20
-1.386138349773125
 30
0.0
 10
-21.1076675593187
 20
-1.3911284878132
 30
0.0
 10
-20.93763545467553
 20
-1.382800703170698
 30
0.0
 10
-20.58899112870379
 20
-1.344623408341538
 30
0.0
 10
-20.41272148949426
 20
-1.314660842044612
 30
0.0
 10
-20.240625
 20
-1.274997512490296
 30
0.0
1001
PE_URL
1000

  0
SPLINE
  5
1ED
330
1F
100
AcDbEntity
  8
0
  6
Continuous
 62
     1
370
    25
100
AcDbSpline
210
0.0
220
0.0
230
1.0
 70
     8
 71
     3
 72
    12
 73
     8
 74
     0
 42
0.000000001
 43
0.00000001
 40
0.0
 40
0.0
 40
0.0
 40
0.0
 40
0.2016886054606266
 40
0.4028835033532011
 40
0.6038060952116351
 40
0.8047974501263068
 40
1.0
 40
1.0
 40
1.0
 40
1.0
 10
-20.24062499999999
 20
1.006738971791309
 30
0.0
 10
-20.46349174174913
 20
1.087679129162295
 30
0.0
 10
-20.90867967634632
 20
1.249361312888574
 30
0.0
 10
-21.57543988352477
 20
1.376632884586835
 30
0.0
 10
-22.24126929198819
 20
1.402493764818888
 30
0.0
 10
-22.90048951290085
 20
1.327306748553094
 30
0.0
 10
-23.33815505210451
 20
1.196227521928494
 30
0.0
 10
-23.55379044732857
 20
1.131645510536216
 30
0.0
1001
PE_URL
1000

  0
SPLINE
  5
1EE
330
1F
100
AcDbEntity
  8
외형선
  6
Continuous
370
    15
100
AcDbSpline
210
0.0
220
0.0
230
1.0
 70
    24
 71
     3
 72
    22
 73
    18
 74
     0
 42
0.000000001
 43
0.00000001
 40
0.0
 40
0.0
 40
0.0
 40
0.0
 40
0.125
 40
0.125
 40
0.25
 40
0.25
 40
0.375
 40
0.375
 40
0.5
 40
0.5
 40
0.625
 40
0.625
 40
0.75
 40
0.75
 40
0.875
 40
0.875
 40
1.0
 40
1.0
 40
1.0
 40
1.0
 10
-20.24062500000001
 20
-0.5512494644440069
 30
0.0
 10
-20.24062500000002
 20
-0.5443250876353447
 30
0.0
 10
-20.24062500000001
 20
-0.5301702819416663
 30
0.0
 10
-20.24062500000001
 20
-0.4951959444603788
 30
0.0
 10
-20.240625
 20
-0.4708280829034217
 30
0.0
 10
-20.240625
 20
-0.4015369247883382
 30
0.0
 10
-20.24062499999999
 20
-0.3564828196313507
 30
0.0
 10
-20.24062499999999
 20
-0.2395488642704
 30
0.0
 10
-20.24062500000001
 20
-0.1674153775446896
 30
0.0
 10
-20.24062500000002
 20
0.0035336980010981
 30
0.0
 10
-20.240625
 20
0.1024974276396596
 30
0.0
 10
-20.24062500000002
 20
0.3132719150580281
 30
0.0
 10
-20.24062500000001
 20
0.4247182316552698
 30
0.0
 10
-20.24062500000002
 20
0.6348708744168852
 30
0.0
 10
-20.24062500000001
 20
0.7329689524877951
 30
0.0
 10
-20.24062500000002
 20
0.8957435917806305
 30
0.0
 10
-20.24062499999999
 20
0.9603380868508486
 30
0.0
 10
-20.240625
 20
1.006738971791314
 30
0.0
  0
SPLINE
  5
1EF
330
1F
100
AcDbEntity
  8
0
  6
Continuous
 62
     1
370
    25
100
AcDbSpline
210
0.0
220
0.0
230
1.0
 70
     8
 71
     3
 72
    14
 73
    10
 74
     0
 42
0.000000001
 43
0.00000001
 40
0.0
 40
0.0
 40
0.0
 40
0.0
 40
0.0899579955661885
 40
0.2298459704304824
 40
0.3837222203038436
 40
0.5376289877923115
 40
0.6916213476494264
 40
0.8457535817998478
 40
1.0
 40
1.0
 40
1.0
 40
1.0
 10
-25.00200868254146
 20
1.376814354357026
 30
0.0
 10
-24.85920747141476
 20
1.377408212087161
 30
0.0
 10
-24.49434515157886
 20
1.378925540318202
 30
0.0
 10
-23.88569186983446
 20
1.256935882610592
 30
0.0
 10
-23.17519963002835
 20
1.023926932595403
 30
0.0
 10
-22.44241580484743
 20
0.6840326282630376
 30
0.0
 10
-21.70911500692189
 20
0.2832903806694509
 30
0.0
 10
-20.97513525533141
 20
-0.1476357724976862
 30
0.0
 10
-20.48552218181784
 20
-0.4166783607959751
 30
0.0
 10
-20.240625
 20
-0.5512494644440069
 30
0.0
1001
PE_URL
1000

  0
LINE
  5
1F0
330
1F
100
AcDbEntity
  8
0
  6
Continuous
 62
     1
370
    25
100
AcDbLine
 10
-28.575
 20
1.258047999200567
 30
0.0
 11
-28.575
 21
-0.1190167492005682
 31
0.0
1001
PE_URL
1000

  0
SPLINE
  5
1F1
330
1F
100
AcDbEntity
  8
0
  6
Continuous
 62
     1
370
    25
100
AcDbSpline
210
0.0
220
0.0
230
1.0
 70
     8
 71
     3
 72
    17
 73
    13
 74
     0
 42
0.000000001
 43
0.00000001
 40
0.0
 40
0.0
 40
0.0
 40
0.0
 40
0.0262786331096704
 40
0.1286622387862835
 40
0.2312537617053481
 40
0.333972651561128
 40
0.436428264648382
 40
0.5490666147424799
 40
0.6617026938634437
 40
0.7743769858217127
 40
0.8871296195432176
 40
1.0
 40
1.0
 40
1.0
 40
1.0
 10
-22.07032813834127
 20
-1.378925281534693
 30
0.0
 10
-22.12728365138348
 20
-1.381951073758056
 30
0.0
 10
-22.40614228868972
 20
-1.39676558865065
 30
0.0
 10
-22.90734462098574
 20
-1.317125132108289
 30
0.0
 10
-23.57454650354978
 20
-1.141881424848291
 30
0.0
 10
-24.24223474284432
 20
-0.871539407733392
 30
0.0
 10
-24.93103689715462
 20
-0.5251532139528388
 30
0.0
 10
-25.64162874692823
 20
-0.1216184319243527
 30
0.0
 10
-26.3742724480157
 20
0.3061540658739175
 30
0.0
 10
-27.10724463027903
 20
0.7035786356280831
 30
0.0
 10
-27.84080534273077
 20
1.044550569926207
 30
0.0
 10
-28.33018331639927
 20
1.186857434035414
 30
0.0
 10
-28.57500000000002
 20
1.258047999200567
 30
0.0
1001
PE_URL
1000

  0
SPLINE
  5
1F2
330
1F
100
AcDbEntity
  8
0
  6
Continuous
 62
     1
370
    25
100
AcDbSpline
210
0.0
220
0.0
230
1.0
 70
     8
 71
     3
 72
    15
 73
    11
 74
     0
 42
0.000000001
 43
0.00000001
 40
0.0
 40
0.0
 40
0.0
 40
0.0
 40
0.1329806623050065
 40
0.2656425217318308
 40
0.3982085359874387
 40
0.5309039828912638
 40
0.6639390679338272
 40
0.7968581803354406
 40
0.9294914378557244
 40
1.0
 40
1.0
 40
1.0
 40
1.0
 10
-28.575
 20
-0.1190167492005682
 30
0.0
 10
-28.35233337235105
 20
-0.2459987682267319
 30
0.0
 10
-27.90753392971844
 20
-0.4996583843244566
 30
0.0
 10
-27.24122947369786
 20
-0.840086996648086
 30
0.0
 10
-26.57544860485861
 20
-1.116990849650118
 30
0.0
 10
-25.90897041436805
 20
-1.308217749672613
 30
0.0
 10
-25.24136296721586
 20
-1.400816417883497
 30
0.0
 10
-24.57404560061732
 20
-1.381730722094415
 30
0.0
 10
-24.01182292547917
 20
-1.292161475548331
 30
0.0
 10
-23.67180676887107
 20
-1.173003939563037
 30
0.0
 10
-23.55379044732858
 20
-1.131645510536206
 30
0.0
1001
PE_URL
1000

  0
LINE
  5
1F3
330
1F
100
AcDbEntity
  8
외형선
  6
Continuous
370
    15
100
AcDbLine
 10
-20.240625
 20
-0.5512494644440122
 30
0.0
 11
-20.24062499999999
 21
-0.9570638806175997
 31
0.0
  0
LINE
  5
1F4
330
1F
100
AcDbEntity
  8
0
  6
Continuous
 62
     1
370
    25
100
AcDbLine
 10
-28.575
 20
1.38395434979482
 30
0.0
 11
-28.575
 21
1.258047999200567
 31
0.0
1001
PE_URL
1000

  0
SPLINE
  5
1F5
330
1F
100
AcDbEntity
  8
0
  6
Continuous
 62
     1
370
    25
100
AcDbSpline
210
0.0
220
0.0
230
1.0
 70
     8
 71
     3
 72
    11
 73
     7
 74
     0
 42
0.000000001
 43
0.00000001
 40
0.0
 40
0.0
 40
0.0
 40
0.0
 40
0.1928458936759745
 40
0.4616790052070435
 40
0.7306990347973039
 40
1.0
 40
1.0
 40
1.0
 40
1.0
 10
-25.84850781771832
 20
-1.376033805938712
 30
0.0
 10
-26.02373778651773
 20
-1.374850857905207
 30
0.0
 10
-26.44324372535664
 20
-1.372018843902161
 30
0.0
 10
-27.1072438024746
 20
-1.218473885255292
 30
0.0
 10
-27.84080554999403
 20
-0.9571495508865604
 30
0.0
 10
-28.33018338551107
 20
-0.7116963132410843
 30
0.0
 10
-28.57500000000002
 20
-0.5889056466138667
 30
0.0
1001
PE_URL
1000

  0
LINE
  5
1F6
330
1F
100
AcDbEntity
  8
0
  6
Continuous
 62
     1
370
    25
100
AcDbLine
 10
-28.575
 20
-0.1190167492005682
 30
0.0
 11
-28.575
 21
-0.5889056466138667
 31
0.0
1001
PE_URL
1000

  0
SPLINE
  5
1F7
330
1F
100
AcDbEntity
  8
0
  6
Continuous
 62
     1
370
    25
100
AcDbSpline
210
0.0
220
0.0
230
1.0
 70
     8
 71
     3
 72
     9
 73
     5
 74
     0
 42
0.000000001
 43
0.00000001
 40
0.0
 40
0.0
 40
0.0
 40
0.0
 40
0.5259773925593394
 40
1.0
 40
1.0
 40
1.0
 40
1.0
 10
-28.575
 20
-1.383954349794805
 30
0.0
 10
-28.35233137307118
 20
-1.36418986436092
 30
0.0
 10
-27.9289887920425
 20
-1.326613181953121
 30
0.0
 10
-27.50595027830417
 20
-1.194531389655704
 30
0.0
 10
-27.30542045897411
 20
-1.131921634075448
 30
0.0
1001
PE_URL
1000

  0
SPLINE
  5
1F8
330
1F
100
AcDbEntity
  8
0
  6
Continuous
 62
     1
370
    25
100
AcDbSpline
210
0.0
220
0.0
230
1.0
 70
     8
 71
     3
 72
     9
 73
     5
 74
     0
 42
0.000000001
 43
0.00000001
 40
0.0
 40
0.0
 40
0.0
 40
0.0
 40
0.2522167549264813
 40
1.0
 40
1.0
 40
1.0
 40
1.0
 10
-21.22305280200722
 20
1.374661373628116
 30
0.0
 10
-21.14046851214336
 20
1.378811710048605
 30
0.0
 10
-20.81303471462292
 20
1.39526714506401
 30
0.0
 10
-20.48552859151733
 20
1.32645447454968
 30
0.0
 10
-20.240625
 20
1.2749975124903
 30
0.0
1001
PE_URL
1000

  0
LINE
  5
1F9
330
1F
100
AcDbEntity
  8
0
  6
Continuous
 62
     1
370
    25
100
AcDbLine
 10
-28.575
 20
-0.5889056466138667
 30
0.0
 11
-28.575
 21
-1.383954349794805
 31
0.0
1001
PE_URL
1000

  0
LINE
  5
1FA
330
1F
100
AcDbEntity
  8
외형선
  6
Continuous
370
    15
100
AcDbLine
 10
-20.240625
 20
1.274997512490298
 30
0.0
 11
-20.24062499999999
 21
1.006738971791313
 31
0.0
  0
LINE
  5
1FB
330
1F
100
AcDbEntity
  8
외형선
  6
Continuous
370
    15
100
AcDbLine
 10
-19.240625
 20
0.0000000000000011
 30
0.0
 11
-19.240625
 21
-1.389062499999999
 31
0.0
  0
LINE
  5
1FC
330
1F
100
AcDbEntity
  8
외형선
  6
Continuous
370
    15
100
AcDbLine
 10
-19.240625
 20
1.389062500000001
 30
0.0
 11
-19.240625
 21
0.0000000000000011
 31
0.0
  0
LINE
  5
1FD
330
1F
100
AcDbEntity
  8
외형선
  6
Continuous
370
    15
100
AcDbLine
 10
-15.53773083936524
 20
-0.0000000000000015
 30
0.0
 11
-15.53773083936524
 21
-2.381250000000006
 31
0.0
  0
LINE
  5
1FE
330
1F
100
AcDbEntity
  8
외형선
  6
Continuous
370
    15
100
AcDbLine
 10
-15.53773083936524
 20
2.381250000000005
 30
0.0
 11
-15.53773083936524
 21
-0.0000000000000015
 31
0.0
  0
SPLINE
  5
1FF
330
1F
100
AcDbEntity
  8
외형선
  6
Continuous
370
    15
100
AcDbSpline
210
0.0
220
0.0
230
1.0
 70
     8
 71
     3
 72
     8
 73
     4
 74
     0
 42
0.000000001
 43
0.00000001
 40
0.0
 40
0.0
 40
0.0
 40
0.0
 40
1.0
 40
1.0
 40
1.0
 40
1.0
 10
-20.24062500000001
 20
-1.274997512490296
 30
0.0
 10
-20.07519893480386
 20
-1.236871525376722
 30
0.0
 10
-19.90876766255756
 20
-1.189494597948973
 30
0.0
 10
-19.74060848295902
 20
-1.133676435171457
 30
0.0
  0
LINE
  5
200
330
1F
100
AcDbEntity
  8
외형선
  6
Continuous
370
    15
100
AcDbLine
 10
-19.74060848295901
 20
-1.144328695774584
 30
0.0
 11
-19.74060848295902
 21
-1.389062499999999
 31
0.0
  0
SPLINE
  5
201
330
1F
100
AcDbEntity
  8
외형선
  6
Continuous
370
    15
100
AcDbSpline
210
0.0
220
0.0
230
1.0
 70
     8
 71
     3
 72
     8
 73
     4
 74
     0
 42
0.000000001
 43
0.00000001
 40
0.0
 40
0.0
 40
0.0
 40
0.0
 40
1.0
 40
1.0
 40
1.0
 40
1.0
 10
-20.240625
 20
-0.957063880617598
 30
0.0
 10
-20.07519893480386
 20
-1.026692822758997
 30
0.0
 10
-19.90876766255757
 20
-1.089578607656783
 30
0.0
 10
-19.74060848295903
 20
-1.144334887063287
 30
0.0
  0
SPLINE
  5
202
330
1F
100
AcDbEntity
  8
외형선
  6
Continuous
370
    15
100
AcDbSpline
210
0.0
220
0.0
230
1.0
 70
     8
 71
     3
 72
     8
 73
     4
 74
     0
 42
0.000000001
 43
0.00000001
 40
0.0
 40
0.0
 40
0.0
 40
0.0
 40
1.0
 40
1.0
 40
1.0
 40
1.0
 10
-20.24062500000001
 20
-0.5512494644440087
 30
0.0
 10
-20.07519893480386
 20
-0.6394319333015035
 30
0.0
 10
-19.90876766255756
 20
-0.7238288229347967
 30
0.0
 10
-19.74060848295902
 20
-0.8026657892567692
 30
0.0
  0
LINE
  5
203
330
1F
100
AcDbEntity
  8
외형선
  6
Continuous
370
    15
100
AcDbLine
 10
-19.74060848295901
 20
0.7874048926270929
 30
0.0
 11
-19.74060848295901
 21
-0.802669538486567
 31
0.0
  0
SPLINE
  5
204
330
1F
100
AcDbEntity
  8
외형선
  6
Continuous
370
    15
100
AcDbSpline
210
0.0
220
0.0
230
1.0
 70
     8
 71
     3
 72
     8
 73
     4
 74
     0
 42
0.000000001
 43
0.00000001
 40
0.0
 40
0.0
 40
0.0
 40
0.0
 40
1.0
 40
1.0
 40
1.0
 40
1.0
 10
-20.240625
 20
1.006738971791311
 30
0.0
 10
-20.07519893480386
 20
0.9405457008080973
 30
0.0
 10
-19.90876766255757
 20
0.8669740602795797
 30
0.0
 10
-19.74060848295903
 20
0.7873958948052107
 30
0.0
  0
SPLINE
  5
205
330
1F
100
AcDbEntity
  8
외형선
  6
Continuous
370
    15
100
AcDbSpline
210
0.0
220
0.0
230
1.0
 70
     8
 71
     3
 72
     8
 73
     4
 74
     0
 42
0.000000001
 43
0.00000001
 40
0.0
 40
0.0
 40
0.0
 40
0.0
 40
1.0
 40
1.0
 40
1.0
 40
1.0
 10
-20.240625
 20
1.2749975124903
 30
0.0
 10
-20.07519893480386
 20
1.236871525376724
 30
0.0
 10
-19.90876766255756
 20
1.189494597948976
 30
0.0
 10
-19.74060848295902
 20
1.133676435171459
 30
0.0
  0
LINE
  5
206
330
1F
100
AcDbEntity
  8
외형선
  6
Continuous
370
    15
100
AcDbLine
 10
-19.74060848295901
 20
1.389062500000002
 30
0.0
 11
-19.74060848295901
 21
1.133673780631808
 31
0.0
  0
SPLINE
  5
207
330
1F
100
AcDbEntity
  8
외형선
  6
Continuous
370
    15
100
AcDbSpline
210
0.0
220
0.0
230
1.0
 70
    24
 71
     3
 72
    22
 73
    18
 74
     0
 42
0.000000001
 43
0.00000001
 40
0.0
 40
0.0
 40
0.0
 40
0.0
 40
0.125
 40
0.125
 40
0.25
 40
0.25
 40
0.375
 40
0.375
 40
0.5
 40
0.5
 40
0.625
 40
0.625
 40
0.75
 40
0.75
 40
0.875
 40
0.875
 40
1.0
 40
1.0
 40
1.0
 40
1.0
 10
-20.24062500000002
 20
1.006738971791312
 30
0.0
 10
-20.24062500000001
 20
0.9603380868508273
 30
0.0
 10
-20.24062500000001
 20
0.8957435917805727
 30
0.0
 10
-20.24062500000001
 20
0.7329689524876388
 30
0.0
 10
-20.24062500000002
 20
0.6348708744166667
 30
0.0
 10
-20.24062500000001
 20
0.4247182316549368
 30
0.0
 10
-20.24062500000002
 20
0.3132719150576427
 30
0.0
 10
-20.24062500000001
 20
0.1024974276392119
 30
0.0
 10
-20.24062500000002
 20
0.0035336980006389
 30
0.0
 10
-20.240625
 20
-0.1674153775451337
 30
0.0
 10
-20.24062500000002
 20
-0.2395488642708201
 30
0.0
 10
-20.24062500000001
 20
-0.3564828196317042
 30
0.0
 10
-20.24062499999999
 20
-0.4015369247886526
 30
0.0
 10
-20.240625
 20
-0.4708280829036579
 30
0.0
 10
-20.24062500000002
 20
-0.4951959444605777
 30
0.0
 10
-20.24062500000002
 20
-0.5301702819417959
 30
0.0
 10
-20.24062500000002
 20
-0.5443250876354708
 30
0.0
 10
-20.24062500000002
 20
-0.5512494644440851
 30
0.0
  0
SPLINE
  5
208
330
1F
100
AcDbEntity
  8
외형선
  6
Continuous
370
    15
100
AcDbSpline
210
0.0
220
0.0
230
1.0
 70
    24
 71
     3
 72
    10
 73
     6
 74
     0
 42
0.000000001
 43
0.00000001
 40
0.0
 40
0.0
 40
0.0
 40
0.0
 40
0.4422100260469588
 40
0.9311849496155006
 40
1.0
 40
1.0
 40
1.0
 40
1.0
 10
-20.24062499999999
 20
-0.9963386887692083
 30
0.0
 10
-20.24062499999998
 20
-1.035696508194622
 30
0.0
 10
-20.24062499999996
 20
-1.118574342119485
 30
0.0
 10
-20.24062500000002
 20
-1.214550584592631
 30
0.0
 10
-20.240625
 20
-1.26835910675317
 30
0.0
 10
-20.240625
 20
-1.274997512490998
 30
0.0
  0
ENDSEC
  0
SECTION
  2
OBJECTS
  0
DICTIONARY
  5
C
330
0
100
AcDbDictionary
281
     1
  3
ACAD_DETAILVIEWSTYLE
350
1B1
  3
ACAD_GROUP
350
D
  3
ACAD_LAYOUT
350
1A
  3
ACAD_MLINESTYLE
350
17
  3
ACAD_PLOTSETTINGS
350
19
  3
ACAD_PLOTSTYLENAME
350
E
  3
ACAD_SCALELIST
350
47
  3
ACAD_SECTIONVIEWSTYLE
350
1B2
  3
AcDbVariableDictionary
350
1AC
  3
APPDATA
350
150
  3
DWGPROPS
350
209
  0
DICTIONARY
  5
1B1
102
{ACAD_REACTORS
330
C
102
}
330
C
100
AcDbDictionary
281
     1
  0
DICTIONARY
  5
D
102
{ACAD_REACTORS
330
C
102
}
330
C
100
AcDbDictionary
281
     1
  0
DICTIONARY
  5
1A
102
{ACAD_REACTORS
330
C
102
}
330
C
100
AcDbDictionary
281
     1
  3
Layout1
350
1E
  3
Layout2
350
26
  3
Model
350
22
  0
DICTIONARY
  5
17
102
{ACAD_REACTORS
330
C
102
}
330
C
100
AcDbDictionary
281
     1
  3
Standard
350
18
  0
DICTIONARY
  5
19
102
{ACAD_REACTORS
330
C
102
}
330
C
100
AcDbDictionary
281
     1
  0
ACDBDICTIONARYWDFLT
  5
E
102
{ACAD_REACTORS
330
C
102
}
330
C
100
AcDbDictionary
281
     1
  3
Normal
350
F
100
AcDbDictionaryWithDefault
340
F
  0
DICTIONARY
  5
47
102
{ACAD_REACTORS
330
C
102
}
330
C
100
AcDbDictionary
281
     1
  3
A0
350
48
  3
A1
350
49
  3
A2
350
4A
  3
A3
350
4B
  3
A4
350
4C
  3
A5
350
4D
  3
A6
350
4E
  3
A7
350
4F
  3
A8
350
50
  3
A9
350
51
  3
B0
350
52
  3
B1
350
53
  3
B2
350
54
  3
B3
350
55
  3
B4
350
56
  3
B5
350
57
  3
B6
350
58
  3
B7
350
59
  3
B8
350
5A
  3
B9
350
5B
  3
C0
350
5C
  3
C1
350
5D
  3
C2
350
5E
  3
C3
350
5F
  3
C4
350
60
  3
C5
350
61
  3
C6
350
62
  3
C7
350
63
  3
C8
350
64
  3
C9
350
65
  3
D0
350
66
  3
D1
350
67
  3
D2
350
68
  0
DICTIONARY
  5
1B2
102
{ACAD_REACTORS
330
C
102
}
330
C
100
AcDbDictionary
281
     1
  0
DICTIONARY
  5
1AC
102
{ACAD_REACTORS
330
C
102
}
330
C
100
AcDbDictionary
281
     1
  0
DICTIONARY
  5
150
102
{ACAD_REACTORS
330
C
102
}
330
C
100
AcDbDictionary
281
     1
  0
XRECORD
  5
209
102
{ACAD_REACTORS
330
C
102
}
330
C
100
AcDbXrecord
280
     1
  1
DWGPROPS COOKIE
  2

  3

  4

  6

  7

  8
120170442
  9

300
=
301
=
302
=
303
=
304
=
305
=
306
=
307
=
308
=
309
=
 40
0.0
 41
2458313.082893357
 42
2458317.370736215
  1

 90
        0
  0
LAYOUT
  5
1E
102
{ACAD_REACTORS
330
1A
102
}
330
1A
100
AcDbPlotSettings
  1

  2
none_device
  4

  6

 40
0.0
 41
0.0
 42
0.0
 43
0.0
 44
0.0
 45
0.0
 46
0.0
 47
0.0
 48
0.0
 49
0.0
140
0.0
141
0.0
142
1.0
143
1.0
 70
   688
 72
     1
 73
     0
 74
     5
  7

 75
    16
147
1.0
148
0.0
149
0.0
100
AcDbLayout
  1
Layout1
 70
     1
 71
     1
 10
0.0
 20
0.0
 11
420.0
 21
297.0
 12
0.0
 22
0.0
 32
0.0
 14
1.000000000000000E+20
 24
1.000000000000000E+20
 34
1.000000000000000E+20
 15
-1.000000000000000E+20
 25
-1.000000000000000E+20
 35
-1.000000000000000E+20
146
0.0
 13
0.0
 23
0.0
 33
0.0
 16
1.0
 26
0.0
 36
0.0
 17
0.0
 27
1.0
 37
0.0
 76
     0
330
1B
  0
LAYOUT
  5
26
102
{ACAD_REACTORS
330
1A
102
}
330
1A
100
AcDbPlotSettings
  1

  2
none_device
  4

  6

 40
0.0
 41
0.0
 42
0.0
 43
0.0
 44
0.0
 45
0.0
 46
0.0
 47
0.0
 48
0.0
 49
0.0
140
0.0
141
0.0
142
1.0
143
1.0
 70
   688
 72
     1
 73
     0
 74
     5
  7

 75
    16
147
1.0
148
0.0
149
0.0
100
AcDbLayout
  1
Layout2
 70
     1
 71
     2
 10
0.0
 20
0.0
 11
0.0
 21
0.0
 12
0.0
 22
0.0
 32
0.0
 14
0.0
 24
0.0
 34
0.0
 15
0.0
 25
0.0
 35
0.0
146
0.0
 13
0.0
 23
0.0
 33
0.0
 16
1.0
 26
0.0
 36
0.0
 17
0.0
 27
1.0
 37
0.0
 76
     0
330
23
  0
LAYOUT
  5
22
102
{ACAD_REACTORS
330
1A
102
}
330
1A
100
AcDbPlotSettings
  1

  2
none_device
  4
ANSI_A_(11.00_x_8.50_Inches)
  6

 40
6.35
 41
19.05
 42
6.35000508
 43
19.05000254
 44
279.4
 45
215.9
 46
116.0200047679344
 47
80.24699700557558
 48
0.0
 49
0.0
140
0.0
141
0.0
142
0.0752558462788414
143
1.0
 70
  1696
 72
     0
 73
     0
 74
     0
  7

 75
     0
147
0.0235690232323232
148
0.0
149
0.0
100
AcDbLayout
  1
Model
 70
     1
 71
     0
 10
0.0
 20
0.0
 11
420.0
 21
297.0
 12
0.0
 22
0.0
 32
0.0
 14
-39.95000000000008
 24
-49.97180738881175
 34
0.0
 15
92.3384838153456
 25
27.88124999999998
 35
0.0
146
0.0
 13
0.0
 23
0.0
 33
0.0
 16
1.0
 26
0.0
 36
0.0
 17
0.0
 27
1.0
 37
0.0
 76
     0
330
1F
331
29
  0
MLINESTYLE
  5
18
102
{ACAD_REACTORS
330
17
102
}
330
17
100
AcDbMlineStyle
  2
Standard
 70
     0
  3

 62
   256
 51
90.0
 52
90.0
 71
     2
 49
0.5
 62
   256
  6
BYLAYER
 49
-0.5
 62
   256
  6
BYLAYER
  0
ACDBPLACEHOLDER
  5
F
102
{ACAD_REACTORS
330
E
102
}
330
E
  0
SCALE
  5
48
102
{ACAD_REACTORS
330
47
102
}
330
47
100
AcDbScale
 70
     0
300
1:1
140
1.0
141
1.0
290
     1
  0
SCALE
  5
49
102
{ACAD_REACTORS
330
47
102
}
330
47
100
AcDbScale
 70
     0
300
1:2
140
1.0
141
2.0
290
     0
  0
SCALE
  5
4A
102
{ACAD_REACTORS
330
47
102
}
330
47
100
AcDbScale
 70
     0
300
1:4
140
1.0
141
4.0
290
     0
  0
SCALE
  5
4B
102
{ACAD_REACTORS
330
47
102
}
330
47
100
AcDbScale
 70
     0
300
1:5
140
1.0
141
5.0
290
     0
  0
SCALE
  5
4C
102
{ACAD_REACTORS
330
47
102
}
330
47
100
AcDbScale
 70
     0
300
1:8
140
1.0
141
8.0
290
     0
  0
SCALE
  5
4D
102
{ACAD_REACTORS
330
47
102
}
330
47
100
AcDbScale
 70
     0
300
1:10
140
1.0
141
10.0
290
     0
  0
SCALE
  5
4E
102
{ACAD_REACTORS
330
47
102
}
330
47
100
AcDbScale
 70
     0
300
1:16
140
1.0
141
16.0
290
     0
  0
SCALE
  5
4F
102
{ACAD_REACTORS
330
47
102
}
330
47
100
AcDbScale
 70
     0
300
1:20
140
1.0
141
20.0
290
     0
  0
SCALE
  5
50
102
{ACAD_REACTORS
330
47
102
}
330
47
100
AcDbScale
 70
     0
300
1:30
140
1.0
141
30.0
290
     0
  0
SCALE
  5
51
102
{ACAD_REACTORS
330
47
102
}
330
47
100
AcDbScale
 70
     0
300
1:40
140
1.0
141
40.0
290
     0
  0
SCALE
  5
52
102
{ACAD_REACTORS
330
47
102
}
330
47
100
AcDbScale
 70
     0
300
1:50
140
1.0
141
50.0
290
     0
  0
SCALE
  5
53
102
{ACAD_REACTORS
330
47
102
}
330
47
100
AcDbScale
 70
     0
300
1:100
140
1.0
141
100.0
290
     0
  0
SCALE
  5
54
102
{ACAD_REACTORS
330
47
102
}
330
47
100
AcDbScale
 70
     0
300
2:1
140
2.0
141
1.0
290
     0
  0
SCALE
  5
55
102
{ACAD_REACTORS
330
47
102
}
330
47
100
AcDbScale
 70
     0
300
4:1
140
4.0
141
1.0
290
     0
  0
SCALE
  5
56
102
{ACAD_REACTORS
330
47
102
}
330
47
100
AcDbScale
 70
     0
300
8:1
140
8.0
141
1.0
290
     0
  0
SCALE
  5
57
102
{ACAD_REACTORS
330
47
102
}
330
47
100
AcDbScale
 70
     0
300
10:1
140
10.0
141
1.0
290
     0
  0
SCALE
  5
58
102
{ACAD_REACTORS
330
47
102
}
330
47
100
AcDbScale
 70
     0
300
100:1
140
100.0
141
1.0
290
     0
  0
SCALE
  5
59
102
{ACAD_REACTORS
330
47
102
}
330
47
100
AcDbScale
 70
     0
300
1/128" = 1'-0"
140
0.0078125
141
12.0
290
     0
  0
SCALE
  5
5A
102
{ACAD_REACTORS
330
47
102
}
330
47
100
AcDbScale
 70
     0
300
1/64" = 1'-0"
140
0.015625
141
12.0
290
     0
  0
SCALE
  5
5B
102
{ACAD_REACTORS
330
47
102
}
330
47
100
AcDbScale
 70
     0
300
1/32" = 1'-0"
140
0.03125
141
12.0
290
     0
  0
SCALE
  5
5C
102
{ACAD_REACTORS
330
47
102
}
330
47
100
AcDbScale
 70
     0
300
1/16" = 1'-0"
140
0.0625
141
12.0
290
     0
  0
SCALE
  5
5D
102
{ACAD_REACTORS
330
47
102
}
330
47
100
AcDbScale
 70
     0
300
3/32" = 1'-0"
140
0.09375
141
12.0
290
     0
  0
SCALE
  5
5E
102
{ACAD_REACTORS
330
47
102
}
330
47
100
AcDbScale
 70
     0
300
1/8" = 1'-0"
140
0.125
141
12.0
290
     0
  0
SCALE
  5
5F
102
{ACAD_REACTORS
330
47
102
}
330
47
100
AcDbScale
 70
     0
300
3/16" = 1'-0"
140
0.1875
141
12.0
290
     0
  0
SCALE
  5
60
102
{ACAD_REACTORS
330
47
102
}
330
47
100
AcDbScale
 70
     0
300
1/4" = 1'-0"
140
0.25
141
12.0
290
     0
  0
SCALE
  5
61
102
{ACAD_REACTORS
330
47
102
}
330
47
100
AcDbScale
 70
     0
300
3/8" = 1'-0"
140
0.375
141
12.0
290
     0
  0
SCALE
  5
62
102
{ACAD_REACTORS
330
47
102
}
330
47
100
AcDbScale
 70
     0
300
1/2" = 1'-0"
140
0.5
141
12.0
290
     0
  0
SCALE
  5
63
102
{ACAD_REACTORS
330
47
102
}
330
47
100
AcDbScale
 70
     0
300
3/4" = 1'-0"
140
0.75
141
12.0
290
     0
  0
SCALE
  5
64
102
{ACAD_REACTORS
330
47
102
}
330
47
100
AcDbScale
 70
     0
300
1" = 1'-0"
140
1.0
141
12.0
290
     0
  0
SCALE
  5
65
102
{ACAD_REACTORS
330
47
102
}
330
47
100
AcDbScale
 70
     0
300
1-1/2" = 1'-0"
140
1.5
141
12.0
290
     0
  0
SCALE
  5
66
102
{ACAD_REACTORS
330
47
102
}
330
47
100
AcDbScale
 70
     0
300
3" = 1'-0"
140
3.0
141
12.0
290
     0
  0
SCALE
  5
67
102
{ACAD_REACTORS
330
47
102
}
330
47
100
AcDbScale
 70
     0
300
6" = 1'-0"
140
6.0
141
12.0
290
     0
  0
SCALE
  5
68
102
{ACAD_REACTORS
330
47
102
}
330
47
100
AcDbScale
 70
     0
300
1'-0" = 1'-0"
140
12.0
141
12.0
290
     0
  0
ENDSEC
  0
EOF
