  0
SECTION
  2
HEADER
  9
$ACADVER
  1
AC1015
  9
$ACADMAINTVER
 70
     6
  9
$DWGCODEPAGE
  3
ANSI_949
  9
$INSBASE
 10
0.0
 20
0.0
 30
0.0
  9
$EXTMIN
 10
-42.95000000000011
 20
-49.97180738881175
 30
0.0
  9
$EXTMAX
 10
92.3384838153456
 20
38.53681250000014
 30
0.0
  9
$LIMMIN
 10
0.0
 20
0.0
  9
$LIMMAX
 10
420.0
 20
297.0
  9
$ORTHOMODE
 70
     1
  9
$REGENMODE
 70
     1
  9
$FILLMODE
 70
     1
  9
$QTEXTMODE
 70
     0
  9
$MIRRTEXT
 70
     1
  9
$LTSCALE
 40
1.0
  9
$ATTMODE
 70
     1
  9
$TEXTSIZE
 40
3.5
  9
$TRACEWID
 40
1.0
  9
$TEXTSTYLE
  7
Standard
  9
$CLAYER
  8
0
  9
$CELTYPE
  6
ByLayer
  9
$CECOLOR
 62
   256
  9
$CELTSCALE
 40
1.0
  9
$DISPSILH
 70
     0
  9
$DIMSCALE
 40
1.0
  9
$DIMASZ
 40
3.302
  9
$DIMEXO
 40
1.0
  9
$DIMDLI
 40
3.75
  9
$DIMRND
 40
0.0
  9
$DIMDLE
 40
0.0
  9
$DIMEXE
 40
1.0
  9
$DIMTP
 40
0.0
  9
$DIMTM
 40
0.0
  9
$DIMTXT
 40
3.5
  9
$DIMCEN
 40
2.5
  9
$DIMTSZ
 40
0.0
  9
$DIMTOL
 70
     0
  9
$DIMLIM
 70
     0
  9
$DIMTIH
 70
     1
  9
$DIMTOH
 70
     1
  9
$DIMSE1
 70
     0
  9
$DIMSE2
 70
     0
  9
$DIMTAD
 70
     1
  9
$DIMZIN
 70
     0
  9
$DIMBLK
  1

  9
$DIMASO
 70
     1
  9
$DIMSHO
 70
     1
  9
$DIMPOST
  1

  9
$DIMAPOST
  1

  9
$DIMALT
 70
     0
  9
$DIMALTD
 70
     3
  9
$DIMALTF
 40
0.0393700787401575
  9
$DIMLFAC
 40
1.0
  9
$DIMTOFL
 70
     1
  9
$DIMTVP
 40
0.0
  9
$DIMTIX
 70
     0
  9
$DIMSOXD
 70
     0
  9
$DIMSAH
 70
     0
  9
$DIMBLK1
  1

  9
$DIMBLK2
  1

  9
$DIMSTYLE
  2
ISO-25
  9
$DIMCLRD
 70
     0
  9
$DIMCLRE
 70
     0
  9
$DIMCLRT
 70
     0
  9
$DIMTFAC
 40
1.0
  9
$DIMGAP
 40
1.524
  9
$DIMJUST
 70
     0
  9
$DIMSD1
 70
     0
  9
$DIMSD2
 70
     0
  9
$DIMTOLJ
 70
     0
  9
$DIMTZIN
 70
     0
  9
$DIMALTZ
 70
     0
  9
$DIMALTTZ
 70
     0
  9
$DIMUPT
 70
     0
  9
$DIMDEC
 70
     2
  9
$DIMTDEC
 70
     2
  9
$DIMALTU
 70
     2
  9
$DIMALTTD
 70
     3
  9
$DIMTXSTY
  7
Standard
  9
$DIMAUNIT
 70
     0
  9
$DIMADEC
 70
     2
  9
$DIMALTRND
 40
0.0
  9
$DIMAZIN
 70
     0
  9
$DIMDSEP
 70
    44
  9
$DIMATFIT
 70
     3
  9
$DIMFRAC
 70
     0
  9
$DIMLDRBLK
  1

  9
$DIMLUNIT
 70
     2
  9
$DIMLWD
 70
    -2
  9
$DIMLWE
 70
    -2
  9
$DIMTMOVE
 70
     0
  9
$LUNITS
 70
     2
  9
$LUPREC
 70
     2
  9
$SKETCHINC
 40
1.0
  9
$FILLETRAD
 40
10.0
  9
$AUNITS
 70
     0
  9
$AUPREC
 70
     2
  9
$MENU
  1
.
  9
$ELEVATION
 40
0.0
  9
$PELEVATION
 40
0.0
  9
$THICKNESS
 40
0.0
  9
$LIMCHECK
 70
     0
  9
$CHAMFERA
 40
0.0
  9
$CHAMFERB
 40
0.0
  9
$CHAMFERC
 40
0.0
  9
$CHAMFERD
 40
0.0
  9
$SKPOLY
 70
     0
  9
$TDCREATE
 40
2458313.458740532
  9
$TDUCREATE
 40
2458313.083740532
  9
$TDUPDATE
 40
2458317.754307512
  9
$TDUUPDATE
 40
2458317.379307512
  9
$TDINDWG
 40
0.0018816088
  9
$TDUSRTIMER
 40
0.0018815972
  9
$USRTIMER
 70
     1
  9
$ANGBASE
 50
0.0
  9
$ANGDIR
 70
     0
  9
$PDMODE
 70
     0
  9
$PDSIZE
 40
-1.0
  9
$PLINEWID
 40
0.0
  9
$SPLFRAME
 70
     0
  9
$SPLINETYPE
 70
     6
  9
$SPLINESEGS
 70
     8
  9
$HANDSEED
  5
211
  9
$SURFTAB1
 70
     6
  9
$SURFTAB2
 70
     6
  9
$SURFTYPE
 70
     6
  9
$SURFU
 70
     6
  9
$SURFV
 70
     6
  9
$UCSBASE
  2

  9
$UCSNAME
  2

  9
$UCSORG
 10
0.0
 20
0.0
 30
0.0
  9
$UCSXDIR
 10
1.0
 20
0.0
 30
0.0
  9
$UCSYDIR
 10
0.0
 20
1.0
 30
0.0
  9
$UCSORTHOREF
  2

  9
$UCSORTHOVIEW
 70
     0
  9
$UCSORGTOP
 10
0.0
 20
0.0
 30
0.0
  9
$UCSORGBOTTOM
 10
0.0
 20
0.0
 30
0.0
  9
$UCSORGLEFT
 10
0.0
 20
0.0
 30
0.0
  9
$UCSORGRIGHT
 10
0.0
 20
0.0
 30
0.0
  9
$UCSORGFRONT
 10
0.0
 20
0.0
 30
0.0
  9
$UCSORGBACK
 10
0.0
 20
0.0
 30
0.0
  9
$PUCSBASE
  2

  9
$PUCSNAME
  2

  9
$PUCSORG
 10
0.0
 20
0.0
 30
0.0
  9
$PUCSXDIR
 10
1.0
 20
0.0
 30
0.0
  9
$PUCSYDIR
 10
0.0
 20
1.0
 30
0.0
  9
$PUCSORTHOREF
  2

  9
$PUCSORTHOVIEW
 70
     0
  9
$PUCSORGTOP
 10
0.0
 20
0.0
 30
0.0
  9
$PUCSORGBOTTOM
 10
0.0
 20
0.0
 30
0.0
  9
$PUCSORGLEFT
 10
0.0
 20
0.0
 30
0.0
  9
$PUCSORGRIGHT
 10
0.0
 20
0.0
 30
0.0
  9
$PUCSORGFRONT
 10
0.0
 20
0.0
 30
0.0
  9
$PUCSORGBACK
 10
0.0
 20
0.0
 30
0.0
  9
$USERI1
 70
     0
  9
$USERI2
 70
     0
  9
$USERI3
 70
     0
  9
$USERI4
 70
     0
  9
$USERI5
 70
     0
  9
$USERR1
 40
0.0
  9
$USERR2
 40
0.0
  9
$USERR3
 40
0.0
  9
$USERR4
 40
0.0
  9
$USERR5
 40
0.0
  9
$WORLDVIEW
 70
     1
  9
$SHADEDGE
 70
     3
  9
$SHADEDIF
 70
    70
  9
$TILEMODE
 70
     1
  9
$MAXACTVP
 70
    64
  9
$PINSBASE
 10
0.0
 20
0.0
 30
0.0
  9
$PLIMCHECK
 70
     0
  9
$PEXTMIN
 10
1.000000000000000E+20
 20
1.000000000000000E+20
 30
1.000000000000000E+20
  9
$PEXTMAX
 10
-1.000000000000000E+20
 20
-1.000000000000000E+20
 30
-1.000000000000000E+20
  9
$PLIMMIN
 10
0.0
 20
0.0
  9
$PLIMMAX
 10
0.0
 20
0.0
  9
$UNITMODE
 70
     0
  9
$VISRETAIN
 70
     1
  9
$PLINEGEN
 70
     0
  9
$PSLTSCALE
 70
     1
  9
$TREEDEPTH
 70
  3020
  9
$CMLSTYLE
  2
Standard
  9
$CMLJUST
 70
     0
  9
$CMLSCALE
 40
20.0
  9
$PROXYGRAPHICS
 70
     1
  9
$MEASUREMENT
 70
     1
  9
$CELWEIGHT
370
    -1
  9
$ENDCAPS
280
     0
  9
$JOINSTYLE
280
     0
  9
$LWDISPLAY
290
     1
  9
$INSUNITS
 70
     4
  9
$HYPERLINKBASE
  1

  9
$STYLESHEET
  1

  9
$XEDIT
290
     1
  9
$CEPSNTYPE
380
     0
  9
$PSTYLEMODE
290
     1
  9
$FINGERPRINTGUID
  2
{59C57611-6756-4528-8FFA-6ADA5D84F361}
  9
$VERSIONGUID
  2
{FAEB1C32-E019-11D5-929B-00C0DF256EC4}
  9
$EXTNAMES
290
     1
  9
$PSVPSCALE
 40
0.0
  9
$OLESTARTUP
290
     0
  0
ENDSEC
  0
SECTION
  2
CLASSES
  0
CLASS
  1
ACDBDICTIONARYWDFLT
  2
AcDbDictionaryWithDefault
  3
ObjectDBX Classes
 90
        0
280
     0
281
     0
  0
CLASS
  1
VISUALSTYLE
  2
AcDbVisualStyle
  3
ObjectDBX Classes
 90
     4095
280
     0
281
     0
  0
CLASS
  1
MATERIAL
  2
AcDbMaterial
  3
ObjectDBX Classes
 90
     1153
280
     0
281
     0
  0
CLASS
  1
SCALE
  2
AcDbScale
  3
ObjectDBX Classes
 90
     1153
280
     0
281
     0
  0
CLASS
  1
SUN
  2
AcDbSun
  3
SCENEOE
 90
     1153
280
     0
281
     0
  0
CLASS
  1
ACDBPLACEHOLDER
  2
AcDbPlaceHolder
  3
ObjectDBX Classes
 90
        0
280
     0
281
     0
  0
CLASS
  1
LAYOUT
  2
AcDbLayout
  3
ObjectDBX Classes
 90
        0
280
     0
281
     0
  0
CLASS
  1
TABLESTYLE
  2
AcDbTableStyle
  3
ObjectDBX Classes
 90
     4095
280
     0
281
     0
  0
CLASS
  1
MLEADERSTYLE
  2
AcDbMLeaderStyle
  3
ACDB_MLEADERSTYLE_CLASS
 90
     4095
280
     0
281
     0
  0
CLASS
  1
DICTIONARYVAR
  2
AcDbDictionaryVar
  3
ObjectDBX Classes
 90
        0
280
     0
281
     0
  0
ENDSEC
  0
SECTION
  2
TABLES
  0
TABLE
  2
VPORT
  5
8
330
0
100
AcDbSymbolTable
 70
     1
  0
VPORT
  5
29
330
8
100
AcDbSymbolTableRecord
100
AcDbViewportTableRecord
  2
*Active
 70
     0
 10
0.0
 20
0.0
 11
1.0
 21
1.0
 12
24.69424190767274
 22
-5.717497444405801
 13
0.0
 23
0.0
 14
10.0
 24
10.0
 15
10.0
 25
10.0
 16
0.0
 26
0.0
 36
1.0
 17
0.0
 27
0.0
 37
0.0
 40
90.27879228658813
 41
1.782762691853601
 42
50.0
 43
0.0
 44
0.0
 50
0.0
 51
0.0
 71
    16
 72
  2000
 73
     1
 74
     3
 75
     0
 76
     0
 77
     0
 78
     0
281
     0
 65
     1
110
0.0
120
0.0
130
0.0
111
1.0
121
0.0
131
0.0
112
0.0
122
1.0
132
0.0
 79
     0
146
0.0
  0
ENDTAB
  0
TABLE
  2
LTYPE
  5
5
330
0
100
AcDbSymbolTable
 70
     6
  0
LTYPE
  5
14
330
5
100
AcDbSymbolTableRecord
100
AcDbLinetypeTableRecord
  2
ByBlock
 70
     0
  3

 72
    65
 73
     0
 40
0.0
  0
LTYPE
  5
15
330
5
100
AcDbSymbolTableRecord
100
AcDbLinetypeTableRecord
  2
ByLayer
 70
     0
  3

 72
    65
 73
     0
 40
0.0
  0
LTYPE
  5
16
330
5
100
AcDbSymbolTableRecord
100
AcDbLinetypeTableRecord
  2
Continuous
 70
     0
  3
Solid line
 72
    65
 73
     0
 40
0.0
  0
LTYPE
  5
6A
330
5
100
AcDbSymbolTableRecord
100
AcDbLinetypeTableRecord
  2
HIDDEN
 70
     0
  3
Hidden __ __ __ __ __ __ __ __ __ __ __ __ __ __
 72
    65
 73
     2
 40
1.905
 49
1.27
 74
     0
 49
-0.635
 74
     0
  0
LTYPE
  5
6B
330
5
100
AcDbSymbolTableRecord
100
AcDbLinetypeTableRecord
  2
PHANTOM
 70
     0
  3
Phantom ______  __  __  ______  __  __  ______
 72
    65
 73
     6
 40
12.7
 49
6.35
 74
     0
 49
-1.27
 74
     0
 49
1.27
 74
     0
 49
-1.27
 74
     0
 49
1.27
 74
     0
 49
-1.27
 74
     0
  0
LTYPE
  5
6C
330
5
100
AcDbSymbolTableRecord
100
AcDbLinetypeTableRecord
  2
CENTER
 70
     0
  3
Center ____ _ ____ _ ____ _ ____ _ ____ _ ____
 72
    65
 73
     4
 40
10.16
 49
6.35
 74
     0
 49
-1.27
 74
     0
 49
1.27
 74
     0
 49
-1.27
 74
     0
  0
LTYPE
  5
6D
330
5
100
AcDbSymbolTableRecord
100
AcDbLinetypeTableRecord
  2
CENTERX2
 70
     0
  3
Center (2x) ________  __  ________  __  _____
 72
    65
 73
     4
 40
20.32
 49
12.7
 74
     0
 49
-2.54
 74
     0
 49
2.54
 74
     0
 49
-2.54
 74
     0
  0
LTYPE
  5
6E
330
5
100
AcDbSymbolTableRecord
100
AcDbLinetypeTableRecord
  2
DOT2
 70
     0
  3
Dot (.5x) ........................................
 72
    65
 73
     2
 40
0.635
 49
0.0
 74
     0
 49
-0.635
 74
     0
  0
ENDTAB
  0
TABLE
  2
LAYER
  5
2
102
{ACAD_XDICTIONARY
360
18C
102
}
330
0
100
AcDbSymbolTable
 70
    18
  0
LAYER
  5
10
330
2
100
AcDbSymbolTableRecord
100
AcDbLayerTableRecord
  2
0
 70
     0
 62
     7
  6
Continuous
370
    -3
390
F
  0
LAYER
  5
6F
330
2
100
AcDbSymbolTableRecord
100
AcDbLayerTableRecord
  2
FORMAT
 70
     0
 62
     2
  6
Continuous
370
    -3
390
F
  0
LAYER
  5
70
330
2
100
AcDbSymbolTableRecord
100
AcDbLayerTableRecord
  2
외형선
 70
     0
 62
     4
  6
Continuous
370
    30
390
F
  0
LAYER
  5
71
330
2
100
AcDbSymbolTableRecord
100
AcDbLayerTableRecord
  2
숨은선
 70
     0
 62
     2
  6
HIDDEN
370
    15
390
F
  0
LAYER
  5
72
330
2
100
AcDbSymbolTableRecord
100
AcDbLayerTableRecord
  2
중심선
 70
     0
 62
     1
  6
CENTERX2
370
    -3
390
F
  0
LAYER
  5
73
330
2
100
AcDbSymbolTableRecord
100
AcDbLayerTableRecord
  2
파단선
 70
     0
 62
     4
  6
Continuous
370
    -3
390
F
  0
LAYER
  5
74
330
2
100
AcDbSymbolTableRecord
100
AcDbLayerTableRecord
  2
해칭선
 70
     0
 62
   100
  6
Continuous
370
    -3
390
F
  0
LAYER
  5
75
330
2
100
AcDbSymbolTableRecord
100
AcDbLayerTableRecord
  2
가는실선
 70
     0
 62
     4
  6
Continuous
370
    -3
390
F
  0
LAYER
  5
76
330
2
100
AcDbSymbolTableRecord
100
AcDbLayerTableRecord
  2
치수_보조선
 70
     0
 62
     4
  6
Continuous
370
    -3
390
F
  0
LAYER
  5
77
330
2
100
AcDbSymbolTableRecord
100
AcDbLayerTableRecord
  2
치수문자_일반주서
 70
     0
 62
     7
  6
Continuous
370
    15
390
F
  0
LAYER
  5
78
330
2
100
AcDbSymbolTableRecord
100
AcDbLayerTableRecord
  2
개별주서
 70
     0
 62
   100
  6
Continuous
370
    30
390
F
  0
LAYER
  5
79
330
2
100
AcDbSymbolTableRecord
100
AcDbLayerTableRecord
  2
중간선
 70
     0
 62
     2
  6
Continuous
370
    15
390
F
  0
LAYER
  5
7A
330
2
100
AcDbSymbolTableRecord
100
AcDbLayerTableRecord
  2
윤곽선
 70
     0
 62
     3
  6
Continuous
370
    40
390
F
  0
LAYER
  5
7B
330
2
100
AcDbSymbolTableRecord
100
AcDbLayerTableRecord
  2
중심마크
 70
     0
 62
   100
  6
Continuous
370
    30
390
F
  0
LAYER
  5
7C
330
2
100
AcDbSymbolTableRecord
100
AcDbLayerTableRecord
  2
가상선
 70
     0
 62
     4
  6
PHANTOM
370
    -3
390
F
  0
LAYER
  5
7D
330
2
100
AcDbSymbolTableRecord
100
AcDbLayerTableRecord
  2
특수지정선
 70
     0
 62
     5
  6
CENTERX2
370
    60
390
F
  0
LAYER
  5
7E
330
2
100
AcDbSymbolTableRecord
100
AcDbLayerTableRecord
  2
참조1
 70
     0
 62
    -4
  6
Continuous
370
    -3
390
F
  0
LAYER
  5
155
330
2
100
AcDbSymbolTableRecord
100
AcDbLayerTableRecord
  2
Defpoints
 70
     0
 62
     7
  6
Continuous
290
     0
370
    -3
390
F
  0
ENDTAB
  0
TABLE
  2
STYLE
  5
3
330
0
100
AcDbSymbolTable
 70
     2
  0
STYLE
  5
11
330
3
100
AcDbSymbolTableRecord
100
AcDbTextStyleTableRecord
  2
Standard
 70
     0
 40
0.0
 41
1.0
 50
0.0
 71
     0
 42
3.5
  3
txt
  4

  0
STYLE
  5
94
330
3
100
AcDbSymbolTableRecord
100
AcDbTextStyleTableRecord
  2
SLDTEXTSTYLE0
 70
     0
 40
0.0
 41
0.75
 50
0.0
 71
     0
 42
3.5
  3
TXT
  4

  0
ENDTAB
  0
TABLE
  2
VIEW
  5
6
330
0
100
AcDbSymbolTable
 70
     0
  0
ENDTAB
  0
TABLE
  2
UCS
  5
7
330
0
100
AcDbSymbolTable
 70
     0
  0
ENDTAB
  0
TABLE
  2
APPID
  5
9
330
0
100
AcDbSymbolTable
 70
     2
  0
APPID
  5
12
330
9
100
AcDbSymbolTableRecord
100
AcDbRegAppTableRecord
  2
ACAD
 70
     0
  0
APPID
  5
15C
330
9
100
AcDbSymbolTableRecord
100
AcDbRegAppTableRecord
  2
PE_URL
 70
     0
  0
ENDTAB
  0
TABLE
  2
DIMSTYLE
  5
A
330
0
100
AcDbSymbolTable
 70
     4
100
AcDbDimStyleTable
  0
DIMSTYLE
105
27
330
A
100
AcDbSymbolTableRecord
100
AcDbDimStyleTableRecord
  2
ISO-25
 70
     0
 41
2.5
 42
0.625
 43
3.75
 44
1.25
 73
     0
 74
     0
 77
     1
 78
     8
140
2.5
141
2.5
143
0.03937007874016
147
0.625
171
     3
172
     1
178
     0
271
     2
272
     2
274
     3
278
    44
283
     0
284
     8
340
11
  0
DIMSTYLE
105
D3
102
{ACAD_REACTORS
330
D2
330
110
330
17B
330
E7
330
FC
102
}
330
A
100
AcDbSymbolTableRecord
100
AcDbDimStyleTableRecord
  2
SLDDIMSTYLE0
 70
     0
 41
3.302
 44
0.0
 45
0.000000001
 73
     0
 74
     0
 77
     1
 78
    12
 79
     3
140
3.5
143
0.0393700787401575
147
0.875
148
0.000000001
170
     1
172
     1
173
     1
178
     0
271
     2
272
     2
276
     2
284
    12
289
     0
340
94
  0
DIMSTYLE
105
E8
330
A
100
AcDbSymbolTableRecord
100
AcDbDimStyleTableRecord
  2
SLDDIMSTYLE1
 70
     0
 41
3.302
 44
0.0
 45
0.000000001
 73
     0
 74
     0
 77
     1
 78
     4
 79
     1
140
3.5
143
0.0393700787401575
147
0.875
148
0.000000001
170
     1
173
     1
178
     0
271
     2
272
     2
276
     2
284
    12
340
94
  0
DIMSTYLE
105
FD
330
A
100
AcDbSymbolTableRecord
100
AcDbDimStyleTableRecord
  2
SLDDIMSTYLE2
 70
     0
 41
3.302
 44
0.0
 45
0.000000001
 73
     0
 74
     0
 77
     1
 78
    12
 79
     3
140
3.5
143
0.0393700787401575
147
0.875
148
0.000000001
170
     1
173
     1
178
     0
271
     2
272
     2
276
     2
284
    12
340
94
  0
ENDTAB
  0
TABLE
  2
BLOCK_RECORD
  5
1
330
0
100
AcDbSymbolTable
 70
    10
  0
BLOCK_RECORD
  5
1F
330
1
100
AcDbSymbolTableRecord
100
AcDbBlockTableRecord
  2
*Model_Space
340
22
  0
BLOCK_RECORD
  5
1B
330
1
100
AcDbSymbolTableRecord
100
AcDbBlockTableRecord
  2
*Paper_Space
340
1E
  0
BLOCK_RECORD
  5
23
330
1
100
AcDbSymbolTableRecord
100
AcDbBlockTableRecord
  2
*Paper_Space0
340
26
  0
BLOCK_RECORD
  5
7F
330
1
100
AcDbSymbolTableRecord
100
AcDbBlockTableRecord
  2
블럭10
340
0
102
{BLKREFS
331
CB
102
}
  0
BLOCK_RECORD
  5
D4
330
1
100
AcDbSymbolTableRecord
100
AcDbBlockTableRecord
  2
_D
340
0
  0
BLOCK_RECORD
  5
E9
330
1
100
AcDbSymbolTableRecord
100
AcDbBlockTableRecord
  2
_D_1
340
0
  0
BLOCK_RECORD
  5
FE
330
1
100
AcDbSymbolTableRecord
100
AcDbBlockTableRecord
  2
_D_2
340
0
  0
BLOCK_RECORD
  5
111
330
1
100
AcDbSymbolTableRecord
100
AcDbBlockTableRecord
  2
_D_3
340
0
  0
BLOCK_RECORD
  5
12B
330
1
100
AcDbSymbolTableRecord
100
AcDbBlockTableRecord
  2
SW_DOWELSYMBOL_0
340
0
102
{BLKREFS
331
131
102
}
  0
BLOCK_RECORD
  5
190
330
1
100
AcDbSymbolTableRecord
100
AcDbBlockTableRecord
  2
*D8
340
0
  0
BLOCK_RECORD
  5
1A2
330
1
100
AcDbSymbolTableRecord
100
AcDbBlockTableRecord
  2
*D9
340
0
  0
ENDTAB
  0
ENDSEC
  0
SECTION
  2
BLOCKS
  0
BLOCK
  5
20
330
1F
100
AcDbEntity
  8
0
100
AcDbBlockBegin
  2
*Model_Space
 70
     0
 10
0.0
 20
0.0
 30
0.0
  3
*Model_Space
  1

  0
ENDBLK
  5
21
330
1F
100
AcDbEntity
  8
0
100
AcDbBlockEnd
  0
BLOCK
  5
1C
330
1B
100
AcDbEntity
 67
     1
  8
0
100
AcDbBlockBegin
  2
*Paper_Space
 70
     0
 10
0.0
 20
0.0
 30
0.0
  3
*Paper_Space
  1

  0
ENDBLK
  5
1D
330
1B
100
AcDbEntity
 67
     1
  8
0
100
AcDbBlockEnd
  0
BLOCK
  5
24
330
23
100
AcDbEntity
  8
0
100
AcDbBlockBegin
  2
*Paper_Space0
 70
     0
 10
0.0
 20
0.0
 30
0.0
  3
*Paper_Space0
  1

  0
ENDBLK
  5
25
330
23
100
AcDbEntity
  8
0
100
AcDbBlockEnd
  0
BLOCK
  5
80
330
7F
100
AcDbEntity
  8
0
100
AcDbBlockBegin
  2
블럭10
 70
     2
 10
0.0
 20
0.0
 30
0.0
  3
블럭10
  1

  0
ELLIPSE
  5
82
330
7F
100
AcDbEntity
  8
중심선
100
AcDbEllipse
 10
20.54032771741204
 20
12.0471743016438
 30
0.0
 11
6.600054785286829
 21
-1.261213355974178E-13
 31
0.0
210
0.0
220
0.0
230
1.0
 40
0.636358354079598
 41
0.9219305317359503
 42
6.513795318482858
  0
ELLIPSE
  5
83
330
7F
100
AcDbEntity
  8
중심선
100
AcDbEllipse
 10
20.54032771746488
 20
12.04717430159265
 30
0.0
 11
3.960054785062283
 21
1.540847449632565E-10
 31
0.0
210
0.0
220
0.0
230
1.0
 40
0.3939339440162632
 41
1.131841032648279
 42
5.62031148352944
  0
LINE
  5
84
330
7F
100
AcDbEntity
  8
중심선
100
AcDbLine
 10
2.268634060543552
 20
16.24717430164393
 30
0.0
 11
5.714909304380834
 21
16.24717430164393
 31
0.0
  0
LINE
  5
85
330
7F
100
AcDbEntity
  8
중심선
100
AcDbLine
 10
5.245725140726316
 20
7.84717430164391
 30
0.0
 11
8.692000384563599
 21
7.84717430164391
 31
0.0
  0
LINE
  5
86
330
7F
100
AcDbEntity
  8
중심선
100
AcDbLine
 10
15.74043728645272
 20
16.24717430164393
 30
0.0
 11
8.692000384563599
 21
7.84717430164391
 31
0.0
  0
LINE
  5
87
330
7F
100
AcDbEntity
  8
중심선
100
AcDbLine
 10
0.1404042013395286
 20
13.71084872107135
 30
0.0
 11
3.58671253028996
 21
13.71088815037384
 31
0.0
  0
LINE
  5
88
330
7F
100
AcDbEntity
  8
중심선
100
AcDbLine
 10
2.750260043222114
 20
10.84717430164391
 30
0.0
 11
6.196535287059397
 21
10.84717430164391
 31
0.0
  0
LINE
  5
89
330
7F
100
AcDbEntity
  8
중심선
100
AcDbLine
 10
12.29416204261559
 20
16.24717430164393
 30
0.0
 11
5.245725140726316
 21
7.84717430164391
 31
0.0
  0
LINE
  5
8A
330
7F
100
AcDbEntity
  8
중심선
100
AcDbLine
 10
10.72767329541681
 20
16.24717430164393
 30
0.0
 11
6.196535287059397
 21
10.84717430164391
 31
0.0
  0
LINE
  5
8B
330
7F
100
AcDbEntity
  8
중심선
100
AcDbLine
 10
7.28139805157953
 20
16.24717430164393
 30
0.0
 11
2.750260043222114
 21
10.84717430164391
 31
0.0
  0
LINE
  5
8C
330
7F
100
AcDbEntity
  8
중심선
100
AcDbLine
 10
5.714909304380834
 20
16.24717430164393
 30
0.0
 11
3.58671253028996
 21
13.71088815037384
 31
0.0
  0
LINE
  5
8D
330
7F
100
AcDbEntity
  8
중심선
100
AcDbLine
 10
2.268634060543552
 20
16.24717430164393
 30
0.0
 11
0.1404042013395286
 21
13.71084872107135
 31
0.0
  0
LINE
  5
8E
330
7F
100
AcDbEntity
  8
중심선
100
AcDbLine
 10
7.28139805157953
 20
16.24717430164393
 30
0.0
 11
10.72767329541681
 21
16.24717430164393
 31
0.0
  0
LINE
  5
8F
330
7F
100
AcDbEntity
  8
중심선
100
AcDbLine
 10
12.29416204261559
 20
16.24717430164393
 30
0.0
 11
15.74043728645272
 21
16.24717430164393
 31
0.0
  0
LINE
  5
90
330
7F
100
AcDbEntity
  8
중심선
100
AcDbLine
 10
19.22036997980202
 20
11.08717430171403
 30
0.0
 11
23.66174974927406
 21
11.08717430171406
 31
0.0
  0
LINE
  5
91
330
7F
100
AcDbEntity
  8
중심선
100
AcDbLine
 10
19.22039502424796
 20
13.00717430171391
 30
0.0
 11
19.22036997980202
 21
11.08717430171403
 31
0.0
  0
LINE
  5
92
330
7F
100
AcDbEntity
  8
중심선
100
AcDbLine
 10
19.22039502424796
 20
13.00717430171391
 30
0.0
 11
26.96566020931264
 21
13.00717430171391
 31
0.0
  0
LINE
  5
93
330
7F
100
AcDbEntity
  8
중심선
100
AcDbLine
 10
22.22332737316547
 20
13.45928029700563
 30
0.0
 11
24.52862924686651
 21
15.39360700705356
 31
0.0
  0
ATTDEF
  5
95
330
7F
100
AcDbEntity
  8
FORMAT
 62
     2
100
AcDbText
 10
4.408487351596664
 20
2.075366912832191
 30
0.0
 40
4.233333333333333
  1
E1004011
 41
0.75
  7
SLDTEXTSTYLE0
 11
4.408487351596664
 21
-0.0412997538344756
 31
0.0
100
AcDbAttributeDefinition
  3

  2
AUTOATTR0
 70
     0
 74
     1
  0
ENDBLK
  5
81
330
7F
100
AcDbEntity
  8
0
100
AcDbBlockEnd
  0
BLOCK
  5
D5
330
D4
100
AcDbEntity
  8
0
100
AcDbBlockBegin
  2
_D
 70
     0
 10
0.0
 20
0.0
 30
0.0
  3
_D
  1

  0
LINE
  5
D7
330
D4
100
AcDbEntity
  8
치수문자_일반주서
 62
     0
370
    -2
100
AcDbLine
 10
28.63750000000001
 20
2.174785406820421
 30
0.0
 11
63.22505819530701
 21
2.174785406820547
 31
0.0
  0
LINE
  5
D8
330
D4
100
AcDbEntity
  8
치수문자_일반주서
 62
     0
370
    -2
100
AcDbLine
 10
28.63750000000001
 20
-2.17478540682042
 30
0.0
 11
63.22505819530703
 21
-2.174785406820291
 31
0.0
  0
LINE
  5
D9
330
D4
100
AcDbEntity
  8
치수문자_일반주서
 62
     0
370
    -2
100
AcDbLine
 10
63.22505819530701
 20
2.174785406820547
 30
0.0
 11
63.22505819530689
 21
38.53681250000014
 31
0.0
  0
LINE
  5
DA
330
D4
100
AcDbEntity
  8
치수문자_일반주서
 62
     0
370
    -2
100
AcDbLine
 10
63.22505819530701
 20
2.174785406820547
 30
0.0
 11
63.22505819530703
 21
-2.174785406820291
 31
0.0
  0
LINE
  5
DB
330
D4
100
AcDbEntity
  8
치수문자_일반주서
 62
     0
370
    -2
100
AcDbLine
 10
63.225058195307
 20
5.476785406820547
 30
0.0
 11
63.22505819530699
 21
8.778785406820546
 31
0.0
  0
LINE
  5
DC
330
D4
100
AcDbEntity
  8
치수문자_일반주서
 62
     0
370
    -2
100
AcDbLine
 10
63.22505819530704
 20
-5.476785406820291
 30
0.0
 11
63.22505819530706
 21
-8.77878540682029
 31
0.0
  0
SOLID
  5
DD
330
D4
100
AcDbEntity
  8
치수문자_일반주서
 62
     0
100
AcDbTrace
 10
62.67472486197367
 20
5.476785406820545
 30
0.0
 11
63.77539152864033
 21
5.476785406820548
 31
0.0
 12
63.22505819530701
 22
2.174785406820547
 32
0.0
 13
63.22505819530701
 23
2.174785406820547
 33
0.0
  0
SOLID
  5
DE
330
D4
100
AcDbEntity
  8
치수문자_일반주서
 62
     0
100
AcDbTrace
 10
63.77539152864038
 20
-5.476785406820289
 30
0.0
 11
62.67472486197371
 21
-5.476785406820293
 31
0.0
 12
63.22505819530703
 22
-2.174785406820291
 32
0.0
 13
63.22505819530703
 23
-2.174785406820291
 33
0.0
  0
MTEXT
  5
DF
330
D4
100
AcDbEntity
  8
치수문자_일반주서
 62
     0
100
AcDbMText
 10
58.85005819530694
 20
23.66181250000012
 30
0.0
 40
3.5
 41
0.0
 71
     2
 72
     1
  1
\A1;%%c4.35 [11/64]
  7
SLDTEXTSTYLE0
 11
-3.267185504977836E-15
 21
1.0
 31
0.0
 73
     1
 44
1.0
  0
POINT
  5
E0
330
D4
100
AcDbEntity
  8
Defpoints
 62
     0
100
AcDbPoint
 10
28.57500000000001
 20
2.17478540682042
 30
0.0
  0
POINT
  5
E1
330
D4
100
AcDbEntity
  8
Defpoints
 62
     0
100
AcDbPoint
 10
28.57500000000001
 20
-2.17478540682042
 30
0.0
  0
POINT
  5
E2
330
D4
100
AcDbEntity
  8
Defpoints
 62
     0
100
AcDbPoint
 10
63.22505819530703
 20
-2.17478540682029
 30
0.0
  0
ENDBLK
  5
D6
330
D4
100
AcDbEntity
  8
0
100
AcDbBlockEnd
  0
BLOCK
  5
EA
330
E9
100
AcDbEntity
  8
0
100
AcDbBlockBegin
  2
_D_1
 70
     0
 10
0.0
 20
0.0
 30
0.0
  3
_D_1
  1

  0
LINE
  5
EC
330
E9
100
AcDbEntity
  8
치수문자_일반주서
 62
     0
370
    -2
100
AcDbLine
 10
28.57500000000001
 20
2.23728540682042
 30
0.0
 11
28.57500000000001
 21
12.38125000000001
 31
0.0
  0
LINE
  5
ED
330
E9
100
AcDbEntity
  8
치수문자_일반주서
 62
     0
370
    -2
100
AcDbLine
 10
15.87499999999999
 20
2.145785941617351
 30
0.0
 11
15.87499999999999
 21
12.38125000000001
 31
0.0
  0
LINE
  5
EE
330
E9
100
AcDbEntity
  8
치수문자_일반주서
 62
     0
370
    -2
100
AcDbLine
 10
28.57500000000001
 20
12.38125000000001
 30
0.0
 11
57.05400000000001
 21
12.38125000000001
 31
0.0
  0
LINE
  5
EF
330
E9
100
AcDbEntity
  8
치수문자_일반주서
 62
     0
370
    -2
100
AcDbLine
 10
28.57500000000001
 20
12.38125000000001
 30
0.0
 11
15.87499999999999
 21
12.38125000000001
 31
0.0
  0
LINE
  5
F0
330
E9
100
AcDbEntity
  8
치수문자_일반주서
 62
     0
370
    -2
100
AcDbLine
 10
31.87700000000001
 20
12.38125000000001
 30
0.0
 11
35.17900000000001
 21
12.38125000000001
 31
0.0
  0
LINE
  5
F1
330
E9
100
AcDbEntity
  8
치수문자_일반주서
 62
     0
370
    -2
100
AcDbLine
 10
12.57299999999999
 20
12.38125000000001
 30
0.0
 11
9.270999999999994
 21
12.38125000000001
 31
0.0
  0
SOLID
  5
F2
330
E9
100
AcDbEntity
  8
치수문자_일반주서
 62
     0
100
AcDbTrace
 10
31.87700000000001
 20
12.93158333333334
 30
0.0
 11
31.87700000000001
 21
11.83091666666668
 31
0.0
 12
28.57500000000001
 22
12.38125000000001
 32
0.0
 13
28.57500000000001
 23
12.38125000000001
 33
0.0
  0
SOLID
  5
F3
330
E9
100
AcDbEntity
  8
치수문자_일반주서
 62
     0
100
AcDbTrace
 10
12.57299999999999
 20
11.83091666666668
 30
0.0
 11
12.57299999999999
 21
12.93158333333334
 31
0.0
 12
15.87499999999999
 22
12.38125000000001
 32
0.0
 13
15.87499999999999
 23
12.38125000000001
 33
0.0
  0
MTEXT
  5
F4
330
E9
100
AcDbEntity
  8
치수문자_일반주서
 62
     0
100
AcDbMText
 10
46.11650000000001
 20
16.75625000000001
 30
0.0
 40
3.5
 41
0.0
 71
     2
 72
     1
  1
\A1;12.7 [1/2]
  7
SLDTEXTSTYLE0
 73
     1
 44
1.0
  0
POINT
  5
F5
330
E9
100
AcDbEntity
  8
Defpoints
 62
     0
100
AcDbPoint
 10
28.57500000000001
 20
2.17478540682042
 30
0.0
  0
POINT
  5
F6
330
E9
100
AcDbEntity
  8
Defpoints
 62
     0
100
AcDbPoint
 10
15.87499999999999
 20
2.083285941617351
 30
0.0
  0
POINT
  5
F7
330
E9
100
AcDbEntity
  8
Defpoints
 62
     0
100
AcDbPoint
 10
15.87499999999999
 20
12.38125000000001
 30
0.0
  0
ENDBLK
  5
EB
330
E9
100
AcDbEntity
  8
0
100
AcDbBlockEnd
  0
BLOCK
  5
FF
330
FE
100
AcDbEntity
  8
0
100
AcDbBlockBegin
  2
_D_2
 70
     0
 10
0.0
 20
0.0
 30
0.0
  3
_D_2
  1

  0
LINE
  5
101
330
FE
100
AcDbEntity
  8
치수문자_일반주서
 62
     0
370
    -2
100
AcDbLine
 10
28.57500000000001
 20
2.23728540682042
 30
0.0
 11
28.57500000000001
 21
22.38125000000001
 31
0.0
  0
LINE
  5
102
330
FE
100
AcDbEntity
  8
치수문자_일반주서
 62
     0
370
    -2
100
AcDbLine
 10
-28.57500000000001
 20
2.237285406820388
 30
0.0
 11
-28.57500000000001
 21
22.38125000000001
 31
0.0
  0
LINE
  5
103
330
FE
100
AcDbEntity
  8
치수문자_일반주서
 62
     0
370
    -2
100
AcDbLine
 10
25.27300000000001
 20
22.38125000000001
 30
0.0
 11
-25.27300000000001
 21
22.38125000000001
 31
0.0
  0
SOLID
  5
104
330
FE
100
AcDbEntity
  8
치수문자_일반주서
 62
     0
100
AcDbTrace
 10
25.27300000000001
 20
21.83091666666668
 30
0.0
 11
25.27300000000001
 21
22.93158333333335
 31
0.0
 12
28.57500000000001
 22
22.38125000000001
 32
0.0
 13
28.57500000000001
 23
22.38125000000001
 33
0.0
  0
SOLID
  5
105
330
FE
100
AcDbEntity
  8
치수문자_일반주서
 62
     0
100
AcDbTrace
 10
-25.27300000000001
 20
22.93158333333335
 30
0.0
 11
-25.27300000000001
 21
21.83091666666668
 31
0.0
 12
-28.57500000000001
 22
22.38125000000001
 32
0.0
 13
-28.57500000000001
 23
22.38125000000001
 33
0.0
  0
MTEXT
  5
106
330
FE
100
AcDbEntity
  8
치수문자_일반주서
 62
     0
100
AcDbMText
 10
-1.4581794861211
 20
26.75625000000001
 30
0.0
 40
3.5
 41
0.0
 71
     2
 72
     1
  1
\A1;57.15 [2 1/4]
  7
SLDTEXTSTYLE0
 73
     1
 44
1.0
  0
POINT
  5
107
330
FE
100
AcDbEntity
  8
Defpoints
 62
     0
100
AcDbPoint
 10
28.57500000000001
 20
2.17478540682042
 30
0.0
  0
POINT
  5
108
330
FE
100
AcDbEntity
  8
Defpoints
 62
     0
100
AcDbPoint
 10
-28.57500000000001
 20
2.174785406820388
 30
0.0
  0
POINT
  5
109
330
FE
100
AcDbEntity
  8
Defpoints
 62
     0
100
AcDbPoint
 10
-28.57500000000001
 20
22.38125000000001
 30
0.0
  0
ENDBLK
  5
100
330
FE
100
AcDbEntity
  8
0
100
AcDbBlockEnd
  0
BLOCK
  5
112
330
111
100
AcDbEntity
  8
0
100
AcDbBlockBegin
  2
_D_3
 70
     0
 10
0.0
 20
0.0
 30
0.0
  3
_D_3
  1

  0
LINE
  5
114
330
111
100
AcDbEntity
  8
치수문자_일반주서
 62
     0
370
    -2
100
AcDbLine
 10
-14.19692116787304
 20
2.38125
 30
0.0
 11
-38.575
 21
2.381249999999909
 31
0.0
  0
LINE
  5
115
330
111
100
AcDbEntity
  8
치수문자_일반주서
 62
     0
370
    -2
100
AcDbLine
 10
-14.19692116787304
 20
-2.381250000000003
 30
0.0
 11
-38.57499999999999
 21
-2.381250000000094
 31
0.0
  0
LINE
  5
116
330
111
100
AcDbEntity
  8
치수문자_일반주서
 62
     0
370
    -2
100
AcDbLine
 10
-38.575
 20
2.381249999999909
 30
0.0
 11
-38.57500000000011
 21
36.98524999999997
 31
0.0
  0
LINE
  5
117
330
111
100
AcDbEntity
  8
치수문자_일반주서
 62
     0
370
    -2
100
AcDbLine
 10
-38.575
 20
2.381249999999909
 30
0.0
 11
-38.57499999999999
 21
-2.381250000000094
 31
0.0
  0
LINE
  5
118
330
111
100
AcDbEntity
  8
치수문자_일반주서
 62
     0
370
    -2
100
AcDbLine
 10
-38.57500000000001
 20
5.683249999999909
 30
0.0
 11
-38.57500000000002
 21
8.985249999999908
 31
0.0
  0
LINE
  5
119
330
111
100
AcDbEntity
  8
치수문자_일반주서
 62
     0
370
    -2
100
AcDbLine
 10
-38.57499999999998
 20
-5.683250000000093
 30
0.0
 11
-38.57499999999997
 21
-8.985250000000093
 31
0.0
  0
SOLID
  5
11A
330
111
100
AcDbEntity
  8
치수문자_일반주서
 62
     0
100
AcDbTrace
 10
-39.12533333333334
 20
5.683249999999907
 30
0.0
 11
-38.02466666666668
 21
5.68324999999991
 31
0.0
 12
-38.575
 22
2.381249999999909
 32
0.0
 13
-38.575
 23
2.381249999999909
 33
0.0
  0
SOLID
  5
11B
330
111
100
AcDbEntity
  8
치수문자_일반주서
 62
     0
100
AcDbTrace
 10
-38.02466666666665
 20
-5.683250000000092
 30
0.0
 11
-39.12533333333332
 21
-5.683250000000095
 31
0.0
 12
-38.57499999999999
 22
-2.381250000000094
 32
0.0
 13
-38.57499999999999
 23
-2.381250000000094
 33
0.0
  0
MTEXT
  5
11C
330
111
100
AcDbEntity
  8
치수문자_일반주서
 62
     0
100
AcDbMText
 10
-42.95000000000007
 20
22.98524999999995
 30
0.0
 40
3.5
 41
0.0
 71
     2
 72
     1
  1
\A1;%%c4.76 [3/16]
  7
SLDTEXTSTYLE0
 11
-2.983906501879685E-15
 21
1.0
 31
0.0
 73
     1
 44
1.0
  0
POINT
  5
1BB
330
111
100
AcDbEntity
  8
Defpoints
 62
     0
100
AcDbPoint
 10
-14.13442116787304
 20
2.38125
 30
0.0
  0
POINT
  5
1BC
330
111
100
AcDbEntity
  8
Defpoints
 62
     0
100
AcDbPoint
 10
-14.13442116787304
 20
-2.381250000000002
 30
0.0
  0
POINT
  5
1BD
330
111
100
AcDbEntity
  8
Defpoints
 62
     0
100
AcDbPoint
 10
-38.57499999999999
 20
-2.381250000000094
 30
0.0
  0
ENDBLK
  5
113
330
111
100
AcDbEntity
  8
0
100
AcDbBlockEnd
  0
BLOCK
  5
12C
330
12B
100
AcDbEntity
  8
0
100
AcDbBlockBegin
  2
SW_DOWELSYMBOL_0
 70
     0
 10
0.0
 20
0.0
 30
0.0
  3
SW_DOWELSYMBOL_0
  1

  0
CIRCLE
  5
12E
330
12B
100
AcDbEntity
  8
해칭선
 62
     0
100
AcDbCircle
 10
0.0
 20
0.0
 30
0.0
 40
3.0
  0
HATCH
  5
12F
330
12B
100
AcDbEntity
  8
0
  6
Continuous
 62
     0
370
     0
100
AcDbHatch
 10
0.0
 20
0.0
 30
0.0
210
0.0
220
0.0
230
1.0
  2
SOLID
 70
     1
 71
     0
 91
        1
 92
        0
 93
        3
 72
     2
 10
0.0
 20
0.0
 40
3.0
 50
0.0
 51
90.0
 73
     1
 72
     1
 10
0.0
 20
3.0
 11
0.0
 21
0.0
 72
     1
 10
0.0
 20
0.0
 11
2.999999999999999
 21
0.0
 97
        0
 75
     0
 76
     1
 98
        1
 10
0.0
 20
0.0
  0
HATCH
  5
130
330
12B
100
AcDbEntity
  8
0
  6
Continuous
 62
     0
370
     0
100
AcDbHatch
 10
0.0
 20
0.0
 30
0.0
210
0.0
220
0.0
230
1.0
  2
SOLID
 70
     1
 71
     0
 91
        1
 92
        0
 93
        3
 72
     2
 10
0.0
 20
0.0
 40
3.0
 50
180.0
 51
270.0000000000008
 73
     1
 72
     1
 10
0.0
 20
-3.0
 11
0.0
 21
0.0
 72
     1
 10
0.0
 20
0.0
 11
-3.0
 21
0.0
 97
        0
 75
     0
 76
     1
 98
        1
 10
0.0
 20
0.0
  0
ENDBLK
  5
12D
330
12B
100
AcDbEntity
  8
0
100
AcDbBlockEnd
  0
BLOCK
  5
191
330
190
100
AcDbEntity
  8
0
100
AcDbBlockBegin
  2
*D8
 70
     1
 10
0.0
 20
0.0
 30
0.0
  3
*D8
  1

  0
LINE
  5
193
330
190
100
AcDbEntity
  8
치수문자_일반주서
 62
     0
370
    -2
100
AcDbLine
 10
16.12900000000002
 20
3.225824228102428
 30
0.0
 11
16.12900000000002
 21
13.96291211405121
 31
0.0
  0
LINE
  5
194
330
190
100
AcDbEntity
  8
치수문자_일반주서
 62
     0
370
    -2
100
AcDbLine
 10
6.603999999999999
 20
3.101127653826765
 30
0.0
 11
6.603999999999999
 21
13.96291211405121
 31
0.0
  0
LINE
  5
195
330
190
100
AcDbEntity
  8
치수문자_일반주서
 62
     0
370
    -2
100
AcDbLine
 10
16.12900000000002
 20
13.96291211405121
 30
0.0
 11
46.57675
 21
13.96291211405121
 31
0.0
  0
LINE
  5
196
330
190
100
AcDbEntity
  8
치수문자_일반주서
 62
     0
370
    -2
100
AcDbLine
 10
16.12900000000002
 20
13.96291211405121
 30
0.0
 11
6.603999999999999
 21
13.96291211405121
 31
0.0
  0
LINE
  5
197
330
190
100
AcDbEntity
  8
치수문자_일반주서
 62
     0
370
    -2
100
AcDbLine
 10
19.43100000000002
 20
13.96291211405121
 30
0.0
 11
22.73300000000002
 21
13.96291211405121
 31
0.0
  0
LINE
  5
198
330
190
100
AcDbEntity
  8
치수문자_일반주서
 62
     0
370
    -2
100
AcDbLine
 10
3.302
 20
13.96291211405121
 30
0.0
 11
0.0
 21
13.96291211405121
 31
0.0
  0
SOLID
  5
199
330
190
100
AcDbEntity
  8
치수문자_일반주서
 62
     0
100
AcDbTrace
 10
19.43100000000002
 20
14.51324544738455
 30
0.0
 11
19.43100000000002
 21
13.41257878071788
 31
0.0
 12
16.12900000000002
 22
13.96291211405121
 32
0.0
 13
16.12900000000002
 23
13.96291211405121
 33
0.0
  0
SOLID
  5
19A
330
190
100
AcDbEntity
  8
치수문자_일반주서
 62
     0
100
AcDbTrace
 10
3.302
 20
13.41257878071788
 30
0.0
 11
3.302
 21
14.51324544738455
 31
0.0
 12
6.603999999999999
 22
13.96291211405121
 32
0.0
 13
6.603999999999999
 23
13.96291211405121
 33
0.0
  0
MTEXT
  5
19B
330
190
100
AcDbEntity
  8
치수문자_일반주서
 62
     0
100
AcDbMText
 10
34.76425
 20
18.33791211405121
 30
0.0
 40
3.5
 41
0.0
 71
     2
 72
     1
  1
\A1;9.53 [3/8]
  7
SLDTEXTSTYLE0
 73
     1
 44
1.0
  0
POINT
  5
19C
330
190
100
AcDbEntity
  8
Defpoints
 62
     0
100
AcDbPoint
 10
16.12900000000002
 20
3.163324228102428
 30
0.0
  0
POINT
  5
19D
330
190
100
AcDbEntity
  8
Defpoints
 62
     0
100
AcDbPoint
 10
6.603999999999999
 20
3.038627653826765
 30
0.0
  0
POINT
  5
19E
330
190
100
AcDbEntity
  8
Defpoints
 62
     0
100
AcDbPoint
 10
6.603999999999999
 20
13.96291211405121
 30
0.0
  0
ENDBLK
  5
192
330
190
100
AcDbEntity
  8
0
100
AcDbBlockEnd
  0
BLOCK
  5
1A3
330
1A2
100
AcDbEntity
  8
0
100
AcDbBlockBegin
  2
*D9
 70
     1
 10
0.0
 20
0.0
 30
0.0
  3
*D9
  1

  0
LINE
  5
1A5
330
1A2
100
AcDbEntity
  8
치수문자_일반주서
 62
     0
370
    -2
100
AcDbLine
 10
68.84247270928303
 20
-7.935097984682113
 30
0.0
 11
68.84247270928303
 21
2.801989901266673
 31
0.0
  0
LINE
  5
1A6
330
1A2
100
AcDbEntity
  8
치수문자_일반주서
 62
     0
370
    -2
100
AcDbLine
 10
59.31747270928301
 20
-8.059794558957776
 30
0.0
 11
59.31747270928301
 21
2.801989901266673
 31
0.0
  0
LINE
  5
1A7
330
1A2
100
AcDbEntity
  8
치수문자_일반주서
 62
     0
370
    -2
100
AcDbLine
 10
68.84247270928303
 20
2.801989901266673
 30
0.0
 11
99.29022270928301
 21
2.801989901266673
 31
0.0
  0
LINE
  5
1A8
330
1A2
100
AcDbEntity
  8
치수문자_일반주서
 62
     0
370
    -2
100
AcDbLine
 10
68.84247270928303
 20
2.801989901266673
 30
0.0
 11
59.31747270928301
 21
2.801989901266673
 31
0.0
  0
LINE
  5
1A9
330
1A2
100
AcDbEntity
  8
치수문자_일반주서
 62
     0
370
    -2
100
AcDbLine
 10
72.14447270928304
 20
2.801989901266673
 30
0.0
 11
75.44647270928303
 21
2.801989901266673
 31
0.0
  0
LINE
  5
1AA
330
1A2
100
AcDbEntity
  8
치수문자_일반주서
 62
     0
370
    -2
100
AcDbLine
 10
56.01547270928301
 20
2.801989901266673
 30
0.0
 11
52.71347270928301
 21
2.801989901266673
 31
0.0
  0
SOLID
  5
1AB
330
1A2
100
AcDbEntity
  8
치수문자_일반주서
 62
     0
100
AcDbTrace
 10
72.14447270928304
 20
3.352323234600006
 30
0.0
 11
72.14447270928304
 21
2.25165656793334
 31
0.0
 12
68.84247270928303
 22
2.801989901266673
 32
0.0
 13
68.84247270928303
 23
2.801989901266673
 33
0.0
  0
SOLID
  5
1AC
330
1A2
100
AcDbEntity
  8
치수문자_일반주서
 62
     0
100
AcDbTrace
 10
56.01547270928301
 20
2.25165656793334
 30
0.0
 11
56.01547270928301
 21
3.352323234600006
 31
0.0
 12
59.31747270928301
 22
2.801989901266673
 32
0.0
 13
59.31747270928301
 23
2.801989901266673
 33
0.0
  0
MTEXT
  5
1AD
330
1A2
100
AcDbEntity
  8
치수문자_일반주서
 62
     0
100
AcDbMText
 10
87.47772270928301
 20
7.176989901266673
 30
0.0
 40
3.5
 41
0.0
 71
     2
 72
     1
  1
\A1;9.53 [3/8]
  7
SLDTEXTSTYLE0
 73
     1
 44
1.0
  0
POINT
  5
1AE
330
1A2
100
AcDbEntity
  8
Defpoints
 62
     0
100
AcDbPoint
 10
68.84247270928303
 20
-7.997597984682113
 30
0.0
  0
POINT
  5
1AF
330
1A2
100
AcDbEntity
  8
Defpoints
 62
     0
100
AcDbPoint
 10
59.31747270928301
 20
-8.122294558957776
 30
0.0
  0
POINT
  5
1B0
330
1A2
100
AcDbEntity
  8
Defpoints
 62
     0
100
AcDbPoint
 10
59.31747270928301
 20
2.801989901266673
 30
0.0
  0
ENDBLK
  5
1A4
330
1A2
100
AcDbEntity
  8
0
100
AcDbBlockEnd
  0
ENDSEC
  0
SECTION
  2
ENTITIES
  0
LINE
  5
96
330
1F
100
AcDbEntity
  8
0
  6
Continuous
 62
     1
370
    15
100
AcDbLine
 10
16.38222487551
 20
0.3642675809468725
 30
0.0
 11
15.87500000000001
 21
0.6205266410327178
 31
0.0
1001
PE_URL
1000

  0
LINE
  5
97
330
1F
100
AcDbEntity
  8
0
  6
Continuous
 62
     1
370
    15
100
AcDbLine
 10
25.40102610486074
 20
-0.632367356847562
 30
0.0
 11
25.44281600706493
 21
-0.6547890843167465
 31
0.0
1001
PE_URL
1000

  0
LINE
  5
98
330
1F
100
AcDbEntity
  8
0
  6
Continuous
 62
     1
370
    15
100
AcDbLine
 10
22.96041610795902
 20
-2.182812500000001
 30
0.0
 11
24.29168271455006
 21
-2.182812500000001
 31
0.0
1001
PE_URL
1000

  0
LINE
  5
99
330
1F
100
AcDbEntity
  8
0
  6
Continuous
 62
     1
370
    15
100
AcDbLine
 10
18.35371974096565
 20
2.182812500000001
 30
0.0
 11
17.0209761944502
 21
2.182812500000001
 31
0.0
1001
PE_URL
1000

  0
LINE
  5
9A
330
1F
100
AcDbEntity
  8
0
  6
Continuous
 62
     1
370
    15
100
AcDbLine
 10
24.29168271455007
 20
2.182812500000001
 30
0.0
 11
22.96041610795906
 21
2.182812500000001
 31
0.0
1001
PE_URL
1000

  0
LINE
  5
9B
330
1F
100
AcDbEntity
  8
0
  6
Continuous
 62
     1
370
    15
100
AcDbLine
 10
17.0209761944502
 20
-2.182812500000001
 30
0.0
 11
18.35371974096562
 21
-2.182812500000001
 31
0.0
1001
PE_URL
1000

  0
LINE
  5
9C
330
1F
100
AcDbEntity
  8
외형선
  6
Continuous
370
    15
100
AcDbLine
 10
14.13442116787304
 20
-2.381250000000005
 30
0.0
 11
14.87500000000001
 21
-2.1828125
 31
0.0
  0
LINE
  5
9D
330
1F
100
AcDbEntity
  8
외형선
  6
Continuous
370
    15
100
AcDbLine
 10
14.87500000000001
 20
2.182812500000001
 30
0.0
 11
14.13442116787304
 21
2.381250000000005
 31
0.0
  0
LINE
  5
9E
330
1F
100
AcDbEntity
  8
외형선
  6
Continuous
370
    15
100
AcDbLine
 10
-14.13442116787304
 20
-2.381250000000002
 30
0.0
 11
14.13442116787304
 21
-2.381250000000002
 31
0.0
  0
LINE
  5
9F
330
1F
100
AcDbEntity
  8
외형선
  6
Continuous
370
    15
100
AcDbLine
 10
14.13442116787304
 20
2.381250000000003
 30
0.0
 11
-14.13442116787304
 21
2.381250000000003
 31
0.0
  0
LINE
  5
A2
330
1F
100
AcDbEntity
  8
외형선
  6
Continuous
370
    15
100
AcDbLine
 10
14.87500000000001
 20
-2.1828125
 30
0.0
 11
15.3751425201617
 21
-2.1828125
 31
0.0
  0
LINE
  5
A3
330
1F
100
AcDbEntity
  8
외형선
  6
Continuous
370
    15
100
AcDbLine
 10
15.3751425201617
 20
2.1828125
 30
0.0
 11
14.87500000000001
 21
2.1828125
 31
0.0
  0
SPLINE
  5
A4
330
1F
100
AcDbEntity
  8
0
  6
Continuous
 62
     1
370
    15
100
AcDbSpline
210
0.0
220
0.0
230
1.0
 70
     8
 71
     3
 72
    19
 73
    15
 74
     0
 42
0.000000001
 43
0.00000001
 40
0.0
 40
0.0
 40
0.0
 40
0.0
 40
0.0829355365835977
 40
0.1659442702655831
 40
0.248849461995834
 40
0.3316873058919654
 40
0.4145147192294735
 40
0.4973887443432173
 40
0.5803658654762274
 40
0.6633459980262632
 40
0.7501754996037447
 40
0.8369683370465684
 40
0.9237513518563096
 40
1.0
 40
1.0
 40
1.0
 40
1.0
 10
15.8750000000002
 20
1.329963815546009
 30
0.0
 10
16.17145138898026
 20
1.187147254747893
 30
0.0
 10
16.76461580848004
 20
0.9013880863654113
 30
0.0
 10
17.65445437236707
 20
0.4041448040430273
 30
0.0
 10
18.5435574271227
 20
-0.1105111022081958
 30
0.0
 10
19.43189824264563
 20
-0.6203207462771814
 30
0.0
 10
20.32010329274461
 20
-1.09560838414901
 30
0.0
 10
21.20888329303094
 20
-1.510813051101665
 30
0.0
 10
22.09852574881976
 20
-1.84273436753512
 30
0.0
 10
23.0022904640884
 20
-2.076789549064517
 30
0.0
 10
23.91948536699881
 20
-2.194769595332998
 30
0.0
 10
24.85021895306756
 20
-2.179221632385025
 30
0.0
 10
25.74310110029064
 20
-2.048087374052326
 30
0.0
 10
26.32582234383295
 20
-1.86727027608472
 30
0.0
 10
26.59835656362681
 20
-1.7827035175083
 30
0.0
1001
PE_URL
1000

  0
SPLINE
  5
A5
330
1F
100
AcDbEntity
  8
외형선
  6
Continuous
370
    15
100
AcDbSpline
210
0.0
220
0.0
230
1.0
 70
    24
 71
     3
 72
    11
 73
     7
 74
     0
 42
0.000000001
 43
0.00000001
 40
0.0
 40
0.0
 40
0.0
 40
0.0
 40
0.234627304058665
 40
0.4737012574202569
 40
0.7614449436549501
 40
1.0
 40
1.0
 40
1.0
 40
1.0
 10
15.875
 20
2.083285941617308
 30
0.0
 10
15.87500000000002
 20
2.02409543931828
 30
0.0
 10
15.87500000000004
 20
1.904592658178301
 30
0.0
 10
15.87500000000002
 20
1.716451124778763
 30
0.0
 10
15.87500000000001
 20
1.533222981701937
 30
0.0
 10
15.875
 20
1.420384735305435
 30
0.0
 10
15.87500000000001
 20
1.3692386236977
 30
0.0
  0
SPLINE
  5
A6
330
1F
100
AcDbEntity
  8
0
  6
Continuous
 62
     1
370
    15
100
AcDbSpline
210
0.0
220
0.0
230
1.0
 70
     8
 71
     3
 72
    46
 73
    42
 74
     0
 42
0.000000001
 43
0.00000001
 40
0.0
 40
0.0
 40
0.0
 40
0.0
 40
0.0624999999999986
 40
0.0624999999999986
 40
0.1249999999999971
 40
0.1249999999999971
 40
0.156249999999997
 40
0.156249999999997
 40
0.1874999999999969
 40
0.1874999999999969
 40
0.2499999999999967
 40
0.2499999999999967
 40
0.3124999999999964
 40
0.3124999999999964
 40
0.3749999999999962
 40
0.3749999999999962
 40
0.4062499999999967
 40
0.4062499999999967
 40
0.4374999999999972
 40
0.4374999999999972
 40
0.499999999999997
 40
0.499999999999997
 40
0.5312499999999969
 40
0.5312499999999969
 40
0.5624999999999967
 40
0.5624999999999967
 40
0.6249999999999977
 40
0.6249999999999977
 40
0.6874999999999987
 40
0.6874999999999987
 40
0.7499999999999997
 40
0.7499999999999997
 40
0.7812500000000002
 40
0.7812500000000002
 40
0.8125000000000008
 40
0.8125000000000008
 40
0.8750000000000006
 40
0.8750000000000006
 40
0.9375000000000003
 40
0.9375000000000003
 40
1.0
 40
1.0
 40
1.0
 40
1.0
 10
28.57500000000001
 20
-2.17478540682042
 30
0.0
 10
28.31313133492353
 20
-2.161742471574846
 30
0.0
 10
28.04531998794615
 20
-2.132560780905943
 30
0.0
 10
27.51529046896594
 20
-2.043457039245767
 30
0.0
 10
27.25369572764262
 20
-1.983785275087754
 30
0.0
 10
26.85484537998569
 20
-1.872623828009591
 30
0.0
 10
26.72180716264867
 20
-1.832034053859725
 30
0.0
 10
26.45774562263884
 20
-1.744499449020006
 30
0.0
 10
26.32725658673886
 20
-1.697637718997952
 30
0.0
 10
25.93050685039922
 20
-1.54735341282014
 30
0.0
 10
25.66248990173914
 20
-1.434497818106194
 30
0.0
 10
25.1369440004482
 20
-1.190976904958635
 30
0.0
 10
24.87114296677415
 20
-1.05909092254601
 30
0.0
 10
24.34031457233079
 20
-0.7817921755110528
 30
0.0
 10
24.079155668837
 20
-0.6371331686163446
 30
0.0
 10
23.68048050800755
 20
-0.4134725508870246
 30
0.0
 10
23.54732057139088
 20
-0.3379680634026097
 30
0.0
 10
23.28266201768698
 20
-0.1863101033714924
 30
0.0
 10
23.15211389920896
 20
-0.1103420373125624
 30
0.0
 10
22.75630868721109
 20
0.1185479941234652
 30
0.0
 10
22.4882060008071
 20
0.2721954024302376
 30
0.0
 10
22.09285851519268
 20
0.4967107171216896
 30
0.0
 10
21.96215814429
 20
0.5705755747141381
 30
0.0
 10
21.69727862643968
 20
0.7165888090567347
 30
0.0
 10
21.56408445200912
 20
0.7885477011521762
 30
0.0
 10
21.16553812027318
 20
0.999485223339738
 30
0.0
 10
20.90445623263145
 20
1.13299402362319
 30
0.0
 10
20.37335617452788
 20
1.382960100485214
 30
0.0
 10
20.10830995078493
 20
1.498547463281381
 30
0.0
 10
19.58205670000398
 20
1.705657915832028
 30
0.0
 10
19.31398826889137
 20
1.797998139395507
 30
0.0
 10
18.91762280981519
 20
1.915075087762818
 30
0.0
 10
18.7871591268638
 20
1.950511875568962
 30
0.0
 10
18.52282738332568
 20
2.014417476803982
 30
0.0
 10
18.38972975699507
 20
2.042796960464389
 30
0.0
 10
17.99093313131388
 20
2.116448245886878
 30
0.0
 10
17.72956932513846
 20
2.150087372762731
 30
0.0
 10
17.1991686479117
 20
2.185744849658123
 30
0.0
 10
16.93226285329316
 20
2.187518719909542
 30
0.0
 10
16.40772214751676
 20
2.15920239874469
 30
0.0
 10
16.13980791314594
 20
2.128896967329972
 30
0.0
 10
15.87500000000018
 20
2.083285941617341
 30
0.0
1001
PE_URL
1000

  0
SPLINE
  5
A7
330
1F
100
AcDbEntity
  8
0
  6
Continuous
 62
     1
370
    15
100
AcDbSpline
210
0.0
220
0.0
230
1.0
 70
     8
 71
     3
 72
    13
 73
     9
 74
     0
 42
0.000000001
 43
0.00000001
 40
0.0
 40
0.0
 40
0.0
 40
0.0
 40
0.1863060663103882
 40
0.3727765622974689
 40
0.5590144620475087
 40
0.7451010718853314
 40
0.9311642505568957
 40
1.0
 40
1.0
 40
1.0
 40
1.0
 10
15.8750000000002
 20
-1.730857203669483
 30
0.0
 10
16.17145134445192
 20
-1.825885546642817
 30
0.0
 10
16.76461567485574
 20
-2.016026102535434
 30
0.0
 10
17.65445490713653
 20
-2.16402577301429
 30
0.0
 10
18.54355542527579
 20
-2.201613513686867
 30
0.0
 10
19.43190570934508
 20
-2.109823227215152
 30
0.0
 10
20.13342388753748
 20
-1.964738120027746
 30
0.0
 10
20.53899258966013
 20
-1.820095862863703
 30
0.0
 10
20.64851688530064
 20
-1.781035054539904
 30
0.0
1001
PE_URL
1000

  0
SPLINE
  5
A8
330
1F
100
AcDbEntity
  8
외형선
  6
Continuous
370
    15
100
AcDbSpline
210
0.0
220
0.0
230
1.0
 70
    24
 71
     3
 72
    21
 73
    17
 74
     0
 42
0.000000001
 43
0.00000001
 40
0.0
 40
0.0
 40
0.0
 40
0.0
 40
0.0503835888741739
 40
0.1280314949320044
 40
0.2034910682515768
 40
0.2811389743094119
 40
0.3565985476289851
 40
0.4342464536868205
 40
0.5097060270063932
 40
0.5873539330642278
 40
0.6628135063835889
 40
0.7404614124416349
 40
0.8159209857611475
 40
0.8935688918190419
 40
0.9464182198429381
 40
1.0
 40
1.0
 40
1.0
 40
1.0
 10
15.87500000000001
 20
0.5782976187822743
 30
0.0
 10
15.875
 20
0.5627281506739558
 30
0.0
 10
15.87499999999998
 20
0.5231640322428058
 30
0.0
 10
15.87500000000003
 20
0.4212980420546983
 30
0.0
 10
15.875
 20
0.2801490484544346
 30
0.0
 10
15.87500000000004
 20
0.1124255254523785
 30
0.0
 10
15.87499999999998
 20
-0.0784311460200544
 30
0.0
 10
15.87500000000002
 20
-0.2840414869370417
 30
0.0
 10
15.87500000000002
 20
-0.5021641434147888
 30
0.0
 10
15.87500000000006
 20
-0.7227294017778659
 30
0.0
 10
15.87499999999998
 20
-0.94346571950398
 30
0.0
 10
15.87500000000003
 20
-1.154115251098063
 30
0.0
 10
15.87499999999998
 20
-1.352653702836332
 30
0.0
 10
15.87500000000002
 20
-1.511861053272882
 30
0.0
 10
15.87500000000002
 20
-1.638306428136182
 30
0.0
 10
15.87500000000001
 20
-1.699865729423222
 30
0.0
 10
15.87500000000001
 20
-1.73085720366942
 30
0.0
  0
SPLINE
  5
A9
330
1F
100
AcDbEntity
  8
0
  6
Continuous
 62
     1
370
    15
100
AcDbSpline
210
0.0
220
0.0
230
1.0
 70
     8
 71
     3
 72
    15
 73
    11
 74
     0
 42
0.000000001
 43
0.00000001
 40
0.0
 40
0.0
 40
0.0
 40
0.0
 40
0.085940876508509
 40
0.2113368763586549
 40
0.3426818929611839
 40
0.4740421779388618
 40
0.6054583530340758
 40
0.7369706324896758
 40
0.8685387665802191
 40
1.0
 40
1.0
 40
1.0
 40
1.0
 10
22.96041610795902
 20
-2.16980245738547
 30
0.0
 10
22.75742259966317
 20
-2.169507247668009
 30
0.0
 10
22.25824205011314
 20
-2.168781298595883
 30
0.0
 10
21.44910174568072
 20
-2.02733110778342
 30
0.0
 10
20.53257075997052
 20
-1.766446788188982
 30
0.0
 10
19.60185062260275
 20
-1.390157634162573
 30
0.0
 10
18.6706457188412
 20
-0.9309676835837328
 30
0.0
 10
17.73880541106261
 20
-0.4159484174258474
 30
0.0
 10
16.80671066557341
 20
0.1267294633424562
 30
0.0
 10
16.18548606227349
 20
0.4766944204010354
 30
0.0
 10
15.87500000000018
 20
0.6516057823683093
 30
0.0
1001
PE_URL
1000

  0
LINE
  5
AA
330
1F
100
AcDbEntity
  8
0
  6
Continuous
 62
     1
370
    15
100
AcDbLine
 10
28.57500000000001
 20
-1.976932570172308
 30
0.0
 11
28.57500000000001
 21
0.1870263201723343
 31
0.0
1001
PE_URL
1000

  0
SPLINE
  5
AB
330
1F
100
AcDbEntity
  8
0
  6
Continuous
 62
     1
370
    15
100
AcDbSpline
210
0.0
220
0.0
230
1.0
 70
     8
 71
     3
 72
    19
 73
    15
 74
     0
 42
0.000000001
 43
0.00000001
 40
0.0
 40
0.0
 40
0.0
 40
0.0
 40
0.0185944405545459
 40
0.1055008752352444
 40
0.1923963670591635
 40
0.2793407600023809
 40
0.3663933125383979
 40
0.4534490243975542
 40
0.5445431675124189
 40
0.6355988457291898
 40
0.726644218873059
 40
0.817707522082541
 40
0.9088168595042473
 40
1.0
 40
1.0
 40
1.0
 40
1.0
 10
18.35371974096565
 20
2.172693819403874
 30
0.0
 10
18.41707381657574
 20
2.175815762690687
 30
0.0
 10
18.77653127951884
 20
2.193529000592485
 30
0.0
 10
19.4318865604601
 20
2.107493991012057
 30
0.0
 10
20.3201064259841
 20
1.912967935543984
 30
0.0
 10
21.20888244710297
 20
1.602892409903699
 30
0.0
 10
22.09852599436647
 20
1.207477748159629
 30
0.0
 10
23.00229032241548
 20
0.7375965514722406
 30
0.0
 10
23.91948569147132
 20
0.216943668424291
 30
0.0
 10
24.85021780439169
 20
-0.324461234396743
 30
0.0
 10
25.7808166753199
 20
-0.8468823914888648
 30
0.0
 10
26.71164067772855
 20
-1.315935522086828
 30
0.0
 10
27.64301320058604
 20
-1.714205725158914
 30
0.0
 10
28.26425389486554
 20
-1.889333321069723
 30
0.0
 10
28.57500000000002
 20
-1.976932570172308
 30
0.0
1001
PE_URL
1000

  0
SPLINE
  5
AC
330
1F
100
AcDbEntity
  8
0
  6
Continuous
 62
     1
370
    15
100
AcDbSpline
210
0.0
220
0.0
230
1.0
 70
     8
 71
     3
 72
    16
 73
    12
 74
     0
 42
0.000000001
 43
0.00000001
 40
0.0
 40
0.0
 40
0.0
 40
0.0
 40
0.1122556626993465
 40
0.2243709820979691
 40
0.3364223575242186
 40
0.4484869538884753
 40
0.5606417775845253
 40
0.6729375366107742
 40
0.7851366462845133
 40
0.8972214205175447
 40
1.0
 40
1.0
 40
1.0
 40
1.0
 10
28.57500000000002
 20
0.1870263201723343
 30
0.0
 10
28.27832801924574
 20
0.3565062809842559
 30
0.0
 10
27.68535496040711
 20
0.6952543168418498
 30
0.0
 10
26.79656285785826
 20
1.162681874351195
 30
0.0
 10
25.90835513895478
 20
1.566708582131411
 30
0.0
 10
25.02002076164935
 20
1.884417263368091
 30
0.0
 10
24.13092426415901
 20
2.098334490500913
 30
0.0
 10
23.24110150226034
 20
2.197369377326025
 30
0.0
 10
22.35172733570945
 20
2.172958731925817
 30
0.0
 10
21.48772742588316
 20
2.042374271408955
 30
0.0
 10
20.92005807124989
 20
1.865595909595903
 30
0.0
 10
20.64851688530068
 20
1.781035054539905
 30
0.0
1001
PE_URL
1000

  0
LINE
  5
AD
330
1F
100
AcDbEntity
  8
외형선
  6
Continuous
370
    15
100
AcDbLine
 10
15.875
 20
0.6516057823684113
 30
0.0
 11
15.87500000000001
 21
1.329963815546091
 31
0.0
  0
LINE
  5
AE
330
1F
100
AcDbEntity
  8
0
  6
Continuous
 62
     1
370
    15
100
AcDbLine
 10
28.57500000000001
 20
-2.17478540682042
 30
0.0
 11
28.57500000000001
 21
-1.976932570172308
 31
0.0
1001
PE_URL
1000

  0
SPLINE
  5
AF
330
1F
100
AcDbEntity
  8
0
  6
Continuous
 62
     1
370
    15
100
AcDbSpline
210
0.0
220
0.0
230
1.0
 70
     8
 71
     3
 72
    12
 73
     8
 74
     0
 42
0.000000001
 43
0.00000001
 40
0.0
 40
0.0
 40
0.0
 40
0.0
 40
0.1304159876964065
 40
0.3476809440562484
 40
0.564988687597782
 40
0.7824062842901633
 40
1.0
 40
1.0
 40
1.0
 40
1.0
 10
24.29168271455007
 20
2.166952389649499
 30
0.0
 10
24.47787231619943
 20
2.168561414772101
 30
0.0
 10
24.97424225993363
 20
2.172850976071432
 30
0.0
 10
25.78081547682883
 20
2.032595534964413
 30
0.0
 10
26.71164099752455
 20
1.768491827172178
 30
0.0
 10
27.64301312054464
 20
1.395816447138766
 30
0.0
 10
28.26425386817787
 20
1.082263236821365
 30
0.0
 10
28.57500000000002
 20
0.9254231589646611
 30
0.0
1001
PE_URL
1000

  0
LINE
  5
B0
330
1F
100
AcDbEntity
  8
0
  6
Continuous
 62
     1
370
    15
100
AcDbLine
 10
28.57500000000001
 20
0.1870263201723343
 30
0.0
 11
28.57500000000001
 21
0.9254231589646609
 31
0.0
1001
PE_URL
1000

  0
SPLINE
  5
B1
330
1F
100
AcDbEntity
  8
0
  6
Continuous
 62
     1
370
    15
100
AcDbSpline
210
0.0
220
0.0
230
1.0
 70
     8
 71
     3
 72
    10
 73
     6
 74
     0
 42
0.000000001
 43
0.00000001
 40
0.0
 40
0.0
 40
0.0
 40
0.0
 40
0.4501729088854285
 40
0.8997830065022743
 40
1.0
 40
1.0
 40
1.0
 40
1.0
 10
28.57500000000001
 20
2.17478540682042
 30
0.0
 10
28.27832866182302
 20
2.147020742583382
 30
0.0
 10
27.68535688733562
 20
2.091526125806949
 30
0.0
 10
27.02656394077788
 20
1.940276757798205
 30
0.0
 10
26.66437309534743
 20
1.80699651050887
 30
0.0
 10
26.59835656362681
 20
1.7827035175083
 30
0.0
1001
PE_URL
1000

  0
SPLINE
  5
B2
330
1F
100
AcDbEntity
  8
0
  6
Continuous
 62
     1
370
    15
100
AcDbSpline
210
0.0
220
0.0
230
1.0
 70
     8
 71
     3
 72
     9
 73
     5
 74
     0
 42
0.000000001
 43
0.00000001
 40
0.0
 40
0.0
 40
0.0
 40
0.0
 40
0.1871294341009425
 40
1.0
 40
1.0
 40
1.0
 40
1.0
 10
17.0209761944502
 20
-2.171102707752
 30
0.0
 10
16.94948373628383
 20
-2.174777269847294
 30
0.0
 10
16.56743556460064
 20
-2.194413742927806
 30
0.0
 10
16.18548024047244
 20
-2.133114385212572
 30
0.0
 10
15.87500000000018
 20
-2.08328594161734
 30
0.0
1001
PE_URL
1000

  0
LINE
  5
B3
330
1F
100
AcDbEntity
  8
0
  6
Continuous
 62
     1
370
    15
100
AcDbLine
 10
28.57500000000001
 20
0.9150895626312229
 30
0.0
 11
28.57500000000001
 21
2.17478540682042
 31
0.0
1001
PE_URL
1000

  0
LINE
  5
B4
330
1F
100
AcDbEntity
  8
외형선
  6
Continuous
370
    15
100
AcDbLine
 10
15.875
 20
-2.083285941617307
 30
0.0
 11
15.87500000000001
 21
-1.73085720366942
 31
0.0
  0
LINE
  5
B5
330
1F
100
AcDbEntity
  8
외형선
  6
Continuous
370
    15
100
AcDbLine
 10
14.87500000000001
 20
0.0
 30
0.0
 11
14.87500000000001
 21
2.182812500000001
 31
0.0
  0
LINE
  5
B6
330
1F
100
AcDbEntity
  8
외형선
  6
Continuous
370
    15
100
AcDbLine
 10
14.87500000000001
 20
-2.1828125
 30
0.0
 11
14.87500000000001
 21
0.0
 31
0.0
  0
LINE
  5
B7
330
1F
100
AcDbEntity
  8
외형선
  6
Continuous
370
    15
100
AcDbLine
 10
14.13442116787304
 20
0.0
 30
0.0
 11
14.13442116787304
 21
2.381250000000005
 31
0.0
  0
LINE
  5
B8
330
1F
100
AcDbEntity
  8
외형선
  6
Continuous
370
    15
100
AcDbLine
 10
14.13442116787304
 20
-2.381250000000007
 30
0.0
 11
14.13442116787304
 21
0.0
 31
0.0
  0
SPLINE
  5
BD
330
1F
100
AcDbEntity
  8
외형선
  6
Continuous
370
    15
100
AcDbSpline
210
0.0
220
0.0
230
1.0
 70
     8
 71
     3
 72
     8
 73
     4
 74
     0
 42
0.000000001
 43
0.00000001
 40
0.0
 40
0.0
 40
0.0
 40
0.0
 40
1.0
 40
1.0
 40
1.0
 40
1.0
 10
15.87500000000021
 20
2.083285941617342
 30
0.0
 10
15.70752348780413
 20
2.054439464133746
 30
0.0
 10
15.5425437313665
 20
2.01964286052306
 30
0.0
 10
15.37514252016171
 20
1.978863777052092
 30
0.0
  0
LINE
  5
BE
330
1F
100
AcDbEntity
  8
외형선
  6
Continuous
370
    15
100
AcDbLine
 10
15.3751425201617
 20
1.547093501920171
 30
0.0
 11
15.3751425201617
 21
2.1828125
 31
0.0
  0
SPLINE
  5
BF
330
1F
100
AcDbEntity
  8
외형선
  6
Continuous
370
    15
100
AcDbSpline
210
0.0
220
0.0
230
1.0
 70
     8
 71
     3
 72
     8
 73
     4
 74
     0
 42
0.000000001
 43
0.00000001
 40
0.0
 40
0.0
 40
0.0
 40
0.0
 40
1.0
 40
1.0
 40
1.0
 40
1.0
 10
15.87500000000019
 20
1.329963815546007
 30
0.0
 10
15.70752348780412
 20
1.40658857042694
 30
0.0
 10
15.5425437313665
 20
1.478942977118096
 30
0.0
 10
15.37514252016172
 20
1.54710178856869
 30
0.0
  0
SPLINE
  5
C0
330
1F
100
AcDbEntity
  8
외형선
  6
Continuous
370
    15
100
AcDbSpline
210
0.0
220
0.0
230
1.0
 70
     8
 71
     3
 72
     8
 73
     4
 74
     0
 42
0.000000001
 43
0.00000001
 40
0.0
 40
0.0
 40
0.0
 40
0.0
 40
1.0
 40
1.0
 40
1.0
 40
1.0
 10
15.87500000000021
 20
0.6516057823682976
 30
0.0
 10
15.70752348780413
 20
0.743832497711947
 30
0.0
 10
15.5425437313665
 20
0.8336955174999262
 30
0.0
 10
15.37514252016171
 20
0.9212863626622226
 30
0.0
  0
SPLINE
  5
C1
330
1F
100
AcDbEntity
  8
외형선
  6
Continuous
370
    15
100
AcDbSpline
210
0.0
220
0.0
230
1.0
 70
     8
 71
     3
 72
     8
 73
     4
 74
     0
 42
0.000000001
 43
0.00000001
 40
0.0
 40
0.0
 40
0.0
 40
0.0
 40
1.0
 40
1.0
 40
1.0
 40
1.0
 10
15.87500000000019
 20
-1.730857203669484
 30
0.0
 10
15.70752348780412
 20
-1.671979931095712
 30
0.0
 10
15.5425437313665
 20
-1.608332419120585
 30
0.0
 10
15.37514252016172
 20
-1.539852741648952
 30
0.0
  0
SPLINE
  5
C2
330
1F
100
AcDbEntity
  8
외형선
  6
Continuous
370
    15
100
AcDbSpline
210
0.0
220
0.0
230
1.0
 70
     8
 71
     3
 72
     8
 73
     4
 74
     0
 42
0.000000001
 43
0.00000001
 40
0.0
 40
0.0
 40
0.0
 40
0.0
 40
1.0
 40
1.0
 40
1.0
 40
1.0
 10
15.87500000000021
 20
-2.083285941617342
 30
0.0
 10
15.70752348780413
 20
-2.054439464133746
 30
0.0
 10
15.5425437313665
 20
-2.019642860523059
 30
0.0
 10
15.37514252016171
 20
-1.978863777052092
 30
0.0
  0
LINE
  5
C3
330
1F
100
AcDbEntity
  8
외형선
  6
Continuous
370
    15
100
AcDbLine
 10
15.3751425201617
 20
-2.1828125
 30
0.0
 11
15.3751425201617
 21
-1.978862088564424
 31
0.0
  0
LINE
  5
C4
330
1F
100
AcDbEntity
  8
외형선
  6
Continuous
370
    15
100
AcDbLine
 10
15.3751425201617
 20
-1.539861067263087
 30
0.0
 11
15.3751425201617
 21
0.921289989416313
 31
0.0
  0
SPLINE
  5
C5
330
1F
100
AcDbEntity
  8
외형선
  6
Continuous
370
    15
100
AcDbSpline
210
0.0
220
0.0
230
1.0
 70
    24
 71
     3
 72
    14
 73
    10
 74
     0
 42
0.000000001
 43
0.00000001
 40
0.0
 40
0.0
 40
0.0
 40
0.0
 40
0.1449121694642401
 40
0.2904684263216017
 40
0.4360246831790213
 40
0.5815809400364125
 40
0.727137196893801
 40
0.8726934537511833
 40
1.0
 40
1.0
 40
1.0
 40
1.0
 10
15.87500000000001
 20
-1.730857203669422
 30
0.0
 10
15.875
 20
-1.635001068640262
 30
0.0
 10
15.87499999999999
 20
-1.442862749283573
 30
0.0
 10
15.87500000000001
 20
-1.033924781966099
 30
0.0
 10
15.87500000000001
 20
-0.5909396003009284
 30
0.0
 10
15.87500000000002
 20
-0.152218758346376
 30
0.0
 10
15.875
 20
0.2251795596558755
 30
0.0
 10
15.875
 20
0.5046638168176107
 30
0.0
 10
15.87499999999999
 20
0.5793879682564681
 30
0.0
 10
15.875
 20
0.6142511798513149
 30
0.0
  0
SPLINE
  5
C6
330
1F
100
AcDbEntity
  8
외형선
  6
Continuous
370
    15
100
AcDbSpline
210
0.0
220
0.0
230
1.0
 70
    24
 71
     3
 72
    12
 73
     8
 74
     0
 42
0.000000001
 43
0.00000001
 40
0.0
 40
0.0
 40
0.0
 40
0.0
 40
0.1194890192261076
 40
0.4067553554942568
 40
0.702352434974989
 40
0.8506243520291001
 40
1.0
 40
1.0
 40
1.0
 40
1.0
 10
15.87500000000001
 20
1.3692386236977
 30
0.0
 10
15.875
 20
1.393900900678088
 30
0.0
 10
15.87499999999997
 20
1.477854332595317
 30
0.0
 10
15.87500000000003
 20
1.643115534150328
 30
0.0
 10
15.87500000000004
 20
1.821654621822167
 30
0.0
 10
15.87499999999998
 20
1.970436654419897
 30
0.0
 10
15.87499999999999
 20
2.045576635012891
 30
0.0
 10
15.875
 20
2.083285941617351
 30
0.0
  0
LINE
  5
C7
330
1F
100
AcDbEntity
  8
중심선
 62
     1
100
AcDbLine
 10
-31.575
 20
-0.0000000000000039
 30
0.0
 11
31.575
 21
0.0000000000000039
 31
0.0
  0
LINE
  5
C8
330
1F
100
AcDbEntity
  8
참조1
100
AcDbLine
 10
-0.0000000000000018
 20
-0.0000000000000039
 30
0.0
 11
0.0000000000000053
 21
-40.00000000000001
 31
0.0
  0
LINE
  5
C9
330
1F
100
AcDbEntity
  8
참조1
100
AcDbLine
 10
0.0000000000000053
 20
-40.00000000000001
 30
0.0
 11
-18.33385681430867
 21
-40.0
 31
0.0
  0
CIRCLE
  5
CA
330
1F
100
AcDbEntity
  8
해칭선
100
AcDbCircle
 10
0.0
 20
0.0
 30
0.0
 40
2.999999999999999
  0
INSERT
  5
CB
330
1F
100
AcDbEntity
  8
0
  6
Continuous
 62
     7
100
AcDbBlockReference
 66
     1
  2
블럭10
 10
-13.9402729321252
 20
-52.04717430164393
 30
0.0
  0
ATTRIB
  5
CC
330
CB
100
AcDbEntity
  8
FORMAT
 62
     2
100
AcDbText
 10
-23.12156822086648
 20
-49.97180738881175
 30
0.0
 40
4.233333333333333
  1
E1004011 [ 4 FLUTE ]
 41
0.75
  7
SLDTEXTSTYLE0
 11
-23.12156822086648
 21
-52.08847405547841
 31
0.0
100
AcDbAttribute
  2
AUTOATTR0
 70
     0
 74
     1
  0
SEQEND
  5
CD
330
CB
100
AcDbEntity
  8
0
  6
Continuous
 62
     7
  0
HATCH
  5
CE
330
1F
100
AcDbEntity
  8
중심선
100
AcDbHatch
 10
0.0
 20
0.0
 30
0.0
210
0.0
220
0.0
230
1.0
  2
SOLID
 70
     1
 71
     0
 91
        1
 92
        0
 93
        4
 72
     1
 10
-8.22536362774435
 20
-35.8
 11
-11.67163887158163
 21
-35.8
 72
     1
 10
-11.67163887158163
 20
-35.8
 11
-13.79986873078565
 21
-38.3363255805726
 72
     1
 10
-13.79986873078565
 20
-38.3363255805726
 11
-10.35356040183522
 21
-38.33628615127011
 72
     1
 10
-10.35356040183522
 20
-38.33628615127011
 11
-8.22536362774435
 21
-35.8
 97
        0
 75
     0
 76
     1
 98
        1
 10
10.91911934298439
 20
-0.0010749287238931
  0
HATCH
  5
CF
330
1F
100
AcDbEntity
  8
중심선
100
AcDbHatch
 10
0.0
 20
0.0
 30
0.0
210
0.0
220
0.0
230
1.0
  2
SOLID
 70
     1
 71
     0
 91
        1
 92
        0
 93
        4
 72
     1
 10
-3.21259963670837
 20
-35.80000000000003
 11
-6.658874880545653
 21
-35.79999999999998
 72
     1
 10
-6.658874880545653
 20
-35.79999999999998
 11
-11.19001288890307
 21
-41.20000000000002
 72
     1
 10
-11.19001288890307
 20
-41.20000000000002
 11
-7.743737645065789
 21
-41.20000000000002
 72
     1
 10
-7.743737645065789
 20
-41.20000000000002
 11
-3.21259963670837
 21
-35.80000000000003
 97
        0
 75
     0
 76
     1
 98
        1
 10
10.91911934298439
 20
-0.0010749287238931
  0
HATCH
  5
D0
330
1F
100
AcDbEntity
  8
중심선
100
AcDbHatch
 10
0.0
 20
0.0
 30
0.0
210
0.0
220
0.0
230
1.0
  2
SOLID
 70
     1
 71
     0
 91
        1
 92
        0
 93
        4
 72
     1
 10
1.800164354327524
 20
-35.8
 11
-1.646110889509592
 21
-35.8
 72
     1
 10
-1.646110889509592
 20
-35.8
 11
-8.694547791398868
 21
-44.20000000000002
 72
     1
 10
-8.694547791398868
 20
-44.20000000000002
 11
-5.248272547561587
 21
-44.20000000000002
 72
     1
 10
-5.248272547561587
 20
-44.20000000000002
 11
1.800164354327524
 21
-35.8
 97
        0
 75
     0
 76
     1
 98
        1
 10
10.91911934298439
 20
-0.0010749287238931
  0
HATCH
  5
D1
330
1F
100
AcDbEntity
  8
중심선
100
AcDbHatch
 10
0.0
 20
0.0
 30
0.0
210
0.0
220
0.0
230
1.0
  2
SOLID
 70
     1
 71
     0
 91
        1
 92
        0
 93
        6
 72
     3
 10
6.600054785339696
 20
-40.00000000005127
 11
3.960054785062283
 21
1.540882976769353E-10
 40
0.3939339440162628
 50
17.09539180608437
 51
320.0019657685075
 73
     0
 72
     1
 10
8.283054441040292
 20
-38.58789400463827
 11
10.58835631474136
 21
-36.65356729459038
 72
     3
 10
6.600054785286849
 20
-40.00000000000015
 11
6.600054785286829
 21
-1.278976924368180E-13
 40
0.636358354079598
 50
39.99873849337385
 51
368.4976242363725
 73
     1
 72
     1
 10
13.02538727718746
 20
-39.03999999993002
 11
5.280122092122772
 21
-39.03999999993002
 72
     1
 10
5.280122092122772
 20
-39.03999999993002
 11
5.280097047676838
 21
-40.95999999992991
 72
     1
 10
5.280097047676838
 20
-40.95999999992991
 11
9.721476817148876
 21
-40.95999999992988
 97
        0
 75
     0
 76
     1
 98
        1
 10
10.91911934298439
 20
-0.0010749287238931
  0
DIMENSION
  5
D2
330
1F
100
AcDbEntity
  8
치수문자_일반주서
100
AcDbDimension
  2
_D
 10
63.22505819530703
 20
-2.174785406820291
 30
0.0
 11
63.22505819530694
 21
23.66181250000013
 31
0.0
 70
   160
  1
%%c<>
 71
     2
 42
4.34957081364084
 52
-270.0
  3
SLDDIMSTYLE0
100
AcDbAlignedDimension
 13
28.57500000000001
 23
2.17478540682042
 33
0.0
 14
28.57500000000001
 24
-2.17478540682042
 34
0.0
 50
90.0000000000002
100
AcDbRotatedDimension
1001
PE_URL
1000

1001
ACAD
1000
DSTYLE
1002
{
1070
   171
1070
     8
1070
   273
1070
     7
1002
}
  0
DIMENSION
  5
E7
330
1F
100
AcDbEntity
  8
치수문자_일반주서
100
AcDbDimension
  2
_D_1
 10
15.87499999999999
 20
12.38125000000001
 30
0.0
 11
46.11650000000001
 21
12.38125000000001
 31
0.0
 70
   160
  1
<>
 71
     2
 42
12.70000000000002
  3
SLDDIMSTYLE0
100
AcDbAlignedDimension
 13
28.57500000000001
 23
2.17478540682042
 33
0.0
 14
15.87499999999999
 24
2.083285941617351
 34
0.0
 50
-0.0000000000000321
100
AcDbRotatedDimension
1001
PE_URL
1000

1001
ACAD
1000
DSTYLE
1002
{
1070
   171
1070
     8
1070
   273
1070
     7
1002
}
  0
DIMENSION
  5
FC
330
1F
100
AcDbEntity
  8
치수문자_일반주서
100
AcDbDimension
  2
_D_2
 10
-28.57500000000001
 20
22.38125000000001
 30
0.0
 11
-1.4581794861211
 21
22.38125000000001
 31
0.0
 70
   160
  1
<>
 71
     2
 42
57.15000000000002
  3
SLDDIMSTYLE0
100
AcDbAlignedDimension
 13
28.57500000000001
 23
2.17478540682042
 33
0.0
 14
-28.57500000000001
 24
2.174785406820388
 34
0.0
100
AcDbRotatedDimension
1001
PE_URL
1000

1001
ACAD
1000
DSTYLE
1002
{
1070
   171
1070
     8
1070
   273
1070
     7
1002
}
  0
DIMENSION
  5
110
330
1F
100
AcDbEntity
  8
치수문자_일반주서
100
AcDbDimension
  2
_D_3
 10
-38.57499999999999
 20
-2.381250000000094
 30
0.0
 11
-38.57500000000007
 21
22.98524999999997
 31
0.0
 70
   160
  1
%%c<>
 71
     2
 42
4.762500000000003
 52
-270.0
  3
SLDDIMSTYLE0
100
AcDbAlignedDimension
 13
-14.13442116787304
 23
2.38125
 33
0.0
 14
-14.13442116787304
 24
-2.381250000000002
 34
0.0
 50
90.0000000000002
100
AcDbRotatedDimension
1001
PE_URL
1000

1001
ACAD
1000
DSTYLE
1002
{
1070
   171
1070
     8
1070
   273
1070
     7
1002
}
  0
LINE
  5
124
330
1F
100
AcDbEntity
  8
참조1
100
AcDbLine
 10
79.6384838153456
 20
7.440000000000002
 30
0.0
 11
79.6384838153456
 21
-7.440000000000002
 31
0.0
  0
LINE
  5
125
330
1F
100
AcDbEntity
  8
참조1
100
AcDbLine
 10
92.3384838153456
 20
5.440000000000002
 30
0.0
 11
79.6384838153456
 21
5.440000000000002
 31
0.0
  0
SOLID
  5
126
330
1F
100
AcDbEntity
  8
참조1
100
AcDbTrace
 10
79.6384838153456
 20
5.440000000000002
 30
0.0
 11
85.98848381534559
 21
4.424000000000002
 31
0.0
 12
85.98848381534559
 22
6.456000000000002
 32
0.0
 13
85.98848381534559
 23
6.456000000000002
 33
0.0
  0
LINE
  5
127
330
1F
100
AcDbEntity
  8
참조1
100
AcDbLine
 10
92.3384838153456
 20
-5.440000000000002
 30
0.0
 11
79.6384838153456
 21
-5.440000000000002
 31
0.0
  0
SOLID
  5
128
330
1F
100
AcDbEntity
  8
참조1
100
AcDbTrace
 10
79.6384838153456
 20
-5.440000000000002
 30
0.0
 11
85.98848381534559
 21
-6.456000000000002
 31
0.0
 12
85.98848381534559
 22
-4.424000000000002
 32
0.0
 13
85.98848381534559
 23
-4.424000000000002
 33
0.0
  0
MTEXT
  5
129
330
1F
100
AcDbEntity
  8
참조1
100
AcDbMText
 10
89.02283394797159
 20
11.01029177718833
 30
0.0
 40
3.5
 41
0.0
 71
     1
 72
     1
  1
A
  7
SLDTEXTSTYLE0
 73
     1
 44
1.0
  0
MTEXT
  5
12A
330
1F
100
AcDbEntity
  8
참조1
100
AcDbMText
 10
89.02283394797159
 20
0.1302917771883287
 30
0.0
 40
3.5
 41
0.0
 71
     1
 72
     1
  1
A
  7
SLDTEXTSTYLE0
 73
     1
 44
1.0
  0
INSERT
  5
131
330
1F
100
AcDbEntity
  8
해칭선
100
AcDbBlockReference
  2
SW_DOWELSYMBOL_0
 10
0.0
 20
0.0
 30
0.0
  0
LINE
  5
1E7
330
1F
100
AcDbEntity
  8
0
  6
Continuous
 62
     1
370
    15
100
AcDbLine
 10
-16.38222487550999
 20
-0.3642675809468813
 30
0.0
 11
-15.875
 21
-0.6205266410327253
 31
0.0
1001
PE_URL
1000

  0
LINE
  5
1E8
330
1F
100
AcDbEntity
  8
0
  6
Continuous
 62
     1
370
    15
100
AcDbLine
 10
-25.40102610486073
 20
0.6323673568475352
 30
0.0
 11
-25.44281600706493
 21
0.6547890843167201
 31
0.0
1001
PE_URL
1000

  0
LINE
  5
1E9
330
1F
100
AcDbEntity
  8
0
  6
Continuous
 62
     1
370
    15
100
AcDbLine
 10
-22.96041610795902
 20
2.18281249999998
 30
0.0
 11
-24.29168271455006
 21
2.182812499999977
 31
0.0
1001
PE_URL
1000

  0
LINE
  5
1EA
330
1F
100
AcDbEntity
  8
0
  6
Continuous
 62
     1
370
    15
100
AcDbLine
 10
-18.35371974096564
 20
-2.182812500000013
 30
0.0
 11
-17.02097619445018
 21
-2.182812500000011
 31
0.0
1001
PE_URL
1000

  0
LINE
  5
1EB
330
1F
100
AcDbEntity
  8
0
  6
Continuous
 62
     1
370
    15
100
AcDbLine
 10
-24.29168271455006
 20
-2.182812500000025
 30
0.0
 11
-22.96041610795905
 21
-2.182812500000022
 31
0.0
1001
PE_URL
1000

  0
LINE
  5
1EC
330
1F
100
AcDbEntity
  8
0
  6
Continuous
 62
     1
370
    15
100
AcDbLine
 10
-17.02097619445019
 20
2.18281249999999
 30
0.0
 11
-18.35371974096562
 21
2.182812499999989
 31
0.0
1001
PE_URL
1000

  0
LINE
  5
1ED
330
1F
100
AcDbEntity
  8
외형선
  6
Continuous
370
    15
100
AcDbLine
 10
-14.13442116787304
 20
2.38125
 30
0.0
 11
-14.87500000000001
 21
2.182812499999994
 31
0.0
  0
LINE
  5
1EE
330
1F
100
AcDbEntity
  8
외형선
  6
Continuous
370
    15
100
AcDbLine
 10
-14.875
 20
-2.182812500000006
 30
0.0
 11
-14.13442116787303
 21
-2.38125000000001
 31
0.0
  0
LINE
  5
1EF
330
1F
100
AcDbEntity
  8
외형선
  6
Continuous
370
    15
100
AcDbLine
 10
-14.87500000000001
 20
2.182812499999994
 30
0.0
 11
-15.3751425201617
 21
2.182812499999993
 31
0.0
  0
LINE
  5
1F0
330
1F
100
AcDbEntity
  8
외형선
  6
Continuous
370
    15
100
AcDbLine
 10
-15.37514252016169
 20
-2.182812500000007
 30
0.0
 11
-14.875
 21
-2.182812500000006
 31
0.0
  0
SPLINE
  5
1F1
330
1F
100
AcDbEntity
  8
0
  6
Continuous
 62
     1
370
    15
100
AcDbSpline
210
0.0
220
0.0
230
1.0
 70
     8
 71
     3
 72
    19
 73
    15
 74
     0
 42
0.000000001
 43
0.00000001
 40
0.0
 40
0.0
 40
0.0
 40
0.0
 40
0.0829355365835977
 40
0.1659442702655831
 40
0.248849461995834
 40
0.3316873058919654
 40
0.4145147192294735
 40
0.4973887443432173
 40
0.5803658654762274
 40
0.6633459980262632
 40
0.7501754996037447
 40
0.8369683370465684
 40
0.9237513518563096
 40
1.0
 40
1.0
 40
1.0
 40
1.0
 10
-15.87500000000019
 20
-1.329963815546017
 30
0.0
 10
-16.17145138898024
 20
-1.1871472547479
 30
0.0
 10
-16.76461580848004
 20
-0.9013880863654202
 30
0.0
 10
-17.65445437236706
 20
-0.4041448040430386
 30
0.0
 10
-18.5435574271227
 20
0.1105111022081824
 30
0.0
 10
-19.43189824264563
 20
0.620320746277166
 30
0.0
 10
-20.32010329274461
 20
1.095608384148993
 30
0.0
 10
-21.20888329303094
 20
1.510813051101646
 30
0.0
 10
-22.09852574881975
 20
1.8427343675351
 30
0.0
 10
-23.0022904640884
 20
2.076789549064496
 30
0.0
 10
-23.91948536699881
 20
2.194769595332975
 30
0.0
 10
-24.85021895306756
 20
2.179221632385
 30
0.0
 10
-25.74310110029064
 20
2.0480873740523
 30
0.0
 10
-26.32582234383295
 20
1.867270276084693
 30
0.0
 10
-26.59835656362681
 20
1.782703517508272
 30
0.0
1001
PE_URL
1000

  0
SPLINE
  5
1F2
330
1F
100
AcDbEntity
  8
외형선
  6
Continuous
370
    15
100
AcDbSpline
210
0.0
220
0.0
230
1.0
 70
    24
 71
     3
 72
    11
 73
     7
 74
     0
 42
0.000000001
 43
0.00000001
 40
0.0
 40
0.0
 40
0.0
 40
0.0
 40
0.234627304058665
 40
0.4737012574202569
 40
0.7614449436549501
 40
1.0
 40
1.0
 40
1.0
 40
1.0
 10
-15.87499999999999
 20
-2.083285941617315
 30
0.0
 10
-15.87500000000001
 20
-2.024095439318289
 30
0.0
 10
-15.87500000000004
 20
-1.904592658178309
 30
0.0
 10
-15.87500000000001
 20
-1.716451124778771
 30
0.0
 10
-15.875
 20
-1.533222981701945
 30
0.0
 10
-15.87499999999999
 20
-1.420384735305443
 30
0.0
 10
-15.875
 20
-1.369238623697708
 30
0.0
  0
SPLINE
  5
1F3
330
1F
100
AcDbEntity
  8
0
  6
Continuous
 62
     1
370
    15
100
AcDbSpline
210
0.0
220
0.0
230
1.0
 70
     8
 71
     3
 72
    46
 73
    42
 74
     0
 42
0.000000001
 43
0.00000001
 40
0.0
 40
0.0
 40
0.0
 40
0.0
 40
0.0624999999999986
 40
0.0624999999999986
 40
0.1249999999999971
 40
0.1249999999999971
 40
0.156249999999997
 40
0.156249999999997
 40
0.1874999999999969
 40
0.1874999999999969
 40
0.2499999999999967
 40
0.2499999999999967
 40
0.3124999999999964
 40
0.3124999999999964
 40
0.3749999999999962
 40
0.3749999999999962
 40
0.4062499999999967
 40
0.4062499999999967
 40
0.4374999999999972
 40
0.4374999999999972
 40
0.499999999999997
 40
0.499999999999997
 40
0.5312499999999969
 40
0.5312499999999969
 40
0.5624999999999967
 40
0.5624999999999967
 40
0.6249999999999977
 40
0.6249999999999977
 40
0.6874999999999987
 40
0.6874999999999987
 40
0.7499999999999997
 40
0.7499999999999997
 40
0.7812500000000002
 40
0.7812500000000002
 40
0.8125000000000008
 40
0.8125000000000008
 40
0.8750000000000006
 40
0.8750000000000006
 40
0.9375000000000003
 40
0.9375000000000003
 40
1.0
 40
1.0
 40
1.0
 40
1.0
 10
-28.57500000000001
 20
2.174785406820388
 30
0.0
 10
-28.31313133492353
 20
2.161742471574815
 30
0.0
 10
-28.04531998794615
 20
2.132560780905913
 30
0.0
 10
-27.51529046896594
 20
2.043457039245738
 30
0.0
 10
-27.25369572764262
 20
1.983785275087725
 30
0.0
 10
-26.85484537998569
 20
1.872623828009562
 30
0.0
 10
-26.72180716264867
 20
1.832034053859697
 30
0.0
 10
-26.45774562263884
 20
1.744499449019978
 30
0.0
 10
-26.32725658673886
 20
1.697637718997925
 30
0.0
 10
-25.93050685039921
 20
1.547353412820114
 30
0.0
 10
-25.66248990173914
 20
1.434497818106167
 30
0.0
 10
-25.1369440004482
 20
1.19097690495861
 30
0.0
 10
-24.87114296677415
 20
1.059090922545986
 30
0.0
 10
-24.34031457233079
 20
0.7817921755110293
 30
0.0
 10
-24.079155668837
 20
0.6371331686163215
 30
0.0
 10
-23.68048050800754
 20
0.4134725508870026
 30
0.0
 10
-23.54732057139087
 20
0.3379680634025866
 30
0.0
 10
-23.28266201768697
 20
0.1863101033714705
 30
0.0
 10
-23.15211389920896
 20
0.1103420373125402
 30
0.0
 10
-22.75630868721108
 20
-0.1185479941234868
 30
0.0
 10
-22.48820600080709
 20
-0.2721954024302577
 30
0.0
 10
-22.09285851519267
 20
-0.4967107171217095
 30
0.0
 10
-21.96215814428999
 20
-0.5705755747141568
 30
0.0
 10
-21.69727862643968
 20
-0.7165888090567536
 30
0.0
 10
-21.56408445200911
 20
-0.7885477011521951
 30
0.0
 10
-21.16553812027317
 20
-0.9994852233397553
 30
0.0
 10
-20.90445623263144
 20
-1.132994023623208
 30
0.0
 10
-20.37335617452787
 20
-1.382960100485231
 30
0.0
 10
-20.10830995078492
 20
-1.498547463281397
 30
0.0
 10
-19.58205670000397
 20
-1.705657915832043
 30
0.0
 10
-19.31398826889136
 20
-1.79799813939552
 30
0.0
 10
-18.91762280981517
 20
-1.915075087762831
 30
0.0
 10
-18.78715912686379
 20
-1.950511875568976
 30
0.0
 10
-18.52282738332567
 20
-2.014417476803995
 30
0.0
 10
-18.38972975699506
 20
-2.042796960464402
 30
0.0
 10
-17.99093313131387
 20
-2.116448245886889
 30
0.0
 10
-17.72956932513845
 20
-2.150087372762742
 30
0.0
 10
-17.19916864791169
 20
-2.185744849658133
 30
0.0
 10
-16.93226285329315
 20
-2.187518719909553
 30
0.0
 10
-16.40772214751675
 20
-2.159202398744698
 30
0.0
 10
-16.13980791314593
 20
-2.12889696732998
 30
0.0
 10
-15.87500000000016
 20
-2.083285941617349
 30
0.0
1001
PE_URL
1000

  0
SPLINE
  5
1F4
330
1F
100
AcDbEntity
  8
0
  6
Continuous
 62
     1
370
    15
100
AcDbSpline
210
0.0
220
0.0
230
1.0
 70
     8
 71
     3
 72
    13
 73
     9
 74
     0
 42
0.000000001
 43
0.00000001
 40
0.0
 40
0.0
 40
0.0
 40
0.0
 40
0.1863060663103882
 40
0.3727765622974689
 40
0.5590144620475087
 40
0.7451010718853314
 40
0.9311642505568957
 40
1.0
 40
1.0
 40
1.0
 40
1.0
 10
-15.8750000000002
 20
1.730857203669475
 30
0.0
 10
-16.17145134445191
 20
1.825885546642809
 30
0.0
 10
-16.76461567485574
 20
2.016026102535424
 30
0.0
 10
-17.65445490713653
 20
2.164025773014279
 30
0.0
 10
-18.54355542527579
 20
2.201613513686855
 30
0.0
 10
-19.43190570934508
 20
2.109823227215137
 30
0.0
 10
-20.13342388753747
 20
1.96473812002773
 30
0.0
 10
-20.53899258966013
 20
1.820095862863687
 30
0.0
 10
-20.64851688530064
 20
1.781035054539887
 30
0.0
1001
PE_URL
1000

  0
SPLINE
  5
1F5
330
1F
100
AcDbEntity
  8
외형선
  6
Continuous
370
    15
100
AcDbSpline
210
0.0
220
0.0
230
1.0
 70
    24
 71
     3
 72
    21
 73
    17
 74
     0
 42
0.000000001
 43
0.00000001
 40
0.0
 40
0.0
 40
0.0
 40
0.0
 40
0.0503835888741739
 40
0.1280314949320044
 40
0.2034910682515768
 40
0.2811389743094119
 40
0.3565985476289851
 40
0.4342464536868205
 40
0.5097060270063932
 40
0.5873539330642278
 40
0.6628135063835889
 40
0.7404614124416349
 40
0.8159209857611475
 40
0.8935688918190419
 40
0.9464182198429381
 40
1.0
 40
1.0
 40
1.0
 40
1.0
 10
-15.875
 20
-0.578297618782283
 30
0.0
 10
-15.87499999999999
 20
-0.5627281506739636
 30
0.0
 10
-15.87499999999998
 20
-0.5231640322428139
 30
0.0
 10
-15.87500000000002
 20
-0.4212980420547063
 30
0.0
 10
-15.87499999999999
 20
-0.2801490484544417
 30
0.0
 10
-15.87500000000003
 20
-0.1124255254523871
 30
0.0
 10
-15.87499999999998
 20
0.0784311460200462
 30
0.0
 10
-15.87500000000002
 20
0.2840414869370334
 30
0.0
 10
-15.87500000000002
 20
0.5021641434147812
 30
0.0
 10
-15.87500000000006
 20
0.7227294017778585
 30
0.0
 10
-15.87499999999997
 20
0.9434657195039711
 30
0.0
 10
-15.87500000000002
 20
1.154115251098055
 30
0.0
 10
-15.87499999999997
 20
1.352653702836325
 30
0.0
 10
-15.87500000000002
 20
1.511861053272874
 30
0.0
 10
-15.87500000000002
 20
1.638306428136174
 30
0.0
 10
-15.87500000000001
 20
1.699865729423214
 30
0.0
 10
-15.87500000000001
 20
1.730857203669413
 30
0.0
  0
SPLINE
  5
1F6
330
1F
100
AcDbEntity
  8
0
  6
Continuous
 62
     1
370
    15
100
AcDbSpline
210
0.0
220
0.0
230
1.0
 70
     8
 71
     3
 72
    15
 73
    11
 74
     0
 42
0.000000001
 43
0.00000001
 40
0.0
 40
0.0
 40
0.0
 40
0.0
 40
0.085940876508509
 40
0.2113368763586549
 40
0.3426818929611839
 40
0.4740421779388618
 40
0.6054583530340758
 40
0.7369706324896758
 40
0.8685387665802191
 40
1.0
 40
1.0
 40
1.0
 40
1.0
 10
-22.96041610795902
 20
2.16980245738545
 30
0.0
 10
-22.75742259966317
 20
2.169507247667988
 30
0.0
 10
-22.25824205011314
 20
2.168781298595863
 30
0.0
 10
-21.44910174568071
 20
2.027331107783402
 30
0.0
 10
-20.53257075997052
 20
1.766446788188966
 30
0.0
 10
-19.60185062260274
 20
1.390157634162558
 30
0.0
 10
-18.6706457188412
 20
0.9309676835837186
 30
0.0
 10
-17.73880541106261
 20
0.4159484174258366
 30
0.0
 10
-16.8067106655734
 20
-0.1267294633424656
 30
0.0
 10
-16.18548606227348
 20
-0.4766944204010437
 30
0.0
 10
-15.87500000000017
 20
-0.6516057823683175
 30
0.0
1001
PE_URL
1000

  0
LINE
  5
1F7
330
1F
100
AcDbEntity
  8
0
  6
Continuous
 62
     1
370
    15
100
AcDbLine
 10
-28.57500000000001
 20
1.976932570172276
 30
0.0
 11
-28.575
 21
-0.1870263201723661
 31
0.0
1001
PE_URL
1000

  0
SPLINE
  5
1F8
330
1F
100
AcDbEntity
  8
0
  6
Continuous
 62
     1
370
    15
100
AcDbSpline
210
0.0
220
0.0
230
1.0
 70
     8
 71
     3
 72
    19
 73
    15
 74
     0
 42
0.000000001
 43
0.00000001
 40
0.0
 40
0.0
 40
0.0
 40
0.0
 40
0.0185944405545459
 40
0.1055008752352444
 40
0.1923963670591635
 40
0.2793407600023809
 40
0.3663933125383979
 40
0.4534490243975542
 40
0.5445431675124189
 40
0.6355988457291898
 40
0.726644218873059
 40
0.817707522082541
 40
0.9088168595042473
 40
1.0
 40
1.0
 40
1.0
 40
1.0
 10
-18.35371974096564
 20
-2.172693819403887
 30
0.0
 10
-18.41707381657573
 20
-2.1758157626907
 30
0.0
 10
-18.77653127951882
 20
-2.193529000592498
 30
0.0
 10
-19.43188656046009
 20
-2.107493991012072
 30
0.0
 10
-20.32010642598409
 20
-1.912967935544001
 30
0.0
 10
-21.20888244710297
 20
-1.602892409903717
 30
0.0
 10
-22.09852599436646
 20
-1.207477748159649
 30
0.0
 10
-23.00229032241547
 20
-0.7375965514722613
 30
0.0
 10
-23.91948569147131
 20
-0.2169436684243135
 30
0.0
 10
-24.85021780439168
 20
0.3244612343967186
 30
0.0
 10
-25.78081667531989
 20
0.8468823914888388
 30
0.0
 10
-26.71164067772855
 20
1.3159355220868
 30
0.0
 10
-27.64301320058604
 20
1.714205725158884
 30
0.0
 10
-28.26425389486553
 20
1.889333321069693
 30
0.0
 10
-28.57500000000002
 20
1.976932570172276
 30
0.0
1001
PE_URL
1000

  0
SPLINE
  5
1F9
330
1F
100
AcDbEntity
  8
0
  6
Continuous
 62
     1
370
    15
100
AcDbSpline
210
0.0
220
0.0
230
1.0
 70
     8
 71
     3
 72
    16
 73
    12
 74
     0
 42
0.000000001
 43
0.00000001
 40
0.0
 40
0.0
 40
0.0
 40
0.0
 40
0.1122556626993465
 40
0.2243709820979691
 40
0.3364223575242186
 40
0.4484869538884753
 40
0.5606417775845253
 40
0.6729375366107742
 40
0.7851366462845133
 40
0.8972214205175447
 40
1.0
 40
1.0
 40
1.0
 40
1.0
 10
-28.57500000000002
 20
-0.1870263201723661
 30
0.0
 10
-28.27832801924573
 20
-0.3565062809842875
 30
0.0
 10
-27.6853549604071
 20
-0.6952543168418808
 30
0.0
 10
-26.79656285785826
 20
-1.162681874351223
 30
0.0
 10
-25.90835513895477
 20
-1.566708582131438
 30
0.0
 10
-25.02002076164933
 20
-1.884417263368116
 30
0.0
 10
-24.13092426415901
 20
-2.098334490500937
 30
0.0
 10
-23.24110150226032
 20
-2.197369377326046
 30
0.0
 10
-22.35172733570944
 20
-2.172958731925836
 30
0.0
 10
-21.48772742588314
 20
-2.042374271408974
 30
0.0
 10
-20.92005807124988
 20
-1.865595909595921
 30
0.0
 10
-20.64851688530067
 20
-1.781035054539922
 30
0.0
1001
PE_URL
1000

  0
LINE
  5
1FA
330
1F
100
AcDbEntity
  8
외형선
  6
Continuous
370
    15
100
AcDbLine
 10
-15.87499999999999
 20
-0.6516057823684187
 30
0.0
 11
-15.875
 21
-1.329963815546099
 31
0.0
  0
LINE
  5
1FB
330
1F
100
AcDbEntity
  8
0
  6
Continuous
 62
     1
370
    15
100
AcDbLine
 10
-28.57500000000001
 20
2.174785406820388
 30
0.0
 11
-28.57500000000001
 21
1.976932570172276
 31
0.0
1001
PE_URL
1000

  0
SPLINE
  5
1FC
330
1F
100
AcDbEntity
  8
0
  6
Continuous
 62
     1
370
    15
100
AcDbSpline
210
0.0
220
0.0
230
1.0
 70
     8
 71
     3
 72
    12
 73
     8
 74
     0
 42
0.000000001
 43
0.00000001
 40
0.0
 40
0.0
 40
0.0
 40
0.0
 40
0.1304159876964065
 40
0.3476809440562484
 40
0.564988687597782
 40
0.7824062842901633
 40
1.0
 40
1.0
 40
1.0
 40
1.0
 10
-24.29168271455006
 20
-2.166952389649523
 30
0.0
 10
-24.47787231619942
 20
-2.168561414772124
 30
0.0
 10
-24.97424225993362
 20
-2.172850976071456
 30
0.0
 10
-25.78081547682883
 20
-2.032595534964439
 30
0.0
 10
-26.71164099752454
 20
-1.768491827172207
 30
0.0
 10
-27.64301312054463
 20
-1.395816447138797
 30
0.0
 10
-28.26425386817786
 20
-1.082263236821397
 30
0.0
 10
-28.57500000000002
 20
-0.9254231589646922
 30
0.0
1001
PE_URL
1000

  0
LINE
  5
1FD
330
1F
100
AcDbEntity
  8
0
  6
Continuous
 62
     1
370
    15
100
AcDbLine
 10
-28.575
 20
-0.1870263201723661
 30
0.0
 11
-28.575
 21
-0.9254231589646922
 31
0.0
1001
PE_URL
1000

  0
SPLINE
  5
1FE
330
1F
100
AcDbEntity
  8
0
  6
Continuous
 62
     1
370
    15
100
AcDbSpline
210
0.0
220
0.0
230
1.0
 70
     8
 71
     3
 72
    10
 73
     6
 74
     0
 42
0.000000001
 43
0.00000001
 40
0.0
 40
0.0
 40
0.0
 40
0.0
 40
0.4501729088854285
 40
0.8997830065022743
 40
1.0
 40
1.0
 40
1.0
 40
1.0
 10
-28.575
 20
-2.174785406820452
 30
0.0
 10
-28.27832866182302
 20
-2.147020742583412
 30
0.0
 10
-27.68535688733561
 20
-2.091526125806979
 30
0.0
 10
-27.02656394077787
 20
-1.940276757798234
 30
0.0
 10
-26.66437309534742
 20
-1.806996510508899
 30
0.0
 10
-26.5983565636268
 20
-1.782703517508327
 30
0.0
1001
PE_URL
1000

  0
SPLINE
  5
1FF
330
1F
100
AcDbEntity
  8
0
  6
Continuous
 62
     1
370
    15
100
AcDbSpline
210
0.0
220
0.0
230
1.0
 70
     8
 71
     3
 72
     9
 73
     5
 74
     0
 42
0.000000001
 43
0.00000001
 40
0.0
 40
0.0
 40
0.0
 40
0.0
 40
0.1871294341009425
 40
1.0
 40
1.0
 40
1.0
 40
1.0
 10
-17.02097619445019
 20
2.17110270775199
 30
0.0
 10
-16.94948373628383
 20
2.174777269847285
 30
0.0
 10
-16.56743556460064
 20
2.194413742927797
 30
0.0
 10
-16.18548024047244
 20
2.133114385212564
 30
0.0
 10
-15.87500000000018
 20
2.083285941617332
 30
0.0
1001
PE_URL
1000

  0
LINE
  5
200
330
1F
100
AcDbEntity
  8
0
  6
Continuous
 62
     1
370
    15
100
AcDbLine
 10
-28.575
 20
-0.9150895626312552
 30
0.0
 11
-28.575
 21
-2.174785406820452
 31
0.0
1001
PE_URL
1000

  0
LINE
  5
201
330
1F
100
AcDbEntity
  8
외형선
  6
Continuous
370
    15
100
AcDbLine
 10
-15.87499999999999
 20
2.0832859416173
 30
0.0
 11
-15.87500000000001
 21
1.730857203669413
 31
0.0
  0
LINE
  5
202
330
1F
100
AcDbEntity
  8
외형선
  6
Continuous
370
    15
100
AcDbLine
 10
-14.875
 20
-0.0000000000000068
 30
0.0
 11
-14.875
 21
-2.182812500000006
 31
0.0
  0
LINE
  5
203
330
1F
100
AcDbEntity
  8
외형선
  6
Continuous
370
    15
100
AcDbLine
 10
-14.87500000000001
 20
2.182812499999994
 30
0.0
 11
-14.875
 21
-0.0000000000000068
 31
0.0
  0
LINE
  5
204
330
1F
100
AcDbEntity
  8
외형선
  6
Continuous
370
    15
100
AcDbLine
 10
-14.13442116787303
 20
-0.0000000000000051
 30
0.0
 11
-14.13442116787303
 21
-2.38125000000001
 31
0.0
  0
LINE
  5
205
330
1F
100
AcDbEntity
  8
외형선
  6
Continuous
370
    15
100
AcDbLine
 10
-14.13442116787304
 20
2.381250000000002
 30
0.0
 11
-14.13442116787303
 21
-0.0000000000000051
 31
0.0
  0
SPLINE
  5
206
330
1F
100
AcDbEntity
  8
외형선
  6
Continuous
370
    15
100
AcDbSpline
210
0.0
220
0.0
230
1.0
 70
     8
 71
     3
 72
     8
 73
     4
 74
     0
 42
0.000000001
 43
0.00000001
 40
0.0
 40
0.0
 40
0.0
 40
0.0
 40
1.0
 40
1.0
 40
1.0
 40
1.0
 10
-15.8750000000002
 20
-2.083285941617349
 30
0.0
 10
-15.70752348780412
 20
-2.054439464133754
 30
0.0
 10
-15.54254373136649
 20
-2.019642860523067
 30
0.0
 10
-15.3751425201617
 20
-1.978863777052099
 30
0.0
  0
LINE
  5
207
330
1F
100
AcDbEntity
  8
외형선
  6
Continuous
370
    15
100
AcDbLine
 10
-15.37514252016168
 20
-1.547093501920178
 30
0.0
 11
-15.37514252016169
 21
-2.182812500000007
 31
0.0
  0
SPLINE
  5
208
330
1F
100
AcDbEntity
  8
외형선
  6
Continuous
370
    15
100
AcDbSpline
210
0.0
220
0.0
230
1.0
 70
     8
 71
     3
 72
     8
 73
     4
 74
     0
 42
0.000000001
 43
0.00000001
 40
0.0
 40
0.0
 40
0.0
 40
0.0
 40
1.0
 40
1.0
 40
1.0
 40
1.0
 10
-15.87500000000018
 20
-1.329963815546016
 30
0.0
 10
-15.70752348780411
 20
-1.406588570426947
 30
0.0
 10
-15.54254373136649
 20
-1.478942977118104
 30
0.0
 10
-15.37514252016171
 20
-1.547101788568698
 30
0.0
  0
SPLINE
  5
209
330
1F
100
AcDbEntity
  8
외형선
  6
Continuous
370
    15
100
AcDbSpline
210
0.0
220
0.0
230
1.0
 70
     8
 71
     3
 72
     8
 73
     4
 74
     0
 42
0.000000001
 43
0.00000001
 40
0.0
 40
0.0
 40
0.0
 40
0.0
 40
1.0
 40
1.0
 40
1.0
 40
1.0
 10
-15.8750000000002
 20
-0.651605782368305
 30
0.0
 10
-15.70752348780412
 20
-0.7438324977119544
 30
0.0
 10
-15.54254373136649
 20
-0.833695517499933
 30
0.0
 10
-15.3751425201617
 20
-0.9212863626622292
 30
0.0
  0
SPLINE
  5
20A
330
1F
100
AcDbEntity
  8
외형선
  6
Continuous
370
    15
100
AcDbSpline
210
0.0
220
0.0
230
1.0
 70
     8
 71
     3
 72
     8
 73
     4
 74
     0
 42
0.000000001
 43
0.00000001
 40
0.0
 40
0.0
 40
0.0
 40
0.0
 40
1.0
 40
1.0
 40
1.0
 40
1.0
 10
-15.87500000000018
 20
1.730857203669476
 30
0.0
 10
-15.70752348780412
 20
1.671979931095704
 30
0.0
 10
-15.5425437313665
 20
1.608332419120578
 30
0.0
 10
-15.37514252016171
 20
1.539852741648945
 30
0.0
  0
SPLINE
  5
20B
330
1F
100
AcDbEntity
  8
외형선
  6
Continuous
370
    15
100
AcDbSpline
210
0.0
220
0.0
230
1.0
 70
     8
 71
     3
 72
     8
 73
     4
 74
     0
 42
0.000000001
 43
0.00000001
 40
0.0
 40
0.0
 40
0.0
 40
0.0
 40
1.0
 40
1.0
 40
1.0
 40
1.0
 10
-15.87500000000021
 20
2.083285941617334
 30
0.0
 10
-15.70752348780412
 20
2.054439464133738
 30
0.0
 10
-15.5425437313665
 20
2.019642860523052
 30
0.0
 10
-15.37514252016171
 20
1.978863777052086
 30
0.0
  0
LINE
  5
20C
330
1F
100
AcDbEntity
  8
외형선
  6
Continuous
370
    15
100
AcDbLine
 10
-15.3751425201617
 20
2.182812499999993
 30
0.0
 11
-15.3751425201617
 21
1.978862088564417
 31
0.0
  0
LINE
  5
20D
330
1F
100
AcDbEntity
  8
외형선
  6
Continuous
370
    15
100
AcDbLine
 10
-15.37514252016169
 20
1.53986106726308
 30
0.0
 11
-15.3751425201617
 21
-0.9212899894163209
 31
0.0
  0
SPLINE
  5
20E
330
1F
100
AcDbEntity
  8
외형선
  6
Continuous
370
    15
100
AcDbSpline
210
0.0
220
0.0
230
1.0
 70
    24
 71
     3
 72
    14
 73
    10
 74
     0
 42
0.000000001
 43
0.00000001
 40
0.0
 40
0.0
 40
0.0
 40
0.0
 40
0.1449121694642401
 40
0.2904684263216017
 40
0.4360246831790213
 40
0.5815809400364125
 40
0.727137196893801
 40
0.8726934537511833
 40
1.0
 40
1.0
 40
1.0
 40
1.0
 10
-15.87500000000001
 20
1.730857203669414
 30
0.0
 10
-15.875
 20
1.635001068640255
 30
0.0
 10
-15.87499999999999
 20
1.442862749283565
 30
0.0
 10
-15.875
 20
1.033924781966091
 30
0.0
 10
-15.875
 20
0.5909396003009209
 30
0.0
 10
-15.87500000000001
 20
0.1522187583463686
 30
0.0
 10
-15.875
 20
-0.225179559655883
 30
0.0
 10
-15.87499999999999
 20
-0.5046638168176185
 30
0.0
 10
-15.87499999999998
 20
-0.5793879682564762
 30
0.0
 10
-15.87499999999999
 20
-0.6142511798513224
 30
0.0
  0
SPLINE
  5
20F
330
1F
100
AcDbEntity
  8
외형선
  6
Continuous
370
    15
100
AcDbSpline
210
0.0
220
0.0
230
1.0
 70
    24
 71
     3
 72
    12
 73
     8
 74
     0
 42
0.000000001
 43
0.00000001
 40
0.0
 40
0.0
 40
0.0
 40
0.0
 40
0.1194890192261076
 40
0.4067553554942568
 40
0.702352434974989
 40
0.8506243520291001
 40
1.0
 40
1.0
 40
1.0
 40
1.0
 10
-15.875
 20
-1.369238623697708
 30
0.0
 10
-15.87499999999999
 20
-1.393900900678096
 30
0.0
 10
-15.87499999999996
 20
-1.477854332595326
 30
0.0
 10
-15.87500000000002
 20
-1.643115534150336
 30
0.0
 10
-15.87500000000003
 20
-1.821654621822175
 30
0.0
 10
-15.87499999999997
 20
-1.970436654419906
 30
0.0
 10
-15.87499999999998
 20
-2.045576635012897
 30
0.0
 10
-15.87499999999999
 20
-2.083285941617358
 30
0.0
  0
ENDSEC
  0
SECTION
  2
OBJECTS
  0
DICTIONARY
  5
C
330
0
100
AcDbDictionary
281
     1
  3
ACAD_DETAILVIEWSTYLE
350
1B6
  3
ACAD_GROUP
350
D
  3
ACAD_LAYOUT
350
1A
  3
ACAD_MLINESTYLE
350
17
  3
ACAD_PLOTSETTINGS
350
19
  3
ACAD_PLOTSTYLENAME
350
E
  3
ACAD_SCALELIST
350
47
  3
ACAD_SECTIONVIEWSTYLE
350
1B7
  3
AcDbVariableDictionary
350
1B1
  3
APPDATA
350
153
  3
DWGPROPS
350
210
  0
DICTIONARY
  5
18C
330
2
100
AcDbDictionary
280
     1
281
     1
  3
ACAD_LAYERSTATES
360
18D
  0
DICTIONARY
  5
1B6
102
{ACAD_REACTORS
330
C
102
}
330
C
100
AcDbDictionary
281
     1
  0
DICTIONARY
  5
D
102
{ACAD_REACTORS
330
C
102
}
330
C
100
AcDbDictionary
281
     1
  0
DICTIONARY
  5
1A
102
{ACAD_REACTORS
330
C
102
}
330
C
100
AcDbDictionary
281
     1
  3
Layout1
350
1E
  3
Layout2
350
26
  3
Model
350
22
  0
DICTIONARY
  5
17
102
{ACAD_REACTORS
330
C
102
}
330
C
100
AcDbDictionary
281
     1
  3
Standard
350
18
  0
DICTIONARY
  5
19
102
{ACAD_REACTORS
330
C
102
}
330
C
100
AcDbDictionary
281
     1
  0
ACDBDICTIONARYWDFLT
  5
E
102
{ACAD_REACTORS
330
C
102
}
330
C
100
AcDbDictionary
281
     1
  3
Normal
350
F
100
AcDbDictionaryWithDefault
340
F
  0
DICTIONARY
  5
47
102
{ACAD_REACTORS
330
C
102
}
330
C
100
AcDbDictionary
281
     1
  3
A0
350
48
  3
A1
350
49
  3
A2
350
4A
  3
A3
350
4B
  3
A4
350
4C
  3
A5
350
4D
  3
A6
350
4E
  3
A7
350
4F
  3
A8
350
50
  3
A9
350
51
  3
B0
350
52
  3
B1
350
53
  3
B2
350
54
  3
B3
350
55
  3
B4
350
56
  3
B5
350
57
  3
B6
350
58
  3
B7
350
59
  3
B8
350
5A
  3
B9
350
5B
  3
C0
350
5C
  3
C1
350
5D
  3
C2
350
5E
  3
C3
350
5F
  3
C4
350
60
  3
C5
350
61
  3
C6
350
62
  3
C7
350
63
  3
C8
350
64
  3
C9
350
65
  3
D0
350
66
  3
D1
350
67
  3
D2
350
68
  0
DICTIONARY
  5
1B7
102
{ACAD_REACTORS
330
C
102
}
330
C
100
AcDbDictionary
281
     1
  0
DICTIONARY
  5
1B1
102
{ACAD_REACTORS
330
C
102
}
330
C
100
AcDbDictionary
281
     1
  0
DICTIONARY
  5
153
102
{ACAD_REACTORS
330
C
102
}
330
C
100
AcDbDictionary
281
     1
  0
XRECORD
  5
210
102
{ACAD_REACTORS
330
C
102
}
330
C
100
AcDbXrecord
280
     1
  1
DWGPROPS COOKIE
  2

  3

  4

  6

  7

  8
120170442
  9

300
=
301
=
302
=
303
=
304
=
305
=
306
=
307
=
308
=
309
=
 40
0.0
 41
2458313.083740532
 42
2458317.379307512
  1

 90
        0
  0
DICTIONARY
  5
18D
102
{ACAD_REACTORS
330
18C
102
}
330
18C
100
AcDbDictionary
281
     1
  0
LAYOUT
  5
1E
102
{ACAD_REACTORS
330
1A
102
}
330
1A
100
AcDbPlotSettings
  1

  2
none_device
  4

  6

 40
0.0
 41
0.0
 42
0.0
 43
0.0
 44
0.0
 45
0.0
 46
0.0
 47
0.0
 48
0.0
 49
0.0
140
0.0
141
0.0
142
1.0
143
1.0
 70
   688
 72
     1
 73
     0
 74
     5
  7

 75
    16
147
1.0
148
0.0
149
0.0
100
AcDbLayout
  1
Layout1
 70
     1
 71
     1
 10
0.0
 20
0.0
 11
420.0
 21
297.0
 12
0.0
 22
0.0
 32
0.0
 14
1.000000000000000E+20
 24
1.000000000000000E+20
 34
1.000000000000000E+20
 15
-1.000000000000000E+20
 25
-1.000000000000000E+20
 35
-1.000000000000000E+20
146
0.0
 13
0.0
 23
0.0
 33
0.0
 16
1.0
 26
0.0
 36
0.0
 17
0.0
 27
1.0
 37
0.0
 76
     0
330
1B
  0
LAYOUT
  5
26
102
{ACAD_REACTORS
330
1A
102
}
330
1A
100
AcDbPlotSettings
  1

  2
none_device
  4

  6

 40
0.0
 41
0.0
 42
0.0
 43
0.0
 44
0.0
 45
0.0
 46
0.0
 47
0.0
 48
0.0
 49
0.0
140
0.0
141
0.0
142
1.0
143
1.0
 70
   688
 72
     1
 73
     0
 74
     5
  7

 75
    16
147
1.0
148
0.0
149
0.0
100
AcDbLayout
  1
Layout2
 70
     1
 71
     2
 10
0.0
 20
0.0
 11
0.0
 21
0.0
 12
0.0
 22
0.0
 32
0.0
 14
0.0
 24
0.0
 34
0.0
 15
0.0
 25
0.0
 35
0.0
146
0.0
 13
0.0
 23
0.0
 33
0.0
 16
1.0
 26
0.0
 36
0.0
 17
0.0
 27
1.0
 37
0.0
 76
     0
330
23
  0
LAYOUT
  5
22
102
{ACAD_REACTORS
330
1A
102
}
330
1A
100
AcDbPlotSettings
  1

  2
none_device
  4
ANSI_A_(11.00_x_8.50_Inches)
  6

 40
6.35
 41
19.05
 42
6.35000508
 43
19.05000254
 44
279.4
 45
215.9
 46
110.8622442514253
 47
79.89231256034104
 48
0.0
 49
0.0
140
0.0
141
0.0
142
0.0720472657763707
143
1.0
 70
  1696
 72
     0
 73
     0
 74
     0
  7

 75
     0
147
0.0235690232323232
148
0.0
149
0.0
100
AcDbLayout
  1
Model
 70
     1
 71
     0
 10
0.0
 20
0.0
 11
420.0
 21
297.0
 12
0.0
 22
0.0
 32
0.0
 14
-42.95000000000011
 24
-49.97180738881175
 34
0.0
 15
92.3384838153456
 25
38.53681250000014
 35
0.0
146
0.0
 13
0.0
 23
0.0
 33
0.0
 16
1.0
 26
0.0
 36
0.0
 17
0.0
 27
1.0
 37
0.0
 76
     0
330
1F
331
29
  0
MLINESTYLE
  5
18
102
{ACAD_REACTORS
330
17
102
}
330
17
100
AcDbMlineStyle
  2
Standard
 70
     0
  3

 62
   256
 51
90.0
 52
90.0
 71
     2
 49
0.5
 62
   256
  6
BYLAYER
 49
-0.5
 62
   256
  6
BYLAYER
  0
ACDBPLACEHOLDER
  5
F
102
{ACAD_REACTORS
330
E
102
}
330
E
  0
SCALE
  5
48
102
{ACAD_REACTORS
330
47
102
}
330
47
100
AcDbScale
 70
     0
300
1:1
140
1.0
141
1.0
290
     1
  0
SCALE
  5
49
102
{ACAD_REACTORS
330
47
102
}
330
47
100
AcDbScale
 70
     0
300
1:2
140
1.0
141
2.0
290
     0
  0
SCALE
  5
4A
102
{ACAD_REACTORS
330
47
102
}
330
47
100
AcDbScale
 70
     0
300
1:4
140
1.0
141
4.0
290
     0
  0
SCALE
  5
4B
102
{ACAD_REACTORS
330
47
102
}
330
47
100
AcDbScale
 70
     0
300
1:5
140
1.0
141
5.0
290
     0
  0
SCALE
  5
4C
102
{ACAD_REACTORS
330
47
102
}
330
47
100
AcDbScale
 70
     0
300
1:8
140
1.0
141
8.0
290
     0
  0
SCALE
  5
4D
102
{ACAD_REACTORS
330
47
102
}
330
47
100
AcDbScale
 70
     0
300
1:10
140
1.0
141
10.0
290
     0
  0
SCALE
  5
4E
102
{ACAD_REACTORS
330
47
102
}
330
47
100
AcDbScale
 70
     0
300
1:16
140
1.0
141
16.0
290
     0
  0
SCALE
  5
4F
102
{ACAD_REACTORS
330
47
102
}
330
47
100
AcDbScale
 70
     0
300
1:20
140
1.0
141
20.0
290
     0
  0
SCALE
  5
50
102
{ACAD_REACTORS
330
47
102
}
330
47
100
AcDbScale
 70
     0
300
1:30
140
1.0
141
30.0
290
     0
  0
SCALE
  5
51
102
{ACAD_REACTORS
330
47
102
}
330
47
100
AcDbScale
 70
     0
300
1:40
140
1.0
141
40.0
290
     0
  0
SCALE
  5
52
102
{ACAD_REACTORS
330
47
102
}
330
47
100
AcDbScale
 70
     0
300
1:50
140
1.0
141
50.0
290
     0
  0
SCALE
  5
53
102
{ACAD_REACTORS
330
47
102
}
330
47
100
AcDbScale
 70
     0
300
1:100
140
1.0
141
100.0
290
     0
  0
SCALE
  5
54
102
{ACAD_REACTORS
330
47
102
}
330
47
100
AcDbScale
 70
     0
300
2:1
140
2.0
141
1.0
290
     0
  0
SCALE
  5
55
102
{ACAD_REACTORS
330
47
102
}
330
47
100
AcDbScale
 70
     0
300
4:1
140
4.0
141
1.0
290
     0
  0
SCALE
  5
56
102
{ACAD_REACTORS
330
47
102
}
330
47
100
AcDbScale
 70
     0
300
8:1
140
8.0
141
1.0
290
     0
  0
SCALE
  5
57
102
{ACAD_REACTORS
330
47
102
}
330
47
100
AcDbScale
 70
     0
300
10:1
140
10.0
141
1.0
290
     0
  0
SCALE
  5
58
102
{ACAD_REACTORS
330
47
102
}
330
47
100
AcDbScale
 70
     0
300
100:1
140
100.0
141
1.0
290
     0
  0
SCALE
  5
59
102
{ACAD_REACTORS
330
47
102
}
330
47
100
AcDbScale
 70
     0
300
1/128" = 1'-0"
140
0.0078125
141
12.0
290
     0
  0
SCALE
  5
5A
102
{ACAD_REACTORS
330
47
102
}
330
47
100
AcDbScale
 70
     0
300
1/64" = 1'-0"
140
0.015625
141
12.0
290
     0
  0
SCALE
  5
5B
102
{ACAD_REACTORS
330
47
102
}
330
47
100
AcDbScale
 70
     0
300
1/32" = 1'-0"
140
0.03125
141
12.0
290
     0
  0
SCALE
  5
5C
102
{ACAD_REACTORS
330
47
102
}
330
47
100
AcDbScale
 70
     0
300
1/16" = 1'-0"
140
0.0625
141
12.0
290
     0
  0
SCALE
  5
5D
102
{ACAD_REACTORS
330
47
102
}
330
47
100
AcDbScale
 70
     0
300
3/32" = 1'-0"
140
0.09375
141
12.0
290
     0
  0
SCALE
  5
5E
102
{ACAD_REACTORS
330
47
102
}
330
47
100
AcDbScale
 70
     0
300
1/8" = 1'-0"
140
0.125
141
12.0
290
     0
  0
SCALE
  5
5F
102
{ACAD_REACTORS
330
47
102
}
330
47
100
AcDbScale
 70
     0
300
3/16" = 1'-0"
140
0.1875
141
12.0
290
     0
  0
SCALE
  5
60
102
{ACAD_REACTORS
330
47
102
}
330
47
100
AcDbScale
 70
     0
300
1/4" = 1'-0"
140
0.25
141
12.0
290
     0
  0
SCALE
  5
61
102
{ACAD_REACTORS
330
47
102
}
330
47
100
AcDbScale
 70
     0
300
3/8" = 1'-0"
140
0.375
141
12.0
290
     0
  0
SCALE
  5
62
102
{ACAD_REACTORS
330
47
102
}
330
47
100
AcDbScale
 70
     0
300
1/2" = 1'-0"
140
0.5
141
12.0
290
     0
  0
SCALE
  5
63
102
{ACAD_REACTORS
330
47
102
}
330
47
100
AcDbScale
 70
     0
300
3/4" = 1'-0"
140
0.75
141
12.0
290
     0
  0
SCALE
  5
64
102
{ACAD_REACTORS
330
47
102
}
330
47
100
AcDbScale
 70
     0
300
1" = 1'-0"
140
1.0
141
12.0
290
     0
  0
SCALE
  5
65
102
{ACAD_REACTORS
330
47
102
}
330
47
100
AcDbScale
 70
     0
300
1-1/2" = 1'-0"
140
1.5
141
12.0
290
     0
  0
SCALE
  5
66
102
{ACAD_REACTORS
330
47
102
}
330
47
100
AcDbScale
 70
     0
300
3" = 1'-0"
140
3.0
141
12.0
290
     0
  0
SCALE
  5
67
102
{ACAD_REACTORS
330
47
102
}
330
47
100
AcDbScale
 70
     0
300
6" = 1'-0"
140
6.0
141
12.0
290
     0
  0
SCALE
  5
68
102
{ACAD_REACTORS
330
47
102
}
330
47
100
AcDbScale
 70
     0
300
1'-0" = 1'-0"
140
12.0
141
12.0
290
     0
  0
ENDSEC
  0
EOF
