  0
SECTION
  2
HEADER
  9
$ACADVER
  1
AC1015
  9
$ACADMAINTVER
 70
     6
  9
$DWGCODEPAGE
  3
ANSI_949
  9
$INSBASE
 10
0.0
 20
0.0
 30
0.0
  9
$EXTMIN
 10
-49.12500000000005
 20
-49.97180738881174
 30
0.0
  9
$EXTMAX
 10
81.21241335422454
 20
40.75625000000002
 30
0.0
  9
$LIMMIN
 10
0.0
 20
0.0
  9
$LIMMAX
 10
420.0
 20
297.0
  9
$ORTHOMODE
 70
     1
  9
$REGENMODE
 70
     1
  9
$FILLMODE
 70
     1
  9
$QTEXTMODE
 70
     0
  9
$MIRRTEXT
 70
     1
  9
$LTSCALE
 40
1.0
  9
$ATTMODE
 70
     1
  9
$TEXTSIZE
 40
3.5
  9
$TRACEWID
 40
1.0
  9
$TEXTSTYLE
  7
Standard
  9
$CLAYER
  8
0
  9
$CELTYPE
  6
ByLayer
  9
$CECOLOR
 62
   256
  9
$CELTSCALE
 40
1.0
  9
$DISPSILH
 70
     0
  9
$DIMSCALE
 40
1.0
  9
$DIMASZ
 40
3.302
  9
$DIMEXO
 40
1.0
  9
$DIMDLI
 40
3.75
  9
$DIMRND
 40
0.0
  9
$DIMDLE
 40
0.0
  9
$DIMEXE
 40
1.0
  9
$DIMTP
 40
0.0
  9
$DIMTM
 40
0.0
  9
$DIMTXT
 40
3.5
  9
$DIMCEN
 40
2.5
  9
$DIMTSZ
 40
0.0
  9
$DIMTOL
 70
     0
  9
$DIMLIM
 70
     0
  9
$DIMTIH
 70
     1
  9
$DIMTOH
 70
     1
  9
$DIMSE1
 70
     0
  9
$DIMSE2
 70
     0
  9
$DIMTAD
 70
     1
  9
$DIMZIN
 70
     0
  9
$DIMBLK
  1

  9
$DIMASO
 70
     1
  9
$DIMSHO
 70
     1
  9
$DIMPOST
  1

  9
$DIMAPOST
  1

  9
$DIMALT
 70
     0
  9
$DIMALTD
 70
     3
  9
$DIMALTF
 40
0.0393700787401575
  9
$DIMLFAC
 40
1.0
  9
$DIMTOFL
 70
     1
  9
$DIMTVP
 40
0.0
  9
$DIMTIX
 70
     0
  9
$DIMSOXD
 70
     0
  9
$DIMSAH
 70
     0
  9
$DIMBLK1
  1

  9
$DIMBLK2
  1

  9
$DIMSTYLE
  2
ISO-25
  9
$DIMCLRD
 70
     0
  9
$DIMCLRE
 70
     0
  9
$DIMCLRT
 70
     0
  9
$DIMTFAC
 40
1.0
  9
$DIMGAP
 40
1.524
  9
$DIMJUST
 70
     0
  9
$DIMSD1
 70
     0
  9
$DIMSD2
 70
     0
  9
$DIMTOLJ
 70
     0
  9
$DIMTZIN
 70
     0
  9
$DIMALTZ
 70
     0
  9
$DIMALTTZ
 70
     0
  9
$DIMUPT
 70
     0
  9
$DIMDEC
 70
     2
  9
$DIMTDEC
 70
     2
  9
$DIMALTU
 70
     2
  9
$DIMALTTD
 70
     3
  9
$DIMTXSTY
  7
Standard
  9
$DIMAUNIT
 70
     0
  9
$DIMADEC
 70
     2
  9
$DIMALTRND
 40
0.0
  9
$DIMAZIN
 70
     0
  9
$DIMDSEP
 70
    44
  9
$DIMATFIT
 70
     3
  9
$DIMFRAC
 70
     0
  9
$DIMLDRBLK
  1

  9
$DIMLUNIT
 70
     2
  9
$DIMLWD
 70
    -2
  9
$DIMLWE
 70
    -2
  9
$DIMTMOVE
 70
     0
  9
$LUNITS
 70
     2
  9
$LUPREC
 70
     2
  9
$SKETCHINC
 40
1.0
  9
$FILLETRAD
 40
10.0
  9
$AUNITS
 70
     0
  9
$AUPREC
 70
     2
  9
$MENU
  1
.
  9
$ELEVATION
 40
0.0
  9
$PELEVATION
 40
0.0
  9
$THICKNESS
 40
0.0
  9
$LIMCHECK
 70
     0
  9
$CHAMFERA
 40
0.0
  9
$CHAMFERB
 40
0.0
  9
$CHAMFERC
 40
0.0
  9
$CHAMFERD
 40
0.0
  9
$SKPOLY
 70
     0
  9
$TDCREATE
 40
2458313.411824363
  9
$TDUCREATE
 40
2458313.036824363
  9
$TDUPDATE
 40
2458320.74848691
  9
$TDUUPDATE
 40
2458320.37348691
  9
$TDINDWG
 40
0.0036326157
  9
$TDUSRTIMER
 40
2458320.37145272
  9
$USRTIMER
 70
     1
  9
$ANGBASE
 50
0.0
  9
$ANGDIR
 70
     0
  9
$PDMODE
 70
     0
  9
$PDSIZE
 40
-1.0
  9
$PLINEWID
 40
0.0
  9
$SPLFRAME
 70
     0
  9
$SPLINETYPE
 70
     6
  9
$SPLINESEGS
 70
     8
  9
$HANDSEED
  5
3FC
  9
$SURFTAB1
 70
     6
  9
$SURFTAB2
 70
     6
  9
$SURFTYPE
 70
     6
  9
$SURFU
 70
     6
  9
$SURFV
 70
     6
  9
$UCSBASE
  2

  9
$UCSNAME
  2

  9
$UCSORG
 10
0.0
 20
0.0
 30
0.0
  9
$UCSXDIR
 10
1.0
 20
0.0
 30
0.0
  9
$UCSYDIR
 10
0.0
 20
1.0
 30
0.0
  9
$UCSORTHOREF
  2

  9
$UCSORTHOVIEW
 70
     0
  9
$UCSORGTOP
 10
0.0
 20
0.0
 30
0.0
  9
$UCSORGBOTTOM
 10
0.0
 20
0.0
 30
0.0
  9
$UCSORGLEFT
 10
0.0
 20
0.0
 30
0.0
  9
$UCSORGRIGHT
 10
0.0
 20
0.0
 30
0.0
  9
$UCSORGFRONT
 10
0.0
 20
0.0
 30
0.0
  9
$UCSORGBACK
 10
0.0
 20
0.0
 30
0.0
  9
$PUCSBASE
  2

  9
$PUCSNAME
  2

  9
$PUCSORG
 10
0.0
 20
0.0
 30
0.0
  9
$PUCSXDIR
 10
1.0
 20
0.0
 30
0.0
  9
$PUCSYDIR
 10
0.0
 20
1.0
 30
0.0
  9
$PUCSORTHOREF
  2

  9
$PUCSORTHOVIEW
 70
     0
  9
$PUCSORGTOP
 10
0.0
 20
0.0
 30
0.0
  9
$PUCSORGBOTTOM
 10
0.0
 20
0.0
 30
0.0
  9
$PUCSORGLEFT
 10
0.0
 20
0.0
 30
0.0
  9
$PUCSORGRIGHT
 10
0.0
 20
0.0
 30
0.0
  9
$PUCSORGFRONT
 10
0.0
 20
0.0
 30
0.0
  9
$PUCSORGBACK
 10
0.0
 20
0.0
 30
0.0
  9
$USERI1
 70
     0
  9
$USERI2
 70
     0
  9
$USERI3
 70
     0
  9
$USERI4
 70
     0
  9
$USERI5
 70
     0
  9
$USERR1
 40
0.0
  9
$USERR2
 40
0.0
  9
$USERR3
 40
0.0
  9
$USERR4
 40
0.0
  9
$USERR5
 40
0.0
  9
$WORLDVIEW
 70
     1
  9
$SHADEDGE
 70
     3
  9
$SHADEDIF
 70
    70
  9
$TILEMODE
 70
     1
  9
$MAXACTVP
 70
    64
  9
$PINSBASE
 10
0.0
 20
0.0
 30
0.0
  9
$PLIMCHECK
 70
     0
  9
$PEXTMIN
 10
1.000000000000000E+20
 20
1.000000000000000E+20
 30
1.000000000000000E+20
  9
$PEXTMAX
 10
-1.000000000000000E+20
 20
-1.000000000000000E+20
 30
-1.000000000000000E+20
  9
$PLIMMIN
 10
0.0
 20
0.0
  9
$PLIMMAX
 10
0.0
 20
0.0
  9
$UNITMODE
 70
     0
  9
$VISRETAIN
 70
     1
  9
$PLINEGEN
 70
     0
  9
$PSLTSCALE
 70
     1
  9
$TREEDEPTH
 70
  3020
  9
$CMLSTYLE
  2
Standard
  9
$CMLJUST
 70
     0
  9
$CMLSCALE
 40
20.0
  9
$PROXYGRAPHICS
 70
     1
  9
$MEASUREMENT
 70
     1
  9
$CELWEIGHT
370
    -1
  9
$ENDCAPS
280
     0
  9
$JOINSTYLE
280
     0
  9
$LWDISPLAY
290
     1
  9
$INSUNITS
 70
     4
  9
$HYPERLINKBASE
  1

  9
$STYLESHEET
  1

  9
$XEDIT
290
     1
  9
$CEPSNTYPE
380
     0
  9
$PSTYLEMODE
290
     1
  9
$FINGERPRINTGUID
  2
{99C9BF28-6EED-4B49-A288-CF4DC47E1E36}
  9
$VERSIONGUID
  2
{FAEB1C32-E019-11D5-929B-00C0DF256EC4}
  9
$EXTNAMES
290
     1
  9
$PSVPSCALE
 40
0.0
  9
$OLESTARTUP
290
     0
  0
ENDSEC
  0
SECTION
  2
CLASSES
  0
CLASS
  1
ACDBDICTIONARYWDFLT
  2
AcDbDictionaryWithDefault
  3
ObjectDBX Classes
 90
        0
280
     0
281
     0
  0
CLASS
  1
VISUALSTYLE
  2
AcDbVisualStyle
  3
ObjectDBX Classes
 90
     4095
280
     0
281
     0
  0
CLASS
  1
MATERIAL
  2
AcDbMaterial
  3
ObjectDBX Classes
 90
     1153
280
     0
281
     0
  0
CLASS
  1
SCALE
  2
AcDbScale
  3
ObjectDBX Classes
 90
     1153
280
     0
281
     0
  0
CLASS
  1
SUN
  2
AcDbSun
  3
SCENEOE
 90
     1153
280
     0
281
     0
  0
CLASS
  1
ACDBPLACEHOLDER
  2
AcDbPlaceHolder
  3
ObjectDBX Classes
 90
        0
280
     0
281
     0
  0
CLASS
  1
LAYOUT
  2
AcDbLayout
  3
ObjectDBX Classes
 90
        0
280
     0
281
     0
  0
CLASS
  1
TABLESTYLE
  2
AcDbTableStyle
  3
ObjectDBX Classes
 90
     4095
280
     0
281
     0
  0
CLASS
  1
MLEADERSTYLE
  2
AcDbMLeaderStyle
  3
ACDB_MLEADERSTYLE_CLASS
 90
     4095
280
     0
281
     0
  0
CLASS
  1
RASTERVARIABLES
  2
AcDbRasterVariables
  3
ISM
 90
        0
280
     0
281
     0
  0
ENDSEC
  0
SECTION
  2
TABLES
  0
TABLE
  2
VPORT
  5
8
330
0
100
AcDbSymbolTable
 70
     1
  0
VPORT
  5
29
330
8
100
AcDbSymbolTableRecord
100
AcDbViewportTableRecord
  2
*Active
 70
     0
 10
0.0
 20
0.0
 11
1.0
 21
1.0
 12
-10.71861273102438
 22
6.124927239326714
 13
0.0
 23
0.0
 14
10.0
 24
10.0
 15
10.0
 25
10.0
 16
0.0
 26
0.0
 36
1.0
 17
0.0
 27
0.0
 37
0.0
 40
158.1997779483615
 41
1.632093933463796
 42
50.0
 43
0.0
 44
0.0
 50
0.0
 51
0.0
 71
    16
 72
  2000
 73
     1
 74
     3
 75
     0
 76
     0
 77
     0
 78
     0
281
     0
 65
     1
110
0.0
120
0.0
130
0.0
111
1.0
121
0.0
131
0.0
112
0.0
122
1.0
132
0.0
 79
     0
146
0.0
  0
ENDTAB
  0
TABLE
  2
LTYPE
  5
5
330
0
100
AcDbSymbolTable
 70
     6
  0
LTYPE
  5
14
330
5
100
AcDbSymbolTableRecord
100
AcDbLinetypeTableRecord
  2
ByBlock
 70
     0
  3

 72
    65
 73
     0
 40
0.0
  0
LTYPE
  5
15
330
5
100
AcDbSymbolTableRecord
100
AcDbLinetypeTableRecord
  2
ByLayer
 70
     0
  3

 72
    65
 73
     0
 40
0.0
  0
LTYPE
  5
16
330
5
100
AcDbSymbolTableRecord
100
AcDbLinetypeTableRecord
  2
Continuous
 70
     0
  3
Solid line
 72
    65
 73
     0
 40
0.0
  0
LTYPE
  5
6A
330
5
100
AcDbSymbolTableRecord
100
AcDbLinetypeTableRecord
  2
HIDDEN
 70
     0
  3
Hidden __ __ __ __ __ __ __ __ __ __ __ __ __ __
 72
    65
 73
     2
 40
1.905
 49
1.27
 74
     0
 49
-0.635
 74
     0
  0
LTYPE
  5
6B
330
5
100
AcDbSymbolTableRecord
100
AcDbLinetypeTableRecord
  2
PHANTOM
 70
     0
  3
Phantom ______  __  __  ______  __  __  ______
 72
    65
 73
     6
 40
12.7
 49
6.35
 74
     0
 49
-1.27
 74
     0
 49
1.27
 74
     0
 49
-1.27
 74
     0
 49
1.27
 74
     0
 49
-1.27
 74
     0
  0
LTYPE
  5
6C
330
5
100
AcDbSymbolTableRecord
100
AcDbLinetypeTableRecord
  2
CENTER
 70
     0
  3
Center ____ _ ____ _ ____ _ ____ _ ____ _ ____
 72
    65
 73
     4
 40
10.16
 49
6.35
 74
     0
 49
-1.27
 74
     0
 49
1.27
 74
     0
 49
-1.27
 74
     0
  0
LTYPE
  5
6D
330
5
100
AcDbSymbolTableRecord
100
AcDbLinetypeTableRecord
  2
CENTERX2
 70
     0
  3
Center (2x) ________  __  ________  __  _____
 72
    65
 73
     4
 40
20.32
 49
12.7
 74
     0
 49
-2.54
 74
     0
 49
2.54
 74
     0
 49
-2.54
 74
     0
  0
LTYPE
  5
6E
330
5
100
AcDbSymbolTableRecord
100
AcDbLinetypeTableRecord
  2
DOT2
 70
     0
  3
Dot (.5x) ........................................
 72
    65
 73
     2
 40
0.635
 49
0.0
 74
     0
 49
-0.635
 74
     0
  0
ENDTAB
  0
TABLE
  2
LAYER
  5
2
102
{ACAD_XDICTIONARY
360
203
102
}
330
0
100
AcDbSymbolTable
 70
    18
  0
LAYER
  5
10
330
2
100
AcDbSymbolTableRecord
100
AcDbLayerTableRecord
  2
0
 70
     0
 62
     7
  6
Continuous
370
    -3
390
F
  0
LAYER
  5
6F
330
2
100
AcDbSymbolTableRecord
100
AcDbLayerTableRecord
  2
FORMAT
 70
     0
 62
     2
  6
Continuous
370
    -3
390
F
  0
LAYER
  5
70
330
2
100
AcDbSymbolTableRecord
100
AcDbLayerTableRecord
  2
외형선
 70
     0
 62
     4
  6
Continuous
370
    30
390
F
  0
LAYER
  5
71
330
2
100
AcDbSymbolTableRecord
100
AcDbLayerTableRecord
  2
숨은선
 70
     0
 62
     2
  6
HIDDEN
370
    15
390
F
  0
LAYER
  5
72
330
2
100
AcDbSymbolTableRecord
100
AcDbLayerTableRecord
  2
중심선
 70
     0
 62
     1
  6
CENTERX2
370
    -3
390
F
  0
LAYER
  5
73
330
2
100
AcDbSymbolTableRecord
100
AcDbLayerTableRecord
  2
파단선
 70
     0
 62
     4
  6
Continuous
370
    -3
390
F
  0
LAYER
  5
74
330
2
100
AcDbSymbolTableRecord
100
AcDbLayerTableRecord
  2
해칭선
 70
     0
 62
   100
  6
Continuous
370
    -3
390
F
  0
LAYER
  5
75
330
2
100
AcDbSymbolTableRecord
100
AcDbLayerTableRecord
  2
가는실선
 70
     0
 62
     4
  6
Continuous
370
    -3
390
F
  0
LAYER
  5
76
330
2
100
AcDbSymbolTableRecord
100
AcDbLayerTableRecord
  2
치수_보조선
 70
     0
 62
     4
  6
Continuous
370
    -3
390
F
  0
LAYER
  5
77
330
2
100
AcDbSymbolTableRecord
100
AcDbLayerTableRecord
  2
치수문자_일반주서
 70
     0
 62
     7
  6
Continuous
370
    15
390
F
  0
LAYER
  5
78
330
2
100
AcDbSymbolTableRecord
100
AcDbLayerTableRecord
  2
개별주서
 70
     0
 62
   100
  6
Continuous
370
    30
390
F
  0
LAYER
  5
79
330
2
100
AcDbSymbolTableRecord
100
AcDbLayerTableRecord
  2
중간선
 70
     0
 62
     2
  6
Continuous
370
    15
390
F
  0
LAYER
  5
7A
330
2
100
AcDbSymbolTableRecord
100
AcDbLayerTableRecord
  2
윤곽선
 70
     0
 62
     3
  6
Continuous
370
    40
390
F
  0
LAYER
  5
7B
330
2
100
AcDbSymbolTableRecord
100
AcDbLayerTableRecord
  2
중심마크
 70
     0
 62
   100
  6
Continuous
370
    30
390
F
  0
LAYER
  5
7C
330
2
100
AcDbSymbolTableRecord
100
AcDbLayerTableRecord
  2
가상선
 70
     0
 62
     4
  6
PHANTOM
370
    -3
390
F
  0
LAYER
  5
7D
330
2
100
AcDbSymbolTableRecord
100
AcDbLayerTableRecord
  2
특수지정선
 70
     0
 62
     5
  6
CENTERX2
370
    60
390
F
  0
LAYER
  5
7E
330
2
100
AcDbSymbolTableRecord
100
AcDbLayerTableRecord
  2
참조1
 70
     0
 62
    -4
  6
Continuous
370
    -3
390
F
  0
LAYER
  5
167
330
2
100
AcDbSymbolTableRecord
100
AcDbLayerTableRecord
  2
Defpoints
 70
     0
 62
     7
  6
Continuous
290
     0
370
    -3
390
F
  0
ENDTAB
  0
TABLE
  2
STYLE
  5
3
330
0
100
AcDbSymbolTable
 70
     2
  0
STYLE
  5
11
330
3
100
AcDbSymbolTableRecord
100
AcDbTextStyleTableRecord
  2
Standard
 70
     0
 40
0.0
 41
1.0
 50
0.0
 71
     0
 42
3.5
  3
txt
  4

  0
STYLE
  5
94
330
3
100
AcDbSymbolTableRecord
100
AcDbTextStyleTableRecord
  2
SLDTEXTSTYLE0
 70
     0
 40
0.0
 41
0.75
 50
0.0
 71
     0
 42
3.5
  3
TXT
  4

  0
ENDTAB
  0
TABLE
  2
VIEW
  5
6
330
0
100
AcDbSymbolTable
 70
     0
  0
ENDTAB
  0
TABLE
  2
UCS
  5
7
330
0
100
AcDbSymbolTable
 70
     0
  0
ENDTAB
  0
TABLE
  2
APPID
  5
9
330
0
100
AcDbSymbolTable
 70
     1
  0
APPID
  5
12
330
9
100
AcDbSymbolTableRecord
100
AcDbRegAppTableRecord
  2
ACAD
 70
     0
  0
ENDTAB
  0
TABLE
  2
DIMSTYLE
  5
A
330
0
100
AcDbSymbolTable
 70
     3
100
AcDbDimStyleTable
  0
DIMSTYLE
105
27
330
A
100
AcDbSymbolTableRecord
100
AcDbDimStyleTableRecord
  2
ISO-25
 70
     0
 41
2.5
 42
0.625
 43
3.75
 44
1.25
 73
     0
 74
     0
 77
     1
 78
     8
140
2.5
141
2.5
143
0.03937007874016
147
0.625
171
     3
172
     1
178
     0
271
     2
272
     2
274
     3
278
    44
283
     0
284
     8
340
11
  0
DIMSTYLE
105
E3
102
{ACAD_REACTORS
330
E2
330
F7
330
10B
330
120
102
}
330
A
100
AcDbSymbolTableRecord
100
AcDbDimStyleTableRecord
  2
SLDDIMSTYLE0
 70
     0
 41
3.302
 44
0.0
 45
0.000000001
 73
     0
 74
     0
 77
     1
 78
    12
 79
     3
140
3.5
143
0.0393700787401575
147
0.875
148
0.000000001
170
     1
172
     1
173
     1
178
     0
271
     2
272
     2
276
     2
284
    12
289
     0
340
94
  0
DIMSTYLE
105
121
330
A
100
AcDbSymbolTableRecord
100
AcDbDimStyleTableRecord
  2
SLDDIMSTYLE1
 70
     0
 41
3.302
 44
0.0
 45
0.000000001
 73
     0
 74
     0
 77
     1
 78
     4
 79
     1
140
3.5
143
0.0393700787401575
147
0.875
148
0.000000001
170
     1
173
     1
178
     0
271
     2
272
     2
276
     2
284
    12
340
94
  0
ENDTAB
  0
TABLE
  2
BLOCK_RECORD
  5
1
330
0
100
AcDbSymbolTable
 70
    19
  0
BLOCK_RECORD
  5
1F
330
1
100
AcDbSymbolTableRecord
100
AcDbBlockTableRecord
  2
*Model_Space
340
22
  0
BLOCK_RECORD
  5
1B
330
1
100
AcDbSymbolTableRecord
100
AcDbBlockTableRecord
  2
*Paper_Space
340
1E
  0
BLOCK_RECORD
  5
23
330
1
100
AcDbSymbolTableRecord
100
AcDbBlockTableRecord
  2
*Paper_Space0
340
26
  0
BLOCK_RECORD
  5
7F
330
1
100
AcDbSymbolTableRecord
100
AcDbBlockTableRecord
  2
블럭10
340
0
102
{BLKREFS
331
DB
102
}
  0
BLOCK_RECORD
  5
E4
330
1
100
AcDbSymbolTableRecord
100
AcDbBlockTableRecord
  2
_D
340
0
  0
BLOCK_RECORD
  5
F8
330
1
100
AcDbSymbolTableRecord
100
AcDbBlockTableRecord
  2
_D_1
340
0
  0
BLOCK_RECORD
  5
10C
330
1
100
AcDbSymbolTableRecord
100
AcDbBlockTableRecord
  2
_D_2
340
0
  0
BLOCK_RECORD
  5
122
330
1
100
AcDbSymbolTableRecord
100
AcDbBlockTableRecord
  2
_D_3
340
0
  0
BLOCK_RECORD
  5
13B
330
1
100
AcDbSymbolTableRecord
100
AcDbBlockTableRecord
  2
SW_DOWELSYMBOL_0
340
0
102
{BLKREFS
331
141
102
}
  0
BLOCK_RECORD
  5
207
330
1
100
AcDbSymbolTableRecord
100
AcDbBlockTableRecord
  2
*D7
340
0
  0
BLOCK_RECORD
  5
216
330
1
100
AcDbSymbolTableRecord
100
AcDbBlockTableRecord
  2
*D8
340
0
  0
BLOCK_RECORD
  5
225
330
1
100
AcDbSymbolTableRecord
100
AcDbBlockTableRecord
  2
*D9
340
0
  0
BLOCK_RECORD
  5
275
330
1
100
AcDbSymbolTableRecord
100
AcDbBlockTableRecord
  2
*D10
340
0
  0
BLOCK_RECORD
  5
284
330
1
100
AcDbSymbolTableRecord
100
AcDbBlockTableRecord
  2
*D11
340
0
  0
BLOCK_RECORD
  5
293
330
1
100
AcDbSymbolTableRecord
100
AcDbBlockTableRecord
  2
*D12
340
0
  0
BLOCK_RECORD
  5
340
330
1
100
AcDbSymbolTableRecord
100
AcDbBlockTableRecord
  2
*D13
340
0
  0
BLOCK_RECORD
  5
34F
330
1
100
AcDbSymbolTableRecord
100
AcDbBlockTableRecord
  2
*D14
340
0
  0
BLOCK_RECORD
  5
35E
330
1
100
AcDbSymbolTableRecord
100
AcDbBlockTableRecord
  2
*D15
340
0
  0
BLOCK_RECORD
  5
3AE
330
1
100
AcDbSymbolTableRecord
100
AcDbBlockTableRecord
  2
*D16
340
0
  0
BLOCK_RECORD
  5
3BD
330
1
100
AcDbSymbolTableRecord
100
AcDbBlockTableRecord
  2
*D17
340
0
  0
BLOCK_RECORD
  5
3CC
330
1
100
AcDbSymbolTableRecord
100
AcDbBlockTableRecord
  2
*D18
340
0
  0
ENDTAB
  0
ENDSEC
  0
SECTION
  2
BLOCKS
  0
BLOCK
  5
20
330
1F
100
AcDbEntity
  8
0
100
AcDbBlockBegin
  2
*Model_Space
 70
     0
 10
0.0
 20
0.0
 30
0.0
  3
*Model_Space
  1
*Model_Space
  0
ENDBLK
  5
21
330
1F
100
AcDbEntity
  8
0
100
AcDbBlockEnd
  0
BLOCK
  5
1C
330
1B
100
AcDbEntity
 67
     1
  8
0
100
AcDbBlockBegin
  2
*Paper_Space
 70
     0
 10
0.0
 20
0.0
 30
0.0
  3
*Paper_Space
  1
*Paper_Space
  0
ENDBLK
  5
1D
330
1B
100
AcDbEntity
 67
     1
  8
0
100
AcDbBlockEnd
  0
BLOCK
  5
24
330
23
100
AcDbEntity
  8
0
100
AcDbBlockBegin
  2
*Paper_Space0
 70
     0
 10
0.0
 20
0.0
 30
0.0
  3
*Paper_Space0
  1
*Paper_Space0
  0
ENDBLK
  5
25
330
23
100
AcDbEntity
  8
0
100
AcDbBlockEnd
  0
BLOCK
  5
80
330
7F
100
AcDbEntity
  8
0
100
AcDbBlockBegin
  2
블럭10
 70
     2
 10
0.0
 20
0.0
 30
0.0
  3
블럭10
  1
블럭10
  0
ELLIPSE
  5
82
330
7F
100
AcDbEntity
  8
중심선
100
AcDbEllipse
 10
20.54032771741204
 20
12.0471743016438
 30
0.0
 11
6.600054785286829
 21
-1.261213355974178E-13
 31
0.0
210
0.0
220
0.0
230
1.0
 40
0.636358354079598
 41
0.9219305317359503
 42
6.513795318482858
  0
ELLIPSE
  5
83
330
7F
100
AcDbEntity
  8
중심선
100
AcDbEllipse
 10
20.54032771746488
 20
12.04717430159265
 30
0.0
 11
3.960054785062283
 21
1.540847449632565E-10
 31
0.0
210
0.0
220
0.0
230
1.0
 40
0.3939339440162632
 41
1.131841032648279
 42
5.62031148352944
  0
LINE
  5
84
330
7F
100
AcDbEntity
  8
중심선
100
AcDbLine
 10
2.268634060543552
 20
16.24717430164393
 30
0.0
 11
5.714909304380834
 21
16.24717430164393
 31
0.0
  0
LINE
  5
85
330
7F
100
AcDbEntity
  8
중심선
100
AcDbLine
 10
5.245725140726316
 20
7.84717430164391
 30
0.0
 11
8.692000384563599
 21
7.84717430164391
 31
0.0
  0
LINE
  5
86
330
7F
100
AcDbEntity
  8
중심선
100
AcDbLine
 10
15.74043728645272
 20
16.24717430164393
 30
0.0
 11
8.692000384563599
 21
7.84717430164391
 31
0.0
  0
LINE
  5
87
330
7F
100
AcDbEntity
  8
중심선
100
AcDbLine
 10
0.1404042013395286
 20
13.71084872107135
 30
0.0
 11
3.58671253028996
 21
13.71088815037384
 31
0.0
  0
LINE
  5
88
330
7F
100
AcDbEntity
  8
중심선
100
AcDbLine
 10
2.750260043222114
 20
10.84717430164391
 30
0.0
 11
6.196535287059397
 21
10.84717430164391
 31
0.0
  0
LINE
  5
89
330
7F
100
AcDbEntity
  8
중심선
100
AcDbLine
 10
12.29416204261559
 20
16.24717430164393
 30
0.0
 11
5.245725140726316
 21
7.84717430164391
 31
0.0
  0
LINE
  5
8A
330
7F
100
AcDbEntity
  8
중심선
100
AcDbLine
 10
10.72767329541681
 20
16.24717430164393
 30
0.0
 11
6.196535287059397
 21
10.84717430164391
 31
0.0
  0
LINE
  5
8B
330
7F
100
AcDbEntity
  8
중심선
100
AcDbLine
 10
7.28139805157953
 20
16.24717430164393
 30
0.0
 11
2.750260043222114
 21
10.84717430164391
 31
0.0
  0
LINE
  5
8C
330
7F
100
AcDbEntity
  8
중심선
100
AcDbLine
 10
5.714909304380834
 20
16.24717430164393
 30
0.0
 11
3.58671253028996
 21
13.71088815037384
 31
0.0
  0
LINE
  5
8D
330
7F
100
AcDbEntity
  8
중심선
100
AcDbLine
 10
2.268634060543552
 20
16.24717430164393
 30
0.0
 11
0.1404042013395286
 21
13.71084872107135
 31
0.0
  0
LINE
  5
8E
330
7F
100
AcDbEntity
  8
중심선
100
AcDbLine
 10
7.28139805157953
 20
16.24717430164393
 30
0.0
 11
10.72767329541681
 21
16.24717430164393
 31
0.0
  0
LINE
  5
8F
330
7F
100
AcDbEntity
  8
중심선
100
AcDbLine
 10
12.29416204261559
 20
16.24717430164393
 30
0.0
 11
15.74043728645272
 21
16.24717430164393
 31
0.0
  0
LINE
  5
90
330
7F
100
AcDbEntity
  8
중심선
100
AcDbLine
 10
19.22036997980202
 20
11.08717430171403
 30
0.0
 11
23.66174974927406
 21
11.08717430171406
 31
0.0
  0
LINE
  5
91
330
7F
100
AcDbEntity
  8
중심선
100
AcDbLine
 10
19.22039502424796
 20
13.00717430171391
 30
0.0
 11
19.22036997980202
 21
11.08717430171403
 31
0.0
  0
LINE
  5
92
330
7F
100
AcDbEntity
  8
중심선
100
AcDbLine
 10
19.22039502424796
 20
13.00717430171391
 30
0.0
 11
26.96566020931264
 21
13.00717430171391
 31
0.0
  0
LINE
  5
93
330
7F
100
AcDbEntity
  8
중심선
100
AcDbLine
 10
22.22332737316547
 20
13.45928029700563
 30
0.0
 11
24.52862924686651
 21
15.39360700705356
 31
0.0
  0
ATTDEF
  5
95
330
7F
100
AcDbEntity
  8
FORMAT
 62
     2
100
AcDbText
 10
4.408487351596664
 20
2.075366912832191
 30
0.0
 40
4.233333333333333
  1
E2005004
 41
0.75
  7
SLDTEXTSTYLE0
 11
4.408487351596664
 21
-0.0412997538344756
 31
0.0
100
AcDbAttributeDefinition
  3

  2
AUTOATTR0
 70
     0
 74
     1
  0
ENDBLK
  5
81
330
7F
100
AcDbEntity
  8
0
100
AcDbBlockEnd
  0
BLOCK
  5
E5
330
E4
100
AcDbEntity
  8
0
100
AcDbBlockBegin
  2
_D
 70
     0
 10
0.0
 20
0.0
 30
0.0
  3
_D
  1
_D
  0
LINE
  5
E7
330
E4
100
AcDbEntity
  8
치수문자_일반주서
 62
     0
370
    -2
100
AcDbLine
 10
-19.33161934298442
 20
2.381250000000006
 30
0.0
 11
-44.75000000000002
 21
2.381249999999912
 31
0.0
  0
LINE
  5
E8
330
E4
100
AcDbEntity
  8
치수문자_일반주서
 62
     0
370
    -2
100
AcDbLine
 10
-19.33161934298442
 20
-2.381249999999997
 30
0.0
 11
-44.75000000000001
 21
-2.381250000000091
 31
0.0
  0
LINE
  5
E9
330
E4
100
AcDbEntity
  8
치수문자_일반주서
 62
     0
370
    -2
100
AcDbLine
 10
-44.75000000000001
 20
-0.9207500000000879
 30
0.0
 11
-44.75000000000001
 21
0.9207499999999085
 31
0.0
  0
SOLID
  5
EA
330
E4
100
AcDbEntity
  8
치수문자_일반주서
 62
     0
100
AcDbTrace
 10
-44.19966666666668
 20
-0.9207500000000862
 30
0.0
 11
-45.30033333333335
 21
-0.9207500000000896
 31
0.0
 12
-44.75000000000002
 22
2.381249999999912
 32
0.0
 13
-44.75000000000002
 23
2.381249999999912
 33
0.0
  0
SOLID
  5
EB
330
E4
100
AcDbEntity
  8
치수문자_일반주서
 62
     0
100
AcDbTrace
 10
-45.30033333333335
 20
0.9207499999999068
 30
0.0
 11
-44.19966666666668
 21
0.9207499999999101
 31
0.0
 12
-44.75000000000001
 22
-2.381250000000091
 32
0.0
 13
-44.75000000000001
 23
-2.381250000000091
 33
0.0
  0
MTEXT
  5
EC
330
E4
100
AcDbEntity
  8
치수문자_일반주서
 62
     0
100
AcDbMText
 10
-49.12500000000001
 20
-0.0000000000000087
 30
0.0
 40
3.5
 41
0.0
 71
     2
 72
     1
  1
\A1;%%c4.76 [3/16]
  7
SLDTEXTSTYLE0
 11
-2.983906501879684E-15
 21
1.0
 31
0.0
 73
     1
 44
1.0
  0
POINT
  5
ED
330
E4
100
AcDbEntity
  8
Defpoints
 62
     0
100
AcDbPoint
 10
-19.26911934298442
 20
2.381250000000007
 30
0.0
  0
POINT
  5
EE
330
E4
100
AcDbEntity
  8
Defpoints
 62
     0
100
AcDbPoint
 10
-19.26911934298442
 20
-2.381249999999996
 30
0.0
  0
POINT
  5
EF
330
E4
100
AcDbEntity
  8
Defpoints
 62
     0
100
AcDbPoint
 10
-44.75000000000001
 20
-2.381250000000091
 30
0.0
  0
ENDBLK
  5
E6
330
E4
100
AcDbEntity
  8
0
100
AcDbBlockEnd
  0
BLOCK
  5
F9
330
F8
100
AcDbEntity
  8
0
100
AcDbBlockBegin
  2
_D_1
 70
     0
 10
0.0
 20
0.0
 30
0.0
  3
_D_1
  1
_D_1
  0
LINE
  5
FB
330
F8
100
AcDbEntity
  8
치수문자_일반주서
 62
     0
370
    -2
100
AcDbLine
 10
31.81250000000001
 20
-0.79307913458853
 30
0.0
 11
50.75000000000012
 21
-0.79307913458846
 31
0.0
  0
LINE
  5
FC
330
F8
100
AcDbEntity
  8
치수문자_일반주서
 62
     0
370
    -2
100
AcDbLine
 10
31.81250000000001
 20
0.7937500000000041
 30
0.0
 11
50.75000000000011
 21
0.7937500000000739
 31
0.0
  0
LINE
  5
FD
330
F8
100
AcDbEntity
  8
치수문자_일반주서
 62
     0
370
    -2
100
AcDbLine
 10
50.75000000000011
 20
0.7937500000000739
 30
0.0
 11
50.74999999999997
 21
33.64775000000007
 31
0.0
  0
LINE
  5
FE
330
F8
100
AcDbEntity
  8
치수문자_일반주서
 62
     0
370
    -2
100
AcDbLine
 10
50.75000000000012
 20
-0.79307913458846
 30
0.0
 11
50.75000000000011
 21
0.7937500000000739
 31
0.0
  0
LINE
  5
FF
330
F8
100
AcDbEntity
  8
치수문자_일반주서
 62
     0
370
    -2
100
AcDbLine
 10
50.75000000000014
 20
-4.09507913458846
 30
0.0
 11
50.75000000000015
 21
-7.397079134588459
 31
0.0
  0
LINE
  5
100
330
F8
100
AcDbEntity
  8
치수문자_일반주서
 62
     0
370
    -2
100
AcDbLine
 10
50.7500000000001
 20
4.095750000000073
 30
0.0
 11
50.75000000000009
 21
7.397750000000073
 31
0.0
  0
SOLID
  5
101
330
F8
100
AcDbEntity
  8
치수문자_일반주서
 62
     0
100
AcDbTrace
 10
51.30033333333347
 20
-4.095079134588457
 30
0.0
 11
50.1996666666668
 21
-4.095079134588462
 31
0.0
 12
50.75000000000012
 22
-0.79307913458846
 32
0.0
 13
50.75000000000012
 23
-0.79307913458846
 33
0.0
  0
SOLID
  5
102
330
F8
100
AcDbEntity
  8
치수문자_일반주서
 62
     0
100
AcDbTrace
 10
50.19966666666677
 20
4.095750000000071
 30
0.0
 11
51.30033333333343
 21
4.095750000000076
 31
0.0
 12
50.75000000000011
 22
0.7937500000000739
 32
0.0
 13
50.75000000000011
 23
0.7937500000000739
 33
0.0
  0
MTEXT
  5
103
330
F8
100
AcDbEntity
  8
치수문자_일반주서
 62
     0
100
AcDbMText
 10
46.37500000000003
 20
20.52275000000006
 30
0.0
 40
3.5
 41
0.0
 71
     2
 72
     1
  1
\A1;%%c1.59 [1/16]
  7
SLDTEXTSTYLE0
 11
-4.477752016724501E-15
 21
1.0
 31
0.0
 73
     1
 44
1.0
  0
POINT
  5
104
330
F8
100
AcDbEntity
  8
Defpoints
 62
     0
100
AcDbPoint
 10
31.75000000000001
 20
-0.7930791345885302
 30
0.0
  0
POINT
  5
105
330
F8
100
AcDbEntity
  8
Defpoints
 62
     0
100
AcDbPoint
 10
31.75000000000001
 20
0.7937500000000038
 30
0.0
  0
POINT
  5
106
330
F8
100
AcDbEntity
  8
Defpoints
 62
     0
100
AcDbPoint
 10
50.75000000000011
 20
0.7937500000000748
 30
0.0
  0
ENDBLK
  5
FA
330
F8
100
AcDbEntity
  8
0
100
AcDbBlockEnd
  0
BLOCK
  5
10D
330
10C
100
AcDbEntity
  8
0
100
AcDbBlockBegin
  2
_D_2
 70
     0
 10
0.0
 20
0.0
 30
0.0
  3
_D_2
  1
_D_2
  0
LINE
  5
10F
330
10C
100
AcDbEntity
  8
치수문자_일반주서
 62
     0
370
    -2
100
AcDbLine
 10
31.75000000000001
 20
0.8562500000000038
 30
0.0
 11
31.75000000000001
 21
22.91639371461095
 31
0.0
  0
LINE
  5
110
330
10C
100
AcDbEntity
  8
치수문자_일반주서
 62
     0
370
    -2
100
AcDbLine
 10
26.19375000000002
 20
0.56002875436813
 30
0.0
 11
26.19375000000002
 21
22.91639371461095
 31
0.0
  0
LINE
  5
111
330
10C
100
AcDbEntity
  8
치수문자_일반주서
 62
     0
370
    -2
100
AcDbLine
 10
26.19375000000002
 20
22.91639371461095
 30
0.0
 11
-6.660249999999985
 21
22.91639371461095
 31
0.0
  0
LINE
  5
112
330
10C
100
AcDbEntity
  8
치수문자_일반주서
 62
     0
370
    -2
100
AcDbLine
 10
31.75000000000001
 20
22.91639371461095
 30
0.0
 11
26.19375000000002
 21
22.91639371461095
 31
0.0
  0
LINE
  5
113
330
10C
100
AcDbEntity
  8
치수문자_일반주서
 62
     0
370
    -2
100
AcDbLine
 10
35.05200000000001
 20
22.91639371461095
 30
0.0
 11
38.35400000000001
 21
22.91639371461095
 31
0.0
  0
LINE
  5
114
330
10C
100
AcDbEntity
  8
치수문자_일반주서
 62
     0
370
    -2
100
AcDbLine
 10
22.89175000000002
 20
22.91639371461095
 30
0.0
 11
19.58975000000002
 21
22.91639371461095
 31
0.0
  0
SOLID
  5
115
330
10C
100
AcDbEntity
  8
치수문자_일반주서
 62
     0
100
AcDbTrace
 10
35.05200000000001
 20
23.46672704794429
 30
0.0
 11
35.05200000000001
 21
22.36606038127762
 31
0.0
 12
31.75000000000001
 22
22.91639371461095
 32
0.0
 13
31.75000000000001
 23
22.91639371461095
 33
0.0
  0
SOLID
  5
116
330
10C
100
AcDbEntity
  8
치수문자_일반주서
 62
     0
100
AcDbTrace
 10
22.89175000000002
 20
22.36606038127762
 30
0.0
 11
22.89175000000002
 21
23.46672704794429
 31
0.0
 12
26.19375000000002
 22
22.91639371461095
 32
0.0
 13
26.19375000000002
 23
22.91639371461095
 33
0.0
  0
MTEXT
  5
117
330
10C
100
AcDbEntity
  8
치수문자_일반주서
 62
     0
100
AcDbMText
 10
6.464750000000015
 20
27.29139371461095
 30
0.0
 40
3.5
 41
0.0
 71
     2
 72
     1
  1
\A1;5.56 [7/32]
  7
SLDTEXTSTYLE0
 73
     1
 44
1.0
  0
POINT
  5
118
330
10C
100
AcDbEntity
  8
Defpoints
 62
     0
100
AcDbPoint
 10
31.75000000000001
 20
0.7937500000000038
 30
0.0
  0
POINT
  5
119
330
10C
100
AcDbEntity
  8
Defpoints
 62
     0
100
AcDbPoint
 10
26.19375000000002
 20
0.49752875436813
 30
0.0
  0
POINT
  5
11A
330
10C
100
AcDbEntity
  8
Defpoints
 62
     0
100
AcDbPoint
 10
26.19375000000002
 20
22.91639371461095
 30
0.0
  0
ENDBLK
  5
10E
330
10C
100
AcDbEntity
  8
0
100
AcDbBlockEnd
  0
BLOCK
  5
123
330
122
100
AcDbEntity
  8
0
100
AcDbBlockBegin
  2
_D_3
 70
     0
 10
0.0
 20
0.0
 30
0.0
  3
_D_3
  1
_D_3
  0
LINE
  5
125
330
122
100
AcDbEntity
  8
치수문자_일반주서
 62
     0
370
    -2
100
AcDbLine
 10
-31.74999999999999
 20
0.8555791345885363
 30
0.0
 11
-31.74999999999999
 21
36.38125000000002
 31
0.0
  0
LINE
  5
126
330
122
100
AcDbEntity
  8
치수문자_일반주서
 62
     0
370
    -2
100
AcDbLine
 10
31.75000000000001
 20
0.8562500000000038
 30
0.0
 11
31.75000000000001
 21
36.38125000000002
 31
0.0
  0
LINE
  5
127
330
122
100
AcDbEntity
  8
치수문자_일반주서
 62
     0
370
    -2
100
AcDbLine
 10
-28.44799999999999
 20
36.38125000000002
 30
0.0
 11
28.44800000000001
 21
36.38125000000002
 31
0.0
  0
SOLID
  5
128
330
122
100
AcDbEntity
  8
치수문자_일반주서
 62
     0
100
AcDbTrace
 10
-28.44799999999999
 20
36.93158333333336
 30
0.0
 11
-28.44799999999999
 21
35.83091666666669
 31
0.0
 12
-31.74999999999999
 22
36.38125000000002
 32
0.0
 13
-31.74999999999999
 23
36.38125000000002
 33
0.0
  0
SOLID
  5
129
330
122
100
AcDbEntity
  8
치수문자_일반주서
 62
     0
100
AcDbTrace
 10
28.44800000000001
 20
35.83091666666669
 30
0.0
 11
28.44800000000001
 21
36.93158333333336
 31
0.0
 12
31.75000000000001
 22
36.38125000000002
 32
0.0
 13
31.75000000000001
 23
36.38125000000002
 33
0.0
  0
MTEXT
  5
12A
330
122
100
AcDbEntity
  8
치수문자_일반주서
 62
     0
100
AcDbMText
 10
0.0000000000000231
 20
40.75625000000002
 30
0.0
 40
3.5
 41
0.0
 71
     2
 72
     1
  1
\A1;63.5 [2 1/2]
  7
SLDTEXTSTYLE0
 73
     1
 44
1.0
  0
POINT
  5
12B
330
122
100
AcDbEntity
  8
Defpoints
 62
     0
100
AcDbPoint
 10
-31.74999999999999
 20
0.7930791345885363
 30
0.0
  0
POINT
  5
12C
330
122
100
AcDbEntity
  8
Defpoints
 62
     0
100
AcDbPoint
 10
31.75000000000001
 20
0.7937500000000038
 30
0.0
  0
POINT
  5
12D
330
122
100
AcDbEntity
  8
Defpoints
 62
     0
100
AcDbPoint
 10
31.75000000000001
 20
36.38125000000002
 30
0.0
  0
ENDBLK
  5
124
330
122
100
AcDbEntity
  8
0
100
AcDbBlockEnd
  0
BLOCK
  5
13C
330
13B
100
AcDbEntity
  8
0
100
AcDbBlockBegin
  2
SW_DOWELSYMBOL_0
 70
     0
 10
0.0
 20
0.0
 30
0.0
  3
SW_DOWELSYMBOL_0
  1
SW_DOWELSYMBOL_0
  0
CIRCLE
  5
13E
330
13B
100
AcDbEntity
  8
해칭선
 62
     0
100
AcDbCircle
 10
0.0
 20
0.0
 30
0.0
 40
3.000000000000001
  0
HATCH
  5
13F
330
13B
100
AcDbEntity
  8
0
  6
Continuous
 62
     0
370
     0
100
AcDbHatch
 10
0.0
 20
0.0
 30
0.0
210
0.0
220
0.0
230
1.0
  2
SOLID
 70
     1
 71
     0
 91
        1
 92
        0
 93
        3
 72
     2
 10
0.0
 20
0.0
 40
3.000000000000001
 50
0.0
 51
90.0
 73
     1
 72
     1
 10
0.0
 20
3.000000000000001
 11
0.0
 21
0.0
 72
     1
 10
0.0
 20
0.0
 11
3.000000000000001
 21
0.0
 97
        0
 75
     0
 76
     1
 98
        1
 10
0.0
 20
0.0
  0
HATCH
  5
140
330
13B
100
AcDbEntity
  8
0
  6
Continuous
 62
     0
370
     0
100
AcDbHatch
 10
0.0
 20
0.0
 30
0.0
210
0.0
220
0.0
230
1.0
  2
SOLID
 70
     1
 71
     0
 91
        1
 92
        0
 93
        3
 72
     2
 10
0.0
 20
0.0
 40
3.000000000000001
 50
180.0
 51
270.0000000000007
 73
     1
 72
     1
 10
0.0
 20
-3.000000000000001
 11
0.0
 21
0.0
 72
     1
 10
0.0
 20
0.0
 11
-3.000000000000001
 21
0.0
 97
        0
 75
     0
 76
     1
 98
        1
 10
0.0
 20
0.0
  0
ENDBLK
  5
13D
330
13B
100
AcDbEntity
  8
0
100
AcDbBlockEnd
  0
BLOCK
  5
208
330
207
100
AcDbEntity
  8
0
100
AcDbBlockBegin
  2
*D7
 70
     1
 10
0.0
 20
0.0
 30
0.0
  3
*D7
  1
*D8
  0
LINE
  5
20A
330
207
100
AcDbEntity
  8
치수문자_일반주서
 62
     0
370
    -2
100
AcDbLine
 10
66.56250000000003
 20
6.603999999999926
 30
0.0
 11
85.50000000000003
 21
6.603999999999999
 31
0.0
  0
LINE
  5
20B
330
207
100
AcDbEntity
  8
치수문자_일반주서
 62
     0
370
    -2
100
AcDbLine
 10
66.56250000000003
 20
8.58669783647125
 30
0.0
 11
85.50000000000003
 21
8.586697836471323
 31
0.0
  0
LINE
  5
20C
330
207
100
AcDbEntity
  8
치수문자_일반주서
 62
     0
370
    -2
100
AcDbLine
 10
85.50000000000003
 20
8.586697836471323
 30
0.0
 11
85.50000000000003
 21
46.83027382196935
 31
0.0
  0
LINE
  5
20D
330
207
100
AcDbEntity
  8
치수문자_일반주서
 62
     0
370
    -2
100
AcDbLine
 10
85.50000000000003
 20
6.603999999999999
 30
0.0
 11
85.50000000000003
 21
8.586697836471323
 31
0.0
  0
LINE
  5
20E
330
207
100
AcDbEntity
  8
치수문자_일반주서
 62
     0
370
    -2
100
AcDbLine
 10
85.50000000000003
 20
3.302
 30
0.0
 11
85.50000000000003
 21
0.0
 31
0.0
  0
LINE
  5
20F
330
207
100
AcDbEntity
  8
치수문자_일반주서
 62
     0
370
    -2
100
AcDbLine
 10
85.50000000000003
 20
11.88869783647132
 30
0.0
 11
85.50000000000003
 21
15.19069783647132
 31
0.0
  0
SOLID
  5
210
330
207
100
AcDbEntity
  8
치수문자_일반주서
 62
     0
100
AcDbTrace
 10
86.05033333333336
 20
3.302
 30
0.0
 11
84.9496666666667
 21
3.302
 31
0.0
 12
85.50000000000003
 22
6.603999999999999
 32
0.0
 13
85.50000000000003
 23
6.603999999999999
 33
0.0
  0
SOLID
  5
211
330
207
100
AcDbEntity
  8
치수문자_일반주서
 62
     0
100
AcDbTrace
 10
84.9496666666667
 20
11.88869783647132
 30
0.0
 11
86.05033333333336
 21
11.88869783647132
 31
0.0
 12
85.50000000000003
 22
8.586697836471323
 32
0.0
 13
85.50000000000003
 23
8.586697836471323
 33
0.0
  0
MTEXT
  5
212
330
207
100
AcDbEntity
  8
치수문자_일반주서
 62
     0
100
AcDbMText
 10
81.12500000000003
 20
32.83027382196935
 30
0.0
 40
3.5
 41
0.0
 71
     2
 72
     1
  1
\A1;%%c1.98 [5/64]
  7
SLDTEXTSTYLE0
 11
0.0
 21
1.0
 31
0.0
 73
     1
 44
1.0
  0
POINT
  5
213
330
207
100
AcDbEntity
  8
Defpoints
 62
     0
100
AcDbPoint
 10
66.50000000000003
 20
6.603999999999926
 30
0.0
  0
POINT
  5
214
330
207
100
AcDbEntity
  8
Defpoints
 62
     0
100
AcDbPoint
 10
66.50000000000003
 20
8.58669783647125
 30
0.0
  0
POINT
  5
215
330
207
100
AcDbEntity
  8
Defpoints
 62
     0
100
AcDbPoint
 10
85.50000000000011
 20
8.586697836471322
 30
0.0
  0
ENDBLK
  5
209
330
207
100
AcDbEntity
  8
0
100
AcDbBlockEnd
  0
BLOCK
  5
217
330
216
100
AcDbEntity
  8
0
100
AcDbBlockBegin
  2
*D8
 70
     1
 10
0.0
 20
0.0
 30
0.0
  3
*D8
  1
*D9
  0
LINE
  5
219
330
216
100
AcDbEntity
  8
치수문자_일반주서
 62
     0
370
    -2
100
AcDbLine
 10
66.50000000000003
 20
8.64919783647125
 30
0.0
 11
66.50000000000003
 21
23.16702897923018
 31
0.0
  0
LINE
  5
21A
330
216
100
AcDbEntity
  8
치수문자_일반주서
 62
     0
370
    -2
100
AcDbLine
 10
60.15000000000003
 20
8.310780251658846
 30
0.0
 11
60.15000000000003
 21
23.16702897923018
 31
0.0
  0
LINE
  5
21B
330
216
100
AcDbEntity
  8
치수문자_일반주서
 62
     0
370
    -2
100
AcDbLine
 10
60.15000000000003
 20
23.16702897923018
 30
0.0
 11
25.65534935393988
 21
23.16702897923018
 31
0.0
  0
LINE
  5
21C
330
216
100
AcDbEntity
  8
치수문자_일반주서
 62
     0
370
    -2
100
AcDbLine
 10
66.50000000000003
 20
23.16702897923018
 30
0.0
 11
60.15000000000003
 21
23.16702897923018
 31
0.0
  0
LINE
  5
21D
330
216
100
AcDbEntity
  8
치수문자_일반주서
 62
     0
370
    -2
100
AcDbLine
 10
69.80200000000002
 20
23.16702897923018
 30
0.0
 11
73.10400000000001
 21
23.16702897923018
 31
0.0
  0
LINE
  5
21E
330
216
100
AcDbEntity
  8
치수문자_일반주서
 62
     0
370
    -2
100
AcDbLine
 10
56.84800000000003
 20
23.16702897923018
 30
0.0
 11
53.54600000000003
 21
23.16702897923018
 31
0.0
  0
SOLID
  5
21F
330
216
100
AcDbEntity
  8
치수문자_일반주서
 62
     0
100
AcDbTrace
 10
69.80200000000002
 20
23.71736231256351
 30
0.0
 11
69.80200000000002
 21
22.61669564589684
 31
0.0
 12
66.50000000000003
 22
23.16702897923018
 32
0.0
 13
66.50000000000003
 23
23.16702897923018
 33
0.0
  0
SOLID
  5
220
330
216
100
AcDbEntity
  8
치수문자_일반주서
 62
     0
100
AcDbTrace
 10
56.84800000000003
 20
22.61669564589684
 30
0.0
 11
56.84800000000003
 21
23.71736231256351
 31
0.0
 12
60.15000000000003
 22
23.16702897923018
 32
0.0
 13
60.15000000000003
 23
23.16702897923018
 33
0.0
  0
MTEXT
  5
221
330
216
100
AcDbEntity
  8
치수문자_일반주서
 62
     0
100
AcDbMText
 10
37.03034935393988
 20
27.54202897923018
 30
0.0
 40
3.5
 41
0.0
 71
     2
 72
     1
  1
\A1;6.35 [1/4]
  7
SLDTEXTSTYLE0
 73
     1
 44
1.0
  0
POINT
  5
222
330
216
100
AcDbEntity
  8
Defpoints
 62
     0
100
AcDbPoint
 10
66.50000000000003
 20
8.58669783647125
 30
0.0
  0
POINT
  5
223
330
216
100
AcDbEntity
  8
Defpoints
 62
     0
100
AcDbPoint
 10
60.15000000000003
 20
8.248280251658846
 30
0.0
  0
POINT
  5
224
330
216
100
AcDbEntity
  8
Defpoints
 62
     0
100
AcDbPoint
 10
60.15000000000003
 20
23.16702897923018
 30
0.0
  0
ENDBLK
  5
218
330
216
100
AcDbEntity
  8
0
100
AcDbBlockEnd
  0
BLOCK
  5
226
330
225
100
AcDbEntity
  8
0
100
AcDbBlockBegin
  2
*D9
 70
     1
 10
0.0
 20
0.0
 30
0.0
  3
*D9
  1
*D10
  0
LINE
  5
228
330
225
100
AcDbEntity
  8
치수문자_일반주서
 62
     0
370
    -2
100
AcDbLine
 10
3.000000000000021
 20
9.609098918235581
 30
0.0
 11
3.000000000000021
 21
34.31221881512261
 31
0.0
  0
LINE
  5
229
330
225
100
AcDbEntity
  8
치수문자_일반주서
 62
     0
370
    -2
100
AcDbLine
 10
66.50000000000003
 20
8.64919783647125
 30
0.0
 11
66.50000000000003
 21
34.31221881512261
 31
0.0
  0
LINE
  5
22A
330
225
100
AcDbEntity
  8
치수문자_일반주서
 62
     0
370
    -2
100
AcDbLine
 10
6.302000000000021
 20
34.31221881512261
 30
0.0
 11
63.19800000000003
 21
34.31221881512261
 31
0.0
  0
SOLID
  5
22B
330
225
100
AcDbEntity
  8
치수문자_일반주서
 62
     0
100
AcDbTrace
 10
6.302000000000021
 20
34.86255214845594
 30
0.0
 11
6.302000000000021
 21
33.76188548178927
 31
0.0
 12
3.000000000000021
 22
34.31221881512261
 32
0.0
 13
3.000000000000021
 23
34.31221881512261
 33
0.0
  0
SOLID
  5
22C
330
225
100
AcDbEntity
  8
치수문자_일반주서
 62
     0
100
AcDbTrace
 10
63.19800000000003
 20
33.76188548178927
 30
0.0
 11
63.19800000000003
 21
34.86255214845594
 31
0.0
 12
66.50000000000003
 22
34.31221881512261
 32
0.0
 13
66.50000000000003
 23
34.31221881512261
 33
0.0
  0
MTEXT
  5
22D
330
225
100
AcDbEntity
  8
치수문자_일반주서
 62
     0
100
AcDbMText
 10
35.54432404248756
 20
38.68721881512261
 30
0.0
 40
3.5
 41
0.0
 71
     2
 72
     1
  1
\A1;63.5 [2 1/2]
  7
SLDTEXTSTYLE0
 73
     1
 44
1.0
  0
POINT
  5
22E
330
225
100
AcDbEntity
  8
Defpoints
 62
     0
100
AcDbPoint
 10
3.000000000000021
 20
9.546598918235581
 30
0.0
  0
POINT
  5
22F
330
225
100
AcDbEntity
  8
Defpoints
 62
     0
100
AcDbPoint
 10
66.50000000000003
 20
8.58669783647125
 30
0.0
  0
POINT
  5
230
330
225
100
AcDbEntity
  8
Defpoints
 62
     0
100
AcDbPoint
 10
66.50000000000003
 20
34.31221881512261
 30
0.0
  0
ENDBLK
  5
227
330
225
100
AcDbEntity
  8
0
100
AcDbBlockEnd
  0
BLOCK
  5
276
330
275
100
AcDbEntity
  8
0
100
AcDbBlockBegin
  2
*D10
 70
     1
 10
0.0
 20
0.0
 30
0.0
  3
*D10
  1
*D11
  0
LINE
  5
278
330
275
100
AcDbEntity
  8
치수문자_일반주서
 62
     0
370
    -2
100
AcDbLine
 10
109.5950671299535
 20
-39.04589862720817
 30
0.0
 11
128.5325671299535
 21
-39.0458986272081
 31
0.0
  0
LINE
  5
279
330
275
100
AcDbEntity
  8
치수문자_일반주서
 62
     0
370
    -2
100
AcDbLine
 10
109.5950671299535
 20
-37.06320079073685
 30
0.0
 11
128.5325671299535
 21
-37.06320079073678
 31
0.0
  0
LINE
  5
27A
330
275
100
AcDbEntity
  8
치수문자_일반주서
 62
     0
370
    -2
100
AcDbLine
 10
128.5325671299535
 20
-37.06320079073678
 30
0.0
 11
128.5325671299535
 21
1.180375194761247
 31
0.0
  0
LINE
  5
27B
330
275
100
AcDbEntity
  8
치수문자_일반주서
 62
     0
370
    -2
100
AcDbLine
 10
128.5325671299535
 20
-39.0458986272081
 30
0.0
 11
128.5325671299535
 21
-37.06320079073678
 31
0.0
  0
LINE
  5
27C
330
275
100
AcDbEntity
  8
치수문자_일반주서
 62
     0
370
    -2
100
AcDbLine
 10
128.5325671299535
 20
-42.3478986272081
 30
0.0
 11
128.5325671299535
 21
-45.6498986272081
 31
0.0
  0
LINE
  5
27D
330
275
100
AcDbEntity
  8
치수문자_일반주서
 62
     0
370
    -2
100
AcDbLine
 10
128.5325671299535
 20
-33.76120079073678
 30
0.0
 11
128.5325671299535
 21
-30.45920079073678
 31
0.0
  0
SOLID
  5
27E
330
275
100
AcDbEntity
  8
치수문자_일반주서
 62
     0
100
AcDbTrace
 10
129.0829004632868
 20
-42.3478986272081
 30
0.0
 11
127.9822337966202
 21
-42.3478986272081
 31
0.0
 12
128.5325671299535
 22
-39.0458986272081
 32
0.0
 13
128.5325671299535
 23
-39.0458986272081
 33
0.0
  0
SOLID
  5
27F
330
275
100
AcDbEntity
  8
치수문자_일반주서
 62
     0
100
AcDbTrace
 10
127.9822337966202
 20
-33.76120079073678
 30
0.0
 11
129.0829004632868
 21
-33.76120079073678
 31
0.0
 12
128.5325671299535
 22
-37.06320079073678
 32
0.0
 13
128.5325671299535
 23
-37.06320079073678
 33
0.0
  0
MTEXT
  5
280
330
275
100
AcDbEntity
  8
치수문자_일반주서
 62
     0
100
AcDbMText
 10
124.1575671299535
 20
-12.81962480523875
 30
0.0
 40
3.5
 41
0.0
 71
     2
 72
     1
  1
\A1;%%c1.98 [5/64]
  7
SLDTEXTSTYLE0
 11
0.0
 21
1.0
 31
0.0
 73
     1
 44
1.0
  0
POINT
  5
281
330
275
100
AcDbEntity
  8
Defpoints
 62
     0
100
AcDbPoint
 10
109.5325671299535
 20
-39.04589862720817
 30
0.0
  0
POINT
  5
282
330
275
100
AcDbEntity
  8
Defpoints
 62
     0
100
AcDbPoint
 10
109.5325671299535
 20
-37.06320079073685
 30
0.0
  0
POINT
  5
283
330
275
100
AcDbEntity
  8
Defpoints
 62
     0
100
AcDbPoint
 10
128.5325671299535
 20
-37.06320079073678
 30
0.0
  0
ENDBLK
  5
277
330
275
100
AcDbEntity
  8
0
100
AcDbBlockEnd
  0
BLOCK
  5
285
330
284
100
AcDbEntity
  8
0
100
AcDbBlockBegin
  2
*D11
 70
     1
 10
0.0
 20
0.0
 30
0.0
  3
*D11
  1
*D12
  0
LINE
  5
287
330
284
100
AcDbEntity
  8
치수문자_일반주서
 62
     0
370
    -2
100
AcDbLine
 10
109.5325671299535
 20
-37.00070079073685
 30
0.0
 11
109.5325671299535
 21
-22.48286964797792
 31
0.0
  0
LINE
  5
288
330
284
100
AcDbEntity
  8
치수문자_일반주서
 62
     0
370
    -2
100
AcDbLine
 10
103.1825671299535
 20
-37.33911837554925
 30
0.0
 11
103.1825671299535
 21
-22.48286964797792
 31
0.0
  0
LINE
  5
289
330
284
100
AcDbEntity
  8
치수문자_일반주서
 62
     0
370
    -2
100
AcDbLine
 10
103.1825671299535
 20
-22.48286964797792
 30
0.0
 11
68.68791648389335
 21
-22.48286964797792
 31
0.0
  0
LINE
  5
28A
330
284
100
AcDbEntity
  8
치수문자_일반주서
 62
     0
370
    -2
100
AcDbLine
 10
109.5325671299535
 20
-22.48286964797792
 30
0.0
 11
103.1825671299535
 21
-22.48286964797792
 31
0.0
  0
LINE
  5
28B
330
284
100
AcDbEntity
  8
치수문자_일반주서
 62
     0
370
    -2
100
AcDbLine
 10
112.8345671299535
 20
-22.48286964797792
 30
0.0
 11
116.1365671299535
 21
-22.48286964797792
 31
0.0
  0
LINE
  5
28C
330
284
100
AcDbEntity
  8
치수문자_일반주서
 62
     0
370
    -2
100
AcDbLine
 10
99.8805671299535
 20
-22.48286964797792
 30
0.0
 11
96.57856712995351
 21
-22.48286964797792
 31
0.0
  0
SOLID
  5
28D
330
284
100
AcDbEntity
  8
치수문자_일반주서
 62
     0
100
AcDbTrace
 10
112.8345671299535
 20
-21.93253631464459
 30
0.0
 11
112.8345671299535
 21
-23.03320298131126
 31
0.0
 12
109.5325671299535
 22
-22.48286964797792
 32
0.0
 13
109.5325671299535
 23
-22.48286964797792
 33
0.0
  0
SOLID
  5
28E
330
284
100
AcDbEntity
  8
치수문자_일반주서
 62
     0
100
AcDbTrace
 10
99.8805671299535
 20
-23.03320298131126
 30
0.0
 11
99.8805671299535
 21
-21.93253631464459
 31
0.0
 12
103.1825671299535
 22
-22.48286964797792
 32
0.0
 13
103.1825671299535
 23
-22.48286964797792
 33
0.0
  0
MTEXT
  5
28F
330
284
100
AcDbEntity
  8
치수문자_일반주서
 62
     0
100
AcDbMText
 10
80.06291648389335
 20
-18.10786964797792
 30
0.0
 40
3.5
 41
0.0
 71
     2
 72
     1
  1
\A1;6.35 [1/4]
  7
SLDTEXTSTYLE0
 73
     1
 44
1.0
  0
POINT
  5
290
330
284
100
AcDbEntity
  8
Defpoints
 62
     0
100
AcDbPoint
 10
109.5325671299535
 20
-37.06320079073685
 30
0.0
  0
POINT
  5
291
330
284
100
AcDbEntity
  8
Defpoints
 62
     0
100
AcDbPoint
 10
103.1825671299535
 20
-37.40161837554925
 30
0.0
  0
POINT
  5
292
330
284
100
AcDbEntity
  8
Defpoints
 62
     0
100
AcDbPoint
 10
103.1825671299535
 20
-22.48286964797792
 30
0.0
  0
ENDBLK
  5
286
330
284
100
AcDbEntity
  8
0
100
AcDbBlockEnd
  0
BLOCK
  5
294
330
293
100
AcDbEntity
  8
0
100
AcDbBlockBegin
  2
*D12
 70
     1
 10
0.0
 20
0.0
 30
0.0
  3
*D12
  1
*D13
  0
LINE
  5
296
330
293
100
AcDbEntity
  8
치수문자_일반주서
 62
     0
370
    -2
100
AcDbLine
 10
46.03256712995349
 20
-36.04079970897252
 30
0.0
 11
46.03256712995349
 21
-11.3376798120855
 31
0.0
  0
LINE
  5
297
330
293
100
AcDbEntity
  8
치수문자_일반주서
 62
     0
370
    -2
100
AcDbLine
 10
109.5325671299535
 20
-37.00070079073685
 30
0.0
 11
109.5325671299535
 21
-11.3376798120855
 31
0.0
  0
LINE
  5
298
330
293
100
AcDbEntity
  8
치수문자_일반주서
 62
     0
370
    -2
100
AcDbLine
 10
49.33456712995349
 20
-11.3376798120855
 30
0.0
 11
106.2305671299535
 21
-11.3376798120855
 31
0.0
  0
SOLID
  5
299
330
293
100
AcDbEntity
  8
치수문자_일반주서
 62
     0
100
AcDbTrace
 10
49.33456712995349
 20
-10.78734647875216
 30
0.0
 11
49.33456712995349
 21
-11.88801314541883
 31
0.0
 12
46.03256712995349
 22
-11.3376798120855
 32
0.0
 13
46.03256712995349
 23
-11.3376798120855
 33
0.0
  0
SOLID
  5
29A
330
293
100
AcDbEntity
  8
치수문자_일반주서
 62
     0
100
AcDbTrace
 10
106.2305671299535
 20
-11.88801314541883
 30
0.0
 11
106.2305671299535
 21
-10.78734647875216
 31
0.0
 12
109.5325671299535
 22
-11.3376798120855
 32
0.0
 13
109.5325671299535
 23
-11.3376798120855
 33
0.0
  0
MTEXT
  5
29B
330
293
100
AcDbEntity
  8
치수문자_일반주서
 62
     0
100
AcDbMText
 10
78.57689117244104
 20
-6.962679812085497
 30
0.0
 40
3.5
 41
0.0
 71
     2
 72
     1
  1
\A1;63.5 [2 1/2]
  7
SLDTEXTSTYLE0
 73
     1
 44
1.0
  0
POINT
  5
29C
330
293
100
AcDbEntity
  8
Defpoints
 62
     0
100
AcDbPoint
 10
46.03256712995349
 20
-36.10329970897252
 30
0.0
  0
POINT
  5
29D
330
293
100
AcDbEntity
  8
Defpoints
 62
     0
100
AcDbPoint
 10
109.5325671299535
 20
-37.06320079073685
 30
0.0
  0
POINT
  5
29E
330
293
100
AcDbEntity
  8
Defpoints
 62
     0
100
AcDbPoint
 10
109.5325671299535
 20
-11.3376798120855
 30
0.0
  0
ENDBLK
  5
295
330
293
100
AcDbEntity
  8
0
100
AcDbBlockEnd
  0
BLOCK
  5
341
330
340
100
AcDbEntity
  8
0
100
AcDbBlockBegin
  2
*D13
 70
     1
 10
0.0
 20
0.0
 30
0.0
  3
*D13
  1
*D15
  0
LINE
  5
343
330
340
100
AcDbEntity
  8
치수문자_일반주서
 62
     0
370
    -2
100
AcDbLine
 10
66.56250000000001
 20
6.603999999999927
 30
0.0
 11
85.50000000000003
 21
6.603999999999999
 31
0.0
  0
LINE
  5
344
330
340
100
AcDbEntity
  8
치수문자_일반주서
 62
     0
370
    -2
100
AcDbLine
 10
66.56250000000001
 20
8.190829134588462
 30
0.0
 11
85.50000000000003
 21
8.190829134588533
 31
0.0
  0
LINE
  5
345
330
340
100
AcDbEntity
  8
치수문자_일반주서
 62
     0
370
    -2
100
AcDbLine
 10
85.50000000000003
 20
8.190829134588533
 30
0.0
 11
85.50000000000003
 21
41.04482913458853
 31
0.0
  0
LINE
  5
346
330
340
100
AcDbEntity
  8
치수문자_일반주서
 62
     0
370
    -2
100
AcDbLine
 10
85.50000000000003
 20
6.603999999999999
 30
0.0
 11
85.50000000000003
 21
8.190829134588533
 31
0.0
  0
LINE
  5
347
330
340
100
AcDbEntity
  8
치수문자_일반주서
 62
     0
370
    -2
100
AcDbLine
 10
85.50000000000003
 20
3.302
 30
0.0
 11
85.50000000000003
 21
0.0
 31
0.0
  0
LINE
  5
348
330
340
100
AcDbEntity
  8
치수문자_일반주서
 62
     0
370
    -2
100
AcDbLine
 10
85.50000000000003
 20
11.49282913458853
 30
0.0
 11
85.50000000000003
 21
14.79482913458853
 31
0.0
  0
SOLID
  5
349
330
340
100
AcDbEntity
  8
치수문자_일반주서
 62
     0
100
AcDbTrace
 10
86.05033333333336
 20
3.302
 30
0.0
 11
84.9496666666667
 21
3.302
 31
0.0
 12
85.50000000000003
 22
6.603999999999999
 32
0.0
 13
85.50000000000003
 23
6.603999999999999
 33
0.0
  0
SOLID
  5
34A
330
340
100
AcDbEntity
  8
치수문자_일반주서
 62
     0
100
AcDbTrace
 10
84.9496666666667
 20
11.49282913458853
 30
0.0
 11
86.05033333333336
 21
11.49282913458853
 31
0.0
 12
85.50000000000003
 22
8.190829134588533
 32
0.0
 13
85.50000000000003
 23
8.190829134588533
 33
0.0
  0
MTEXT
  5
34B
330
340
100
AcDbEntity
  8
치수문자_일반주서
 62
     0
100
AcDbMText
 10
81.12500000000003
 20
27.91982913458853
 30
0.0
 40
3.5
 41
0.0
 71
     2
 72
     1
  1
\A1;%%c1.59 [1/16]
  7
SLDTEXTSTYLE0
 11
0.0
 21
1.0
 31
0.0
 73
     1
 44
1.0
  0
POINT
  5
34C
330
340
100
AcDbEntity
  8
Defpoints
 62
     0
100
AcDbPoint
 10
66.50000000000001
 20
6.603999999999927
 30
0.0
  0
POINT
  5
34D
330
340
100
AcDbEntity
  8
Defpoints
 62
     0
100
AcDbPoint
 10
66.50000000000001
 20
8.190829134588462
 30
0.0
  0
POINT
  5
34E
330
340
100
AcDbEntity
  8
Defpoints
 62
     0
100
AcDbPoint
 10
85.50000000000011
 20
8.190829134588533
 30
0.0
  0
ENDBLK
  5
342
330
340
100
AcDbEntity
  8
0
100
AcDbBlockEnd
  0
BLOCK
  5
350
330
34F
100
AcDbEntity
  8
0
100
AcDbBlockBegin
  2
*D14
 70
     1
 10
0.0
 20
0.0
 30
0.0
  3
*D14
  1
*D16
  0
LINE
  5
352
330
34F
100
AcDbEntity
  8
치수문자_일반주서
 62
     0
370
    -2
100
AcDbLine
 10
66.50000000000001
 20
8.253329134588462
 30
0.0
 11
66.50000000000001
 21
30.31347284919941
 31
0.0
  0
LINE
  5
353
330
34F
100
AcDbEntity
  8
치수문자_일반주서
 62
     0
370
    -2
100
AcDbLine
 10
60.94375000000002
 20
7.957107888956587
 30
0.0
 11
60.94375000000002
 21
30.31347284919941
 31
0.0
  0
LINE
  5
354
330
34F
100
AcDbEntity
  8
치수문자_일반주서
 62
     0
370
    -2
100
AcDbLine
 10
60.94375000000002
 20
30.31347284919941
 30
0.0
 11
28.08975000000002
 21
30.31347284919941
 31
0.0
  0
LINE
  5
355
330
34F
100
AcDbEntity
  8
치수문자_일반주서
 62
     0
370
    -2
100
AcDbLine
 10
66.50000000000001
 20
30.31347284919941
 30
0.0
 11
60.94375000000002
 21
30.31347284919941
 31
0.0
  0
LINE
  5
356
330
34F
100
AcDbEntity
  8
치수문자_일반주서
 62
     0
370
    -2
100
AcDbLine
 10
69.80200000000002
 20
30.31347284919941
 30
0.0
 11
73.10400000000001
 21
30.31347284919941
 31
0.0
  0
LINE
  5
357
330
34F
100
AcDbEntity
  8
치수문자_일반주서
 62
     0
370
    -2
100
AcDbLine
 10
57.64175000000002
 20
30.31347284919941
 30
0.0
 11
54.33975000000002
 21
30.31347284919941
 31
0.0
  0
SOLID
  5
358
330
34F
100
AcDbEntity
  8
치수문자_일반주서
 62
     0
100
AcDbTrace
 10
69.80200000000002
 20
30.86380618253275
 30
0.0
 11
69.80200000000002
 21
29.76313951586608
 31
0.0
 12
66.50000000000001
 22
30.31347284919941
 32
0.0
 13
66.50000000000001
 23
30.31347284919941
 33
0.0
  0
SOLID
  5
359
330
34F
100
AcDbEntity
  8
치수문자_일반주서
 62
     0
100
AcDbTrace
 10
57.64175000000002
 20
29.76313951586608
 30
0.0
 11
57.64175000000002
 21
30.86380618253275
 31
0.0
 12
60.94375000000002
 22
30.31347284919941
 32
0.0
 13
60.94375000000002
 23
30.31347284919941
 33
0.0
  0
MTEXT
  5
35A
330
34F
100
AcDbEntity
  8
치수문자_일반주서
 62
     0
100
AcDbMText
 10
41.21475000000002
 20
34.68847284919941
 30
0.0
 40
3.5
 41
0.0
 71
     2
 72
     1
  1
\A1;5.56 [7/32]
  7
SLDTEXTSTYLE0
 73
     1
 44
1.0
  0
POINT
  5
35B
330
34F
100
AcDbEntity
  8
Defpoints
 62
     0
100
AcDbPoint
 10
66.50000000000001
 20
8.190829134588462
 30
0.0
  0
POINT
  5
35C
330
34F
100
AcDbEntity
  8
Defpoints
 62
     0
100
AcDbPoint
 10
60.94375000000002
 20
7.894607888956587
 30
0.0
  0
POINT
  5
35D
330
34F
100
AcDbEntity
  8
Defpoints
 62
     0
100
AcDbPoint
 10
60.94375000000002
 20
30.31347284919941
 30
0.0
  0
ENDBLK
  5
351
330
34F
100
AcDbEntity
  8
0
100
AcDbBlockEnd
  0
BLOCK
  5
35F
330
35E
100
AcDbEntity
  8
0
100
AcDbBlockBegin
  2
*D15
 70
     1
 10
0.0
 20
0.0
 30
0.0
  3
*D15
  1
*D17
  0
LINE
  5
361
330
35E
100
AcDbEntity
  8
치수문자_일반주서
 62
     0
370
    -2
100
AcDbLine
 10
3.000000000000028
 20
9.41082913458845
 30
0.0
 11
3.000000000000028
 21
43.77832913458848
 31
0.0
  0
LINE
  5
362
330
35E
100
AcDbEntity
  8
치수문자_일반주서
 62
     0
370
    -2
100
AcDbLine
 10
66.50000000000001
 20
8.253329134588462
 30
0.0
 11
66.50000000000001
 21
43.77832913458848
 31
0.0
  0
LINE
  5
363
330
35E
100
AcDbEntity
  8
치수문자_일반주서
 62
     0
370
    -2
100
AcDbLine
 10
6.302000000000028
 20
43.77832913458848
 30
0.0
 11
63.19800000000001
 21
43.77832913458848
 31
0.0
  0
SOLID
  5
364
330
35E
100
AcDbEntity
  8
치수문자_일반주서
 62
     0
100
AcDbTrace
 10
6.302000000000028
 20
44.32866246792182
 30
0.0
 11
6.302000000000028
 21
43.22799580125515
 31
0.0
 12
3.000000000000028
 22
43.77832913458848
 32
0.0
 13
3.000000000000028
 23
43.77832913458848
 33
0.0
  0
SOLID
  5
365
330
35E
100
AcDbEntity
  8
치수문자_일반주서
 62
     0
100
AcDbTrace
 10
63.19800000000001
 20
43.22799580125515
 30
0.0
 11
63.19800000000001
 21
44.32866246792182
 31
0.0
 12
66.50000000000001
 22
43.77832913458848
 32
0.0
 13
66.50000000000001
 23
43.77832913458848
 33
0.0
  0
MTEXT
  5
366
330
35E
100
AcDbEntity
  8
치수문자_일반주서
 62
     0
100
AcDbMText
 10
34.75000000000003
 20
48.15332913458848
 30
0.0
 40
3.5
 41
0.0
 71
     2
 72
     1
  1
\A1;63.5 [2 1/2]
  7
SLDTEXTSTYLE0
 73
     1
 44
1.0
  0
POINT
  5
367
330
35E
100
AcDbEntity
  8
Defpoints
 62
     0
100
AcDbPoint
 10
3.000000000000028
 20
9.34832913458845
 30
0.0
  0
POINT
  5
368
330
35E
100
AcDbEntity
  8
Defpoints
 62
     0
100
AcDbPoint
 10
66.50000000000001
 20
8.190829134588462
 30
0.0
  0
POINT
  5
369
330
35E
100
AcDbEntity
  8
Defpoints
 62
     0
100
AcDbPoint
 10
66.50000000000001
 20
43.77832913458848
 30
0.0
  0
ENDBLK
  5
360
330
35E
100
AcDbEntity
  8
0
100
AcDbBlockEnd
  0
BLOCK
  5
3AF
330
3AE
100
AcDbEntity
  8
0
100
AcDbBlockBegin
  2
*D16
 70
     1
 10
0.0
 20
0.0
 30
0.0
  3
*D16
  1
*D18
  0
LINE
  5
3B1
330
3AE
100
AcDbEntity
  8
치수문자_일반주서
 62
     0
370
    -2
100
AcDbLine
 10
142.9166771470897
 20
-26.83355991574368
 30
0.0
 11
161.8541771470897
 21
-26.83355991574361
 31
0.0
  0
LINE
  5
3B2
330
3AE
100
AcDbEntity
  8
치수문자_일반주서
 62
     0
370
    -2
100
AcDbLine
 10
142.9166771470897
 20
-25.24673078115514
 30
0.0
 11
161.8541771470897
 21
-25.24673078115507
 31
0.0
  0
LINE
  5
3B3
330
3AE
100
AcDbEntity
  8
치수문자_일반주서
 62
     0
370
    -2
100
AcDbLine
 10
161.8541771470897
 20
-25.24673078115507
 30
0.0
 11
161.8541771470897
 21
7.607269218844927
 31
0.0
  0
LINE
  5
3B4
330
3AE
100
AcDbEntity
  8
치수문자_일반주서
 62
     0
370
    -2
100
AcDbLine
 10
161.8541771470897
 20
-26.83355991574361
 30
0.0
 11
161.8541771470897
 21
-25.24673078115507
 31
0.0
  0
LINE
  5
3B5
330
3AE
100
AcDbEntity
  8
치수문자_일반주서
 62
     0
370
    -2
100
AcDbLine
 10
161.8541771470897
 20
-30.13555991574361
 30
0.0
 11
161.8541771470897
 21
-33.43755991574361
 31
0.0
  0
LINE
  5
3B6
330
3AE
100
AcDbEntity
  8
치수문자_일반주서
 62
     0
370
    -2
100
AcDbLine
 10
161.8541771470897
 20
-21.94473078115507
 30
0.0
 11
161.8541771470897
 21
-18.64273078115507
 31
0.0
  0
SOLID
  5
3B7
330
3AE
100
AcDbEntity
  8
치수문자_일반주서
 62
     0
100
AcDbTrace
 10
162.404510480423
 20
-30.13555991574361
 30
0.0
 11
161.3038438137563
 21
-30.13555991574361
 31
0.0
 12
161.8541771470897
 22
-26.83355991574361
 32
0.0
 13
161.8541771470897
 23
-26.83355991574361
 33
0.0
  0
SOLID
  5
3B8
330
3AE
100
AcDbEntity
  8
치수문자_일반주서
 62
     0
100
AcDbTrace
 10
161.3038438137563
 20
-21.94473078115507
 30
0.0
 11
162.404510480423
 21
-21.94473078115507
 31
0.0
 12
161.8541771470897
 22
-25.24673078115507
 32
0.0
 13
161.8541771470897
 23
-25.24673078115507
 33
0.0
  0
MTEXT
  5
3B9
330
3AE
100
AcDbEntity
  8
치수문자_일반주서
 62
     0
100
AcDbMText
 10
157.4791771470897
 20
-5.517730781155073
 30
0.0
 40
3.5
 41
0.0
 71
     2
 72
     1
  1
\A1;%%c1.59 [1/16]
  7
SLDTEXTSTYLE0
 11
0.0
 21
1.0
 31
0.0
 73
     1
 44
1.0
  0
POINT
  5
3BA
330
3AE
100
AcDbEntity
  8
Defpoints
 62
     0
100
AcDbPoint
 10
142.8541771470897
 20
-26.83355991574368
 30
0.0
  0
POINT
  5
3BB
330
3AE
100
AcDbEntity
  8
Defpoints
 62
     0
100
AcDbPoint
 10
142.8541771470897
 20
-25.24673078115514
 30
0.0
  0
POINT
  5
3BC
330
3AE
100
AcDbEntity
  8
Defpoints
 62
     0
100
AcDbPoint
 10
161.8541771470897
 20
-25.24673078115507
 30
0.0
  0
ENDBLK
  5
3B0
330
3AE
100
AcDbEntity
  8
0
100
AcDbBlockEnd
  0
BLOCK
  5
3BE
330
3BD
100
AcDbEntity
  8
0
100
AcDbBlockBegin
  2
*D17
 70
     1
 10
0.0
 20
0.0
 30
0.0
  3
*D17
  1
*D19
  0
LINE
  5
3C0
330
3BD
100
AcDbEntity
  8
치수문자_일반주서
 62
     0
370
    -2
100
AcDbLine
 10
142.8541771470897
 20
-25.18423078115514
 30
0.0
 11
142.8541771470897
 21
-3.124087066544192
 31
0.0
  0
LINE
  5
3C1
330
3BD
100
AcDbEntity
  8
치수문자_일반주서
 62
     0
370
    -2
100
AcDbLine
 10
137.2979271470897
 20
-25.48045202678702
 30
0.0
 11
137.2979271470897
 21
-3.124087066544192
 31
0.0
  0
LINE
  5
3C2
330
3BD
100
AcDbEntity
  8
치수문자_일반주서
 62
     0
370
    -2
100
AcDbLine
 10
137.2979271470897
 20
-3.124087066544192
 30
0.0
 11
104.4439271470897
 21
-3.124087066544192
 31
0.0
  0
LINE
  5
3C3
330
3BD
100
AcDbEntity
  8
치수문자_일반주서
 62
     0
370
    -2
100
AcDbLine
 10
142.8541771470897
 20
-3.124087066544192
 30
0.0
 11
137.2979271470897
 21
-3.124087066544192
 31
0.0
  0
LINE
  5
3C4
330
3BD
100
AcDbEntity
  8
치수문자_일반주서
 62
     0
370
    -2
100
AcDbLine
 10
146.1561771470897
 20
-3.124087066544192
 30
0.0
 11
149.4581771470897
 21
-3.124087066544192
 31
0.0
  0
LINE
  5
3C5
330
3BD
100
AcDbEntity
  8
치수문자_일반주서
 62
     0
370
    -2
100
AcDbLine
 10
133.9959271470897
 20
-3.124087066544192
 30
0.0
 11
130.6939271470897
 21
-3.124087066544192
 31
0.0
  0
SOLID
  5
3C6
330
3BD
100
AcDbEntity
  8
치수문자_일반주서
 62
     0
100
AcDbTrace
 10
146.1561771470897
 20
-2.573753733210859
 30
0.0
 11
146.1561771470897
 21
-3.674420399877525
 31
0.0
 12
142.8541771470897
 22
-3.124087066544192
 32
0.0
 13
142.8541771470897
 23
-3.124087066544192
 33
0.0
  0
SOLID
  5
3C7
330
3BD
100
AcDbEntity
  8
치수문자_일반주서
 62
     0
100
AcDbTrace
 10
133.9959271470897
 20
-3.674420399877525
 30
0.0
 11
133.9959271470897
 21
-2.573753733210859
 31
0.0
 12
137.2979271470897
 22
-3.124087066544192
 32
0.0
 13
137.2979271470897
 23
-3.124087066544192
 33
0.0
  0
MTEXT
  5
3C8
330
3BD
100
AcDbEntity
  8
치수문자_일반주서
 62
     0
100
AcDbMText
 10
117.5689271470897
 20
1.250912933455808
 30
0.0
 40
3.5
 41
0.0
 71
     2
 72
     1
  1
\A1;5.56 [7/32]
  7
SLDTEXTSTYLE0
 73
     1
 44
1.0
  0
POINT
  5
3C9
330
3BD
100
AcDbEntity
  8
Defpoints
 62
     0
100
AcDbPoint
 10
142.8541771470897
 20
-25.24673078115514
 30
0.0
  0
POINT
  5
3CA
330
3BD
100
AcDbEntity
  8
Defpoints
 62
     0
100
AcDbPoint
 10
137.2979271470897
 20
-25.54295202678702
 30
0.0
  0
POINT
  5
3CB
330
3BD
100
AcDbEntity
  8
Defpoints
 62
     0
100
AcDbPoint
 10
137.2979271470897
 20
-3.124087066544192
 30
0.0
  0
ENDBLK
  5
3BF
330
3BD
100
AcDbEntity
  8
0
100
AcDbBlockEnd
  0
BLOCK
  5
3CD
330
3CC
100
AcDbEntity
  8
0
100
AcDbBlockBegin
  2
*D18
 70
     1
 10
0.0
 20
0.0
 30
0.0
  3
*D18
  1
*D20
  0
LINE
  5
3CF
330
3CC
100
AcDbEntity
  8
치수문자_일반주서
 62
     0
370
    -2
100
AcDbLine
 10
79.35417714708969
 20
-24.02673078115516
 30
0.0
 11
79.35417714708969
 21
10.34076921884488
 31
0.0
  0
LINE
  5
3D0
330
3CC
100
AcDbEntity
  8
치수문자_일반주서
 62
     0
370
    -2
100
AcDbLine
 10
142.8541771470897
 20
-25.18423078115514
 30
0.0
 11
142.8541771470897
 21
10.34076921884488
 31
0.0
  0
LINE
  5
3D1
330
3CC
100
AcDbEntity
  8
치수문자_일반주서
 62
     0
370
    -2
100
AcDbLine
 10
82.65617714708969
 20
10.34076921884488
 30
0.0
 11
139.5521771470897
 21
10.34076921884488
 31
0.0
  0
SOLID
  5
3D2
330
3CC
100
AcDbEntity
  8
치수문자_일반주서
 62
     0
100
AcDbTrace
 10
82.65617714708969
 20
10.89110255217821
 30
0.0
 11
82.65617714708969
 21
9.790435885511544
 31
0.0
 12
79.35417714708969
 22
10.34076921884488
 32
0.0
 13
79.35417714708969
 23
10.34076921884488
 33
0.0
  0
SOLID
  5
3D3
330
3CC
100
AcDbEntity
  8
치수문자_일반주서
 62
     0
100
AcDbTrace
 10
139.5521771470897
 20
9.790435885511544
 30
0.0
 11
139.5521771470897
 21
10.89110255217821
 31
0.0
 12
142.8541771470897
 22
10.34076921884488
 32
0.0
 13
142.8541771470897
 23
10.34076921884488
 33
0.0
  0
MTEXT
  5
3D4
330
3CC
100
AcDbEntity
  8
치수문자_일반주서
 62
     0
100
AcDbMText
 10
111.1041771470897
 20
14.71576921884488
 30
0.0
 40
3.5
 41
0.0
 71
     2
 72
     1
  1
\A1;63.5 [2 1/2]
  7
SLDTEXTSTYLE0
 73
     1
 44
1.0
  0
POINT
  5
3D5
330
3CC
100
AcDbEntity
  8
Defpoints
 62
     0
100
AcDbPoint
 10
79.35417714708969
 20
-24.08923078115516
 30
0.0
  0
POINT
  5
3D6
330
3CC
100
AcDbEntity
  8
Defpoints
 62
     0
100
AcDbPoint
 10
142.8541771470897
 20
-25.24673078115514
 30
0.0
  0
POINT
  5
3D7
330
3CC
100
AcDbEntity
  8
Defpoints
 62
     0
100
AcDbPoint
 10
142.8541771470897
 20
10.34076921884488
 30
0.0
  0
ENDBLK
  5
3CE
330
3CC
100
AcDbEntity
  8
0
100
AcDbBlockEnd
  0
ENDSEC
  0
SECTION
  2
ENTITIES
  0
LINE
  5
96
330
1F
100
AcDbEntity
  8
외형선
  6
Continuous
370
    15
100
AcDbLine
 10
19.26911934298444
 20
2.381249999999998
 30
0.0
 11
-19.26911934298444
 21
2.381249999999996
 31
0.0
  0
LINE
  5
97
330
1F
100
AcDbEntity
  8
외형선
  6
Continuous
370
    15
100
AcDbLine
 10
-19.2691193429844
 20
-2.381250000000001
 30
0.0
 11
19.26911934298444
 21
-2.381249999999998
 31
0.0
  0
LINE
  5
98
330
1F
100
AcDbEntity
  8
외형선
  6
Continuous
370
    15
100
AcDbLine
 10
19.26911934298444
 20
-2.38125
 30
0.0
 11
25.19375000000002
 21
-0.7937499999999998
 31
0.0
  0
LINE
  5
99
330
1F
100
AcDbEntity
  8
외형선
  6
Continuous
370
    15
100
AcDbLine
 10
25.19375000000002
 20
0.7937500000000001
 30
0.0
 11
19.26911934298444
 21
2.38125
 31
0.0
  0
LINE
  5
9C
330
1F
100
AcDbEntity
  8
외형선
  6
Continuous
370
    15
100
AcDbLine
 10
25.39356962290676
 20
0.7937500000000001
 30
0.0
 11
25.19375000000002
 21
0.7937500000000001
 31
0.0
  0
LINE
  5
9D
330
1F
100
AcDbEntity
  8
외형선
  6
Continuous
370
    15
100
AcDbLine
 10
25.19375000000002
 20
-0.7937499999999998
 30
0.0
 11
25.39356962290676
 21
-0.7937499999999998
 31
0.0
  0
SPLINE
  5
9E
330
1F
100
AcDbEntity
  8
외형선
  6
Continuous
370
    15
100
AcDbSpline
210
0.0
220
0.0
230
1.0
 70
     8
 71
     3
 72
     9
 73
     5
 74
     0
 42
0.000000001
 43
0.00000001
 40
0.0
 40
0.0
 40
0.0
 40
0.0
 40
0.5053743127838657
 40
0.9999999999999999
 40
0.9999999999999999
 40
0.9999999999999999
 40
0.9999999999999999
 10
25.76078669107407
 20
-0.59525938519994
 30
0.0
 10
25.83392671599621
 20
-0.584381715150725
 30
0.0
 10
25.97865117680079
 20
-0.5628577283273837
 30
0.0
 10
26.12256602119227
 20
-0.5493259183357657
 30
0.0
 10
26.19375000000002
 20
-0.5426327375193836
 30
0.0
  0
SPLINE
  5
9F
330
1F
100
AcDbEntity
  8
외형선
  6
Continuous
370
    15
100
AcDbSpline
210
0.0
220
0.0
230
1.0
 70
     8
 71
     3
 72
     9
 73
     5
 74
     0
 42
0.000000001
 43
0.00000001
 40
0.0
 40
0.0
 40
0.0
 40
0.0
 40
0.4705557556434526
 40
1.0
 40
1.0
 40
1.0
 40
1.0
 10
26.19375000000002
 20
0.5426327375193838
 30
0.0
 10
26.12406654668304
 20
0.5491841558587883
 30
0.0
 10
25.97597898749105
 20
0.5631068807661608
 30
0.0
 10
25.82821180795494
 20
0.5852602068672563
 30
0.0
 10
25.74997732524474
 20
0.5969891578648353
 30
0.0
  0
SPLINE
  5
A0
330
1F
100
AcDbEntity
  8
0
  6
Continuous
 62
     1
370
    25
100
AcDbSpline
210
0.0
220
0.0
230
1.0
 70
     8
 71
     3
 72
     9
 73
     5
 74
     0
 42
0.000000001
 43
0.00000001
 40
0.0
 40
0.0
 40
0.0
 40
0.0
 40
0.4995194268409837
 40
1.0
 40
1.0
 40
1.0
 40
1.0
 10
29.69293139386767
 20
0.2033853679951158
 30
0.0
 10
29.65663211262029
 20
0.2208160337199553
 30
0.0
 10
29.58396370515328
 20
0.2557109042459585
 30
0.0
 10
29.51126983930471
 20
0.2939574342736119
 30
0.0
 10
29.47488797165967
 20
0.3130990795431954
 30
0.0
  0
LINE
  5
A1
330
1F
100
AcDbEntity
  8
0
  6
Continuous
 62
     1
370
    25
100
AcDbLine
 10
27.87202920309255
 20
0.7937500000000005
 30
0.0
 11
27.48742511256674
 21
0.7937500000000005
 31
0.0
  0
LINE
  5
A2
330
1F
100
AcDbEntity
  8
0
  6
Continuous
 62
     1
370
    25
100
AcDbLine
 10
27.48743143598652
 20
-0.7937500000000003
 30
0.0
 11
27.87202920309254
 21
-0.7937500000000003
 31
0.0
  0
SPLINE
  5
A3
330
1F
100
AcDbEntity
  8
0
  6
Continuous
 62
     1
370
    25
100
AcDbSpline
210
0.0
220
0.0
230
1.0
 70
     8
 71
     3
 72
    10
 73
     6
 74
     0
 42
0.000000001
 43
0.00000001
 40
0.0
 40
0.0
 40
0.0
 40
0.0
 40
0.429624358001875
 40
0.9089811794589258
 40
1.0
 40
1.0
 40
1.0
 40
1.0
 10
29.432365501773
 20
0.6307753264316057
 30
0.0
 10
29.33450316272737
 20
0.6269949562676644
 30
0.0
 10
29.12745013439345
 20
0.6189966077885597
 30
0.0
 10
28.90036246847682
 20
0.6165564177660372
 30
0.0
 10
28.77056244021404
 20
0.6255910317256491
 30
0.0
 10
28.74984934412654
 20
0.6270327481070975
 30
0.0
  0
SPLINE
  5
A4
330
1F
100
AcDbEntity
  8
0
  6
Continuous
 62
     1
370
    25
100
AcDbSpline
210
0.0
220
0.0
230
1.0
 70
     8
 71
     3
 72
    11
 73
     7
 74
     0
 42
0.000000001
 43
0.00000001
 40
0.0
 40
0.0
 40
0.0
 40
0.0
 40
0.4809181618994303
 40
0.6319056673784148
 40
0.7546669295563845
 40
1.0
 40
1.0
 40
1.0
 40
1.0
 10
28.23708449414297
 20
-0.6605361258896048
 30
0.0
 10
28.42874003110624
 20
-0.6447113904283508
 30
0.0
 10
28.68056711851175
 20
-0.6239183723746438
 30
0.0
 10
28.98117379423921
 20
-0.6195216271986319
 30
0.0
 10
29.18761507927401
 20
-0.6202539450738178
 30
0.0
 10
29.33448045075635
 20
-0.6265674237834418
 30
0.0
 10
29.432365501773
 20
-0.6307753264316055
 30
0.0
  0
LINE
  5
A5
330
1F
100
AcDbEntity
  8
0
  6
Continuous
 62
     1
370
    25
100
AcDbLine
 10
26.19374999997802
 20
-0.5426327375212586
 30
0.0
 11
26.34317368278596
 21
-0.5339124412905673
 31
0.0
  0
SPLINE
  5
A6
330
1F
100
AcDbEntity
  8
0
  6
Continuous
 62
     1
370
    25
100
AcDbSpline
210
0.0
220
0.0
230
1.0
 70
     8
 71
     3
 72
    10
 73
     6
 74
     0
 42
0.000000001
 43
0.00000001
 40
0.0
 40
0.0
 40
0.0
 40
0.0
 40
0.5194941287463823
 40
0.6595610558253382
 40
1.0
 40
1.0
 40
1.0
 40
1.0
 10
31.43543227150653
 20
0.5411696071346767
 30
0.0
 10
31.19938403538414
 20
0.5298266978828277
 30
0.0
 10
30.89969205576873
 20
0.5154254933488434
 30
0.0
 10
30.44420913071693
 20
0.5454227732804706
 30
0.0
 10
30.22463468698331
 20
0.575606964627763
 30
0.0
 10
30.06906594939975
 20
0.5969924977664715
 30
0.0
  0
SPLINE
  5
A7
330
1F
100
AcDbEntity
  8
0
  6
Continuous
 62
     1
370
    25
100
AcDbSpline
210
0.0
220
0.0
230
1.0
 70
     8
 71
     3
 72
    10
 73
     6
 74
     0
 42
0.000000001
 43
0.00000001
 40
0.0
 40
0.0
 40
0.0
 40
0.0
 40
0.4682547595121756
 40
0.7840031127114032
 40
1.0
 40
1.0
 40
1.0
 40
1.0
 10
30.06906594939975
 20
-0.5969924977664712
 30
0.0
 10
30.16310003337488
 20
-0.5833294578656087
 30
0.0
 10
30.3205421373575
 20
-0.5604533085178993
 30
0.0
 10
30.52138086445909
 20
-0.5405914347976672
 30
0.0
 10
30.62797723169782
 20
-0.534744670913772
 30
0.0
 10
30.67127707110722
 20
-0.5323696937565264
 30
0.0
  0
SPLINE
  5
A8
330
1F
100
AcDbEntity
  8
0
  6
Continuous
 62
     1
370
    25
100
AcDbSpline
210
0.0
220
0.0
230
1.0
 70
     8
 71
     3
 72
    11
 73
     7
 74
     0
 42
0.000000001
 43
0.00000001
 40
0.0
 40
0.0
 40
0.0
 40
0.0
 40
0.3654391281699065
 40
0.4436988615841197
 40
0.5765238676637771
 40
1.0
 40
1.0
 40
1.0
 40
1.0
 10
27.1353006044576
 20
0.5428461842544432
 30
0.0
 10
27.02053656291984
 20
0.5347778686410298
 30
0.0
 10
26.88119550539241
 20
0.5249817023944079
 30
0.0
 10
26.69981793320447
 20
0.5222058099118834
 30
0.0
 10
26.50059354748171
 20
0.5220709141416064
 30
0.0
 10
26.32637291603061
 20
0.5337455733682145
 30
0.0
 10
26.19374999997802
 20
0.542632737521259
 30
0.0
  0
LINE
  5
A9
330
1F
100
AcDbEntity
  8
외형선
  6
Continuous
370
    15
100
AcDbLine
 10
19.26911934298444
 20
2.38125
 30
0.0
 11
19.26911934298444
 21
-2.381250000000003
 31
0.0
  0
LINE
  5
AB
330
1F
100
AcDbEntity
  8
외형선
  6
Continuous
370
    15
100
AcDbLine
 10
25.19375000000002
 20
0.7937500000000001
 30
0.0
 11
25.19375000000002
 21
-0.7937500000000001
 31
0.0
  0
SPLINE
  5
AD
330
1F
100
AcDbEntity
  8
외형선
  6
Continuous
370
    15
100
AcDbSpline
210
0.0
220
0.0
230
1.0
 70
     8
 71
     3
 72
    12
 73
     8
 74
     0
 42
0.000000001
 43
0.00000001
 40
0.0
 40
0.0
 40
0.0
 40
0.0
 40
0.25
 40
0.25
 40
0.4999999999999999
 40
0.4999999999999999
 40
1.0
 40
1.0
 40
1.0
 40
1.0
 10
25.64330110141905
 20
-0.611969459185379
 30
0.0
 10
25.59709079564227
 20
-0.6176444346886946
 30
0.0
 10
25.56376641312119
 20
-0.6293474369356006
 30
0.0
 10
25.51014915745725
 20
-0.650227634618607
 30
0.0
 10
25.48896789492481
 20
-0.6602290871215118
 30
0.0
 10
25.43405576975096
 20
-0.6868839844948885
 30
0.0
 10
25.40773141982436
 20
-0.7003939181747815
 30
0.0
 10
25.39358875208056
 20
-0.7157143575088829
 30
0.0
  0
ELLIPSE
  5
AE
330
1F
100
AcDbEntity
  8
외형선
  6
Continuous
370
    15
100
AcDbEllipse
 10
25.39362832585358
 20
0.0000000000000001
 30
0.0
 11
5.870294690701883E-5
 21
0.79375
 31
0.0
210
0.0
220
0.0
230
1.0
 40
0.0000389207612015
 41
3.588732749055076
 42
4.664389754846366
  0
SPLINE
  5
AF
330
1F
100
AcDbEntity
  8
외형선
  6
Continuous
370
    15
100
AcDbSpline
210
0.0
220
0.0
230
1.0
 70
    24
 71
     3
 72
     8
 73
     4
 74
     0
 42
0.000000001
 43
0.00000001
 40
0.0
 40
0.0
 40
0.0
 40
0.0
 40
1.0
 40
1.0
 40
1.0
 40
1.0
 10
26.19375000000002
 20
-0.1924489053846635
 30
0.0
 10
26.19375000000002
 20
-0.2161375381931602
 30
0.0
 10
26.19375000000002
 20
-0.242763079734252
 30
0.0
 10
26.19375000000002
 20
-0.2718521982943244
 30
0.0
  0
SPLINE
  5
B0
330
1F
100
AcDbEntity
  8
외형선
  6
Continuous
370
    15
100
AcDbSpline
210
0.0
220
0.0
230
1.0
 70
     8
 71
     3
 72
    10
 73
     6
 74
     0
 42
0.000000001
 43
0.00000001
 40
0.0
 40
0.0
 40
0.0
 40
0.0
 40
0.5
 40
0.5
 40
1.0
 40
1.0
 40
1.0
 40
1.0
 10
26.19374999999972
 20
-0.2718521982942221
 30
0.0
 10
26.06007751023072
 20
-0.1995692120717009
 30
0.0
 10
25.92497989795732
 20
-0.1231621639833044
 30
0.0
 10
25.6630417819772
 20
0.0294021580610341
 30
0.0
 10
25.52674876514972
 20
0.1073609057776343
 30
0.0
 10
25.39355836116944
 20
0.1821536499979109
 30
0.0
  0
SPLINE
  5
B1
330
1F
100
AcDbEntity
  8
외형선
  6
Continuous
370
    15
100
AcDbSpline
210
0.0
220
0.0
230
1.0
 70
    24
 71
     3
 72
     8
 73
     4
 74
     0
 42
0.000000001
 43
0.00000001
 40
0.0
 40
0.0
 40
0.0
 40
0.0
 40
1.0
 40
1.0
 40
1.0
 40
1.0
 10
25.39355836116944
 20
0.1941285936562009
 30
0.0
 10
25.39355836116944
 20
0.1935214483069178
 30
0.0
 10
25.39355836116944
 20
0.1895195563120261
 30
0.0
 10
25.39355836116944
 20
0.1821548151407452
 30
0.0
  0
SPLINE
  5
B2
330
1F
100
AcDbEntity
  8
외형선
  6
Continuous
370
    15
100
AcDbSpline
210
0.0
220
0.0
230
1.0
 70
     8
 71
     3
 72
    10
 73
     6
 74
     0
 42
0.000000001
 43
0.00000001
 40
0.0
 40
0.0
 40
0.0
 40
0.0
 40
0.5
 40
0.5
 40
1.0
 40
1.0
 40
1.0
 40
1.0
 10
26.19374999999845
 20
-0.1924489053839284
 30
0.0
 10
26.06007751022964
 20
-0.1297701316862558
 30
0.0
 10
25.9249798979565
 20
-0.0641349941837004
 30
0.0
 10
25.66304178197677
 20
0.0657713551380628
 30
0.0
 10
25.52674876514951
 20
0.1315737708242806
 30
0.0
 10
25.39355836116944
 20
0.194128593656201
 30
0.0
  0
ELLIPSE
  5
B3
330
1F
100
AcDbEntity
  8
외형선
  6
Continuous
370
    15
100
AcDbEllipse
 10
25.39362832585358
 20
0.0000000000000001
 30
0.0
 11
-5.870294690524247E-5
 21
0.79375
 31
0.0
210
0.0
220
0.0
230
1.0
 40
0.0000389207612037
 41
5.615510172560854
 42
7.62239033537635
  0
LINE
  5
B4
330
1F
100
AcDbEntity
  8
외형선
  6
Continuous
370
    15
100
AcDbLine
 10
26.19375000000002
 20
-0.2718521982943793
 30
0.0
 11
26.19375000000002
 21
-0.4672391015929542
 31
0.0
  0
SPLINE
  5
B5
330
1F
100
AcDbEntity
  8
외형선
  6
Continuous
370
    15
100
AcDbSpline
210
0.0
220
0.0
230
1.0
 70
     8
 71
     3
 72
    10
 73
     6
 74
     0
 42
0.000000001
 43
0.00000001
 40
0.0
 40
0.0
 40
0.0
 40
0.0
 40
0.5
 40
0.5
 40
1.0
 40
1.0
 40
1.0
 40
1.0
 10
25.39365640377434
 20
-0.0383556214964752
 30
0.0
 10
25.52683199396276
 20
-0.1151002571914772
 30
0.0
 10
25.66310734247973
 20
-0.1918601937259229
 30
0.0
 10
25.92501074388078
 20
-0.3359777559155867
 30
0.0
 10
26.06009390971569
 20
-0.4050524716635943
 30
0.0
 10
26.19375000000001
 20
-0.4672391015930006
 30
0.0
  0
ELLIPSE
  5
B6
330
1F
100
AcDbEntity
  8
외형선
  6
Continuous
370
    15
100
AcDbEllipse
 10
25.39362832585358
 20
0.0000000000000001
 30
0.0
 11
5.870294690701883E-5
 21
0.79375
 31
0.0
210
0.0
220
0.0
230
1.0
 40
0.0000389207612015
 41
3.14159265677006
 42
3.588732749055076
  0
SPLINE
  5
B7
330
1F
100
AcDbEntity
  8
외형선
  6
Continuous
370
    15
100
AcDbSpline
210
0.0
220
0.0
230
1.0
 70
    24
 71
     3
 72
    10
 73
     6
 74
     0
 42
0.000000001
 43
0.00000001
 40
0.0
 40
0.0
 40
0.0
 40
0.0
 40
0.5
 40
0.5
 40
1.0
 40
1.0
 40
1.0
 40
1.0
 10
25.39362060291894
 20
0.6324623095552122
 30
0.0
 10
25.39362060291894
 20
0.6075074391321578
 30
0.0
 10
25.39362060291894
 20
0.5549015793516218
 30
0.0
 10
25.39362060291894
 20
0.4016720067578041
 30
0.0
 10
25.39362060291894
 20
0.3017078539266107
 30
0.0
 10
25.39362060291894
 20
0.1940993607798071
 30
0.0
  0
SPLINE
  5
B8
330
1F
100
AcDbEntity
  8
외형선
  6
Continuous
370
    15
100
AcDbSpline
210
0.0
220
0.0
230
1.0
 70
     8
 71
     3
 72
    10
 73
     6
 74
     0
 42
0.000000001
 43
0.00000001
 40
0.0
 40
0.0
 40
0.0
 40
0.0
 40
0.5
 40
0.5
 40
1.0
 40
1.0
 40
1.0
 40
1.0
 10
26.19375000000002
 20
0.49752875436813
 30
0.0
 10
26.06008792136557
 20
0.5357709240962552
 30
0.0
 10
25.92499948039037
 20
0.5670129860603971
 30
0.0
 10
25.66308340281368
 20
0.6123659672214361
 30
0.0
 10
25.52680160259351
 20
0.626972242755684
 30
0.0
 10
25.39362060291894
 20
0.6324623095552122
 30
0.0
  0
SPLINE
  5
B9
330
1F
100
AcDbEntity
  8
외형선
  6
Continuous
370
    15
100
AcDbSpline
210
0.0
220
0.0
230
1.0
 70
    24
 71
     3
 72
    10
 73
     6
 74
     0
 42
0.000000001
 43
0.00000001
 40
0.0
 40
0.0
 40
0.0
 40
0.0
 40
0.5
 40
0.5
 40
1.0
 40
1.0
 40
1.0
 40
1.0
 10
26.19375000000001
 20
0.4975287543681307
 30
0.0
 10
26.19375000000001
 20
0.4108758884672005
 30
0.0
 10
26.19375000000001
 20
0.3009307915528792
 30
0.0
 10
26.19375000000001
 20
0.0597494093248588
 30
0.0
 10
26.19375000000001
 20
-0.0704487370353105
 30
0.0
 10
26.19375000000001
 20
-0.1924489053846625
 30
0.0
  0
LINE
  5
BA
330
1F
100
AcDbEntity
  8
외형선
  6
Continuous
370
    15
100
AcDbLine
 10
25.76467323321906
 20
-0.58680170782381
 30
0.0
 11
25.64330110141905
 21
-0.611969459185379
 31
0.0
  0
SPLINE
  5
BB
330
1F
100
AcDbEntity
  8
외형선
  6
Continuous
370
    15
100
AcDbSpline
210
0.0
220
0.0
230
1.0
 70
    24
 71
     3
 72
    13
 73
     9
 74
     0
 42
0.000000001
 43
0.00000001
 40
0.0
 40
0.0
 40
0.0
 40
0.0
 40
0.1658132608705677
 40
0.3651752013472755
 40
0.5659213463995377
 40
0.7710331961219354
 40
0.9776535855109181
 40
1.0
 40
1.0
 40
1.0
 40
1.0
 10
26.19375000000002
 20
-0.4672391015930023
 30
0.0
 10
26.19375000000002
 20
-0.4751939721279083
 30
0.0
 10
26.19375000000002
 20
-0.4927132069226655
 30
0.0
 10
26.19375000000002
 20
-0.5129130283543225
 30
0.0
 10
26.19375000000002
 20
-0.5294370428973522
 30
0.0
 10
26.19375000000001
 20
-0.5392201878323943
 30
0.0
 10
26.19375000000002
 20
-0.5433589846816772
 30
0.0
 10
26.19375000000002
 20
-0.5424276216317799
 30
0.0
 10
26.19375000000002
 20
-0.5423367236308457
 30
0.0
  0
SPLINE
  5
BC
330
1F
100
AcDbEntity
  8
외형선
  6
Continuous
370
    15
100
AcDbSpline
210
0.0
220
0.0
230
1.0
 70
    24
 71
     3
 72
     9
 73
     5
 74
     0
 42
0.000000001
 43
0.00000001
 40
0.0
 40
0.0
 40
0.0
 40
0.0
 40
0.4792937593509961
 40
1.0
 40
1.0
 40
1.0
 40
1.0
 10
26.19375000000002
 20
0.5420338916295593
 30
0.0
 10
26.19375000000002
 20
0.540596678772822
 30
0.0
 10
26.19375000000002
 20
0.5375980733691481
 30
0.0
 10
26.19375000000002
 20
0.5112489219486098
 30
0.0
 10
26.19375000000002
 20
0.4975287543681299
 30
0.0
  0
SPLINE
  5
BD
330
1F
100
AcDbEntity
  8
0
  6
Continuous
 62
     1
370
    25
100
AcDbSpline
210
0.0
220
0.0
230
1.0
 70
     8
 71
     3
 72
    15
 73
    11
 74
     0
 42
0.000000001
 43
0.00000001
 40
0.0
 40
0.0
 40
0.0
 40
0.0
 40
0.1366167965984374
 40
0.2732289817236622
 40
0.4098367279411869
 40
0.5464402089762367
 40
0.6830395996710922
 40
0.8196350759418147
 40
0.9562268147343709
 40
1.0
 40
1.0
 40
1.0
 40
1.0
 10
31.75000000000001
 20
-0.7532218149528204
 30
0.0
 10
31.57339759239598
 20
-0.7101751407771163
 30
0.0
 10
31.2201987383676
 20
-0.624083245457764
 30
0.0
 10
30.69041371284171
 20
-0.373899941903721
 30
0.0
 10
30.16064905138107
 20
-0.0766771042162549
 30
0.0
 10
29.63090430072028
 20
0.2333219765818804
 30
0.0
 10
29.1011784947662
 20
0.5107273644233431
 30
0.0
 10
28.57147108485501
 20
0.7052643985519502
 30
0.0
 10
28.1617564101943
 20
0.7992593556921985
 30
0.0
 10
27.92861165018831
 20
0.7845480013242571
 30
0.0
 10
27.87202920309255
 20
0.7809776683250951
 30
0.0
  0
SPLINE
  5
BE
330
1F
100
AcDbEntity
  8
0
  6
Continuous
 62
     1
370
    25
100
AcDbSpline
210
0.0
220
0.0
230
1.0
 70
     8
 71
     3
 72
    13
 73
     9
 74
     0
 42
0.000000001
 43
0.00000001
 40
0.0
 40
0.0
 40
0.0
 40
0.0
 40
0.1921370630785584
 40
0.3834061316514845
 40
0.5747809498803056
 40
0.7671457746855652
 40
0.9590144628015863
 40
1.0
 40
1.0
 40
1.0
 40
1.0
 10
31.75000000000001
 20
-0.6262467348422712
 30
0.0
 10
31.61725294201373
 20
-0.5970074025265063
 30
0.0
 10
31.35235852146236
 20
-0.5386608289105866
 30
0.0
 10
30.95564941660678
 20
-0.3923265295037065
 30
0.0
 10
30.55876091954389
 20
-0.2165655137995036
 30
0.0
 10
30.16094400554539
 20
-0.0243647045146624
 30
0.0
 10
29.86725457729209
 20
0.1239675703316535
 30
0.0
 10
29.7065249529204
 20
0.1959954707100858
 30
0.0
 10
29.67823433466051
 20
0.2086733690230647
 30
0.0
  0
LINE
  5
BF
330
1F
100
AcDbEntity
  8
0
  6
Continuous
 62
     1
370
    25
100
AcDbLine
 10
31.74999999999998
 20
-0.753221814952821
 30
0.0
 11
31.75000000000001
 21
-0.6262467348422712
 31
0.0
  0
SPLINE
  5
C0
330
1F
100
AcDbEntity
  8
0
  6
Continuous
 62
     1
370
    25
100
AcDbSpline
210
0.0
220
0.0
230
1.0
 70
     8
 71
     3
 72
    19
 73
    15
 74
     0
 42
0.000000001
 43
0.00000001
 40
0.0
 40
0.0
 40
0.0
 40
0.0
 40
0.0616300493931038
 40
0.1469003823945404
 40
0.2320645574417621
 40
0.3171587000762544
 40
0.4019904400765051
 40
0.4867700301963719
 40
0.571547830818417
 40
0.6563239935317328
 40
0.7410996278216233
 40
0.8258750405436517
 40
0.9116968516159617
 40
1.0
 40
1.0
 40
1.0
 40
1.0
 10
26.363154159246
 20
0.5341958306345231
 30
0.0
 10
26.47384513570857
 20
0.5811525817188232
 30
0.0
 10
26.73768634515269
 20
0.6930779291461904
 30
0.0
 10
27.15421704170316
 20
0.7834517542108888
 30
0.0
 10
27.61294272100486
 20
0.8056540065803467
 30
0.0
 10
28.07092838170357
 20
0.7365006269979176
 30
0.0
 10
28.52839732922162
 20
0.5874633046243549
 30
0.0
 10
28.98544155163332
 20
0.374560878180565
 30
0.0
 10
29.44210798618446
 20
0.1204122664891703
 30
0.0
 10
29.89868256756004
 20
-0.1469695539513169
 30
0.0
 10
30.35521303379825
 20
-0.3987720243752189
 30
0.0
 10
30.81365940709748
 20
-0.6059868145402009
 30
0.0
 10
31.27856786968216
 20
-0.7546005843862915
 30
0.0
 10
31.59137011199358
 20
-0.7801316757351411
 30
0.0
 10
31.75000000000001
 20
-0.7937499999999961
 30
0.0
  0
SPLINE
  5
C1
330
1F
100
AcDbEntity
  8
0
  6
Continuous
 62
     1
370
    25
100
AcDbSpline
210
0.0
220
0.0
230
1.0
 70
     8
 71
     3
 72
    15
 73
    11
 74
     0
 42
0.000000001
 43
0.00000001
 40
0.0
 40
0.0
 40
0.0
 40
0.0
 40
0.006865363227255
 40
0.1564766704074666
 40
0.3063464355765141
 40
0.4569829942725248
 40
0.6069490236367926
 40
0.7565485937740682
 40
0.9065782338432228
 40
1.0
 40
1.0
 40
1.0
 40
1.0
 10
29.78130913665543
 20
-0.0768759843976864
 30
0.0
 10
29.77525022936411
 20
-0.0745285813413582
 30
0.0
 10
29.63715445673432
 20
-0.0210261223745356
 30
0.0
 10
29.36696746639978
 20
0.0920971274372991
 30
0.0
 10
28.96984111890442
 20
0.2459800923395511
 30
0.0
 10
28.57203887156052
 20
0.3798909683176832
 30
0.0
 10
28.17481375119935
 20
0.4831267302051135
 30
0.0
 10
27.77822522398442
 20
0.5444074124211752
 30
0.0
 10
27.43139285979562
 20
0.5645577274079785
 30
0.0
 10
27.21645825985506
 20
0.5449099760644314
 30
0.0
 10
27.13397950055796
 20
0.5373703702762441
 30
0.0
  0
LINE
  5
C2
330
1F
100
AcDbEntity
  8
0
  6
Continuous
 62
     1
370
    25
100
AcDbLine
 10
31.75000000000001
 20
-0.7930791345885302
 30
0.0
 11
31.74999999999997
 21
-0.7532218149528184
 31
0.0
  0
SPLINE
  5
C3
330
1F
100
AcDbEntity
  8
0
  6
Continuous
 62
     1
370
    25
100
AcDbSpline
210
0.0
220
0.0
230
1.0
 70
     8
 71
     3
 72
    13
 73
     9
 74
     0
 42
0.000000001
 43
0.00000001
 40
0.0
 40
0.0
 40
0.0
 40
0.0
 40
0.0697628662348777
 40
0.2769179672761324
 40
0.4840676699069704
 40
0.6912122454045657
 40
0.8456961650494098
 40
1.0
 40
1.0
 40
1.0
 40
1.0
 10
28.74984934412654
 20
-0.6270327481070973
 30
0.0
 10
28.69038856415549
 20
-0.6502681890125659
 30
0.0
 10
28.45436388210189
 20
-0.7424993631538922
 30
0.0
 10
28.04176917363355
 20
-0.8034101829480741
 30
0.0
 10
27.51214965710331
 20
-0.7871771192646104
 30
0.0
 10
27.02718719404687
 20
-0.6603322205496558
 30
0.0
 10
26.58797385738146
 20
-0.4796574871147176
 30
0.0
 10
26.32510685120632
 20
-0.3410936911476235
 30
0.0
 10
26.19374999999975
 20
-0.2718521982942347
 30
0.0
  0
SPLINE
  5
C4
330
1F
100
AcDbEntity
  8
외형선
  6
Continuous
370
    15
100
AcDbSpline
210
0.0
220
0.0
230
1.0
 70
    24
 71
     3
 72
     8
 73
     4
 74
     0
 42
0.000000001
 43
0.00000001
 40
0.0
 40
0.0
 40
0.0
 40
0.0
 40
1.0
 40
1.0
 40
1.0
 40
1.0
 10
26.19375000000002
 20
-0.1924489053846658
 30
0.0
 10
26.19375000000002
 20
-0.2161375381931625
 30
0.0
 10
26.19375000000002
 20
-0.2427630797342543
 30
0.0
 10
26.19375000000002
 20
-0.2718521982943267
 30
0.0
  0
SPLINE
  5
C5
330
1F
100
AcDbEntity
  8
0
  6
Continuous
 62
     1
370
    25
100
AcDbSpline
210
0.0
220
0.0
230
1.0
 70
     8
 71
     3
 72
    13
 73
     9
 74
     0
 42
0.000000001
 43
0.00000001
 40
0.0
 40
0.0
 40
0.0
 40
0.0
 40
0.0308597930920341
 40
0.22464568308362
 40
0.4189662170309564
 40
0.6140187041350629
 40
0.8071269636034103
 40
1.0
 40
1.0
 40
1.0
 40
1.0
 10
28.23753792142531
 20
-0.6568340527734319
 30
0.0
 10
28.21651299879865
 20
-0.6600942702970022
 30
0.0
 10
28.06346083506049
 20
-0.683827215958672
 30
0.0
 10
27.77821392440496
 20
-0.6752918497248956
 30
0.0
 10
27.38091818623716
 20
-0.6260684200703551
 30
0.0
 10
26.98367587332075
 20
-0.5202688470744463
 30
0.0
 10
26.58798724680183
 20
-0.3736956354458025
 30
0.0
 10
26.32510901489003
 20
-0.2528399316157107
 30
0.0
 10
26.19374999999845
 20
-0.1924489053839284
 30
0.0
  0
SPLINE
  5
C6
330
1F
100
AcDbEntity
  8
0
  6
Continuous
 62
     1
370
    25
100
AcDbSpline
210
0.0
220
0.0
230
1.0
 70
     8
 71
     3
 72
    15
 73
    11
 74
     0
 42
0.000000001
 43
0.00000001
 40
0.0
 40
0.0
 40
0.0
 40
0.0
 40
0.0964124114645303
 40
0.193026541403166
 40
0.2902365701883141
 40
0.387648852936799
 40
0.5645340598164472
 40
0.7426484510403694
 40
0.9193123667875873
 40
1.0
 40
1.0
 40
1.0
 40
1.0
 10
26.19375000000002
 20
-0.4672391015930021
 30
0.0
 10
26.23532815558021
 20
-0.4862720141905341
 30
0.0
 10
26.31857145846681
 20
-0.5243776609192434
 30
0.0
 10
26.44330895150119
 20
-0.5768082914414779
 30
0.0
 10
26.56905718687549
 20
-0.6241644653132187
 30
0.0
 10
26.72960452306466
 20
-0.677742380915759
 30
0.0
 10
26.9242879333387
 20
-0.7319278043769483
 30
0.0
 10
27.15377914621223
 20
-0.773257907539087
 30
0.0
 10
27.34182295329785
 20
-0.7935487683979154
 30
0.0
 10
27.45267569031139
 20
-0.7915907991197846
 30
0.0
 10
27.48743143598652
 20
-0.7909769154746553
 30
0.0
  0
SPLINE
  5
C7
330
1F
100
AcDbEntity
  8
0
  6
Continuous
 62
     1
370
    25
100
AcDbSpline
210
0.0
220
0.0
230
1.0
 70
     8
 71
     3
 72
    14
 73
    10
 74
     0
 42
0.000000001
 43
0.00000001
 40
0.0
 40
0.0
 40
0.0
 40
0.0
 40
0.1376332656325668
 40
0.3493738478454896
 40
0.5626115375746307
 40
0.6714493621419185
 40
0.7804891352590231
 40
0.8901406029498946
 40
1.0
 40
1.0
 40
1.0
 40
1.0
 10
30.66228434321836
 20
0.5325316816984502
 30
0.0
 10
30.71208660053984
 20
0.5540316350483854
 30
0.0
 10
30.83850666469968
 20
0.6086079861640997
 30
0.0
 10
31.04323662794532
 20
0.6768313322173795
 30
0.0
 10
31.2362485376591
 20
0.7287344218274847
 30
0.0
 10
31.39257326140612
 20
0.7590860271702838
 30
0.0
 10
31.51152931092563
 20
0.776406260783817
 30
0.0
 10
31.63082565618039
 20
0.7884683758284364
 30
0.0
 10
31.7102501407241
 20
0.7915412447542359
 30
0.0
 10
31.75000000000001
 20
0.7937500000000038
 30
0.0
  0
SPLINE
  5
C8
330
1F
100
AcDbEntity
  8
0
  6
Continuous
 62
     1
370
    25
100
AcDbSpline
210
0.0
220
0.0
230
1.0
 70
     8
 71
     3
 72
     8
 73
     4
 74
     0
 42
0.000000001
 43
0.00000001
 40
0.0
 40
0.0
 40
0.0
 40
0.0
 40
1.0
 40
1.0
 40
1.0
 40
1.0
 10
31.25916518402696
 20
0.2217164472896022
 30
0.0
 10
31.23086283303624
 20
0.2552055529186502
 30
0.0
 10
31.20555695231342
 20
0.2874688336123021
 30
0.0
 10
31.18403983627203
 20
0.3181821699361892
 30
0.0
  0
LINE
  5
C9
330
1F
100
AcDbEntity
  8
0
  6
Continuous
 62
     1
370
    25
100
AcDbLine
 10
31.19409439046918
 20
0.3266189426618262
 30
0.0
 11
31.75000000000001
 21
0.0000000000000009
 31
0.0
  0
LINE
  5
CA
330
1F
100
AcDbEntity
  8
0
  6
Continuous
 62
     1
370
    25
100
AcDbLine
 10
31.75000000000001
 20
0.0000000000000009
 30
0.0
 11
31.75000000000001
 21
-0.2121240884110298
 31
0.0
  0
SPLINE
  5
CB
330
1F
100
AcDbEntity
  8
0
  6
Continuous
 62
     1
370
    25
100
AcDbSpline
210
0.0
220
0.0
230
1.0
 70
     8
 71
     3
 72
    10
 73
     6
 74
     0
 42
0.000000001
 43
0.00000001
 40
0.0
 40
0.0
 40
0.0
 40
0.0
 40
0.5
 40
0.5
 40
1.0
 40
1.0
 40
1.0
 40
1.0
 10
31.75000000000001
 20
-0.2121240884110297
 30
0.0
 10
31.66503968058414
 20
-0.1453288991865653
 30
0.0
 10
31.58149867432916
 20
-0.0757943889780221
 30
0.0
 10
31.41731817387945
 20
0.0688746449464595
 30
0.0
 10
31.33590546063872
 20
0.1447670400822724
 30
0.0
 10
31.25916518402629
 20
0.2217164472879011
 30
0.0
  0
SPLINE
  5
CC
330
1F
100
AcDbEntity
  8
0
  6
Continuous
 62
     1
370
    25
100
AcDbSpline
210
0.0
220
0.0
230
1.0
 70
     8
 71
     3
 72
    12
 73
     8
 74
     0
 42
0.000000001
 43
0.00000001
 40
0.0
 40
0.0
 40
0.0
 40
0.0
 40
0.1661103893418127
 40
0.3830144140390587
 40
0.6010562865056153
 40
0.8185277241052342
 40
1.0
 40
1.0
 40
1.0
 40
1.0
 10
31.25916518402685
 20
0.2217164472896495
 30
0.0
 10
31.158022061994
 20
0.2644917720952507
 30
0.0
 10
30.92480803021072
 20
0.3631223636594815
 30
0.0
 10
30.55875302754481
 20
0.4910790925237389
 30
0.0
 10
30.16096332227969
 20
0.5882466759595957
 30
0.0
 10
29.78502518801348
 20
0.6392620121865349
 30
0.0
 10
29.54207222842856
 20
0.6309480487837049
 30
0.0
 10
29.43155732364397
 20
0.6271661772830813
 30
0.0
  0
SPLINE
  5
CD
330
1F
100
AcDbEntity
  8
0
  6
Continuous
 62
     1
370
    25
100
AcDbSpline
210
0.0
220
0.0
230
1.0
 70
    24
 71
     3
 72
     8
 73
     4
 74
     0
 42
0.000000001
 43
0.00000001
 40
0.0
 40
0.0
 40
0.0
 40
0.0
 40
1.0
 40
1.0
 40
1.0
 40
1.0
 10
31.75000000000001
 20
-0.6262467348422711
 30
0.0
 10
31.75000000000001
 20
-0.5302333452012687
 30
0.0
 10
31.75000000000001
 20
-0.3805014774328978
 30
0.0
 10
31.75000000000001
 20
-0.2121240884110552
 30
0.0
  0
SPLINE
  5
CE
330
1F
100
AcDbEntity
  8
0
  6
Continuous
 62
     1
370
    25
100
AcDbSpline
210
0.0
220
0.0
230
1.0
 70
     8
 71
     3
 72
    17
 73
    13
 74
     0
 42
0.000000001
 43
0.00000001
 40
0.0
 40
0.0
 40
0.0
 40
0.0
 40
0.0792715558206864
 40
0.1814423635915242
 40
0.2837850352012919
 40
0.3866377146805126
 40
0.4890444453364441
 40
0.5912074440733389
 40
0.6936564265015809
 40
0.7964964745303661
 40
0.8983110492923136
 40
1.0
 40
1.0
 40
1.0
 40
1.0
 10
30.07048670129139
 20
-0.5921840265298635
 30
0.0
 10
29.96802272942529
 20
-0.6072775878650717
 30
0.0
 10
29.73349591781062
 20
-0.6418248023775328
 30
0.0
 10
29.36696250900344
 20
-0.6344141839765793
 30
0.0
 10
28.96987199587992
 20
-0.579440823768612
 30
0.0
 10
28.57200206099721
 20
-0.4753731629926422
 30
0.0
 10
28.17479531305142
 20
-0.3318810439188711
 30
0.0
 10
27.7782299347177
 20
-0.1607074617403712
 30
0.0
 10
27.3809511023884
 20
0.023906246919837
 30
0.0
 10
26.98373085126973
 20
0.2047437925373634
 30
0.0
 10
26.58801260379608
 20
0.3722240937815593
 30
0.0
 10
26.32511677216122
 20
0.4557777269069293
 30
0.0
 10
26.19375000000002
 20
0.49752875436813
 30
0.0
  0
SPLINE
  5
CF
330
1F
100
AcDbEntity
  8
외형선
  6
Continuous
370
    15
100
AcDbSpline
210
0.0
220
0.0
230
1.0
 70
    24
 71
     3
 72
    10
 73
     6
 74
     0
 42
0.000000001
 43
0.00000001
 40
0.0
 40
0.0
 40
0.0
 40
0.0
 40
0.5
 40
0.5
 40
1.0
 40
1.0
 40
1.0
 40
1.0
 10
26.19375000000001
 20
0.4975287543681307
 30
0.0
 10
26.19375000000001
 20
0.4108758884672005
 30
0.0
 10
26.19375000000001
 20
0.3009307915528792
 30
0.0
 10
26.19375000000001
 20
0.0597494093248588
 30
0.0
 10
26.19375000000001
 20
-0.0704487370353105
 30
0.0
 10
26.19375000000001
 20
-0.1924489053846625
 30
0.0
  0
SPLINE
  5
D0
330
1F
100
AcDbEntity
  8
0
  6
Continuous
 62
     1
370
    25
100
AcDbSpline
210
0.0
220
0.0
230
1.0
 70
    24
 71
     3
 72
     8
 73
     4
 74
     0
 42
0.000000001
 43
0.00000001
 40
0.0
 40
0.0
 40
0.0
 40
0.0
 40
1.0
 40
1.0
 40
1.0
 40
1.0
 10
31.75000000000001
 20
0.555625
 30
0.0
 10
31.75000000000001
 20
0.6229862076816107
 30
0.0
 10
31.75000000000001
 20
0.7135749447463078
 30
0.0
 10
31.75000000000001
 20
0.7937500000000037
 30
0.0
  0
LINE
  5
D1
330
1F
100
AcDbEntity
  8
0
  6
Continuous
 62
     1
370
    25
100
AcDbLine
 10
31.75000000000001
 20
0.555625
 30
0.0
 11
31.43470060695068
 21
0.5373595880120069
 31
0.0
  0
SPLINE
  5
D2
330
1F
100
AcDbEntity
  8
0
  6
Continuous
 62
     1
370
    25
100
AcDbSpline
210
0.0
220
0.0
230
1.0
 70
    24
 71
     3
 72
     8
 73
     4
 74
     0
 42
0.000000001
 43
0.00000001
 40
0.0
 40
0.0
 40
0.0
 40
0.0
 40
1.0
 40
1.0
 40
1.0
 40
1.0
 10
31.26672898750673
 20
0.3875666062467478
 30
0.0
 10
31.24053382861938
 20
0.3655862580857436
 30
0.0
 10
31.21289163828372
 20
0.3423917063701523
 30
0.0
 10
31.18403983626887
 20
0.3181821699406917
 30
0.0
  0
SPLINE
  5
D3
330
1F
100
AcDbEntity
  8
0
  6
Continuous
 62
     1
370
    25
100
AcDbSpline
210
0.0
220
0.0
230
1.0
 70
     8
 71
     3
 72
     8
 73
     4
 74
     0
 42
0.000000001
 43
0.00000001
 40
0.0
 40
0.0
 40
0.0
 40
0.0
 40
1.0
 40
1.0
 40
1.0
 40
1.0
 10
31.75000000000001
 20
0.5556250000000008
 30
0.0
 10
31.5866737425871
 20
0.5111936580935024
 30
0.0
 10
31.4249044268425
 20
0.4567198980990662
 30
0.0
 10
31.266728987515
 20
0.3875666062503671
 30
0.0
  0
SPLINE
  5
D4
330
1F
100
AcDbEntity
  8
외형선
  6
Continuous
370
    15
100
AcDbSpline
210
0.0
220
0.0
230
1.0
 70
    24
 71
     3
 72
    13
 73
     9
 74
     0
 42
0.000000001
 43
0.00000001
 40
0.0
 40
0.0
 40
0.0
 40
0.0
 40
0.1650405633835909
 40
0.3634734679701872
 40
0.5632841266748089
 40
0.7674401456632983
 40
0.973097674453552
 40
1.0
 40
1.0
 40
1.0
 40
1.0
 10
26.19375000000002
 20
-0.4672391015930023
 30
0.0
 10
26.19375000000002
 20
-0.4751939058588952
 30
0.0
 10
26.19375000000002
 20
-0.4927129947075437
 30
0.0
 10
26.19375000000002
 20
-0.5129140843068065
 30
0.0
 10
26.19375000000002
 20
-0.5294330404335409
 30
0.0
 10
26.19375000000002
 20
-0.539235529891104
 30
0.0
 10
26.19375000000002
 20
-0.543367150548095
 30
0.0
 10
26.19375000000002
 20
-0.5423979252368573
 30
0.0
 10
26.19375000000002
 20
-0.5422858060797261
 30
0.0
  0
SPLINE
  5
D5
330
1F
100
AcDbEntity
  8
외형선
  6
Continuous
370
    15
100
AcDbSpline
210
0.0
220
0.0
230
1.0
 70
    24
 71
     3
 72
     9
 73
     5
 74
     0
 42
0.000000001
 43
0.00000001
 40
0.0
 40
0.0
 40
0.0
 40
0.0
 40
0.4753916219840696
 40
1.0
 40
1.0
 40
1.0
 40
1.0
 10
26.19375000000002
 20
0.5418837324982145
 30
0.0
 10
26.19375000000002
 20
0.5404544924808906
 30
0.0
 10
26.19375000000002
 20
0.5374480448464984
 30
0.0
 10
26.19375000000002
 20
0.5112647370187414
 30
0.0
 10
26.19375000000002
 20
0.4975287543681299
 30
0.0
  0
LINE
  5
D6
330
1F
100
AcDbEntity
  8
0
  6
Continuous
 62
     1
370
    25
100
AcDbLine
 10
31.75000000000001
 20
0.0000000000000009
 30
0.0
 11
31.75000000000001
 21
0.5556250000000007
 31
0.0
  0
LINE
  5
D7
330
1F
100
AcDbEntity
  8
중심선
 48
0.5
100
AcDbLine
 10
-34.75000000000001
 20
-0.0000000000000043
 30
0.0
 11
34.75
 21
0.0000000000000043
 31
0.0
  0
LINE
  5
D8
330
1F
100
AcDbEntity
  8
참조1
100
AcDbLine
 10
-15.78796167873052
 20
0.0010749287238892
 30
0.0
 11
-15.78796167873051
 21
-39.99892507127611
 31
0.0
  0
LINE
  5
D9
330
1F
100
AcDbEntity
  8
참조1
100
AcDbLine
 10
-15.78796167873051
 20
-39.99892507127611
 30
0.0
 11
-29.45992727542973
 21
-39.9989250712761
 31
0.0
  0
CIRCLE
  5
DA
330
1F
100
AcDbEntity
  8
해칭선
100
AcDbCircle
 10
0.0
 20
0.0
 30
0.0
 40
3.000000000000001
  0
INSERT
  5
DB
330
1F
100
AcDbEntity
  8
0
  6
Continuous
 62
     7
100
AcDbBlockReference
 66
     1
  2
블럭10
 10
-13.94027293212521
 20
-52.04717430164393
 30
0.0
  0
ATTRIB
  5
DC
330
DB
100
AcDbEntity
  8
FORMAT
 62
     2
100
AcDbText
 10
-23.12156822086649
 20
-49.97180738881174
 30
0.0
 40
4.233333333333333
  1
E1005004 [ 2 FLUTE ]
 41
0.75
  7
SLDTEXTSTYLE0
 11
-23.12156822086649
 21
-52.08847405547841
 31
0.0
100
AcDbAttribute
  2
AUTOATTR0
 70
     0
 74
     1
  0
SEQEND
  5
DD
330
DB
100
AcDbEntity
  8
0
  6
Continuous
 62
     7
  0
HATCH
  5
DE
330
1F
100
AcDbEntity
  8
중심선
100
AcDbHatch
 10
0.0
 20
0.0
 30
0.0
210
0.0
220
0.0
230
1.0
  2
SOLID
 70
     1
 71
     0
 91
        1
 92
        0
 93
        4
 72
     1
 10
-8.225363627744358
 20
-35.8
 11
-11.67163887158164
 21
-35.8
 72
     1
 10
-11.67163887158164
 20
-35.8
 11
-13.79986873078569
 21
-38.3363255805726
 72
     1
 10
-13.79986873078569
 20
-38.3363255805726
 11
-10.35356040183523
 21
-38.33628615127011
 72
     1
 10
-10.35356040183523
 20
-38.33628615127011
 11
-8.225363627744358
 21
-35.8
 97
        0
 75
     0
 76
     1
 98
        1
 10
15.78796167873052
 20
-0.0010749287238935
  0
HATCH
  5
DF
330
1F
100
AcDbEntity
  8
중심선
100
AcDbHatch
 10
0.0
 20
0.0
 30
0.0
210
0.0
220
0.0
230
1.0
  2
SOLID
 70
     1
 71
     0
 91
        1
 92
        0
 93
        4
 72
     1
 10
-3.212599636708379
 20
-35.8
 11
-6.65887488054566
 21
-35.8
 72
     1
 10
-6.65887488054566
 20
-35.8
 11
-11.19001288890308
 21
-41.20000000000002
 72
     1
 10
-11.19001288890308
 20
-41.20000000000002
 11
-7.743737645065796
 21
-41.20000000000002
 72
     1
 10
-7.743737645065796
 20
-41.20000000000002
 11
-3.212599636708379
 21
-35.8
 97
        0
 75
     0
 76
     1
 98
        1
 10
15.78796167873052
 20
-0.0010749287238935
  0
HATCH
  5
E0
330
1F
100
AcDbEntity
  8
중심선
100
AcDbHatch
 10
0.0
 20
0.0
 30
0.0
210
0.0
220
0.0
230
1.0
  2
SOLID
 70
     1
 71
     0
 91
        1
 92
        0
 93
        4
 72
     1
 10
1.800164354327489
 20
-35.79999999999998
 11
-1.646110889509625
 21
-35.8
 72
     1
 10
-1.646110889509625
 20
-35.8
 11
-8.694547791398875
 21
-44.20000000000002
 72
     1
 10
-8.694547791398875
 20
-44.20000000000002
 11
-5.248272547561594
 21
-44.20000000000002
 72
     1
 10
-5.248272547561594
 20
-44.20000000000002
 11
1.800164354327489
 21
-35.79999999999998
 97
        0
 75
     0
 76
     1
 98
        1
 10
15.78796167873052
 20
-0.0010749287238935
  0
HATCH
  5
E1
330
1F
100
AcDbEntity
  8
중심선
100
AcDbHatch
 10
0.0
 20
0.0
 30
0.0
210
0.0
220
0.0
230
1.0
  2
SOLID
 70
     1
 71
     0
 91
        1
 92
        0
 93
        6
 72
     3
 10
6.600054785339688
 20
-40.00000000005127
 11
3.960054785062283
 21
1.540882976769353E-10
 40
0.3939339440162628
 50
17.09539180608436
 51
320.0019657685086
 73
     0
 72
     1
 10
8.283054441040285
 20
-38.58789400463833
 11
10.58835631474132
 21
-36.65356729459038
 72
     3
 10
6.600054785286842
 20
-40.00000000000015
 11
6.600054785286829
 21
-1.278976924368180E-13
 40
0.636358354079598
 50
39.99873849337411
 51
368.4976242363724
 73
     1
 72
     1
 10
13.02538727718745
 20
-39.03999999993002
 11
5.280122092122765
 21
-39.03999999993
 72
     1
 10
5.280122092122765
 20
-39.03999999993
 11
5.280097047676831
 21
-40.95999999992991
 72
     1
 10
5.280097047676831
 20
-40.95999999992991
 11
9.721476817148869
 21
-40.95999999992988
 97
        0
 75
     0
 76
     1
 98
        1
 10
15.78796167873052
 20
-0.0010749287238935
  0
DIMENSION
  5
E2
330
1F
100
AcDbEntity
  8
치수문자_일반주서
100
AcDbDimension
  2
_D
 10
-44.75000000000001
 20
-2.381250000000091
 30
0.0
 11
-44.75000000000001
 21
0.0000000000000045
 31
0.0
 70
   160
  1
%%c<>
 71
     2
 42
4.762500000000003
 52
-270.0
  3
SLDDIMSTYLE0
100
AcDbAlignedDimension
 13
-19.26911934298442
 23
2.381250000000007
 33
0.0
 14
-19.26911934298442
 24
-2.381249999999996
 34
0.0
 50
90.0000000000002
100
AcDbRotatedDimension
1001
ACAD
1000
DSTYLE
1002
{
1070
   171
1070
     6
1070
   273
1070
     7
1002
}
  0
DIMENSION
  5
F7
330
1F
100
AcDbEntity
  8
치수문자_일반주서
100
AcDbDimension
  2
_D_1
 10
50.75000000000011
 20
0.7937500000000739
 30
0.0
 11
50.75000000000003
 21
20.52275000000007
 31
0.0
 70
   160
  1
%%c<>
 71
     2
 42
1.586829134588534
 52
-270.0
  3
SLDDIMSTYLE0
100
AcDbAlignedDimension
 13
31.75000000000001
 23
-0.7930791345885302
 33
0.0
 14
31.75000000000001
 24
0.7937500000000038
 34
0.0
 50
90.0000000000002
100
AcDbRotatedDimension
1001
ACAD
1000
DSTYLE
1002
{
1070
   171
1070
     6
1070
   273
1070
     7
1002
}
  0
DIMENSION
  5
10B
330
1F
100
AcDbEntity
  8
치수문자_일반주서
100
AcDbDimension
  2
_D_2
 10
26.19375000000002
 20
22.91639371461095
 30
0.0
 11
6.464750000000015
 21
22.91639371461095
 31
0.0
 70
   160
  1
<>
 71
     2
 42
5.556249999999991
  3
SLDDIMSTYLE0
100
AcDbAlignedDimension
 13
31.75000000000001
 23
0.7937500000000038
 33
0.0
 14
26.19375000000002
 24
0.49752875436813
 34
0.0
100
AcDbRotatedDimension
1001
ACAD
1000
DSTYLE
1002
{
1070
   171
1070
     6
1070
   273
1070
     7
1002
}
  0
DIMENSION
  5
120
330
1F
100
AcDbEntity
  8
치수문자_일반주서
100
AcDbDimension
  2
_D_3
 10
31.75000000000001
 20
36.38125000000002
 30
0.0
 11
0.0000000000000231
 21
36.38125000000002
 31
0.0
 70
   160
  1
<>
 71
     2
 42
63.5
  3
SLDDIMSTYLE0
100
AcDbAlignedDimension
 13
-31.74999999999999
 23
0.7930791345885363
 33
0.0
 14
31.75000000000001
 24
0.7937500000000038
 34
0.0
100
AcDbRotatedDimension
1001
ACAD
1000
DSTYLE
1002
{
1070
   171
1070
     6
1070
   273
1070
     7
1002
}
  0
LINE
  5
134
330
1F
100
AcDbEntity
  8
참조1
100
AcDbLine
 10
68.51241335422453
 20
7.441074928723896
 30
0.0
 11
68.51241335422453
 21
-7.438925071276109
 31
0.0
  0
LINE
  5
135
330
1F
100
AcDbEntity
  8
참조1
100
AcDbLine
 10
81.21241335422454
 20
5.441074928723896
 30
0.0
 11
68.51241335422453
 21
5.441074928723896
 31
0.0
  0
SOLID
  5
136
330
1F
100
AcDbEntity
  8
참조1
100
AcDbTrace
 10
68.51241335422453
 20
5.441074928723896
 30
0.0
 11
74.86241335422453
 21
4.425074928723896
 31
0.0
 12
74.86241335422453
 22
6.457074928723896
 32
0.0
 13
74.86241335422453
 23
6.457074928723896
 33
0.0
  0
LINE
  5
137
330
1F
100
AcDbEntity
  8
참조1
100
AcDbLine
 10
81.21241335422454
 20
-5.438925071276109
 30
0.0
 11
68.51241335422453
 21
-5.438925071276109
 31
0.0
  0
SOLID
  5
138
330
1F
100
AcDbEntity
  8
참조1
100
AcDbTrace
 10
68.51241335422453
 20
-5.438925071276109
 30
0.0
 11
74.86241335422453
 21
-6.454925071276109
 31
0.0
 12
74.86241335422453
 22
-4.422925071276109
 32
0.0
 13
74.86241335422453
 23
-4.422925071276109
 33
0.0
  0
MTEXT
  5
139
330
1F
100
AcDbEntity
  8
참조1
100
AcDbMText
 10
77.89676348685053
 20
11.01136670591222
 30
0.0
 40
3.5
 41
0.0
 71
     1
 72
     1
  1
A
  7
SLDTEXTSTYLE0
 73
     1
 44
1.0
  0
MTEXT
  5
13A
330
1F
100
AcDbEntity
  8
참조1
100
AcDbMText
 10
77.89676348685053
 20
0.1313667059122192
 30
0.0
 40
3.5
 41
0.0
 71
     1
 72
     1
  1
A
  7
SLDTEXTSTYLE0
 73
     1
 44
1.0
  0
INSERT
  5
141
330
1F
100
AcDbEntity
  8
해칭선
100
AcDbBlockReference
  2
SW_DOWELSYMBOL_0
 10
0.0
 20
0.0
 30
0.0
  0
LINE
  5
36D
330
1F
100
AcDbEntity
  8
외형선
  6
Continuous
370
    15
100
AcDbLine
 10
-19.26911934298442
 20
2.381250000000003
 30
0.0
 11
-25.19375000000002
 21
0.7937500000000081
 31
0.0
  0
LINE
  5
36E
330
1F
100
AcDbEntity
  8
외형선
  6
Continuous
370
    15
100
AcDbLine
 10
-25.19375000000002
 20
-0.7937499999999941
 30
0.0
 11
-19.26911934298442
 21
-2.381249999999996
 31
0.0
  0
LINE
  5
36F
330
1F
100
AcDbEntity
  8
외형선
  6
Continuous
370
    15
100
AcDbLine
 10
-25.39356962290673
 20
-0.7937499999999941
 30
0.0
 11
-25.19375000000002
 21
-0.7937499999999941
 31
0.0
  0
LINE
  5
370
330
1F
100
AcDbEntity
  8
외형선
  6
Continuous
370
    15
100
AcDbLine
 10
-25.19375000000002
 20
0.7937500000000081
 30
0.0
 11
-25.39356962290673
 21
0.7937500000000081
 31
0.0
  0
SPLINE
  5
371
330
1F
100
AcDbEntity
  8
외형선
  6
Continuous
370
    15
100
AcDbSpline
210
0.0
220
0.0
230
1.0
 70
     8
 71
     3
 72
     9
 73
     5
 74
     0
 42
0.000000001
 43
0.00000001
 40
0.0
 40
0.0
 40
0.0
 40
0.0
 40
0.5053743127838657
 40
0.9999999999999999
 40
0.9999999999999999
 40
0.9999999999999999
 40
0.9999999999999999
 10
-25.76078669107405
 20
0.5952593851999469
 30
0.0
 10
-25.83392671599619
 20
0.5843817151507319
 30
0.0
 10
-25.97865117680077
 20
0.5628577283273922
 30
0.0
 10
-26.12256602119225
 20
0.5493259183357732
 30
0.0
 10
-26.19375000000002
 20
0.5426327375193888
 30
0.0
  0
SPLINE
  5
372
330
1F
100
AcDbEntity
  8
외형선
  6
Continuous
370
    15
100
AcDbSpline
210
0.0
220
0.0
230
1.0
 70
     8
 71
     3
 72
     9
 73
     5
 74
     0
 42
0.000000001
 43
0.00000001
 40
0.0
 40
0.0
 40
0.0
 40
0.0
 40
0.4705557556434526
 40
1.0
 40
1.0
 40
1.0
 40
1.0
 10
-26.19375000000002
 20
-0.5426327375193783
 30
0.0
 10
-26.12406654668302
 20
-0.5491841558587806
 30
0.0
 10
-25.97597898749103
 20
-0.5631068807661547
 30
0.0
 10
-25.82821180795491
 20
-0.5852602068672487
 30
0.0
 10
-25.74997732524474
 20
-0.5969891578648278
 30
0.0
  0
SPLINE
  5
373
330
1F
100
AcDbEntity
  8
0
  6
Continuous
 62
     1
370
    25
100
AcDbSpline
210
0.0
220
0.0
230
1.0
 70
     8
 71
     3
 72
     9
 73
     5
 74
     0
 42
0.000000001
 43
0.00000001
 40
0.0
 40
0.0
 40
0.0
 40
0.0
 40
0.4995194268409837
 40
1.0
 40
1.0
 40
1.0
 40
1.0
 10
-29.69293139386766
 20
-0.2033853679951091
 30
0.0
 10
-29.65663211262028
 20
-0.2208160337199506
 30
0.0
 10
-29.58396370515327
 20
-0.2557109042459534
 30
0.0
 10
-29.5112698393047
 20
-0.2939574342736063
 30
0.0
 10
-29.47488797165965
 20
-0.3130990795431875
 30
0.0
  0
LINE
  5
374
330
1F
100
AcDbEntity
  8
0
  6
Continuous
 62
     1
370
    25
100
AcDbLine
 10
-27.87202920309254
 20
-0.7937499999999941
 30
0.0
 11
-27.48742511256673
 21
-0.7937499999999941
 31
0.0
  0
LINE
  5
375
330
1F
100
AcDbEntity
  8
0
  6
Continuous
 62
     1
370
    25
100
AcDbLine
 10
-27.4874314359865
 20
0.7937500000000081
 30
0.0
 11
-27.87202920309254
 21
0.7937500000000081
 31
0.0
  0
SPLINE
  5
376
330
1F
100
AcDbEntity
  8
0
  6
Continuous
 62
     1
370
    25
100
AcDbSpline
210
0.0
220
0.0
230
1.0
 70
     8
 71
     3
 72
    10
 73
     6
 74
     0
 42
0.000000001
 43
0.00000001
 40
0.0
 40
0.0
 40
0.0
 40
0.0
 40
0.429624358001875
 40
0.9089811794589258
 40
1.0
 40
1.0
 40
1.0
 40
1.0
 10
-29.432365501773
 20
-0.6307753264315982
 30
0.0
 10
-29.33450316272734
 20
-0.626994956267657
 30
0.0
 10
-29.12745013439342
 20
-0.6189966077885548
 30
0.0
 10
-28.90036246847682
 20
-0.6165564177660291
 30
0.0
 10
-28.77056244021403
 20
-0.6255910317256427
 30
0.0
 10
-28.74984934412651
 20
-0.6270327481070926
 30
0.0
  0
SPLINE
  5
377
330
1F
100
AcDbEntity
  8
0
  6
Continuous
 62
     1
370
    25
100
AcDbSpline
210
0.0
220
0.0
230
1.0
 70
     8
 71
     3
 72
    11
 73
     7
 74
     0
 42
0.000000001
 43
0.00000001
 40
0.0
 40
0.0
 40
0.0
 40
0.0
 40
0.4809181618994303
 40
0.6319056673784148
 40
0.7546669295563845
 40
1.0
 40
1.0
 40
1.0
 40
1.0
 10
-28.23708449414294
 20
0.660536125889612
 30
0.0
 10
-28.42874003110622
 20
0.6447113904283571
 30
0.0
 10
-28.68056711851172
 20
0.6239183723746516
 30
0.0
 10
-28.98117379423919
 20
0.6195216271986385
 30
0.0
 10
-29.18761507927399
 20
0.6202539450738253
 30
0.0
 10
-29.33448045075635
 20
0.626567423783447
 30
0.0
 10
-29.432365501773
 20
0.6307753264316122
 30
0.0
  0
LINE
  5
378
330
1F
100
AcDbEntity
  8
0
  6
Continuous
 62
     1
370
    25
100
AcDbLine
 10
-26.19374999997802
 20
0.5426327375212646
 30
0.0
 11
-26.34317368278595
 21
0.5339124412905728
 31
0.0
  0
SPLINE
  5
379
330
1F
100
AcDbEntity
  8
0
  6
Continuous
 62
     1
370
    25
100
AcDbSpline
210
0.0
220
0.0
230
1.0
 70
     8
 71
     3
 72
    10
 73
     6
 74
     0
 42
0.000000001
 43
0.00000001
 40
0.0
 40
0.0
 40
0.0
 40
0.0
 40
0.5194941287463823
 40
0.6595610558253382
 40
1.0
 40
1.0
 40
1.0
 40
1.0
 10
-31.43543227150649
 20
-0.5411696071346715
 30
0.0
 10
-31.19938403538412
 20
-0.52982669788282
 30
0.0
 10
-30.89969205576872
 20
-0.5154254933488379
 30
0.0
 10
-30.44420913071692
 20
-0.5454227732804658
 30
0.0
 10
-30.2246346869833
 20
-0.5756069646277543
 30
0.0
 10
-30.06906594939974
 20
-0.5969924977664666
 30
0.0
  0
SPLINE
  5
37A
330
1F
100
AcDbEntity
  8
0
  6
Continuous
 62
     1
370
    25
100
AcDbSpline
210
0.0
220
0.0
230
1.0
 70
     8
 71
     3
 72
    10
 73
     6
 74
     0
 42
0.000000001
 43
0.00000001
 40
0.0
 40
0.0
 40
0.0
 40
0.0
 40
0.4682547595121756
 40
0.7840031127114032
 40
1.0
 40
1.0
 40
1.0
 40
1.0
 10
-30.06906594939974
 20
0.596992497766477
 30
0.0
 10
-30.16310003337485
 20
0.5833294578656146
 30
0.0
 10
-30.3205421373575
 20
0.5604533085179052
 30
0.0
 10
-30.52138086445907
 20
0.5405914347976742
 30
0.0
 10
-30.62797723169779
 20
0.5347446709137794
 30
0.0
 10
-30.67127707110722
 20
0.532369693756534
 30
0.0
  0
SPLINE
  5
37B
330
1F
100
AcDbEntity
  8
0
  6
Continuous
 62
     1
370
    25
100
AcDbSpline
210
0.0
220
0.0
230
1.0
 70
     8
 71
     3
 72
    11
 73
     7
 74
     0
 42
0.000000001
 43
0.00000001
 40
0.0
 40
0.0
 40
0.0
 40
0.0
 40
0.3654391281699065
 40
0.4436988615841197
 40
0.5765238676637771
 40
1.0
 40
1.0
 40
1.0
 40
1.0
 10
-27.13530060445759
 20
-0.5428461842544384
 30
0.0
 10
-27.02053656291982
 20
-0.5347778686410242
 30
0.0
 10
-26.88119550539238
 20
-0.5249817023944009
 30
0.0
 10
-26.69981793320448
 20
-0.5222058099118759
 30
0.0
 10
-26.50059354748171
 20
-0.5220709141415992
 30
0.0
 10
-26.3263729160306
 20
-0.5337455733682096
 30
0.0
 10
-26.19374999997802
 20
-0.5426327375212542
 30
0.0
  0
LINE
  5
37C
330
1F
100
AcDbEntity
  8
외형선
  6
Continuous
370
    15
100
AcDbLine
 10
-19.26911934298442
 20
-2.381249999999996
 30
0.0
 11
-19.26911934298442
 21
2.381250000000007
 31
0.0
  0
LINE
  5
37D
330
1F
100
AcDbEntity
  8
외형선
  6
Continuous
370
    15
100
AcDbLine
 10
-25.19375000000002
 20
-0.7937499999999941
 30
0.0
 11
-25.19375000000002
 21
0.7937500000000081
 31
0.0
  0
SPLINE
  5
37E
330
1F
100
AcDbEntity
  8
외형선
  6
Continuous
370
    15
100
AcDbSpline
210
0.0
220
0.0
230
1.0
 70
     8
 71
     3
 72
    12
 73
     8
 74
     0
 42
0.000000001
 43
0.00000001
 40
0.0
 40
0.0
 40
0.0
 40
0.0
 40
0.25
 40
0.25
 40
0.4999999999999999
 40
0.4999999999999999
 40
1.0
 40
1.0
 40
1.0
 40
1.0
 10
-25.64330110141903
 20
0.6119694591853867
 30
0.0
 10
-25.59709079564225
 20
0.6176444346887012
 30
0.0
 10
-25.56376641312118
 20
0.6293474369356086
 30
0.0
 10
-25.51014915745724
 20
0.6502276346186145
 30
0.0
 10
-25.48896789492479
 20
0.6602290871215198
 30
0.0
 10
-25.43405576975095
 20
0.6868839844948961
 30
0.0
 10
-25.40773141982435
 20
0.7003939181747877
 30
0.0
 10
-25.39358875208054
 20
0.7157143575088919
 30
0.0
  0
ELLIPSE
  5
37F
330
1F
100
AcDbEntity
  8
외형선
  6
Continuous
370
    15
100
AcDbEllipse
 10
-25.39362832585356
 20
0.0000000000000052
 30
0.0
 11
-5.870294690711603E-5
 21
-0.79375
 31
0.0
210
0.0
220
0.0
230
1.0
 40
0.0000389207612015
 41
3.588732749055076
 42
4.664389754846366
  0
SPLINE
  5
380
330
1F
100
AcDbEntity
  8
외형선
  6
Continuous
370
    15
100
AcDbSpline
210
0.0
220
0.0
230
1.0
 70
    24
 71
     3
 72
     8
 73
     4
 74
     0
 42
0.000000001
 43
0.00000001
 40
0.0
 40
0.0
 40
0.0
 40
0.0
 40
1.0
 40
1.0
 40
1.0
 40
1.0
 10
-26.19375000000002
 20
0.1924489053846708
 30
0.0
 10
-26.19375000000002
 20
0.2161375381931679
 30
0.0
 10
-26.19375000000002
 20
0.2427630797342582
 30
0.0
 10
-26.19375000000002
 20
0.271852198294331
 30
0.0
  0
SPLINE
  5
381
330
1F
100
AcDbEntity
  8
외형선
  6
Continuous
370
    15
100
AcDbSpline
210
0.0
220
0.0
230
1.0
 70
     8
 71
     3
 72
    10
 73
     6
 74
     0
 42
0.000000001
 43
0.00000001
 40
0.0
 40
0.0
 40
0.0
 40
0.0
 40
0.5
 40
0.5
 40
1.0
 40
1.0
 40
1.0
 40
1.0
 10
-26.1937499999997
 20
0.271852198294228
 30
0.0
 10
-26.06007751023071
 20
0.1995692120717062
 30
0.0
 10
-25.92497989795731
 20
0.123162163983311
 30
0.0
 10
-25.66304178197719
 20
-0.0294021580610268
 30
0.0
 10
-25.5267487651497
 20
-0.1073609057776271
 30
0.0
 10
-25.39355836116942
 20
-0.1821536499979023
 30
0.0
  0
SPLINE
  5
382
330
1F
100
AcDbEntity
  8
외형선
  6
Continuous
370
    15
100
AcDbSpline
210
0.0
220
0.0
230
1.0
 70
    24
 71
     3
 72
     8
 73
     4
 74
     0
 42
0.000000001
 43
0.00000001
 40
0.0
 40
0.0
 40
0.0
 40
0.0
 40
1.0
 40
1.0
 40
1.0
 40
1.0
 10
-25.39355836116942
 20
-0.1941285936561938
 30
0.0
 10
-25.39355836116942
 20
-0.1935214483069122
 30
0.0
 10
-25.39355836116942
 20
-0.1895195563120195
 30
0.0
 10
-25.39355836116942
 20
-0.1821548151407396
 30
0.0
  0
SPLINE
  5
383
330
1F
100
AcDbEntity
  8
외형선
  6
Continuous
370
    15
100
AcDbSpline
210
0.0
220
0.0
230
1.0
 70
     8
 71
     3
 72
    10
 73
     6
 74
     0
 42
0.000000001
 43
0.00000001
 40
0.0
 40
0.0
 40
0.0
 40
0.0
 40
0.5
 40
0.5
 40
1.0
 40
1.0
 40
1.0
 40
1.0
 10
-26.19374999999842
 20
0.1924489053839354
 30
0.0
 10
-26.06007751022963
 20
0.1297701316862624
 30
0.0
 10
-25.92497989795648
 20
0.0641349941837087
 30
0.0
 10
-25.66304178197674
 20
-0.0657713551380558
 30
0.0
 10
-25.5267487651495
 20
-0.1315737708242734
 30
0.0
 10
-25.39355836116942
 20
-0.1941285936561938
 30
0.0
  0
ELLIPSE
  5
384
330
1F
100
AcDbEntity
  8
외형선
  6
Continuous
370
    15
100
AcDbEllipse
 10
-25.39362832585356
 20
0.0000000000000052
 30
0.0
 11
5.870294690514527E-5
 21
-0.79375
 31
0.0
210
0.0
220
0.0
230
1.0
 40
0.0000389207612037
 41
5.615510172560854
 42
7.62239033537635
  0
LINE
  5
385
330
1F
100
AcDbEntity
  8
외형선
  6
Continuous
370
    15
100
AcDbLine
 10
-26.19375000000002
 20
0.2718521982943879
 30
0.0
 11
-26.19375000000002
 21
0.4672391015929608
 31
0.0
  0
SPLINE
  5
386
330
1F
100
AcDbEntity
  8
외형선
  6
Continuous
370
    15
100
AcDbSpline
210
0.0
220
0.0
230
1.0
 70
     8
 71
     3
 72
    10
 73
     6
 74
     0
 42
0.000000001
 43
0.00000001
 40
0.0
 40
0.0
 40
0.0
 40
0.0
 40
0.5
 40
0.5
 40
1.0
 40
1.0
 40
1.0
 40
1.0
 10
-25.39365640377434
 20
0.0383556214964836
 30
0.0
 10
-25.52683199396275
 20
0.115100257191484
 30
0.0
 10
-25.66310734247971
 20
0.1918601937259277
 30
0.0
 10
-25.92501074388075
 20
0.3359777559155946
 30
0.0
 10
-26.0600939097157
 20
0.4050524716636
 30
0.0
 10
-26.19374999999999
 20
0.467239101593007
 30
0.0
  0
ELLIPSE
  5
387
330
1F
100
AcDbEntity
  8
외형선
  6
Continuous
370
    15
100
AcDbEllipse
 10
-25.39362832585356
 20
0.0000000000000052
 30
0.0
 11
-5.870294690711603E-5
 21
-0.79375
 31
0.0
210
0.0
220
0.0
230
1.0
 40
0.0000389207612015
 41
3.14159265677006
 42
3.588732749055076
  0
SPLINE
  5
388
330
1F
100
AcDbEntity
  8
외형선
  6
Continuous
370
    15
100
AcDbSpline
210
0.0
220
0.0
230
1.0
 70
    24
 71
     3
 72
    10
 73
     6
 74
     0
 42
0.000000001
 43
0.00000001
 40
0.0
 40
0.0
 40
0.0
 40
0.0
 40
0.5
 40
0.5
 40
1.0
 40
1.0
 40
1.0
 40
1.0
 10
-25.39362060291892
 20
-0.6324623095552032
 30
0.0
 10
-25.39362060291892
 20
-0.6075074391321512
 30
0.0
 10
-25.39362060291892
 20
-0.5549015793516167
 30
0.0
 10
-25.39362060291892
 20
-0.4016720067577976
 30
0.0
 10
-25.39362060291892
 20
-0.3017078539266028
 30
0.0
 10
-25.39362060291892
 20
-0.1940993607798004
 30
0.0
  0
SPLINE
  5
389
330
1F
100
AcDbEntity
  8
외형선
  6
Continuous
370
    15
100
AcDbSpline
210
0.0
220
0.0
230
1.0
 70
     8
 71
     3
 72
    10
 73
     6
 74
     0
 42
0.000000001
 43
0.00000001
 40
0.0
 40
0.0
 40
0.0
 40
0.0
 40
0.5
 40
0.5
 40
1.0
 40
1.0
 40
1.0
 40
1.0
 10
-26.19375000000002
 20
-0.4975287543681209
 30
0.0
 10
-26.06008792136554
 20
-0.5357709240962497
 30
0.0
 10
-25.92499948039036
 20
-0.5670129860603891
 30
0.0
 10
-25.66308340281366
 20
-0.6123659672214307
 30
0.0
 10
-25.5268016025935
 20
-0.6269722427556791
 30
0.0
 10
-25.39362060291892
 20
-0.6324623095552032
 30
0.0
  0
SPLINE
  5
38A
330
1F
100
AcDbEntity
  8
외형선
  6
Continuous
370
    15
100
AcDbSpline
210
0.0
220
0.0
230
1.0
 70
    24
 71
     3
 72
    10
 73
     6
 74
     0
 42
0.000000001
 43
0.00000001
 40
0.0
 40
0.0
 40
0.0
 40
0.0
 40
0.5
 40
0.5
 40
1.0
 40
1.0
 40
1.0
 40
1.0
 10
-26.19374999999999
 20
-0.4975287543681245
 30
0.0
 10
-26.19374999999999
 20
-0.410875888467194
 30
0.0
 10
-26.19374999999999
 20
-0.3009307915528742
 30
0.0
 10
-26.19374999999999
 20
-0.0597494093248533
 30
0.0
 10
-26.19374999999999
 20
0.0704487370353187
 30
0.0
 10
-26.19374999999999
 20
0.1924489053846708
 30
0.0
  0
LINE
  5
38B
330
1F
100
AcDbEntity
  8
외형선
  6
Continuous
370
    15
100
AcDbLine
 10
-25.76467323321904
 20
0.5868017078238149
 30
0.0
 11
-25.64330110141903
 21
0.6119694591853867
 31
0.0
  0
SPLINE
  5
38C
330
1F
100
AcDbEntity
  8
외형선
  6
Continuous
370
    15
100
AcDbSpline
210
0.0
220
0.0
230
1.0
 70
    24
 71
     3
 72
    13
 73
     9
 74
     0
 42
0.000000001
 43
0.00000001
 40
0.0
 40
0.0
 40
0.0
 40
0.0
 40
0.1658132608705677
 40
0.3651752013472755
 40
0.5659213463995377
 40
0.7710331961219354
 40
0.9776535855109181
 40
1.0
 40
1.0
 40
1.0
 40
1.0
 10
-26.19375000000002
 20
0.467239101593007
 30
0.0
 10
-26.19375000000002
 20
0.4751939721279167
 30
0.0
 10
-26.19375000000002
 20
0.4927132069226711
 30
0.0
 10
-26.19375000000002
 20
0.5129130283543314
 30
0.0
 10
-26.19375000000002
 20
0.5294370428973582
 30
0.0
 10
-26.19374999999999
 20
0.5392201878324004
 30
0.0
 10
-26.19375000000002
 20
0.5433589846816832
 30
0.0
 10
-26.19375000000002
 20
0.5424276216317859
 30
0.0
 10
-26.19375000000002
 20
0.5423367236308517
 30
0.0
  0
SPLINE
  5
38D
330
1F
100
AcDbEntity
  8
외형선
  6
Continuous
370
    15
100
AcDbSpline
210
0.0
220
0.0
230
1.0
 70
    24
 71
     3
 72
     9
 73
     5
 74
     0
 42
0.000000001
 43
0.00000001
 40
0.0
 40
0.0
 40
0.0
 40
0.0
 40
0.4792937593509961
 40
1.0
 40
1.0
 40
1.0
 40
1.0
 10
-26.19375000000002
 20
-0.5420338916295525
 30
0.0
 10
-26.19375000000002
 20
-0.5405966787728166
 30
0.0
 10
-26.19375000000002
 20
-0.5375980733691411
 30
0.0
 10
-26.19375000000002
 20
-0.5112489219486013
 30
0.0
 10
-26.19375000000002
 20
-0.4975287543681209
 30
0.0
  0
SPLINE
  5
38E
330
1F
100
AcDbEntity
  8
0
  6
Continuous
 62
     1
370
    25
100
AcDbSpline
210
0.0
220
0.0
230
1.0
 70
     8
 71
     3
 72
    15
 73
    11
 74
     0
 42
0.000000001
 43
0.00000001
 40
0.0
 40
0.0
 40
0.0
 40
0.0
 40
0.1366167965984374
 40
0.2732289817236622
 40
0.4098367279411869
 40
0.5464402089762367
 40
0.6830395996710922
 40
0.8196350759418147
 40
0.9562268147343709
 40
1.0
 40
1.0
 40
1.0
 40
1.0
 10
-31.74999999999999
 20
0.7532218149528286
 30
0.0
 10
-31.57339759239596
 20
0.7101751407771227
 30
0.0
 10
-31.22019873836759
 20
0.6240832454577702
 30
0.0
 10
-30.69041371284168
 20
0.373899941903728
 30
0.0
 10
-30.16064905138105
 20
0.0766771042162605
 30
0.0
 10
-29.63090430072025
 20
-0.2333219765818716
 30
0.0
 10
-29.1011784947662
 20
-0.5107273644233371
 30
0.0
 10
-28.571471084855
 20
-0.7052643985519415
 30
0.0
 10
-28.16175641019429
 20
-0.7992593556921915
 30
0.0
 10
-27.92861165018831
 20
-0.7845480013242484
 30
0.0
 10
-27.87202920309254
 20
-0.7809776683250879
 30
0.0
  0
SPLINE
  5
38F
330
1F
100
AcDbEntity
  8
0
  6
Continuous
 62
     1
370
    25
100
AcDbSpline
210
0.0
220
0.0
230
1.0
 70
     8
 71
     3
 72
    13
 73
     9
 74
     0
 42
0.000000001
 43
0.00000001
 40
0.0
 40
0.0
 40
0.0
 40
0.0
 40
0.1921370630785584
 40
0.3834061316514845
 40
0.5747809498803056
 40
0.7671457746855652
 40
0.9590144628015863
 40
1.0
 40
1.0
 40
1.0
 40
1.0
 10
-31.74999999999999
 20
0.6262467348422777
 30
0.0
 10
-31.61725294201371
 20
0.597007402526513
 30
0.0
 10
-31.35235852146234
 20
0.5386608289105917
 30
0.0
 10
-30.95564941660677
 20
0.3923265295037143
 30
0.0
 10
-30.55876091954388
 20
0.2165655137995105
 30
0.0
 10
-30.16094400554538
 20
0.024364704514669
 30
0.0
 10
-29.86725457729209
 20
-0.1239675703316455
 30
0.0
 10
-29.7065249529204
 20
-0.195995470710079
 30
0.0
 10
-29.67823433466048
 20
-0.2086733690230586
 30
0.0
  0
LINE
  5
390
330
1F
100
AcDbEntity
  8
0
  6
Continuous
 62
     1
370
    25
100
AcDbLine
 10
-31.74999999999996
 20
0.7532218149528286
 30
0.0
 11
-31.74999999999999
 21
0.6262467348422777
 31
0.0
  0
SPLINE
  5
391
330
1F
100
AcDbEntity
  8
0
  6
Continuous
 62
     1
370
    25
100
AcDbSpline
210
0.0
220
0.0
230
1.0
 70
     8
 71
     3
 72
    19
 73
    15
 74
     0
 42
0.000000001
 43
0.00000001
 40
0.0
 40
0.0
 40
0.0
 40
0.0
 40
0.0616300493931038
 40
0.1469003823945404
 40
0.2320645574417621
 40
0.3171587000762544
 40
0.4019904400765051
 40
0.4867700301963719
 40
0.571547830818417
 40
0.6563239935317328
 40
0.7410996278216233
 40
0.8258750405436517
 40
0.9116968516159617
 40
1.0
 40
1.0
 40
1.0
 40
1.0
 10
-26.36315415924599
 20
-0.5341958306345181
 30
0.0
 10
-26.47384513570855
 20
-0.5811525817188167
 30
0.0
 10
-26.73768634515266
 20
-0.6930779291461829
 30
0.0
 10
-27.15421704170316
 20
-0.7834517542108818
 30
0.0
 10
-27.61294272100485
 20
-0.8056540065803423
 30
0.0
 10
-28.07092838170356
 20
-0.736500626997911
 30
0.0
 10
-28.5283973292216
 20
-0.5874633046243486
 30
0.0
 10
-28.98544155163329
 20
-0.3745608781805584
 30
0.0
 10
-29.44210798618445
 20
-0.1204122664891633
 30
0.0
 10
-29.89868256756002
 20
0.1469695539513241
 30
0.0
 10
-30.35521303379823
 20
0.3987720243752245
 30
0.0
 10
-30.81365940709747
 20
0.6059868145402073
 30
0.0
 10
-31.27856786968214
 20
0.7546005843862974
 30
0.0
 10
-31.59137011199356
 20
0.7801316757351467
 30
0.0
 10
-31.74999999999999
 20
0.793750000000001
 30
0.0
  0
SPLINE
  5
392
330
1F
100
AcDbEntity
  8
0
  6
Continuous
 62
     1
370
    25
100
AcDbSpline
210
0.0
220
0.0
230
1.0
 70
     8
 71
     3
 72
    15
 73
    11
 74
     0
 42
0.000000001
 43
0.00000001
 40
0.0
 40
0.0
 40
0.0
 40
0.0
 40
0.006865363227255
 40
0.1564766704074666
 40
0.3063464355765141
 40
0.4569829942725248
 40
0.6069490236367926
 40
0.7565485937740682
 40
0.9065782338432228
 40
1.0
 40
1.0
 40
1.0
 40
1.0
 10
-29.7813091366554
 20
0.0768759843976933
 30
0.0
 10
-29.7752502293641
 20
0.0745285813413668
 30
0.0
 10
-29.63715445673432
 20
0.0210261223745415
 30
0.0
 10
-29.36696746639978
 20
-0.0920971274372936
 30
0.0
 10
-28.96984111890441
 20
-0.2459800923395453
 30
0.0
 10
-28.57203887156052
 20
-0.3798909683176764
 30
0.0
 10
-28.17481375119933
 20
-0.4831267302051058
 30
0.0
 10
-27.7782252239844
 20
-0.5444074124211672
 30
0.0
 10
-27.4313928597956
 20
-0.564557727407971
 30
0.0
 10
-27.21645825985504
 20
-0.5449099760644264
 30
0.0
 10
-27.13397950055795
 20
-0.5373703702762375
 30
0.0
  0
LINE
  5
393
330
1F
100
AcDbEntity
  8
0
  6
Continuous
 62
     1
370
    25
100
AcDbLine
 10
-31.74999999999999
 20
0.7930791345885363
 30
0.0
 11
-31.74999999999994
 21
0.753221814952825
 31
0.0
  0
SPLINE
  5
394
330
1F
100
AcDbEntity
  8
0
  6
Continuous
 62
     1
370
    25
100
AcDbSpline
210
0.0
220
0.0
230
1.0
 70
     8
 71
     3
 72
    13
 73
     9
 74
     0
 42
0.000000001
 43
0.00000001
 40
0.0
 40
0.0
 40
0.0
 40
0.0
 40
0.0697628662348777
 40
0.2769179672761324
 40
0.4840676699069704
 40
0.6912122454045657
 40
0.8456961650494098
 40
1.0
 40
1.0
 40
1.0
 40
1.0
 10
-28.74984934412651
 20
0.6270327481071031
 30
0.0
 10
-28.69038856415548
 20
0.6502681890125731
 30
0.0
 10
-28.45436388210188
 20
0.7424993631538984
 30
0.0
 10
-28.04176917363355
 20
0.8034101829480828
 30
0.0
 10
-27.51214965710329
 20
0.7871771192646174
 30
0.0
 10
-27.02718719404685
 20
0.6603322205496606
 30
0.0
 10
-26.58797385738145
 20
0.4796574871147267
 30
0.0
 10
-26.32510685120632
 20
0.3410936911476322
 30
0.0
 10
-26.19374999999973
 20
0.2718521982942422
 30
0.0
  0
SPLINE
  5
395
330
1F
100
AcDbEntity
  8
외형선
  6
Continuous
370
    15
100
AcDbSpline
210
0.0
220
0.0
230
1.0
 70
    24
 71
     3
 72
     8
 73
     4
 74
     0
 42
0.000000001
 43
0.00000001
 40
0.0
 40
0.0
 40
0.0
 40
0.0
 40
1.0
 40
1.0
 40
1.0
 40
1.0
 10
-26.19375000000002
 20
0.1924489053846708
 30
0.0
 10
-26.19375000000002
 20
0.2161375381931715
 30
0.0
 10
-26.19375000000002
 20
0.2427630797342618
 30
0.0
 10
-26.19375000000002
 20
0.2718521982943346
 30
0.0
  0
SPLINE
  5
396
330
1F
100
AcDbEntity
  8
0
  6
Continuous
 62
     1
370
    25
100
AcDbSpline
210
0.0
220
0.0
230
1.0
 70
     8
 71
     3
 72
    13
 73
     9
 74
     0
 42
0.000000001
 43
0.00000001
 40
0.0
 40
0.0
 40
0.0
 40
0.0
 40
0.0308597930920341
 40
0.22464568308362
 40
0.4189662170309564
 40
0.6140187041350629
 40
0.8071269636034103
 40
1.0
 40
1.0
 40
1.0
 40
1.0
 10
-28.23753792142531
 20
0.6568340527734388
 30
0.0
 10
-28.21651299879863
 20
0.6600942702970068
 30
0.0
 10
-28.06346083506048
 20
0.6838272159586775
 30
0.0
 10
-27.77821392440494
 20
0.6752918497249015
 30
0.0
 10
-27.38091818623715
 20
0.6260684200703625
 30
0.0
 10
-26.98367587332074
 20
0.5202688470744529
 30
0.0
 10
-26.58798724680181
 20
0.3736956354458111
 30
0.0
 10
-26.32510901489001
 20
0.2528399316157158
 30
0.0
 10
-26.19374999999842
 20
0.1924489053839354
 30
0.0
  0
SPLINE
  5
397
330
1F
100
AcDbEntity
  8
0
  6
Continuous
 62
     1
370
    25
100
AcDbSpline
210
0.0
220
0.0
230
1.0
 70
     8
 71
     3
 72
    15
 73
    11
 74
     0
 42
0.000000001
 43
0.00000001
 40
0.0
 40
0.0
 40
0.0
 40
0.0
 40
0.0964124114645303
 40
0.193026541403166
 40
0.2902365701883141
 40
0.387648852936799
 40
0.5645340598164472
 40
0.7426484510403694
 40
0.9193123667875873
 40
1.0
 40
1.0
 40
1.0
 40
1.0
 10
-26.19375000000002
 20
0.467239101593007
 30
0.0
 10
-26.23532815558018
 20
0.4862720141905416
 30
0.0
 10
-26.3185714584668
 20
0.5243776609192511
 30
0.0
 10
-26.44330895150119
 20
0.5768082914414857
 30
0.0
 10
-26.56905718687548
 20
0.6241644653132264
 30
0.0
 10
-26.72960452306466
 20
0.6777423809157649
 30
0.0
 10
-26.92428793333868
 20
0.7319278043769567
 30
0.0
 10
-27.15377914621222
 20
0.7732579075390954
 30
0.0
 10
-27.34182295329784
 20
0.7935487683979242
 30
0.0
 10
-27.45267569031136
 20
0.7915907991197936
 30
0.0
 10
-27.4874314359865
 20
0.7909769154746636
 30
0.0
  0
SPLINE
  5
398
330
1F
100
AcDbEntity
  8
0
  6
Continuous
 62
     1
370
    25
100
AcDbSpline
210
0.0
220
0.0
230
1.0
 70
     8
 71
     3
 72
    14
 73
    10
 74
     0
 42
0.000000001
 43
0.00000001
 40
0.0
 40
0.0
 40
0.0
 40
0.0
 40
0.1376332656325668
 40
0.3493738478454896
 40
0.5626115375746307
 40
0.6714493621419185
 40
0.7804891352590231
 40
0.8901406029498946
 40
1.0
 40
1.0
 40
1.0
 40
1.0
 10
-30.66228434321834
 20
-0.5325316816984423
 30
0.0
 10
-30.71208660053983
 20
-0.5540316350483768
 30
0.0
 10
-30.83850666469964
 20
-0.6086079861640937
 30
0.0
 10
-31.0432366279453
 20
-0.6768313322173701
 30
0.0
 10
-31.23624853765909
 20
-0.7287344218274773
 30
0.0
 10
-31.39257326140611
 20
-0.7590860271702785
 30
0.0
 10
-31.51152931092562
 20
-0.7764062607838104
 30
0.0
 10
-31.63082565618037
 20
-0.7884683758284315
 30
0.0
 10
-31.71025014072409
 20
-0.7915412447542299
 30
0.0
 10
-31.74999999999999
 20
-0.7937499999999976
 30
0.0
  0
SPLINE
  5
399
330
1F
100
AcDbEntity
  8
0
  6
Continuous
 62
     1
370
    25
100
AcDbSpline
210
0.0
220
0.0
230
1.0
 70
     8
 71
     3
 72
     8
 73
     4
 74
     0
 42
0.000000001
 43
0.00000001
 40
0.0
 40
0.0
 40
0.0
 40
0.0
 40
1.0
 40
1.0
 40
1.0
 40
1.0
 10
-31.25916518402695
 20
-0.2217164472895964
 30
0.0
 10
-31.23086283303621
 20
-0.2552055529186444
 30
0.0
 10
-31.20555695231342
 20
-0.2874688336122962
 30
0.0
 10
-31.184039836272
 20
-0.318182169936181
 30
0.0
  0
LINE
  5
39A
330
1F
100
AcDbEntity
  8
0
  6
Continuous
 62
     1
370
    25
100
AcDbLine
 10
-31.19409439046915
 20
-0.3266189426618188
 30
0.0
 11
-31.74999999999999
 21
0.0000000000000052
 31
0.0
  0
LINE
  5
39B
330
1F
100
AcDbEntity
  8
0
  6
Continuous
 62
     1
370
    25
100
AcDbLine
 10
-31.74999999999999
 20
0.0000000000000052
 30
0.0
 11
-31.74999999999999
 21
0.2121240884110359
 31
0.0
  0
SPLINE
  5
39C
330
1F
100
AcDbEntity
  8
0
  6
Continuous
 62
     1
370
    25
100
AcDbSpline
210
0.0
220
0.0
230
1.0
 70
     8
 71
     3
 72
    10
 73
     6
 74
     0
 42
0.000000001
 43
0.00000001
 40
0.0
 40
0.0
 40
0.0
 40
0.0
 40
0.5
 40
0.5
 40
1.0
 40
1.0
 40
1.0
 40
1.0
 10
-31.74999999999999
 20
0.2121240884110359
 30
0.0
 10
-31.66503968058412
 20
0.1453288991865714
 30
0.0
 10
-31.58149867432916
 20
0.0757943889780302
 30
0.0
 10
-31.41731817387943
 20
-0.0688746449464529
 30
0.0
 10
-31.33590546063871
 20
-0.1447670400822664
 30
0.0
 10
-31.25916518402629
 20
-0.2217164472878947
 30
0.0
  0
SPLINE
  5
39D
330
1F
100
AcDbEntity
  8
0
  6
Continuous
 62
     1
370
    25
100
AcDbSpline
210
0.0
220
0.0
230
1.0
 70
     8
 71
     3
 72
    12
 73
     8
 74
     0
 42
0.000000001
 43
0.00000001
 40
0.0
 40
0.0
 40
0.0
 40
0.0
 40
0.1661103893418127
 40
0.3830144140390587
 40
0.6010562865056153
 40
0.8185277241052342
 40
1.0
 40
1.0
 40
1.0
 40
1.0
 10
-31.25916518402683
 20
-0.2217164472896426
 30
0.0
 10
-31.15802206199398
 20
-0.2644917720952425
 30
0.0
 10
-30.92480803021072
 20
-0.363122363659473
 30
0.0
 10
-30.5587530275448
 20
-0.4910790925237319
 30
0.0
 10
-30.16096332227968
 20
-0.5882466759595905
 30
0.0
 10
-29.78502518801348
 20
-0.6392620121865297
 30
0.0
 10
-29.54207222842853
 20
-0.6309480487836955
 30
0.0
 10
-29.43155732364396
 20
-0.6271661772830744
 30
0.0
  0
SPLINE
  5
39E
330
1F
100
AcDbEntity
  8
0
  6
Continuous
 62
     1
370
    25
100
AcDbSpline
210
0.0
220
0.0
230
1.0
 70
    24
 71
     3
 72
     8
 73
     4
 74
     0
 42
0.000000001
 43
0.00000001
 40
0.0
 40
0.0
 40
0.0
 40
0.0
 40
1.0
 40
1.0
 40
1.0
 40
1.0
 10
-31.74999999999999
 20
0.6262467348422777
 30
0.0
 10
-31.74999999999999
 20
0.5302333452012763
 30
0.0
 10
-31.74999999999999
 20
0.3805014774329062
 30
0.0
 10
-31.74999999999999
 20
0.2121240884110608
 30
0.0
  0
SPLINE
  5
39F
330
1F
100
AcDbEntity
  8
0
  6
Continuous
 62
     1
370
    25
100
AcDbSpline
210
0.0
220
0.0
230
1.0
 70
     8
 71
     3
 72
    17
 73
    13
 74
     0
 42
0.000000001
 43
0.00000001
 40
0.0
 40
0.0
 40
0.0
 40
0.0
 40
0.0792715558206864
 40
0.1814423635915242
 40
0.2837850352012919
 40
0.3866377146805126
 40
0.4890444453364441
 40
0.5912074440733389
 40
0.6936564265015809
 40
0.7964964745303661
 40
0.8983110492923136
 40
1.0
 40
1.0
 40
1.0
 40
1.0
 10
-30.07048670129137
 20
0.5921840265298693
 30
0.0
 10
-29.96802272942528
 20
0.607277587865079
 30
0.0
 10
-29.73349591781061
 20
0.64182480237754
 30
0.0
 10
-29.36696250900342
 20
0.6344141839765863
 30
0.0
 10
-28.96987199587991
 20
0.5794408237686194
 30
0.0
 10
-28.57200206099719
 20
0.475373162992648
 30
0.0
 10
-28.17479531305138
 20
0.3318810439188783
 30
0.0
 10
-27.77822993471769
 20
0.1607074617403777
 30
0.0
 10
-27.38095110238839
 20
-0.0239062469198307
 30
0.0
 10
-26.98373085126973
 20
-0.2047437925373556
 30
0.0
 10
-26.58801260379607
 20
-0.3722240937815525
 30
0.0
 10
-26.3251167721612
 20
-0.4557777269069218
 30
0.0
 10
-26.19375000000002
 20
-0.4975287543681209
 30
0.0
  0
SPLINE
  5
3A0
330
1F
100
AcDbEntity
  8
외형선
  6
Continuous
370
    15
100
AcDbSpline
210
0.0
220
0.0
230
1.0
 70
    24
 71
     3
 72
    10
 73
     6
 74
     0
 42
0.000000001
 43
0.00000001
 40
0.0
 40
0.0
 40
0.0
 40
0.0
 40
0.5
 40
0.5
 40
1.0
 40
1.0
 40
1.0
 40
1.0
 10
-26.19374999999999
 20
-0.4975287543681245
 30
0.0
 10
-26.19374999999999
 20
-0.410875888467194
 30
0.0
 10
-26.19374999999999
 20
-0.3009307915528742
 30
0.0
 10
-26.19374999999999
 20
-0.0597494093248533
 30
0.0
 10
-26.19374999999999
 20
0.0704487370353187
 30
0.0
 10
-26.19374999999999
 20
0.1924489053846708
 30
0.0
  0
SPLINE
  5
3A1
330
1F
100
AcDbEntity
  8
0
  6
Continuous
 62
     1
370
    25
100
AcDbSpline
210
0.0
220
0.0
230
1.0
 70
    24
 71
     3
 72
     8
 73
     4
 74
     0
 42
0.000000001
 43
0.00000001
 40
0.0
 40
0.0
 40
0.0
 40
0.0
 40
1.0
 40
1.0
 40
1.0
 40
1.0
 10
-31.74999999999999
 20
-0.5556249999999939
 30
0.0
 10
-31.74999999999999
 20
-0.6229862076816045
 30
0.0
 10
-31.74999999999999
 20
-0.7135749447463003
 30
0.0
 10
-31.74999999999999
 20
-0.7937499999999976
 30
0.0
  0
LINE
  5
3A2
330
1F
100
AcDbEntity
  8
0
  6
Continuous
 62
     1
370
    25
100
AcDbLine
 10
-31.74999999999999
 20
-0.5556249999999939
 30
0.0
 11
-31.43470060695068
 21
-0.5373595880120005
 31
0.0
  0
SPLINE
  5
3A3
330
1F
100
AcDbEntity
  8
0
  6
Continuous
 62
     1
370
    25
100
AcDbSpline
210
0.0
220
0.0
230
1.0
 70
    24
 71
     3
 72
     8
 73
     4
 74
     0
 42
0.000000001
 43
0.00000001
 40
0.0
 40
0.0
 40
0.0
 40
0.0
 40
1.0
 40
1.0
 40
1.0
 40
1.0
 10
-31.26672898750672
 20
-0.3875666062467414
 30
0.0
 10
-31.24053382861938
 20
-0.3655862580857364
 30
0.0
 10
-31.21289163828373
 20
-0.3423917063701457
 30
0.0
 10
-31.18403983626887
 20
-0.3181821699406858
 30
0.0
  0
SPLINE
  5
3A4
330
1F
100
AcDbEntity
  8
0
  6
Continuous
 62
     1
370
    25
100
AcDbSpline
210
0.0
220
0.0
230
1.0
 70
     8
 71
     3
 72
     8
 73
     4
 74
     0
 42
0.000000001
 43
0.00000001
 40
0.0
 40
0.0
 40
0.0
 40
0.0
 40
1.0
 40
1.0
 40
1.0
 40
1.0
 10
-31.74999999999999
 20
-0.5556249999999939
 30
0.0
 10
-31.58667374258709
 20
-0.5111936580934949
 30
0.0
 10
-31.42490442684248
 20
-0.4567198980990615
 30
0.0
 10
-31.26672898751499
 20
-0.3875666062503617
 30
0.0
  0
SPLINE
  5
3A5
330
1F
100
AcDbEntity
  8
외형선
  6
Continuous
370
    15
100
AcDbSpline
210
0.0
220
0.0
230
1.0
 70
    24
 71
     3
 72
    13
 73
     9
 74
     0
 42
0.000000001
 43
0.00000001
 40
0.0
 40
0.0
 40
0.0
 40
0.0
 40
0.1650405633835909
 40
0.3634734679701872
 40
0.5632841266748089
 40
0.7674401456632983
 40
0.973097674453552
 40
1.0
 40
1.0
 40
1.0
 40
1.0
 10
-26.19375000000002
 20
0.467239101593007
 30
0.0
 10
-26.19375000000002
 20
0.4751939058589033
 30
0.0
 10
-26.19375000000002
 20
0.4927129947075509
 30
0.0
 10
-26.19375000000002
 20
0.5129140843068124
 30
0.0
 10
-26.19375000000002
 20
0.5294330404335471
 30
0.0
 10
-26.19375000000002
 20
0.5392355298911101
 30
0.0
 10
-26.19375000000002
 20
0.5433671505481018
 30
0.0
 10
-26.19375000000002
 20
0.5423979252368641
 30
0.0
 10
-26.19375000000002
 20
0.5422858060797341
 30
0.0
  0
SPLINE
  5
3A6
330
1F
100
AcDbEntity
  8
외형선
  6
Continuous
370
    15
100
AcDbSpline
210
0.0
220
0.0
230
1.0
 70
    24
 71
     3
 72
     9
 73
     5
 74
     0
 42
0.000000001
 43
0.00000001
 40
0.0
 40
0.0
 40
0.0
 40
0.0
 40
0.4753916219840696
 40
1.0
 40
1.0
 40
1.0
 40
1.0
 10
-26.19375000000002
 20
-0.5418837324982083
 30
0.0
 10
-26.19375000000002
 20
-0.5404544924808851
 30
0.0
 10
-26.19375000000002
 20
-0.5374480448464906
 30
0.0
 10
-26.19375000000002
 20
-0.5112647370187365
 30
0.0
 10
-26.19375000000002
 20
-0.4975287543681209
 30
0.0
  0
LINE
  5
3A7
330
1F
100
AcDbEntity
  8
0
  6
Continuous
 62
     1
370
    25
100
AcDbLine
 10
-31.74999999999999
 20
0.0000000000000052
 30
0.0
 11
-31.74999999999999
 21
-0.5556249999999939
 31
0.0
  0
ENDSEC
  0
SECTION
  2
OBJECTS
  0
DICTIONARY
  5
C
330
0
100
AcDbDictionary
281
     1
  3
ACAD_GROUP
350
D
  3
ACAD_IMAGE_VARS
350
165
  3
ACAD_LAYOUT
350
1A
  3
ACAD_MLINESTYLE
350
17
  3
ACAD_PLOTSETTINGS
350
19
  3
ACAD_PLOTSTYLENAME
350
E
  3
ACAD_SCALELIST
350
47
  3
APPDATA
350
163
  3
DWGPROPS
350
3FB
  0
DICTIONARY
  5
203
330
2
100
AcDbDictionary
280
     1
281
     1
  3
ACAD_LAYERSTATES
360
204
  0
DICTIONARY
  5
D
102
{ACAD_REACTORS
330
C
102
}
330
C
100
AcDbDictionary
281
     1
  0
RASTERVARIABLES
  5
165
102
{ACAD_REACTORS
330
C
102
}
330
C
100
AcDbRasterVariables
 90
        0
 70
     1
 71
     1
 72
     1
  0
DICTIONARY
  5
1A
102
{ACAD_REACTORS
330
C
102
}
330
C
100
AcDbDictionary
281
     1
  3
Layout1
350
1E
  3
Layout2
350
26
  3
Model
350
22
  0
DICTIONARY
  5
17
102
{ACAD_REACTORS
330
C
102
}
330
C
100
AcDbDictionary
281
     1
  3
Standard
350
18
  0
DICTIONARY
  5
19
102
{ACAD_REACTORS
330
C
102
}
330
C
100
AcDbDictionary
281
     1
  0
ACDBDICTIONARYWDFLT
  5
E
102
{ACAD_REACTORS
330
C
102
}
330
C
100
AcDbDictionary
281
     1
  3
Normal
350
F
100
AcDbDictionaryWithDefault
340
F
  0
DICTIONARY
  5
47
102
{ACAD_REACTORS
330
C
102
}
330
C
100
AcDbDictionary
281
     1
  3
A0
350
48
  3
A1
350
49
  3
A2
350
4A
  3
A3
350
4B
  3
A4
350
4C
  3
A5
350
4D
  3
A6
350
4E
  3
A7
350
4F
  3
A8
350
50
  3
A9
350
51
  3
B0
350
52
  3
B1
350
53
  3
B2
350
54
  3
B3
350
55
  3
B4
350
56
  3
B5
350
57
  3
B6
350
58
  3
B7
350
59
  3
B8
350
5A
  3
B9
350
5B
  3
C0
350
5C
  3
C1
350
5D
  3
C2
350
5E
  3
C3
350
5F
  3
C4
350
60
  3
C5
350
61
  3
C6
350
62
  3
C7
350
63
  3
C8
350
64
  3
C9
350
65
  3
D0
350
66
  3
D1
350
67
  3
D2
350
68
  0
DICTIONARY
  5
163
102
{ACAD_REACTORS
330
C
102
}
330
C
100
AcDbDictionary
281
     1
  0
XRECORD
  5
3FB
102
{ACAD_REACTORS
330
C
102
}
330
C
100
AcDbXrecord
280
     1
  1
DWGPROPS COOKIE
  2

  3

  4

  6

  7

  8
12016016
  9

300
=
301
=
302
=
303
=
304
=
305
=
306
=
307
=
308
=
309
=
 40
0.0
 41
2458313.036824363
 42
2458320.37348691
  1

 90
        0
  0
DICTIONARY
  5
204
102
{ACAD_REACTORS
330
203
102
}
330
203
100
AcDbDictionary
281
     1
  0
LAYOUT
  5
1E
102
{ACAD_REACTORS
330
1A
102
}
330
1A
100
AcDbPlotSettings
  1

  2
none_device
  4

  6

 40
0.0
 41
0.0
 42
0.0
 43
0.0
 44
0.0
 45
0.0
 46
0.0
 47
0.0
 48
0.0
 49
0.0
140
0.0
141
0.0
142
1.0
143
1.0
 70
   688
 72
     1
 73
     0
 74
     5
  7

 75
    16
147
1.0
148
0.0
149
0.0
100
AcDbLayout
  1
Layout1
 70
     1
 71
     1
 10
0.0
 20
0.0
 11
420.0
 21
297.0
 12
0.0
 22
0.0
 32
0.0
 14
1.000000000000000E+20
 24
1.000000000000000E+20
 34
1.000000000000000E+20
 15
-1.000000000000000E+20
 25
-1.000000000000000E+20
 35
-1.000000000000000E+20
146
0.0
 13
0.0
 23
0.0
 33
0.0
 16
1.0
 26
0.0
 36
0.0
 17
0.0
 27
1.0
 37
0.0
 76
     0
330
1B
  0
LAYOUT
  5
26
102
{ACAD_REACTORS
330
1A
102
}
330
1A
100
AcDbPlotSettings
  1

  2
none_device
  4

  6

 40
0.0
 41
0.0
 42
0.0
 43
0.0
 44
0.0
 45
0.0
 46
0.0
 47
0.0
 48
0.0
 49
0.0
140
0.0
141
0.0
142
1.0
143
1.0
 70
   688
 72
     1
 73
     0
 74
     5
  7

 75
    16
147
1.0
148
0.0
149
0.0
100
AcDbLayout
  1
Layout2
 70
     1
 71
     2
 10
0.0
 20
0.0
 11
0.0
 21
0.0
 12
0.0
 22
0.0
 32
0.0
 14
0.0
 24
0.0
 34
0.0
 15
0.0
 25
0.0
 35
0.0
146
0.0
 13
0.0
 23
0.0
 33
0.0
 16
1.0
 26
0.0
 36
0.0
 17
0.0
 27
1.0
 37
0.0
 76
     0
330
23
  0
LAYOUT
  5
22
102
{ACAD_REACTORS
330
1A
102
}
330
1A
100
AcDbPlotSettings
  1

  2
none_device
  4
ANSI_A_(11.00_x_8.50_Inches)
  6

 40
6.35
 41
19.05
 42
6.35000508
 43
19.05000254
 44
279.4
 45
215.9
 46
124.3908943227782
 47
92.10907077103455
 48
0.0
 49
0.0
140
0.0
141
0.0
142
0.0713895863513583
143
1.0
 70
  1696
 72
     0
 73
     0
 74
     0
  7

 75
     0
147
0.0235690232323232
148
0.0
149
0.0
100
AcDbLayout
  1
Model
 70
     1
 71
     0
 10
0.0
 20
0.0
 11
420.0
 21
297.0
 12
0.0
 22
0.0
 32
0.0
 14
-49.12500000000005
 24
-49.97180738881174
 34
0.0
 15
81.21241335422454
 25
40.75625000000002
 35
0.0
146
0.0
 13
0.0
 23
0.0
 33
0.0
 16
1.0
 26
0.0
 36
0.0
 17
0.0
 27
1.0
 37
0.0
 76
     0
330
1F
331
29
  0
MLINESTYLE
  5
18
102
{ACAD_REACTORS
330
17
102
}
330
17
100
AcDbMlineStyle
  2
Standard
 70
     0
  3

 62
   256
 51
90.0
 52
90.0
 71
     2
 49
0.5
 62
   256
  6
BYLAYER
 49
-0.5
 62
   256
  6
BYLAYER
  0
ACDBPLACEHOLDER
  5
F
102
{ACAD_REACTORS
330
E
102
}
330
E
  0
SCALE
  5
48
102
{ACAD_REACTORS
330
47
102
}
330
47
100
AcDbScale
 70
     0
300
1:1
140
1.0
141
1.0
290
     1
  0
SCALE
  5
49
102
{ACAD_REACTORS
330
47
102
}
330
47
100
AcDbScale
 70
     0
300
1:2
140
1.0
141
2.0
290
     0
  0
SCALE
  5
4A
102
{ACAD_REACTORS
330
47
102
}
330
47
100
AcDbScale
 70
     0
300
1:4
140
1.0
141
4.0
290
     0
  0
SCALE
  5
4B
102
{ACAD_REACTORS
330
47
102
}
330
47
100
AcDbScale
 70
     0
300
1:5
140
1.0
141
5.0
290
     0
  0
SCALE
  5
4C
102
{ACAD_REACTORS
330
47
102
}
330
47
100
AcDbScale
 70
     0
300
1:8
140
1.0
141
8.0
290
     0
  0
SCALE
  5
4D
102
{ACAD_REACTORS
330
47
102
}
330
47
100
AcDbScale
 70
     0
300
1:10
140
1.0
141
10.0
290
     0
  0
SCALE
  5
4E
102
{ACAD_REACTORS
330
47
102
}
330
47
100
AcDbScale
 70
     0
300
1:16
140
1.0
141
16.0
290
     0
  0
SCALE
  5
4F
102
{ACAD_REACTORS
330
47
102
}
330
47
100
AcDbScale
 70
     0
300
1:20
140
1.0
141
20.0
290
     0
  0
SCALE
  5
50
102
{ACAD_REACTORS
330
47
102
}
330
47
100
AcDbScale
 70
     0
300
1:30
140
1.0
141
30.0
290
     0
  0
SCALE
  5
51
102
{ACAD_REACTORS
330
47
102
}
330
47
100
AcDbScale
 70
     0
300
1:40
140
1.0
141
40.0
290
     0
  0
SCALE
  5
52
102
{ACAD_REACTORS
330
47
102
}
330
47
100
AcDbScale
 70
     0
300
1:50
140
1.0
141
50.0
290
     0
  0
SCALE
  5
53
102
{ACAD_REACTORS
330
47
102
}
330
47
100
AcDbScale
 70
     0
300
1:100
140
1.0
141
100.0
290
     0
  0
SCALE
  5
54
102
{ACAD_REACTORS
330
47
102
}
330
47
100
AcDbScale
 70
     0
300
2:1
140
2.0
141
1.0
290
     0
  0
SCALE
  5
55
102
{ACAD_REACTORS
330
47
102
}
330
47
100
AcDbScale
 70
     0
300
4:1
140
4.0
141
1.0
290
     0
  0
SCALE
  5
56
102
{ACAD_REACTORS
330
47
102
}
330
47
100
AcDbScale
 70
     0
300
8:1
140
8.0
141
1.0
290
     0
  0
SCALE
  5
57
102
{ACAD_REACTORS
330
47
102
}
330
47
100
AcDbScale
 70
     0
300
10:1
140
10.0
141
1.0
290
     0
  0
SCALE
  5
58
102
{ACAD_REACTORS
330
47
102
}
330
47
100
AcDbScale
 70
     0
300
100:1
140
100.0
141
1.0
290
     0
  0
SCALE
  5
59
102
{ACAD_REACTORS
330
47
102
}
330
47
100
AcDbScale
 70
     0
300
1/128" = 1'-0"
140
0.0078125
141
12.0
290
     0
  0
SCALE
  5
5A
102
{ACAD_REACTORS
330
47
102
}
330
47
100
AcDbScale
 70
     0
300
1/64" = 1'-0"
140
0.015625
141
12.0
290
     0
  0
SCALE
  5
5B
102
{ACAD_REACTORS
330
47
102
}
330
47
100
AcDbScale
 70
     0
300
1/32" = 1'-0"
140
0.03125
141
12.0
290
     0
  0
SCALE
  5
5C
102
{ACAD_REACTORS
330
47
102
}
330
47
100
AcDbScale
 70
     0
300
1/16" = 1'-0"
140
0.0625
141
12.0
290
     0
  0
SCALE
  5
5D
102
{ACAD_REACTORS
330
47
102
}
330
47
100
AcDbScale
 70
     0
300
3/32" = 1'-0"
140
0.09375
141
12.0
290
     0
  0
SCALE
  5
5E
102
{ACAD_REACTORS
330
47
102
}
330
47
100
AcDbScale
 70
     0
300
1/8" = 1'-0"
140
0.125
141
12.0
290
     0
  0
SCALE
  5
5F
102
{ACAD_REACTORS
330
47
102
}
330
47
100
AcDbScale
 70
     0
300
3/16" = 1'-0"
140
0.1875
141
12.0
290
     0
  0
SCALE
  5
60
102
{ACAD_REACTORS
330
47
102
}
330
47
100
AcDbScale
 70
     0
300
1/4" = 1'-0"
140
0.25
141
12.0
290
     0
  0
SCALE
  5
61
102
{ACAD_REACTORS
330
47
102
}
330
47
100
AcDbScale
 70
     0
300
3/8" = 1'-0"
140
0.375
141
12.0
290
     0
  0
SCALE
  5
62
102
{ACAD_REACTORS
330
47
102
}
330
47
100
AcDbScale
 70
     0
300
1/2" = 1'-0"
140
0.5
141
12.0
290
     0
  0
SCALE
  5
63
102
{ACAD_REACTORS
330
47
102
}
330
47
100
AcDbScale
 70
     0
300
3/4" = 1'-0"
140
0.75
141
12.0
290
     0
  0
SCALE
  5
64
102
{ACAD_REACTORS
330
47
102
}
330
47
100
AcDbScale
 70
     0
300
1" = 1'-0"
140
1.0
141
12.0
290
     0
  0
SCALE
  5
65
102
{ACAD_REACTORS
330
47
102
}
330
47
100
AcDbScale
 70
     0
300
1-1/2" = 1'-0"
140
1.5
141
12.0
290
     0
  0
SCALE
  5
66
102
{ACAD_REACTORS
330
47
102
}
330
47
100
AcDbScale
 70
     0
300
3" = 1'-0"
140
3.0
141
12.0
290
     0
  0
SCALE
  5
67
102
{ACAD_REACTORS
330
47
102
}
330
47
100
AcDbScale
 70
     0
300
6" = 1'-0"
140
6.0
141
12.0
290
     0
  0
SCALE
  5
68
102
{ACAD_REACTORS
330
47
102
}
330
47
100
AcDbScale
 70
     0
300
1'-0" = 1'-0"
140
12.0
141
12.0
290
     0
  0
ENDSEC
  0
EOF
