  0
SECTION
  2
HEADER
  9
$ACADVER
  1
AC1015
  9
$ACADMAINTVER
 70
     6
  9
$DWGCODEPAGE
  3
ANSI_949
  9
$INSBASE
 10
0.0
 20
0.0
 30
0.0
  9
$EXTMIN
 10
-49.12500000000004
 20
-49.97180738881174
 30
0.0
  9
$EXTMAX
 10
81.21241335422454
 20
39.23492490373376
 30
0.0
  9
$LIMMIN
 10
0.0
 20
0.0
  9
$LIMMAX
 10
420.0
 20
297.0
  9
$ORTHOMODE
 70
     1
  9
$REGENMODE
 70
     1
  9
$FILLMODE
 70
     1
  9
$QTEXTMODE
 70
     0
  9
$MIRRTEXT
 70
     1
  9
$LTSCALE
 40
1.0
  9
$ATTMODE
 70
     1
  9
$TEXTSIZE
 40
3.5
  9
$TRACEWID
 40
1.0
  9
$TEXTSTYLE
  7
Standard
  9
$CLAYER
  8
0
  9
$CELTYPE
  6
ByLayer
  9
$CECOLOR
 62
   256
  9
$CELTSCALE
 40
1.0
  9
$DISPSILH
 70
     0
  9
$DIMSCALE
 40
1.0
  9
$DIMASZ
 40
3.302
  9
$DIMEXO
 40
1.0
  9
$DIMDLI
 40
3.75
  9
$DIMRND
 40
0.0
  9
$DIMDLE
 40
0.0
  9
$DIMEXE
 40
1.0
  9
$DIMTP
 40
0.0
  9
$DIMTM
 40
0.0
  9
$DIMTXT
 40
3.5
  9
$DIMCEN
 40
2.5
  9
$DIMTSZ
 40
0.0
  9
$DIMTOL
 70
     0
  9
$DIMLIM
 70
     0
  9
$DIMTIH
 70
     1
  9
$DIMTOH
 70
     1
  9
$DIMSE1
 70
     0
  9
$DIMSE2
 70
     0
  9
$DIMTAD
 70
     1
  9
$DIMZIN
 70
     0
  9
$DIMBLK
  1

  9
$DIMASO
 70
     1
  9
$DIMSHO
 70
     1
  9
$DIMPOST
  1

  9
$DIMAPOST
  1

  9
$DIMALT
 70
     0
  9
$DIMALTD
 70
     3
  9
$DIMALTF
 40
0.0393700787401575
  9
$DIMLFAC
 40
1.0
  9
$DIMTOFL
 70
     1
  9
$DIMTVP
 40
0.0
  9
$DIMTIX
 70
     0
  9
$DIMSOXD
 70
     0
  9
$DIMSAH
 70
     0
  9
$DIMBLK1
  1

  9
$DIMBLK2
  1

  9
$DIMSTYLE
  2
ISO-25
  9
$DIMCLRD
 70
     0
  9
$DIMCLRE
 70
     0
  9
$DIMCLRT
 70
     0
  9
$DIMTFAC
 40
1.0
  9
$DIMGAP
 40
1.524
  9
$DIMJUST
 70
     0
  9
$DIMSD1
 70
     0
  9
$DIMSD2
 70
     0
  9
$DIMTOLJ
 70
     0
  9
$DIMTZIN
 70
     0
  9
$DIMALTZ
 70
     0
  9
$DIMALTTZ
 70
     0
  9
$DIMUPT
 70
     0
  9
$DIMDEC
 70
     2
  9
$DIMTDEC
 70
     2
  9
$DIMALTU
 70
     2
  9
$DIMALTTD
 70
     3
  9
$DIMTXSTY
  7
Standard
  9
$DIMAUNIT
 70
     0
  9
$DIMADEC
 70
     2
  9
$DIMALTRND
 40
0.0
  9
$DIMAZIN
 70
     0
  9
$DIMDSEP
 70
    44
  9
$DIMATFIT
 70
     3
  9
$DIMFRAC
 70
     0
  9
$DIMLDRBLK
  1

  9
$DIMLUNIT
 70
     2
  9
$DIMLWD
 70
    -2
  9
$DIMLWE
 70
    -2
  9
$DIMTMOVE
 70
     0
  9
$LUNITS
 70
     2
  9
$LUPREC
 70
     2
  9
$SKETCHINC
 40
1.0
  9
$FILLETRAD
 40
10.0
  9
$AUNITS
 70
     0
  9
$AUPREC
 70
     2
  9
$MENU
  1
.
  9
$ELEVATION
 40
0.0
  9
$PELEVATION
 40
0.0
  9
$THICKNESS
 40
0.0
  9
$LIMCHECK
 70
     0
  9
$CHAMFERA
 40
0.0
  9
$CHAMFERB
 40
0.0
  9
$CHAMFERC
 40
0.0
  9
$CHAMFERD
 40
0.0
  9
$SKPOLY
 70
     0
  9
$TDCREATE
 40
2458313.412036157
  9
$TDUCREATE
 40
2458313.037036157
  9
$TDUPDATE
 40
2458320.74888375
  9
$TDUUPDATE
 40
2458320.37388375
  9
$TDINDWG
 40
0.002671794
  9
$TDUSRTIMER
 40
2458320.373846343
  9
$USRTIMER
 70
     1
  9
$ANGBASE
 50
0.0
  9
$ANGDIR
 70
     0
  9
$PDMODE
 70
     0
  9
$PDSIZE
 40
-1.0
  9
$PLINEWID
 40
0.0
  9
$SPLFRAME
 70
     0
  9
$SPLINETYPE
 70
     6
  9
$SPLINESEGS
 70
     8
  9
$HANDSEED
  5
488
  9
$SURFTAB1
 70
     6
  9
$SURFTAB2
 70
     6
  9
$SURFTYPE
 70
     6
  9
$SURFU
 70
     6
  9
$SURFV
 70
     6
  9
$UCSBASE
  2

  9
$UCSNAME
  2

  9
$UCSORG
 10
0.0
 20
0.0
 30
0.0
  9
$UCSXDIR
 10
1.0
 20
0.0
 30
0.0
  9
$UCSYDIR
 10
0.0
 20
1.0
 30
0.0
  9
$UCSORTHOREF
  2

  9
$UCSORTHOVIEW
 70
     0
  9
$UCSORGTOP
 10
0.0
 20
0.0
 30
0.0
  9
$UCSORGBOTTOM
 10
0.0
 20
0.0
 30
0.0
  9
$UCSORGLEFT
 10
0.0
 20
0.0
 30
0.0
  9
$UCSORGRIGHT
 10
0.0
 20
0.0
 30
0.0
  9
$UCSORGFRONT
 10
0.0
 20
0.0
 30
0.0
  9
$UCSORGBACK
 10
0.0
 20
0.0
 30
0.0
  9
$PUCSBASE
  2

  9
$PUCSNAME
  2

  9
$PUCSORG
 10
0.0
 20
0.0
 30
0.0
  9
$PUCSXDIR
 10
1.0
 20
0.0
 30
0.0
  9
$PUCSYDIR
 10
0.0
 20
1.0
 30
0.0
  9
$PUCSORTHOREF
  2

  9
$PUCSORTHOVIEW
 70
     0
  9
$PUCSORGTOP
 10
0.0
 20
0.0
 30
0.0
  9
$PUCSORGBOTTOM
 10
0.0
 20
0.0
 30
0.0
  9
$PUCSORGLEFT
 10
0.0
 20
0.0
 30
0.0
  9
$PUCSORGRIGHT
 10
0.0
 20
0.0
 30
0.0
  9
$PUCSORGFRONT
 10
0.0
 20
0.0
 30
0.0
  9
$PUCSORGBACK
 10
0.0
 20
0.0
 30
0.0
  9
$USERI1
 70
     0
  9
$USERI2
 70
     0
  9
$USERI3
 70
     0
  9
$USERI4
 70
     0
  9
$USERI5
 70
     0
  9
$USERR1
 40
0.0
  9
$USERR2
 40
0.0
  9
$USERR3
 40
0.0
  9
$USERR4
 40
0.0
  9
$USERR5
 40
0.0
  9
$WORLDVIEW
 70
     1
  9
$SHADEDGE
 70
     3
  9
$SHADEDIF
 70
    70
  9
$TILEMODE
 70
     1
  9
$MAXACTVP
 70
    64
  9
$PINSBASE
 10
0.0
 20
0.0
 30
0.0
  9
$PLIMCHECK
 70
     0
  9
$PEXTMIN
 10
1.000000000000000E+20
 20
1.000000000000000E+20
 30
1.000000000000000E+20
  9
$PEXTMAX
 10
-1.000000000000000E+20
 20
-1.000000000000000E+20
 30
-1.000000000000000E+20
  9
$PLIMMIN
 10
0.0
 20
0.0
  9
$PLIMMAX
 10
0.0
 20
0.0
  9
$UNITMODE
 70
     0
  9
$VISRETAIN
 70
     1
  9
$PLINEGEN
 70
     0
  9
$PSLTSCALE
 70
     1
  9
$TREEDEPTH
 70
  3020
  9
$CMLSTYLE
  2
Standard
  9
$CMLJUST
 70
     0
  9
$CMLSCALE
 40
20.0
  9
$PROXYGRAPHICS
 70
     1
  9
$MEASUREMENT
 70
     1
  9
$CELWEIGHT
370
    -1
  9
$ENDCAPS
280
     0
  9
$JOINSTYLE
280
     0
  9
$LWDISPLAY
290
     1
  9
$INSUNITS
 70
     4
  9
$HYPERLINKBASE
  1

  9
$STYLESHEET
  1

  9
$XEDIT
290
     1
  9
$CEPSNTYPE
380
     0
  9
$PSTYLEMODE
290
     1
  9
$FINGERPRINTGUID
  2
{788A336B-16BB-41B2-995E-369515E7B70B}
  9
$VERSIONGUID
  2
{FAEB1C32-E019-11D5-929B-00C0DF256EC4}
  9
$EXTNAMES
290
     1
  9
$PSVPSCALE
 40
0.0
  9
$OLESTARTUP
290
     0
  0
ENDSEC
  0
SECTION
  2
CLASSES
  0
CLASS
  1
ACDBDICTIONARYWDFLT
  2
AcDbDictionaryWithDefault
  3
ObjectDBX Classes
 90
        0
280
     0
281
     0
  0
CLASS
  1
VISUALSTYLE
  2
AcDbVisualStyle
  3
ObjectDBX Classes
 90
     4095
280
     0
281
     0
  0
CLASS
  1
MATERIAL
  2
AcDbMaterial
  3
ObjectDBX Classes
 90
     1153
280
     0
281
     0
  0
CLASS
  1
SCALE
  2
AcDbScale
  3
ObjectDBX Classes
 90
     1153
280
     0
281
     0
  0
CLASS
  1
SUN
  2
AcDbSun
  3
SCENEOE
 90
     1153
280
     0
281
     0
  0
CLASS
  1
ACDBPLACEHOLDER
  2
AcDbPlaceHolder
  3
ObjectDBX Classes
 90
        0
280
     0
281
     0
  0
CLASS
  1
LAYOUT
  2
AcDbLayout
  3
ObjectDBX Classes
 90
        0
280
     0
281
     0
  0
CLASS
  1
TABLESTYLE
  2
AcDbTableStyle
  3
ObjectDBX Classes
 90
     4095
280
     0
281
     0
  0
CLASS
  1
MLEADERSTYLE
  2
AcDbMLeaderStyle
  3
ACDB_MLEADERSTYLE_CLASS
 90
     4095
280
     0
281
     0
  0
CLASS
  1
RASTERVARIABLES
  2
AcDbRasterVariables
  3
ISM
 90
        0
280
     0
281
     0
  0
ENDSEC
  0
SECTION
  2
TABLES
  0
TABLE
  2
VPORT
  5
8
330
0
100
AcDbSymbolTable
 70
     1
  0
VPORT
  5
29
330
8
100
AcDbSymbolTableRecord
100
AcDbViewportTableRecord
  2
*Active
 70
     0
 10
0.0
 20
0.0
 11
1.0
 21
1.0
 12
15.84400457616113
 22
-3.812281014102815
 13
0.0
 23
0.0
 14
10.0
 24
10.0
 15
10.0
 25
10.0
 16
0.0
 26
0.0
 36
1.0
 17
0.0
 27
0.0
 37
0.0
 40
126.5598223586892
 41
1.632093933463796
 42
50.0
 43
0.0
 44
0.0
 50
0.0
 51
0.0
 71
    16
 72
  2000
 73
     1
 74
     3
 75
     0
 76
     0
 77
     0
 78
     0
281
     0
 65
     1
110
0.0
120
0.0
130
0.0
111
1.0
121
0.0
131
0.0
112
0.0
122
1.0
132
0.0
 79
     0
146
0.0
  0
ENDTAB
  0
TABLE
  2
LTYPE
  5
5
330
0
100
AcDbSymbolTable
 70
     6
  0
LTYPE
  5
14
330
5
100
AcDbSymbolTableRecord
100
AcDbLinetypeTableRecord
  2
ByBlock
 70
     0
  3

 72
    65
 73
     0
 40
0.0
  0
LTYPE
  5
15
330
5
100
AcDbSymbolTableRecord
100
AcDbLinetypeTableRecord
  2
ByLayer
 70
     0
  3

 72
    65
 73
     0
 40
0.0
  0
LTYPE
  5
16
330
5
100
AcDbSymbolTableRecord
100
AcDbLinetypeTableRecord
  2
Continuous
 70
     0
  3
Solid line
 72
    65
 73
     0
 40
0.0
  0
LTYPE
  5
6A
330
5
100
AcDbSymbolTableRecord
100
AcDbLinetypeTableRecord
  2
HIDDEN
 70
     0
  3
Hidden __ __ __ __ __ __ __ __ __ __ __ __ __ __
 72
    65
 73
     2
 40
1.905
 49
1.27
 74
     0
 49
-0.635
 74
     0
  0
LTYPE
  5
6B
330
5
100
AcDbSymbolTableRecord
100
AcDbLinetypeTableRecord
  2
PHANTOM
 70
     0
  3
Phantom ______  __  __  ______  __  __  ______
 72
    65
 73
     6
 40
12.7
 49
6.35
 74
     0
 49
-1.27
 74
     0
 49
1.27
 74
     0
 49
-1.27
 74
     0
 49
1.27
 74
     0
 49
-1.27
 74
     0
  0
LTYPE
  5
6C
330
5
100
AcDbSymbolTableRecord
100
AcDbLinetypeTableRecord
  2
CENTER
 70
     0
  3
Center ____ _ ____ _ ____ _ ____ _ ____ _ ____
 72
    65
 73
     4
 40
10.16
 49
6.35
 74
     0
 49
-1.27
 74
     0
 49
1.27
 74
     0
 49
-1.27
 74
     0
  0
LTYPE
  5
6D
330
5
100
AcDbSymbolTableRecord
100
AcDbLinetypeTableRecord
  2
CENTERX2
 70
     0
  3
Center (2x) ________  __  ________  __  _____
 72
    65
 73
     4
 40
20.32
 49
12.7
 74
     0
 49
-2.54
 74
     0
 49
2.54
 74
     0
 49
-2.54
 74
     0
  0
LTYPE
  5
6E
330
5
100
AcDbSymbolTableRecord
100
AcDbLinetypeTableRecord
  2
DOT2
 70
     0
  3
Dot (.5x) ........................................
 72
    65
 73
     2
 40
0.635
 49
0.0
 74
     0
 49
-0.635
 74
     0
  0
ENDTAB
  0
TABLE
  2
LAYER
  5
2
102
{ACAD_XDICTIONARY
360
243
102
}
330
0
100
AcDbSymbolTable
 70
    18
  0
LAYER
  5
10
330
2
100
AcDbSymbolTableRecord
100
AcDbLayerTableRecord
  2
0
 70
     0
 62
     7
  6
Continuous
370
    -3
390
F
  0
LAYER
  5
6F
330
2
100
AcDbSymbolTableRecord
100
AcDbLayerTableRecord
  2
FORMAT
 70
     0
 62
     2
  6
Continuous
370
    -3
390
F
  0
LAYER
  5
70
330
2
100
AcDbSymbolTableRecord
100
AcDbLayerTableRecord
  2
외형선
 70
     0
 62
     4
  6
Continuous
370
    30
390
F
  0
LAYER
  5
71
330
2
100
AcDbSymbolTableRecord
100
AcDbLayerTableRecord
  2
숨은선
 70
     0
 62
     2
  6
HIDDEN
370
    15
390
F
  0
LAYER
  5
72
330
2
100
AcDbSymbolTableRecord
100
AcDbLayerTableRecord
  2
중심선
 70
     0
 62
     1
  6
CENTERX2
370
    -3
390
F
  0
LAYER
  5
73
330
2
100
AcDbSymbolTableRecord
100
AcDbLayerTableRecord
  2
파단선
 70
     0
 62
     4
  6
Continuous
370
    -3
390
F
  0
LAYER
  5
74
330
2
100
AcDbSymbolTableRecord
100
AcDbLayerTableRecord
  2
해칭선
 70
     0
 62
   100
  6
Continuous
370
    -3
390
F
  0
LAYER
  5
75
330
2
100
AcDbSymbolTableRecord
100
AcDbLayerTableRecord
  2
가는실선
 70
     0
 62
     4
  6
Continuous
370
    -3
390
F
  0
LAYER
  5
76
330
2
100
AcDbSymbolTableRecord
100
AcDbLayerTableRecord
  2
치수_보조선
 70
     0
 62
     4
  6
Continuous
370
    -3
390
F
  0
LAYER
  5
77
330
2
100
AcDbSymbolTableRecord
100
AcDbLayerTableRecord
  2
치수문자_일반주서
 70
     0
 62
     7
  6
Continuous
370
    15
390
F
  0
LAYER
  5
78
330
2
100
AcDbSymbolTableRecord
100
AcDbLayerTableRecord
  2
개별주서
 70
     0
 62
   100
  6
Continuous
370
    30
390
F
  0
LAYER
  5
79
330
2
100
AcDbSymbolTableRecord
100
AcDbLayerTableRecord
  2
중간선
 70
     0
 62
     2
  6
Continuous
370
    15
390
F
  0
LAYER
  5
7A
330
2
100
AcDbSymbolTableRecord
100
AcDbLayerTableRecord
  2
윤곽선
 70
     0
 62
     3
  6
Continuous
370
    40
390
F
  0
LAYER
  5
7B
330
2
100
AcDbSymbolTableRecord
100
AcDbLayerTableRecord
  2
중심마크
 70
     0
 62
   100
  6
Continuous
370
    30
390
F
  0
LAYER
  5
7C
330
2
100
AcDbSymbolTableRecord
100
AcDbLayerTableRecord
  2
가상선
 70
     0
 62
     4
  6
PHANTOM
370
    -3
390
F
  0
LAYER
  5
7D
330
2
100
AcDbSymbolTableRecord
100
AcDbLayerTableRecord
  2
특수지정선
 70
     0
 62
     5
  6
CENTERX2
370
    60
390
F
  0
LAYER
  5
7E
330
2
100
AcDbSymbolTableRecord
100
AcDbLayerTableRecord
  2
참조1
 70
     0
 62
    -4
  6
Continuous
370
    -3
390
F
  0
LAYER
  5
167
330
2
100
AcDbSymbolTableRecord
100
AcDbLayerTableRecord
  2
Defpoints
 70
     0
 62
     7
  6
Continuous
290
     0
370
    -3
390
F
  0
ENDTAB
  0
TABLE
  2
STYLE
  5
3
330
0
100
AcDbSymbolTable
 70
     2
  0
STYLE
  5
11
330
3
100
AcDbSymbolTableRecord
100
AcDbTextStyleTableRecord
  2
Standard
 70
     0
 40
0.0
 41
1.0
 50
0.0
 71
     0
 42
3.5
  3
txt
  4

  0
STYLE
  5
94
330
3
100
AcDbSymbolTableRecord
100
AcDbTextStyleTableRecord
  2
SLDTEXTSTYLE0
 70
     0
 40
0.0
 41
0.75
 50
0.0
 71
     0
 42
3.5
  3
TXT
  4

  0
ENDTAB
  0
TABLE
  2
VIEW
  5
6
330
0
100
AcDbSymbolTable
 70
     0
  0
ENDTAB
  0
TABLE
  2
UCS
  5
7
330
0
100
AcDbSymbolTable
 70
     0
  0
ENDTAB
  0
TABLE
  2
APPID
  5
9
330
0
100
AcDbSymbolTable
 70
     1
  0
APPID
  5
12
330
9
100
AcDbSymbolTableRecord
100
AcDbRegAppTableRecord
  2
ACAD
 70
     0
  0
ENDTAB
  0
TABLE
  2
DIMSTYLE
  5
A
330
0
100
AcDbSymbolTable
 70
     3
100
AcDbDimStyleTable
  0
DIMSTYLE
105
27
330
A
100
AcDbSymbolTableRecord
100
AcDbDimStyleTableRecord
  2
ISO-25
 70
     0
 41
2.5
 42
0.625
 43
3.75
 44
1.25
 73
     0
 74
     0
 77
     1
 78
     8
140
2.5
141
2.5
143
0.03937007874016
147
0.625
171
     3
172
     1
178
     0
271
     2
272
     2
274
     3
278
    44
283
     0
284
     8
340
11
  0
DIMSTYLE
105
E3
102
{ACAD_REACTORS
330
E2
330
F7
330
10B
330
120
102
}
330
A
100
AcDbSymbolTableRecord
100
AcDbDimStyleTableRecord
  2
SLDDIMSTYLE0
 70
     0
 41
3.302
 44
0.0
 45
0.000000001
 73
     0
 74
     0
 77
     1
 78
    12
 79
     3
140
3.5
143
0.0393700787401575
147
0.875
148
0.000000001
170
     1
172
     1
173
     1
178
     0
271
     2
272
     2
276
     2
284
    12
289
     0
340
94
  0
DIMSTYLE
105
121
330
A
100
AcDbSymbolTableRecord
100
AcDbDimStyleTableRecord
  2
SLDDIMSTYLE1
 70
     0
 41
3.302
 44
0.0
 45
0.000000001
 73
     0
 74
     0
 77
     1
 78
     4
 79
     1
140
3.5
143
0.0393700787401575
147
0.875
148
0.000000001
170
     1
173
     1
178
     0
271
     2
272
     2
276
     2
284
    12
340
94
  0
ENDTAB
  0
TABLE
  2
BLOCK_RECORD
  5
1
330
0
100
AcDbSymbolTable
 70
    21
  0
BLOCK_RECORD
  5
1F
330
1
100
AcDbSymbolTableRecord
100
AcDbBlockTableRecord
  2
*Model_Space
340
22
  0
BLOCK_RECORD
  5
1B
330
1
100
AcDbSymbolTableRecord
100
AcDbBlockTableRecord
  2
*Paper_Space
340
1E
  0
BLOCK_RECORD
  5
23
330
1
100
AcDbSymbolTableRecord
100
AcDbBlockTableRecord
  2
*Paper_Space0
340
26
  0
BLOCK_RECORD
  5
7F
330
1
100
AcDbSymbolTableRecord
100
AcDbBlockTableRecord
  2
블럭10
340
0
102
{BLKREFS
331
DB
102
}
  0
BLOCK_RECORD
  5
E4
330
1
100
AcDbSymbolTableRecord
100
AcDbBlockTableRecord
  2
_D
340
0
  0
BLOCK_RECORD
  5
F8
330
1
100
AcDbSymbolTableRecord
100
AcDbBlockTableRecord
  2
_D_1
340
0
  0
BLOCK_RECORD
  5
10C
330
1
100
AcDbSymbolTableRecord
100
AcDbBlockTableRecord
  2
_D_2
340
0
  0
BLOCK_RECORD
  5
122
330
1
100
AcDbSymbolTableRecord
100
AcDbBlockTableRecord
  2
_D_3
340
0
  0
BLOCK_RECORD
  5
13B
330
1
100
AcDbSymbolTableRecord
100
AcDbBlockTableRecord
  2
SW_DOWELSYMBOL_0
340
0
102
{BLKREFS
331
141
102
}
  0
BLOCK_RECORD
  5
247
330
1
100
AcDbSymbolTableRecord
100
AcDbBlockTableRecord
  2
*D7
340
0
  0
BLOCK_RECORD
  5
253
330
1
100
AcDbSymbolTableRecord
100
AcDbBlockTableRecord
  2
*D8
340
0
  0
BLOCK_RECORD
  5
262
330
1
100
AcDbSymbolTableRecord
100
AcDbBlockTableRecord
  2
*D9
340
0
  0
BLOCK_RECORD
  5
271
330
1
100
AcDbSymbolTableRecord
100
AcDbBlockTableRecord
  2
*D10
340
0
  0
BLOCK_RECORD
  5
2F5
330
1
100
AcDbSymbolTableRecord
100
AcDbBlockTableRecord
  2
*D11
340
0
  0
BLOCK_RECORD
  5
301
330
1
100
AcDbSymbolTableRecord
100
AcDbBlockTableRecord
  2
*D12
340
0
  0
BLOCK_RECORD
  5
310
330
1
100
AcDbSymbolTableRecord
100
AcDbBlockTableRecord
  2
*D13
340
0
  0
BLOCK_RECORD
  5
31F
330
1
100
AcDbSymbolTableRecord
100
AcDbBlockTableRecord
  2
*D14
340
0
  0
BLOCK_RECORD
  5
3CA
330
1
100
AcDbSymbolTableRecord
100
AcDbBlockTableRecord
  2
*D15
340
0
  0
BLOCK_RECORD
  5
3D9
330
1
100
AcDbSymbolTableRecord
100
AcDbBlockTableRecord
  2
*D16
340
0
  0
BLOCK_RECORD
  5
3E8
330
1
100
AcDbSymbolTableRecord
100
AcDbBlockTableRecord
  2
*D17
340
0
  0
BLOCK_RECORD
  5
438
330
1
100
AcDbSymbolTableRecord
100
AcDbBlockTableRecord
  2
*D18
340
0
  0
BLOCK_RECORD
  5
447
330
1
100
AcDbSymbolTableRecord
100
AcDbBlockTableRecord
  2
*D19
340
0
  0
BLOCK_RECORD
  5
456
330
1
100
AcDbSymbolTableRecord
100
AcDbBlockTableRecord
  2
*D20
340
0
  0
ENDTAB
  0
ENDSEC
  0
SECTION
  2
BLOCKS
  0
BLOCK
  5
20
330
1F
100
AcDbEntity
  8
0
100
AcDbBlockBegin
  2
*Model_Space
 70
     0
 10
0.0
 20
0.0
 30
0.0
  3
*Model_Space
  1
*Model_Space
  0
ENDBLK
  5
21
330
1F
100
AcDbEntity
  8
0
100
AcDbBlockEnd
  0
BLOCK
  5
1C
330
1B
100
AcDbEntity
 67
     1
  8
0
100
AcDbBlockBegin
  2
*Paper_Space
 70
     0
 10
0.0
 20
0.0
 30
0.0
  3
*Paper_Space
  1
*Paper_Space
  0
ENDBLK
  5
1D
330
1B
100
AcDbEntity
 67
     1
  8
0
100
AcDbBlockEnd
  0
BLOCK
  5
24
330
23
100
AcDbEntity
  8
0
100
AcDbBlockBegin
  2
*Paper_Space0
 70
     0
 10
0.0
 20
0.0
 30
0.0
  3
*Paper_Space0
  1
*Paper_Space0
  0
ENDBLK
  5
25
330
23
100
AcDbEntity
  8
0
100
AcDbBlockEnd
  0
BLOCK
  5
80
330
7F
100
AcDbEntity
  8
0
100
AcDbBlockBegin
  2
블럭10
 70
     2
 10
0.0
 20
0.0
 30
0.0
  3
블럭10
  1
블럭10
  0
ELLIPSE
  5
82
330
7F
100
AcDbEntity
  8
중심선
100
AcDbEllipse
 10
20.54032771741204
 20
12.0471743016438
 30
0.0
 11
6.600054785286829
 21
-1.261213355974178E-13
 31
0.0
210
0.0
220
0.0
230
1.0
 40
0.636358354079598
 41
0.9219305317359503
 42
6.513795318482858
  0
ELLIPSE
  5
83
330
7F
100
AcDbEntity
  8
중심선
100
AcDbEllipse
 10
20.54032771746488
 20
12.04717430159265
 30
0.0
 11
3.960054785062283
 21
1.540847449632565E-10
 31
0.0
210
0.0
220
0.0
230
1.0
 40
0.3939339440162632
 41
1.131841032648279
 42
5.62031148352944
  0
LINE
  5
84
330
7F
100
AcDbEntity
  8
중심선
100
AcDbLine
 10
2.268634060543552
 20
16.24717430164393
 30
0.0
 11
5.714909304380834
 21
16.24717430164393
 31
0.0
  0
LINE
  5
85
330
7F
100
AcDbEntity
  8
중심선
100
AcDbLine
 10
5.245725140726316
 20
7.84717430164391
 30
0.0
 11
8.692000384563599
 21
7.84717430164391
 31
0.0
  0
LINE
  5
86
330
7F
100
AcDbEntity
  8
중심선
100
AcDbLine
 10
15.74043728645272
 20
16.24717430164393
 30
0.0
 11
8.692000384563599
 21
7.84717430164391
 31
0.0
  0
LINE
  5
87
330
7F
100
AcDbEntity
  8
중심선
100
AcDbLine
 10
0.1404042013395286
 20
13.71084872107135
 30
0.0
 11
3.58671253028996
 21
13.71088815037384
 31
0.0
  0
LINE
  5
88
330
7F
100
AcDbEntity
  8
중심선
100
AcDbLine
 10
2.750260043222114
 20
10.84717430164391
 30
0.0
 11
6.196535287059397
 21
10.84717430164391
 31
0.0
  0
LINE
  5
89
330
7F
100
AcDbEntity
  8
중심선
100
AcDbLine
 10
12.29416204261559
 20
16.24717430164393
 30
0.0
 11
5.245725140726316
 21
7.84717430164391
 31
0.0
  0
LINE
  5
8A
330
7F
100
AcDbEntity
  8
중심선
100
AcDbLine
 10
10.72767329541681
 20
16.24717430164393
 30
0.0
 11
6.196535287059397
 21
10.84717430164391
 31
0.0
  0
LINE
  5
8B
330
7F
100
AcDbEntity
  8
중심선
100
AcDbLine
 10
7.28139805157953
 20
16.24717430164393
 30
0.0
 11
2.750260043222114
 21
10.84717430164391
 31
0.0
  0
LINE
  5
8C
330
7F
100
AcDbEntity
  8
중심선
100
AcDbLine
 10
5.714909304380834
 20
16.24717430164393
 30
0.0
 11
3.58671253028996
 21
13.71088815037384
 31
0.0
  0
LINE
  5
8D
330
7F
100
AcDbEntity
  8
중심선
100
AcDbLine
 10
2.268634060543552
 20
16.24717430164393
 30
0.0
 11
0.1404042013395286
 21
13.71084872107135
 31
0.0
  0
LINE
  5
8E
330
7F
100
AcDbEntity
  8
중심선
100
AcDbLine
 10
7.28139805157953
 20
16.24717430164393
 30
0.0
 11
10.72767329541681
 21
16.24717430164393
 31
0.0
  0
LINE
  5
8F
330
7F
100
AcDbEntity
  8
중심선
100
AcDbLine
 10
12.29416204261559
 20
16.24717430164393
 30
0.0
 11
15.74043728645272
 21
16.24717430164393
 31
0.0
  0
LINE
  5
90
330
7F
100
AcDbEntity
  8
중심선
100
AcDbLine
 10
19.22036997980202
 20
11.08717430171403
 30
0.0
 11
23.66174974927406
 21
11.08717430171406
 31
0.0
  0
LINE
  5
91
330
7F
100
AcDbEntity
  8
중심선
100
AcDbLine
 10
19.22039502424796
 20
13.00717430171391
 30
0.0
 11
19.22036997980202
 21
11.08717430171403
 31
0.0
  0
LINE
  5
92
330
7F
100
AcDbEntity
  8
중심선
100
AcDbLine
 10
19.22039502424796
 20
13.00717430171391
 30
0.0
 11
26.96566020931264
 21
13.00717430171391
 31
0.0
  0
LINE
  5
93
330
7F
100
AcDbEntity
  8
중심선
100
AcDbLine
 10
22.22332737316547
 20
13.45928029700563
 30
0.0
 11
24.52862924686651
 21
15.39360700705356
 31
0.0
  0
ATTDEF
  5
95
330
7F
100
AcDbEntity
  8
FORMAT
 62
     2
100
AcDbText
 10
4.408487351596664
 20
2.075366912832191
 30
0.0
 40
4.233333333333333
  1
E2005005
 41
0.75
  7
SLDTEXTSTYLE0
 11
4.408487351596664
 21
-0.0412997538344756
 31
0.0
100
AcDbAttributeDefinition
  3

  2
AUTOATTR0
 70
     0
 74
     1
  0
ENDBLK
  5
81
330
7F
100
AcDbEntity
  8
0
100
AcDbBlockEnd
  0
BLOCK
  5
E5
330
E4
100
AcDbEntity
  8
0
100
AcDbBlockBegin
  2
_D
 70
     0
 10
0.0
 20
0.0
 30
0.0
  3
_D
  1
_D
  0
LINE
  5
E7
330
E4
100
AcDbEntity
  8
치수문자_일반주서
 62
     0
370
    -2
100
AcDbLine
 10
-19.27844817511138
 20
2.381250000000003
 30
0.0
 11
-44.75000000000001
 21
2.381249999999908
 31
0.0
  0
LINE
  5
E8
330
E4
100
AcDbEntity
  8
치수문자_일반주서
 62
     0
370
    -2
100
AcDbLine
 10
-19.27844817511138
 20
-2.381250000000001
 30
0.0
 11
-44.74999999999999
 21
-2.381250000000096
 31
0.0
  0
LINE
  5
E9
330
E4
100
AcDbEntity
  8
치수문자_일반주서
 62
     0
370
    -2
100
AcDbLine
 10
-44.75
 20
-0.9207500000000919
 30
0.0
 11
-44.75
 21
0.9207499999999036
 31
0.0
  0
SOLID
  5
EA
330
E4
100
AcDbEntity
  8
치수문자_일반주서
 62
     0
100
AcDbTrace
 10
-44.19966666666667
 20
-0.9207500000000902
 30
0.0
 11
-45.30033333333333
 21
-0.9207500000000935
 31
0.0
 12
-44.75000000000001
 22
2.381249999999908
 32
0.0
 13
-44.75000000000001
 23
2.381249999999908
 33
0.0
  0
SOLID
  5
EB
330
E4
100
AcDbEntity
  8
치수문자_일반주서
 62
     0
100
AcDbTrace
 10
-45.30033333333333
 20
0.9207499999999019
 30
0.0
 11
-44.19966666666667
 21
0.9207499999999053
 31
0.0
 12
-44.74999999999999
 22
-2.381250000000096
 32
0.0
 13
-44.74999999999999
 23
-2.381250000000096
 33
0.0
  0
MTEXT
  5
EC
330
E4
100
AcDbEntity
  8
치수문자_일반주서
 62
     0
100
AcDbMText
 10
-49.125
 20
-0.0000000000000087
 30
0.0
 40
3.5
 41
0.0
 71
     2
 72
     1
  1
\A1;%%c4.76 [3/16]
  7
SLDTEXTSTYLE0
 11
-2.983906501879683E-15
 21
1.0
 31
0.0
 73
     1
 44
1.0
  0
POINT
  5
ED
330
E4
100
AcDbEntity
  8
Defpoints
 62
     0
100
AcDbPoint
 10
-19.21594817511138
 20
2.381250000000003
 30
0.0
  0
POINT
  5
EE
330
E4
100
AcDbEntity
  8
Defpoints
 62
     0
100
AcDbPoint
 10
-19.21594817511138
 20
-2.381250000000001
 30
0.0
  0
POINT
  5
EF
330
E4
100
AcDbEntity
  8
Defpoints
 62
     0
100
AcDbPoint
 10
-44.74999999999999
 20
-2.381250000000096
 30
0.0
  0
ENDBLK
  5
E6
330
E4
100
AcDbEntity
  8
0
100
AcDbBlockEnd
  0
BLOCK
  5
F9
330
F8
100
AcDbEntity
  8
0
100
AcDbBlockBegin
  2
_D_1
 70
     0
 10
0.0
 20
0.0
 30
0.0
  3
_D_1
  1
_D_1
  0
LINE
  5
FB
330
F8
100
AcDbEntity
  8
치수문자_일반주서
 62
     0
370
    -2
100
AcDbLine
 10
31.81250000000002
 20
-0.9921874999999958
 30
0.0
 11
50.75000000000012
 21
-0.9921874999999254
 31
0.0
  0
LINE
  5
FC
330
F8
100
AcDbEntity
  8
치수문자_일반주서
 62
     0
370
    -2
100
AcDbLine
 10
31.81250000000002
 20
0.992187500000004
 30
0.0
 11
50.75000000000011
 21
0.9921875000000746
 31
0.0
  0
LINE
  5
FD
330
F8
100
AcDbEntity
  8
치수문자_일반주서
 62
     0
370
    -2
100
AcDbLine
 10
50.75000000000011
 20
0.9921875000000746
 30
0.0
 11
50.74999999999998
 21
39.23492490373376
 31
0.0
  0
LINE
  5
FE
330
F8
100
AcDbEntity
  8
치수문자_일반주서
 62
     0
370
    -2
100
AcDbLine
 10
50.75000000000012
 20
-0.9921874999999254
 30
0.0
 11
50.75000000000011
 21
0.9921875000000746
 31
0.0
  0
LINE
  5
FF
330
F8
100
AcDbEntity
  8
치수문자_일반주서
 62
     0
370
    -2
100
AcDbLine
 10
50.75000000000014
 20
-4.294187499999925
 30
0.0
 11
50.75000000000015
 21
-7.596187499999925
 31
0.0
  0
LINE
  5
100
330
F8
100
AcDbEntity
  8
치수문자_일반주서
 62
     0
370
    -2
100
AcDbLine
 10
50.7500000000001
 20
4.294187500000074
 30
0.0
 11
50.75000000000009
 21
7.596187500000074
 31
0.0
  0
SOLID
  5
101
330
F8
100
AcDbEntity
  8
치수문자_일반주서
 62
     0
100
AcDbTrace
 10
51.30033333333347
 20
-4.294187499999923
 30
0.0
 11
50.1996666666668
 21
-4.294187499999927
 31
0.0
 12
50.75000000000012
 22
-0.9921874999999254
 32
0.0
 13
50.75000000000012
 23
-0.9921874999999254
 33
0.0
  0
SOLID
  5
102
330
F8
100
AcDbEntity
  8
치수문자_일반주서
 62
     0
100
AcDbTrace
 10
50.19966666666677
 20
4.294187500000072
 30
0.0
 11
51.30033333333343
 21
4.294187500000076
 31
0.0
 12
50.75000000000011
 22
0.9921875000000746
 32
0.0
 13
50.75000000000011
 23
0.9921875000000746
 33
0.0
  0
MTEXT
  5
103
330
F8
100
AcDbEntity
  8
치수문자_일반주서
 62
     0
100
AcDbMText
 10
46.37500000000003
 20
25.23492490373374
 30
0.0
 40
3.5
 41
0.0
 71
     2
 72
     1
  1
\A1;%%c1.98 [5/64]
  7
SLDTEXTSTYLE0
 11
-3.580687802255624E-15
 21
1.0
 31
0.0
 73
     1
 44
1.0
  0
POINT
  5
104
330
F8
100
AcDbEntity
  8
Defpoints
 62
     0
100
AcDbPoint
 10
31.75000000000002
 20
-0.992187499999996
 30
0.0
  0
POINT
  5
105
330
F8
100
AcDbEntity
  8
Defpoints
 62
     0
100
AcDbPoint
 10
31.75000000000002
 20
0.9921875000000038
 30
0.0
  0
POINT
  5
106
330
F8
100
AcDbEntity
  8
Defpoints
 62
     0
100
AcDbPoint
 10
50.75000000000011
 20
0.9921875000000747
 30
0.0
  0
ENDBLK
  5
FA
330
F8
100
AcDbEntity
  8
0
100
AcDbBlockEnd
  0
BLOCK
  5
10D
330
10C
100
AcDbEntity
  8
0
100
AcDbBlockBegin
  2
_D_2
 70
     0
 10
0.0
 20
0.0
 30
0.0
  3
_D_2
  1
_D_2
  0
LINE
  5
10F
330
10C
100
AcDbEntity
  8
치수문자_일반주서
 62
     0
370
    -2
100
AcDbLine
 10
31.75000000000002
 20
1.054687500000004
 30
0.0
 11
31.75000000000002
 21
15.57168006099459
 31
0.0
  0
LINE
  5
110
330
10C
100
AcDbEntity
  8
치수문자_일반주서
 62
     0
370
    -2
100
AcDbLine
 10
25.40000000000002
 20
0.7154313334232583
 30
0.0
 11
25.40000000000002
 21
15.57168006099459
 31
0.0
  0
LINE
  5
111
330
10C
100
AcDbEntity
  8
치수문자_일반주서
 62
     0
370
    -2
100
AcDbLine
 10
25.40000000000002
 20
15.57168006099459
 30
0.0
 11
-9.094650646060131
 21
15.57168006099459
 31
0.0
  0
LINE
  5
112
330
10C
100
AcDbEntity
  8
치수문자_일반주서
 62
     0
370
    -2
100
AcDbLine
 10
31.75000000000002
 20
15.57168006099459
 30
0.0
 11
25.40000000000002
 21
15.57168006099459
 31
0.0
  0
LINE
  5
113
330
10C
100
AcDbEntity
  8
치수문자_일반주서
 62
     0
370
    -2
100
AcDbLine
 10
35.05200000000002
 20
15.57168006099459
 30
0.0
 11
38.35400000000002
 21
15.57168006099459
 31
0.0
  0
LINE
  5
114
330
10C
100
AcDbEntity
  8
치수문자_일반주서
 62
     0
370
    -2
100
AcDbLine
 10
22.09800000000002
 20
15.57168006099459
 30
0.0
 11
18.79600000000002
 21
15.57168006099459
 31
0.0
  0
SOLID
  5
115
330
10C
100
AcDbEntity
  8
치수문자_일반주서
 62
     0
100
AcDbTrace
 10
35.05200000000002
 20
16.12201339432792
 30
0.0
 11
35.05200000000002
 21
15.02134672766126
 31
0.0
 12
31.75000000000002
 22
15.57168006099459
 32
0.0
 13
31.75000000000002
 23
15.57168006099459
 33
0.0
  0
SOLID
  5
116
330
10C
100
AcDbEntity
  8
치수문자_일반주서
 62
     0
100
AcDbTrace
 10
22.09800000000002
 20
15.02134672766126
 30
0.0
 11
22.09800000000002
 21
16.12201339432792
 31
0.0
 12
25.40000000000002
 22
15.57168006099459
 32
0.0
 13
25.40000000000002
 23
15.57168006099459
 33
0.0
  0
MTEXT
  5
117
330
10C
100
AcDbEntity
  8
치수문자_일반주서
 62
     0
100
AcDbMText
 10
2.280349353939869
 20
19.94668006099459
 30
0.0
 40
3.5
 41
0.0
 71
     2
 72
     1
  1
\A1;6.35 [1/4]
  7
SLDTEXTSTYLE0
 73
     1
 44
1.0
  0
POINT
  5
118
330
10C
100
AcDbEntity
  8
Defpoints
 62
     0
100
AcDbPoint
 10
31.75000000000002
 20
0.9921875000000038
 30
0.0
  0
POINT
  5
119
330
10C
100
AcDbEntity
  8
Defpoints
 62
     0
100
AcDbPoint
 10
25.40000000000002
 20
0.6529313334232583
 30
0.0
  0
POINT
  5
11A
330
10C
100
AcDbEntity
  8
Defpoints
 62
     0
100
AcDbPoint
 10
25.40000000000002
 20
15.57168006099459
 30
0.0
  0
ENDBLK
  5
10E
330
10C
100
AcDbEntity
  8
0
100
AcDbBlockEnd
  0
BLOCK
  5
123
330
122
100
AcDbEntity
  8
0
100
AcDbBlockBegin
  2
_D_3
 70
     0
 10
0.0
 20
0.0
 30
0.0
  3
_D_3
  1
_D_3
  0
LINE
  5
125
330
122
100
AcDbEntity
  8
치수문자_일반주서
 62
     0
370
    -2
100
AcDbLine
 10
-31.75
 20
1.054687499999996
 30
0.0
 11
-31.75
 21
26.71686989688701
 31
0.0
  0
LINE
  5
126
330
122
100
AcDbEntity
  8
치수문자_일반주서
 62
     0
370
    -2
100
AcDbLine
 10
31.75000000000002
 20
1.054687500000004
 30
0.0
 11
31.75000000000002
 21
26.71686989688701
 31
0.0
  0
LINE
  5
127
330
122
100
AcDbEntity
  8
치수문자_일반주서
 62
     0
370
    -2
100
AcDbLine
 10
-28.448
 20
26.71686989688701
 30
0.0
 11
28.44800000000002
 21
26.71686989688701
 31
0.0
  0
SOLID
  5
128
330
122
100
AcDbEntity
  8
치수문자_일반주서
 62
     0
100
AcDbTrace
 10
-28.448
 20
27.26720323022035
 30
0.0
 11
-28.448
 21
26.16653656355368
 31
0.0
 12
-31.75
 22
26.71686989688701
 32
0.0
 13
-31.75
 23
26.71686989688701
 33
0.0
  0
SOLID
  5
129
330
122
100
AcDbEntity
  8
치수문자_일반주서
 62
     0
100
AcDbTrace
 10
28.44800000000002
 20
26.16653656355368
 30
0.0
 11
28.44800000000002
 21
27.26720323022035
 31
0.0
 12
31.75000000000002
 22
26.71686989688701
 32
0.0
 13
31.75000000000002
 23
26.71686989688701
 33
0.0
  0
MTEXT
  5
12A
330
122
100
AcDbEntity
  8
치수문자_일반주서
 62
     0
100
AcDbMText
 10
0.7943240424875526
 20
31.09186989688701
 30
0.0
 40
3.5
 41
0.0
 71
     2
 72
     1
  1
\A1;63.5 [2 1/2]
  7
SLDTEXTSTYLE0
 73
     1
 44
1.0
  0
POINT
  5
12B
330
122
100
AcDbEntity
  8
Defpoints
 62
     0
100
AcDbPoint
 10
-31.75
 20
0.992187499999996
 30
0.0
  0
POINT
  5
12C
330
122
100
AcDbEntity
  8
Defpoints
 62
     0
100
AcDbPoint
 10
31.75000000000002
 20
0.9921875000000038
 30
0.0
  0
POINT
  5
12D
330
122
100
AcDbEntity
  8
Defpoints
 62
     0
100
AcDbPoint
 10
31.75000000000002
 20
26.71686989688701
 30
0.0
  0
ENDBLK
  5
124
330
122
100
AcDbEntity
  8
0
100
AcDbBlockEnd
  0
BLOCK
  5
13C
330
13B
100
AcDbEntity
  8
0
100
AcDbBlockBegin
  2
SW_DOWELSYMBOL_0
 70
     0
 10
0.0
 20
0.0
 30
0.0
  3
SW_DOWELSYMBOL_0
  1
SW_DOWELSYMBOL_0
  0
CIRCLE
  5
13E
330
13B
100
AcDbEntity
  8
해칭선
 62
     0
100
AcDbCircle
 10
0.0
 20
0.0
 30
0.0
 40
3.000000000000001
  0
HATCH
  5
13F
330
13B
100
AcDbEntity
  8
0
  6
Continuous
 62
     0
370
     0
100
AcDbHatch
 10
0.0
 20
0.0
 30
0.0
210
0.0
220
0.0
230
1.0
  2
SOLID
 70
     1
 71
     0
 91
        1
 92
        0
 93
        3
 72
     2
 10
0.0
 20
0.0
 40
3.000000000000001
 50
0.0
 51
90.0
 73
     1
 72
     1
 10
0.0
 20
3.000000000000001
 11
0.0
 21
0.0
 72
     1
 10
0.0
 20
0.0
 11
3.000000000000001
 21
0.0
 97
        0
 75
     0
 76
     1
 98
        1
 10
0.0
 20
0.0
  0
HATCH
  5
140
330
13B
100
AcDbEntity
  8
0
  6
Continuous
 62
     0
370
     0
100
AcDbHatch
 10
0.0
 20
0.0
 30
0.0
210
0.0
220
0.0
230
1.0
  2
SOLID
 70
     1
 71
     0
 91
        1
 92
        0
 93
        3
 72
     2
 10
0.0
 20
0.0
 40
3.000000000000001
 50
180.0
 51
270.0000000000007
 73
     1
 72
     1
 10
0.0
 20
-3.000000000000001
 11
0.0
 21
0.0
 72
     1
 10
0.0
 20
0.0
 11
-3.000000000000001
 21
0.0
 97
        0
 75
     0
 76
     1
 98
        1
 10
0.0
 20
0.0
  0
ENDBLK
  5
13D
330
13B
100
AcDbEntity
  8
0
100
AcDbBlockEnd
  0
BLOCK
  5
248
330
247
100
AcDbEntity
  8
0
100
AcDbBlockBegin
  2
*D7
 70
     1
 10
0.0
 20
0.0
 30
0.0
  3
*D7
  1
*D8
  0
LINE
  5
24A
330
247
100
AcDbEntity
  8
치수문자_일반주서
 62
     0
370
    -2
100
AcDbLine
 10
29.89972299276172
 20
15.50625
 30
0.0
 11
4.375000000000035
 21
15.50624999999991
 31
0.0
  0
LINE
  5
24B
330
247
100
AcDbEntity
  8
치수문자_일반주서
 62
     0
370
    -2
100
AcDbLine
 10
29.89972299276175
 20
10.74375000000001
 30
0.0
 11
4.375000000000052
 21
10.74374999999991
 31
0.0
  0
LINE
  5
24C
330
247
100
AcDbEntity
  8
치수문자_일반주서
 62
     0
370
    -2
100
AcDbLine
 10
4.375000000000046
 20
12.20424999999991
 30
0.0
 11
4.37500000000004
 21
14.04574999999991
 31
0.0
  0
SOLID
  5
24D
330
247
100
AcDbEntity
  8
치수문자_일반주서
 62
     0
100
AcDbTrace
 10
4.92533333333338
 20
12.20424999999991
 30
0.0
 11
3.824666666666713
 21
12.20424999999991
 31
0.0
 12
4.375000000000035
 22
15.50624999999991
 32
0.0
 13
4.375000000000035
 23
15.50624999999991
 33
0.0
  0
SOLID
  5
24E
330
247
100
AcDbEntity
  8
치수문자_일반주서
 62
     0
100
AcDbTrace
 10
3.824666666666707
 20
14.04574999999991
 30
0.0
 11
4.925333333333374
 21
14.04574999999991
 31
0.0
 12
4.375000000000052
 22
10.74374999999991
 32
0.0
 13
4.375000000000052
 23
10.74374999999991
 33
0.0
  0
MTEXT
  5
24F
330
247
100
AcDbEntity
  8
치수문자_일반주서
 62
     0
100
AcDbMText
 10
0.0000000000000426
 20
13.125
 30
0.0
 40
3.5
 41
0.0
 71
     2
 72
     1
  1
\A1;%%c4.76 [3/16]
  7
SLDTEXTSTYLE0
 11
-3.543388970982130E-15
 21
1.0
 31
0.0
 73
     1
 44
1.0
  0
POINT
  5
250
330
247
100
AcDbEntity
  8
Defpoints
 62
     0
100
AcDbPoint
 10
29.96222299276172
 20
15.50625
 30
0.0
  0
POINT
  5
251
330
247
100
AcDbEntity
  8
Defpoints
 62
     0
100
AcDbPoint
 10
29.96222299276175
 20
10.74375000000001
 30
0.0
  0
POINT
  5
252
330
247
100
AcDbEntity
  8
Defpoints
 62
     0
100
AcDbPoint
 10
4.37500000000005
 20
10.74374999999991
 30
0.0
  0
ENDBLK
  5
249
330
247
100
AcDbEntity
  8
0
100
AcDbBlockEnd
  0
BLOCK
  5
254
330
253
100
AcDbEntity
  8
0
100
AcDbBlockBegin
  2
*D8
 70
     1
 10
0.0
 20
0.0
 30
0.0
  3
*D8
  1
*D9
  0
LINE
  5
256
330
253
100
AcDbEntity
  8
치수문자_일반주서
 62
     0
370
    -2
100
AcDbLine
 10
84.11250000000007
 20
11.93538129811722
 30
0.0
 11
103.0500000000003
 21
11.93538129811729
 31
0.0
  0
LINE
  5
257
330
253
100
AcDbEntity
  8
치수문자_일반주서
 62
     0
370
    -2
100
AcDbLine
 10
84.11250000000007
 20
14.31461870188281
 30
0.0
 11
103.0500000000002
 21
14.31461870188288
 31
0.0
  0
LINE
  5
258
330
253
100
AcDbEntity
  8
치수문자_일반주서
 62
     0
370
    -2
100
AcDbLine
 10
103.0500000000002
 20
14.31461870188288
 30
0.0
 11
103.05
 21
57.84440988448054
 31
0.0
  0
LINE
  5
259
330
253
100
AcDbEntity
  8
치수문자_일반주서
 62
     0
370
    -2
100
AcDbLine
 10
103.0500000000003
 20
11.93538129811729
 30
0.0
 11
103.0500000000002
 21
14.31461870188288
 31
0.0
  0
LINE
  5
25A
330
253
100
AcDbEntity
  8
치수문자_일반주서
 62
     0
370
    -2
100
AcDbLine
 10
103.0500000000003
 20
8.633381298117285
 30
0.0
 11
103.0500000000003
 21
5.331381298117286
 31
0.0
  0
LINE
  5
25B
330
253
100
AcDbEntity
  8
치수문자_일반주서
 62
     0
370
    -2
100
AcDbLine
 10
103.0500000000002
 20
17.61661870188288
 30
0.0
 11
103.0500000000002
 21
20.91861870188288
 31
0.0
  0
SOLID
  5
25C
330
253
100
AcDbEntity
  8
치수문자_일반주서
 62
     0
100
AcDbTrace
 10
103.6003333333336
 20
8.633381298117289
 30
0.0
 11
102.4996666666669
 21
8.633381298117282
 31
0.0
 12
103.0500000000003
 22
11.93538129811729
 32
0.0
 13
103.0500000000003
 23
11.93538129811729
 33
0.0
  0
SOLID
  5
25D
330
253
100
AcDbEntity
  8
치수문자_일반주서
 62
     0
100
AcDbTrace
 10
102.4996666666669
 20
17.61661870188287
 30
0.0
 11
103.6003333333336
 21
17.61661870188288
 31
0.0
 12
103.0500000000002
 22
14.31461870188288
 32
0.0
 13
103.0500000000002
 23
14.31461870188288
 33
0.0
  0
MTEXT
  5
25E
330
253
100
AcDbEntity
  8
치수문자_일반주서
 62
     0
100
AcDbMText
 10
98.67500000000007
 20
43.40690988448052
 30
0.0
 40
3.5
 41
0.0
 71
     2
 72
     1
  1
\A1;%%c2.38 [3/32]
  7
SLDTEXTSTYLE0
 11
-5.972861175059983E-15
 21
1.0
 31
0.0
 73
     1
 44
1.0
  0
POINT
  5
25F
330
253
100
AcDbEntity
  8
Defpoints
 62
     0
100
AcDbPoint
 10
84.05000000000007
 20
11.93538129811722
 30
0.0
  0
POINT
  5
260
330
253
100
AcDbEntity
  8
Defpoints
 62
     0
100
AcDbPoint
 10
84.05000000000007
 20
14.31461870188281
 30
0.0
  0
POINT
  5
261
330
253
100
AcDbEntity
  8
Defpoints
 62
     0
100
AcDbPoint
 10
103.0500000000002
 20
14.31461870188288
 30
0.0
  0
ENDBLK
  5
255
330
253
100
AcDbEntity
  8
0
100
AcDbBlockEnd
  0
BLOCK
  5
263
330
262
100
AcDbEntity
  8
0
100
AcDbBlockBegin
  2
*D9
 70
     1
 10
0.0
 20
0.0
 30
0.0
  3
*D9
  1
*D10
  0
LINE
  5
265
330
262
100
AcDbEntity
  8
치수문자_일반주서
 62
     0
370
    -2
100
AcDbLine
 10
84.05000000000007
 20
14.37711870188281
 30
0.0
 11
84.05000000000007
 21
30.62662275593959
 31
0.0
  0
LINE
  5
266
330
262
100
AcDbEntity
  8
치수문자_일반주서
 62
     0
370
    -2
100
AcDbLine
 10
76.90625000000006
 20
13.985621039879
 30
0.0
 11
76.90625000000006
 21
30.62662275593959
 31
0.0
  0
LINE
  5
267
330
262
100
AcDbEntity
  8
치수문자_일반주서
 62
     0
370
    -2
100
AcDbLine
 10
76.90625000000006
 20
30.62662275593959
 30
0.0
 11
42.38000979801556
 21
30.62662275593959
 31
0.0
  0
LINE
  5
268
330
262
100
AcDbEntity
  8
치수문자_일반주서
 62
     0
370
    -2
100
AcDbLine
 10
84.05000000000007
 20
30.62662275593959
 30
0.0
 11
76.90625000000006
 21
30.62662275593959
 31
0.0
  0
LINE
  5
269
330
262
100
AcDbEntity
  8
치수문자_일반주서
 62
     0
370
    -2
100
AcDbLine
 10
87.35200000000006
 20
30.62662275593959
 30
0.0
 11
90.65400000000005
 21
30.62662275593959
 31
0.0
  0
LINE
  5
26A
330
262
100
AcDbEntity
  8
치수문자_일반주서
 62
     0
370
    -2
100
AcDbLine
 10
73.60425000000006
 20
30.62662275593959
 30
0.0
 11
70.30225000000007
 21
30.62662275593959
 31
0.0
  0
SOLID
  5
26B
330
262
100
AcDbEntity
  8
치수문자_일반주서
 62
     0
100
AcDbTrace
 10
87.35200000000006
 20
31.17695608927292
 30
0.0
 11
87.35200000000006
 21
30.07628942260625
 31
0.0
 12
84.05000000000007
 22
30.62662275593959
 32
0.0
 13
84.05000000000007
 23
30.62662275593959
 33
0.0
  0
SOLID
  5
26C
330
262
100
AcDbEntity
  8
치수문자_일반주서
 62
     0
100
AcDbTrace
 10
73.60425000000006
 20
30.07628942260625
 30
0.0
 11
73.60425000000006
 21
31.17695608927292
 31
0.0
 12
76.90625000000006
 22
30.62662275593959
 32
0.0
 13
76.90625000000006
 23
30.62662275593959
 33
0.0
  0
MTEXT
  5
26D
330
262
100
AcDbEntity
  8
치수문자_일반주서
 62
     0
100
AcDbMText
 10
55.06750979801557
 20
35.00162275593959
 30
0.0
 40
3.5
 41
0.0
 71
     2
 72
     1
  1
\A1;7.14 [9/32]
  7
SLDTEXTSTYLE0
 73
     1
 44
1.0
  0
POINT
  5
26E
330
262
100
AcDbEntity
  8
Defpoints
 62
     0
100
AcDbPoint
 10
84.05000000000007
 20
14.31461870188281
 30
0.0
  0
POINT
  5
26F
330
262
100
AcDbEntity
  8
Defpoints
 62
     0
100
AcDbPoint
 10
76.90625000000006
 20
13.923121039879
 30
0.0
  0
POINT
  5
270
330
262
100
AcDbEntity
  8
Defpoints
 62
     0
100
AcDbPoint
 10
76.90625000000006
 20
30.62662275593959
 30
0.0
  0
ENDBLK
  5
264
330
262
100
AcDbEntity
  8
0
100
AcDbBlockEnd
  0
BLOCK
  5
272
330
271
100
AcDbEntity
  8
0
100
AcDbBlockBegin
  2
*D10
 70
     1
 10
0.0
 20
0.0
 30
0.0
  3
*D10
  1
*D11
  0
LINE
  5
274
330
271
100
AcDbEntity
  8
치수문자_일반주서
 62
     0
370
    -2
100
AcDbLine
 10
17.37500000000002
 20
14.37711870188281
 30
0.0
 11
17.37500000000003
 21
49.50625000000004
 31
0.0
  0
LINE
  5
275
330
271
100
AcDbEntity
  8
치수문자_일반주서
 62
     0
370
    -2
100
AcDbLine
 10
84.05000000000007
 20
14.37711870188281
 30
0.0
 11
84.05000000000007
 21
49.50625000000004
 31
0.0
  0
LINE
  5
276
330
271
100
AcDbEntity
  8
치수문자_일반주서
 62
     0
370
    -2
100
AcDbLine
 10
20.67700000000003
 20
49.50625000000004
 30
0.0
 11
80.74800000000008
 21
49.50625000000004
 31
0.0
  0
SOLID
  5
277
330
271
100
AcDbEntity
  8
치수문자_일반주서
 62
     0
100
AcDbTrace
 10
20.67700000000003
 20
50.05658333333337
 30
0.0
 11
20.67700000000003
 21
48.9559166666667
 31
0.0
 12
17.37500000000003
 22
49.50625000000004
 32
0.0
 13
17.37500000000003
 23
49.50625000000004
 33
0.0
  0
SOLID
  5
278
330
271
100
AcDbEntity
  8
치수문자_일반주서
 62
     0
100
AcDbTrace
 10
80.74800000000008
 20
48.9559166666667
 30
0.0
 11
80.74800000000008
 21
50.05658333333337
 31
0.0
 12
84.05000000000007
 22
49.50625000000004
 32
0.0
 13
84.05000000000007
 23
49.50625000000004
 33
0.0
  0
MTEXT
  5
279
330
271
100
AcDbEntity
  8
치수문자_일반주서
 62
     0
100
AcDbMText
 10
50.71250000000006
 20
53.88125000000004
 30
0.0
 40
3.5
 41
0.0
 71
     2
 72
     1
  1
\A1;66.68 [2 5/8]
  7
SLDTEXTSTYLE0
 73
     1
 44
1.0
  0
POINT
  5
27A
330
271
100
AcDbEntity
  8
Defpoints
 62
     0
100
AcDbPoint
 10
17.37500000000002
 20
14.31461870188281
 30
0.0
  0
POINT
  5
27B
330
271
100
AcDbEntity
  8
Defpoints
 62
     0
100
AcDbPoint
 10
84.05000000000007
 20
14.31461870188281
 30
0.0
  0
POINT
  5
27C
330
271
100
AcDbEntity
  8
Defpoints
 62
     0
100
AcDbPoint
 10
84.05000000000007
 20
49.50625000000004
 30
0.0
  0
ENDBLK
  5
273
330
271
100
AcDbEntity
  8
0
100
AcDbBlockEnd
  0
BLOCK
  5
2F6
330
2F5
100
AcDbEntity
  8
0
100
AcDbBlockBegin
  2
*D11
 70
     1
 10
0.0
 20
0.0
 30
0.0
  3
*D11
  1
*D12
  0
LINE
  5
2F8
330
2F5
100
AcDbEntity
  8
치수문자_일반주서
 62
     0
370
    -2
100
AcDbLine
 10
94.3736269807217
 20
-22.83735751256754
 30
0.0
 11
68.84890398796001
 21
-22.83735751256764
 31
0.0
  0
LINE
  5
2F9
330
2F5
100
AcDbEntity
  8
치수문자_일반주서
 62
     0
370
    -2
100
AcDbLine
 10
94.37362698072172
 20
-27.59985751256754
 30
0.0
 11
68.84890398796003
 21
-27.59985751256763
 31
0.0
  0
LINE
  5
2FA
330
2F5
100
AcDbEntity
  8
치수문자_일반주서
 62
     0
370
    -2
100
AcDbLine
 10
68.84890398796003
 20
-26.13935751256763
 30
0.0
 11
68.84890398796001
 21
-24.29785751256763
 31
0.0
  0
SOLID
  5
2FB
330
2F5
100
AcDbEntity
  8
치수문자_일반주서
 62
     0
100
AcDbTrace
 10
69.39923732129336
 20
-26.13935751256763
 30
0.0
 11
68.2985706546267
 21
-26.13935751256763
 31
0.0
 12
68.84890398796001
 22
-22.83735751256764
 32
0.0
 13
68.84890398796001
 23
-22.83735751256764
 33
0.0
  0
SOLID
  5
2FC
330
2F5
100
AcDbEntity
  8
치수문자_일반주서
 62
     0
100
AcDbTrace
 10
68.29857065462669
 20
-24.29785751256763
 30
0.0
 11
69.39923732129334
 21
-24.29785751256763
 31
0.0
 12
68.84890398796003
 22
-27.59985751256763
 32
0.0
 13
68.84890398796003
 23
-27.59985751256763
 33
0.0
  0
MTEXT
  5
2FD
330
2F5
100
AcDbEntity
  8
치수문자_일반주서
 62
     0
100
AcDbMText
 10
64.47390398796001
 20
-25.21860751256754
 30
0.0
 40
3.5
 41
0.0
 71
     2
 72
     1
  1
\A1;%%c4.76 [3/16]
  7
SLDTEXTSTYLE0
 11
-2.983906501879689E-15
 21
1.0
 31
0.0
 73
     1
 44
1.0
  0
POINT
  5
2FE
330
2F5
100
AcDbEntity
  8
Defpoints
 62
     0
100
AcDbPoint
 10
94.4361269807217
 20
-22.83735751256754
 30
0.0
  0
POINT
  5
2FF
330
2F5
100
AcDbEntity
  8
Defpoints
 62
     0
100
AcDbPoint
 10
94.43612698072172
 20
-27.59985751256754
 30
0.0
  0
POINT
  5
300
330
2F5
100
AcDbEntity
  8
Defpoints
 62
     0
100
AcDbPoint
 10
68.84890398796003
 20
-27.59985751256763
 30
0.0
  0
ENDBLK
  5
2F7
330
2F5
100
AcDbEntity
  8
0
100
AcDbBlockEnd
  0
BLOCK
  5
302
330
301
100
AcDbEntity
  8
0
100
AcDbBlockBegin
  2
*D12
 70
     1
 10
0.0
 20
0.0
 30
0.0
  3
*D12
  1
*D13
  0
LINE
  5
304
330
301
100
AcDbEntity
  8
치수문자_일반주서
 62
     0
370
    -2
100
AcDbLine
 10
148.58640398796
 20
-26.40822621445033
 30
0.0
 11
167.52390398796
 21
-26.40822621445026
 31
0.0
  0
LINE
  5
305
330
301
100
AcDbEntity
  8
치수문자_일반주서
 62
     0
370
    -2
100
AcDbLine
 10
148.58640398796
 20
-24.02898881068474
 30
0.0
 11
167.52390398796
 21
-24.02898881068467
 31
0.0
  0
LINE
  5
306
330
301
100
AcDbEntity
  8
치수문자_일반주서
 62
     0
370
    -2
100
AcDbLine
 10
167.52390398796
 20
-24.02898881068467
 30
0.0
 11
167.52390398796
 21
19.500802371913
 31
0.0
  0
LINE
  5
307
330
301
100
AcDbEntity
  8
치수문자_일반주서
 62
     0
370
    -2
100
AcDbLine
 10
167.52390398796
 20
-26.40822621445026
 30
0.0
 11
167.52390398796
 21
-24.02898881068467
 31
0.0
  0
LINE
  5
308
330
301
100
AcDbEntity
  8
치수문자_일반주서
 62
     0
370
    -2
100
AcDbLine
 10
167.52390398796
 20
-29.71022621445026
 30
0.0
 11
167.52390398796
 21
-33.01222621445026
 31
0.0
  0
LINE
  5
309
330
301
100
AcDbEntity
  8
치수문자_일반주서
 62
     0
370
    -2
100
AcDbLine
 10
167.52390398796
 20
-20.72698881068467
 30
0.0
 11
167.52390398796
 21
-17.42498881068467
 31
0.0
  0
SOLID
  5
30A
330
301
100
AcDbEntity
  8
치수문자_일반주서
 62
     0
100
AcDbTrace
 10
168.0742373212934
 20
-29.71022621445026
 30
0.0
 11
166.9735706546267
 21
-29.71022621445026
 31
0.0
 12
167.52390398796
 22
-26.40822621445026
 32
0.0
 13
167.52390398796
 23
-26.40822621445026
 33
0.0
  0
SOLID
  5
30B
330
301
100
AcDbEntity
  8
치수문자_일반주서
 62
     0
100
AcDbTrace
 10
166.9735706546267
 20
-20.72698881068467
 30
0.0
 11
168.0742373212934
 21
-20.72698881068467
 31
0.0
 12
167.52390398796
 22
-24.02898881068467
 32
0.0
 13
167.52390398796
 23
-24.02898881068467
 33
0.0
  0
MTEXT
  5
30C
330
301
100
AcDbEntity
  8
치수문자_일반주서
 62
     0
100
AcDbMText
 10
163.14890398796
 20
5.063302371912997
 30
0.0
 40
3.5
 41
0.0
 71
     2
 72
     1
  1
\A1;%%c2.38 [3/32]
  7
SLDTEXTSTYLE0
 11
0.0
 21
1.0
 31
0.0
 73
     1
 44
1.0
  0
POINT
  5
30D
330
301
100
AcDbEntity
  8
Defpoints
 62
     0
100
AcDbPoint
 10
148.52390398796
 20
-26.40822621445033
 30
0.0
  0
POINT
  5
30E
330
301
100
AcDbEntity
  8
Defpoints
 62
     0
100
AcDbPoint
 10
148.52390398796
 20
-24.02898881068474
 30
0.0
  0
POINT
  5
30F
330
301
100
AcDbEntity
  8
Defpoints
 62
     0
100
AcDbPoint
 10
167.5239039879602
 20
-24.02898881068467
 30
0.0
  0
ENDBLK
  5
303
330
301
100
AcDbEntity
  8
0
100
AcDbBlockEnd
  0
BLOCK
  5
311
330
310
100
AcDbEntity
  8
0
100
AcDbBlockBegin
  2
*D13
 70
     1
 10
0.0
 20
0.0
 30
0.0
  3
*D13
  1
*D14
  0
LINE
  5
313
330
310
100
AcDbEntity
  8
치수문자_일반주서
 62
     0
370
    -2
100
AcDbLine
 10
148.52390398796
 20
-23.96648881068474
 30
0.0
 11
148.52390398796
 21
-7.716984756627955
 31
0.0
  0
LINE
  5
314
330
310
100
AcDbEntity
  8
치수문자_일반주서
 62
     0
370
    -2
100
AcDbLine
 10
141.38015398796
 20
-24.35798647268855
 30
0.0
 11
141.38015398796
 21
-7.716984756627955
 31
0.0
  0
LINE
  5
315
330
310
100
AcDbEntity
  8
치수문자_일반주서
 62
     0
370
    -2
100
AcDbLine
 10
141.38015398796
 20
-7.716984756627955
 30
0.0
 11
106.8539137859755
 21
-7.716984756627955
 31
0.0
  0
LINE
  5
316
330
310
100
AcDbEntity
  8
치수문자_일반주서
 62
     0
370
    -2
100
AcDbLine
 10
148.52390398796
 20
-7.716984756627955
 30
0.0
 11
141.38015398796
 21
-7.716984756627955
 31
0.0
  0
LINE
  5
317
330
310
100
AcDbEntity
  8
치수문자_일반주서
 62
     0
370
    -2
100
AcDbLine
 10
151.82590398796
 20
-7.716984756627955
 30
0.0
 11
155.12790398796
 21
-7.716984756627955
 31
0.0
  0
LINE
  5
318
330
310
100
AcDbEntity
  8
치수문자_일반주서
 62
     0
370
    -2
100
AcDbLine
 10
138.07815398796
 20
-7.716984756627955
 30
0.0
 11
134.77615398796
 21
-7.716984756627955
 31
0.0
  0
SOLID
  5
319
330
310
100
AcDbEntity
  8
치수문자_일반주서
 62
     0
100
AcDbTrace
 10
151.82590398796
 20
-7.166651423294621
 30
0.0
 11
151.82590398796
 21
-8.267318089961288
 31
0.0
 12
148.52390398796
 22
-7.716984756627955
 32
0.0
 13
148.52390398796
 23
-7.716984756627955
 33
0.0
  0
SOLID
  5
31A
330
310
100
AcDbEntity
  8
치수문자_일반주서
 62
     0
100
AcDbTrace
 10
138.07815398796
 20
-8.267318089961288
 30
0.0
 11
138.07815398796
 21
-7.166651423294621
 31
0.0
 12
141.38015398796
 22
-7.716984756627955
 32
0.0
 13
141.38015398796
 23
-7.716984756627955
 33
0.0
  0
MTEXT
  5
31B
330
310
100
AcDbEntity
  8
치수문자_일반주서
 62
     0
100
AcDbMText
 10
119.5414137859755
 20
-3.341984756627955
 30
0.0
 40
3.5
 41
0.0
 71
     2
 72
     1
  1
\A1;7.14 [9/32]
  7
SLDTEXTSTYLE0
 73
     1
 44
1.0
  0
POINT
  5
31C
330
310
100
AcDbEntity
  8
Defpoints
 62
     0
100
AcDbPoint
 10
148.52390398796
 20
-24.02898881068474
 30
0.0
  0
POINT
  5
31D
330
310
100
AcDbEntity
  8
Defpoints
 62
     0
100
AcDbPoint
 10
141.38015398796
 20
-24.42048647268855
 30
0.0
  0
POINT
  5
31E
330
310
100
AcDbEntity
  8
Defpoints
 62
     0
100
AcDbPoint
 10
141.38015398796
 20
-7.716984756627955
 30
0.0
  0
ENDBLK
  5
312
330
310
100
AcDbEntity
  8
0
100
AcDbBlockEnd
  0
BLOCK
  5
320
330
31F
100
AcDbEntity
  8
0
100
AcDbBlockBegin
  2
*D14
 70
     1
 10
0.0
 20
0.0
 30
0.0
  3
*D14
  1
*D15
  0
LINE
  5
322
330
31F
100
AcDbEntity
  8
치수문자_일반주서
 62
     0
370
    -2
100
AcDbLine
 10
81.84890398796
 20
-23.96648881068473
 30
0.0
 11
81.84890398796
 21
11.16264248743249
 31
0.0
  0
LINE
  5
323
330
31F
100
AcDbEntity
  8
치수문자_일반주서
 62
     0
370
    -2
100
AcDbLine
 10
148.52390398796
 20
-23.96648881068474
 30
0.0
 11
148.52390398796
 21
11.16264248743249
 31
0.0
  0
LINE
  5
324
330
31F
100
AcDbEntity
  8
치수문자_일반주서
 62
     0
370
    -2
100
AcDbLine
 10
85.15090398795999
 20
11.16264248743249
 30
0.0
 11
145.22190398796
 21
11.16264248743249
 31
0.0
  0
SOLID
  5
325
330
31F
100
AcDbEntity
  8
치수문자_일반주서
 62
     0
100
AcDbTrace
 10
85.15090398795999
 20
11.71297582076583
 30
0.0
 11
85.15090398795999
 21
10.61230915409916
 31
0.0
 12
81.84890398796
 22
11.16264248743249
 32
0.0
 13
81.84890398796
 23
11.16264248743249
 33
0.0
  0
SOLID
  5
326
330
31F
100
AcDbEntity
  8
치수문자_일반주서
 62
     0
100
AcDbTrace
 10
145.22190398796
 20
10.61230915409916
 30
0.0
 11
145.22190398796
 21
11.71297582076583
 31
0.0
 12
148.52390398796
 22
11.16264248743249
 32
0.0
 13
148.52390398796
 23
11.16264248743249
 33
0.0
  0
MTEXT
  5
327
330
31F
100
AcDbEntity
  8
치수문자_일반주서
 62
     0
100
AcDbMText
 10
115.18640398796
 20
15.53764248743249
 30
0.0
 40
3.5
 41
0.0
 71
     2
 72
     1
  1
\A1;66.68 [2 5/8]
  7
SLDTEXTSTYLE0
 73
     1
 44
1.0
  0
POINT
  5
328
330
31F
100
AcDbEntity
  8
Defpoints
 62
     0
100
AcDbPoint
 10
81.84890398796
 20
-24.02898881068473
 30
0.0
  0
POINT
  5
329
330
31F
100
AcDbEntity
  8
Defpoints
 62
     0
100
AcDbPoint
 10
148.52390398796
 20
-24.02898881068474
 30
0.0
  0
POINT
  5
32A
330
31F
100
AcDbEntity
  8
Defpoints
 62
     0
100
AcDbPoint
 10
148.52390398796
 20
11.16264248743249
 30
0.0
  0
ENDBLK
  5
321
330
31F
100
AcDbEntity
  8
0
100
AcDbBlockEnd
  0
BLOCK
  5
3CB
330
3CA
100
AcDbEntity
  8
0
100
AcDbBlockBegin
  2
*D15
 70
     1
 10
0.0
 20
0.0
 30
0.0
  3
*D15
  1
*D17
  0
LINE
  5
3CD
330
3CA
100
AcDbEntity
  8
치수문자_일반주서
 62
     0
370
    -2
100
AcDbLine
 10
66.56250000000003
 20
6.603999999999926
 30
0.0
 11
85.50000000000003
 21
6.603999999999999
 31
0.0
  0
LINE
  5
3CE
330
3CA
100
AcDbEntity
  8
치수문자_일반주서
 62
     0
370
    -2
100
AcDbLine
 10
66.56250000000003
 20
8.58669783647125
 30
0.0
 11
85.50000000000003
 21
8.586697836471323
 31
0.0
  0
LINE
  5
3CF
330
3CA
100
AcDbEntity
  8
치수문자_일반주서
 62
     0
370
    -2
100
AcDbLine
 10
85.50000000000003
 20
8.586697836471323
 30
0.0
 11
85.50000000000003
 21
46.83027382196935
 31
0.0
  0
LINE
  5
3D0
330
3CA
100
AcDbEntity
  8
치수문자_일반주서
 62
     0
370
    -2
100
AcDbLine
 10
85.50000000000003
 20
6.603999999999999
 30
0.0
 11
85.50000000000003
 21
8.586697836471323
 31
0.0
  0
LINE
  5
3D1
330
3CA
100
AcDbEntity
  8
치수문자_일반주서
 62
     0
370
    -2
100
AcDbLine
 10
85.50000000000003
 20
3.302
 30
0.0
 11
85.50000000000003
 21
0.0
 31
0.0
  0
LINE
  5
3D2
330
3CA
100
AcDbEntity
  8
치수문자_일반주서
 62
     0
370
    -2
100
AcDbLine
 10
85.50000000000003
 20
11.88869783647132
 30
0.0
 11
85.50000000000003
 21
15.19069783647132
 31
0.0
  0
SOLID
  5
3D3
330
3CA
100
AcDbEntity
  8
치수문자_일반주서
 62
     0
100
AcDbTrace
 10
86.05033333333336
 20
3.302
 30
0.0
 11
84.9496666666667
 21
3.302
 31
0.0
 12
85.50000000000003
 22
6.603999999999999
 32
0.0
 13
85.50000000000003
 23
6.603999999999999
 33
0.0
  0
SOLID
  5
3D4
330
3CA
100
AcDbEntity
  8
치수문자_일반주서
 62
     0
100
AcDbTrace
 10
84.9496666666667
 20
11.88869783647132
 30
0.0
 11
86.05033333333336
 21
11.88869783647132
 31
0.0
 12
85.50000000000003
 22
8.586697836471323
 32
0.0
 13
85.50000000000003
 23
8.586697836471323
 33
0.0
  0
MTEXT
  5
3D5
330
3CA
100
AcDbEntity
  8
치수문자_일반주서
 62
     0
100
AcDbMText
 10
81.12500000000003
 20
32.83027382196935
 30
0.0
 40
3.5
 41
0.0
 71
     2
 72
     1
  1
\A1;%%c1.98 [5/64]
  7
SLDTEXTSTYLE0
 11
0.0
 21
1.0
 31
0.0
 73
     1
 44
1.0
  0
POINT
  5
3D6
330
3CA
100
AcDbEntity
  8
Defpoints
 62
     0
100
AcDbPoint
 10
66.50000000000003
 20
6.603999999999926
 30
0.0
  0
POINT
  5
3D7
330
3CA
100
AcDbEntity
  8
Defpoints
 62
     0
100
AcDbPoint
 10
66.50000000000003
 20
8.58669783647125
 30
0.0
  0
POINT
  5
3D8
330
3CA
100
AcDbEntity
  8
Defpoints
 62
     0
100
AcDbPoint
 10
85.50000000000011
 20
8.586697836471322
 30
0.0
  0
ENDBLK
  5
3CC
330
3CA
100
AcDbEntity
  8
0
100
AcDbBlockEnd
  0
BLOCK
  5
3DA
330
3D9
100
AcDbEntity
  8
0
100
AcDbBlockBegin
  2
*D16
 70
     1
 10
0.0
 20
0.0
 30
0.0
  3
*D16
  1
*D18
  0
LINE
  5
3DC
330
3D9
100
AcDbEntity
  8
치수문자_일반주서
 62
     0
370
    -2
100
AcDbLine
 10
66.50000000000003
 20
8.64919783647125
 30
0.0
 11
66.50000000000003
 21
23.16702897923018
 31
0.0
  0
LINE
  5
3DD
330
3D9
100
AcDbEntity
  8
치수문자_일반주서
 62
     0
370
    -2
100
AcDbLine
 10
60.15000000000003
 20
8.310780251658846
 30
0.0
 11
60.15000000000003
 21
23.16702897923018
 31
0.0
  0
LINE
  5
3DE
330
3D9
100
AcDbEntity
  8
치수문자_일반주서
 62
     0
370
    -2
100
AcDbLine
 10
60.15000000000003
 20
23.16702897923018
 30
0.0
 11
25.65534935393988
 21
23.16702897923018
 31
0.0
  0
LINE
  5
3DF
330
3D9
100
AcDbEntity
  8
치수문자_일반주서
 62
     0
370
    -2
100
AcDbLine
 10
66.50000000000003
 20
23.16702897923018
 30
0.0
 11
60.15000000000003
 21
23.16702897923018
 31
0.0
  0
LINE
  5
3E0
330
3D9
100
AcDbEntity
  8
치수문자_일반주서
 62
     0
370
    -2
100
AcDbLine
 10
69.80200000000002
 20
23.16702897923018
 30
0.0
 11
73.10400000000001
 21
23.16702897923018
 31
0.0
  0
LINE
  5
3E1
330
3D9
100
AcDbEntity
  8
치수문자_일반주서
 62
     0
370
    -2
100
AcDbLine
 10
56.84800000000003
 20
23.16702897923018
 30
0.0
 11
53.54600000000003
 21
23.16702897923018
 31
0.0
  0
SOLID
  5
3E2
330
3D9
100
AcDbEntity
  8
치수문자_일반주서
 62
     0
100
AcDbTrace
 10
69.80200000000002
 20
23.71736231256351
 30
0.0
 11
69.80200000000002
 21
22.61669564589684
 31
0.0
 12
66.50000000000003
 22
23.16702897923018
 32
0.0
 13
66.50000000000003
 23
23.16702897923018
 33
0.0
  0
SOLID
  5
3E3
330
3D9
100
AcDbEntity
  8
치수문자_일반주서
 62
     0
100
AcDbTrace
 10
56.84800000000003
 20
22.61669564589684
 30
0.0
 11
56.84800000000003
 21
23.71736231256351
 31
0.0
 12
60.15000000000003
 22
23.16702897923018
 32
0.0
 13
60.15000000000003
 23
23.16702897923018
 33
0.0
  0
MTEXT
  5
3E4
330
3D9
100
AcDbEntity
  8
치수문자_일반주서
 62
     0
100
AcDbMText
 10
37.03034935393988
 20
27.54202897923018
 30
0.0
 40
3.5
 41
0.0
 71
     2
 72
     1
  1
\A1;6.35 [1/4]
  7
SLDTEXTSTYLE0
 73
     1
 44
1.0
  0
POINT
  5
3E5
330
3D9
100
AcDbEntity
  8
Defpoints
 62
     0
100
AcDbPoint
 10
66.50000000000003
 20
8.58669783647125
 30
0.0
  0
POINT
  5
3E6
330
3D9
100
AcDbEntity
  8
Defpoints
 62
     0
100
AcDbPoint
 10
60.15000000000003
 20
8.248280251658846
 30
0.0
  0
POINT
  5
3E7
330
3D9
100
AcDbEntity
  8
Defpoints
 62
     0
100
AcDbPoint
 10
60.15000000000003
 20
23.16702897923018
 30
0.0
  0
ENDBLK
  5
3DB
330
3D9
100
AcDbEntity
  8
0
100
AcDbBlockEnd
  0
BLOCK
  5
3E9
330
3E8
100
AcDbEntity
  8
0
100
AcDbBlockBegin
  2
*D17
 70
     1
 10
0.0
 20
0.0
 30
0.0
  3
*D17
  1
*D19
  0
LINE
  5
3EB
330
3E8
100
AcDbEntity
  8
치수문자_일반주서
 62
     0
370
    -2
100
AcDbLine
 10
3.000000000000021
 20
9.609098918235581
 30
0.0
 11
3.000000000000021
 21
34.31221881512261
 31
0.0
  0
LINE
  5
3EC
330
3E8
100
AcDbEntity
  8
치수문자_일반주서
 62
     0
370
    -2
100
AcDbLine
 10
66.50000000000003
 20
8.64919783647125
 30
0.0
 11
66.50000000000003
 21
34.31221881512261
 31
0.0
  0
LINE
  5
3ED
330
3E8
100
AcDbEntity
  8
치수문자_일반주서
 62
     0
370
    -2
100
AcDbLine
 10
6.302000000000021
 20
34.31221881512261
 30
0.0
 11
63.19800000000003
 21
34.31221881512261
 31
0.0
  0
SOLID
  5
3EE
330
3E8
100
AcDbEntity
  8
치수문자_일반주서
 62
     0
100
AcDbTrace
 10
6.302000000000021
 20
34.86255214845594
 30
0.0
 11
6.302000000000021
 21
33.76188548178927
 31
0.0
 12
3.000000000000021
 22
34.31221881512261
 32
0.0
 13
3.000000000000021
 23
34.31221881512261
 33
0.0
  0
SOLID
  5
3EF
330
3E8
100
AcDbEntity
  8
치수문자_일반주서
 62
     0
100
AcDbTrace
 10
63.19800000000003
 20
33.76188548178927
 30
0.0
 11
63.19800000000003
 21
34.86255214845594
 31
0.0
 12
66.50000000000003
 22
34.31221881512261
 32
0.0
 13
66.50000000000003
 23
34.31221881512261
 33
0.0
  0
MTEXT
  5
3F0
330
3E8
100
AcDbEntity
  8
치수문자_일반주서
 62
     0
100
AcDbMText
 10
35.54432404248756
 20
38.68721881512261
 30
0.0
 40
3.5
 41
0.0
 71
     2
 72
     1
  1
\A1;63.5 [2 1/2]
  7
SLDTEXTSTYLE0
 73
     1
 44
1.0
  0
POINT
  5
3F1
330
3E8
100
AcDbEntity
  8
Defpoints
 62
     0
100
AcDbPoint
 10
3.000000000000021
 20
9.546598918235581
 30
0.0
  0
POINT
  5
3F2
330
3E8
100
AcDbEntity
  8
Defpoints
 62
     0
100
AcDbPoint
 10
66.50000000000003
 20
8.58669783647125
 30
0.0
  0
POINT
  5
3F3
330
3E8
100
AcDbEntity
  8
Defpoints
 62
     0
100
AcDbPoint
 10
66.50000000000003
 20
34.31221881512261
 30
0.0
  0
ENDBLK
  5
3EA
330
3E8
100
AcDbEntity
  8
0
100
AcDbBlockEnd
  0
BLOCK
  5
439
330
438
100
AcDbEntity
  8
0
100
AcDbBlockBegin
  2
*D18
 70
     1
 10
0.0
 20
0.0
 30
0.0
  3
*D18
  1
*D20
  0
LINE
  5
43B
330
438
100
AcDbEntity
  8
치수문자_일반주서
 62
     0
370
    -2
100
AcDbLine
 10
152.9241255494765
 20
-27.34896770008672
 30
0.0
 11
171.8616255494765
 21
-27.34896770008665
 31
0.0
  0
LINE
  5
43C
330
438
100
AcDbEntity
  8
치수문자_일반주서
 62
     0
370
    -2
100
AcDbLine
 10
152.9241255494765
 20
-25.36626986361539
 30
0.0
 11
171.8616255494765
 21
-25.36626986361532
 31
0.0
  0
LINE
  5
43D
330
438
100
AcDbEntity
  8
치수문자_일반주서
 62
     0
370
    -2
100
AcDbLine
 10
171.8616255494765
 20
-25.36626986361532
 30
0.0
 11
171.8616255494765
 21
12.8773061218827
 31
0.0
  0
LINE
  5
43E
330
438
100
AcDbEntity
  8
치수문자_일반주서
 62
     0
370
    -2
100
AcDbLine
 10
171.8616255494765
 20
-27.34896770008665
 30
0.0
 11
171.8616255494765
 21
-25.36626986361532
 31
0.0
  0
LINE
  5
43F
330
438
100
AcDbEntity
  8
치수문자_일반주서
 62
     0
370
    -2
100
AcDbLine
 10
171.8616255494765
 20
-30.65096770008665
 30
0.0
 11
171.8616255494765
 21
-33.95296770008665
 31
0.0
  0
LINE
  5
440
330
438
100
AcDbEntity
  8
치수문자_일반주서
 62
     0
370
    -2
100
AcDbLine
 10
171.8616255494765
 20
-22.06426986361532
 30
0.0
 11
171.8616255494765
 21
-18.76226986361532
 31
0.0
  0
SOLID
  5
441
330
438
100
AcDbEntity
  8
치수문자_일반주서
 62
     0
100
AcDbTrace
 10
172.4119588828098
 20
-30.65096770008665
 30
0.0
 11
171.3112922161431
 21
-30.65096770008665
 31
0.0
 12
171.8616255494765
 22
-27.34896770008665
 32
0.0
 13
171.8616255494765
 23
-27.34896770008665
 33
0.0
  0
SOLID
  5
442
330
438
100
AcDbEntity
  8
치수문자_일반주서
 62
     0
100
AcDbTrace
 10
171.3112922161431
 20
-22.06426986361532
 30
0.0
 11
172.4119588828098
 21
-22.06426986361532
 31
0.0
 12
171.8616255494765
 22
-25.36626986361532
 32
0.0
 13
171.8616255494765
 23
-25.36626986361532
 33
0.0
  0
MTEXT
  5
443
330
438
100
AcDbEntity
  8
치수문자_일반주서
 62
     0
100
AcDbMText
 10
167.4866255494765
 20
-1.122693878117296
 30
0.0
 40
3.5
 41
0.0
 71
     2
 72
     1
  1
\A1;%%c1.98 [5/64]
  7
SLDTEXTSTYLE0
 11
0.0
 21
1.0
 31
0.0
 73
     1
 44
1.0
  0
POINT
  5
444
330
438
100
AcDbEntity
  8
Defpoints
 62
     0
100
AcDbPoint
 10
152.8616255494765
 20
-27.34896770008672
 30
0.0
  0
POINT
  5
445
330
438
100
AcDbEntity
  8
Defpoints
 62
     0
100
AcDbPoint
 10
152.8616255494765
 20
-25.36626986361539
 30
0.0
  0
POINT
  5
446
330
438
100
AcDbEntity
  8
Defpoints
 62
     0
100
AcDbPoint
 10
171.8616255494765
 20
-25.36626986361532
 30
0.0
  0
ENDBLK
  5
43A
330
438
100
AcDbEntity
  8
0
100
AcDbBlockEnd
  0
BLOCK
  5
448
330
447
100
AcDbEntity
  8
0
100
AcDbBlockBegin
  2
*D19
 70
     1
 10
0.0
 20
0.0
 30
0.0
  3
*D19
  1
*D21
  0
LINE
  5
44A
330
447
100
AcDbEntity
  8
치수문자_일반주서
 62
     0
370
    -2
100
AcDbLine
 10
152.8616255494765
 20
-25.30376986361539
 30
0.0
 11
152.8616255494765
 21
-10.78593872085647
 31
0.0
  0
LINE
  5
44B
330
447
100
AcDbEntity
  8
치수문자_일반주서
 62
     0
370
    -2
100
AcDbLine
 10
146.5116255494765
 20
-25.6421874484278
 30
0.0
 11
146.5116255494765
 21
-10.78593872085647
 31
0.0
  0
LINE
  5
44C
330
447
100
AcDbEntity
  8
치수문자_일반주서
 62
     0
370
    -2
100
AcDbLine
 10
146.5116255494765
 20
-10.78593872085647
 30
0.0
 11
112.0169749034163
 21
-10.78593872085647
 31
0.0
  0
LINE
  5
44D
330
447
100
AcDbEntity
  8
치수문자_일반주서
 62
     0
370
    -2
100
AcDbLine
 10
152.8616255494765
 20
-10.78593872085647
 30
0.0
 11
146.5116255494765
 21
-10.78593872085647
 31
0.0
  0
LINE
  5
44E
330
447
100
AcDbEntity
  8
치수문자_일반주서
 62
     0
370
    -2
100
AcDbLine
 10
156.1636255494764
 20
-10.78593872085647
 30
0.0
 11
159.4656255494764
 21
-10.78593872085647
 31
0.0
  0
LINE
  5
44F
330
447
100
AcDbEntity
  8
치수문자_일반주서
 62
     0
370
    -2
100
AcDbLine
 10
143.2096255494765
 20
-10.78593872085647
 30
0.0
 11
139.9076255494765
 21
-10.78593872085647
 31
0.0
  0
SOLID
  5
450
330
447
100
AcDbEntity
  8
치수문자_일반주서
 62
     0
100
AcDbTrace
 10
156.1636255494764
 20
-10.23560538752313
 30
0.0
 11
156.1636255494764
 21
-11.3362720541898
 31
0.0
 12
152.8616255494765
 22
-10.78593872085647
 32
0.0
 13
152.8616255494765
 23
-10.78593872085647
 33
0.0
  0
SOLID
  5
451
330
447
100
AcDbEntity
  8
치수문자_일반주서
 62
     0
100
AcDbTrace
 10
143.2096255494765
 20
-11.3362720541898
 30
0.0
 11
143.2096255494765
 21
-10.23560538752313
 31
0.0
 12
146.5116255494765
 22
-10.78593872085647
 32
0.0
 13
146.5116255494765
 23
-10.78593872085647
 33
0.0
  0
MTEXT
  5
452
330
447
100
AcDbEntity
  8
치수문자_일반주서
 62
     0
100
AcDbMText
 10
123.3919749034163
 20
-6.410938720856468
 30
0.0
 40
3.5
 41
0.0
 71
     2
 72
     1
  1
\A1;6.35 [1/4]
  7
SLDTEXTSTYLE0
 73
     1
 44
1.0
  0
POINT
  5
453
330
447
100
AcDbEntity
  8
Defpoints
 62
     0
100
AcDbPoint
 10
152.8616255494765
 20
-25.36626986361539
 30
0.0
  0
POINT
  5
454
330
447
100
AcDbEntity
  8
Defpoints
 62
     0
100
AcDbPoint
 10
146.5116255494765
 20
-25.7046874484278
 30
0.0
  0
POINT
  5
455
330
447
100
AcDbEntity
  8
Defpoints
 62
     0
100
AcDbPoint
 10
146.5116255494765
 20
-10.78593872085647
 30
0.0
  0
ENDBLK
  5
449
330
447
100
AcDbEntity
  8
0
100
AcDbBlockEnd
  0
BLOCK
  5
457
330
456
100
AcDbEntity
  8
0
100
AcDbBlockBegin
  2
*D20
 70
     1
 10
0.0
 20
0.0
 30
0.0
  3
*D20
  1
*D22
  0
LINE
  5
459
330
456
100
AcDbEntity
  8
치수문자_일반주서
 62
     0
370
    -2
100
AcDbLine
 10
89.36162554947646
 20
-24.34386878185106
 30
0.0
 11
89.36162554947646
 21
0.3592511150359599
 31
0.0
  0
LINE
  5
45A
330
456
100
AcDbEntity
  8
치수문자_일반주서
 62
     0
370
    -2
100
AcDbLine
 10
152.8616255494765
 20
-25.30376986361539
 30
0.0
 11
152.8616255494765
 21
0.3592511150359599
 31
0.0
  0
LINE
  5
45B
330
456
100
AcDbEntity
  8
치수문자_일반주서
 62
     0
370
    -2
100
AcDbLine
 10
92.66362554947645
 20
0.3592511150359599
 30
0.0
 11
149.5596255494765
 21
0.3592511150359599
 31
0.0
  0
SOLID
  5
45C
330
456
100
AcDbEntity
  8
치수문자_일반주서
 62
     0
100
AcDbTrace
 10
92.66362554947645
 20
0.9095844483692931
 30
0.0
 11
92.66362554947645
 21
-0.1910822182973734
 31
0.0
 12
89.36162554947646
 22
0.3592511150359599
 32
0.0
 13
89.36162554947646
 23
0.3592511150359599
 33
0.0
  0
SOLID
  5
45D
330
456
100
AcDbEntity
  8
치수문자_일반주서
 62
     0
100
AcDbTrace
 10
149.5596255494765
 20
-0.1910822182973734
 30
0.0
 11
149.5596255494765
 21
0.9095844483692931
 31
0.0
 12
152.8616255494765
 22
0.3592511150359599
 32
0.0
 13
152.8616255494765
 23
0.3592511150359599
 33
0.0
  0
MTEXT
  5
45E
330
456
100
AcDbEntity
  8
치수문자_일반주서
 62
     0
100
AcDbMText
 10
121.905949591964
 20
4.73425111503596
 30
0.0
 40
3.5
 41
0.0
 71
     2
 72
     1
  1
\A1;63.5 [2 1/2]
  7
SLDTEXTSTYLE0
 73
     1
 44
1.0
  0
POINT
  5
45F
330
456
100
AcDbEntity
  8
Defpoints
 62
     0
100
AcDbPoint
 10
89.36162554947646
 20
-24.40636878185106
 30
0.0
  0
POINT
  5
460
330
456
100
AcDbEntity
  8
Defpoints
 62
     0
100
AcDbPoint
 10
152.8616255494765
 20
-25.36626986361539
 30
0.0
  0
POINT
  5
461
330
456
100
AcDbEntity
  8
Defpoints
 62
     0
100
AcDbPoint
 10
152.8616255494765
 20
0.3592511150359599
 30
0.0
  0
ENDBLK
  5
458
330
456
100
AcDbEntity
  8
0
100
AcDbBlockEnd
  0
ENDSEC
  0
SECTION
  2
ENTITIES
  0
LINE
  5
96
330
1F
100
AcDbEntity
  8
외형선
  6
Continuous
370
    15
100
AcDbLine
 10
19.21594817511139
 20
2.381249999999998
 30
0.0
 11
-19.21594817511141
 21
2.381249999999996
 31
0.0
  0
LINE
  5
97
330
1F
100
AcDbEntity
  8
외형선
  6
Continuous
370
    15
100
AcDbLine
 10
-19.21594817511138
 20
-2.381250000000001
 30
0.0
 11
19.21594817511139
 21
-2.381249999999998
 31
0.0
  0
LINE
  5
98
330
1F
100
AcDbEntity
  8
외형선
  6
Continuous
370
    15
100
AcDbLine
 10
19.21594817511139
 20
-2.381250000000001
 30
0.0
 11
24.40000000000002
 21
-0.9921874999999999
 31
0.0
  0
LINE
  5
99
330
1F
100
AcDbEntity
  8
외형선
  6
Continuous
370
    15
100
AcDbLine
 10
24.40000000000002
 20
0.9921875000000001
 30
0.0
 11
19.21594817511139
 21
2.38125
 31
0.0
  0
LINE
  5
9C
330
1F
100
AcDbEntity
  8
외형선
  6
Continuous
370
    15
100
AcDbLine
 10
24.59990505760214
 20
0.9921875000000001
 30
0.0
 11
24.40000000000002
 21
0.9921875000000001
 31
0.0
  0
LINE
  5
9D
330
1F
100
AcDbEntity
  8
외형선
  6
Continuous
370
    15
100
AcDbLine
 10
24.40000000000002
 20
-0.9921874999999999
 30
0.0
 11
24.59990505760214
 21
-0.9921874999999999
 31
0.0
  0
SPLINE
  5
9E
330
1F
100
AcDbEntity
  8
외형선
  6
Continuous
370
    15
100
AcDbSpline
210
0.0
220
0.0
230
1.0
 70
     8
 71
     3
 72
    15
 73
    11
 74
     0
 42
0.000000001
 43
0.00000001
 40
0.0
 40
0.0
 40
0.0
 40
0.0
 40
0.0004218547599856
 40
0.0665281480655324
 40
0.1913816546962794
 40
0.3440559423490062
 40
0.5494559050886004
 40
0.7537862291852978
 40
0.9748032104702634
 40
1.0
 40
1.0
 40
1.0
 40
1.0
 10
24.60112553109409
 20
-0.9779470254757825
 30
0.0
 10
24.60112790682707
 20
-0.9779192669432569
 30
0.0
 10
24.60150256922239
 20
-0.9735416376330914
 30
0.0
 10
24.6050288430673
 20
-0.9474618632807734
 30
0.0
 10
24.6184095281371
 20
-0.8954624041880183
 30
0.0
 10
24.65354306546083
 20
-0.8227074744230675
 30
0.0
 10
24.71520026829498
 20
-0.7499509915213535
 30
0.0
 10
24.80495957972003
 20
-0.6951275906983666
 30
0.0
 10
24.87882201284399
 20
-0.6674498648366521
 30
0.0
 10
24.91982224171563
 20
-0.6706440257545233
 30
0.0
 10
24.92401808394708
 20
-0.6709709067413399
 30
0.0
  0
SPLINE
  5
9F
330
1F
100
AcDbEntity
  8
외형선
  6
Continuous
370
    15
100
AcDbSpline
210
0.0
220
0.0
230
1.0
 70
     8
 71
     3
 72
    11
 73
     7
 74
     0
 42
0.000000001
 43
0.00000001
 40
0.0
 40
0.0
 40
0.0
 40
0.0
 40
0.3143168671495633
 40
0.4999839305546681
 40
0.6860602680987831
 40
1.0
 40
1.0
 40
1.0
 40
1.0
 10
25.40000000000002
 20
0.6529313261337187
 30
0.0
 10
25.31558067699854
 20
0.6536842699589823
 30
0.0
 10
25.18129483573328
 20
0.654881977917375
 30
0.0
 10
24.99743599436362
 20
0.6639383301216137
 30
0.0
 10
24.81378428724302
 20
0.6763640180414711
 30
0.0
 10
24.67943862907423
 20
0.690336805681571
 30
0.0
 10
24.59508846017988
 20
0.6991097501401595
 30
0.0
  0
LINE
  5
A0
330
1F
100
AcDbEntity
  8
외형선
  6
Continuous
370
    15
100
AcDbLine
 10
24.92431768702949
 20
-0.6697827376515539
 30
0.0
 11
24.98845086327885
 21
-0.6658962923574426
 31
0.0
  0
SPLINE
  5
A1
330
1F
100
AcDbEntity
  8
0
  6
Continuous
 62
     1
370
    25
100
AcDbSpline
210
0.0
220
0.0
230
1.0
 70
     8
 71
     3
 72
     9
 73
     5
 74
     0
 42
0.000000001
 43
0.00000001
 40
0.0
 40
0.0
 40
0.0
 40
0.0
 40
0.4994742241717646
 40
1.0
 40
1.0
 40
1.0
 40
1.0
 10
29.17780254697621
 20
0.2546352745461299
 30
0.0
 10
29.13241557762632
 20
0.2764420666655973
 30
0.0
 10
29.04154608496103
 20
0.3201015611182443
 30
0.0
 10
28.95063782699488
 20
0.3679440561489355
 30
0.0
 10
28.90513590064718
 20
0.3918904580917306
 30
0.0
  0
LINE
  5
A2
330
1F
100
AcDbEntity
  8
0
  6
Continuous
 62
     1
370
    25
100
AcDbLine
 10
26.90244451610449
 20
0.9921875000000006
 30
0.0
 11
26.42179282482716
 21
0.9921875000000006
 31
0.0
  0
SPLINE
  5
A3
330
1F
100
AcDbEntity
  8
0
  6
Continuous
 62
     1
370
    25
100
AcDbSpline
210
0.0
220
0.0
230
1.0
 70
     8
 71
     3
 72
     9
 73
     5
 74
     0
 42
0.000000001
 43
0.00000001
 40
0.0
 40
0.0
 40
0.0
 40
0.0
 40
0.886528121075487
 40
1.0
 40
1.0
 40
1.0
 40
1.0
 10
28.85224412019155
 20
0.7884312991197993
 30
0.0
 10
28.60326368218377
 20
0.7763420087241917
 30
0.0
 10
28.32241479302984
 20
0.7627053398941701
 30
0.0
 10
28.04155728332042
 20
0.7818951725097085
 30
0.0
 10
28.00968785398364
 20
0.7840726788728409
 30
0.0
  0
SPLINE
  5
A4
330
1F
100
AcDbEntity
  8
0
  6
Continuous
 62
     1
370
    25
100
AcDbSpline
210
0.0
220
0.0
230
1.0
 70
     8
 71
     3
 72
    10
 73
     6
 74
     0
 42
0.000000001
 43
0.00000001
 40
0.0
 40
0.0
 40
0.0
 40
0.0
 40
0.5271586570598462
 40
0.6653203722632622
 40
0.9999999999999999
 40
0.9999999999999999
 40
0.9999999999999999
 40
0.9999999999999999
 10
27.35902436653026
 20
-0.8256533893396271
 30
0.0
 10
27.62154969389463
 20
-0.8045923873146031
 30
0.0
 10
27.95287963828891
 20
-0.7780115590954899
 30
0.0
 10
28.45011099854362
 20
-0.7728451411660388
 30
0.0
 10
28.68557877236668
 20
-0.7819715665168947
 30
0.0
 10
28.85224412019155
 20
-0.7884312991197989
 30
0.0
  0
SPLINE
  5
A5
330
1F
100
AcDbEntity
  8
0
  6
Continuous
 62
     1
370
    25
100
AcDbSpline
210
0.0
220
0.0
230
1.0
 70
     8
 71
     3
 72
    10
 73
     6
 74
     0
 42
0.000000001
 43
0.00000001
 40
0.0
 40
0.0
 40
0.0
 40
0.0
 40
0.5215420831195896
 40
0.9325157386157851
 40
1.0
 40
1.0
 40
1.0
 40
1.0
 10
29.64911801722857
 20
-0.7461954334788182
 30
0.0
 10
29.77786333273332
 20
-0.7277519809218488
 30
0.0
 10
30.00805958509155
 20
-0.694775141007199
 30
0.0
 10
30.25460873123637
 20
-0.6720130299354404
 30
0.0
 10
30.37252683957082
 20
-0.6662465199417671
 30
0.0
 10
30.38915863970209
 20
-0.6654331805571351
 30
0.0
  0
SPLINE
  5
A6
330
1F
100
AcDbEntity
  8
0
  6
Continuous
 62
     1
370
    25
100
AcDbSpline
210
0.0
220
0.0
230
1.0
 70
     8
 71
     3
 72
     9
 73
     5
 74
     0
 42
0.000000001
 43
0.00000001
 40
0.0
 40
0.0
 40
0.0
 40
0.0
 40
0.4992934921333733
 40
0.9999999999999999
 40
0.9999999999999999
 40
0.9999999999999999
 40
0.9999999999999999
 10
25.97306127994283
 20
0.677815914065413
 30
0.0
 10
25.87734435437049
 20
0.670660596616156
 30
0.0
 10
25.68563962142203
 20
0.6563297119521403
 30
0.0
 10
25.49530285675505
 20
0.654065188009179
 30
0.0
 10
25.40000000000001
 20
0.6529313261337185
 30
0.0
  0
SPLINE
  5
A7
330
1F
100
AcDbEntity
  8
0
  6
Continuous
 62
     1
370
    25
100
AcDbSpline
210
0.0
220
0.0
230
1.0
 70
     8
 71
     3
 72
    14
 73
    10
 74
     0
 42
0.000000001
 43
0.00000001
 40
0.0
 40
0.0
 40
0.0
 40
0.0
 40
0.2065673670379575
 40
0.354544160863248
 40
0.5056283817274545
 40
0.5902520937876422
 40
0.6611257391013848
 40
0.7958712643328405
 40
1.0
 40
1.0
 40
1.0
 40
1.0
 10
31.37118175471527
 20
0.6777486912688488
 30
0.0
 10
31.25292141578036
 20
0.6693853601672884
 30
0.0
 10
31.04994398893745
 20
0.6550308653119642
 30
0.0
 10
30.75980347711129
 20
0.651507358143209
 30
0.0
 10
30.53907852035653
 20
0.656479678339931
 30
0.0
 10
30.36329865196378
 20
0.6659788098032948
 30
0.0
 10
30.19672577497545
 20
0.678203023080491
 30
0.0
 10
29.96163637646073
 20
0.7004250725480954
 30
0.0
 10
29.76660167375773
 20
0.7289891823772442
 30
0.0
 10
29.64911801722857
 20
0.7461954334788186
 30
0.0
  0
LINE
  5
A8
330
1F
100
AcDbEntity
  8
0
  6
Continuous
 62
     1
370
    25
100
AcDbLine
 10
26.42129039268242
 20
-0.9921875000000003
 30
0.0
 11
26.90244451610449
 21
-0.9921875000000003
 31
0.0
  0
LINE
  5
A9
330
1F
100
AcDbEntity
  8
외형선
  6
Continuous
370
    15
100
AcDbLine
 10
19.21594817511139
 20
2.38125
 30
0.0
 11
19.21594817511139
 21
-2.381250000000003
 31
0.0
  0
LINE
  5
AB
330
1F
100
AcDbEntity
  8
외형선
  6
Continuous
370
    15
100
AcDbLine
 10
24.40000000000002
 20
0.9921875000000001
 30
0.0
 11
24.40000000000002
 21
-0.9921874999999999
 31
0.0
  0
ELLIPSE
  5
AD
330
1F
100
AcDbEntity
  8
외형선
  6
Continuous
370
    15
100
AcDbEllipse
 10
24.59992802820205
 20
0.0000000000000001
 30
0.0
 11
-2.297059993594530E-5
 21
0.9921875
 31
0.0
210
0.0
220
0.0
230
1.0
 40
0.0000321708351967
 41
5.501811554404501
 42
8.084998537525458
  0
LINE
  5
AE
330
1F
100
AcDbEntity
  8
외형선
  6
Continuous
370
    15
100
AcDbLine
 10
24.59990571070149
 20
0.6936827560651975
 30
0.0
 11
24.59989899015272
 21
0.6758517526581834
 31
0.0
  0
SPLINE
  5
AF
330
1F
100
AcDbEntity
  8
외형선
  6
Continuous
370
    15
100
AcDbSpline
210
0.0
220
0.0
230
1.0
 70
    24
 71
     3
 72
    10
 73
     6
 74
     0
 42
0.000000001
 43
0.00000001
 40
0.0
 40
0.0
 40
0.0
 40
0.0
 40
0.5
 40
0.5
 40
1.0
 40
1.0
 40
1.0
 40
1.0
 10
24.599923469817
 20
0.6758534913709361
 30
0.0
 10
24.599923469817
 20
0.5810767304267079
 30
0.0
 10
24.599923469817
 20
0.4551864525319892
 30
0.0
 10
24.599923469817
 20
0.1688434359997411
 30
0.0
 10
24.599923469817
 20
0.0096232296447091
 30
0.0
 10
24.599923469817
 20
-0.1433236880959551
 30
0.0
  0
SPLINE
  5
B0
330
1F
100
AcDbEntity
  8
외형선
  6
Continuous
370
    15
100
AcDbSpline
210
0.0
220
0.0
230
1.0
 70
    24
 71
     3
 72
     8
 73
     4
 74
     0
 42
0.000000001
 43
0.00000001
 40
0.0
 40
0.0
 40
0.0
 40
0.0
 40
1.0
 40
1.0
 40
1.0
 40
1.0
 10
24.5998865518016
 20
-0.143305936493374
 30
0.0
 10
24.5998865518016
 20
-0.16754072121727
 30
0.0
 10
24.5998865518016
 20
-0.1956736197015185
 30
0.0
 10
24.5998865518016
 20
-0.2272151224880009
 30
0.0
  0
SPLINE
  5
B1
330
1F
100
AcDbEntity
  8
외형선
  6
Continuous
370
    15
100
AcDbSpline
210
0.0
220
0.0
230
1.0
 70
     8
 71
     3
 72
    10
 73
     6
 74
     0
 42
0.000000001
 43
0.00000001
 40
0.0
 40
0.0
 40
0.0
 40
0.0
 40
0.2016526315859424
 40
0.5833879200242065
 40
1.0
 40
1.0
 40
1.0
 40
1.0
 10
24.98669469329836
 20
0.6651401608680363
 30
0.0
 10
25.0144009661785
 20
0.6772282459656481
 30
0.0
 10
25.09455615572424
 20
0.7121994871872922
 30
0.0
 10
25.23236110265724
 20
0.7654793609735262
 30
0.0
 10
25.34251627920639
 20
0.8024855851396859
 30
0.0
 10
25.40000000000002
 20
0.8217970285437534
 30
0.0
  0
SPLINE
  5
B2
330
1F
100
AcDbEntity
  8
외형선
  6
Continuous
370
    15
100
AcDbSpline
210
0.0
220
0.0
230
1.0
 70
     8
 71
     3
 72
    10
 73
     6
 74
     0
 42
0.000000001
 43
0.00000001
 40
0.0
 40
0.0
 40
0.0
 40
0.0
 40
0.5
 40
0.5
 40
1.0
 40
1.0
 40
1.0
 40
1.0
 10
25.40000000000002
 20
-0.6362898013861101
 30
0.0
 10
25.2656759869799
 20
-0.5771294958720615
 30
0.0
 10
25.13061521745756
 20
-0.5120348282303379
 30
0.0
 10
24.86935113877373
 20
-0.3753791925469873
 30
0.0
 10
24.73419833741917
 20
-0.3022716710343641
 30
0.0
 10
24.5998865518016
 20
-0.2272201153434014
 30
0.0
  0
LINE
  5
B3
330
1F
100
AcDbEntity
  8
외형선
  6
Continuous
370
    15
100
AcDbLine
 10
25.40000000000002
 20
-0.6362898013861097
 30
0.0
 11
25.40000000000002
 21
-0.8217970285437507
 31
0.0
  0
SPLINE
  5
B4
330
1F
100
AcDbEntity
  8
외형선
  6
Continuous
370
    15
100
AcDbSpline
210
0.0
220
0.0
230
1.0
 70
     8
 71
     3
 72
    10
 73
     6
 74
     0
 42
0.000000001
 43
0.00000001
 40
0.0
 40
0.0
 40
0.0
 40
0.0
 40
0.5
 40
0.5
 40
1.0
 40
1.0
 40
1.0
 40
1.0
 10
24.59994467353566
 20
-0.4851523954616759
 30
0.0
 10
24.73424702319117
 20
-0.5524023449024136
 30
0.0
 10
24.86938946931699
 20
-0.6153268177979254
 30
0.0
 10
25.13063341609148
 20
-0.7277871580716767
 30
0.0
 10
25.26568567480776
 20
-0.778596895785762
 30
0.0
 10
25.39999999999925
 20
-0.8217970285435062
 30
0.0
  0
ELLIPSE
  5
B5
330
1F
100
AcDbEntity
  8
외형선
  6
Continuous
370
    15
100
AcDbEllipse
 10
24.59992802820205
 20
0.0000000000000001
 30
0.0
 11
2.297059993594530E-5
 21
0.9921875
 31
0.0
210
0.0
220
0.0
230
1.0
 40
0.0000321708351967
 41
3.126136211980311
 42
4.201819186872975
  0
SPLINE
  5
B6
330
1F
100
AcDbEntity
  8
외형선
  6
Continuous
370
    15
100
AcDbSpline
210
0.0
220
0.0
230
1.0
 70
    24
 71
     3
 72
     8
 73
     4
 74
     0
 42
0.000000001
 43
0.00000001
 40
0.0
 40
0.0
 40
0.0
 40
0.0
 40
1.0
 40
1.0
 40
1.0
 40
1.0
 10
25.40000000000002
 20
-0.5008610088763599
 30
0.0
 10
25.40000000000002
 20
-0.5435578049909281
 30
0.0
 10
25.40000000000002
 20
-0.5889800165479899
 30
0.0
 10
25.40000000000002
 20
-0.6362898013860442
 30
0.0
  0
SPLINE
  5
B7
330
1F
100
AcDbEntity
  8
외형선
  6
Continuous
370
    15
100
AcDbSpline
210
0.0
220
0.0
230
1.0
 70
     8
 71
     3
 72
    10
 73
     6
 74
     0
 42
0.000000001
 43
0.00000001
 40
0.0
 40
0.0
 40
0.0
 40
0.0
 40
0.5
 40
0.5
 40
1.0
 40
1.0
 40
1.0
 40
1.0
 10
25.40000000000001
 20
-0.5008610088763593
 30
0.0
 10
25.2656759869799
 20
-0.4481329900215805
 30
0.0
 10
25.13061521745756
 20
-0.3907236763035634
 30
0.0
 10
24.86935113877373
 20
-0.2712771734530273
 30
0.0
 10
24.73419833741917
 20
-0.207888356462611
 30
0.0
 10
24.5998865518016
 20
-0.143305936493374
 30
0.0
  0
SPLINE
  5
B8
330
1F
100
AcDbEntity
  8
외형선
  6
Continuous
370
    15
100
AcDbSpline
210
0.0
220
0.0
230
1.0
 70
    24
 71
     3
 72
    10
 73
     6
 74
     0
 42
0.000000001
 43
0.00000001
 40
0.0
 40
0.0
 40
0.0
 40
0.0
 40
0.5
 40
0.5
 40
1.0
 40
1.0
 40
1.0
 40
1.0
 10
25.40000000000003
 20
0.4173636419930957
 30
0.0
 10
25.40000000000003
 20
0.2787610338757676
 30
0.0
 10
25.40000000000003
 20
0.1191042296165816
 30
0.0
 10
25.40000000000003
 20
-0.2018607862244853
 30
0.0
 10
25.40000000000003
 20
-0.3617874389041537
 30
0.0
 10
25.40000000000003
 20
-0.5008610088763628
 30
0.0
  0
SPLINE
  5
B9
330
1F
100
AcDbEntity
  8
외형선
  6
Continuous
370
    15
100
AcDbSpline
210
0.0
220
0.0
230
1.0
 70
     8
 71
     3
 72
    10
 73
     6
 74
     0
 42
0.000000001
 43
0.00000001
 40
0.0
 40
0.0
 40
0.0
 40
0.0
 40
0.5
 40
0.5
 40
1.0
 40
1.0
 40
1.0
 40
1.0
 10
25.39999999999952
 20
0.4173636419932942
 30
0.0
 10
25.26568214053855
 20
0.4698282524435749
 30
0.0
 10
25.13062677696018
 20
0.5185490930260891
 30
0.0
 10
24.86937548576385
 20
0.6049022032717235
 30
0.0
 10
24.73422926188772
 20
0.6435094247139704
 30
0.0
 10
24.599923469817
 20
0.6758534913709361
 30
0.0
  0
SPLINE
  5
BA
330
1F
100
AcDbEntity
  8
외형선
  6
Continuous
370
    15
100
AcDbSpline
210
0.0
220
0.0
230
1.0
 70
    24
 71
     3
 72
    10
 73
     6
 74
     0
 42
0.000000001
 43
0.00000001
 40
0.0
 40
0.0
 40
0.0
 40
0.0
 40
0.5
 40
0.5
 40
1.0
 40
1.0
 40
1.0
 40
1.0
 10
25.40000000000002
 20
0.6529296357229722
 30
0.0
 10
25.40000000000002
 20
0.6531471094283275
 30
0.0
 10
25.40000000000002
 20
0.6318704787138133
 30
0.0
 10
25.40000000000002
 20
0.5499834818360929
 30
0.0
 10
25.40000000000002
 20
0.4896166559216207
 30
0.0
 10
25.40000000000002
 20
0.4173636419930979
 30
0.0
  0
SPLINE
  5
BB
330
1F
100
AcDbEntity
  8
외형선
  6
Continuous
370
    15
100
AcDbSpline
210
0.0
220
0.0
230
1.0
 70
    24
 71
     3
 72
     9
 73
     5
 74
     0
 42
0.000000001
 43
0.00000001
 40
0.0
 40
0.0
 40
0.0
 40
0.0
 40
0.4791608060552042
 40
1.0
 40
1.0
 40
1.0
 40
1.0
 10
25.40000000000002
 20
-0.6375498555489233
 30
0.0
 10
25.40000000000002
 20
-0.6418675573446985
 30
0.0
 10
25.40000000000002
 20
-0.650878523478013
 30
0.0
 10
25.40000000000002
 20
-0.6522271948254675
 30
0.0
 10
25.40000000000002
 20
-0.652929635722972
 30
0.0
  0
SPLINE
  5
BC
330
1F
100
AcDbEntity
  8
외형선
  6
Continuous
370
    15
100
AcDbSpline
210
0.0
220
0.0
230
1.0
 70
    24
 71
     3
 72
    11
 73
     7
 74
     0
 42
0.000000001
 43
0.00000001
 40
0.0
 40
0.0
 40
0.0
 40
0.0
 40
0.1259686251845952
 40
0.4515385391654937
 40
0.7865500027072466
 40
1.0
 40
1.0
 40
1.0
 40
1.0
 10
25.40000000000002
 20
0.8217970285437534
 30
0.0
 10
25.40000000000002
 20
0.8137295831173131
 30
0.0
 10
25.40000000000002
 20
0.7848115686727312
 30
0.0
 10
25.40000000000003
 20
0.737129683293498
 30
0.0
 10
25.39999999999997
 20
0.6878458188781247
 30
0.0
 10
25.4
 20
0.6627126442938224
 30
0.0
 10
25.40000000000001
 20
0.6529313261337184
 30
0.0
  0
SPLINE
  5
BD
330
1F
100
AcDbEntity
  8
0
  6
Continuous
 62
     1
370
    25
100
AcDbSpline
210
0.0
220
0.0
230
1.0
 70
     8
 71
     3
 72
    16
 73
    12
 74
     0
 42
0.000000001
 43
0.00000001
 40
0.0
 40
0.0
 40
0.0
 40
0.0
 40
0.1224523489454022
 40
0.2447546909327027
 40
0.366954327285122
 40
0.4890996657610236
 40
0.6112397028677423
 40
0.7334234927360389
 40
0.8487685656192562
 40
0.9643582258374913
 40
1.0
 40
1.0
 40
1.0
 40
1.0
 10
31.75000000000002
 20
-0.9415272686910258
 30
0.0
 10
31.55206486219247
 20
-0.89464337950868
 30
0.0
 10
31.1564370616967
 20
-0.8009330349920183
 30
0.0
 10
30.56347768419995
 20
-0.5361831082612712
 30
0.0
 10
29.97110161050686
 20
-0.2163696672214284
 30
0.0
 10
29.37904070511312
 20
0.1311453105814722
 30
0.0
 10
28.78702277965212
 20
0.4620604582811294
 30
0.0
 10
28.20590059489014
 20
0.7356850850920886
 30
0.0
 10
27.63544985441337
 20
0.9149052555020326
 30
0.0
 10
27.20438810293318
 20
0.9976106712986262
 30
0.0
 10
26.96003332305792
 20
0.9841817193200496
 30
0.0
 10
26.90244451610449
 20
0.9810168239025095
 30
0.0
  0
SPLINE
  5
BE
330
1F
100
AcDbEntity
  8
0
  6
Continuous
 62
     1
370
    25
100
AcDbSpline
210
0.0
220
0.0
230
1.0
 70
     8
 71
     3
 72
    13
 73
     9
 74
     0
 42
0.000000001
 43
0.00000001
 40
0.0
 40
0.0
 40
0.0
 40
0.0
 40
0.1729321471916662
 40
0.3448873776255596
 40
0.5178961761995959
 40
0.690750077587218
 40
0.862708634585286
 40
1.0
 40
1.0
 40
1.0
 40
1.0
 10
31.75000000000002
 20
-0.7828084185528392
 30
0.0
 10
31.60069232073486
 20
-0.7505300729351433
 30
0.0
 10
31.30292042119299
 20
-0.6861557263780496
 30
0.0
 10
30.85654658563526
 20
-0.5282885690499753
 30
0.0
 10
30.40940981990074
 20
-0.3397246179344671
 30
0.0
 10
29.96238705197954
 20
-0.1277691877677269
 30
0.0
 10
29.54686727107602
 20
0.0803976204356589
 30
0.0
 10
29.27983490679337
 20
0.2058167472067823
 30
0.0
 10
29.1612860075204
 20
0.2614965127154865
 30
0.0
  0
LINE
  5
BF
330
1F
100
AcDbEntity
  8
0
  6
Continuous
 62
     1
370
    25
100
AcDbLine
 10
31.74999999999998
 20
-0.9415272686910263
 30
0.0
 11
31.75000000000002
 21
-0.7828084185528392
 31
0.0
  0
SPLINE
  5
C0
330
1F
100
AcDbEntity
  8
0
  6
Continuous
 62
     1
370
    25
100
AcDbSpline
210
0.0
220
0.0
230
1.0
 70
     8
 71
     3
 72
    38
 73
    34
 74
     0
 42
0.000000001
 43
0.00000001
 40
0.0
 40
0.0
 40
0.0
 40
0.0
 40
0.0624999999999999
 40
0.0624999999999999
 40
0.1249999999999998
 40
0.1249999999999998
 40
0.1874999999999998
 40
0.1874999999999998
 40
0.2499999999999997
 40
0.2499999999999997
 40
0.3124999999999997
 40
0.3124999999999997
 40
0.3749999999999996
 40
0.3749999999999996
 40
0.4374999999999996
 40
0.4374999999999996
 40
0.4999999999999996
 40
0.4999999999999996
 40
0.5624999999999996
 40
0.5624999999999996
 40
0.6249999999999997
 40
0.6249999999999997
 40
0.6874999999999998
 40
0.6874999999999998
 40
0.7499999999999998
 40
0.7499999999999998
 40
0.8124999999999998
 40
0.8124999999999998
 40
0.8749999999999999
 40
0.8749999999999999
 40
0.9375
 40
0.9375
 40
1.0
 40
1.0
 40
1.0
 40
1.0
 10
25.39999999999927
 20
0.8217970285433619
 30
0.0
 10
25.53346157085789
 20
0.8647228860118708
 30
0.0
 10
25.6631282153369
 20
0.8999328562797265
 30
0.0
 10
25.92709789014224
 20
0.9543031742735836
 30
0.0
 10
26.06200651331014
 20
0.9733459054422556
 30
0.0
 10
26.32698846016506
 20
0.9935739946520225
 30
0.0
 10
26.45603343004065
 20
0.9949223688121401
 30
0.0
 10
26.72254726811898
 20
0.979966885899029
 30
0.0
 10
26.85711575162825
 20
0.9635286179993631
 30
0.0
 10
27.11827999643137
 20
0.9143730849482655
 30
0.0
 10
27.25061036076098
 20
0.8813654633322003
 30
0.0
 10
27.51775530958767
 20
0.7999639512709782
 30
0.0
 10
27.64850982301219
 20
0.7520426195208572
 30
0.0
 10
27.91120254418777
 20
0.6437107844818456
 30
0.0
 10
28.04600138284604
 20
0.582819008600023
 30
0.0
 10
28.31184925934195
 20
0.4522745855410846
 30
0.0
 10
28.44066607112919
 20
0.3831005478458887
 30
0.0
 10
28.70653527117151
 20
0.2377690122540922
 30
0.0
 10
28.84132937508319
 20
0.161970582664433
 30
0.0
 10
29.10398304563428
 20
0.0101488806876124
 30
0.0
 10
29.23477463720318
 20
-0.066424541502153
 30
0.0
 10
29.5019226735384
 20
-0.2180996955845437
 30
0.0
 10
29.6342036372426
 20
-0.2924013300592344
 30
0.0
 10
29.89541271050883
 20
-0.4339615606374106
 30
0.0
 10
30.02998910044831
 20
-0.5022069359147453
 30
0.0
 10
30.29648771586894
 20
-0.6280726222201589
 30
0.0
 10
30.42552016501313
 20
-0.6853343005524609
 30
0.0
 10
30.69052947845891
 20
-0.7877467063574197
 30
0.0
 10
30.82543655191371
 20
-0.8326127109933508
 30
0.0
 10
31.08937305831318
 20
-0.9061685677982003
 30
0.0
 10
31.21906435890097
 20
-0.9350653454038945
 30
0.0
 10
31.48599675471873
 20
-0.9762559542405237
 30
0.0
 10
31.6202386582979
 20
-0.9882291980620096
 30
0.0
 10
31.75000000000002
 20
-0.992187499999996
 30
0.0
  0
SPLINE
  5
C1
330
1F
100
AcDbEntity
  8
0
  6
Continuous
 62
     1
370
    25
100
AcDbSpline
210
0.0
220
0.0
230
1.0
 70
     8
 71
     3
 72
    13
 73
     9
 74
     0
 42
0.000000001
 43
0.00000001
 40
0.0
 40
0.0
 40
0.0
 40
0.0
 40
0.1549245773342968
 40
0.3346066325444406
 40
0.5144089107589546
 40
0.6943993499225984
 40
0.874581512915829
 40
0.9999999999999999
 40
0.9999999999999999
 40
0.9999999999999999
 40
0.9999999999999999
 10
29.28479530304543
 20
-0.0941411799506449
 30
0.0
 10
29.11372979272449
 20
-0.024865312313363
 30
0.0
 10
28.74426191785353
 20
0.1247569437905672
 30
0.0
 10
28.17624555006162
 20
0.3454881155921827
 30
0.0
 10
27.58050230305176
 20
0.5354194331652093
 30
0.0
 10
26.98417058518149
 20
0.659874112336811
 30
0.0
 10
26.44772669208244
 20
0.7078026527592223
 30
0.0
 10
26.11031967328112
 20
0.6837873031329021
 30
0.0
 10
25.97184785452378
 20
0.6739314051949636
 30
0.0
  0
SPLINE
  5
C2
330
1F
100
AcDbEntity
  8
외형선
  6
Continuous
370
    15
100
AcDbSpline
210
0.0
220
0.0
230
1.0
 70
    24
 71
     3
 72
    11
 73
     7
 74
     0
 42
0.000000001
 43
0.00000001
 40
0.0
 40
0.0
 40
0.0
 40
0.0
 40
0.1259686251727037
 40
0.4515385391474139
 40
0.7865500026824225
 40
1.0
 40
1.0
 40
1.0
 40
1.0
 10
25.40000000000002
 20
0.8217970285437532
 30
0.0
 10
25.40000000000002
 20
0.8137295831180694
 30
0.0
 10
25.40000000000001
 20
0.7848115686746278
 30
0.0
 10
25.40000000000003
 20
0.737129683296696
 30
0.0
 10
25.39999999999997
 20
0.6878458188803677
 30
0.0
 10
25.4
 20
0.6627126442950374
 30
0.0
 10
25.40000000000001
 20
0.6529313261337183
 30
0.0
  0
LINE
  5
C3
330
1F
100
AcDbEntity
  8
0
  6
Continuous
 62
     1
370
    25
100
AcDbLine
 10
31.75000000000002
 20
-0.992187499999996
 30
0.0
 11
31.75000000000001
 21
-0.9415272686910237
 31
0.0
  0
SPLINE
  5
C4
330
1F
100
AcDbEntity
  8
0
  6
Continuous
 62
     1
370
    25
100
AcDbSpline
210
0.0
220
0.0
230
1.0
 70
     8
 71
     3
 72
     8
 73
     4
 74
     0
 42
0.000000001
 43
0.00000001
 40
0.0
 40
0.0
 40
0.0
 40
0.0
 40
1.0
 40
1.0
 40
1.0
 40
1.0
 10
31.1364564800337
 20
0.2771455591120037
 30
0.0
 10
31.10107854129515
 20
0.3190069411483707
 30
0.0
 10
31.06944619039177
 20
0.3593360420153697
 30
0.0
 10
31.04254979534004
 20
0.3977277124202301
 30
0.0
  0
LINE
  5
C5
330
1F
100
AcDbEntity
  8
0
  6
Continuous
 62
     1
370
    25
100
AcDbLine
 10
31.05511798808648
 20
0.4082736783272823
 30
0.0
 11
31.75000000000002
 21
0.000000000000001
 31
0.0
  0
LINE
  5
C6
330
1F
100
AcDbEntity
  8
0
  6
Continuous
 62
     1
370
    25
100
AcDbLine
 10
31.75000000000002
 20
0.000000000000001
 30
0.0
 11
31.75000000000002
 21
-0.2651551105137874
 31
0.0
  0
SPLINE
  5
C7
330
1F
100
AcDbEntity
  8
0
  6
Continuous
 62
     1
370
    25
100
AcDbSpline
210
0.0
220
0.0
230
1.0
 70
     8
 71
     3
 72
    10
 73
     6
 74
     0
 42
0.000000001
 43
0.00000001
 40
0.0
 40
0.0
 40
0.0
 40
0.0
 40
0.5
 40
0.5
 40
1.0
 40
1.0
 40
1.0
 40
1.0
 10
31.75000000000002
 20
-0.2651551105137879
 30
0.0
 10
31.64379960073018
 20
-0.1816611239832074
 30
0.0
 10
31.53937334291145
 20
-0.0947429862225274
 30
0.0
 10
31.33414771734931
 20
0.0860933061830747
 30
0.0
 10
31.2323818257984
 20
0.1809588001028401
 30
0.0
 10
31.13645648003287
 20
0.2771455591098762
 30
0.0
  0
SPLINE
  5
C8
330
1F
100
AcDbEntity
  8
0
  6
Continuous
 62
     1
370
    25
100
AcDbSpline
210
0.0
220
0.0
230
1.0
 70
     8
 71
     3
 72
    13
 73
     9
 74
     0
 42
0.000000001
 43
0.00000001
 40
0.0
 40
0.0
 40
0.0
 40
0.0
 40
0.1222582222199682
 40
0.3182112187379061
 40
0.51398620282663
 40
0.7087330052484321
 40
0.9047667341136129
 40
1.0
 40
1.0
 40
1.0
 40
1.0
 10
31.1364564800337
 20
0.2771455591120011
 30
0.0
 10
31.04343821758926
 20
0.3169042626658732
 30
0.0
 10
30.80133217253265
 20
0.4203874091045131
 30
0.0
 10
30.40939962316899
 20
0.5641736460474006
 30
0.0
 10
29.96242207851565
 20
0.6926414148664456
 30
0.0
 10
29.5160112423986
 20
0.7718901662687864
 30
0.0
 10
29.14540014715913
 20
0.8029091108078102
 30
0.0
 10
28.92347935072893
 20
0.7869774912110513
 30
0.0
 10
28.85091966290648
 20
0.7817684555413801
 30
0.0
  0
SPLINE
  5
C9
330
1F
100
AcDbEntity
  8
0
  6
Continuous
 62
     1
370
    25
100
AcDbSpline
210
0.0
220
0.0
230
1.0
 70
    24
 71
     3
 72
    10
 73
     6
 74
     0
 42
0.000000001
 43
0.00000001
 40
0.0
 40
0.0
 40
0.0
 40
0.0
 40
0.5
 40
0.5
 40
1.0
 40
1.0
 40
1.0
 40
1.0
 10
31.75000000000002
 20
-0.7828084185528391
 30
0.0
 10
31.75000000000002
 20
-0.7228000500272126
 30
0.0
 10
31.75000000000001
 20
-0.646977175438449
 30
0.0
 10
31.75000000000002
 20
-0.4706962891573153
 30
0.0
 10
31.75000000000002
 20
-0.3703909786524713
 30
0.0
 10
31.75000000000002
 20
-0.2651551105138198
 30
0.0
  0
SPLINE
  5
CA
330
1F
100
AcDbEntity
  8
0
  6
Continuous
 62
     1
370
    25
100
AcDbSpline
210
0.0
220
0.0
230
1.0
 70
     8
 71
     3
 72
    13
 73
     9
 74
     0
 42
0.000000001
 43
0.00000001
 40
0.0
 40
0.0
 40
0.0
 40
0.0
 40
0.0401542528944375
 40
0.2673270410451735
 40
0.4961182004912315
 40
0.7241671284188487
 40
0.9513574877651769
 40
1.0
 40
1.0
 40
1.0
 40
1.0
 10
27.35950060616276
 20
-0.8215730126023352
 30
0.0
 10
27.33326611627142
 20
-0.8254616252320902
 30
0.0
 10
27.15860993291727
 20
-0.8513500737313345
 30
0.0
 10
26.83498491299473
 20
-0.8454764235577718
 30
0.0
 10
26.38767165219107
 20
-0.7991984902052015
 30
0.0
 10
25.94081182818911
 20
-0.6941537197904365
 30
0.0
 10
25.61204620113855
 20
-0.5831036859848086
 30
0.0
 10
25.43178811228122
 20
-0.5131901118746361
 30
0.0
 10
25.40000000000002
 20
-0.5008610088763599
 30
0.0
  0
SPLINE
  5
CB
330
1F
100
AcDbEntity
  8
0
  6
Continuous
 62
     1
370
    25
100
AcDbSpline
210
0.0
220
0.0
230
1.0
 70
     8
 71
     3
 72
    18
 73
    14
 74
     0
 42
0.000000001
 43
0.00000001
 40
0.0
 40
0.0
 40
0.0
 40
0.0
 40
0.0316381665299249
 40
0.1370322908767351
 40
0.2422409427207506
 40
0.3469472874435904
 40
0.4523808544942133
 40
0.557545132448696
 40
0.6622576474672135
 40
0.7677266897851716
 40
0.8728485887527447
 40
0.9775693295388675
 40
1.0
 40
1.0
 40
1.0
 40
1.0
 10
29.65128262034512
 20
-0.7405727299792485
 30
0.0
 10
29.6064757714756
 20
-0.7491690125214371
 30
0.0
 10
29.41240684078234
 20
-0.7864015205640765
 30
0.0
 10
29.06883741266693
 20
-0.8003622433051768
 30
0.0
 10
28.62189996331654
 20
-0.7786726062204868
 30
0.0
 10
28.1754749973894
 20
-0.7004007265439494
 30
0.0
 10
27.72827931690707
 20
-0.5768202591497116
 30
0.0
 10
27.28137916768617
 20
-0.4140297375112017
 30
0.0
 10
26.83495253751558
 20
-0.222345057131332
 30
0.0
 10
26.38771981873024
 20
-0.0173986142241767
 30
0.0
 10
25.94085632295515
 20
0.1892278077212763
 30
0.0
 10
25.61205315846681
 20
0.3335852466884446
 30
0.0
 10
25.43179855811264
 20
0.4048006026545713
 30
0.0
 10
25.40000000000002
 20
0.4173636419930978
 30
0.0
  0
SPLINE
  5
CC
330
1F
100
AcDbEntity
  8
외형선
  6
Continuous
370
    15
100
AcDbSpline
210
0.0
220
0.0
230
1.0
 70
    24
 71
     3
 72
    10
 73
     6
 74
     0
 42
0.000000001
 43
0.00000001
 40
0.0
 40
0.0
 40
0.0
 40
0.0
 40
0.5
 40
0.5
 40
1.0
 40
1.0
 40
1.0
 40
1.0
 10
25.40000000000003
 20
0.4173636419930957
 30
0.0
 10
25.40000000000003
 20
0.2787610338757676
 30
0.0
 10
25.40000000000003
 20
0.1191042296165816
 30
0.0
 10
25.40000000000003
 20
-0.2018607862244853
 30
0.0
 10
25.40000000000003
 20
-0.3617874389041537
 30
0.0
 10
25.40000000000003
 20
-0.5008610088763628
 30
0.0
  0
SPLINE
  5
CD
330
1F
100
AcDbEntity
  8
외형선
  6
Continuous
370
    15
100
AcDbSpline
210
0.0
220
0.0
230
1.0
 70
    24
 71
     3
 72
    11
 73
     7
 74
     0
 42
0.000000001
 43
0.00000001
 40
0.0
 40
0.0
 40
0.0
 40
0.0
 40
0.2467938560946135
 40
0.5020069018277632
 40
0.7475188241373544
 40
1.0
 40
1.0
 40
1.0
 40
1.0
 10
25.40000000000001
 20
0.6528567758838785
 30
0.0
 10
25.40000000000002
 20
0.6500811034887829
 30
0.0
 10
25.40000000000002
 20
0.6444350686903452
 30
0.0
 10
25.40000000000002
 20
0.597010732108467
 30
0.0
 10
25.40000000000002
 20
0.5240244999266278
 30
0.0
 10
25.40000000000002
 20
0.4532474287680788
 30
0.0
 10
25.40000000000002
 20
0.4173636419930979
 30
0.0
  0
SPLINE
  5
CE
330
1F
100
AcDbEntity
  8
0
  6
Continuous
 62
     1
370
    25
100
AcDbSpline
210
0.0
220
0.0
230
1.0
 70
    24
 71
     3
 72
     8
 73
     4
 74
     0
 42
0.000000001
 43
0.00000001
 40
0.0
 40
0.0
 40
0.0
 40
0.0
 40
1.0
 40
1.0
 40
1.0
 40
1.0
 10
31.14591123438482
 20
0.484458257809612
 30
0.0
 10
31.11315221982472
 20
0.4569701807744947
 30
0.0
 10
31.07859892796102
 20
0.4279765263157083
 30
0.0
 10
31.04254979533609
 20
0.397727712425864
 30
0.0
  0
LINE
  5
CF
330
1F
100
AcDbEntity
  8
0
  6
Continuous
 62
     1
370
    25
100
AcDbLine
 10
31.75000000000002
 20
0.6945312499999999
 30
0.0
 11
31.36876949638788
 21
0.6681056928219969
 31
0.0
  0
SPLINE
  5
D0
330
1F
100
AcDbEntity
  8
0
  6
Continuous
 62
     1
370
    25
100
AcDbSpline
210
0.0
220
0.0
230
1.0
 70
     8
 71
     3
 72
     8
 73
     4
 74
     0
 42
0.000000001
 43
0.00000001
 40
0.0
 40
0.0
 40
0.0
 40
0.0
 40
1.0
 40
1.0
 40
1.0
 40
1.0
 10
31.75000000000002
 20
0.6945312500000008
 30
0.0
 10
31.54584217823387
 20
0.6389920726168765
 30
0.0
 10
31.34363053355311
 20
0.5708998726238297
 30
0.0
 10
31.14591123439374
 20
0.4844582578129533
 30
0.0
  0
SPLINE
  5
D1
330
1F
100
AcDbEntity
  8
0
  6
Continuous
 62
     1
370
    25
100
AcDbSpline
210
0.0
220
0.0
230
1.0
 70
     8
 71
     3
 72
    12
 73
     8
 74
     0
 42
0.000000001
 43
0.00000001
 40
0.0
 40
0.0
 40
0.0
 40
0.0
 40
0.1415306111883758
 40
0.3566584960675756
 40
0.5713980615920364
 40
0.7857604178471047
 40
0.9999999999999999
 40
0.9999999999999999
 40
0.9999999999999999
 40
0.9999999999999999
 10
28.00436937532977
 20
-0.7857700977664137
 30
0.0
 10
27.88151100375402
 20
-0.828439507626924
 30
0.0
 10
27.57190673039159
 20
-0.9359668292512544
 30
0.0
 10
27.07549353928163
 20
-1.002801104175013
 30
0.0
 10
26.51619740534446
 20
-0.9842853489740124
 30
0.0
 10
25.95785663438616
 20
-0.86402107127711
 30
0.0
 10
25.58591669708556
 20
-0.712185726811144
 30
0.0
 10
25.40000000000005
 20
-0.6362898013861247
 30
0.0
  0
SPLINE
  5
D2
330
1F
100
AcDbEntity
  8
외형선
  6
Continuous
370
    15
100
AcDbSpline
210
0.0
220
0.0
230
1.0
 70
    24
 71
     3
 72
     8
 73
     4
 74
     0
 42
0.000000001
 43
0.00000001
 40
0.0
 40
0.0
 40
0.0
 40
0.0
 40
1.0
 40
1.0
 40
1.0
 40
1.0
 10
25.40000000000002
 20
-0.5008610088763599
 30
0.0
 10
25.40000000000002
 20
-0.543557804990928
 30
0.0
 10
25.40000000000002
 20
-0.5889800165479898
 30
0.0
 10
25.40000000000002
 20
-0.636289801386044
 30
0.0
  0
SPLINE
  5
D3
330
1F
100
AcDbEntity
  8
0
  6
Continuous
 62
     1
370
    25
100
AcDbSpline
210
0.0
220
0.0
230
1.0
 70
     8
 71
     3
 72
    13
 73
     9
 74
     0
 42
0.000000001
 43
0.00000001
 40
0.0
 40
0.0
 40
0.0
 40
0.0
 40
0.1528360286217526
 40
0.3059917177850462
 40
0.4600927775883392
 40
0.6145204456562052
 40
0.894853051796268
 40
1.0
 40
1.0
 40
1.0
 40
1.0
 10
25.40000000000002
 20
-0.821797028543753
 30
0.0
 10
25.45211525697751
 20
-0.8379163866599565
 30
0.0
 10
25.55645477135221
 20
-0.8701888169504374
 30
0.0
 10
25.71261299874399
 20
-0.9102513792024629
 30
0.0
 10
25.86972930554249
 20
-0.9429900799409701
 30
0.0
 10
26.07058511367573
 20
-0.9740056087071635
 30
0.0
 10
26.25464725856662
 20
-0.9908331065712648
 30
0.0
 10
26.38557683685044
 20
-0.9913763414908981
 30
0.0
 10
26.42129039268242
 20
-0.9915245192432935
 30
0.0
  0
SPLINE
  5
D4
330
1F
100
AcDbEntity
  8
0
  6
Continuous
 62
     1
370
    25
100
AcDbSpline
210
0.0
220
0.0
230
1.0
 70
     8
 71
     3
 72
    15
 73
    11
 74
     0
 42
0.000000001
 43
0.00000001
 40
0.0
 40
0.0
 40
0.0
 40
0.0
 40
0.052134512046161
 40
0.1573859227061237
 40
0.3644323242226
 40
0.5728838017824689
 40
0.6791871757358791
 40
0.7856790202095255
 40
0.8927422914429639
 40
1.0
 40
1.0
 40
1.0
 40
1.0
 10
30.3875941832707
 20
0.6651859403717718
 30
0.0
 10
30.41124665515122
 20
0.6758838150470579
 30
0.0
 10
30.4826497615599
 20
0.7081790223997917
 30
0.0
 10
30.64800502435182
 20
0.7716323701360006
 30
0.0
 10
30.88530359446535
 20
0.8523371482898061
 30
0.0
 10
31.12153306563736
 20
0.9139096417032913
 30
0.0
 10
31.3128952852849
 20
0.9504533225352705
 30
0.0
 10
31.45838926151286
 20
0.9712421690196775
 30
0.0
 10
31.60427534062797
 20
0.9857582464146893
 30
0.0
 10
31.70139574352762
 20
0.9894842341924087
 30
0.0
 10
31.75000000000002
 20
0.9921875000000038
 30
0.0
  0
LINE
  5
D5
330
1F
100
AcDbEntity
  8
0
  6
Continuous
 62
     1
370
    25
100
AcDbLine
 10
31.75000000000002
 20
0.000000000000001
 30
0.0
 11
31.75000000000002
 21
0.6945312500000008
 31
0.0
  0
SPLINE
  5
D6
330
1F
100
AcDbEntity
  8
0
  6
Continuous
 62
     1
370
    25
100
AcDbSpline
210
0.0
220
0.0
230
1.0
 70
    24
 71
     3
 72
    10
 73
     6
 74
     0
 42
0.000000001
 43
0.00000001
 40
0.0
 40
0.0
 40
0.0
 40
0.0
 40
0.5
 40
0.5
 40
1.0
 40
1.0
 40
1.0
 40
1.0
 10
31.75000000000002
 20
0.69453125
 30
0.0
 10
31.75000000000002
 20
0.7366320048010064
 30
0.0
 10
31.75000000000002
 20
0.785556980829093
 30
0.0
 10
31.75000000000002
 20
0.8882014487658486
 30
0.0
 10
31.75000000000002
 20
0.9416587995842732
 30
0.0
 10
31.75000000000002
 20
0.9921875000000038
 30
0.0
  0
LINE
  5
D7
330
1F
100
AcDbEntity
  8
중심선
 48
0.5
100
AcDbLine
 10
-34.75000000000001
 20
-0.0000000000000043
 30
0.0
 11
34.75
 21
0.0000000000000043
 31
0.0
  0
LINE
  5
D8
330
1F
100
AcDbEntity
  8
참조1
100
AcDbLine
 10
-14.99421167873052
 20
0.0010749287238892
 30
0.0
 11
-14.99421167873052
 21
-39.99892507127611
 31
0.0
  0
LINE
  5
D9
330
1F
100
AcDbEntity
  8
참조1
100
AcDbLine
 10
-14.99421167873052
 20
-39.99892507127611
 30
0.0
 11
-29.45992727542973
 21
-39.9989250712761
 31
0.0
  0
CIRCLE
  5
DA
330
1F
100
AcDbEntity
  8
해칭선
100
AcDbCircle
 10
-0.0000000000000018
 20
0.0
 30
0.0
 40
3.000000000000001
  0
INSERT
  5
DB
330
1F
100
AcDbEntity
  8
0
  6
Continuous
 62
     7
100
AcDbBlockReference
 66
     1
  2
블럭10
 10
-13.94027293212521
 20
-52.04717430164393
 30
0.0
  0
ATTRIB
  5
DC
330
DB
100
AcDbEntity
  8
FORMAT
 62
     2
100
AcDbText
 10
-23.12156822086649
 20
-49.97180738881174
 30
0.0
 40
4.233333333333333
  1
E1005005 [ 2 FLUTE ]
 41
0.75
  7
SLDTEXTSTYLE0
 11
-23.12156822086649
 21
-52.08847405547841
 31
0.0
100
AcDbAttribute
  2
AUTOATTR0
 70
     0
 74
     1
  0
SEQEND
  5
DD
330
DB
100
AcDbEntity
  8
0
  6
Continuous
 62
     7
  0
HATCH
  5
DE
330
1F
100
AcDbEntity
  8
중심선
100
AcDbHatch
 10
0.0
 20
0.0
 30
0.0
210
0.0
220
0.0
230
1.0
  2
SOLID
 70
     1
 71
     0
 91
        1
 92
        0
 93
        4
 72
     1
 10
-8.225363627744372
 20
-35.8
 11
-11.67163887158165
 21
-35.8
 72
     1
 10
-11.67163887158165
 20
-35.8
 11
-13.79986873078568
 21
-38.3363255805726
 72
     1
 10
-13.79986873078568
 20
-38.3363255805726
 11
-10.35356040183525
 21
-38.33628615127011
 72
     1
 10
-10.35356040183525
 20
-38.33628615127011
 11
-8.225363627744372
 21
-35.8
 97
        0
 75
     0
 76
     1
 98
        1
 10
14.99421167873052
 20
-0.0010749287238935
  0
HATCH
  5
DF
330
1F
100
AcDbEntity
  8
중심선
100
AcDbHatch
 10
0.0
 20
0.0
 30
0.0
210
0.0
220
0.0
230
1.0
  2
SOLID
 70
     1
 71
     0
 91
        1
 92
        0
 93
        4
 72
     1
 10
-3.212599636708418
 20
-35.80000000000003
 11
-6.658874880545675
 21
-35.8
 72
     1
 10
-6.658874880545675
 20
-35.8
 11
-11.19001288890309
 21
-41.20000000000002
 72
     1
 10
-11.19001288890309
 20
-41.20000000000002
 11
-7.743737645065806
 21
-41.20000000000002
 72
     1
 10
-7.743737645065806
 20
-41.20000000000002
 11
-3.212599636708418
 21
-35.80000000000003
 97
        0
 75
     0
 76
     1
 98
        1
 10
14.99421167873052
 20
-0.0010749287238935
  0
HATCH
  5
E0
330
1F
100
AcDbEntity
  8
중심선
100
AcDbHatch
 10
0.0
 20
0.0
 30
0.0
210
0.0
220
0.0
230
1.0
  2
SOLID
 70
     1
 71
     0
 91
        1
 92
        0
 93
        4
 72
     1
 10
1.800164354327476
 20
-35.8
 11
-1.646110889509639
 21
-35.8
 72
     1
 10
-1.646110889509639
 20
-35.8
 11
-8.69454779139889
 21
-44.20000000000002
 72
     1
 10
-8.69454779139889
 20
-44.20000000000002
 11
-5.248272547561605
 21
-44.20000000000002
 72
     1
 10
-5.248272547561605
 20
-44.20000000000002
 11
1.800164354327476
 21
-35.8
 97
        0
 75
     0
 76
     1
 98
        1
 10
14.99421167873052
 20
-0.0010749287238935
  0
HATCH
  5
E1
330
1F
100
AcDbEntity
  8
중심선
100
AcDbHatch
 10
0.0
 20
0.0
 30
0.0
210
0.0
220
0.0
230
1.0
  2
SOLID
 70
     1
 71
     0
 91
        1
 92
        0
 93
        6
 72
     3
 10
6.600054785339676
 20
-40.00000000005127
 11
3.960054785062283
 21
1.540882976769353E-10
 40
0.3939339440162628
 50
17.09539180608436
 51
320.0019657685077
 73
     0
 72
     1
 10
8.283054441040242
 20
-38.5878940046383
 11
10.58835631474131
 21
-36.65356729459035
 72
     3
 10
6.600054785286829
 20
-40.00000000000015
 11
6.600054785286829
 21
-1.278976924368180E-13
 40
0.636358354079598
 50
39.99873849337431
 51
368.4976242363724
 73
     1
 72
     1
 10
13.02538727718744
 20
-39.03999999993002
 11
5.280122092122751
 21
-39.03999999993
 72
     1
 10
5.280122092122751
 20
-39.03999999993
 11
5.280097047676817
 21
-40.95999999992991
 72
     1
 10
5.280097047676817
 20
-40.95999999992991
 11
9.721476817148854
 21
-40.95999999992988
 97
        0
 75
     0
 76
     1
 98
        1
 10
14.99421167873052
 20
-0.0010749287238935
  0
DIMENSION
  5
E2
330
1F
100
AcDbEntity
  8
치수문자_일반주서
100
AcDbDimension
  2
_D
 10
-44.74999999999999
 20
-2.381250000000096
 30
0.0
 11
-44.75
 21
0.0000000000000045
 31
0.0
 70
   160
  1
%%c<>
 71
     2
 42
4.762500000000004
 52
-270.0
  3
SLDDIMSTYLE0
100
AcDbAlignedDimension
 13
-19.21594817511138
 23
2.381250000000003
 33
0.0
 14
-19.21594817511138
 24
-2.381250000000001
 34
0.0
 50
90.0000000000002
100
AcDbRotatedDimension
1001
ACAD
1000
DSTYLE
1002
{
1070
   171
1070
     6
1070
   273
1070
     7
1002
}
  0
DIMENSION
  5
F7
330
1F
100
AcDbEntity
  8
치수문자_일반주서
100
AcDbDimension
  2
_D_1
 10
50.75000000000011
 20
0.9921875000000746
 30
0.0
 11
50.75000000000003
 21
25.23492490373376
 31
0.0
 70
   160
  1
%%c<>
 71
     2
 42
1.984375
 52
-270.0
  3
SLDDIMSTYLE0
100
AcDbAlignedDimension
 13
31.75000000000002
 23
-0.992187499999996
 33
0.0
 14
31.75000000000002
 24
0.9921875000000038
 34
0.0
 50
90.0000000000002
100
AcDbRotatedDimension
1001
ACAD
1000
DSTYLE
1002
{
1070
   171
1070
     6
1070
   273
1070
     7
1002
}
  0
DIMENSION
  5
10B
330
1F
100
AcDbEntity
  8
치수문자_일반주서
100
AcDbDimension
  2
_D_2
 10
25.40000000000002
 20
15.57168006099459
 30
0.0
 11
2.280349353939869
 21
15.57168006099459
 31
0.0
 70
   160
  1
<>
 71
     2
 42
6.350000000000001
  3
SLDDIMSTYLE0
100
AcDbAlignedDimension
 13
31.75000000000002
 23
0.9921875000000038
 33
0.0
 14
25.40000000000002
 24
0.6529313334232583
 34
0.0
100
AcDbRotatedDimension
1001
ACAD
1000
DSTYLE
1002
{
1070
   171
1070
     6
1070
   273
1070
     7
1002
}
  0
DIMENSION
  5
120
330
1F
100
AcDbEntity
  8
치수문자_일반주서
100
AcDbDimension
  2
_D_3
 10
31.75000000000002
 20
26.71686989688701
 30
0.0
 11
0.7943240424875526
 21
26.71686989688701
 31
0.0
 70
   160
  1
<>
 71
     2
 42
63.50000000000002
  3
SLDDIMSTYLE0
100
AcDbAlignedDimension
 13
-31.75
 23
0.992187499999996
 33
0.0
 14
31.75000000000002
 24
0.9921875000000038
 34
0.0
100
AcDbRotatedDimension
1001
ACAD
1000
DSTYLE
1002
{
1070
   171
1070
     6
1070
   273
1070
     7
1002
}
  0
LINE
  5
134
330
1F
100
AcDbEntity
  8
참조1
100
AcDbLine
 10
68.51241335422453
 20
7.441074928723896
 30
0.0
 11
68.51241335422453
 21
-7.438925071276109
 31
0.0
  0
LINE
  5
135
330
1F
100
AcDbEntity
  8
참조1
100
AcDbLine
 10
81.21241335422454
 20
5.441074928723896
 30
0.0
 11
68.51241335422453
 21
5.441074928723896
 31
0.0
  0
SOLID
  5
136
330
1F
100
AcDbEntity
  8
참조1
100
AcDbTrace
 10
68.51241335422453
 20
5.441074928723896
 30
0.0
 11
74.86241335422453
 21
4.425074928723896
 31
0.0
 12
74.86241335422453
 22
6.457074928723896
 32
0.0
 13
74.86241335422453
 23
6.457074928723896
 33
0.0
  0
LINE
  5
137
330
1F
100
AcDbEntity
  8
참조1
100
AcDbLine
 10
81.21241335422454
 20
-5.438925071276109
 30
0.0
 11
68.51241335422453
 21
-5.438925071276109
 31
0.0
  0
SOLID
  5
138
330
1F
100
AcDbEntity
  8
참조1
100
AcDbTrace
 10
68.51241335422453
 20
-5.438925071276109
 30
0.0
 11
74.86241335422453
 21
-6.454925071276109
 31
0.0
 12
74.86241335422453
 22
-4.422925071276109
 32
0.0
 13
74.86241335422453
 23
-4.422925071276109
 33
0.0
  0
MTEXT
  5
139
330
1F
100
AcDbEntity
  8
참조1
100
AcDbMText
 10
77.89676348685053
 20
11.01136670591222
 30
0.0
 40
3.5
 41
0.0
 71
     1
 72
     1
  1
A
  7
SLDTEXTSTYLE0
 73
     1
 44
1.0
  0
MTEXT
  5
13A
330
1F
100
AcDbEntity
  8
참조1
100
AcDbMText
 10
77.89676348685053
 20
0.1313667059122192
 30
0.0
 40
3.5
 41
0.0
 71
     1
 72
     1
  1
A
  7
SLDTEXTSTYLE0
 73
     1
 44
1.0
  0
INSERT
  5
141
330
1F
100
AcDbEntity
  8
해칭선
100
AcDbBlockReference
  2
SW_DOWELSYMBOL_0
 10
-0.0000000000000018
 20
0.0
 30
0.0
  0
LINE
  5
3F7
330
1F
100
AcDbEntity
  8
외형선
  6
Continuous
370
    15
100
AcDbLine
 10
-19.21594817511138
 20
2.381250000000003
 30
0.0
 11
-24.40000000000001
 21
0.9921875000000052
 31
0.0
  0
LINE
  5
3F8
330
1F
100
AcDbEntity
  8
외형선
  6
Continuous
370
    15
100
AcDbLine
 10
-24.40000000000001
 20
-0.9921874999999948
 30
0.0
 11
-19.21594817511138
 21
-2.381249999999996
 31
0.0
  0
LINE
  5
3F9
330
1F
100
AcDbEntity
  8
외형선
  6
Continuous
370
    15
100
AcDbLine
 10
-24.59990505760214
 20
-0.9921874999999948
 30
0.0
 11
-24.40000000000001
 21
-0.9921874999999948
 31
0.0
  0
LINE
  5
3FA
330
1F
100
AcDbEntity
  8
외형선
  6
Continuous
370
    15
100
AcDbLine
 10
-24.40000000000001
 20
0.9921875000000052
 30
0.0
 11
-24.59990505760214
 21
0.9921875000000052
 31
0.0
  0
SPLINE
  5
3FB
330
1F
100
AcDbEntity
  8
외형선
  6
Continuous
370
    15
100
AcDbSpline
210
0.0
220
0.0
230
1.0
 70
     8
 71
     3
 72
    15
 73
    11
 74
     0
 42
0.000000001
 43
0.00000001
 40
0.0
 40
0.0
 40
0.0
 40
0.0
 40
0.0004218547599856
 40
0.0665281480655324
 40
0.1913816546962794
 40
0.3440559423490062
 40
0.5494559050886004
 40
0.7537862291852978
 40
0.9748032104702634
 40
1.0
 40
1.0
 40
1.0
 40
1.0
 10
-24.60112553109408
 20
0.977947025475787
 30
0.0
 10
-24.60112790682706
 20
0.9779192669432585
 30
0.0
 10
-24.60150256922239
 20
0.9735416376330955
 30
0.0
 10
-24.60502884306729
 20
0.9474618632807771
 30
0.0
 10
-24.61840952813708
 20
0.8954624041880218
 30
0.0
 10
-24.65354306546084
 20
0.8227074744230708
 30
0.0
 10
-24.71520026829498
 20
0.7499509915213575
 30
0.0
 10
-24.80495957972002
 20
0.6951275906983677
 30
0.0
 10
-24.87882201284398
 20
0.6674498648366533
 30
0.0
 10
-24.91982224171562
 20
0.6706440257545249
 30
0.0
 10
-24.92401808394709
 20
0.6709709067413437
 30
0.0
  0
SPLINE
  5
3FC
330
1F
100
AcDbEntity
  8
외형선
  6
Continuous
370
    15
100
AcDbSpline
210
0.0
220
0.0
230
1.0
 70
     8
 71
     3
 72
    11
 73
     7
 74
     0
 42
0.000000001
 43
0.00000001
 40
0.0
 40
0.0
 40
0.0
 40
0.0
 40
0.3143168671495633
 40
0.4999839305546681
 40
0.6860602680987831
 40
1.0
 40
1.0
 40
1.0
 40
1.0
 10
-25.40000000000001
 20
-0.6529313261337163
 30
0.0
 10
-25.31558067699854
 20
-0.6536842699589781
 30
0.0
 10
-25.18129483573327
 20
-0.6548819779173717
 30
0.0
 10
-24.99743599436363
 20
-0.6639383301216119
 30
0.0
 10
-24.81378428724301
 20
-0.6763640180414702
 30
0.0
 10
-24.67943862907421
 20
-0.6903368056815699
 30
0.0
 10
-24.59508846017988
 20
-0.6991097501401545
 30
0.0
  0
LINE
  5
3FD
330
1F
100
AcDbEntity
  8
외형선
  6
Continuous
370
    15
100
AcDbLine
 10
-24.92431768702949
 20
0.6697827376515572
 30
0.0
 11
-24.98845086327884
 21
0.6658962923574466
 31
0.0
  0
SPLINE
  5
3FE
330
1F
100
AcDbEntity
  8
0
  6
Continuous
 62
     1
370
    25
100
AcDbSpline
210
0.0
220
0.0
230
1.0
 70
     8
 71
     3
 72
     9
 73
     5
 74
     0
 42
0.000000001
 43
0.00000001
 40
0.0
 40
0.0
 40
0.0
 40
0.0
 40
0.4994742241717646
 40
1.0
 40
1.0
 40
1.0
 40
1.0
 10
-29.17780254697618
 20
-0.2546352745461268
 30
0.0
 10
-29.13241557762632
 20
-0.2764420666655935
 30
0.0
 10
-29.04154608496103
 20
-0.3201015611182411
 30
0.0
 10
-28.95063782699486
 20
-0.3679440561489306
 30
0.0
 10
-28.90513590064717
 20
-0.3918904580917283
 30
0.0
  0
LINE
  5
3FF
330
1F
100
AcDbEntity
  8
0
  6
Continuous
 62
     1
370
    25
100
AcDbLine
 10
-26.90244451610448
 20
-0.9921874999999948
 30
0.0
 11
-26.42179282482715
 21
-0.9921874999999948
 31
0.0
  0
SPLINE
  5
400
330
1F
100
AcDbEntity
  8
0
  6
Continuous
 62
     1
370
    25
100
AcDbSpline
210
0.0
220
0.0
230
1.0
 70
     8
 71
     3
 72
     9
 73
     5
 74
     0
 42
0.000000001
 43
0.00000001
 40
0.0
 40
0.0
 40
0.0
 40
0.0
 40
0.886528121075487
 40
1.0
 40
1.0
 40
1.0
 40
1.0
 10
-28.85224412019153
 20
-0.7884312991197949
 30
0.0
 10
-28.60326368218375
 20
-0.7763420087241873
 30
0.0
 10
-28.32241479302982
 20
-0.7627053398941667
 30
0.0
 10
-28.0415572833204
 20
-0.7818951725097049
 30
0.0
 10
-28.00968785398362
 20
-0.7840726788728373
 30
0.0
  0
SPLINE
  5
401
330
1F
100
AcDbEntity
  8
0
  6
Continuous
 62
     1
370
    25
100
AcDbSpline
210
0.0
220
0.0
230
1.0
 70
     8
 71
     3
 72
    10
 73
     6
 74
     0
 42
0.000000001
 43
0.00000001
 40
0.0
 40
0.0
 40
0.0
 40
0.0
 40
0.5271586570598462
 40
0.6653203722632622
 40
0.9999999999999999
 40
0.9999999999999999
 40
0.9999999999999999
 40
0.9999999999999999
 10
-27.35902436653026
 20
0.8256533893396297
 30
0.0
 10
-27.62154969389462
 20
0.8045923873146047
 30
0.0
 10
-27.95287963828889
 20
0.7780115590954945
 30
0.0
 10
-28.45011099854361
 20
0.7728451411660425
 30
0.0
 10
-28.68557877236668
 20
0.7819715665168995
 30
0.0
 10
-28.85224412019153
 20
0.7884312991198018
 30
0.0
  0
SPLINE
  5
402
330
1F
100
AcDbEntity
  8
0
  6
Continuous
 62
     1
370
    25
100
AcDbSpline
210
0.0
220
0.0
230
1.0
 70
     8
 71
     3
 72
    10
 73
     6
 74
     0
 42
0.000000001
 43
0.00000001
 40
0.0
 40
0.0
 40
0.0
 40
0.0
 40
0.5215420831195896
 40
0.9325157386157851
 40
1.0
 40
1.0
 40
1.0
 40
1.0
 10
-29.64911801722855
 20
0.7461954334788227
 30
0.0
 10
-29.77786333273332
 20
0.7277519809218499
 30
0.0
 10
-30.00805958509153
 20
0.694775141007204
 30
0.0
 10
-30.25460873123637
 20
0.672013029935444
 30
0.0
 10
-30.37252683957081
 20
0.6662465199417705
 30
0.0
 10
-30.38915863970209
 20
0.6654331805571391
 30
0.0
  0
SPLINE
  5
403
330
1F
100
AcDbEntity
  8
0
  6
Continuous
 62
     1
370
    25
100
AcDbSpline
210
0.0
220
0.0
230
1.0
 70
     8
 71
     3
 72
     9
 73
     5
 74
     0
 42
0.000000001
 43
0.00000001
 40
0.0
 40
0.0
 40
0.0
 40
0.0
 40
0.4992934921333733
 40
0.9999999999999999
 40
0.9999999999999999
 40
0.9999999999999999
 40
0.9999999999999999
 10
-25.97306127994281
 20
-0.6778159140654073
 30
0.0
 10
-25.87734435437048
 20
-0.6706605966161537
 30
0.0
 10
-25.68563962142201
 20
-0.6563297119521377
 30
0.0
 10
-25.49530285675505
 20
-0.6540651880091756
 30
0.0
 10
-25.40000000000001
 20
-0.6529313261337127
 30
0.0
  0
SPLINE
  5
404
330
1F
100
AcDbEntity
  8
0
  6
Continuous
 62
     1
370
    25
100
AcDbSpline
210
0.0
220
0.0
230
1.0
 70
     8
 71
     3
 72
    14
 73
    10
 74
     0
 42
0.000000001
 43
0.00000001
 40
0.0
 40
0.0
 40
0.0
 40
0.0
 40
0.2065673670379575
 40
0.354544160863248
 40
0.5056283817274545
 40
0.5902520937876422
 40
0.6611257391013848
 40
0.7958712643328405
 40
1.0
 40
1.0
 40
1.0
 40
1.0
 10
-31.37118175471528
 20
-0.6777486912688478
 30
0.0
 10
-31.25292141578035
 20
-0.6693853601672847
 30
0.0
 10
-31.04994398893746
 20
-0.6550308653119591
 30
0.0
 10
-30.75980347711129
 20
-0.6515073581432081
 30
0.0
 10
-30.53907852035653
 20
-0.6564796783399293
 30
0.0
 10
-30.36329865196376
 20
-0.6659788098032938
 30
0.0
 10
-30.19672577497545
 20
-0.6782030230804869
 30
0.0
 10
-29.96163637646072
 20
-0.7004250725480913
 30
0.0
 10
-29.76660167375772
 20
-0.7289891823772426
 30
0.0
 10
-29.64911801722855
 20
-0.7461954334788158
 30
0.0
  0
LINE
  5
405
330
1F
100
AcDbEntity
  8
0
  6
Continuous
 62
     1
370
    25
100
AcDbLine
 10
-26.42129039268241
 20
0.9921875000000052
 30
0.0
 11
-26.90244451610448
 21
0.9921875000000052
 31
0.0
  0
LINE
  5
406
330
1F
100
AcDbEntity
  8
외형선
  6
Continuous
370
    15
100
AcDbLine
 10
-19.21594817511138
 20
-2.381249999999996
 30
0.0
 11
-19.21594817511138
 21
2.381250000000007
 31
0.0
  0
LINE
  5
407
330
1F
100
AcDbEntity
  8
외형선
  6
Continuous
370
    15
100
AcDbLine
 10
-24.40000000000001
 20
-0.9921874999999948
 30
0.0
 11
-24.40000000000001
 21
0.9921875000000052
 31
0.0
  0
ELLIPSE
  5
408
330
1F
100
AcDbEntity
  8
외형선
  6
Continuous
370
    15
100
AcDbEllipse
 10
-24.59992802820204
 20
0.0000000000000052
 30
0.0
 11
2.297059993582379E-5
 21
-0.9921875
 31
0.0
210
0.0
220
0.0
230
1.0
 40
0.0000321708351967
 41
5.501811554404501
 42
8.084998537525458
  0
LINE
  5
409
330
1F
100
AcDbEntity
  8
외형선
  6
Continuous
370
    15
100
AcDbLine
 10
-24.59990571070148
 20
-0.6936827560651954
 30
0.0
 11
-24.59989899015272
 21
-0.675851752658181
 31
0.0
  0
SPLINE
  5
40A
330
1F
100
AcDbEntity
  8
외형선
  6
Continuous
370
    15
100
AcDbSpline
210
0.0
220
0.0
230
1.0
 70
    24
 71
     3
 72
    10
 73
     6
 74
     0
 42
0.000000001
 43
0.00000001
 40
0.0
 40
0.0
 40
0.0
 40
0.0
 40
0.5
 40
0.5
 40
1.0
 40
1.0
 40
1.0
 40
1.0
 10
-24.59992346981699
 20
-0.6758534913709316
 30
0.0
 10
-24.59992346981699
 20
-0.5810767304267036
 30
0.0
 10
-24.59992346981699
 20
-0.4551864525319848
 30
0.0
 10
-24.59992346981699
 20
-0.1688434359997385
 30
0.0
 10
-24.59992346981699
 20
-0.0096232296447047
 30
0.0
 10
-24.59992346981699
 20
0.1433236880959593
 30
0.0
  0
SPLINE
  5
40B
330
1F
100
AcDbEntity
  8
외형선
  6
Continuous
370
    15
100
AcDbSpline
210
0.0
220
0.0
230
1.0
 70
    24
 71
     3
 72
     8
 73
     4
 74
     0
 42
0.000000001
 43
0.00000001
 40
0.0
 40
0.0
 40
0.0
 40
0.0
 40
1.0
 40
1.0
 40
1.0
 40
1.0
 10
-24.5998865518016
 20
0.1433059364933785
 30
0.0
 10
-24.5998865518016
 20
0.1675407212172731
 30
0.0
 10
-24.5998865518016
 20
0.1956736197015213
 30
0.0
 10
-24.5998865518016
 20
0.2272151224880029
 30
0.0
  0
SPLINE
  5
40C
330
1F
100
AcDbEntity
  8
외형선
  6
Continuous
370
    15
100
AcDbSpline
210
0.0
220
0.0
230
1.0
 70
     8
 71
     3
 72
    10
 73
     6
 74
     0
 42
0.000000001
 43
0.00000001
 40
0.0
 40
0.0
 40
0.0
 40
0.0
 40
0.2016526315859424
 40
0.5833879200242065
 40
1.0
 40
1.0
 40
1.0
 40
1.0
 10
-24.98669469329835
 20
-0.6651401608680328
 30
0.0
 10
-25.0144009661785
 20
-0.6772282459656457
 30
0.0
 10
-25.09455615572423
 20
-0.7121994871872898
 30
0.0
 10
-25.23236110265722
 20
-0.7654793609735241
 30
0.0
 10
-25.34251627920639
 20
-0.8024855851396834
 30
0.0
 10
-25.40000000000001
 20
-0.8217970285437507
 30
0.0
  0
SPLINE
  5
40D
330
1F
100
AcDbEntity
  8
외형선
  6
Continuous
370
    15
100
AcDbSpline
210
0.0
220
0.0
230
1.0
 70
     8
 71
     3
 72
    10
 73
     6
 74
     0
 42
0.000000001
 43
0.00000001
 40
0.0
 40
0.0
 40
0.0
 40
0.0
 40
0.5
 40
0.5
 40
1.0
 40
1.0
 40
1.0
 40
1.0
 10
-25.40000000000001
 20
0.6362898013861144
 30
0.0
 10
-25.26567598697989
 20
0.5771294958720626
 30
0.0
 10
-25.13061521745755
 20
0.5120348282303392
 30
0.0
 10
-24.86935113877371
 20
0.3753791925469921
 30
0.0
 10
-24.73419833741917
 20
0.3022716710343668
 30
0.0
 10
-24.5998865518016
 20
0.2272201153434049
 30
0.0
  0
LINE
  5
40E
330
1F
100
AcDbEntity
  8
외형선
  6
Continuous
370
    15
100
AcDbLine
 10
-25.40000000000001
 20
0.6362898013861108
 30
0.0
 11
-25.40000000000001
 21
0.821797028543754
 31
0.0
  0
SPLINE
  5
40F
330
1F
100
AcDbEntity
  8
외형선
  6
Continuous
370
    15
100
AcDbSpline
210
0.0
220
0.0
230
1.0
 70
     8
 71
     3
 72
    10
 73
     6
 74
     0
 42
0.000000001
 43
0.00000001
 40
0.0
 40
0.0
 40
0.0
 40
0.0
 40
0.5
 40
0.5
 40
1.0
 40
1.0
 40
1.0
 40
1.0
 10
-24.59994467353565
 20
0.4851523954616804
 30
0.0
 10
-24.73424702319116
 20
0.5524023449024166
 30
0.0
 10
-24.86938946931699
 20
0.6153268177979266
 30
0.0
 10
-25.13063341609148
 20
0.7277871580716794
 30
0.0
 10
-25.26568567480774
 20
0.7785968957857657
 30
0.0
 10
-25.39999999999924
 20
0.8217970285435089
 30
0.0
  0
ELLIPSE
  5
410
330
1F
100
AcDbEntity
  8
외형선
  6
Continuous
370
    15
100
AcDbEllipse
 10
-24.59992802820204
 20
0.0000000000000052
 30
0.0
 11
-2.297059993606681E-5
 21
-0.9921875
 31
0.0
210
0.0
220
0.0
230
1.0
 40
0.0000321708351967
 41
3.126136211980311
 42
4.201819186872975
  0
SPLINE
  5
411
330
1F
100
AcDbEntity
  8
외형선
  6
Continuous
370
    15
100
AcDbSpline
210
0.0
220
0.0
230
1.0
 70
    24
 71
     3
 72
     8
 73
     4
 74
     0
 42
0.000000001
 43
0.00000001
 40
0.0
 40
0.0
 40
0.0
 40
0.0
 40
1.0
 40
1.0
 40
1.0
 40
1.0
 10
-25.40000000000001
 20
0.5008610088763613
 30
0.0
 10
-25.40000000000001
 20
0.5435578049909305
 30
0.0
 10
-25.40000000000001
 20
0.5889800165479943
 30
0.0
 10
-25.40000000000001
 20
0.6362898013860468
 30
0.0
  0
SPLINE
  5
412
330
1F
100
AcDbEntity
  8
외형선
  6
Continuous
370
    15
100
AcDbSpline
210
0.0
220
0.0
230
1.0
 70
     8
 71
     3
 72
    10
 73
     6
 74
     0
 42
0.000000001
 43
0.00000001
 40
0.0
 40
0.0
 40
0.0
 40
0.0
 40
0.5
 40
0.5
 40
1.0
 40
1.0
 40
1.0
 40
1.0
 10
-25.40000000000001
 20
0.5008610088763613
 30
0.0
 10
-25.26567598697989
 20
0.4481329900215821
 30
0.0
 10
-25.13061521745755
 20
0.3907236763035672
 30
0.0
 10
-24.86935113877371
 20
0.2712771734530309
 30
0.0
 10
-24.73419833741917
 20
0.2078883564626162
 30
0.0
 10
-24.5998865518016
 20
0.1433059364933785
 30
0.0
  0
SPLINE
  5
413
330
1F
100
AcDbEntity
  8
외형선
  6
Continuous
370
    15
100
AcDbSpline
210
0.0
220
0.0
230
1.0
 70
    24
 71
     3
 72
    10
 73
     6
 74
     0
 42
0.000000001
 43
0.00000001
 40
0.0
 40
0.0
 40
0.0
 40
0.0
 40
0.5
 40
0.5
 40
1.0
 40
1.0
 40
1.0
 40
1.0
 10
-25.40000000000003
 20
-0.4173636419930934
 30
0.0
 10
-25.40000000000003
 20
-0.2787610338757621
 30
0.0
 10
-25.40000000000003
 20
-0.1191042296165766
 30
0.0
 10
-25.40000000000003
 20
0.201860786224488
 30
0.0
 10
-25.40000000000003
 20
0.361787438904157
 30
0.0
 10
-25.40000000000003
 20
0.5008610088763649
 30
0.0
  0
SPLINE
  5
414
330
1F
100
AcDbEntity
  8
외형선
  6
Continuous
370
    15
100
AcDbSpline
210
0.0
220
0.0
230
1.0
 70
     8
 71
     3
 72
    10
 73
     6
 74
     0
 42
0.000000001
 43
0.00000001
 40
0.0
 40
0.0
 40
0.0
 40
0.0
 40
0.5
 40
0.5
 40
1.0
 40
1.0
 40
1.0
 40
1.0
 10
-25.39999999999952
 20
-0.4173636419932923
 30
0.0
 10
-25.26568214053856
 20
-0.4698282524435716
 30
0.0
 10
-25.13062677696018
 20
-0.5185490930260866
 30
0.0
 10
-24.86937548576384
 20
-0.6049022032717223
 30
0.0
 10
-24.73422926188772
 20
-0.6435094247139671
 30
0.0
 10
-24.59992346981699
 20
-0.6758534913709316
 30
0.0
  0
SPLINE
  5
415
330
1F
100
AcDbEntity
  8
외형선
  6
Continuous
370
    15
100
AcDbSpline
210
0.0
220
0.0
230
1.0
 70
    24
 71
     3
 72
    10
 73
     6
 74
     0
 42
0.000000001
 43
0.00000001
 40
0.0
 40
0.0
 40
0.0
 40
0.0
 40
0.5
 40
0.5
 40
1.0
 40
1.0
 40
1.0
 40
1.0
 10
-25.40000000000001
 20
-0.652929635722968
 30
0.0
 10
-25.40000000000001
 20
-0.6531471094283267
 30
0.0
 10
-25.40000000000001
 20
-0.6318704787138093
 30
0.0
 10
-25.40000000000001
 20
-0.5499834818360886
 30
0.0
 10
-25.40000000000001
 20
-0.4896166559216174
 30
0.0
 10
-25.40000000000001
 20
-0.4173636419930934
 30
0.0
  0
SPLINE
  5
416
330
1F
100
AcDbEntity
  8
외형선
  6
Continuous
370
    15
100
AcDbSpline
210
0.0
220
0.0
230
1.0
 70
    24
 71
     3
 72
     9
 73
     5
 74
     0
 42
0.000000001
 43
0.00000001
 40
0.0
 40
0.0
 40
0.0
 40
0.0
 40
0.4791608060552042
 40
1.0
 40
1.0
 40
1.0
 40
1.0
 10
-25.40000000000001
 20
0.6375498555489275
 30
0.0
 10
-25.40000000000001
 20
0.6418675573447014
 30
0.0
 10
-25.40000000000001
 20
0.6508785234780151
 30
0.0
 10
-25.40000000000001
 20
0.6522271948254693
 30
0.0
 10
-25.40000000000001
 20
0.6529296357229749
 30
0.0
  0
SPLINE
  5
417
330
1F
100
AcDbEntity
  8
외형선
  6
Continuous
370
    15
100
AcDbSpline
210
0.0
220
0.0
230
1.0
 70
    24
 71
     3
 72
    11
 73
     7
 74
     0
 42
0.000000001
 43
0.00000001
 40
0.0
 40
0.0
 40
0.0
 40
0.0
 40
0.1259686251845952
 40
0.4515385391654937
 40
0.7865500027072466
 40
1.0
 40
1.0
 40
1.0
 40
1.0
 10
-25.40000000000001
 20
-0.8217970285437507
 30
0.0
 10
-25.40000000000001
 20
-0.8137295831173096
 30
0.0
 10
-25.40000000000001
 20
-0.784811568672728
 30
0.0
 10
-25.40000000000003
 20
-0.7371296832934943
 30
0.0
 10
-25.39999999999998
 20
-0.6878458188781221
 30
0.0
 10
-25.39999999999998
 20
-0.662712644293821
 30
0.0
 10
-25.40000000000001
 20
-0.6529313261337127
 30
0.0
  0
SPLINE
  5
418
330
1F
100
AcDbEntity
  8
0
  6
Continuous
 62
     1
370
    25
100
AcDbSpline
210
0.0
220
0.0
230
1.0
 70
     8
 71
     3
 72
    16
 73
    12
 74
     0
 42
0.000000001
 43
0.00000001
 40
0.0
 40
0.0
 40
0.0
 40
0.0
 40
0.1224523489454022
 40
0.2447546909327027
 40
0.366954327285122
 40
0.4890996657610236
 40
0.6112397028677423
 40
0.7334234927360389
 40
0.8487685656192562
 40
0.9643582258374913
 40
1.0
 40
1.0
 40
1.0
 40
1.0
 10
-31.75
 20
0.9415272686910309
 30
0.0
 10
-31.55206486219248
 20
0.8946433795086842
 30
0.0
 10
-31.15643706169669
 20
0.8009330349920222
 30
0.0
 10
-30.56347768419994
 20
0.5361831082612748
 30
0.0
 10
-29.97110161050688
 20
0.2163696672214338
 30
0.0
 10
-29.37904070511311
 20
-0.1311453105814683
 30
0.0
 10
-28.78702277965212
 20
-0.4620604582811244
 30
0.0
 10
-28.20590059489012
 20
-0.7356850850920847
 30
0.0
 10
-27.63544985441337
 20
-0.9149052555020295
 30
0.0
 10
-27.20438810293317
 20
-0.997610671298622
 30
0.0
 10
-26.96003332305793
 20
-0.9841817193200467
 30
0.0
 10
-26.90244451610448
 20
-0.9810168239025058
 30
0.0
  0
SPLINE
  5
419
330
1F
100
AcDbEntity
  8
0
  6
Continuous
 62
     1
370
    25
100
AcDbSpline
210
0.0
220
0.0
230
1.0
 70
     8
 71
     3
 72
    13
 73
     9
 74
     0
 42
0.000000001
 43
0.00000001
 40
0.0
 40
0.0
 40
0.0
 40
0.0
 40
0.1729321471916662
 40
0.3448873776255596
 40
0.5178961761995959
 40
0.690750077587218
 40
0.862708634585286
 40
1.0
 40
1.0
 40
1.0
 40
1.0
 10
-31.75
 20
0.7828084185528413
 30
0.0
 10
-31.60069232073488
 20
0.7505300729351471
 30
0.0
 10
-31.30292042119299
 20
0.6861557263780521
 30
0.0
 10
-30.85654658563527
 20
0.5282885690499785
 30
0.0
 10
-30.40940981990073
 20
0.3397246179344701
 30
0.0
 10
-29.96238705197953
 20
0.1277691877677308
 30
0.0
 10
-29.546867271076
 20
-0.0803976204356564
 30
0.0
 10
-29.27983490679335
 20
-0.205816747206777
 30
0.0
 10
-29.1612860075204
 20
-0.2614965127154837
 30
0.0
  0
LINE
  5
41A
330
1F
100
AcDbEntity
  8
0
  6
Continuous
 62
     1
370
    25
100
AcDbLine
 10
-31.74999999999997
 20
0.9415272686910309
 30
0.0
 11
-31.75
 21
0.7828084185528413
 31
0.0
  0
SPLINE
  5
41B
330
1F
100
AcDbEntity
  8
0
  6
Continuous
 62
     1
370
    25
100
AcDbSpline
210
0.0
220
0.0
230
1.0
 70
     8
 71
     3
 72
    38
 73
    34
 74
     0
 42
0.000000001
 43
0.00000001
 40
0.0
 40
0.0
 40
0.0
 40
0.0
 40
0.0624999999999999
 40
0.0624999999999999
 40
0.1249999999999998
 40
0.1249999999999998
 40
0.1874999999999998
 40
0.1874999999999998
 40
0.2499999999999997
 40
0.2499999999999997
 40
0.3124999999999997
 40
0.3124999999999997
 40
0.3749999999999996
 40
0.3749999999999996
 40
0.4374999999999996
 40
0.4374999999999996
 40
0.4999999999999996
 40
0.4999999999999996
 40
0.5624999999999996
 40
0.5624999999999996
 40
0.6249999999999997
 40
0.6249999999999997
 40
0.6874999999999998
 40
0.6874999999999998
 40
0.7499999999999998
 40
0.7499999999999998
 40
0.8124999999999998
 40
0.8124999999999998
 40
0.8749999999999999
 40
0.8749999999999999
 40
0.9375
 40
0.9375
 40
1.0
 40
1.0
 40
1.0
 40
1.0
 10
-25.39999999999927
 20
-0.8217970285433599
 30
0.0
 10
-25.53346157085787
 20
-0.8647228860118671
 30
0.0
 10
-25.66312821533688
 20
-0.8999328562797207
 30
0.0
 10
-25.92709789014225
 20
-0.9543031742735782
 30
0.0
 10
-26.06200651331014
 20
-0.973345905442253
 30
0.0
 10
-26.32698846016507
 20
-0.9935739946520191
 30
0.0
 10
-26.45603343004063
 20
-0.9949223688121355
 30
0.0
 10
-26.72254726811897
 20
-0.9799668858990264
 30
0.0
 10
-26.85711575162824
 20
-0.9635286179993604
 30
0.0
 10
-27.11827999643134
 20
-0.9143730849482613
 30
0.0
 10
-27.25061036076096
 20
-0.8813654633321965
 30
0.0
 10
-27.51775530958767
 20
-0.7999639512709767
 30
0.0
 10
-27.64850982301218
 20
-0.7520426195208519
 30
0.0
 10
-27.91120254418777
 20
-0.6437107844818418
 30
0.0
 10
-28.04600138284604
 20
-0.582819008600021
 30
0.0
 10
-28.31184925934195
 20
-0.4522745855410816
 30
0.0
 10
-28.44066607112919
 20
-0.3831005478458868
 30
0.0
 10
-28.7065352711715
 20
-0.2377690122540896
 30
0.0
 10
-28.84132937508318
 20
-0.161970582664429
 30
0.0
 10
-29.10398304563427
 20
-0.010148880687611
 30
0.0
 10
-29.23477463720317
 20
0.0664245415021564
 30
0.0
 10
-29.50192267353839
 20
0.2180996955845468
 30
0.0
 10
-29.63420363724259
 20
0.2924013300592366
 30
0.0
 10
-29.89541271050882
 20
0.433961560637412
 30
0.0
 10
-30.02998910044829
 20
0.5022069359147475
 30
0.0
 10
-30.29648771586892
 20
0.628072622220161
 30
0.0
 10
-30.42552016501313
 20
0.6853343005524638
 30
0.0
 10
-30.6905294784589
 20
0.7877467063574225
 30
0.0
 10
-30.8254365519137
 20
0.832612710993354
 30
0.0
 10
-31.08937305831319
 20
0.9061685677982022
 30
0.0
 10
-31.21906435890097
 20
0.9350653454038972
 30
0.0
 10
-31.48599675471871
 20
0.9762559542405266
 30
0.0
 10
-31.62023865829789
 20
0.9882291980620134
 30
0.0
 10
-31.75
 20
0.992187499999996
 30
0.0
  0
SPLINE
  5
41C
330
1F
100
AcDbEntity
  8
0
  6
Continuous
 62
     1
370
    25
100
AcDbSpline
210
0.0
220
0.0
230
1.0
 70
     8
 71
     3
 72
    13
 73
     9
 74
     0
 42
0.000000001
 43
0.00000001
 40
0.0
 40
0.0
 40
0.0
 40
0.0
 40
0.1549245773342968
 40
0.3346066325444406
 40
0.5144089107589546
 40
0.6943993499225984
 40
0.874581512915829
 40
0.9999999999999999
 40
0.9999999999999999
 40
0.9999999999999999
 40
0.9999999999999999
 10
-29.28479530304543
 20
0.0941411799506485
 30
0.0
 10
-29.11372979272448
 20
0.0248653123133645
 30
0.0
 10
-28.74426191785352
 20
-0.1247569437905637
 30
0.0
 10
-28.17624555006159
 20
-0.3454881155921773
 30
0.0
 10
-27.58050230305176
 20
-0.5354194331652044
 30
0.0
 10
-26.98417058518149
 20
-0.6598741123368069
 30
0.0
 10
-26.44772669208243
 20
-0.7078026527592184
 30
0.0
 10
-26.11031967328111
 20
-0.6837873031328973
 30
0.0
 10
-25.97184785452379
 20
-0.6739314051949582
 30
0.0
  0
SPLINE
  5
41D
330
1F
100
AcDbEntity
  8
외형선
  6
Continuous
370
    15
100
AcDbSpline
210
0.0
220
0.0
230
1.0
 70
    24
 71
     3
 72
    11
 73
     7
 74
     0
 42
0.000000001
 43
0.00000001
 40
0.0
 40
0.0
 40
0.0
 40
0.0
 40
0.1259686251727037
 40
0.4515385391474139
 40
0.7865500026824225
 40
1.0
 40
1.0
 40
1.0
 40
1.0
 10
-25.40000000000001
 20
-0.8217970285437507
 30
0.0
 10
-25.40000000000001
 20
-0.8137295831180663
 30
0.0
 10
-25.40000000000001
 20
-0.7848115686746252
 30
0.0
 10
-25.40000000000003
 20
-0.7371296832966953
 30
0.0
 10
-25.39999999999998
 20
-0.6878458188803639
 30
0.0
 10
-25.39999999999998
 20
-0.6627126442950361
 30
0.0
 10
-25.40000000000001
 20
-0.6529313261337127
 30
0.0
  0
LINE
  5
41E
330
1F
100
AcDbEntity
  8
0
  6
Continuous
 62
     1
370
    25
100
AcDbLine
 10
-31.75
 20
0.992187499999996
 30
0.0
 11
-31.75
 21
0.9415272686910273
 31
0.0
  0
SPLINE
  5
41F
330
1F
100
AcDbEntity
  8
0
  6
Continuous
 62
     1
370
    25
100
AcDbSpline
210
0.0
220
0.0
230
1.0
 70
     8
 71
     3
 72
     8
 73
     4
 74
     0
 42
0.000000001
 43
0.00000001
 40
0.0
 40
0.0
 40
0.0
 40
0.0
 40
1.0
 40
1.0
 40
1.0
 40
1.0
 10
-31.1364564800337
 20
-0.2771455591120021
 30
0.0
 10
-31.10107854129512
 20
-0.3190069411483681
 30
0.0
 10
-31.06944619039177
 20
-0.3593360420153663
 30
0.0
 10
-31.04254979534005
 20
-0.3977277124202258
 30
0.0
  0
LINE
  5
420
330
1F
100
AcDbEntity
  8
0
  6
Continuous
 62
     1
370
    25
100
AcDbLine
 10
-31.05511798808647
 20
-0.4082736783272783
 30
0.0
 11
-31.75
 21
0.0000000000000016
 31
0.0
  0
LINE
  5
421
330
1F
100
AcDbEntity
  8
0
  6
Continuous
 62
     1
370
    25
100
AcDbLine
 10
-31.75
 20
0.0000000000000016
 30
0.0
 11
-31.75
 21
0.26515511051379
 31
0.0
  0
SPLINE
  5
422
330
1F
100
AcDbEntity
  8
0
  6
Continuous
 62
     1
370
    25
100
AcDbSpline
210
0.0
220
0.0
230
1.0
 70
     8
 71
     3
 72
    10
 73
     6
 74
     0
 42
0.000000001
 43
0.00000001
 40
0.0
 40
0.0
 40
0.0
 40
0.0
 40
0.5
 40
0.5
 40
1.0
 40
1.0
 40
1.0
 40
1.0
 10
-31.75
 20
0.26515511051379
 30
0.0
 10
-31.64379960073018
 20
0.1816611239832094
 30
0.0
 10
-31.53937334291146
 20
0.094742986222533
 30
0.0
 10
-31.33414771734931
 20
-0.0860933061830719
 30
0.0
 10
-31.23238182579837
 20
-0.1809588001028379
 30
0.0
 10
-31.13645648003285
 20
-0.277145559109874
 30
0.0
  0
SPLINE
  5
423
330
1F
100
AcDbEntity
  8
0
  6
Continuous
 62
     1
370
    25
100
AcDbSpline
210
0.0
220
0.0
230
1.0
 70
     8
 71
     3
 72
    13
 73
     9
 74
     0
 42
0.000000001
 43
0.00000001
 40
0.0
 40
0.0
 40
0.0
 40
0.0
 40
0.1222582222199682
 40
0.3182112187379061
 40
0.51398620282663
 40
0.7087330052484321
 40
0.9047667341136129
 40
1.0
 40
1.0
 40
1.0
 40
1.0
 10
-31.1364564800337
 20
-0.2771455591119986
 30
0.0
 10
-31.04343821758926
 20
-0.3169042626658706
 30
0.0
 10
-30.80133217253263
 20
-0.4203874091045084
 30
0.0
 10
-30.40939962316898
 20
-0.5641736460473955
 30
0.0
 10
-29.96242207851566
 20
-0.6926414148664418
 30
0.0
 10
-29.51601124239858
 20
-0.7718901662687846
 30
0.0
 10
-29.14540014715914
 20
-0.8029091108078054
 30
0.0
 10
-28.92347935072891
 20
-0.7869774912110491
 30
0.0
 10
-28.85091966290648
 20
-0.7817684555413767
 30
0.0
  0
SPLINE
  5
424
330
1F
100
AcDbEntity
  8
0
  6
Continuous
 62
     1
370
    25
100
AcDbSpline
210
0.0
220
0.0
230
1.0
 70
    24
 71
     3
 72
    10
 73
     6
 74
     0
 42
0.000000001
 43
0.00000001
 40
0.0
 40
0.0
 40
0.0
 40
0.0
 40
0.5
 40
0.5
 40
1.0
 40
1.0
 40
1.0
 40
1.0
 10
-31.75
 20
0.7828084185528413
 30
0.0
 10
-31.75
 20
0.7228000500272155
 30
0.0
 10
-31.75
 20
0.6469771754384527
 30
0.0
 10
-31.75
 20
0.4706962891573186
 30
0.0
 10
-31.75
 20
0.3703909786524749
 30
0.0
 10
-31.75
 20
0.265155110513822
 30
0.0
  0
SPLINE
  5
425
330
1F
100
AcDbEntity
  8
0
  6
Continuous
 62
     1
370
    25
100
AcDbSpline
210
0.0
220
0.0
230
1.0
 70
     8
 71
     3
 72
    13
 73
     9
 74
     0
 42
0.000000001
 43
0.00000001
 40
0.0
 40
0.0
 40
0.0
 40
0.0
 40
0.0401542528944375
 40
0.2673270410451735
 40
0.4961182004912315
 40
0.7241671284188487
 40
0.9513574877651769
 40
1.0
 40
1.0
 40
1.0
 40
1.0
 10
-27.35950060616275
 20
0.8215730126023376
 30
0.0
 10
-27.33326611627143
 20
0.8254616252320924
 30
0.0
 10
-27.15860993291727
 20
0.8513500737313374
 30
0.0
 10
-26.83498491299471
 20
0.8454764235577751
 30
0.0
 10
-26.38767165219107
 20
0.7991984902052048
 30
0.0
 10
-25.94081182818911
 20
0.6941537197904405
 30
0.0
 10
-25.61204620113853
 20
0.5831036859848114
 30
0.0
 10
-25.4317881122812
 20
0.5131901118746408
 30
0.0
 10
-25.40000000000001
 20
0.5008610088763613
 30
0.0
  0
SPLINE
  5
426
330
1F
100
AcDbEntity
  8
0
  6
Continuous
 62
     1
370
    25
100
AcDbSpline
210
0.0
220
0.0
230
1.0
 70
     8
 71
     3
 72
    18
 73
    14
 74
     0
 42
0.000000001
 43
0.00000001
 40
0.0
 40
0.0
 40
0.0
 40
0.0
 40
0.0316381665299249
 40
0.1370322908767351
 40
0.2422409427207506
 40
0.3469472874435904
 40
0.4523808544942133
 40
0.557545132448696
 40
0.6622576474672135
 40
0.7677266897851716
 40
0.8728485887527447
 40
0.9775693295388675
 40
1.0
 40
1.0
 40
1.0
 40
1.0
 10
-29.65128262034511
 20
0.740572729979254
 30
0.0
 10
-29.60647577147557
 20
0.74916901252144
 30
0.0
 10
-29.41240684078232
 20
0.7864015205640821
 30
0.0
 10
-29.06883741266694
 20
0.8003622433051784
 30
0.0
 10
-28.62189996331654
 20
0.7786726062204908
 30
0.0
 10
-28.17547499738941
 20
0.7004007265439521
 30
0.0
 10
-27.72827931690705
 20
0.5768202591497146
 30
0.0
 10
-27.28137916768617
 20
0.4140297375112051
 30
0.0
 10
-26.83495253751556
 20
0.2223450571313331
 30
0.0
 10
-26.38771981873023
 20
0.017398614224179
 30
0.0
 10
-25.94085632295514
 20
-0.189227807721272
 30
0.0
 10
-25.61205315846681
 20
-0.3335852466884416
 30
0.0
 10
-25.43179855811263
 20
-0.4048006026545697
 30
0.0
 10
-25.40000000000001
 20
-0.4173636419930934
 30
0.0
  0
SPLINE
  5
427
330
1F
100
AcDbEntity
  8
외형선
  6
Continuous
370
    15
100
AcDbSpline
210
0.0
220
0.0
230
1.0
 70
    24
 71
     3
 72
    10
 73
     6
 74
     0
 42
0.000000001
 43
0.00000001
 40
0.0
 40
0.0
 40
0.0
 40
0.0
 40
0.5
 40
0.5
 40
1.0
 40
1.0
 40
1.0
 40
1.0
 10
-25.40000000000003
 20
-0.4173636419930934
 30
0.0
 10
-25.40000000000003
 20
-0.2787610338757621
 30
0.0
 10
-25.40000000000003
 20
-0.1191042296165766
 30
0.0
 10
-25.40000000000003
 20
0.201860786224488
 30
0.0
 10
-25.40000000000003
 20
0.361787438904157
 30
0.0
 10
-25.40000000000003
 20
0.5008610088763649
 30
0.0
  0
SPLINE
  5
428
330
1F
100
AcDbEntity
  8
외형선
  6
Continuous
370
    15
100
AcDbSpline
210
0.0
220
0.0
230
1.0
 70
    24
 71
     3
 72
    11
 73
     7
 74
     0
 42
0.000000001
 43
0.00000001
 40
0.0
 40
0.0
 40
0.0
 40
0.0
 40
0.2467938560946135
 40
0.5020069018277632
 40
0.7475188241373544
 40
1.0
 40
1.0
 40
1.0
 40
1.0
 10
-25.40000000000001
 20
-0.6528567758838745
 30
0.0
 10
-25.40000000000001
 20
-0.6500811034887787
 30
0.0
 10
-25.40000000000001
 20
-0.6444350686903438
 30
0.0
 10
-25.40000000000001
 20
-0.5970107321084638
 30
0.0
 10
-25.40000000000001
 20
-0.5240244999266236
 30
0.0
 10
-25.40000000000001
 20
-0.4532474287680747
 30
0.0
 10
-25.40000000000001
 20
-0.4173636419930934
 30
0.0
  0
SPLINE
  5
429
330
1F
100
AcDbEntity
  8
0
  6
Continuous
 62
     1
370
    25
100
AcDbSpline
210
0.0
220
0.0
230
1.0
 70
    24
 71
     3
 72
     8
 73
     4
 74
     0
 42
0.000000001
 43
0.00000001
 40
0.0
 40
0.0
 40
0.0
 40
0.0
 40
1.0
 40
1.0
 40
1.0
 40
1.0
 10
-31.14591123438481
 20
-0.4844582578096085
 30
0.0
 10
-31.11315221982471
 20
-0.4569701807744925
 30
0.0
 10
-31.07859892796102
 20
-0.427976526315705
 30
0.0
 10
-31.04254979533607
 20
-0.3977277124258604
 30
0.0
  0
LINE
  5
42A
330
1F
100
AcDbEntity
  8
0
  6
Continuous
 62
     1
370
    25
100
AcDbLine
 10
-31.75
 20
-0.694531249999999
 30
0.0
 11
-31.36876949638787
 21
-0.6681056928219943
 31
0.0
  0
SPLINE
  5
42B
330
1F
100
AcDbEntity
  8
0
  6
Continuous
 62
     1
370
    25
100
AcDbSpline
210
0.0
220
0.0
230
1.0
 70
     8
 71
     3
 72
     8
 73
     4
 74
     0
 42
0.000000001
 43
0.00000001
 40
0.0
 40
0.0
 40
0.0
 40
0.0
 40
1.0
 40
1.0
 40
1.0
 40
1.0
 10
-31.75
 20
-0.694531249999999
 30
0.0
 10
-31.54584217823384
 20
-0.6389920726168744
 30
0.0
 10
-31.3436305335531
 20
-0.5708998726238282
 30
0.0
 10
-31.14591123439374
 20
-0.484458257812948
 30
0.0
  0
SPLINE
  5
42C
330
1F
100
AcDbEntity
  8
0
  6
Continuous
 62
     1
370
    25
100
AcDbSpline
210
0.0
220
0.0
230
1.0
 70
     8
 71
     3
 72
    12
 73
     8
 74
     0
 42
0.000000001
 43
0.00000001
 40
0.0
 40
0.0
 40
0.0
 40
0.0
 40
0.1415306111883758
 40
0.3566584960675756
 40
0.5713980615920364
 40
0.7857604178471047
 40
0.9999999999999999
 40
0.9999999999999999
 40
0.9999999999999999
 40
0.9999999999999999
 10
-28.00436937532976
 20
0.7857700977664183
 30
0.0
 10
-27.88151100375401
 20
0.8284395076269265
 30
0.0
 10
-27.57190673039159
 20
0.9359668292512583
 30
0.0
 10
-27.07549353928164
 20
1.002801104175018
 30
0.0
 10
-26.51619740534446
 20
0.9842853489740174
 30
0.0
 10
-25.95785663438616
 20
0.8640210712771131
 30
0.0
 10
-25.58591669708557
 20
0.7121857268111479
 30
0.0
 10
-25.40000000000003
 20
0.6362898013861286
 30
0.0
  0
SPLINE
  5
42D
330
1F
100
AcDbEntity
  8
외형선
  6
Continuous
370
    15
100
AcDbSpline
210
0.0
220
0.0
230
1.0
 70
    24
 71
     3
 72
     8
 73
     4
 74
     0
 42
0.000000001
 43
0.00000001
 40
0.0
 40
0.0
 40
0.0
 40
0.0
 40
1.0
 40
1.0
 40
1.0
 40
1.0
 10
-25.40000000000001
 20
0.5008610088763613
 30
0.0
 10
-25.40000000000001
 20
0.5435578049909305
 30
0.0
 10
-25.40000000000001
 20
0.5889800165479943
 30
0.0
 10
-25.40000000000001
 20
0.6362898013860468
 30
0.0
  0
SPLINE
  5
42E
330
1F
100
AcDbEntity
  8
0
  6
Continuous
 62
     1
370
    25
100
AcDbSpline
210
0.0
220
0.0
230
1.0
 70
     8
 71
     3
 72
    13
 73
     9
 74
     0
 42
0.000000001
 43
0.00000001
 40
0.0
 40
0.0
 40
0.0
 40
0.0
 40
0.1528360286217526
 40
0.3059917177850462
 40
0.4600927775883392
 40
0.6145204456562052
 40
0.894853051796268
 40
1.0
 40
1.0
 40
1.0
 40
1.0
 10
-25.40000000000001
 20
0.8217970285437576
 30
0.0
 10
-25.45211525697749
 20
0.8379163866599607
 30
0.0
 10
-25.55645477135221
 20
0.8701888169504403
 30
0.0
 10
-25.71261299874396
 20
0.9102513792024655
 30
0.0
 10
-25.86972930554248
 20
0.9429900799409746
 30
0.0
 10
-26.07058511367572
 20
0.9740056087071646
 30
0.0
 10
-26.25464725856662
 20
0.9908331065712676
 30
0.0
 10
-26.38557683685042
 20
0.9913763414909037
 30
0.0
 10
-26.42129039268241
 20
0.9915245192432972
 30
0.0
  0
SPLINE
  5
42F
330
1F
100
AcDbEntity
  8
0
  6
Continuous
 62
     1
370
    25
100
AcDbSpline
210
0.0
220
0.0
230
1.0
 70
     8
 71
     3
 72
    15
 73
    11
 74
     0
 42
0.000000001
 43
0.00000001
 40
0.0
 40
0.0
 40
0.0
 40
0.0
 40
0.052134512046161
 40
0.1573859227061237
 40
0.3644323242226
 40
0.5728838017824689
 40
0.6791871757358791
 40
0.7856790202095255
 40
0.8927422914429639
 40
1.0
 40
1.0
 40
1.0
 40
1.0
 10
-30.38759418327069
 20
-0.6651859403717691
 30
0.0
 10
-30.41124665515122
 20
-0.6758838150470529
 30
0.0
 10
-30.48264976155991
 20
-0.7081790223997882
 30
0.0
 10
-30.64800502435179
 20
-0.7716323701359987
 30
0.0
 10
-30.88530359446534
 20
-0.8523371482898005
 30
0.0
 10
-31.12153306563735
 20
-0.9139096417032865
 30
0.0
 10
-31.31289528528487
 20
-0.9504533225352693
 30
0.0
 10
-31.45838926151285
 20
-0.9712421690196767
 30
0.0
 10
-31.60427534062796
 20
-0.9857582464146849
 30
0.0
 10
-31.7013957435276
 20
-0.9894842341924052
 30
0.0
 10
-31.75
 20
-0.9921875000000038
 30
0.0
  0
LINE
  5
430
330
1F
100
AcDbEntity
  8
0
  6
Continuous
 62
     1
370
    25
100
AcDbLine
 10
-31.75
 20
0.0000000000000016
 30
0.0
 11
-31.75
 21
-0.694531249999999
 31
0.0
  0
SPLINE
  5
431
330
1F
100
AcDbEntity
  8
0
  6
Continuous
 62
     1
370
    25
100
AcDbSpline
210
0.0
220
0.0
230
1.0
 70
    24
 71
     3
 72
    10
 73
     6
 74
     0
 42
0.000000001
 43
0.00000001
 40
0.0
 40
0.0
 40
0.0
 40
0.0
 40
0.5
 40
0.5
 40
1.0
 40
1.0
 40
1.0
 40
1.0
 10
-31.75
 20
-0.694531249999999
 30
0.0
 10
-31.75
 20
-0.7366320048010043
 30
0.0
 10
-31.75
 20
-0.7855569808290871
 30
0.0
 10
-31.75
 20
-0.8882014487658428
 30
0.0
 10
-31.75
 20
-0.9416587995842695
 30
0.0
 10
-31.75
 20
-0.9921875000000038
 30
0.0
  0
ENDSEC
  0
SECTION
  2
OBJECTS
  0
DICTIONARY
  5
C
330
0
100
AcDbDictionary
281
     1
  3
ACAD_GROUP
350
D
  3
ACAD_IMAGE_VARS
350
165
  3
ACAD_LAYOUT
350
1A
  3
ACAD_MLINESTYLE
350
17
  3
ACAD_PLOTSETTINGS
350
19
  3
ACAD_PLOTSTYLENAME
350
E
  3
ACAD_SCALELIST
350
47
  3
APPDATA
350
163
  3
DWGPROPS
350
487
  0
DICTIONARY
  5
243
330
2
100
AcDbDictionary
280
     1
281
     1
  3
ACAD_LAYERSTATES
360
244
  0
DICTIONARY
  5
D
102
{ACAD_REACTORS
330
C
102
}
330
C
100
AcDbDictionary
281
     1
  0
RASTERVARIABLES
  5
165
102
{ACAD_REACTORS
330
C
102
}
330
C
100
AcDbRasterVariables
 90
        0
 70
     1
 71
     1
 72
     1
  0
DICTIONARY
  5
1A
102
{ACAD_REACTORS
330
C
102
}
330
C
100
AcDbDictionary
281
     1
  3
Layout1
350
1E
  3
Layout2
350
26
  3
Model
350
22
  0
DICTIONARY
  5
17
102
{ACAD_REACTORS
330
C
102
}
330
C
100
AcDbDictionary
281
     1
  3
Standard
350
18
  0
DICTIONARY
  5
19
102
{ACAD_REACTORS
330
C
102
}
330
C
100
AcDbDictionary
281
     1
  0
ACDBDICTIONARYWDFLT
  5
E
102
{ACAD_REACTORS
330
C
102
}
330
C
100
AcDbDictionary
281
     1
  3
Normal
350
F
100
AcDbDictionaryWithDefault
340
F
  0
DICTIONARY
  5
47
102
{ACAD_REACTORS
330
C
102
}
330
C
100
AcDbDictionary
281
     1
  3
A0
350
48
  3
A1
350
49
  3
A2
350
4A
  3
A3
350
4B
  3
A4
350
4C
  3
A5
350
4D
  3
A6
350
4E
  3
A7
350
4F
  3
A8
350
50
  3
A9
350
51
  3
B0
350
52
  3
B1
350
53
  3
B2
350
54
  3
B3
350
55
  3
B4
350
56
  3
B5
350
57
  3
B6
350
58
  3
B7
350
59
  3
B8
350
5A
  3
B9
350
5B
  3
C0
350
5C
  3
C1
350
5D
  3
C2
350
5E
  3
C3
350
5F
  3
C4
350
60
  3
C5
350
61
  3
C6
350
62
  3
C7
350
63
  3
C8
350
64
  3
C9
350
65
  3
D0
350
66
  3
D1
350
67
  3
D2
350
68
  0
DICTIONARY
  5
163
102
{ACAD_REACTORS
330
C
102
}
330
C
100
AcDbDictionary
281
     1
  0
XRECORD
  5
487
102
{ACAD_REACTORS
330
C
102
}
330
C
100
AcDbXrecord
280
     1
  1
DWGPROPS COOKIE
  2

  3

  4

  6

  7

  8
12016016
  9

300
=
301
=
302
=
303
=
304
=
305
=
306
=
307
=
308
=
309
=
 40
0.0
 41
2458313.037036157
 42
2458320.37388375
  1

 90
        0
  0
DICTIONARY
  5
244
102
{ACAD_REACTORS
330
243
102
}
330
243
100
AcDbDictionary
281
     1
  0
LAYOUT
  5
1E
102
{ACAD_REACTORS
330
1A
102
}
330
1A
100
AcDbPlotSettings
  1

  2
none_device
  4

  6

 40
0.0
 41
0.0
 42
0.0
 43
0.0
 44
0.0
 45
0.0
 46
0.0
 47
0.0
 48
0.0
 49
0.0
140
0.0
141
0.0
142
1.0
143
1.0
 70
   688
 72
     1
 73
     0
 74
     5
  7

 75
    16
147
1.0
148
0.0
149
0.0
100
AcDbLayout
  1
Layout1
 70
     1
 71
     1
 10
0.0
 20
0.0
 11
420.0
 21
297.0
 12
0.0
 22
0.0
 32
0.0
 14
1.000000000000000E+20
 24
1.000000000000000E+20
 34
1.000000000000000E+20
 15
-1.000000000000000E+20
 25
-1.000000000000000E+20
 35
-1.000000000000000E+20
146
0.0
 13
0.0
 23
0.0
 33
0.0
 16
1.0
 26
0.0
 36
0.0
 17
0.0
 27
1.0
 37
0.0
 76
     0
330
1B
  0
LAYOUT
  5
26
102
{ACAD_REACTORS
330
1A
102
}
330
1A
100
AcDbPlotSettings
  1

  2
none_device
  4

  6

 40
0.0
 41
0.0
 42
0.0
 43
0.0
 44
0.0
 45
0.0
 46
0.0
 47
0.0
 48
0.0
 49
0.0
140
0.0
141
0.0
142
1.0
143
1.0
 70
   688
 72
     1
 73
     0
 74
     5
  7

 75
    16
147
1.0
148
0.0
149
0.0
100
AcDbLayout
  1
Layout2
 70
     1
 71
     2
 10
0.0
 20
0.0
 11
0.0
 21
0.0
 12
0.0
 22
0.0
 32
0.0
 14
0.0
 24
0.0
 34
0.0
 15
0.0
 25
0.0
 35
0.0
146
0.0
 13
0.0
 23
0.0
 33
0.0
 16
1.0
 26
0.0
 36
0.0
 17
0.0
 27
1.0
 37
0.0
 76
     0
330
23
  0
LAYOUT
  5
22
102
{ACAD_REACTORS
330
1A
102
}
330
1A
100
AcDbPlotSettings
  1

  2
none_device
  4
ANSI_A_(11.00_x_8.50_Inches)
  6

 40
6.35
 41
19.05
 42
6.35000508
 43
19.05000254
 44
279.4
 45
215.9
 46
120.0425758203561
 47
92.03608481251797
 48
0.0
 49
0.0
140
0.0
141
0.0
142
0.0697659277605474
143
1.0
 70
  1696
 72
     0
 73
     0
 74
     0
  7

 75
     0
147
0.0235690232323232
148
0.0
149
0.0
100
AcDbLayout
  1
Model
 70
     1
 71
     0
 10
0.0
 20
0.0
 11
420.0
 21
297.0
 12
0.0
 22
0.0
 32
0.0
 14
-49.12500000000004
 24
-49.97180738881174
 34
0.0
 15
81.21241335422454
 25
39.23492490373376
 35
0.0
146
0.0
 13
0.0
 23
0.0
 33
0.0
 16
1.0
 26
0.0
 36
0.0
 17
0.0
 27
1.0
 37
0.0
 76
     0
330
1F
331
29
  0
MLINESTYLE
  5
18
102
{ACAD_REACTORS
330
17
102
}
330
17
100
AcDbMlineStyle
  2
Standard
 70
     0
  3

 62
   256
 51
90.0
 52
90.0
 71
     2
 49
0.5
 62
   256
  6
BYLAYER
 49
-0.5
 62
   256
  6
BYLAYER
  0
ACDBPLACEHOLDER
  5
F
102
{ACAD_REACTORS
330
E
102
}
330
E
  0
SCALE
  5
48
102
{ACAD_REACTORS
330
47
102
}
330
47
100
AcDbScale
 70
     0
300
1:1
140
1.0
141
1.0
290
     1
  0
SCALE
  5
49
102
{ACAD_REACTORS
330
47
102
}
330
47
100
AcDbScale
 70
     0
300
1:2
140
1.0
141
2.0
290
     0
  0
SCALE
  5
4A
102
{ACAD_REACTORS
330
47
102
}
330
47
100
AcDbScale
 70
     0
300
1:4
140
1.0
141
4.0
290
     0
  0
SCALE
  5
4B
102
{ACAD_REACTORS
330
47
102
}
330
47
100
AcDbScale
 70
     0
300
1:5
140
1.0
141
5.0
290
     0
  0
SCALE
  5
4C
102
{ACAD_REACTORS
330
47
102
}
330
47
100
AcDbScale
 70
     0
300
1:8
140
1.0
141
8.0
290
     0
  0
SCALE
  5
4D
102
{ACAD_REACTORS
330
47
102
}
330
47
100
AcDbScale
 70
     0
300
1:10
140
1.0
141
10.0
290
     0
  0
SCALE
  5
4E
102
{ACAD_REACTORS
330
47
102
}
330
47
100
AcDbScale
 70
     0
300
1:16
140
1.0
141
16.0
290
     0
  0
SCALE
  5
4F
102
{ACAD_REACTORS
330
47
102
}
330
47
100
AcDbScale
 70
     0
300
1:20
140
1.0
141
20.0
290
     0
  0
SCALE
  5
50
102
{ACAD_REACTORS
330
47
102
}
330
47
100
AcDbScale
 70
     0
300
1:30
140
1.0
141
30.0
290
     0
  0
SCALE
  5
51
102
{ACAD_REACTORS
330
47
102
}
330
47
100
AcDbScale
 70
     0
300
1:40
140
1.0
141
40.0
290
     0
  0
SCALE
  5
52
102
{ACAD_REACTORS
330
47
102
}
330
47
100
AcDbScale
 70
     0
300
1:50
140
1.0
141
50.0
290
     0
  0
SCALE
  5
53
102
{ACAD_REACTORS
330
47
102
}
330
47
100
AcDbScale
 70
     0
300
1:100
140
1.0
141
100.0
290
     0
  0
SCALE
  5
54
102
{ACAD_REACTORS
330
47
102
}
330
47
100
AcDbScale
 70
     0
300
2:1
140
2.0
141
1.0
290
     0
  0
SCALE
  5
55
102
{ACAD_REACTORS
330
47
102
}
330
47
100
AcDbScale
 70
     0
300
4:1
140
4.0
141
1.0
290
     0
  0
SCALE
  5
56
102
{ACAD_REACTORS
330
47
102
}
330
47
100
AcDbScale
 70
     0
300
8:1
140
8.0
141
1.0
290
     0
  0
SCALE
  5
57
102
{ACAD_REACTORS
330
47
102
}
330
47
100
AcDbScale
 70
     0
300
10:1
140
10.0
141
1.0
290
     0
  0
SCALE
  5
58
102
{ACAD_REACTORS
330
47
102
}
330
47
100
AcDbScale
 70
     0
300
100:1
140
100.0
141
1.0
290
     0
  0
SCALE
  5
59
102
{ACAD_REACTORS
330
47
102
}
330
47
100
AcDbScale
 70
     0
300
1/128" = 1'-0"
140
0.0078125
141
12.0
290
     0
  0
SCALE
  5
5A
102
{ACAD_REACTORS
330
47
102
}
330
47
100
AcDbScale
 70
     0
300
1/64" = 1'-0"
140
0.015625
141
12.0
290
     0
  0
SCALE
  5
5B
102
{ACAD_REACTORS
330
47
102
}
330
47
100
AcDbScale
 70
     0
300
1/32" = 1'-0"
140
0.03125
141
12.0
290
     0
  0
SCALE
  5
5C
102
{ACAD_REACTORS
330
47
102
}
330
47
100
AcDbScale
 70
     0
300
1/16" = 1'-0"
140
0.0625
141
12.0
290
     0
  0
SCALE
  5
5D
102
{ACAD_REACTORS
330
47
102
}
330
47
100
AcDbScale
 70
     0
300
3/32" = 1'-0"
140
0.09375
141
12.0
290
     0
  0
SCALE
  5
5E
102
{ACAD_REACTORS
330
47
102
}
330
47
100
AcDbScale
 70
     0
300
1/8" = 1'-0"
140
0.125
141
12.0
290
     0
  0
SCALE
  5
5F
102
{ACAD_REACTORS
330
47
102
}
330
47
100
AcDbScale
 70
     0
300
3/16" = 1'-0"
140
0.1875
141
12.0
290
     0
  0
SCALE
  5
60
102
{ACAD_REACTORS
330
47
102
}
330
47
100
AcDbScale
 70
     0
300
1/4" = 1'-0"
140
0.25
141
12.0
290
     0
  0
SCALE
  5
61
102
{ACAD_REACTORS
330
47
102
}
330
47
100
AcDbScale
 70
     0
300
3/8" = 1'-0"
140
0.375
141
12.0
290
     0
  0
SCALE
  5
62
102
{ACAD_REACTORS
330
47
102
}
330
47
100
AcDbScale
 70
     0
300
1/2" = 1'-0"
140
0.5
141
12.0
290
     0
  0
SCALE
  5
63
102
{ACAD_REACTORS
330
47
102
}
330
47
100
AcDbScale
 70
     0
300
3/4" = 1'-0"
140
0.75
141
12.0
290
     0
  0
SCALE
  5
64
102
{ACAD_REACTORS
330
47
102
}
330
47
100
AcDbScale
 70
     0
300
1" = 1'-0"
140
1.0
141
12.0
290
     0
  0
SCALE
  5
65
102
{ACAD_REACTORS
330
47
102
}
330
47
100
AcDbScale
 70
     0
300
1-1/2" = 1'-0"
140
1.5
141
12.0
290
     0
  0
SCALE
  5
66
102
{ACAD_REACTORS
330
47
102
}
330
47
100
AcDbScale
 70
     0
300
3" = 1'-0"
140
3.0
141
12.0
290
     0
  0
SCALE
  5
67
102
{ACAD_REACTORS
330
47
102
}
330
47
100
AcDbScale
 70
     0
300
6" = 1'-0"
140
6.0
141
12.0
290
     0
  0
SCALE
  5
68
102
{ACAD_REACTORS
330
47
102
}
330
47
100
AcDbScale
 70
     0
300
1'-0" = 1'-0"
140
12.0
141
12.0
290
     0
  0
ENDSEC
  0
EOF
