  0
SECTION
  2
HEADER
  9
$ACADVER
  1
AC1015
  9
$ACADMAINTVER
 70
     6
  9
$DWGCODEPAGE
  3
ANSI_949
  9
$INSBASE
 10
0.0
 20
0.0
 30
0.0
  9
$EXTMIN
 10
-50.71250000000004
 20
-49.97180738881174
 30
0.0
  9
$EXTMAX
 10
81.21241335422454
 20
44.71940988448053
 30
0.0
  9
$LIMMIN
 10
0.0
 20
0.0
  9
$LIMMAX
 10
420.0
 20
297.0
  9
$ORTHOMODE
 70
     1
  9
$REGENMODE
 70
     1
  9
$FILLMODE
 70
     1
  9
$QTEXTMODE
 70
     0
  9
$MIRRTEXT
 70
     1
  9
$LTSCALE
 40
1.0
  9
$ATTMODE
 70
     1
  9
$TEXTSIZE
 40
3.5
  9
$TRACEWID
 40
1.0
  9
$TEXTSTYLE
  7
Standard
  9
$CLAYER
  8
0
  9
$CELTYPE
  6
ByLayer
  9
$CECOLOR
 62
   256
  9
$CELTSCALE
 40
1.0
  9
$DISPSILH
 70
     0
  9
$DIMSCALE
 40
1.0
  9
$DIMASZ
 40
3.302
  9
$DIMEXO
 40
1.0
  9
$DIMDLI
 40
3.75
  9
$DIMRND
 40
0.0
  9
$DIMDLE
 40
0.0
  9
$DIMEXE
 40
1.0
  9
$DIMTP
 40
0.0
  9
$DIMTM
 40
0.0
  9
$DIMTXT
 40
3.5
  9
$DIMCEN
 40
2.5
  9
$DIMTSZ
 40
0.0
  9
$DIMTOL
 70
     0
  9
$DIMLIM
 70
     0
  9
$DIMTIH
 70
     1
  9
$DIMTOH
 70
     1
  9
$DIMSE1
 70
     0
  9
$DIMSE2
 70
     0
  9
$DIMTAD
 70
     1
  9
$DIMZIN
 70
     0
  9
$DIMBLK
  1

  9
$DIMASO
 70
     1
  9
$DIMSHO
 70
     1
  9
$DIMPOST
  1

  9
$DIMAPOST
  1

  9
$DIMALT
 70
     0
  9
$DIMALTD
 70
     3
  9
$DIMALTF
 40
0.0393700787401575
  9
$DIMLFAC
 40
1.0
  9
$DIMTOFL
 70
     1
  9
$DIMTVP
 40
0.0
  9
$DIMTIX
 70
     0
  9
$DIMSOXD
 70
     0
  9
$DIMSAH
 70
     0
  9
$DIMBLK1
  1

  9
$DIMBLK2
  1

  9
$DIMSTYLE
  2
ISO-25
  9
$DIMCLRD
 70
     0
  9
$DIMCLRE
 70
     0
  9
$DIMCLRT
 70
     0
  9
$DIMTFAC
 40
1.0
  9
$DIMGAP
 40
1.524
  9
$DIMJUST
 70
     0
  9
$DIMSD1
 70
     0
  9
$DIMSD2
 70
     0
  9
$DIMTOLJ
 70
     0
  9
$DIMTZIN
 70
     0
  9
$DIMALTZ
 70
     0
  9
$DIMALTTZ
 70
     0
  9
$DIMUPT
 70
     0
  9
$DIMDEC
 70
     2
  9
$DIMTDEC
 70
     2
  9
$DIMALTU
 70
     2
  9
$DIMALTTD
 70
     3
  9
$DIMTXSTY
  7
Standard
  9
$DIMAUNIT
 70
     0
  9
$DIMADEC
 70
     2
  9
$DIMALTRND
 40
0.0
  9
$DIMAZIN
 70
     0
  9
$DIMDSEP
 70
    44
  9
$DIMATFIT
 70
     3
  9
$DIMFRAC
 70
     0
  9
$DIMLDRBLK
  1

  9
$DIMLUNIT
 70
     2
  9
$DIMLWD
 70
    -2
  9
$DIMLWE
 70
    -2
  9
$DIMTMOVE
 70
     0
  9
$LUNITS
 70
     2
  9
$LUPREC
 70
     2
  9
$SKETCHINC
 40
1.0
  9
$FILLETRAD
 40
10.0
  9
$AUNITS
 70
     0
  9
$AUPREC
 70
     2
  9
$MENU
  1
.
  9
$ELEVATION
 40
0.0
  9
$PELEVATION
 40
0.0
  9
$THICKNESS
 40
0.0
  9
$LIMCHECK
 70
     0
  9
$CHAMFERA
 40
0.0
  9
$CHAMFERB
 40
0.0
  9
$CHAMFERC
 40
0.0
  9
$CHAMFERD
 40
0.0
  9
$SKPOLY
 70
     0
  9
$TDCREATE
 40
2458313.412247952
  9
$TDUCREATE
 40
2458313.037247952
  9
$TDUPDATE
 40
2458320.748836922
  9
$TDUUPDATE
 40
2458320.373836922
  9
$TDINDWG
 40
0.0028730556
  9
$TDUSRTIMER
 40
2458320.373801574
  9
$USRTIMER
 70
     1
  9
$ANGBASE
 50
0.0
  9
$ANGDIR
 70
     0
  9
$PDMODE
 70
     0
  9
$PDSIZE
 40
-1.0
  9
$PLINEWID
 40
0.0
  9
$SPLFRAME
 70
     0
  9
$SPLINETYPE
 70
     6
  9
$SPLINESEGS
 70
     8
  9
$HANDSEED
  5
49B
  9
$SURFTAB1
 70
     6
  9
$SURFTAB2
 70
     6
  9
$SURFTYPE
 70
     6
  9
$SURFU
 70
     6
  9
$SURFV
 70
     6
  9
$UCSBASE
  2

  9
$UCSNAME
  2

  9
$UCSORG
 10
0.0
 20
0.0
 30
0.0
  9
$UCSXDIR
 10
1.0
 20
0.0
 30
0.0
  9
$UCSYDIR
 10
0.0
 20
1.0
 30
0.0
  9
$UCSORTHOREF
  2

  9
$UCSORTHOVIEW
 70
     0
  9
$UCSORGTOP
 10
0.0
 20
0.0
 30
0.0
  9
$UCSORGBOTTOM
 10
0.0
 20
0.0
 30
0.0
  9
$UCSORGLEFT
 10
0.0
 20
0.0
 30
0.0
  9
$UCSORGRIGHT
 10
0.0
 20
0.0
 30
0.0
  9
$UCSORGFRONT
 10
0.0
 20
0.0
 30
0.0
  9
$UCSORGBACK
 10
0.0
 20
0.0
 30
0.0
  9
$PUCSBASE
  2

  9
$PUCSNAME
  2

  9
$PUCSORG
 10
0.0
 20
0.0
 30
0.0
  9
$PUCSXDIR
 10
1.0
 20
0.0
 30
0.0
  9
$PUCSYDIR
 10
0.0
 20
1.0
 30
0.0
  9
$PUCSORTHOREF
  2

  9
$PUCSORTHOVIEW
 70
     0
  9
$PUCSORGTOP
 10
0.0
 20
0.0
 30
0.0
  9
$PUCSORGBOTTOM
 10
0.0
 20
0.0
 30
0.0
  9
$PUCSORGLEFT
 10
0.0
 20
0.0
 30
0.0
  9
$PUCSORGRIGHT
 10
0.0
 20
0.0
 30
0.0
  9
$PUCSORGFRONT
 10
0.0
 20
0.0
 30
0.0
  9
$PUCSORGBACK
 10
0.0
 20
0.0
 30
0.0
  9
$USERI1
 70
     0
  9
$USERI2
 70
     0
  9
$USERI3
 70
     0
  9
$USERI4
 70
     0
  9
$USERI5
 70
     0
  9
$USERR1
 40
0.0
  9
$USERR2
 40
0.0
  9
$USERR3
 40
0.0
  9
$USERR4
 40
0.0
  9
$USERR5
 40
0.0
  9
$WORLDVIEW
 70
     1
  9
$SHADEDGE
 70
     3
  9
$SHADEDIF
 70
    70
  9
$TILEMODE
 70
     1
  9
$MAXACTVP
 70
    64
  9
$PINSBASE
 10
0.0
 20
0.0
 30
0.0
  9
$PLIMCHECK
 70
     0
  9
$PEXTMIN
 10
1.000000000000000E+20
 20
1.000000000000000E+20
 30
1.000000000000000E+20
  9
$PEXTMAX
 10
-1.000000000000000E+20
 20
-1.000000000000000E+20
 30
-1.000000000000000E+20
  9
$PLIMMIN
 10
0.0
 20
0.0
  9
$PLIMMAX
 10
0.0
 20
0.0
  9
$UNITMODE
 70
     0
  9
$VISRETAIN
 70
     1
  9
$PLINEGEN
 70
     0
  9
$PSLTSCALE
 70
     1
  9
$TREEDEPTH
 70
  3020
  9
$CMLSTYLE
  2
Standard
  9
$CMLJUST
 70
     0
  9
$CMLSCALE
 40
20.0
  9
$PROXYGRAPHICS
 70
     1
  9
$MEASUREMENT
 70
     1
  9
$CELWEIGHT
370
    -1
  9
$ENDCAPS
280
     0
  9
$JOINSTYLE
280
     0
  9
$LWDISPLAY
290
     1
  9
$INSUNITS
 70
     4
  9
$HYPERLINKBASE
  1

  9
$STYLESHEET
  1

  9
$XEDIT
290
     1
  9
$CEPSNTYPE
380
     0
  9
$PSTYLEMODE
290
     1
  9
$FINGERPRINTGUID
  2
{7B72CA0B-D85C-477E-9E3B-D96F6E642F8A}
  9
$VERSIONGUID
  2
{FAEB1C32-E019-11D5-929B-00C0DF256EC4}
  9
$EXTNAMES
290
     1
  9
$PSVPSCALE
 40
0.0
  9
$OLESTARTUP
290
     0
  0
ENDSEC
  0
SECTION
  2
CLASSES
  0
CLASS
  1
ACDBDICTIONARYWDFLT
  2
AcDbDictionaryWithDefault
  3
ObjectDBX Classes
 90
        0
280
     0
281
     0
  0
CLASS
  1
VISUALSTYLE
  2
AcDbVisualStyle
  3
ObjectDBX Classes
 90
     4095
280
     0
281
     0
  0
CLASS
  1
MATERIAL
  2
AcDbMaterial
  3
ObjectDBX Classes
 90
     1153
280
     0
281
     0
  0
CLASS
  1
SCALE
  2
AcDbScale
  3
ObjectDBX Classes
 90
     1153
280
     0
281
     0
  0
CLASS
  1
SUN
  2
AcDbSun
  3
SCENEOE
 90
     1153
280
     0
281
     0
  0
CLASS
  1
ACDBPLACEHOLDER
  2
AcDbPlaceHolder
  3
ObjectDBX Classes
 90
        0
280
     0
281
     0
  0
CLASS
  1
LAYOUT
  2
AcDbLayout
  3
ObjectDBX Classes
 90
        0
280
     0
281
     0
  0
CLASS
  1
TABLESTYLE
  2
AcDbTableStyle
  3
ObjectDBX Classes
 90
     4095
280
     0
281
     0
  0
CLASS
  1
MLEADERSTYLE
  2
AcDbMLeaderStyle
  3
ACDB_MLEADERSTYLE_CLASS
 90
     4095
280
     0
281
     0
  0
CLASS
  1
RASTERVARIABLES
  2
AcDbRasterVariables
  3
ISM
 90
        0
280
     0
281
     0
  0
ENDSEC
  0
SECTION
  2
TABLES
  0
TABLE
  2
VPORT
  5
8
330
0
100
AcDbSymbolTable
 70
     1
  0
VPORT
  5
29
330
8
100
AcDbSymbolTableRecord
100
AcDbViewportTableRecord
  2
*Active
 70
     0
 10
0.0
 20
0.0
 11
1.0
 21
1.0
 12
3.459968059419374
 22
-12.86038081913004
 13
0.0
 23
0.0
 14
10.0
 24
10.0
 15
10.0
 25
10.0
 16
0.0
 26
0.0
 36
1.0
 17
0.0
 27
0.0
 37
0.0
 40
130.3632040696765
 41
1.632093933463796
 42
50.0
 43
0.0
 44
0.0
 50
0.0
 51
0.0
 71
    16
 72
  2000
 73
     1
 74
     3
 75
     0
 76
     0
 77
     0
 78
     0
281
     0
 65
     1
110
0.0
120
0.0
130
0.0
111
1.0
121
0.0
131
0.0
112
0.0
122
1.0
132
0.0
 79
     0
146
0.0
  0
ENDTAB
  0
TABLE
  2
LTYPE
  5
5
330
0
100
AcDbSymbolTable
 70
     6
  0
LTYPE
  5
14
330
5
100
AcDbSymbolTableRecord
100
AcDbLinetypeTableRecord
  2
ByBlock
 70
     0
  3

 72
    65
 73
     0
 40
0.0
  0
LTYPE
  5
15
330
5
100
AcDbSymbolTableRecord
100
AcDbLinetypeTableRecord
  2
ByLayer
 70
     0
  3

 72
    65
 73
     0
 40
0.0
  0
LTYPE
  5
16
330
5
100
AcDbSymbolTableRecord
100
AcDbLinetypeTableRecord
  2
Continuous
 70
     0
  3
Solid line
 72
    65
 73
     0
 40
0.0
  0
LTYPE
  5
6A
330
5
100
AcDbSymbolTableRecord
100
AcDbLinetypeTableRecord
  2
HIDDEN
 70
     0
  3
Hidden __ __ __ __ __ __ __ __ __ __ __ __ __ __
 72
    65
 73
     2
 40
1.905
 49
1.27
 74
     0
 49
-0.635
 74
     0
  0
LTYPE
  5
6B
330
5
100
AcDbSymbolTableRecord
100
AcDbLinetypeTableRecord
  2
PHANTOM
 70
     0
  3
Phantom ______  __  __  ______  __  __  ______
 72
    65
 73
     6
 40
12.7
 49
6.35
 74
     0
 49
-1.27
 74
     0
 49
1.27
 74
     0
 49
-1.27
 74
     0
 49
1.27
 74
     0
 49
-1.27
 74
     0
  0
LTYPE
  5
6C
330
5
100
AcDbSymbolTableRecord
100
AcDbLinetypeTableRecord
  2
CENTER
 70
     0
  3
Center ____ _ ____ _ ____ _ ____ _ ____ _ ____
 72
    65
 73
     4
 40
10.16
 49
6.35
 74
     0
 49
-1.27
 74
     0
 49
1.27
 74
     0
 49
-1.27
 74
     0
  0
LTYPE
  5
6D
330
5
100
AcDbSymbolTableRecord
100
AcDbLinetypeTableRecord
  2
CENTERX2
 70
     0
  3
Center (2x) ________  __  ________  __  _____
 72
    65
 73
     4
 40
20.32
 49
12.7
 74
     0
 49
-2.54
 74
     0
 49
2.54
 74
     0
 49
-2.54
 74
     0
  0
LTYPE
  5
6E
330
5
100
AcDbSymbolTableRecord
100
AcDbLinetypeTableRecord
  2
DOT2
 70
     0
  3
Dot (.5x) ........................................
 72
    65
 73
     2
 40
0.635
 49
0.0
 74
     0
 49
-0.635
 74
     0
  0
ENDTAB
  0
TABLE
  2
LAYER
  5
2
102
{ACAD_XDICTIONARY
360
23D
102
}
330
0
100
AcDbSymbolTable
 70
    18
  0
LAYER
  5
10
330
2
100
AcDbSymbolTableRecord
100
AcDbLayerTableRecord
  2
0
 70
     0
 62
     7
  6
Continuous
370
    -3
390
F
  0
LAYER
  5
6F
330
2
100
AcDbSymbolTableRecord
100
AcDbLayerTableRecord
  2
FORMAT
 70
     0
 62
     2
  6
Continuous
370
    -3
390
F
  0
LAYER
  5
70
330
2
100
AcDbSymbolTableRecord
100
AcDbLayerTableRecord
  2
외형선
 70
     0
 62
     4
  6
Continuous
370
    30
390
F
  0
LAYER
  5
71
330
2
100
AcDbSymbolTableRecord
100
AcDbLayerTableRecord
  2
숨은선
 70
     0
 62
     2
  6
HIDDEN
370
    15
390
F
  0
LAYER
  5
72
330
2
100
AcDbSymbolTableRecord
100
AcDbLayerTableRecord
  2
중심선
 70
     0
 62
     1
  6
CENTERX2
370
    -3
390
F
  0
LAYER
  5
73
330
2
100
AcDbSymbolTableRecord
100
AcDbLayerTableRecord
  2
파단선
 70
     0
 62
     4
  6
Continuous
370
    -3
390
F
  0
LAYER
  5
74
330
2
100
AcDbSymbolTableRecord
100
AcDbLayerTableRecord
  2
해칭선
 70
     0
 62
   100
  6
Continuous
370
    -3
390
F
  0
LAYER
  5
75
330
2
100
AcDbSymbolTableRecord
100
AcDbLayerTableRecord
  2
가는실선
 70
     0
 62
     4
  6
Continuous
370
    -3
390
F
  0
LAYER
  5
76
330
2
100
AcDbSymbolTableRecord
100
AcDbLayerTableRecord
  2
치수_보조선
 70
     0
 62
     4
  6
Continuous
370
    -3
390
F
  0
LAYER
  5
77
330
2
100
AcDbSymbolTableRecord
100
AcDbLayerTableRecord
  2
치수문자_일반주서
 70
     0
 62
     7
  6
Continuous
370
    15
390
F
  0
LAYER
  5
78
330
2
100
AcDbSymbolTableRecord
100
AcDbLayerTableRecord
  2
개별주서
 70
     0
 62
   100
  6
Continuous
370
    30
390
F
  0
LAYER
  5
79
330
2
100
AcDbSymbolTableRecord
100
AcDbLayerTableRecord
  2
중간선
 70
     0
 62
     2
  6
Continuous
370
    15
390
F
  0
LAYER
  5
7A
330
2
100
AcDbSymbolTableRecord
100
AcDbLayerTableRecord
  2
윤곽선
 70
     0
 62
     3
  6
Continuous
370
    40
390
F
  0
LAYER
  5
7B
330
2
100
AcDbSymbolTableRecord
100
AcDbLayerTableRecord
  2
중심마크
 70
     0
 62
   100
  6
Continuous
370
    30
390
F
  0
LAYER
  5
7C
330
2
100
AcDbSymbolTableRecord
100
AcDbLayerTableRecord
  2
가상선
 70
     0
 62
     4
  6
PHANTOM
370
    -3
390
F
  0
LAYER
  5
7D
330
2
100
AcDbSymbolTableRecord
100
AcDbLayerTableRecord
  2
특수지정선
 70
     0
 62
     5
  6
CENTERX2
370
    60
390
F
  0
LAYER
  5
7E
330
2
100
AcDbSymbolTableRecord
100
AcDbLayerTableRecord
  2
참조1
 70
     0
 62
    -4
  6
Continuous
370
    -3
390
F
  0
LAYER
  5
163
330
2
100
AcDbSymbolTableRecord
100
AcDbLayerTableRecord
  2
Defpoints
 70
     0
 62
     7
  6
Continuous
290
     0
370
    -3
390
F
  0
ENDTAB
  0
TABLE
  2
STYLE
  5
3
330
0
100
AcDbSymbolTable
 70
     2
  0
STYLE
  5
11
330
3
100
AcDbSymbolTableRecord
100
AcDbTextStyleTableRecord
  2
Standard
 70
     0
 40
0.0
 41
1.0
 50
0.0
 71
     0
 42
3.5
  3
txt
  4

  0
STYLE
  5
94
330
3
100
AcDbSymbolTableRecord
100
AcDbTextStyleTableRecord
  2
SLDTEXTSTYLE0
 70
     0
 40
0.0
 41
0.75
 50
0.0
 71
     0
 42
3.5
  3
TXT
  4

  0
ENDTAB
  0
TABLE
  2
VIEW
  5
6
330
0
100
AcDbSymbolTable
 70
     0
  0
ENDTAB
  0
TABLE
  2
UCS
  5
7
330
0
100
AcDbSymbolTable
 70
     0
  0
ENDTAB
  0
TABLE
  2
APPID
  5
9
330
0
100
AcDbSymbolTable
 70
     1
  0
APPID
  5
12
330
9
100
AcDbSymbolTableRecord
100
AcDbRegAppTableRecord
  2
ACAD
 70
     0
  0
ENDTAB
  0
TABLE
  2
DIMSTYLE
  5
A
330
0
100
AcDbSymbolTable
 70
     3
100
AcDbDimStyleTable
  0
DIMSTYLE
105
27
330
A
100
AcDbSymbolTableRecord
100
AcDbDimStyleTableRecord
  2
ISO-25
 70
     0
 41
2.5
 42
0.625
 43
3.75
 44
1.25
 73
     0
 74
     0
 77
     1
 78
     8
140
2.5
141
2.5
143
0.03937007874016
147
0.625
171
     3
172
     1
178
     0
271
     2
272
     2
274
     3
278
    44
283
     0
284
     8
340
11
  0
DIMSTYLE
105
DF
102
{ACAD_REACTORS
330
DE
330
F3
330
107
330
11C
102
}
330
A
100
AcDbSymbolTableRecord
100
AcDbDimStyleTableRecord
  2
SLDDIMSTYLE0
 70
     0
 41
3.302
 44
0.0
 45
0.000000001
 73
     0
 74
     0
 77
     1
 78
    12
 79
     3
140
3.5
143
0.0393700787401575
147
0.875
148
0.000000001
170
     1
172
     1
173
     1
178
     0
271
     2
272
     2
276
     2
284
    12
289
     0
340
94
  0
DIMSTYLE
105
11D
330
A
100
AcDbSymbolTableRecord
100
AcDbDimStyleTableRecord
  2
SLDDIMSTYLE1
 70
     0
 41
3.302
 44
0.0
 45
0.000000001
 73
     0
 74
     0
 77
     1
 78
    12
 79
     3
140
3.5
143
0.0393700787401575
147
0.875
148
0.000000001
170
     1
173
     1
178
     0
271
     2
272
     2
276
     2
284
    12
340
94
  0
ENDTAB
  0
TABLE
  2
BLOCK_RECORD
  5
1
330
0
100
AcDbSymbolTable
 70
    21
  0
BLOCK_RECORD
  5
1F
330
1
100
AcDbSymbolTableRecord
100
AcDbBlockTableRecord
  2
*Model_Space
340
22
  0
BLOCK_RECORD
  5
1B
330
1
100
AcDbSymbolTableRecord
100
AcDbBlockTableRecord
  2
*Paper_Space
340
1E
  0
BLOCK_RECORD
  5
23
330
1
100
AcDbSymbolTableRecord
100
AcDbBlockTableRecord
  2
*Paper_Space0
340
26
  0
BLOCK_RECORD
  5
7F
330
1
100
AcDbSymbolTableRecord
100
AcDbBlockTableRecord
  2
블럭10
340
0
102
{BLKREFS
331
D7
102
}
  0
BLOCK_RECORD
  5
E0
330
1
100
AcDbSymbolTableRecord
100
AcDbBlockTableRecord
  2
_D
340
0
  0
BLOCK_RECORD
  5
F4
330
1
100
AcDbSymbolTableRecord
100
AcDbBlockTableRecord
  2
_D_1
340
0
  0
BLOCK_RECORD
  5
108
330
1
100
AcDbSymbolTableRecord
100
AcDbBlockTableRecord
  2
_D_2
340
0
  0
BLOCK_RECORD
  5
11E
330
1
100
AcDbSymbolTableRecord
100
AcDbBlockTableRecord
  2
_D_3
340
0
  0
BLOCK_RECORD
  5
137
330
1
100
AcDbSymbolTableRecord
100
AcDbBlockTableRecord
  2
SW_DOWELSYMBOL_0
340
0
102
{BLKREFS
331
13D
102
}
  0
BLOCK_RECORD
  5
241
330
1
100
AcDbSymbolTableRecord
100
AcDbBlockTableRecord
  2
*D7
340
0
  0
BLOCK_RECORD
  5
24D
330
1
100
AcDbSymbolTableRecord
100
AcDbBlockTableRecord
  2
*D8
340
0
  0
BLOCK_RECORD
  5
25C
330
1
100
AcDbSymbolTableRecord
100
AcDbBlockTableRecord
  2
*D9
340
0
  0
BLOCK_RECORD
  5
26B
330
1
100
AcDbSymbolTableRecord
100
AcDbBlockTableRecord
  2
*D10
340
0
  0
BLOCK_RECORD
  5
2ED
330
1
100
AcDbSymbolTableRecord
100
AcDbBlockTableRecord
  2
*D11
340
0
  0
BLOCK_RECORD
  5
2F9
330
1
100
AcDbSymbolTableRecord
100
AcDbBlockTableRecord
  2
*D12
340
0
  0
BLOCK_RECORD
  5
308
330
1
100
AcDbSymbolTableRecord
100
AcDbBlockTableRecord
  2
*D13
340
0
  0
BLOCK_RECORD
  5
317
330
1
100
AcDbSymbolTableRecord
100
AcDbBlockTableRecord
  2
*D14
340
0
  0
BLOCK_RECORD
  5
3BE
330
1
100
AcDbSymbolTableRecord
100
AcDbBlockTableRecord
  2
*D15
340
0
  0
BLOCK_RECORD
  5
3CD
330
1
100
AcDbSymbolTableRecord
100
AcDbBlockTableRecord
  2
*D16
340
0
  0
BLOCK_RECORD
  5
3DC
330
1
100
AcDbSymbolTableRecord
100
AcDbBlockTableRecord
  2
*D17
340
0
  0
BLOCK_RECORD
  5
428
330
1
100
AcDbSymbolTableRecord
100
AcDbBlockTableRecord
  2
*D18
340
0
  0
BLOCK_RECORD
  5
437
330
1
100
AcDbSymbolTableRecord
100
AcDbBlockTableRecord
  2
*D19
340
0
  0
BLOCK_RECORD
  5
446
330
1
100
AcDbSymbolTableRecord
100
AcDbBlockTableRecord
  2
*D20
340
0
  0
ENDTAB
  0
ENDSEC
  0
SECTION
  2
BLOCKS
  0
BLOCK
  5
20
330
1F
100
AcDbEntity
  8
0
100
AcDbBlockBegin
  2
*Model_Space
 70
     0
 10
0.0
 20
0.0
 30
0.0
  3
*Model_Space
  1
*Model_Space
  0
ENDBLK
  5
21
330
1F
100
AcDbEntity
  8
0
100
AcDbBlockEnd
  0
BLOCK
  5
1C
330
1B
100
AcDbEntity
 67
     1
  8
0
100
AcDbBlockBegin
  2
*Paper_Space
 70
     0
 10
0.0
 20
0.0
 30
0.0
  3
*Paper_Space
  1
*Paper_Space
  0
ENDBLK
  5
1D
330
1B
100
AcDbEntity
 67
     1
  8
0
100
AcDbBlockEnd
  0
BLOCK
  5
24
330
23
100
AcDbEntity
  8
0
100
AcDbBlockBegin
  2
*Paper_Space0
 70
     0
 10
0.0
 20
0.0
 30
0.0
  3
*Paper_Space0
  1
*Paper_Space0
  0
ENDBLK
  5
25
330
23
100
AcDbEntity
  8
0
100
AcDbBlockEnd
  0
BLOCK
  5
80
330
7F
100
AcDbEntity
  8
0
100
AcDbBlockBegin
  2
블럭10
 70
     2
 10
0.0
 20
0.0
 30
0.0
  3
블럭10
  1
블럭10
  0
ELLIPSE
  5
82
330
7F
100
AcDbEntity
  8
중심선
100
AcDbEllipse
 10
20.54032771741204
 20
12.0471743016438
 30
0.0
 11
6.600054785286829
 21
-1.261213355974178E-13
 31
0.0
210
0.0
220
0.0
230
1.0
 40
0.636358354079598
 41
0.9219305317359503
 42
6.513795318482858
  0
ELLIPSE
  5
83
330
7F
100
AcDbEntity
  8
중심선
100
AcDbEllipse
 10
20.54032771746488
 20
12.04717430159265
 30
0.0
 11
3.960054785062283
 21
1.540847449632565E-10
 31
0.0
210
0.0
220
0.0
230
1.0
 40
0.3939339440162632
 41
1.131841032648279
 42
5.62031148352944
  0
LINE
  5
84
330
7F
100
AcDbEntity
  8
중심선
100
AcDbLine
 10
2.268634060543552
 20
16.24717430164393
 30
0.0
 11
5.714909304380834
 21
16.24717430164393
 31
0.0
  0
LINE
  5
85
330
7F
100
AcDbEntity
  8
중심선
100
AcDbLine
 10
5.245725140726316
 20
7.84717430164391
 30
0.0
 11
8.692000384563599
 21
7.84717430164391
 31
0.0
  0
LINE
  5
86
330
7F
100
AcDbEntity
  8
중심선
100
AcDbLine
 10
15.74043728645272
 20
16.24717430164393
 30
0.0
 11
8.692000384563599
 21
7.84717430164391
 31
0.0
  0
LINE
  5
87
330
7F
100
AcDbEntity
  8
중심선
100
AcDbLine
 10
0.1404042013395286
 20
13.71084872107135
 30
0.0
 11
3.58671253028996
 21
13.71088815037384
 31
0.0
  0
LINE
  5
88
330
7F
100
AcDbEntity
  8
중심선
100
AcDbLine
 10
2.750260043222114
 20
10.84717430164391
 30
0.0
 11
6.196535287059397
 21
10.84717430164391
 31
0.0
  0
LINE
  5
89
330
7F
100
AcDbEntity
  8
중심선
100
AcDbLine
 10
12.29416204261559
 20
16.24717430164393
 30
0.0
 11
5.245725140726316
 21
7.84717430164391
 31
0.0
  0
LINE
  5
8A
330
7F
100
AcDbEntity
  8
중심선
100
AcDbLine
 10
10.72767329541681
 20
16.24717430164393
 30
0.0
 11
6.196535287059397
 21
10.84717430164391
 31
0.0
  0
LINE
  5
8B
330
7F
100
AcDbEntity
  8
중심선
100
AcDbLine
 10
7.28139805157953
 20
16.24717430164393
 30
0.0
 11
2.750260043222114
 21
10.84717430164391
 31
0.0
  0
LINE
  5
8C
330
7F
100
AcDbEntity
  8
중심선
100
AcDbLine
 10
5.714909304380834
 20
16.24717430164393
 30
0.0
 11
3.58671253028996
 21
13.71088815037384
 31
0.0
  0
LINE
  5
8D
330
7F
100
AcDbEntity
  8
중심선
100
AcDbLine
 10
2.268634060543552
 20
16.24717430164393
 30
0.0
 11
0.1404042013395286
 21
13.71084872107135
 31
0.0
  0
LINE
  5
8E
330
7F
100
AcDbEntity
  8
중심선
100
AcDbLine
 10
7.28139805157953
 20
16.24717430164393
 30
0.0
 11
10.72767329541681
 21
16.24717430164393
 31
0.0
  0
LINE
  5
8F
330
7F
100
AcDbEntity
  8
중심선
100
AcDbLine
 10
12.29416204261559
 20
16.24717430164393
 30
0.0
 11
15.74043728645272
 21
16.24717430164393
 31
0.0
  0
LINE
  5
90
330
7F
100
AcDbEntity
  8
중심선
100
AcDbLine
 10
19.22036997980202
 20
11.08717430171403
 30
0.0
 11
23.66174974927406
 21
11.08717430171406
 31
0.0
  0
LINE
  5
91
330
7F
100
AcDbEntity
  8
중심선
100
AcDbLine
 10
19.22039502424796
 20
13.00717430171391
 30
0.0
 11
19.22036997980202
 21
11.08717430171403
 31
0.0
  0
LINE
  5
92
330
7F
100
AcDbEntity
  8
중심선
100
AcDbLine
 10
19.22039502424796
 20
13.00717430171391
 30
0.0
 11
26.96566020931264
 21
13.00717430171391
 31
0.0
  0
LINE
  5
93
330
7F
100
AcDbEntity
  8
중심선
100
AcDbLine
 10
22.22332737316547
 20
13.45928029700563
 30
0.0
 11
24.52862924686651
 21
15.39360700705356
 31
0.0
  0
ATTDEF
  5
95
330
7F
100
AcDbEntity
  8
FORMAT
 62
     2
100
AcDbText
 10
4.408487351596664
 20
2.075366912832191
 30
0.0
 40
4.233333333333333
  1
E2005006
 41
0.75
  7
SLDTEXTSTYLE0
 11
4.408487351596664
 21
-0.0412997538344756
 31
0.0
100
AcDbAttributeDefinition
  3

  2
AUTOATTR0
 70
     0
 74
     1
  0
ENDBLK
  5
81
330
7F
100
AcDbEntity
  8
0
100
AcDbBlockEnd
  0
BLOCK
  5
E1
330
E0
100
AcDbEntity
  8
0
100
AcDbBlockBegin
  2
_D
 70
     0
 10
0.0
 20
0.0
 30
0.0
  3
_D
  1
_D
  0
LINE
  5
E3
330
E0
100
AcDbEntity
  8
치수문자_일반주서
 62
     0
370
    -2
100
AcDbLine
 10
-20.81277700723832
 20
2.381249999999995
 30
0.0
 11
-46.33750000000001
 21
2.381249999999899
 31
0.0
  0
LINE
  5
E4
330
E0
100
AcDbEntity
  8
치수문자_일반주서
 62
     0
370
    -2
100
AcDbLine
 10
-20.8127770072383
 20
-2.381250000000001
 30
0.0
 11
-46.33749999999999
 21
-2.381250000000097
 31
0.0
  0
LINE
  5
E5
330
E0
100
AcDbEntity
  8
치수문자_일반주서
 62
     0
370
    -2
100
AcDbLine
 10
-46.3375
 20
-0.9207500000001003
 30
0.0
 11
-46.3375
 21
0.9207499999999027
 31
0.0
  0
SOLID
  5
E6
330
E0
100
AcDbEntity
  8
치수문자_일반주서
 62
     0
100
AcDbTrace
 10
-45.78716666666666
 20
-0.9207500000000987
 30
0.0
 11
-46.88783333333333
 21
-0.920750000000102
 31
0.0
 12
-46.33750000000001
 22
2.381249999999899
 32
0.0
 13
-46.33750000000001
 23
2.381249999999899
 33
0.0
  0
SOLID
  5
E7
330
E0
100
AcDbEntity
  8
치수문자_일반주서
 62
     0
100
AcDbTrace
 10
-46.88783333333333
 20
0.920749999999901
 30
0.0
 11
-45.78716666666666
 21
0.9207499999999044
 31
0.0
 12
-46.33749999999999
 22
-2.381250000000097
 32
0.0
 13
-46.33749999999999
 23
-2.381250000000097
 33
0.0
  0
MTEXT
  5
E8
330
E0
100
AcDbEntity
  8
치수문자_일반주서
 62
     0
100
AcDbMText
 10
-50.7125
 20
-0.0000000000000089
 30
0.0
 40
3.5
 41
0.0
 71
     2
 72
     1
  1
\A1;%%c4.76 [3/16]
  7
SLDTEXTSTYLE0
 11
-2.983906501879689E-15
 21
1.0
 31
0.0
 73
     1
 44
1.0
  0
POINT
  5
E9
330
E0
100
AcDbEntity
  8
Defpoints
 62
     0
100
AcDbPoint
 10
-20.75027700723832
 20
2.381249999999995
 30
0.0
  0
POINT
  5
EA
330
E0
100
AcDbEntity
  8
Defpoints
 62
     0
100
AcDbPoint
 10
-20.7502770072383
 20
-2.381250000000001
 30
0.0
  0
POINT
  5
EB
330
E0
100
AcDbEntity
  8
Defpoints
 62
     0
100
AcDbPoint
 10
-46.33749999999999
 20
-2.381250000000096
 30
0.0
  0
ENDBLK
  5
E2
330
E0
100
AcDbEntity
  8
0
100
AcDbBlockEnd
  0
BLOCK
  5
F5
330
F4
100
AcDbEntity
  8
0
100
AcDbBlockBegin
  2
_D_1
 70
     0
 10
0.0
 20
0.0
 30
0.0
  3
_D_1
  1
_D_1
  0
LINE
  5
F7
330
F4
100
AcDbEntity
  8
치수문자_일반주서
 62
     0
370
    -2
100
AcDbLine
 10
33.40000000000003
 20
-1.190624999999996
 30
0.0
 11
52.33750000000012
 21
-1.190624999999926
 31
0.0
  0
LINE
  5
F8
330
F4
100
AcDbEntity
  8
치수문자_일반주서
 62
     0
370
    -2
100
AcDbLine
 10
33.40000000000003
 20
1.190625000000004
 30
0.0
 11
52.33750000000011
 21
1.190625000000075
 31
0.0
  0
LINE
  5
F9
330
F4
100
AcDbEntity
  8
치수문자_일반주서
 62
     0
370
    -2
100
AcDbLine
 10
52.33750000000011
 20
1.190625000000075
 30
0.0
 11
52.33749999999998
 21
44.71940988448053
 31
0.0
  0
LINE
  5
FA
330
F4
100
AcDbEntity
  8
치수문자_일반주서
 62
     0
370
    -2
100
AcDbLine
 10
52.33750000000012
 20
-1.190624999999926
 30
0.0
 11
52.33750000000011
 21
1.190625000000075
 31
0.0
  0
LINE
  5
FB
330
F4
100
AcDbEntity
  8
치수문자_일반주서
 62
     0
370
    -2
100
AcDbLine
 10
52.33750000000013
 20
-4.492624999999926
 30
0.0
 11
52.33750000000013
 21
-7.794624999999925
 31
0.0
  0
LINE
  5
FC
330
F4
100
AcDbEntity
  8
치수문자_일반주서
 62
     0
370
    -2
100
AcDbLine
 10
52.33750000000011
 20
4.492625000000075
 30
0.0
 11
52.3375000000001
 21
7.794625000000075
 31
0.0
  0
SOLID
  5
FD
330
F4
100
AcDbEntity
  8
치수문자_일반주서
 62
     0
100
AcDbTrace
 10
52.88783333333346
 20
-4.492624999999924
 30
0.0
 11
51.78716666666679
 21
-4.492624999999927
 31
0.0
 12
52.33750000000012
 22
-1.190624999999926
 32
0.0
 13
52.33750000000012
 23
-1.190624999999926
 33
0.0
  0
SOLID
  5
FE
330
F4
100
AcDbEntity
  8
치수문자_일반주서
 62
     0
100
AcDbTrace
 10
51.78716666666677
 20
4.492625000000073
 30
0.0
 11
52.88783333333344
 21
4.492625000000077
 31
0.0
 12
52.33750000000011
 22
1.190625000000075
 32
0.0
 13
52.33750000000011
 23
1.190625000000075
 33
0.0
  0
MTEXT
  5
FF
330
F4
100
AcDbEntity
  8
치수문자_일반주서
 62
     0
100
AcDbMText
 10
47.96250000000003
 20
30.28190988448052
 30
0.0
 40
3.5
 41
0.0
 71
     2
 72
     1
  1
\A1;%%c2.38 [3/32]
  7
SLDTEXTSTYLE0
 11
-2.983906501879686E-15
 21
1.0
 31
0.0
 73
     1
 44
1.0
  0
POINT
  5
100
330
F4
100
AcDbEntity
  8
Defpoints
 62
     0
100
AcDbPoint
 10
33.33750000000003
 20
-1.190624999999996
 30
0.0
  0
POINT
  5
101
330
F4
100
AcDbEntity
  8
Defpoints
 62
     0
100
AcDbPoint
 10
33.33750000000003
 20
1.190625000000004
 30
0.0
  0
POINT
  5
102
330
F4
100
AcDbEntity
  8
Defpoints
 62
     0
100
AcDbPoint
 10
52.33750000000011
 20
1.190625000000075
 30
0.0
  0
ENDBLK
  5
F6
330
F4
100
AcDbEntity
  8
0
100
AcDbBlockEnd
  0
BLOCK
  5
109
330
108
100
AcDbEntity
  8
0
100
AcDbBlockBegin
  2
_D_2
 70
     0
 10
0.0
 20
0.0
 30
0.0
  3
_D_2
  1
_D_2
  0
LINE
  5
10B
330
108
100
AcDbEntity
  8
치수문자_일반주서
 62
     0
370
    -2
100
AcDbLine
 10
33.33750000000003
 20
1.253125000000004
 30
0.0
 11
33.33750000000003
 21
17.50162275593958
 31
0.0
  0
LINE
  5
10C
330
108
100
AcDbEntity
  8
치수문자_일반주서
 62
     0
370
    -2
100
AcDbLine
 10
26.19375000000002
 20
0.8606210398789846
 30
0.0
 11
26.19375000000002
 21
17.50162275593958
 31
0.0
  0
LINE
  5
10D
330
108
100
AcDbEntity
  8
치수문자_일반주서
 62
     0
370
    -2
100
AcDbLine
 10
26.19375000000002
 20
17.50162275593958
 30
0.0
 11
-8.332490201984468
 21
17.50162275593958
 31
0.0
  0
LINE
  5
10E
330
108
100
AcDbEntity
  8
치수문자_일반주서
 62
     0
370
    -2
100
AcDbLine
 10
33.33750000000003
 20
17.50162275593958
 30
0.0
 11
26.19375000000002
 21
17.50162275593958
 31
0.0
  0
LINE
  5
10F
330
108
100
AcDbEntity
  8
치수문자_일반주서
 62
     0
370
    -2
100
AcDbLine
 10
36.63950000000003
 20
17.50162275593958
 30
0.0
 11
39.94150000000003
 21
17.50162275593958
 31
0.0
  0
LINE
  5
110
330
108
100
AcDbEntity
  8
치수문자_일반주서
 62
     0
370
    -2
100
AcDbLine
 10
22.89175000000002
 20
17.50162275593958
 30
0.0
 11
19.58975000000002
 21
17.50162275593958
 31
0.0
  0
SOLID
  5
111
330
108
100
AcDbEntity
  8
치수문자_일반주서
 62
     0
100
AcDbTrace
 10
36.63950000000003
 20
18.05195608927291
 30
0.0
 11
36.63950000000003
 21
16.95128942260624
 31
0.0
 12
33.33750000000003
 22
17.50162275593958
 32
0.0
 13
33.33750000000003
 23
17.50162275593958
 33
0.0
  0
SOLID
  5
112
330
108
100
AcDbEntity
  8
치수문자_일반주서
 62
     0
100
AcDbTrace
 10
22.89175000000002
 20
16.95128942260624
 30
0.0
 11
22.89175000000002
 21
18.05195608927291
 31
0.0
 12
26.19375000000002
 22
17.50162275593958
 32
0.0
 13
26.19375000000002
 23
17.50162275593958
 33
0.0
  0
MTEXT
  5
113
330
108
100
AcDbEntity
  8
치수문자_일반주서
 62
     0
100
AcDbMText
 10
4.355009798015532
 20
21.87662275593958
 30
0.0
 40
3.5
 41
0.0
 71
     2
 72
     1
  1
\A1;7.14 [9/32]
  7
SLDTEXTSTYLE0
 73
     1
 44
1.0
  0
POINT
  5
114
330
108
100
AcDbEntity
  8
Defpoints
 62
     0
100
AcDbPoint
 10
33.33750000000003
 20
1.190625000000004
 30
0.0
  0
POINT
  5
115
330
108
100
AcDbEntity
  8
Defpoints
 62
     0
100
AcDbPoint
 10
26.19375000000002
 20
0.7981210398789846
 30
0.0
  0
POINT
  5
116
330
108
100
AcDbEntity
  8
Defpoints
 62
     0
100
AcDbPoint
 10
26.19375000000002
 20
17.50162275593958
 30
0.0
  0
ENDBLK
  5
10A
330
108
100
AcDbEntity
  8
0
100
AcDbBlockEnd
  0
BLOCK
  5
11F
330
11E
100
AcDbEntity
  8
0
100
AcDbBlockBegin
  2
_D_3
 70
     0
 10
0.0
 20
0.0
 30
0.0
  3
_D_3
  1
_D_3
  0
LINE
  5
121
330
11E
100
AcDbEntity
  8
치수문자_일반주서
 62
     0
370
    -2
100
AcDbLine
 10
-33.33750000000002
 20
1.253124999999996
 30
0.0
 11
-33.33750000000001
 21
36.38125000000002
 31
0.0
  0
LINE
  5
122
330
11E
100
AcDbEntity
  8
치수문자_일반주서
 62
     0
370
    -2
100
AcDbLine
 10
33.33750000000003
 20
1.253125000000004
 30
0.0
 11
33.33750000000003
 21
36.38125000000002
 31
0.0
  0
LINE
  5
123
330
11E
100
AcDbEntity
  8
치수문자_일반주서
 62
     0
370
    -2
100
AcDbLine
 10
-30.03550000000001
 20
36.38125000000002
 30
0.0
 11
30.03550000000003
 21
36.38125000000002
 31
0.0
  0
SOLID
  5
124
330
11E
100
AcDbEntity
  8
치수문자_일반주서
 62
     0
100
AcDbTrace
 10
-30.03550000000001
 20
36.93158333333336
 30
0.0
 11
-30.03550000000001
 21
35.83091666666669
 31
0.0
 12
-33.33750000000001
 22
36.38125000000002
 32
0.0
 13
-33.33750000000001
 23
36.38125000000002
 33
0.0
  0
SOLID
  5
125
330
11E
100
AcDbEntity
  8
치수문자_일반주서
 62
     0
100
AcDbTrace
 10
30.03550000000003
 20
35.83091666666669
 30
0.0
 11
30.03550000000003
 21
36.93158333333336
 31
0.0
 12
33.33750000000003
 22
36.38125000000002
 32
0.0
 13
33.33750000000003
 23
36.38125000000002
 33
0.0
  0
MTEXT
  5
126
330
11E
100
AcDbEntity
  8
치수문자_일반주서
 62
     0
100
AcDbMText
 10
0.0000000000000231
 20
40.75625000000002
 30
0.0
 40
3.5
 41
0.0
 71
     2
 72
     1
  1
\A1;66.68 [2 5/8]
  7
SLDTEXTSTYLE0
 73
     1
 44
1.0
  0
POINT
  5
127
330
11E
100
AcDbEntity
  8
Defpoints
 62
     0
100
AcDbPoint
 10
-33.33750000000002
 20
1.190624999999996
 30
0.0
  0
POINT
  5
128
330
11E
100
AcDbEntity
  8
Defpoints
 62
     0
100
AcDbPoint
 10
33.33750000000003
 20
1.190625000000004
 30
0.0
  0
POINT
  5
129
330
11E
100
AcDbEntity
  8
Defpoints
 62
     0
100
AcDbPoint
 10
33.33750000000003
 20
36.38125000000002
 30
0.0
  0
ENDBLK
  5
120
330
11E
100
AcDbEntity
  8
0
100
AcDbBlockEnd
  0
BLOCK
  5
138
330
137
100
AcDbEntity
  8
0
100
AcDbBlockBegin
  2
SW_DOWELSYMBOL_0
 70
     0
 10
0.0
 20
0.0
 30
0.0
  3
SW_DOWELSYMBOL_0
  1
SW_DOWELSYMBOL_0
  0
CIRCLE
  5
13A
330
137
100
AcDbEntity
  8
해칭선
 62
     0
100
AcDbCircle
 10
0.0
 20
0.0
 30
0.0
 40
3.000000000000001
  0
HATCH
  5
13B
330
137
100
AcDbEntity
  8
0
  6
Continuous
 62
     0
370
     0
100
AcDbHatch
 10
0.0
 20
0.0
 30
0.0
210
0.0
220
0.0
230
1.0
  2
SOLID
 70
     1
 71
     0
 91
        1
 92
        0
 93
        3
 72
     2
 10
0.0
 20
0.0
 40
3.000000000000001
 50
0.0
 51
90.0
 73
     1
 72
     1
 10
0.0
 20
3.000000000000001
 11
0.0
 21
0.0
 72
     1
 10
0.0
 20
0.0
 11
3.000000000000001
 21
0.0
 97
        0
 75
     0
 76
     1
 98
        1
 10
0.0
 20
0.0
  0
HATCH
  5
13C
330
137
100
AcDbEntity
  8
0
  6
Continuous
 62
     0
370
     0
100
AcDbHatch
 10
0.0
 20
0.0
 30
0.0
210
0.0
220
0.0
230
1.0
  2
SOLID
 70
     1
 71
     0
 91
        1
 92
        0
 93
        3
 72
     2
 10
0.0
 20
0.0
 40
3.000000000000001
 50
180.0
 51
270.0000000000007
 73
     1
 72
     1
 10
0.0
 20
-3.000000000000001
 11
0.0
 21
0.0
 72
     1
 10
0.0
 20
0.0
 11
-3.000000000000001
 21
0.0
 97
        0
 75
     0
 76
     1
 98
        1
 10
0.0
 20
0.0
  0
ENDBLK
  5
139
330
137
100
AcDbEntity
  8
0
100
AcDbBlockEnd
  0
BLOCK
  5
242
330
241
100
AcDbEntity
  8
0
100
AcDbBlockBegin
  2
*D7
 70
     1
 10
0.0
 20
0.0
 30
0.0
  3
*D7
  1
*D8
  0
LINE
  5
244
330
241
100
AcDbEntity
  8
치수문자_일반주서
 62
     0
370
    -2
100
AcDbLine
 10
29.15914416063476
 20
15.50625000000001
 30
0.0
 11
4.375000000000035
 21
15.50624999999992
 31
0.0
  0
LINE
  5
245
330
241
100
AcDbEntity
  8
치수문자_일반주서
 62
     0
370
    -2
100
AcDbLine
 10
29.15914416063476
 20
10.74375000000001
 30
0.0
 11
4.375000000000052
 21
10.74374999999992
 31
0.0
  0
LINE
  5
246
330
241
100
AcDbEntity
  8
치수문자_일반주서
 62
     0
370
    -2
100
AcDbLine
 10
4.375000000000046
 20
12.20424999999992
 30
0.0
 11
4.37500000000004
 21
14.04574999999991
 31
0.0
  0
SOLID
  5
247
330
241
100
AcDbEntity
  8
치수문자_일반주서
 62
     0
100
AcDbTrace
 10
4.92533333333338
 20
12.20424999999992
 30
0.0
 11
3.824666666666713
 21
12.20424999999992
 31
0.0
 12
4.375000000000035
 22
15.50624999999992
 32
0.0
 13
4.375000000000035
 23
15.50624999999992
 33
0.0
  0
SOLID
  5
248
330
241
100
AcDbEntity
  8
치수문자_일반주서
 62
     0
100
AcDbTrace
 10
3.824666666666707
 20
14.04574999999991
 30
0.0
 11
4.925333333333374
 21
14.04574999999992
 31
0.0
 12
4.375000000000052
 22
10.74374999999992
 32
0.0
 13
4.375000000000052
 23
10.74374999999992
 33
0.0
  0
MTEXT
  5
249
330
241
100
AcDbEntity
  8
치수문자_일반주서
 62
     0
100
AcDbMText
 10
0.0000000000000426
 20
13.125
 30
0.0
 40
3.5
 41
0.0
 71
     2
 72
     1
  1
\A1;%%c4.76 [3/16]
  7
SLDTEXTSTYLE0
 11
-3.543388970982125E-15
 21
1.0
 31
0.0
 73
     1
 44
1.0
  0
POINT
  5
24A
330
241
100
AcDbEntity
  8
Defpoints
 62
     0
100
AcDbPoint
 10
29.22164416063476
 20
15.50625000000001
 30
0.0
  0
POINT
  5
24B
330
241
100
AcDbEntity
  8
Defpoints
 62
     0
100
AcDbPoint
 10
29.22164416063476
 20
10.74375000000001
 30
0.0
  0
POINT
  5
24C
330
241
100
AcDbEntity
  8
Defpoints
 62
     0
100
AcDbPoint
 10
4.37500000000005
 20
10.74374999999992
 30
0.0
  0
ENDBLK
  5
243
330
241
100
AcDbEntity
  8
0
100
AcDbBlockEnd
  0
BLOCK
  5
24E
330
24D
100
AcDbEntity
  8
0
100
AcDbBlockBegin
  2
*D8
 70
     1
 10
0.0
 20
0.0
 30
0.0
  3
*D8
  1
*D9
  0
LINE
  5
250
330
24D
100
AcDbEntity
  8
치수문자_일반주서
 62
     0
370
    -2
100
AcDbLine
 10
84.11250000000007
 20
11.73711151447008
 30
0.0
 11
103.0500000000002
 21
11.73711151447015
 31
0.0
  0
LINE
  5
251
330
24D
100
AcDbEntity
  8
치수문자_일반주서
 62
     0
370
    -2
100
AcDbLine
 10
84.11250000000007
 20
14.51288848552994
 30
0.0
 11
103.0500000000002
 21
14.51288848553001
 31
0.0
  0
LINE
  5
252
330
24D
100
AcDbEntity
  8
치수문자_일반주서
 62
     0
370
    -2
100
AcDbLine
 10
103.0500000000002
 20
14.51288848553001
 30
0.0
 11
103.05
 21
49.99188848553001
 31
0.0
  0
LINE
  5
253
330
24D
100
AcDbEntity
  8
치수문자_일반주서
 62
     0
370
    -2
100
AcDbLine
 10
103.0500000000002
 20
11.73711151447015
 30
0.0
 11
103.0500000000002
 21
14.51288848553001
 31
0.0
  0
LINE
  5
254
330
24D
100
AcDbEntity
  8
치수문자_일반주서
 62
     0
370
    -2
100
AcDbLine
 10
103.0500000000003
 20
8.435111514470155
 30
0.0
 11
103.0500000000003
 21
5.133111514470155
 31
0.0
  0
LINE
  5
255
330
24D
100
AcDbEntity
  8
치수문자_일반주서
 62
     0
370
    -2
100
AcDbLine
 10
103.0500000000002
 20
17.81488848553001
 30
0.0
 11
103.0500000000002
 21
21.11688848553001
 31
0.0
  0
SOLID
  5
256
330
24D
100
AcDbEntity
  8
치수문자_일반주서
 62
     0
100
AcDbTrace
 10
103.6003333333336
 20
8.435111514470158
 30
0.0
 11
102.4996666666669
 21
8.435111514470151
 31
0.0
 12
103.0500000000002
 22
11.73711151447015
 32
0.0
 13
103.0500000000002
 23
11.73711151447015
 33
0.0
  0
SOLID
  5
257
330
24D
100
AcDbEntity
  8
치수문자_일반주서
 62
     0
100
AcDbTrace
 10
102.4996666666669
 20
17.81488848553001
 30
0.0
 11
103.6003333333335
 21
17.81488848553001
 31
0.0
 12
103.0500000000002
 22
14.51288848553001
 32
0.0
 13
103.0500000000002
 23
14.51288848553001
 33
0.0
  0
MTEXT
  5
258
330
24D
100
AcDbEntity
  8
치수문자_일반주서
 62
     0
100
AcDbMText
 10
98.67500000000011
 20
35.55438848552999
 30
0.0
 40
3.5
 41
0.0
 71
     2
 72
     1
  1
\A1;%%c2.78 [7/64]
  7
SLDTEXTSTYLE0
 11
-5.119595292908556E-15
 21
1.0
 31
0.0
 73
     1
 44
1.0
  0
POINT
  5
259
330
24D
100
AcDbEntity
  8
Defpoints
 62
     0
100
AcDbPoint
 10
84.05000000000007
 20
11.73711151447008
 30
0.0
  0
POINT
  5
25A
330
24D
100
AcDbEntity
  8
Defpoints
 62
     0
100
AcDbPoint
 10
84.05000000000007
 20
14.51288848552994
 30
0.0
  0
POINT
  5
25B
330
24D
100
AcDbEntity
  8
Defpoints
 62
     0
100
AcDbPoint
 10
103.0500000000002
 20
14.51288848553001
 30
0.0
  0
ENDBLK
  5
24F
330
24D
100
AcDbEntity
  8
0
100
AcDbBlockEnd
  0
BLOCK
  5
25D
330
25C
100
AcDbEntity
  8
0
100
AcDbBlockBegin
  2
*D9
 70
     1
 10
0.0
 20
0.0
 30
0.0
  3
*D9
  1
*D10
  0
LINE
  5
25F
330
25C
100
AcDbEntity
  8
치수문자_일반주서
 62
     0
370
    -2
100
AcDbLine
 10
84.05000000000007
 20
14.57538848552994
 30
0.0
 11
84.05000000000007
 21
28.50362659212399
 31
0.0
  0
LINE
  5
260
330
25C
100
AcDbEntity
  8
치수문자_일반주서
 62
     0
370
    -2
100
AcDbLine
 10
76.90625000000006
 20
14.56461406204761
 30
0.0
 11
76.90625000000006
 21
28.50362659212399
 31
0.0
  0
LINE
  5
261
330
25C
100
AcDbEntity
  8
치수문자_일반주서
 62
     0
370
    -2
100
AcDbLine
 10
76.90625000000006
 20
28.50362659212399
 30
0.0
 11
33.10256727691584
 21
28.50362659212399
 31
0.0
  0
LINE
  5
262
330
25C
100
AcDbEntity
  8
치수문자_일반주서
 62
     0
370
    -2
100
AcDbLine
 10
84.05000000000007
 20
28.50362659212399
 30
0.0
 11
76.90625000000006
 21
28.50362659212399
 31
0.0
  0
LINE
  5
263
330
25C
100
AcDbEntity
  8
치수문자_일반주서
 62
     0
370
    -2
100
AcDbLine
 10
87.35200000000006
 20
28.50362659212399
 30
0.0
 11
90.65400000000005
 21
28.50362659212399
 31
0.0
  0
LINE
  5
264
330
25C
100
AcDbEntity
  8
치수문자_일반주서
 62
     0
370
    -2
100
AcDbLine
 10
73.60425000000006
 20
28.50362659212399
 30
0.0
 11
70.30225000000007
 21
28.50362659212399
 31
0.0
  0
SOLID
  5
265
330
25C
100
AcDbEntity
  8
치수문자_일반주서
 62
     0
100
AcDbTrace
 10
87.35200000000006
 20
29.05395992545733
 30
0.0
 11
87.35200000000006
 21
27.95329325879066
 31
0.0
 12
84.05000000000007
 22
28.50362659212399
 32
0.0
 13
84.05000000000007
 23
28.50362659212399
 33
0.0
  0
SOLID
  5
266
330
25C
100
AcDbEntity
  8
치수문자_일반주서
 62
     0
100
AcDbTrace
 10
73.60425000000006
 20
27.95329325879066
 30
0.0
 11
73.60425000000006
 21
29.05395992545733
 31
0.0
 12
76.90625000000006
 22
28.50362659212399
 32
0.0
 13
76.90625000000006
 23
28.50362659212399
 33
0.0
  0
MTEXT
  5
267
330
25C
100
AcDbEntity
  8
치수문자_일반주서
 62
     0
100
AcDbMText
 10
45.79006727691584
 20
32.87862659212399
 30
0.0
 40
3.5
 41
0.0
 71
     2
 72
     1
  1
\A1;7.14 [9/32]
  7
SLDTEXTSTYLE0
 73
     1
 44
1.0
  0
POINT
  5
268
330
25C
100
AcDbEntity
  8
Defpoints
 62
     0
100
AcDbPoint
 10
84.05000000000007
 20
14.51288848552994
 30
0.0
  0
POINT
  5
269
330
25C
100
AcDbEntity
  8
Defpoints
 62
     0
100
AcDbPoint
 10
76.90625000000006
 20
14.50211406204761
 30
0.0
  0
POINT
  5
26A
330
25C
100
AcDbEntity
  8
Defpoints
 62
     0
100
AcDbPoint
 10
76.90625000000006
 20
28.50362659212399
 30
0.0
  0
ENDBLK
  5
25E
330
25C
100
AcDbEntity
  8
0
100
AcDbBlockEnd
  0
BLOCK
  5
26C
330
26B
100
AcDbEntity
  8
0
100
AcDbBlockBegin
  2
*D10
 70
     1
 10
0.0
 20
0.0
 30
0.0
  3
*D10
  1
*D11
  0
LINE
  5
26E
330
26B
100
AcDbEntity
  8
치수문자_일반주서
 62
     0
370
    -2
100
AcDbLine
 10
17.37500000000004
 20
14.57538848552994
 30
0.0
 11
17.37500000000003
 21
42.21599884015751
 31
0.0
  0
LINE
  5
26F
330
26B
100
AcDbEntity
  8
치수문자_일반주서
 62
     0
370
    -2
100
AcDbLine
 10
84.05000000000007
 20
14.57538848552994
 30
0.0
 11
84.05000000000007
 21
42.21599884015751
 31
0.0
  0
LINE
  5
270
330
26B
100
AcDbEntity
  8
치수문자_일반주서
 62
     0
370
    -2
100
AcDbLine
 10
20.67700000000003
 20
42.21599884015751
 30
0.0
 11
80.74800000000008
 21
42.21599884015751
 31
0.0
  0
SOLID
  5
271
330
26B
100
AcDbEntity
  8
치수문자_일반주서
 62
     0
100
AcDbTrace
 10
20.67700000000003
 20
42.76633217349085
 30
0.0
 11
20.67700000000003
 21
41.66566550682418
 31
0.0
 12
17.37500000000003
 22
42.21599884015751
 32
0.0
 13
17.37500000000003
 23
42.21599884015751
 33
0.0
  0
SOLID
  5
272
330
26B
100
AcDbEntity
  8
치수문자_일반주서
 62
     0
100
AcDbTrace
 10
80.74800000000008
 20
41.66566550682418
 30
0.0
 11
80.74800000000008
 21
42.76633217349085
 31
0.0
 12
84.05000000000007
 22
42.21599884015751
 32
0.0
 13
84.05000000000007
 23
42.21599884015751
 33
0.0
  0
MTEXT
  5
273
330
26B
100
AcDbEntity
  8
치수문자_일반주서
 62
     0
100
AcDbMText
 10
52.16791483414074
 20
46.59099884015751
 30
0.0
 40
3.5
 41
0.0
 71
     2
 72
     1
  1
\A1;66.68 [2 5/8]
  7
SLDTEXTSTYLE0
 73
     1
 44
1.0
  0
POINT
  5
274
330
26B
100
AcDbEntity
  8
Defpoints
 62
     0
100
AcDbPoint
 10
17.37500000000004
 20
14.51288848552994
 30
0.0
  0
POINT
  5
275
330
26B
100
AcDbEntity
  8
Defpoints
 62
     0
100
AcDbPoint
 10
84.05000000000007
 20
14.51288848552994
 30
0.0
  0
POINT
  5
276
330
26B
100
AcDbEntity
  8
Defpoints
 62
     0
100
AcDbPoint
 10
84.05000000000007
 20
42.21599884015751
 30
0.0
  0
ENDBLK
  5
26D
330
26B
100
AcDbEntity
  8
0
100
AcDbBlockEnd
  0
BLOCK
  5
2EE
330
2ED
100
AcDbEntity
  8
0
100
AcDbBlockBegin
  2
*D11
 70
     1
 10
0.0
 20
0.0
 30
0.0
  3
*D11
  1
*D12
  0
LINE
  5
2F0
330
2ED
100
AcDbEntity
  8
치수문자_일반주서
 62
     0
370
    -2
100
AcDbLine
 10
100.3473284025995
 20
-16.16517143875183
 30
0.0
 11
75.56318424196476
 21
-16.16517143875193
 31
0.0
  0
LINE
  5
2F1
330
2ED
100
AcDbEntity
  8
치수문자_일반주서
 62
     0
370
    -2
100
AcDbLine
 10
100.3473284025995
 20
-20.92767143875184
 30
0.0
 11
75.56318424196478
 21
-20.92767143875193
 31
0.0
  0
LINE
  5
2F2
330
2ED
100
AcDbEntity
  8
치수문자_일반주서
 62
     0
370
    -2
100
AcDbLine
 10
75.56318424196478
 20
-19.46717143875193
 30
0.0
 11
75.56318424196476
 21
-17.62567143875193
 31
0.0
  0
SOLID
  5
2F3
330
2ED
100
AcDbEntity
  8
치수문자_일반주서
 62
     0
100
AcDbTrace
 10
76.1135175752981
 20
-19.46717143875193
 30
0.0
 11
75.01285090863145
 21
-19.46717143875193
 31
0.0
 12
75.56318424196476
 22
-16.16517143875193
 32
0.0
 13
75.56318424196476
 23
-16.16517143875193
 33
0.0
  0
SOLID
  5
2F4
330
2ED
100
AcDbEntity
  8
치수문자_일반주서
 62
     0
100
AcDbTrace
 10
75.01285090863144
 20
-17.62567143875193
 30
0.0
 11
76.11351757529809
 21
-17.62567143875193
 31
0.0
 12
75.56318424196478
 22
-20.92767143875193
 32
0.0
 13
75.56318424196478
 23
-20.92767143875193
 33
0.0
  0
MTEXT
  5
2F5
330
2ED
100
AcDbEntity
  8
치수문자_일반주서
 62
     0
100
AcDbMText
 10
71.18818424196476
 20
-18.54642143875185
 30
0.0
 40
3.5
 41
0.0
 71
     2
 72
     1
  1
\A1;%%c4.76 [3/16]
  7
SLDTEXTSTYLE0
 11
-2.983906501879682E-15
 21
1.0
 31
0.0
 73
     1
 44
1.0
  0
POINT
  5
2F6
330
2ED
100
AcDbEntity
  8
Defpoints
 62
     0
100
AcDbPoint
 10
100.4098284025995
 20
-16.16517143875183
 30
0.0
  0
POINT
  5
2F7
330
2ED
100
AcDbEntity
  8
Defpoints
 62
     0
100
AcDbPoint
 10
100.4098284025995
 20
-20.92767143875184
 30
0.0
  0
POINT
  5
2F8
330
2ED
100
AcDbEntity
  8
Defpoints
 62
     0
100
AcDbPoint
 10
75.56318424196478
 20
-20.92767143875193
 30
0.0
  0
ENDBLK
  5
2EF
330
2ED
100
AcDbEntity
  8
0
100
AcDbBlockEnd
  0
BLOCK
  5
2FA
330
2F9
100
AcDbEntity
  8
0
100
AcDbBlockBegin
  2
*D12
 70
     1
 10
0.0
 20
0.0
 30
0.0
  3
*D12
  1
*D13
  0
LINE
  5
2FC
330
2F9
100
AcDbEntity
  8
치수문자_일반주서
 62
     0
370
    -2
100
AcDbLine
 10
155.3006842419648
 20
-19.93430992428177
 30
0.0
 11
174.2381842419648
 21
-19.9343099242817
 31
0.0
  0
LINE
  5
2FD
330
2F9
100
AcDbEntity
  8
치수문자_일반주서
 62
     0
370
    -2
100
AcDbLine
 10
155.3006842419648
 20
-17.15853295322191
 30
0.0
 11
174.2381842419648
 21
-17.15853295322184
 31
0.0
  0
LINE
  5
2FE
330
2F9
100
AcDbEntity
  8
치수문자_일반주서
 62
     0
370
    -2
100
AcDbLine
 10
174.2381842419648
 20
-17.15853295322184
 30
0.0
 11
174.2381842419648
 21
18.32046704677816
 31
0.0
  0
LINE
  5
2FF
330
2F9
100
AcDbEntity
  8
치수문자_일반주서
 62
     0
370
    -2
100
AcDbLine
 10
174.2381842419648
 20
-19.9343099242817
 30
0.0
 11
174.2381842419648
 21
-17.15853295322184
 31
0.0
  0
LINE
  5
300
330
2F9
100
AcDbEntity
  8
치수문자_일반주서
 62
     0
370
    -2
100
AcDbLine
 10
174.2381842419648
 20
-23.2363099242817
 30
0.0
 11
174.2381842419648
 21
-26.53830992428169
 31
0.0
  0
LINE
  5
301
330
2F9
100
AcDbEntity
  8
치수문자_일반주서
 62
     0
370
    -2
100
AcDbLine
 10
174.2381842419648
 20
-13.85653295322184
 30
0.0
 11
174.2381842419648
 21
-10.55453295322184
 31
0.0
  0
SOLID
  5
302
330
2F9
100
AcDbEntity
  8
치수문자_일반주서
 62
     0
100
AcDbTrace
 10
174.7885175752982
 20
-23.2363099242817
 30
0.0
 11
173.6878509086315
 21
-23.2363099242817
 31
0.0
 12
174.2381842419648
 22
-19.9343099242817
 32
0.0
 13
174.2381842419648
 23
-19.9343099242817
 33
0.0
  0
SOLID
  5
303
330
2F9
100
AcDbEntity
  8
치수문자_일반주서
 62
     0
100
AcDbTrace
 10
173.6878509086315
 20
-13.85653295322184
 30
0.0
 11
174.7885175752982
 21
-13.85653295322184
 31
0.0
 12
174.2381842419648
 22
-17.15853295322184
 32
0.0
 13
174.2381842419648
 23
-17.15853295322184
 33
0.0
  0
MTEXT
  5
304
330
2F9
100
AcDbEntity
  8
치수문자_일반주서
 62
     0
100
AcDbMText
 10
169.8631842419648
 20
3.882967046778163
 30
0.0
 40
3.5
 41
0.0
 71
     2
 72
     1
  1
\A1;%%c2.78 [7/64]
  7
SLDTEXTSTYLE0
 11
0.0
 21
1.0
 31
0.0
 73
     1
 44
1.0
  0
POINT
  5
305
330
2F9
100
AcDbEntity
  8
Defpoints
 62
     0
100
AcDbPoint
 10
155.2381842419648
 20
-19.93430992428177
 30
0.0
  0
POINT
  5
306
330
2F9
100
AcDbEntity
  8
Defpoints
 62
     0
100
AcDbPoint
 10
155.2381842419648
 20
-17.15853295322191
 30
0.0
  0
POINT
  5
307
330
2F9
100
AcDbEntity
  8
Defpoints
 62
     0
100
AcDbPoint
 10
174.2381842419649
 20
-17.15853295322184
 30
0.0
  0
ENDBLK
  5
2FB
330
2F9
100
AcDbEntity
  8
0
100
AcDbBlockEnd
  0
BLOCK
  5
309
330
308
100
AcDbEntity
  8
0
100
AcDbBlockBegin
  2
*D13
 70
     1
 10
0.0
 20
0.0
 30
0.0
  3
*D13
  1
*D14
  0
LINE
  5
30B
330
308
100
AcDbEntity
  8
치수문자_일반주서
 62
     0
370
    -2
100
AcDbLine
 10
155.2381842419648
 20
-17.09603295322191
 30
0.0
 11
155.2381842419648
 21
-3.167794846627856
 31
0.0
  0
LINE
  5
30C
330
308
100
AcDbEntity
  8
치수문자_일반주서
 62
     0
370
    -2
100
AcDbLine
 10
148.0944342419648
 20
-17.10680737670424
 30
0.0
 11
148.0944342419648
 21
-3.167794846627856
 31
0.0
  0
LINE
  5
30D
330
308
100
AcDbEntity
  8
치수문자_일반주서
 62
     0
370
    -2
100
AcDbLine
 10
148.0944342419648
 20
-3.167794846627856
 30
0.0
 11
104.2907515188806
 21
-3.167794846627856
 31
0.0
  0
LINE
  5
30E
330
308
100
AcDbEntity
  8
치수문자_일반주서
 62
     0
370
    -2
100
AcDbLine
 10
155.2381842419648
 20
-3.167794846627856
 30
0.0
 11
148.0944342419648
 21
-3.167794846627856
 31
0.0
  0
LINE
  5
30F
330
308
100
AcDbEntity
  8
치수문자_일반주서
 62
     0
370
    -2
100
AcDbLine
 10
158.5401842419648
 20
-3.167794846627856
 30
0.0
 11
161.8421842419648
 21
-3.167794846627856
 31
0.0
  0
LINE
  5
310
330
308
100
AcDbEntity
  8
치수문자_일반주서
 62
     0
370
    -2
100
AcDbLine
 10
144.7924342419648
 20
-3.167794846627856
 30
0.0
 11
141.4904342419648
 21
-3.167794846627856
 31
0.0
  0
SOLID
  5
311
330
308
100
AcDbEntity
  8
치수문자_일반주서
 62
     0
100
AcDbTrace
 10
158.5401842419648
 20
-2.617461513294523
 30
0.0
 11
158.5401842419648
 21
-3.71812817996119
 31
0.0
 12
155.2381842419648
 22
-3.167794846627856
 32
0.0
 13
155.2381842419648
 23
-3.167794846627856
 33
0.0
  0
SOLID
  5
312
330
308
100
AcDbEntity
  8
치수문자_일반주서
 62
     0
100
AcDbTrace
 10
144.7924342419648
 20
-3.71812817996119
 30
0.0
 11
144.7924342419648
 21
-2.617461513294523
 31
0.0
 12
148.0944342419648
 22
-3.167794846627856
 32
0.0
 13
148.0944342419648
 23
-3.167794846627856
 33
0.0
  0
MTEXT
  5
313
330
308
100
AcDbEntity
  8
치수문자_일반주서
 62
     0
100
AcDbMText
 10
116.9782515188806
 20
1.207205153372144
 30
0.0
 40
3.5
 41
0.0
 71
     2
 72
     1
  1
\A1;7.14 [9/32]
  7
SLDTEXTSTYLE0
 73
     1
 44
1.0
  0
POINT
  5
314
330
308
100
AcDbEntity
  8
Defpoints
 62
     0
100
AcDbPoint
 10
155.2381842419648
 20
-17.15853295322191
 30
0.0
  0
POINT
  5
315
330
308
100
AcDbEntity
  8
Defpoints
 62
     0
100
AcDbPoint
 10
148.0944342419648
 20
-17.16930737670424
 30
0.0
  0
POINT
  5
316
330
308
100
AcDbEntity
  8
Defpoints
 62
     0
100
AcDbPoint
 10
148.0944342419648
 20
-3.167794846627856
 30
0.0
  0
ENDBLK
  5
30A
330
308
100
AcDbEntity
  8
0
100
AcDbBlockEnd
  0
BLOCK
  5
318
330
317
100
AcDbEntity
  8
0
100
AcDbBlockBegin
  2
*D14
 70
     1
 10
0.0
 20
0.0
 30
0.0
  3
*D14
  1
*D15
  0
LINE
  5
31A
330
317
100
AcDbEntity
  8
치수문자_일반주서
 62
     0
370
    -2
100
AcDbLine
 10
88.56318424196476
 20
-17.09603295322191
 30
0.0
 11
88.56318424196476
 21
10.54457740140566
 31
0.0
  0
LINE
  5
31B
330
317
100
AcDbEntity
  8
치수문자_일반주서
 62
     0
370
    -2
100
AcDbLine
 10
155.2381842419648
 20
-17.09603295322191
 30
0.0
 11
155.2381842419648
 21
10.54457740140566
 31
0.0
  0
LINE
  5
31C
330
317
100
AcDbEntity
  8
치수문자_일반주서
 62
     0
370
    -2
100
AcDbLine
 10
91.86518424196476
 20
10.54457740140566
 30
0.0
 11
151.9361842419648
 21
10.54457740140566
 31
0.0
  0
SOLID
  5
31D
330
317
100
AcDbEntity
  8
치수문자_일반주서
 62
     0
100
AcDbTrace
 10
91.86518424196476
 20
11.09491073473899
 30
0.0
 11
91.86518424196476
 21
9.994244068072328
 31
0.0
 12
88.56318424196476
 22
10.54457740140566
 32
0.0
 13
88.56318424196476
 23
10.54457740140566
 33
0.0
  0
SOLID
  5
31E
330
317
100
AcDbEntity
  8
치수문자_일반주서
 62
     0
100
AcDbTrace
 10
151.9361842419648
 20
9.994244068072328
 30
0.0
 11
151.9361842419648
 21
11.09491073473899
 31
0.0
 12
155.2381842419648
 22
10.54457740140566
 32
0.0
 13
155.2381842419648
 23
10.54457740140566
 33
0.0
  0
MTEXT
  5
31F
330
317
100
AcDbEntity
  8
치수문자_일반주서
 62
     0
100
AcDbMText
 10
123.3560990761055
 20
14.91957740140566
 30
0.0
 40
3.5
 41
0.0
 71
     2
 72
     1
  1
\A1;66.68 [2 5/8]
  7
SLDTEXTSTYLE0
 73
     1
 44
1.0
  0
POINT
  5
320
330
317
100
AcDbEntity
  8
Defpoints
 62
     0
100
AcDbPoint
 10
88.56318424196476
 20
-17.15853295322191
 30
0.0
  0
POINT
  5
321
330
317
100
AcDbEntity
  8
Defpoints
 62
     0
100
AcDbPoint
 10
155.2381842419648
 20
-17.15853295322191
 30
0.0
  0
POINT
  5
322
330
317
100
AcDbEntity
  8
Defpoints
 62
     0
100
AcDbPoint
 10
155.2381842419648
 20
10.54457740140566
 30
0.0
  0
ENDBLK
  5
319
330
317
100
AcDbEntity
  8
0
100
AcDbBlockEnd
  0
BLOCK
  5
3BF
330
3BE
100
AcDbEntity
  8
0
100
AcDbBlockBegin
  2
*D15
 70
     1
 10
0.0
 20
0.0
 30
0.0
  3
*D15
  1
*D17
  0
LINE
  5
3C1
330
3BE
100
AcDbEntity
  8
치수문자_일반주서
 62
     0
370
    -2
100
AcDbLine
 10
69.73750000000003
 20
6.603999999999928
 30
0.0
 11
88.67500000000022
 21
6.603999999999999
 31
0.0
  0
LINE
  5
3C2
330
3BE
100
AcDbEntity
  8
치수문자_일반주서
 62
     0
370
    -2
100
AcDbLine
 10
69.73750000000003
 20
8.983237403765518
 30
0.0
 11
88.67500000000021
 21
8.983237403765589
 31
0.0
  0
LINE
  5
3C3
330
3BE
100
AcDbEntity
  8
치수문자_일반주서
 62
     0
370
    -2
100
AcDbLine
 10
88.67500000000021
 20
8.983237403765589
 30
0.0
 11
88.67499999999995
 21
52.51302858636325
 31
0.0
  0
LINE
  5
3C4
330
3BE
100
AcDbEntity
  8
치수문자_일반주서
 62
     0
370
    -2
100
AcDbLine
 10
88.67500000000022
 20
6.603999999999999
 30
0.0
 11
88.67500000000021
 21
8.983237403765589
 31
0.0
  0
LINE
  5
3C5
330
3BE
100
AcDbEntity
  8
치수문자_일반주서
 62
     0
370
    -2
100
AcDbLine
 10
88.67500000000024
 20
3.302
 30
0.0
 11
88.67500000000025
 21
0.0
 31
0.0
  0
LINE
  5
3C6
330
3BE
100
AcDbEntity
  8
치수문자_일반주서
 62
     0
370
    -2
100
AcDbLine
 10
88.6750000000002
 20
12.28523740376559
 30
0.0
 11
88.67500000000018
 21
15.58723740376559
 31
0.0
  0
SOLID
  5
3C7
330
3BE
100
AcDbEntity
  8
치수문자_일반주서
 62
     0
100
AcDbTrace
 10
89.22533333333357
 20
3.302000000000003
 30
0.0
 11
88.12466666666691
 21
3.301999999999996
 31
0.0
 12
88.67500000000022
 22
6.603999999999999
 32
0.0
 13
88.67500000000022
 23
6.603999999999999
 33
0.0
  0
SOLID
  5
3C8
330
3BE
100
AcDbEntity
  8
치수문자_일반주서
 62
     0
100
AcDbTrace
 10
88.12466666666687
 20
12.28523740376558
 30
0.0
 11
89.22533333333352
 21
12.28523740376559
 31
0.0
 12
88.67500000000021
 22
8.983237403765589
 32
0.0
 13
88.67500000000021
 23
8.983237403765589
 33
0.0
  0
MTEXT
  5
3C9
330
3BE
100
AcDbEntity
  8
치수문자_일반주서
 62
     0
100
AcDbMText
 10
84.30000000000004
 20
38.07552858636323
 30
0.0
 40
3.5
 41
0.0
 71
     2
 72
     1
  1
\A1;%%c2.38 [3/32]
  7
SLDTEXTSTYLE0
 11
-5.972861175059983E-15
 21
1.0
 31
0.0
 73
     1
 44
1.0
  0
POINT
  5
3CA
330
3BE
100
AcDbEntity
  8
Defpoints
 62
     0
100
AcDbPoint
 10
69.67500000000003
 20
6.603999999999928
 30
0.0
  0
POINT
  5
3CB
330
3BE
100
AcDbEntity
  8
Defpoints
 62
     0
100
AcDbPoint
 10
69.67500000000003
 20
8.983237403765518
 30
0.0
  0
POINT
  5
3CC
330
3BE
100
AcDbEntity
  8
Defpoints
 62
     0
100
AcDbPoint
 10
88.67500000000013
 20
8.983237403765589
 30
0.0
  0
ENDBLK
  5
3C0
330
3BE
100
AcDbEntity
  8
0
100
AcDbBlockEnd
  0
BLOCK
  5
3CE
330
3CD
100
AcDbEntity
  8
0
100
AcDbBlockBegin
  2
*D16
 70
     1
 10
0.0
 20
0.0
 30
0.0
  3
*D16
  1
*D18
  0
LINE
  5
3D0
330
3CD
100
AcDbEntity
  8
치수문자_일반주서
 62
     0
370
    -2
100
AcDbLine
 10
69.67500000000003
 20
9.045737403765518
 30
0.0
 11
69.67500000000003
 21
25.2952414578223
 31
0.0
  0
LINE
  5
3D1
330
3CD
100
AcDbEntity
  8
치수문자_일반주서
 62
     0
370
    -2
100
AcDbLine
 10
62.53125000000003
 20
8.654239741761709
 30
0.0
 11
62.53125000000003
 21
25.2952414578223
 31
0.0
  0
LINE
  5
3D2
330
3CD
100
AcDbEntity
  8
치수문자_일반주서
 62
     0
370
    -2
100
AcDbLine
 10
62.53125000000003
 20
25.2952414578223
 30
0.0
 11
28.00500979801554
 21
25.2952414578223
 31
0.0
  0
LINE
  5
3D3
330
3CD
100
AcDbEntity
  8
치수문자_일반주서
 62
     0
370
    -2
100
AcDbLine
 10
69.67500000000003
 20
25.2952414578223
 30
0.0
 11
62.53125000000003
 21
25.2952414578223
 31
0.0
  0
LINE
  5
3D4
330
3CD
100
AcDbEntity
  8
치수문자_일반주서
 62
     0
370
    -2
100
AcDbLine
 10
72.97700000000003
 20
25.2952414578223
 30
0.0
 11
76.27900000000002
 21
25.2952414578223
 31
0.0
  0
LINE
  5
3D5
330
3CD
100
AcDbEntity
  8
치수문자_일반주서
 62
     0
370
    -2
100
AcDbLine
 10
59.22925000000003
 20
25.2952414578223
 30
0.0
 11
55.92725000000003
 21
25.2952414578223
 31
0.0
  0
SOLID
  5
3D6
330
3CD
100
AcDbEntity
  8
치수문자_일반주서
 62
     0
100
AcDbTrace
 10
72.97700000000003
 20
25.84557479115564
 30
0.0
 11
72.97700000000003
 21
24.74490812448897
 31
0.0
 12
69.67500000000003
 22
25.2952414578223
 32
0.0
 13
69.67500000000003
 23
25.2952414578223
 33
0.0
  0
SOLID
  5
3D7
330
3CD
100
AcDbEntity
  8
치수문자_일반주서
 62
     0
100
AcDbTrace
 10
59.22925000000003
 20
24.74490812448897
 30
0.0
 11
59.22925000000003
 21
25.84557479115564
 31
0.0
 12
62.53125000000003
 22
25.2952414578223
 32
0.0
 13
62.53125000000003
 23
25.2952414578223
 33
0.0
  0
MTEXT
  5
3D8
330
3CD
100
AcDbEntity
  8
치수문자_일반주서
 62
     0
100
AcDbMText
 10
40.69250979801554
 20
29.6702414578223
 30
0.0
 40
3.5
 41
0.0
 71
     2
 72
     1
  1
\A1;7.14 [9/32]
  7
SLDTEXTSTYLE0
 73
     1
 44
1.0
  0
POINT
  5
3D9
330
3CD
100
AcDbEntity
  8
Defpoints
 62
     0
100
AcDbPoint
 10
69.67500000000003
 20
8.983237403765518
 30
0.0
  0
POINT
  5
3DA
330
3CD
100
AcDbEntity
  8
Defpoints
 62
     0
100
AcDbPoint
 10
62.53125000000003
 20
8.591739741761709
 30
0.0
  0
POINT
  5
3DB
330
3CD
100
AcDbEntity
  8
Defpoints
 62
     0
100
AcDbPoint
 10
62.53125000000003
 20
25.2952414578223
 30
0.0
  0
ENDBLK
  5
3CF
330
3CD
100
AcDbEntity
  8
0
100
AcDbBlockEnd
  0
BLOCK
  5
3DD
330
3DC
100
AcDbEntity
  8
0
100
AcDbBlockBegin
  2
*D17
 70
     1
 10
0.0
 20
0.0
 30
0.0
  3
*D17
  1
*D19
  0
LINE
  5
3DF
330
3DC
100
AcDbEntity
  8
치수문자_일반주서
 62
     0
370
    -2
100
AcDbLine
 10
3.000000000000021
 20
9.807368701882716
 30
0.0
 11
3.000000000000014
 21
44.17486870188274
 31
0.0
  0
LINE
  5
3E0
330
3DC
100
AcDbEntity
  8
치수문자_일반주서
 62
     0
370
    -2
100
AcDbLine
 10
69.67500000000003
 20
9.045737403765518
 30
0.0
 11
69.67500000000001
 21
44.17486870188274
 31
0.0
  0
LINE
  5
3E1
330
3DC
100
AcDbEntity
  8
치수문자_일반주서
 62
     0
370
    -2
100
AcDbLine
 10
6.302000000000014
 20
44.17486870188274
 30
0.0
 11
66.37300000000002
 21
44.17486870188274
 31
0.0
  0
SOLID
  5
3E2
330
3DC
100
AcDbEntity
  8
치수문자_일반주서
 62
     0
100
AcDbTrace
 10
6.302000000000014
 20
44.72520203521608
 30
0.0
 11
6.302000000000014
 21
43.62453536854941
 31
0.0
 12
3.000000000000014
 22
44.17486870188274
 32
0.0
 13
3.000000000000014
 23
44.17486870188274
 33
0.0
  0
SOLID
  5
3E3
330
3DC
100
AcDbEntity
  8
치수문자_일반주서
 62
     0
100
AcDbTrace
 10
66.37300000000002
 20
43.62453536854941
 30
0.0
 11
66.37300000000002
 21
44.72520203521608
 31
0.0
 12
69.67500000000001
 22
44.17486870188274
 32
0.0
 13
69.67500000000001
 23
44.17486870188274
 33
0.0
  0
MTEXT
  5
3E4
330
3DC
100
AcDbEntity
  8
치수문자_일반주서
 62
     0
100
AcDbMText
 10
36.33750000000003
 20
48.54986870188274
 30
0.0
 40
3.5
 41
0.0
 71
     2
 72
     1
  1
\A1;66.68 [2 5/8]
  7
SLDTEXTSTYLE0
 73
     1
 44
1.0
  0
POINT
  5
3E5
330
3DC
100
AcDbEntity
  8
Defpoints
 62
     0
100
AcDbPoint
 10
3.000000000000021
 20
9.744868701882716
 30
0.0
  0
POINT
  5
3E6
330
3DC
100
AcDbEntity
  8
Defpoints
 62
     0
100
AcDbPoint
 10
69.67500000000003
 20
8.983237403765518
 30
0.0
  0
POINT
  5
3E7
330
3DC
100
AcDbEntity
  8
Defpoints
 62
     0
100
AcDbPoint
 10
69.67500000000003
 20
44.17486870188274
 30
0.0
  0
ENDBLK
  5
3DE
330
3DC
100
AcDbEntity
  8
0
100
AcDbBlockEnd
  0
BLOCK
  5
429
330
428
100
AcDbEntity
  8
0
100
AcDbBlockBegin
  2
*D18
 70
     1
 10
0.0
 20
0.0
 30
0.0
  3
*D18
  1
*D20
  0
LINE
  5
42B
330
428
100
AcDbEntity
  8
치수문자_일반주서
 62
     0
370
    -2
100
AcDbLine
 10
185.8881256970064
 20
-49.15238157129446
 30
0.0
 11
204.8256256970064
 21
-49.15238157129439
 31
0.0
  0
LINE
  5
42C
330
428
100
AcDbEntity
  8
치수문자_일반주서
 62
     0
370
    -2
100
AcDbLine
 10
185.8881256970064
 20
-46.77314416752887
 30
0.0
 11
204.8256256970064
 21
-46.7731441675288
 31
0.0
  0
LINE
  5
42D
330
428
100
AcDbEntity
  8
치수문자_일반주서
 62
     0
370
    -2
100
AcDbLine
 10
204.8256256970064
 20
-46.7731441675288
 30
0.0
 11
204.8256256970064
 21
-3.243352984931143
 31
0.0
  0
LINE
  5
42E
330
428
100
AcDbEntity
  8
치수문자_일반주서
 62
     0
370
    -2
100
AcDbLine
 10
204.8256256970064
 20
-49.15238157129439
 30
0.0
 11
204.8256256970064
 21
-46.7731441675288
 31
0.0
  0
LINE
  5
42F
330
428
100
AcDbEntity
  8
치수문자_일반주서
 62
     0
370
    -2
100
AcDbLine
 10
204.8256256970064
 20
-52.45438157129439
 30
0.0
 11
204.8256256970064
 21
-55.75638157129439
 31
0.0
  0
LINE
  5
430
330
428
100
AcDbEntity
  8
치수문자_일반주서
 62
     0
370
    -2
100
AcDbLine
 10
204.8256256970064
 20
-43.4711441675288
 30
0.0
 11
204.8256256970064
 21
-40.1691441675288
 31
0.0
  0
SOLID
  5
431
330
428
100
AcDbEntity
  8
치수문자_일반주서
 62
     0
100
AcDbTrace
 10
205.3759590303397
 20
-52.45438157129439
 30
0.0
 11
204.2752923636731
 21
-52.45438157129439
 31
0.0
 12
204.8256256970064
 22
-49.15238157129439
 32
0.0
 13
204.8256256970064
 23
-49.15238157129439
 33
0.0
  0
SOLID
  5
432
330
428
100
AcDbEntity
  8
치수문자_일반주서
 62
     0
100
AcDbTrace
 10
204.2752923636731
 20
-43.4711441675288
 30
0.0
 11
205.3759590303397
 21
-43.4711441675288
 31
0.0
 12
204.8256256970064
 22
-46.7731441675288
 32
0.0
 13
204.8256256970064
 23
-46.7731441675288
 33
0.0
  0
MTEXT
  5
433
330
428
100
AcDbEntity
  8
치수문자_일반주서
 62
     0
100
AcDbMText
 10
200.4506256970064
 20
-17.68085298493114
 30
0.0
 40
3.5
 41
0.0
 71
     2
 72
     1
  1
\A1;%%c2.38 [3/32]
  7
SLDTEXTSTYLE0
 11
0.0
 21
1.0
 31
0.0
 73
     1
 44
1.0
  0
POINT
  5
434
330
428
100
AcDbEntity
  8
Defpoints
 62
     0
100
AcDbPoint
 10
185.8256256970064
 20
-49.15238157129446
 30
0.0
  0
POINT
  5
435
330
428
100
AcDbEntity
  8
Defpoints
 62
     0
100
AcDbPoint
 10
185.8256256970064
 20
-46.77314416752887
 30
0.0
  0
POINT
  5
436
330
428
100
AcDbEntity
  8
Defpoints
 62
     0
100
AcDbPoint
 10
204.8256256970066
 20
-46.7731441675288
 30
0.0
  0
ENDBLK
  5
42A
330
428
100
AcDbEntity
  8
0
100
AcDbBlockEnd
  0
BLOCK
  5
438
330
437
100
AcDbEntity
  8
0
100
AcDbBlockBegin
  2
*D19
 70
     1
 10
0.0
 20
0.0
 30
0.0
  3
*D19
  1
*D21
  0
LINE
  5
43A
330
437
100
AcDbEntity
  8
치수문자_일반주서
 62
     0
370
    -2
100
AcDbLine
 10
185.8256256970064
 20
-46.71064416752887
 30
0.0
 11
185.8256256970064
 21
-30.46114011347209
 31
0.0
  0
LINE
  5
43B
330
437
100
AcDbEntity
  8
치수문자_일반주서
 62
     0
370
    -2
100
AcDbLine
 10
178.6818756970064
 20
-47.10214182953268
 30
0.0
 11
178.6818756970064
 21
-30.46114011347209
 31
0.0
  0
LINE
  5
43C
330
437
100
AcDbEntity
  8
치수문자_일반주서
 62
     0
370
    -2
100
AcDbLine
 10
178.6818756970064
 20
-30.46114011347209
 30
0.0
 11
144.1556354950219
 21
-30.46114011347209
 31
0.0
  0
LINE
  5
43D
330
437
100
AcDbEntity
  8
치수문자_일반주서
 62
     0
370
    -2
100
AcDbLine
 10
185.8256256970064
 20
-30.46114011347209
 30
0.0
 11
178.6818756970064
 21
-30.46114011347209
 31
0.0
  0
LINE
  5
43E
330
437
100
AcDbEntity
  8
치수문자_일반주서
 62
     0
370
    -2
100
AcDbLine
 10
189.1276256970064
 20
-30.46114011347209
 30
0.0
 11
192.4296256970063
 21
-30.46114011347209
 31
0.0
  0
LINE
  5
43F
330
437
100
AcDbEntity
  8
치수문자_일반주서
 62
     0
370
    -2
100
AcDbLine
 10
175.3798756970064
 20
-30.46114011347209
 30
0.0
 11
172.0778756970064
 21
-30.46114011347209
 31
0.0
  0
SOLID
  5
440
330
437
100
AcDbEntity
  8
치수문자_일반주서
 62
     0
100
AcDbTrace
 10
189.1276256970064
 20
-29.91080678013875
 30
0.0
 11
189.1276256970064
 21
-31.01147344680542
 31
0.0
 12
185.8256256970064
 22
-30.46114011347209
 32
0.0
 13
185.8256256970064
 23
-30.46114011347209
 33
0.0
  0
SOLID
  5
441
330
437
100
AcDbEntity
  8
치수문자_일반주서
 62
     0
100
AcDbTrace
 10
175.3798756970064
 20
-31.01147344680542
 30
0.0
 11
175.3798756970064
 21
-29.91080678013875
 31
0.0
 12
178.6818756970064
 22
-30.46114011347209
 32
0.0
 13
178.6818756970064
 23
-30.46114011347209
 33
0.0
  0
MTEXT
  5
442
330
437
100
AcDbEntity
  8
치수문자_일반주서
 62
     0
100
AcDbMText
 10
156.8431354950219
 20
-26.08614011347209
 30
0.0
 40
3.5
 41
0.0
 71
     2
 72
     1
  1
\A1;7.14 [9/32]
  7
SLDTEXTSTYLE0
 73
     1
 44
1.0
  0
POINT
  5
443
330
437
100
AcDbEntity
  8
Defpoints
 62
     0
100
AcDbPoint
 10
185.8256256970064
 20
-46.77314416752887
 30
0.0
  0
POINT
  5
444
330
437
100
AcDbEntity
  8
Defpoints
 62
     0
100
AcDbPoint
 10
178.6818756970064
 20
-47.16464182953268
 30
0.0
  0
POINT
  5
445
330
437
100
AcDbEntity
  8
Defpoints
 62
     0
100
AcDbPoint
 10
178.6818756970064
 20
-30.46114011347209
 30
0.0
  0
ENDBLK
  5
439
330
437
100
AcDbEntity
  8
0
100
AcDbBlockEnd
  0
BLOCK
  5
447
330
446
100
AcDbEntity
  8
0
100
AcDbBlockBegin
  2
*D20
 70
     1
 10
0.0
 20
0.0
 30
0.0
  3
*D20
  1
*D22
  0
LINE
  5
449
330
446
100
AcDbEntity
  8
치수문자_일반주서
 62
     0
370
    -2
100
AcDbLine
 10
119.1506256970063
 20
-45.94901286941167
 30
0.0
 11
119.1506256970063
 21
-11.58151286941165
 31
0.0
  0
LINE
  5
44A
330
446
100
AcDbEntity
  8
치수문자_일반주서
 62
     0
370
    -2
100
AcDbLine
 10
185.8256256970064
 20
-46.71064416752887
 30
0.0
 11
185.8256256970064
 21
-11.58151286941165
 31
0.0
  0
LINE
  5
44B
330
446
100
AcDbEntity
  8
치수문자_일반주서
 62
     0
370
    -2
100
AcDbLine
 10
122.4526256970063
 20
-11.58151286941165
 30
0.0
 11
182.5236256970064
 21
-11.58151286941165
 31
0.0
  0
SOLID
  5
44C
330
446
100
AcDbEntity
  8
치수문자_일반주서
 62
     0
100
AcDbTrace
 10
122.4526256970063
 20
-11.03117953607831
 30
0.0
 11
122.4526256970063
 21
-12.13184620274498
 31
0.0
 12
119.1506256970063
 22
-11.58151286941165
 32
0.0
 13
119.1506256970063
 23
-11.58151286941165
 33
0.0
  0
SOLID
  5
44D
330
446
100
AcDbEntity
  8
치수문자_일반주서
 62
     0
100
AcDbTrace
 10
182.5236256970064
 20
-12.13184620274498
 30
0.0
 11
182.5236256970064
 21
-11.03117953607831
 31
0.0
 12
185.8256256970064
 22
-11.58151286941165
 32
0.0
 13
185.8256256970064
 23
-11.58151286941165
 33
0.0
  0
MTEXT
  5
44E
330
446
100
AcDbEntity
  8
치수문자_일반주서
 62
     0
100
AcDbMText
 10
152.4881256970064
 20
-7.206512869411647
 30
0.0
 40
3.5
 41
0.0
 71
     2
 72
     1
  1
\A1;66.68 [2 5/8]
  7
SLDTEXTSTYLE0
 73
     1
 44
1.0
  0
POINT
  5
44F
330
446
100
AcDbEntity
  8
Defpoints
 62
     0
100
AcDbPoint
 10
119.1506256970063
 20
-46.01151286941167
 30
0.0
  0
POINT
  5
450
330
446
100
AcDbEntity
  8
Defpoints
 62
     0
100
AcDbPoint
 10
185.8256256970064
 20
-46.77314416752887
 30
0.0
  0
POINT
  5
451
330
446
100
AcDbEntity
  8
Defpoints
 62
     0
100
AcDbPoint
 10
185.8256256970064
 20
-11.58151286941165
 30
0.0
  0
ENDBLK
  5
448
330
446
100
AcDbEntity
  8
0
100
AcDbBlockEnd
  0
ENDSEC
  0
SECTION
  2
ENTITIES
  0
LINE
  5
96
330
1F
100
AcDbEntity
  8
외형선
  6
Continuous
370
    15
100
AcDbLine
 10
20.75027700723833
 20
2.381249999999997
 30
0.0
 11
-20.75027700723832
 21
2.381249999999995
 31
0.0
  0
LINE
  5
97
330
1F
100
AcDbEntity
  8
외형선
  6
Continuous
370
    15
100
AcDbLine
 10
-20.7502770072383
 20
-2.381250000000001
 30
0.0
 11
20.75027700723834
 21
-2.381249999999999
 31
0.0
  0
LINE
  5
98
330
1F
100
AcDbEntity
  8
외형선
  6
Continuous
370
    15
100
AcDbLine
 10
20.75027700723833
 20
-2.381250000000001
 30
0.0
 11
25.19375000000002
 21
-1.190625
 31
0.0
  0
LINE
  5
99
330
1F
100
AcDbEntity
  8
외형선
  6
Continuous
370
    15
100
AcDbLine
 10
25.19375000000002
 20
1.190625
 30
0.0
 11
20.75027700723833
 21
2.38125
 31
0.0
  0
LINE
  5
9C
330
1F
100
AcDbEntity
  8
외형선
  6
Continuous
370
    15
100
AcDbLine
 10
25.30384442899271
 20
1.190625
 30
0.0
 11
25.19375000000002
 21
1.190625
 31
0.0
  0
LINE
  5
9D
330
1F
100
AcDbEntity
  8
외형선
  6
Continuous
370
    15
100
AcDbLine
 10
25.19375000000002
 20
-1.190625
 30
0.0
 11
25.30384442899271
 21
-1.190625
 31
0.0
  0
SPLINE
  5
9E
330
1F
100
AcDbEntity
  8
외형선
  6
Continuous
370
    15
100
AcDbSpline
210
0.0
220
0.0
230
1.0
 70
     8
 71
     3
 72
     9
 73
     5
 74
     0
 42
0.000000001
 43
0.00000001
 40
0.0
 40
0.0
 40
0.0
 40
0.0
 40
0.4994481110184787
 40
1.0
 40
1.0
 40
1.0
 40
1.0
 10
26.1937500000004
 20
0.7981024299284605
 30
0.0
 10
26.0451607838253
 20
0.791241850469703
 30
0.0
 10
25.74765397001013
 20
0.7775055297040333
 30
0.0
 10
25.45190562845251
 20
0.7882119873233289
 30
0.0
 10
25.30386823742269
 20
0.793571124908968
 30
0.0
  0
ARC
  5
9F
330
1F
100
AcDbEntity
  8
외형선
  6
Continuous
370
    15
100
AcDbCircle
 10
25.65384092736265
 20
-1.133679212877012
 30
0.0
 40
0.3499964984117498
100
AcDbArc
 50
131.797383565216
 51
179.9919087921989
  0
SPLINE
  5
A0
330
1F
100
AcDbEntity
  8
0
  6
Continuous
 62
     1
370
    25
100
AcDbSpline
210
0.0
220
0.0
230
1.0
 70
     8
 71
     3
 72
     9
 73
     5
 74
     0
 42
0.000000001
 43
0.00000001
 40
0.0
 40
0.0
 40
0.0
 40
0.0
 40
0.5000216119655463
 40
1.0
 40
1.0
 40
1.0
 40
1.0
 10
30.25373224418716
 20
0.3049869811659043
 30
0.0
 10
30.19837613954883
 20
0.3312646906549646
 30
0.0
 10
30.08766871548224
 20
0.3838178380794622
 30
0.0
 10
29.97704784218939
 20
0.4415362009533537
 30
0.0
 10
29.92173979627746
 20
0.4703941349830297
 30
0.0
  0
LINE
  5
A1
330
1F
100
AcDbEntity
  8
0
  6
Continuous
 62
     1
370
    25
100
AcDbLine
 10
27.52098442897097
 20
1.190625000000001
 30
0.0
 11
26.94318323637336
 21
1.190625000000001
 31
0.0
  0
SPLINE
  5
A2
330
1F
100
AcDbEntity
  8
0
  6
Continuous
 62
     1
370
    25
100
AcDbSpline
210
0.0
220
0.0
230
1.0
 70
     8
 71
     3
 72
     9
 73
     5
 74
     0
 42
0.000000001
 43
0.00000001
 40
0.0
 40
0.0
 40
0.0
 40
0.0
 40
0.9489599646658528
 40
1.0
 40
1.0
 40
1.0
 40
1.0
 10
29.85848494334633
 20
0.9461102746419576
 30
0.0
 10
29.54462835830545
 20
0.9307676449752238
 30
0.0
 10
29.21389092287382
 20
0.9145998083561769
 30
0.0
 10
28.8831078533929
 20
0.9370606395408191
 30
0.0
 10
28.86622467383866
 20
0.9382070411581175
 30
0.0
  0
SPLINE
  5
A3
330
1F
100
AcDbEntity
  8
0
  6
Continuous
 62
     1
370
    25
100
AcDbSpline
210
0.0
220
0.0
230
1.0
 70
     8
 71
     3
 72
    10
 73
     6
 74
     0
 42
0.000000001
 43
0.00000001
 40
0.0
 40
0.0
 40
0.0
 40
0.0
 40
0.4515316116245875
 40
0.6538974085756039
 40
1.0
 40
1.0
 40
1.0
 40
1.0
 10
28.06963445873085
 20
-0.9907145584668737
 30
0.0
 10
28.34009570970672
 20
-0.9684269403767944
 30
0.0
 10
28.73177130136003
 20
-0.9361505385984343
 30
0.0
 10
29.32388019183654
 20
-0.9258968844168401
 30
0.0
 10
29.65165050084436
 20
-0.9382898703404999
 30
0.0
 10
29.85848494334633
 20
-0.9461102746419578
 30
0.0
  0
SPLINE
  5
A4
330
1F
100
AcDbEntity
  8
0
  6
Continuous
 62
     1
370
    25
100
AcDbSpline
210
0.0
220
0.0
230
1.0
 70
     8
 71
     3
 72
    11
 73
     7
 74
     0
 42
0.000000001
 43
0.00000001
 40
0.0
 40
0.0
 40
0.0
 40
0.0
 40
0.3730374538583443
 40
0.5999099356238797
 40
0.7940796962812147
 40
0.9999999999999999
 40
0.9999999999999999
 40
0.9999999999999999
 40
0.9999999999999999
 10
30.81548772775935
 20
-0.8954544480347307
 30
0.0
 10
30.9278474213425
 20
-0.8788364221890366
 30
0.0
 10
31.10854160056499
 20
-0.8521117093963312
 30
0.0
 10
31.34659626252765
 20
-0.8257991976524561
 30
0.0
 10
31.53527931182918
 20
-0.8085835854525106
 30
0.0
 10
31.65557315411342
 20
-0.8011841277109104
 30
0.0
 10
31.71748657497604
 20
-0.7973757387475886
 30
0.0
  0
SPLINE
  5
A5
330
1F
100
AcDbEntity
  8
0
  6
Continuous
 62
     1
370
    25
100
AcDbSpline
210
0.0
220
0.0
230
1.0
 70
     8
 71
     3
 72
     9
 73
     5
 74
     0
 42
0.000000001
 43
0.00000001
 40
0.0
 40
0.0
 40
0.0
 40
0.0
 40
0.5020793503016383
 40
1.0
 40
1.0
 40
1.0
 40
1.0
 10
26.51481993859647
 20
0.8218624443748378
 30
0.0
 10
26.46109111679708
 20
0.817299921285525
 30
0.0
 10
26.35407850660487
 20
0.8082126662797732
 30
0.0
 10
26.24704446135212
 20
0.8014631523096103
 30
0.0
 10
26.19375000000002
 20
0.7981024299284384
 30
0.0
  0
SPLINE
  5
A6
330
1F
100
AcDbEntity
  8
0
  6
Continuous
 62
     1
370
    25
100
AcDbSpline
210
0.0
220
0.0
230
1.0
 70
     8
 71
     3
 72
    17
 73
    13
 74
     0
 42
0.000000001
 43
0.00000001
 40
0.0
 40
0.0
 40
0.0
 40
0.0
 40
0.1378529932425907
 40
0.2330151069562677
 40
0.3000790879944866
 40
0.3791028985729692
 40
0.4694529220947312
 40
0.5519471774110402
 40
0.655362455230752
 40
0.7396338323919657
 40
0.8380984770083044
 40
1.0
 40
1.0
 40
1.0
 40
1.0
 10
32.89327425664192
 20
0.8142104956863194
 30
0.0
 10
32.79763021209239
 20
0.8068886379281657
 30
0.0
 10
32.63596156242282
 20
0.7945123853093169
 30
0.0
 10
32.42868418499786
 20
0.7865864598128308
 30
0.0
 10
32.26147049387057
 20
0.7833842977389314
 30
0.0
 10
32.09763064215603
 20
0.7833497219552421
 30
0.0
 10
31.92329791537599
 20
0.7870838403411164
 30
0.0
 10
31.73227555942018
 20
0.7954931734552593
 30
0.0
 10
31.54499455687225
 20
0.8079594088517345
 30
0.0
 10
31.34660286776754
 20
0.8257236337866961
 30
0.0
 10
31.10853848697577
 20
0.8521473288200891
 30
0.0
 10
30.92784622756223
 20
0.878850079021143
 30
0.0
 10
30.81548772775935
 20
0.8954544480347304
 30
0.0
  0
LINE
  5
A7
330
1F
100
AcDbEntity
  8
0
  6
Continuous
 62
     1
370
    25
100
AcDbLine
 10
26.94318323637336
 20
-1.190625000000001
 30
0.0
 11
27.52098442897097
 21
-1.190625000000001
 31
0.0
  0
LINE
  5
A8
330
1F
100
AcDbEntity
  8
외형선
  6
Continuous
370
    15
100
AcDbLine
 10
20.75027700723833
 20
2.38125
 30
0.0
 11
20.75027700723833
 21
-2.381249999999999
 31
0.0
  0
LINE
  5
AA
330
1F
100
AcDbEntity
  8
외형선
  6
Continuous
370
    15
100
AcDbLine
 10
25.19375000000002
 20
1.190625
 30
0.0
 11
25.19375000000002
 21
-1.190625
 31
0.0
  0
SPLINE
  5
AC
330
1F
100
AcDbEntity
  8
외형선
  6
Continuous
370
    15
100
AcDbSpline
210
0.0
220
0.0
230
1.0
 70
     8
 71
     3
 72
    10
 73
     6
 74
     0
 42
0.000000001
 43
0.00000001
 40
0.0
 40
0.0
 40
0.0
 40
0.0
 40
0.5
 40
0.5
 40
1.0
 40
1.0
 40
1.0
 40
1.0
 10
26.19375000000002
 20
1.11286418354171
 30
0.0
 10
26.04645597282358
 20
1.082457125926179
 30
0.0
 10
25.89810001364747
 20
1.043329867586394
 30
0.0
 10
25.5986839457347
 20
0.9491343418814825
 30
0.0
 10
25.4520108429992
 20
0.8945829542895026
 30
0.0
 10
25.30384442899272
 20
0.8333694311170126
 30
0.0
  0
SPLINE
  5
AD
330
1F
100
AcDbEntity
  8
외형선
  6
Continuous
370
    15
100
AcDbSpline
210
0.0
220
0.0
230
1.0
 70
     8
 71
     3
 72
    10
 73
     6
 74
     0
 42
0.000000001
 43
0.00000001
 40
0.0
 40
0.0
 40
0.0
 40
0.0
 40
0.5
 40
0.5
 40
1.0
 40
1.0
 40
1.0
 40
1.0
 10
26.19375000000002
 20
-0.9526929221009642
 30
0.0
 10
26.04647233675309
 20
-0.9013923217681616
 30
0.0
 10
25.89813335781902
 20
-0.8425672462400704
 30
0.0
 10
25.59875039430082
 20
-0.7123028434487082
 30
0.0
 10
25.45209188061351
 20
-0.6415486365737849
 30
0.0
 10
25.30394319366529
 20
-0.5661579771830707
 30
0.0
  0
LINE
  5
AE
330
1F
100
AcDbEntity
  8
외형선
  6
Continuous
370
    15
100
AcDbLine
 10
26.19375000000002
 20
-0.9526929221009636
 30
0.0
 11
26.19375000000002
 21
-1.112864183541711
 31
0.0
  0
SPLINE
  5
AF
330
1F
100
AcDbEntity
  8
외형선
  6
Continuous
370
    15
100
AcDbSpline
210
0.0
220
0.0
230
1.0
 70
     8
 71
     3
 72
    10
 73
     6
 74
     0
 42
0.000000001
 43
0.00000001
 40
0.0
 40
0.0
 40
0.0
 40
0.0
 40
0.4999999999999999
 40
0.4999999999999999
 40
1.0
 40
1.0
 40
1.0
 40
1.0
 10
26.19375000000002
 20
-1.11286418354171
 30
0.0
 10
26.04831235500444
 20
-1.082840353413485
 30
0.0
 10
25.90188192137153
 20
-1.044319941059275
 30
0.0
 10
25.60622319897062
 20
-0.9516983731149178
 30
0.0
 10
25.46119720506332
 20
-0.8980841575797908
 30
0.0
 10
25.31504317937488
 20
-0.8379852402114264
 30
0.0
  0
SPLINE
  5
B0
330
1F
100
AcDbEntity
  8
외형선
  6
Continuous
370
    15
100
AcDbSpline
210
0.0
220
0.0
230
1.0
 70
     8
 71
     3
 72
     8
 73
     4
 74
     0
 42
0.000000001
 43
0.00000001
 40
0.0
 40
0.0
 40
0.0
 40
0.0
 40
1.0
 40
1.0
 40
1.0
 40
1.0
 10
25.30384442899272
 20
-1.002589469351485
 30
0.0
 10
25.30384442899272
 20
-0.955142673358957
 30
0.0
 10
25.30491893067453
 20
-0.9001658587262464
 30
0.0
 10
25.31504317937507
 20
-0.8379852402114158
 30
0.0
  0
LINE
  5
B1
330
1F
100
AcDbEntity
  8
외형선
  6
Continuous
370
    15
100
AcDbLine
 10
25.30384442899271
 20
-1.190625
 30
0.0
 11
25.30384442899272
 21
-1.002589469351551
 31
0.0
  0
LINE
  5
B2
330
1F
100
AcDbEntity
  8
외형선
  6
Continuous
370
    15
100
AcDbLine
 10
25.30384442899271
 20
-0.5661130879174054
 30
0.0
 11
25.30384442899271
 21
1.190625
 31
0.0
  0
SPLINE
  5
B3
330
1F
100
AcDbEntity
  8
외형선
  6
Continuous
370
    15
100
AcDbSpline
210
0.0
220
0.0
230
1.0
 70
    24
 71
     3
 72
     8
 73
     4
 74
     0
 42
0.000000001
 43
0.00000001
 40
0.0
 40
0.0
 40
0.0
 40
0.0
 40
1.0
 40
1.0
 40
1.0
 40
1.0
 10
26.19375000000153
 20
-0.7717317115064284
 30
0.0
 10
26.19375000000153
 20
-0.8301453215547002
 30
0.0
 10
26.19375000000153
 20
-0.8908449451200001
 30
0.0
 10
26.19375000000153
 20
-0.952692922100838
 30
0.0
  0
SPLINE
  5
B4
330
1F
100
AcDbEntity
  8
외형선
  6
Continuous
370
    15
100
AcDbSpline
210
0.0
220
0.0
230
1.0
 70
     8
 71
     3
 72
    10
 73
     6
 74
     0
 42
0.000000001
 43
0.00000001
 40
0.0
 40
0.0
 40
0.0
 40
0.0
 40
0.5
 40
0.5
 40
1.0
 40
1.0
 40
1.0
 40
1.0
 10
26.19375000000002
 20
-0.7717317115059478
 30
0.0
 10
26.04647233675309
 20
-0.7246992520006879
 30
0.0
 10
25.89813335781902
 20
-0.6715583413934542
 30
0.0
 10
25.59875039430083
 20
-0.5552814263458835
 30
0.0
 10
25.45209188061351
 20
-0.4927530279973184
 30
0.0
 10
25.30394319366529
 20
-0.4266997336308891
 30
0.0
  0
SPLINE
  5
B5
330
1F
100
AcDbEntity
  8
외형선
  6
Continuous
370
    15
100
AcDbSpline
210
0.0
220
0.0
230
1.0
 70
    24
 71
     3
 72
    10
 73
     6
 74
     0
 42
0.000000001
 43
0.00000001
 40
0.0
 40
0.0
 40
0.0
 40
0.0
 40
0.5
 40
0.5
 40
1.0
 40
1.0
 40
1.0
 40
1.0
 10
26.19375000000005
 20
0.3016997402232307
 30
0.0
 10
26.19375000000005
 20
0.1219537598744581
 30
0.0
 10
26.19375000000005
 20
-0.0748402021915228
 30
0.0
 10
26.19375000000005
 20
-0.4500576858240106
 30
0.0
 10
26.19375000000005
 20
-0.6268661246581528
 30
0.0
 10
26.19375000000005
 20
-0.7717317115059565
 30
0.0
  0
SPLINE
  5
B6
330
1F
100
AcDbEntity
  8
외형선
  6
Continuous
370
    15
100
AcDbSpline
210
0.0
220
0.0
230
1.0
 70
     8
 71
     3
 72
    10
 73
     6
 74
     0
 42
0.000000001
 43
0.00000001
 40
0.0
 40
0.0
 40
0.0
 40
0.0
 40
0.5
 40
0.5
 40
1.0
 40
1.0
 40
1.0
 40
1.0
 10
26.19375000000007
 20
0.3016997402232199
 30
0.0
 10
26.04646195119204
 20
0.3666065833697671
 30
0.0
 10
25.89811219556091
 20
0.4293263022806861
 30
0.0
 10
25.59870822191348
 20
0.5474634830980623
 30
0.0
 10
25.45204044925821
 20
0.602318043798139
 30
0.0
 10
25.30388051159747
 20
0.6522825069481444
 30
0.0
  0
SPLINE
  5
B7
330
1F
100
AcDbEntity
  8
외형선
  6
Continuous
370
    15
100
AcDbSpline
210
0.0
220
0.0
230
1.0
 70
    24
 71
     3
 72
    12
 73
     8
 74
     0
 42
0.000000001
 43
0.00000001
 40
0.0
 40
0.0
 40
0.0
 40
0.0
 40
0.0594026625508352
 40
0.2507244682556278
 40
0.4366542963499053
 40
0.6279761020546986
 40
1.0
 40
1.0
 40
1.0
 40
1.0
 10
26.19375000000002
 20
0.7941688992191296
 30
0.0
 10
26.19375000000002
 20
0.7951436095942409
 30
0.0
 10
26.19375000000002
 20
0.799257629572619
 30
0.0
 10
26.19375000000002
 20
0.7687857475143057
 30
0.0
 10
26.19375000000002
 20
0.7017953469976022
 30
0.0
 10
26.19375000000002
 20
0.567700468306169
 30
0.0
 10
26.19375000000002
 20
0.4074960239050215
 30
0.0
 10
26.19375000000002
 20
0.3016997402232435
 30
0.0
  0
SPLINE
  5
B8
330
1F
100
AcDbEntity
  8
외형선
  6
Continuous
370
    15
100
AcDbSpline
210
0.0
220
0.0
230
1.0
 70
    24
 71
     3
 72
    10
 73
     6
 74
     0
 42
0.000000001
 43
0.00000001
 40
0.0
 40
0.0
 40
0.0
 40
0.0
 40
0.5
 40
0.5
 40
1.0
 40
1.0
 40
1.0
 40
1.0
 10
26.19375000000014
 20
1.112864183541705
 30
0.0
 10
26.19375000000014
 20
1.051473597414649
 30
0.0
 10
26.19375000000014
 20
0.9894814563325065
 30
0.0
 10
26.19375000000014
 20
0.8782199600357854
 30
0.0
 10
26.19375000000014
 20
0.8292050892160451
 30
0.0
 10
26.19375000000014
 20
0.7905243742359572
 30
0.0
  0
SPLINE
  5
B9
330
1F
100
AcDbEntity
  8
0
  6
Continuous
 62
     1
370
    25
100
AcDbSpline
210
0.0
220
0.0
230
1.0
 70
     8
 71
     3
 72
    16
 73
    12
 74
     0
 42
0.000000001
 43
0.00000001
 40
0.0
 40
0.0
 40
0.0
 40
0.0
 40
0.1147038268561944
 40
0.2293640756354615
 40
0.3439880973591002
 40
0.458583356758551
 40
0.5731574093086579
 40
0.6877178776534535
 40
0.7956954409696347
 40
0.9036944190117414
 40
1.0
 40
1.0
 40
1.0
 40
1.0
 10
33.33750000000003
 20
-1.129832722429231
 30
0.0
 10
33.1150538856222
 20
-1.07788402356642
 30
0.0
 10
32.67024616820458
 20
-0.9740063620994508
 30
0.0
 10
32.00321297460306
 20
-0.6858371656473686
 30
0.0
 10
31.33642938626354
 20
-0.335053427132143
 30
0.0
 10
30.66984281284406
 20
0.052712854705291
 30
0.0
 10
30.00342131090967
 20
0.4341818273437018
 30
0.0
 10
29.34978183382946
 20
0.765128670548728
 30
0.0
 10
28.70912466094497
 20
1.012276048986707
 30
0.0
 10
28.10378229325071
 20
1.165559603967603
 30
0.0
 10
27.70769365612711
 20
1.17897120176681
 30
0.0
 10
27.52098442897097
 20
1.185293193425555
 30
0.0
  0
SPLINE
  5
BA
330
1F
100
AcDbEntity
  8
0
  6
Continuous
 62
     1
370
    25
100
AcDbSpline
210
0.0
220
0.0
230
1.0
 70
     8
 71
     3
 72
    14
 73
    10
 74
     0
 42
0.000000001
 43
0.00000001
 40
0.0
 40
0.0
 40
0.0
 40
0.0
 40
0.1622137950874605
 40
0.3237572630908495
 40
0.4856572996767612
 40
0.6481215529328538
 40
0.8097620313801025
 40
0.9714435674128369
 40
1.0
 40
1.0
 40
1.0
 40
1.0
 10
33.33750000000002
 20
-0.9393701022634077
 30
0.0
 10
33.16977799313023
 20
-0.9034407531308457
 30
0.0
 10
32.83502706843241
 20
-0.8317305281557014
 30
0.0
 10
32.33340572588419
 20
-0.6596225639667991
 30
0.0
 10
31.8312700994508
 20
-0.4528295939831529
 30
0.0
 10
31.32853959431288
 20
-0.2186843000707874
 30
0.0
 10
30.82671561723261
 20
0.0273607766198518
 30
0.0
 10
30.46325212023159
 20
0.2097233181754262
 30
0.0
 10
30.26652769468127
 20
0.2979271308045227
 30
0.0
 10
30.23699758648451
 20
0.3111673175429869
 30
0.0
  0
LINE
  5
BB
330
1F
100
AcDbEntity
  8
0
  6
Continuous
 62
     1
370
    25
100
AcDbLine
 10
33.33750000000002
 20
-1.129832722429232
 30
0.0
 11
33.33750000000002
 21
-0.9393701022634076
 31
0.0
  0
SPLINE
  5
BC
330
1F
100
AcDbEntity
  8
0
  6
Continuous
 62
     1
370
    25
100
AcDbSpline
210
0.0
220
0.0
230
1.0
 70
     8
 71
     3
 72
    38
 73
    34
 74
     0
 42
0.000000001
 43
0.00000001
 40
0.0
 40
0.0
 40
0.0
 40
0.0
 40
0.0625
 40
0.0625
 40
0.125
 40
0.125
 40
0.1875
 40
0.1875
 40
0.25
 40
0.25
 40
0.3125
 40
0.3125
 40
0.375
 40
0.375
 40
0.4375
 40
0.4375
 40
0.5
 40
0.5
 40
0.5625
 40
0.5625
 40
0.625
 40
0.625
 40
0.6875
 40
0.6875
 40
0.75
 40
0.75
 40
0.8125
 40
0.8125
 40
0.875
 40
0.875
 40
0.9375
 40
0.9375
 40
1.0
 40
1.0
 40
1.0
 40
1.0
 10
33.33750000000003
 20
-1.190624999999995
 30
0.0
 10
33.19094642802716
 20
-1.186104908430933
 30
0.0
 10
33.04018777172688
 20
-1.173251017928147
 30
0.0
 10
32.74067847105889
 20
-1.129364597070251
 30
0.0
 10
32.59468453767435
 20
-1.098630899496334
 30
0.0
 10
32.29662803350567
 20
-1.020170764738758
 30
0.0
 10
32.1453952980002
 20
-0.9723717609144639
 30
0.0
 10
31.84904599686923
 20
-0.8630514396281523
 30
0.0
 10
31.70178149566307
 20
-0.8013631988110634
 30
0.0
 10
31.40188477790135
 20
-0.6656670726282099
 30
0.0
 10
31.25385609362843
 20
-0.5923485411789757
 30
0.0
 10
30.95830058394407
 20
-0.4377827980902116
 30
0.0
 10
30.80714388752191
 20
-0.3558661291829991
 30
0.0
 10
30.50858056730139
 20
-0.1884035368065389
 30
0.0
 10
30.36279041313961
 20
-0.1032076379473811
 30
0.0
 10
30.06357625666903
 20
0.0689153951137629
 30
0.0
 10
29.91263194507383
 20
0.1553574666778343
 30
0.0
 10
29.61852887527198
 20
0.323025504062941
 30
0.0
 10
29.46893485594279
 20
0.4054732097547022
 30
0.0
 10
29.16921169687566
 20
0.5628285489544543
 30
0.0
 10
29.0228587385475
 20
0.6371079827361883
 30
0.0
 10
28.72538902401754
 20
0.775422778168767
 30
0.0
 10
28.57412222340589
 20
0.8393858218077802
 30
0.0
 10
28.27705757239001
 20
0.9524862303925528
 30
0.0
 10
28.13040314975535
 20
1.001837503052428
 30
0.0
 10
27.83058806903713
 20
1.084827738402212
 30
0.0
 10
27.68164178211629
 20
1.118000982878349
 30
0.0
 10
27.38695779677137
 20
1.166359057020619
 30
0.0
 10
27.23591904235852
 20
1.181770722155479
 30
0.0
 10
26.93692933655888
 20
1.193726317202635
 30
0.0
 10
26.79118753257904
 20
1.190414803265902
 30
0.0
 10
26.49234953888898
 20
1.165267497806183
 30
0.0
 10
26.34126127670936
 20
1.143316089676837
 30
0.0
 10
26.19375000000002
 20
1.112864183541711
 30
0.0
  0
SPLINE
  5
BD
330
1F
100
AcDbEntity
  8
0
  6
Continuous
 62
     1
370
    25
100
AcDbSpline
210
0.0
220
0.0
230
1.0
 70
     8
 71
     3
 72
    14
 73
    10
 74
     0
 42
0.000000001
 43
0.00000001
 40
0.0
 40
0.0
 40
0.0
 40
0.0
 40
0.102035162977018
 40
0.2748583371506863
 40
0.4476692244311513
 40
0.6204784543198175
 40
0.793296661149001
 40
0.9374866618290917
 40
1.0
 40
1.0
 40
1.0
 40
1.0
 10
30.38410140020304
 20
-0.1141630162010303
 30
0.0
 10
30.25239384031487
 20
-0.0615192435901989
 30
0.0
 10
29.89760515918945
 20
0.0802904951212593
 30
0.0
 10
29.3197641010579
 20
0.3128644009990167
 30
0.0
 10
28.6505646900749
 20
0.5473967560747726
 30
0.0
 10
27.98140171425287
 20
0.7264525451360582
 30
0.0
 10
27.3490753767058
 20
0.8195087990477277
 30
0.0
 10
26.85939900838932
 20
0.8451675225899183
 30
0.0
 10
26.59253854125945
 20
0.8214455813528038
 30
0.0
 10
26.51183186898764
 20
0.8142713492244339
 30
0.0
  0
SPLINE
  5
BE
330
1F
100
AcDbEntity
  8
외형선
  6
Continuous
370
    15
100
AcDbSpline
210
0.0
220
0.0
230
1.0
 70
    24
 71
     3
 72
    10
 73
     6
 74
     0
 42
0.000000001
 43
0.00000001
 40
0.0
 40
0.0
 40
0.0
 40
0.0
 40
0.4999999999999996
 40
0.4999999999999996
 40
1.0
 40
1.0
 40
1.0
 40
1.0
 10
26.19375000000014
 20
1.112864183541706
 30
0.0
 10
26.19375000000014
 20
1.05147359741465
 30
0.0
 10
26.19375000000014
 20
0.9894814563325074
 30
0.0
 10
26.19375000000014
 20
0.8782199600357856
 30
0.0
 10
26.19375000000014
 20
0.8292050892160453
 30
0.0
 10
26.19375000000014
 20
0.7905243742359572
 30
0.0
  0
LINE
  5
BF
330
1F
100
AcDbEntity
  8
0
  6
Continuous
 62
     1
370
    25
100
AcDbLine
 10
33.33750000000003
 20
-1.190624999999996
 30
0.0
 11
33.33750000000002
 21
-1.129832722429232
 31
0.0
  0
SPLINE
  5
C0
330
1F
100
AcDbEntity
  8
0
  6
Continuous
 62
     1
370
    25
100
AcDbSpline
210
0.0
220
0.0
230
1.0
 70
     8
 71
     3
 72
     8
 73
     4
 74
     0
 42
0.000000001
 43
0.00000001
 40
0.0
 40
0.0
 40
0.0
 40
0.0
 40
1.0
 40
1.0
 40
1.0
 40
1.0
 10
32.60061867067989
 20
0.333224683642558
 30
0.0
 10
32.55835961301172
 20
0.3832476977117824
 30
0.0
 10
32.52064615656606
 20
0.4314055764532015
 30
0.0
 10
32.48854480894125
 20
0.4772607141680996
 30
0.0
  0
LINE
  5
C1
330
1F
100
AcDbEntity
  8
0
  6
Continuous
 62
     1
370
    25
100
AcDbLine
 10
32.50364158570377
 20
0.4899284139927387
 30
0.0
 11
33.33750000000002
 21
0.0000000000000009
 31
0.0
  0
LINE
  5
C2
330
1F
100
AcDbEntity
  8
0
  6
Continuous
 62
     1
370
    25
100
AcDbLine
 10
33.33750000000002
 20
0.0000000000000009
 30
0.0
 11
33.33750000000002
 21
-0.3181861326165451
 31
0.0
  0
SPLINE
  5
C3
330
1F
100
AcDbEntity
  8
0
  6
Continuous
 62
     1
370
    25
100
AcDbSpline
210
0.0
220
0.0
230
1.0
 70
     8
 71
     3
 72
    10
 73
     6
 74
     0
 42
0.000000001
 43
0.00000001
 40
0.0
 40
0.0
 40
0.0
 40
0.0
 40
0.5
 40
0.5
 40
1.0
 40
1.0
 40
1.0
 40
1.0
 10
33.33750000000002
 20
-0.318186132616545
 30
0.0
 10
33.20994037202746
 20
-0.2179006366655511
 30
0.0
 10
33.08451330534633
 20
-0.1135000420721158
 30
0.0
 10
32.83802308936827
 20
0.1037219838688964
 30
0.0
 10
32.71580137272727
 20
0.2176860461589314
 30
0.0
 10
32.60061867067878
 20
0.3332246836399435
 30
0.0
  0
SPLINE
  5
C4
330
1F
100
AcDbEntity
  8
0
  6
Continuous
 62
     1
370
    25
100
AcDbSpline
210
0.0
220
0.0
230
1.0
 70
     8
 71
     3
 72
    13
 73
     9
 74
     0
 42
0.000000001
 43
0.00000001
 40
0.0
 40
0.0
 40
0.0
 40
0.0
 40
0.0973812427724128
 40
0.280458408141525
 40
0.4641825728292457
 40
0.7082632014214
 40
0.9522978910589877
 40
1.0
 40
1.0
 40
1.0
 40
1.0
 10
32.60061867067989
 20
0.3332246836425571
 30
0.0
 10
32.5116582423852
 20
0.3711922531873597
 30
0.0
 10
32.25545181703257
 20
0.4805390207206502
 30
0.0
 10
31.83121998555094
 20
0.6416942160359282
 30
0.0
 10
31.27256654721259
 20
0.8137063494008235
 30
0.0
 10
30.65836410924646
 20
0.9283325589167833
 30
0.0
 10
30.16847900528284
 20
0.972150087267011
 30
0.0
 10
29.90176266850483
 20
0.9430887508504069
 30
0.0
 10
29.85815167457016
 20
0.9383369093190318
 30
0.0
  0
SPLINE
  5
C5
330
1F
100
AcDbEntity
  8
0
  6
Continuous
 62
     1
370
    25
100
AcDbSpline
210
0.0
220
0.0
230
1.0
 70
    24
 71
     3
 72
    10
 73
     6
 74
     0
 42
0.000000001
 43
0.00000001
 40
0.0
 40
0.0
 40
0.0
 40
0.0
 40
0.5
 40
0.5
 40
1.0
 40
1.0
 40
1.0
 40
1.0
 10
33.33750000000002
 20
-0.9393701022634072
 30
0.0
 10
33.33750000000002
 20
-0.8673600600326553
 30
0.0
 10
33.33750000000002
 20
-0.7763726105261395
 30
0.0
 10
33.33750000000002
 20
-0.5648355469887782
 30
0.0
 10
33.33750000000002
 20
-0.4444691743829653
 30
0.0
 10
33.33750000000002
 20
-0.3181861326165833
 30
0.0
  0
SPLINE
  5
C6
330
1F
100
AcDbEntity
  8
0
  6
Continuous
 62
     1
370
    25
100
AcDbSpline
210
0.0
220
0.0
230
1.0
 70
     8
 71
     3
 72
    12
 73
     8
 74
     0
 42
0.000000001
 43
0.00000001
 40
0.0
 40
0.0
 40
0.0
 40
0.0
 40
0.1372832090466598
 40
0.404135489936425
 40
0.671711941187112
 40
0.9400283784304324
 40
1.0
 40
1.0
 40
1.0
 40
1.0
 10
28.07060232097446
 20
-0.9831868361324009
 30
0.0
 10
27.98469151176546
 20
-0.9931694770152691
 30
0.0
 10
27.73178653371594
 20
-1.022556460988569
 30
0.0
 10
27.31183442968952
 20
-1.006923210669129
 30
0.0
 10
26.80967851198759
 20
-0.9394788646602915
 30
0.0
 10
26.43640236061695
 20
-0.8473841653322438
 30
0.0
 10
26.23123072818057
 20
-0.7834171904802533
 30
0.0
 10
26.19375000000002
 20
-0.7717317115059478
 30
0.0
  0
SPLINE
  5
C7
330
1F
100
AcDbEntity
  8
0
  6
Continuous
 62
     1
370
    25
100
AcDbSpline
210
0.0
220
0.0
230
1.0
 70
     8
 71
     3
 72
    15
 73
    11
 74
     0
 42
0.000000001
 43
0.00000001
 40
0.0
 40
0.0
 40
0.0
 40
0.0
 40
0.0347655690729551
 40
0.1794698257012448
 40
0.3241554265454097
 40
0.4688310099261442
 40
0.6135052431420795
 40
0.7581867974002919
 40
0.8789081306893023
 40
1.0
 40
1.0
 40
1.0
 40
1.0
 10
30.81912609069706
 20
-0.8863806491218583
 30
0.0
 10
30.76552195704221
 20
-0.8974018592760253
 30
0.0
 10
30.48880206490655
 20
-0.9542965029746334
 30
0.0
 10
29.98901238374114
 20
-0.9633535792794473
 30
0.0
 10
29.31976921076713
 20
-0.9024353426158555
 30
0.0
 10
28.65057154301812
 20
-0.7398995240912056
 30
0.0
 10
27.98141208751047
 20
-0.5018999666872709
 30
0.0
 10
27.34906824005571
 20
-0.2275659812392301
 30
0.0
 10
26.7534395324134
 20
0.0507012122578741
 30
0.0
 10
26.38050366358704
 20
0.2179481387767104
 30
0.0
 10
26.19375000000007
 20
0.3016997402232199
 30
0.0
  0
SPLINE
  5
C8
330
1F
100
AcDbEntity
  8
외형선
  6
Continuous
370
    15
100
AcDbSpline
210
0.0
220
0.0
230
1.0
 70
    24
 71
     3
 72
    10
 73
     6
 74
     0
 42
0.000000001
 43
0.00000001
 40
0.0
 40
0.0
 40
0.0
 40
0.0
 40
0.5
 40
0.5
 40
1.0
 40
1.0
 40
1.0
 40
1.0
 10
26.19375000000005
 20
0.3016997402232302
 30
0.0
 10
26.19375000000005
 20
0.1219537598744575
 30
0.0
 10
26.19375000000005
 20
-0.0748402021915233
 30
0.0
 10
26.19375000000005
 20
-0.4500576858240112
 30
0.0
 10
26.19375000000005
 20
-0.6268661246581535
 30
0.0
 10
26.19375000000005
 20
-0.771731711505957
 30
0.0
  0
SPLINE
  5
C9
330
1F
100
AcDbEntity
  8
외형선
  6
Continuous
370
    15
100
AcDbSpline
210
0.0
220
0.0
230
1.0
 70
    24
 71
     3
 72
    12
 73
     8
 74
     0
 42
0.000000001
 43
0.00000001
 40
0.0
 40
0.0
 40
0.0
 40
0.0
 40
0.0601207162244602
 40
0.2512964665238621
 40
0.4370843554580082
 40
0.6282601057574099
 40
1.0
 40
1.0
 40
1.0
 40
1.0
 10
26.19375000000002
 20
0.7941468931747874
 30
0.0
 10
26.19375000000002
 20
0.795138001954842
 30
0.0
 10
26.19375000000002
 20
0.7992807026744846
 30
0.0
 10
26.19375000000002
 20
0.768796777341784
 30
0.0
 10
26.19375000000002
 20
0.701792408294502
 30
0.0
 10
26.19375000000002
 20
0.5677020671946825
 30
0.0
 10
26.19375000000002
 20
0.4074966598298326
 30
0.0
 10
26.19375000000002
 20
0.3016997402232435
 30
0.0
  0
SPLINE
  5
CA
330
1F
100
AcDbEntity
  8
0
  6
Continuous
 62
     1
370
    25
100
AcDbSpline
210
0.0
220
0.0
230
1.0
 70
    24
 71
     3
 72
     8
 73
     4
 74
     0
 42
0.000000001
 43
0.00000001
 40
0.0
 40
0.0
 40
0.0
 40
0.0
 40
1.0
 40
1.0
 40
1.0
 40
1.0
 10
32.61282161587651
 20
0.5815413370426145
 30
0.0
 10
32.57350547470796
 20
0.5485511774887691
 30
0.0
 10
32.53189779872909
 20
0.5136381919207424
 30
0.0
 10
32.4885448089363
 20
0.477260714175174
 30
0.0
  0
LINE
  5
CB
330
1F
100
AcDbEntity
  8
0
  6
Continuous
 62
     1
370
    25
100
AcDbLine
 10
33.33750000000002
 20
0.8334374999999997
 30
0.0
 11
32.89076263280687
 21
0.8043935180459395
 31
0.0
  0
SPLINE
  5
CC
330
1F
100
AcDbEntity
  8
0
  6
Continuous
 62
     1
370
    25
100
AcDbSpline
210
0.0
220
0.0
230
1.0
 70
     8
 71
     3
 72
     8
 73
     4
 74
     0
 42
0.000000001
 43
0.00000001
 40
0.0
 40
0.0
 40
0.0
 40
0.0
 40
1.0
 40
1.0
 40
1.0
 40
1.0
 10
33.33750000000002
 20
0.8334375000000007
 30
0.0
 10
33.0925856513329
 20
0.7668707096745616
 30
0.0
 10
32.85004529027894
 20
0.6850608002371794
 30
0.0
 10
32.61282161589077
 20
0.5815413370488439
 30
0.0
  0
SPLINE
  5
CD
330
1F
100
AcDbEntity
  8
0
  6
Continuous
 62
     1
370
    25
100
AcDbSpline
210
0.0
220
0.0
230
1.0
 70
     8
 71
     3
 72
    12
 73
     8
 74
     0
 42
0.000000001
 43
0.00000001
 40
0.0
 40
0.0
 40
0.0
 40
0.0
 40
0.0602444251507433
 40
0.2949352537339588
 40
0.5297566012296722
 40
0.7647912415800749
 40
1.0
 40
1.0
 40
1.0
 40
1.0
 10
28.87036783734174
 20
-0.9366194533417439
 30
0.0
 10
28.81663018873521
 20
-0.9578924735491936
 30
0.0
 10
28.55354979603206
 20
-1.062037605598716
 30
0.0
 10
28.08099417191104
 20
-1.161067243111994
 30
0.0
 10
27.45245707905062
 20
-1.208579893979631
 30
0.0
 10
26.82332987872538
 20
-1.144370449184632
 30
0.0
 10
26.40366175672493
 20
-1.01660120093014
 30
0.0
 10
26.19375000000007
 20
-0.95269292210098
 30
0.0
  0
SPLINE
  5
CE
330
1F
100
AcDbEntity
  8
외형선
  6
Continuous
370
    15
100
AcDbSpline
210
0.0
220
0.0
230
1.0
 70
    24
 71
     3
 72
     8
 73
     4
 74
     0
 42
0.000000001
 43
0.00000001
 40
0.0
 40
0.0
 40
0.0
 40
0.0
 40
1.0
 40
1.0
 40
1.0
 40
1.0
 10
26.19375000000153
 20
-0.7717317115064284
 30
0.0
 10
26.19375000000153
 20
-0.8301453215547001
 30
0.0
 10
26.19375000000153
 20
-0.8908449451200001
 30
0.0
 10
26.19375000000153
 20
-0.9526929221008378
 30
0.0
  0
SPLINE
  5
CF
330
1F
100
AcDbEntity
  8
0
  6
Continuous
 62
     1
370
    25
100
AcDbSpline
210
0.0
220
0.0
230
1.0
 70
     8
 71
     3
 72
     9
 73
     5
 74
     0
 42
0.000000001
 43
0.00000001
 40
0.0
 40
0.0
 40
0.0
 40
0.0
 40
0.8904247368658865
 40
1.0
 40
1.0
 40
1.0
 40
1.0
 10
26.19375000000002
 20
-1.112864183541711
 30
0.0
 10
26.4161871247718
 20
-1.15676993677656
 30
0.0
 10
26.66599726094874
 20
-1.206078712035194
 30
0.0
 10
26.91580994570676
 20
-1.186131504585592
 30
0.0
 10
26.94318323637336
 20
-1.183945784080512
 30
0.0
  0
SPLINE
  5
D0
330
1F
100
AcDbEntity
  8
0
  6
Continuous
 62
     1
370
    25
100
AcDbSpline
210
0.0
220
0.0
230
1.0
 70
     8
 71
     3
 72
    10
 73
     6
 74
     0
 42
0.000000001
 43
0.00000001
 40
0.0
 40
0.0
 40
0.0
 40
0.0
 40
0.2233756543436591
 40
0.6114851772303548
 40
0.9999999999999999
 40
0.9999999999999999
 40
0.9999999999999999
 40
0.9999999999999999
 10
31.71748657497604
 20
0.7973757387475887
 30
0.0
 10
31.83808559170286
 20
0.8496562204497664
 30
0.0
 10
32.16822233526918
 20
0.9927727105313633
 30
0.0
 10
32.70819213081668
 20
1.140608761683631
 30
0.0
 10
33.12765774090439
 20
1.173276372359917
 30
0.0
 10
33.33750000000003
 20
1.190625000000003
 30
0.0
  0
LINE
  5
D1
330
1F
100
AcDbEntity
  8
0
  6
Continuous
 62
     1
370
    25
100
AcDbLine
 10
33.33750000000002
 20
0.0000000000000009
 30
0.0
 11
33.33750000000002
 21
0.8334375000000008
 31
0.0
  0
SPLINE
  5
D2
330
1F
100
AcDbEntity
  8
0
  6
Continuous
 62
     1
370
    25
100
AcDbSpline
210
0.0
220
0.0
230
1.0
 70
    24
 71
     3
 72
    10
 73
     6
 74
     0
 42
0.000000001
 43
0.00000001
 40
0.0
 40
0.0
 40
0.0
 40
0.0
 40
0.5
 40
0.5
 40
1.0
 40
1.0
 40
1.0
 40
1.0
 10
33.33750000000002
 20
0.8334374999999998
 30
0.0
 10
33.33750000000002
 20
0.8839584057612079
 30
0.0
 10
33.33750000000002
 20
0.9426683769949115
 30
0.0
 10
33.33750000000002
 20
1.065841738519018
 30
0.0
 10
33.33750000000002
 20
1.129990559501128
 30
0.0
 10
33.33750000000003
 20
1.190625000000004
 30
0.0
  0
LINE
  5
D3
330
1F
100
AcDbEntity
  8
중심선
 48
0.5
100
AcDbLine
 10
-36.33750000000001
 20
-0.0000000000000044
 30
0.0
 11
36.33750000000001
 21
0.0000000000000045
 31
0.0
  0
LINE
  5
D4
330
1F
100
AcDbEntity
  8
참조1
100
AcDbLine
 10
-15.78796167873052
 20
0.0010749287238892
 30
0.0
 11
-15.78796167873052
 21
-39.99892507127611
 31
0.0
  0
LINE
  5
D5
330
1F
100
AcDbEntity
  8
참조1
100
AcDbLine
 10
-15.78796167873052
 20
-39.99892507127611
 30
0.0
 11
-29.45992727542973
 21
-39.9989250712761
 31
0.0
  0
CIRCLE
  5
D6
330
1F
100
AcDbEntity
  8
해칭선
100
AcDbCircle
 10
-0.0000000000000018
 20
0.0
 30
0.0
 40
3.000000000000002
  0
INSERT
  5
D7
330
1F
100
AcDbEntity
  8
0
  6
Continuous
 62
     7
100
AcDbBlockReference
 66
     1
  2
블럭10
 10
-13.9402729321252
 20
-52.04717430164393
 30
0.0
  0
ATTRIB
  5
D8
330
D7
100
AcDbEntity
  8
FORMAT
 62
     2
100
AcDbText
 10
-23.12156822086648
 20
-49.97180738881174
 30
0.0
 40
4.233333333333333
  1
E1005006 [ 2 FLUTE ]
 41
0.75
  7
SLDTEXTSTYLE0
 11
-23.12156822086648
 21
-52.08847405547841
 31
0.0
100
AcDbAttribute
  2
AUTOATTR0
 70
     0
 74
     1
  0
SEQEND
  5
D9
330
D7
100
AcDbEntity
  8
0
  6
Continuous
 62
     7
  0
HATCH
  5
DA
330
1F
100
AcDbEntity
  8
중심선
100
AcDbHatch
 10
0.0
 20
0.0
 30
0.0
210
0.0
220
0.0
230
1.0
  2
SOLID
 70
     1
 71
     0
 91
        1
 92
        0
 93
        4
 72
     1
 10
-8.22536362774435
 20
-35.8
 11
-11.67163887158163
 21
-35.8
 72
     1
 10
-11.67163887158163
 20
-35.8
 11
-13.79986873078568
 21
-38.3363255805726
 72
     1
 10
-13.79986873078568
 20
-38.3363255805726
 11
-10.35356040183522
 21
-38.33628615127011
 72
     1
 10
-10.35356040183522
 20
-38.33628615127011
 11
-8.22536362774435
 21
-35.8
 97
        0
 75
     0
 76
     1
 98
        1
 10
15.78796167873053
 20
-0.0010749287238937
  0
HATCH
  5
DB
330
1F
100
AcDbEntity
  8
중심선
100
AcDbHatch
 10
0.0
 20
0.0
 30
0.0
210
0.0
220
0.0
230
1.0
  2
SOLID
 70
     1
 71
     0
 91
        1
 92
        0
 93
        4
 72
     1
 10
-3.212599636708372
 20
-35.8
 11
-6.658874880545653
 21
-35.8
 72
     1
 10
-6.658874880545653
 20
-35.8
 11
-11.19001288890307
 21
-41.20000000000002
 72
     1
 10
-11.19001288890307
 20
-41.20000000000002
 11
-7.743737645065789
 21
-41.20000000000002
 72
     1
 10
-7.743737645065789
 20
-41.20000000000002
 11
-3.212599636708372
 21
-35.8
 97
        0
 75
     0
 76
     1
 98
        1
 10
15.78796167873053
 20
-0.0010749287238937
  0
HATCH
  5
DC
330
1F
100
AcDbEntity
  8
중심선
100
AcDbHatch
 10
0.0
 20
0.0
 30
0.0
210
0.0
220
0.0
230
1.0
  2
SOLID
 70
     1
 71
     0
 91
        1
 92
        0
 93
        4
 72
     1
 10
1.800164354327496
 20
-35.79999999999998
 11
-1.646110889509618
 21
-35.8
 72
     1
 10
-1.646110889509618
 20
-35.8
 11
-8.694547791398868
 21
-44.20000000000002
 72
     1
 10
-8.694547791398868
 20
-44.20000000000002
 11
-5.248272547561587
 21
-44.20000000000002
 72
     1
 10
-5.248272547561587
 20
-44.20000000000002
 11
1.800164354327496
 21
-35.79999999999998
 97
        0
 75
     0
 76
     1
 98
        1
 10
15.78796167873053
 20
-0.0010749287238937
  0
HATCH
  5
DD
330
1F
100
AcDbEntity
  8
중심선
100
AcDbHatch
 10
0.0
 20
0.0
 30
0.0
210
0.0
220
0.0
230
1.0
  2
SOLID
 70
     1
 71
     0
 91
        1
 92
        0
 93
        6
 72
     3
 10
6.600054785339696
 20
-40.00000000005127
 11
3.960054785062283
 21
1.540882976769353E-10
 40
0.3939339440162628
 50
17.09539180608436
 51
320.0019657685086
 73
     0
 72
     1
 10
8.283054441040292
 20
-38.58789400463833
 11
10.58835631474133
 21
-36.65356729459038
 72
     3
 10
6.600054785286849
 20
-40.00000000000015
 11
6.600054785286829
 21
-1.278976924368180E-13
 40
0.636358354079598
 50
39.99873849337411
 51
368.4976242363724
 73
     1
 72
     1
 10
13.02538727718746
 20
-39.03999999993002
 11
5.280122092122772
 21
-39.03999999993
 72
     1
 10
5.280122092122772
 20
-39.03999999993
 11
5.280097047676838
 21
-40.95999999992991
 72
     1
 10
5.280097047676838
 20
-40.95999999992991
 11
9.721476817148876
 21
-40.95999999992988
 97
        0
 75
     0
 76
     1
 98
        1
 10
15.78796167873053
 20
-0.0010749287238937
  0
DIMENSION
  5
DE
330
1F
100
AcDbEntity
  8
치수문자_일반주서
100
AcDbDimension
  2
_D
 10
-46.33749999999999
 20
-2.381250000000097
 30
0.0
 11
-46.3375
 21
0.0000000000000043
 31
0.0
 70
   160
  1
%%c<>
 71
     2
 42
4.762499999999996
 52
-270.0
  3
SLDDIMSTYLE0
100
AcDbAlignedDimension
 13
-20.75027700723832
 23
2.381249999999995
 33
0.0
 14
-20.7502770072383
 24
-2.381250000000001
 34
0.0
 50
90.0000000000002
100
AcDbRotatedDimension
1001
ACAD
1000
DSTYLE
1002
{
1070
   171
1070
     6
1070
   273
1070
     7
1002
}
  0
DIMENSION
  5
F3
330
1F
100
AcDbEntity
  8
치수문자_일반주서
100
AcDbDimension
  2
_D_1
 10
52.33750000000011
 20
1.190625000000075
 30
0.0
 11
52.33750000000003
 21
30.28190988448053
 31
0.0
 70
   160
  1
%%c<>
 71
     2
 42
2.38125
 52
-270.0
  3
SLDDIMSTYLE0
100
AcDbAlignedDimension
 13
33.33750000000003
 23
-1.190624999999996
 33
0.0
 14
33.33750000000003
 24
1.190625000000004
 34
0.0
 50
90.0000000000002
100
AcDbRotatedDimension
1001
ACAD
1000
DSTYLE
1002
{
1070
   171
1070
     6
1070
   273
1070
     7
1002
}
  0
DIMENSION
  5
107
330
1F
100
AcDbEntity
  8
치수문자_일반주서
100
AcDbDimension
  2
_D_2
 10
26.19375000000002
 20
17.50162275593958
 30
0.0
 11
4.355009798015532
 21
17.50162275593958
 31
0.0
 70
   160
  1
<>
 71
     2
 42
7.143750000000008
  3
SLDDIMSTYLE0
100
AcDbAlignedDimension
 13
33.33750000000003
 23
1.190625000000004
 33
0.0
 14
26.19375000000002
 24
0.7981210398789846
 34
0.0
100
AcDbRotatedDimension
1001
ACAD
1000
DSTYLE
1002
{
1070
   171
1070
     6
1070
   273
1070
     7
1002
}
  0
DIMENSION
  5
11C
330
1F
100
AcDbEntity
  8
치수문자_일반주서
100
AcDbDimension
  2
_D_3
 10
33.33750000000003
 20
36.38125000000002
 30
0.0
 11
0.0000000000000231
 21
36.38125000000002
 31
0.0
 70
   160
  1
<>
 71
     2
 42
66.67500000000004
  3
SLDDIMSTYLE0
100
AcDbAlignedDimension
 13
-33.33750000000002
 23
1.190624999999996
 33
0.0
 14
33.33750000000003
 24
1.190625000000004
 34
0.0
100
AcDbRotatedDimension
1001
ACAD
1000
DSTYLE
1002
{
1070
   171
1070
     6
1070
   273
1070
     7
1002
}
  0
LINE
  5
130
330
1F
100
AcDbEntity
  8
참조1
100
AcDbLine
 10
68.51241335422453
 20
7.441074928723896
 30
0.0
 11
68.51241335422453
 21
-7.438925071276109
 31
0.0
  0
LINE
  5
131
330
1F
100
AcDbEntity
  8
참조1
100
AcDbLine
 10
81.21241335422454
 20
5.441074928723896
 30
0.0
 11
68.51241335422453
 21
5.441074928723896
 31
0.0
  0
SOLID
  5
132
330
1F
100
AcDbEntity
  8
참조1
100
AcDbTrace
 10
68.51241335422453
 20
5.441074928723896
 30
0.0
 11
74.86241335422453
 21
4.425074928723896
 31
0.0
 12
74.86241335422453
 22
6.457074928723896
 32
0.0
 13
74.86241335422453
 23
6.457074928723896
 33
0.0
  0
LINE
  5
133
330
1F
100
AcDbEntity
  8
참조1
100
AcDbLine
 10
81.21241335422454
 20
-5.438925071276109
 30
0.0
 11
68.51241335422453
 21
-5.438925071276109
 31
0.0
  0
SOLID
  5
134
330
1F
100
AcDbEntity
  8
참조1
100
AcDbTrace
 10
68.51241335422453
 20
-5.438925071276109
 30
0.0
 11
74.86241335422453
 21
-6.454925071276109
 31
0.0
 12
74.86241335422453
 22
-4.422925071276109
 32
0.0
 13
74.86241335422453
 23
-4.422925071276109
 33
0.0
  0
MTEXT
  5
135
330
1F
100
AcDbEntity
  8
참조1
100
AcDbMText
 10
77.89676348685053
 20
11.01136670591222
 30
0.0
 40
3.5
 41
0.0
 71
     1
 72
     1
  1
A
  7
SLDTEXTSTYLE0
 73
     1
 44
1.0
  0
MTEXT
  5
136
330
1F
100
AcDbEntity
  8
참조1
100
AcDbMText
 10
77.89676348685053
 20
0.1313667059122192
 30
0.0
 40
3.5
 41
0.0
 71
     1
 72
     1
  1
A
  7
SLDTEXTSTYLE0
 73
     1
 44
1.0
  0
INSERT
  5
13D
330
1F
100
AcDbEntity
  8
해칭선
100
AcDbBlockReference
  2
SW_DOWELSYMBOL_0
 10
-0.0000000000000018
 20
0.0
 30
0.0
  0
LINE
  5
3EB
330
1F
100
AcDbEntity
  8
외형선
  6
Continuous
370
    15
100
AcDbLine
 10
-20.75027700723832
 20
2.38125000000001
 30
0.0
 11
-25.19375000000004
 21
1.190625000000006
 31
0.0
  0
LINE
  5
3EC
330
1F
100
AcDbEntity
  8
외형선
  6
Continuous
370
    15
100
AcDbLine
 10
-25.19375000000004
 20
-1.190624999999996
 30
0.0
 11
-20.75027700723832
 21
-2.381249999999993
 31
0.0
  0
LINE
  5
3ED
330
1F
100
AcDbEntity
  8
외형선
  6
Continuous
370
    15
100
AcDbLine
 10
-25.30384442899272
 20
-1.190624999999996
 30
0.0
 11
-25.19375000000004
 21
-1.190624999999996
 31
0.0
  0
LINE
  5
3EE
330
1F
100
AcDbEntity
  8
외형선
  6
Continuous
370
    15
100
AcDbLine
 10
-25.19375000000004
 20
1.190625000000006
 30
0.0
 11
-25.30384442899272
 21
1.190625000000006
 31
0.0
  0
SPLINE
  5
3EF
330
1F
100
AcDbEntity
  8
외형선
  6
Continuous
370
    15
100
AcDbSpline
210
0.0
220
0.0
230
1.0
 70
     8
 71
     3
 72
     9
 73
     5
 74
     0
 42
0.000000001
 43
0.00000001
 40
0.0
 40
0.0
 40
0.0
 40
0.0
 40
0.4994481110184787
 40
1.0
 40
1.0
 40
1.0
 40
1.0
 10
-26.19375000000041
 20
-0.7981024299284541
 30
0.0
 10
-26.0451607838253
 20
-0.7912418504696944
 30
0.0
 10
-25.74765397001012
 20
-0.7775055297040282
 30
0.0
 10
-25.45190562845251
 20
-0.7882119873233208
 30
0.0
 10
-25.30386823742269
 20
-0.7935711249089635
 30
0.0
  0
ARC
  5
3F0
330
1F
100
AcDbEntity
  8
외형선
  6
Continuous
370
    15
100
AcDbCircle
 10
-25.65384092736265
 20
1.133679212877021
 30
0.0
 40
0.3499964984117498
100
AcDbArc
 50
311.7973835652159
 51
359.9919087921982
  0
SPLINE
  5
3F1
330
1F
100
AcDbEntity
  8
0
  6
Continuous
 62
     1
370
    25
100
AcDbSpline
210
0.0
220
0.0
230
1.0
 70
     8
 71
     3
 72
     9
 73
     5
 74
     0
 42
0.000000001
 43
0.00000001
 40
0.0
 40
0.0
 40
0.0
 40
0.0
 40
0.5000216119655463
 40
1.0
 40
1.0
 40
1.0
 40
1.0
 10
-30.25373224418716
 20
-0.3049869811658951
 30
0.0
 10
-30.19837613954884
 20
-0.3312646906549602
 30
0.0
 10
-30.08766871548225
 20
-0.3838178380794574
 30
0.0
 10
-29.97704784218941
 20
-0.4415362009533496
 30
0.0
 10
-29.92173979627746
 20
-0.4703941349830231
 30
0.0
  0
LINE
  5
3F2
330
1F
100
AcDbEntity
  8
0
  6
Continuous
 62
     1
370
    25
100
AcDbLine
 10
-27.52098442897098
 20
-1.190624999999996
 30
0.0
 11
-26.94318323637337
 21
-1.190624999999996
 31
0.0
  0
SPLINE
  5
3F3
330
1F
100
AcDbEntity
  8
0
  6
Continuous
 62
     1
370
    25
100
AcDbSpline
210
0.0
220
0.0
230
1.0
 70
     8
 71
     3
 72
     9
 73
     5
 74
     0
 42
0.000000001
 43
0.00000001
 40
0.0
 40
0.0
 40
0.0
 40
0.0
 40
0.9489599646658528
 40
1.0
 40
1.0
 40
1.0
 40
1.0
 10
-29.85848494334631
 20
-0.9461102746419513
 30
0.0
 10
-29.54462835830545
 20
-0.9307676449752179
 30
0.0
 10
-29.21389092287383
 20
-0.9145998083561707
 30
0.0
 10
-28.8831078533929
 20
-0.937060639540816
 30
0.0
 10
-28.86622467383866
 20
-0.9382070411581068
 30
0.0
  0
SPLINE
  5
3F4
330
1F
100
AcDbEntity
  8
0
  6
Continuous
 62
     1
370
    25
100
AcDbSpline
210
0.0
220
0.0
230
1.0
 70
     8
 71
     3
 72
    10
 73
     6
 74
     0
 42
0.000000001
 43
0.00000001
 40
0.0
 40
0.0
 40
0.0
 40
0.0
 40
0.4515316116245875
 40
0.6538974085756039
 40
1.0
 40
1.0
 40
1.0
 40
1.0
 10
-28.06963445873085
 20
0.9907145584668783
 30
0.0
 10
-28.34009570970672
 20
0.9684269403768028
 30
0.0
 10
-28.73177130136004
 20
0.9361505385984416
 30
0.0
 10
-29.32388019183652
 20
0.925896884416845
 30
0.0
 10
-29.65165050084438
 20
0.9382898703405061
 30
0.0
 10
-29.85848494334631
 20
0.9461102746419613
 30
0.0
  0
SPLINE
  5
3F5
330
1F
100
AcDbEntity
  8
0
  6
Continuous
 62
     1
370
    25
100
AcDbSpline
210
0.0
220
0.0
230
1.0
 70
     8
 71
     3
 72
    11
 73
     7
 74
     0
 42
0.000000001
 43
0.00000001
 40
0.0
 40
0.0
 40
0.0
 40
0.0
 40
0.3730374538583443
 40
0.5999099356238797
 40
0.7940796962812147
 40
0.9999999999999999
 40
0.9999999999999999
 40
0.9999999999999999
 40
0.9999999999999999
 10
-30.81548772775933
 20
0.8954544480347352
 30
0.0
 10
-30.92784742134252
 20
0.8788364221890405
 30
0.0
 10
-31.108541600565
 20
0.8521117093963412
 30
0.0
 10
-31.34659626252765
 20
0.8257991976524593
 30
0.0
 10
-31.5352793118292
 20
0.8085835854525186
 30
0.0
 10
-31.65557315411341
 20
0.8011841277109198
 30
0.0
 10
-31.71748657497604
 20
0.7973757387475914
 30
0.0
  0
SPLINE
  5
3F6
330
1F
100
AcDbEntity
  8
0
  6
Continuous
 62
     1
370
    25
100
AcDbSpline
210
0.0
220
0.0
230
1.0
 70
     8
 71
     3
 72
     9
 73
     5
 74
     0
 42
0.000000001
 43
0.00000001
 40
0.0
 40
0.0
 40
0.0
 40
0.0
 40
0.5020793503016383
 40
1.0
 40
1.0
 40
1.0
 40
1.0
 10
-26.51481993859646
 20
-0.8218624443748282
 30
0.0
 10
-26.46109111679708
 20
-0.817299921285516
 30
0.0
 10
-26.35407850660486
 20
-0.8082126662797705
 30
0.0
 10
-26.24704446135213
 20
-0.8014631523096071
 30
0.0
 10
-26.19375000000004
 20
-0.7981024299284328
 30
0.0
  0
SPLINE
  5
3F7
330
1F
100
AcDbEntity
  8
0
  6
Continuous
 62
     1
370
    25
100
AcDbSpline
210
0.0
220
0.0
230
1.0
 70
     8
 71
     3
 72
    17
 73
    13
 74
     0
 42
0.000000001
 43
0.00000001
 40
0.0
 40
0.0
 40
0.0
 40
0.0
 40
0.1378529932425907
 40
0.2330151069562677
 40
0.3000790879944866
 40
0.3791028985729692
 40
0.4694529220947312
 40
0.5519471774110402
 40
0.655362455230752
 40
0.7396338323919657
 40
0.8380984770083044
 40
1.0
 40
1.0
 40
1.0
 40
1.0
 10
-32.89327425664193
 20
-0.8142104956863093
 30
0.0
 10
-32.79763021209239
 20
-0.8068886379281593
 30
0.0
 10
-32.63596156242282
 20
-0.7945123853093093
 30
0.0
 10
-32.42868418499786
 20
-0.7865864598128226
 30
0.0
 10
-32.26147049387056
 20
-0.7833842977389253
 30
0.0
 10
-32.09763064215603
 20
-0.7833497219552313
 30
0.0
 10
-31.92329791537601
 20
-0.7870838403411099
 30
0.0
 10
-31.73227555942016
 20
-0.7954931734552545
 30
0.0
 10
-31.54499455687223
 20
-0.8079594088517282
 30
0.0
 10
-31.34660286776754
 20
-0.8257236337866928
 30
0.0
 10
-31.10853848697577
 20
-0.8521473288200795
 30
0.0
 10
-30.92784622756223
 20
-0.878850079021133
 30
0.0
 10
-30.81548772775933
 20
-0.8954544480347252
 30
0.0
  0
LINE
  5
3F8
330
1F
100
AcDbEntity
  8
0
  6
Continuous
 62
     1
370
    25
100
AcDbLine
 10
-26.94318323637334
 20
1.190625000000006
 30
0.0
 11
-27.52098442897098
 21
1.190625000000006
 31
0.0
  0
LINE
  5
3F9
330
1F
100
AcDbEntity
  8
외형선
  6
Continuous
370
    15
100
AcDbLine
 10
-20.75027700723832
 20
-2.381249999999993
 30
0.0
 11
-20.75027700723832
 21
2.381250000000003
 31
0.0
  0
LINE
  5
3FA
330
1F
100
AcDbEntity
  8
외형선
  6
Continuous
370
    15
100
AcDbLine
 10
-25.19375000000004
 20
-1.190624999999996
 30
0.0
 11
-25.19375000000004
 21
1.190625000000006
 31
0.0
  0
SPLINE
  5
3FB
330
1F
100
AcDbEntity
  8
외형선
  6
Continuous
370
    15
100
AcDbSpline
210
0.0
220
0.0
230
1.0
 70
     8
 71
     3
 72
    10
 73
     6
 74
     0
 42
0.000000001
 43
0.00000001
 40
0.0
 40
0.0
 40
0.0
 40
0.0
 40
0.5
 40
0.5
 40
1.0
 40
1.0
 40
1.0
 40
1.0
 10
-26.19375000000004
 20
-1.112864183541701
 30
0.0
 10
-26.04645597282358
 20
-1.082457125926174
 30
0.0
 10
-25.89810001364746
 20
-1.043329867586385
 30
0.0
 10
-25.59868394573469
 20
-0.9491343418814736
 30
0.0
 10
-25.4520108429992
 20
-0.8945829542894955
 30
0.0
 10
-25.30384442899272
 20
-0.8333694311170049
 30
0.0
  0
SPLINE
  5
3FC
330
1F
100
AcDbEntity
  8
외형선
  6
Continuous
370
    15
100
AcDbSpline
210
0.0
220
0.0
230
1.0
 70
     8
 71
     3
 72
    10
 73
     6
 74
     0
 42
0.000000001
 43
0.00000001
 40
0.0
 40
0.0
 40
0.0
 40
0.0
 40
0.5
 40
0.5
 40
1.0
 40
1.0
 40
1.0
 40
1.0
 10
-26.19375000000004
 20
0.9526929221009667
 30
0.0
 10
-26.0464723367531
 20
0.9013923217681651
 30
0.0
 10
-25.89813335781902
 20
0.8425672462400741
 30
0.0
 10
-25.59875039430081
 20
0.7123028434487125
 30
0.0
 10
-25.45209188061351
 20
0.6415486365737891
 30
0.0
 10
-25.30394319366529
 20
0.5661579771830759
 30
0.0
  0
LINE
  5
3FD
330
1F
100
AcDbEntity
  8
외형선
  6
Continuous
370
    15
100
AcDbLine
 10
-26.19375000000004
 20
0.9526929221009667
 30
0.0
 11
-26.19375000000004
 21
1.112864183541719
 31
0.0
  0
SPLINE
  5
3FE
330
1F
100
AcDbEntity
  8
외형선
  6
Continuous
370
    15
100
AcDbSpline
210
0.0
220
0.0
230
1.0
 70
     8
 71
     3
 72
    10
 73
     6
 74
     0
 42
0.000000001
 43
0.00000001
 40
0.0
 40
0.0
 40
0.0
 40
0.0
 40
0.4999999999999999
 40
0.4999999999999999
 40
1.0
 40
1.0
 40
1.0
 40
1.0
 10
-26.19375000000004
 20
1.112864183541719
 30
0.0
 10
-26.04831235500446
 20
1.082840353413489
 30
0.0
 10
-25.90188192137153
 20
1.04431994105928
 30
0.0
 10
-25.60622319897062
 20
0.9516983731149239
 30
0.0
 10
-25.4611972050633
 20
0.8980841575797968
 30
0.0
 10
-25.31504317937488
 20
0.8379852402114324
 30
0.0
  0
SPLINE
  5
3FF
330
1F
100
AcDbEntity
  8
외형선
  6
Continuous
370
    15
100
AcDbSpline
210
0.0
220
0.0
230
1.0
 70
     8
 71
     3
 72
     8
 73
     4
 74
     0
 42
0.000000001
 43
0.00000001
 40
0.0
 40
0.0
 40
0.0
 40
0.0
 40
1.0
 40
1.0
 40
1.0
 40
1.0
 10
-25.30384442899272
 20
1.002589469351493
 30
0.0
 10
-25.30384442899272
 20
0.9551426733589651
 30
0.0
 10
-25.30491893067453
 20
0.9001658587262554
 30
0.0
 10
-25.31504317937508
 20
0.8379852402114253
 30
0.0
  0
LINE
  5
400
330
1F
100
AcDbEntity
  8
외형선
  6
Continuous
370
    15
100
AcDbLine
 10
-25.30384442899272
 20
1.190625000000006
 30
0.0
 11
-25.30384442899272
 21
1.002589469351557
 31
0.0
  0
LINE
  5
401
330
1F
100
AcDbEntity
  8
외형선
  6
Continuous
370
    15
100
AcDbLine
 10
-25.30384442899272
 20
0.5661130879174096
 30
0.0
 11
-25.30384442899272
 21
-1.190624999999996
 31
0.0
  0
SPLINE
  5
402
330
1F
100
AcDbEntity
  8
외형선
  6
Continuous
370
    15
100
AcDbSpline
210
0.0
220
0.0
230
1.0
 70
    24
 71
     3
 72
     8
 73
     4
 74
     0
 42
0.000000001
 43
0.00000001
 40
0.0
 40
0.0
 40
0.0
 40
0.0
 40
1.0
 40
1.0
 40
1.0
 40
1.0
 10
-26.19375000000151
 20
0.7717317115064347
 30
0.0
 10
-26.19375000000151
 20
0.8301453215547042
 30
0.0
 10
-26.19375000000151
 20
0.8908449451200099
 30
0.0
 10
-26.19375000000151
 20
0.9526929221008459
 30
0.0
  0
SPLINE
  5
403
330
1F
100
AcDbEntity
  8
외형선
  6
Continuous
370
    15
100
AcDbSpline
210
0.0
220
0.0
230
1.0
 70
     8
 71
     3
 72
    10
 73
     6
 74
     0
 42
0.000000001
 43
0.00000001
 40
0.0
 40
0.0
 40
0.0
 40
0.0
 40
0.5
 40
0.5
 40
1.0
 40
1.0
 40
1.0
 40
1.0
 10
-26.19375000000004
 20
0.7717317115059515
 30
0.0
 10
-26.0464723367531
 20
0.7246992520006913
 30
0.0
 10
-25.89813335781902
 20
0.6715583413934582
 30
0.0
 10
-25.59875039430084
 20
0.5552814263458871
 30
0.0
 10
-25.45209188061351
 20
0.4927530279973255
 30
0.0
 10
-25.30394319366529
 20
0.426699733630899
 30
0.0
  0
SPLINE
  5
404
330
1F
100
AcDbEntity
  8
외형선
  6
Continuous
370
    15
100
AcDbSpline
210
0.0
220
0.0
230
1.0
 70
    24
 71
     3
 72
    10
 73
     6
 74
     0
 42
0.000000001
 43
0.00000001
 40
0.0
 40
0.0
 40
0.0
 40
0.0
 40
0.5
 40
0.5
 40
1.0
 40
1.0
 40
1.0
 40
1.0
 10
-26.19375000000004
 20
-0.3016997402232263
 30
0.0
 10
-26.19375000000004
 20
-0.1219537598744494
 30
0.0
 10
-26.19375000000004
 20
0.0748402021915254
 30
0.0
 10
-26.19375000000004
 20
0.4500576858240152
 30
0.0
 10
-26.19375000000004
 20
0.6268661246581587
 30
0.0
 10
-26.19375000000004
 20
0.7717317115059658
 30
0.0
  0
SPLINE
  5
405
330
1F
100
AcDbEntity
  8
외형선
  6
Continuous
370
    15
100
AcDbSpline
210
0.0
220
0.0
230
1.0
 70
     8
 71
     3
 72
    10
 73
     6
 74
     0
 42
0.000000001
 43
0.00000001
 40
0.0
 40
0.0
 40
0.0
 40
0.0
 40
0.5
 40
0.5
 40
1.0
 40
1.0
 40
1.0
 40
1.0
 10
-26.19375000000007
 20
-0.3016997402232121
 30
0.0
 10
-26.04646195119206
 20
-0.3666065833697573
 30
0.0
 10
-25.8981121955609
 20
-0.429326302280684
 30
0.0
 10
-25.59870822191347
 20
-0.5474634830980548
 30
0.0
 10
-25.45204044925821
 20
-0.6023180437981338
 30
0.0
 10
-25.30388051159748
 20
-0.6522825069481385
 30
0.0
  0
SPLINE
  5
406
330
1F
100
AcDbEntity
  8
외형선
  6
Continuous
370
    15
100
AcDbSpline
210
0.0
220
0.0
230
1.0
 70
    24
 71
     3
 72
    12
 73
     8
 74
     0
 42
0.000000001
 43
0.00000001
 40
0.0
 40
0.0
 40
0.0
 40
0.0
 40
0.0594026625508352
 40
0.2507244682556278
 40
0.4366542963499053
 40
0.6279761020546986
 40
1.0
 40
1.0
 40
1.0
 40
1.0
 10
-26.19375000000004
 20
-0.7941688992191217
 30
0.0
 10
-26.19375000000004
 20
-0.7951436095942327
 30
0.0
 10
-26.19375000000004
 20
-0.7992576295726138
 30
0.0
 10
-26.19375000000001
 20
-0.7687857475142991
 30
0.0
 10
-26.19375000000001
 20
-0.7017953469975978
 30
0.0
 10
-26.19375000000004
 20
-0.5677004683061625
 30
0.0
 10
-26.19375000000004
 20
-0.407496023905017
 30
0.0
 10
-26.19375000000001
 20
-0.3016997402232405
 30
0.0
  0
SPLINE
  5
407
330
1F
100
AcDbEntity
  8
외형선
  6
Continuous
370
    15
100
AcDbSpline
210
0.0
220
0.0
230
1.0
 70
    24
 71
     3
 72
    10
 73
     6
 74
     0
 42
0.000000001
 43
0.00000001
 40
0.0
 40
0.0
 40
0.0
 40
0.0
 40
0.5
 40
0.5
 40
1.0
 40
1.0
 40
1.0
 40
1.0
 10
-26.19375000000015
 20
-1.112864183541701
 30
0.0
 10
-26.19375000000015
 20
-1.05147359741464
 30
0.0
 10
-26.19375000000015
 20
-0.9894814563324971
 30
0.0
 10
-26.19375000000015
 20
-0.8782199600357771
 30
0.0
 10
-26.19375000000015
 20
-0.8292050892160375
 30
0.0
 10
-26.19375000000015
 20
-0.7905243742359488
 30
0.0
  0
SPLINE
  5
408
330
1F
100
AcDbEntity
  8
0
  6
Continuous
 62
     1
370
    25
100
AcDbSpline
210
0.0
220
0.0
230
1.0
 70
     8
 71
     3
 72
    16
 73
    12
 74
     0
 42
0.000000001
 43
0.00000001
 40
0.0
 40
0.0
 40
0.0
 40
0.0
 40
0.1147038268561944
 40
0.2293640756354615
 40
0.3439880973591002
 40
0.458583356758551
 40
0.5731574093086579
 40
0.6877178776534535
 40
0.7956954409696347
 40
0.9036944190117414
 40
1.0
 40
1.0
 40
1.0
 40
1.0
 10
-33.33750000000005
 20
1.129832722429237
 30
0.0
 10
-33.1150538856222
 20
1.077884023566428
 30
0.0
 10
-32.6702461682046
 20
0.9740063620994605
 30
0.0
 10
-32.00321297460307
 20
0.6858371656473722
 30
0.0
 10
-31.33642938626356
 20
0.3350534271321465
 30
0.0
 10
-30.66984281284404
 20
-0.0527128547052825
 30
0.0
 10
-30.00342131090967
 20
-0.4341818273436914
 30
0.0
 10
-29.34978183382948
 20
-0.765128670548718
 30
0.0
 10
-28.70912466094497
 20
-1.012276048986705
 30
0.0
 10
-28.10378229325069
 20
-1.165559603967593
 30
0.0
 10
-27.70769365612712
 20
-1.178971201766805
 30
0.0
 10
-27.52098442897098
 20
-1.185293193425549
 30
0.0
  0
SPLINE
  5
409
330
1F
100
AcDbEntity
  8
0
  6
Continuous
 62
     1
370
    25
100
AcDbSpline
210
0.0
220
0.0
230
1.0
 70
     8
 71
     3
 72
    14
 73
    10
 74
     0
 42
0.000000001
 43
0.00000001
 40
0.0
 40
0.0
 40
0.0
 40
0.0
 40
0.1622137950874605
 40
0.3237572630908495
 40
0.4856572996767612
 40
0.6481215529328538
 40
0.8097620313801025
 40
0.9714435674128369
 40
1.0
 40
1.0
 40
1.0
 40
1.0
 10
-33.33750000000002
 20
0.9393701022634119
 30
0.0
 10
-33.16977799313021
 20
0.9034407531308531
 30
0.0
 10
-32.83502706843241
 20
0.831730528155704
 30
0.0
 10
-32.33340572588419
 20
0.6596225639668077
 30
0.0
 10
-31.8312700994508
 20
0.4528295939831622
 30
0.0
 10
-31.32853959431289
 20
0.2186843000707924
 30
0.0
 10
-30.82671561723261
 20
-0.0273607766198424
 30
0.0
 10
-30.46325212023159
 20
-0.2097233181754191
 30
0.0
 10
-30.26652769468127
 20
-0.2979271308045156
 30
0.0
 10
-30.23699758648452
 20
-0.31116731754298
 30
0.0
  0
LINE
  5
40A
330
1F
100
AcDbEntity
  8
0
  6
Continuous
 62
     1
370
    25
100
AcDbLine
 10
-33.33750000000002
 20
1.129832722429237
 30
0.0
 11
-33.33750000000002
 21
0.9393701022634119
 31
0.0
  0
SPLINE
  5
40B
330
1F
100
AcDbEntity
  8
0
  6
Continuous
 62
     1
370
    25
100
AcDbSpline
210
0.0
220
0.0
230
1.0
 70
     8
 71
     3
 72
    38
 73
    34
 74
     0
 42
0.000000001
 43
0.00000001
 40
0.0
 40
0.0
 40
0.0
 40
0.0
 40
0.0625
 40
0.0625
 40
0.125
 40
0.125
 40
0.1875
 40
0.1875
 40
0.25
 40
0.25
 40
0.3125
 40
0.3125
 40
0.375
 40
0.375
 40
0.4375
 40
0.4375
 40
0.5
 40
0.5
 40
0.5625
 40
0.5625
 40
0.625
 40
0.625
 40
0.6875
 40
0.6875
 40
0.75
 40
0.75
 40
0.8125
 40
0.8125
 40
0.875
 40
0.875
 40
0.9375
 40
0.9375
 40
1.0
 40
1.0
 40
1.0
 40
1.0
 10
-33.33750000000002
 20
1.190624999999996
 30
0.0
 10
-33.19094642802715
 20
1.186104908430943
 30
0.0
 10
-33.04018777172688
 20
1.173251017928153
 30
0.0
 10
-32.74067847105887
 20
1.129364597070259
 30
0.0
 10
-32.59468453767435
 20
1.098630899496344
 30
0.0
 10
-32.29662803350568
 20
1.020170764738767
 30
0.0
 10
-32.1453952980002
 20
0.9723717609144714
 30
0.0
 10
-31.84904599686924
 20
0.8630514396281598
 30
0.0
 10
-31.70178149566307
 20
0.8013631988110689
 30
0.0
 10
-31.40188477790134
 20
0.6656670726282187
 30
0.0
 10
-31.25385609362844
 20
0.5923485411789798
 30
0.0
 10
-30.95830058394405
 20
0.4377827980902197
 30
0.0
 10
-30.80714388752189
 20
0.3558661291830078
 30
0.0
 10
-30.50858056730139
 20
0.1884035368065483
 30
0.0
 10
-30.36279041313962
 20
0.1032076379473864
 30
0.0
 10
-30.06357625666904
 20
-0.0689153951137541
 30
0.0
 10
-29.91263194507384
 20
-0.155357466677826
 30
0.0
 10
-29.61852887527199
 20
-0.3230255040629387
 30
0.0
 10
-29.46893485594281
 20
-0.4054732097546946
 30
0.0
 10
-29.16921169687568
 20
-0.5628285489544481
 30
0.0
 10
-29.0228587385475
 20
-0.6371079827361811
 30
0.0
 10
-28.72538902401756
 20
-0.7754227781687589
 30
0.0
 10
-28.57412222340589
 20
-0.8393858218077724
 30
0.0
 10
-28.27705757239001
 20
-0.9524862303925502
 30
0.0
 10
-28.13040314975537
 20
-1.00183750305242
 30
0.0
 10
-27.83058806903712
 20
-1.08482773840221
 30
0.0
 10
-27.6816417821163
 20
-1.118000982878341
 30
0.0
 10
-27.38695779677137
 20
-1.166359057020612
 30
0.0
 10
-27.23591904235853
 20
-1.181770722155475
 30
0.0
 10
-26.93692933655889
 20
-1.19372631720263
 30
0.0
 10
-26.79118753257903
 20
-1.190414803265894
 30
0.0
 10
-26.49234953888897
 20
-1.165267497806175
 30
0.0
 10
-26.34126127670937
 20
-1.143316089676828
 30
0.0
 10
-26.19375000000001
 20
-1.112864183541701
 30
0.0
  0
SPLINE
  5
40C
330
1F
100
AcDbEntity
  8
0
  6
Continuous
 62
     1
370
    25
100
AcDbSpline
210
0.0
220
0.0
230
1.0
 70
     8
 71
     3
 72
    14
 73
    10
 74
     0
 42
0.000000001
 43
0.00000001
 40
0.0
 40
0.0
 40
0.0
 40
0.0
 40
0.102035162977018
 40
0.2748583371506863
 40
0.4476692244311513
 40
0.6204784543198175
 40
0.793296661149001
 40
0.9374866618290917
 40
1.0
 40
1.0
 40
1.0
 40
1.0
 10
-30.38410140020302
 20
0.1141630162010344
 30
0.0
 10
-30.25239384031489
 20
0.061519243590206
 30
0.0
 10
-29.89760515918944
 20
-0.0802904951212525
 30
0.0
 10
-29.31976410105791
 20
-0.3128644009990097
 30
0.0
 10
-28.65056469007489
 20
-0.5473967560747667
 30
0.0
 10
-27.98140171425287
 20
-0.7264525451360541
 30
0.0
 10
-27.34907537670581
 20
-0.8195087990477233
 30
0.0
 10
-26.8593990083893
 20
-0.8451675225899095
 30
0.0
 10
-26.59253854125946
 20
-0.8214455813527962
 30
0.0
 10
-26.51183186898764
 20
-0.8142713492244255
 30
0.0
  0
SPLINE
  5
40D
330
1F
100
AcDbEntity
  8
외형선
  6
Continuous
370
    15
100
AcDbSpline
210
0.0
220
0.0
230
1.0
 70
    24
 71
     3
 72
    10
 73
     6
 74
     0
 42
0.000000001
 43
0.00000001
 40
0.0
 40
0.0
 40
0.0
 40
0.0
 40
0.4999999999999996
 40
0.4999999999999996
 40
1.0
 40
1.0
 40
1.0
 40
1.0
 10
-26.19375000000015
 20
-1.112864183541701
 30
0.0
 10
-26.19375000000015
 20
-1.05147359741464
 30
0.0
 10
-26.19375000000015
 20
-0.9894814563324971
 30
0.0
 10
-26.19375000000015
 20
-0.8782199600357771
 30
0.0
 10
-26.19375000000015
 20
-0.8292050892160375
 30
0.0
 10
-26.19375000000015
 20
-0.7905243742359488
 30
0.0
  0
LINE
  5
40E
330
1F
100
AcDbEntity
  8
0
  6
Continuous
 62
     1
370
    25
100
AcDbLine
 10
-33.33750000000002
 20
1.190624999999996
 30
0.0
 11
-33.33750000000002
 21
1.129832722429237
 31
0.0
  0
SPLINE
  5
40F
330
1F
100
AcDbEntity
  8
0
  6
Continuous
 62
     1
370
    25
100
AcDbSpline
210
0.0
220
0.0
230
1.0
 70
     8
 71
     3
 72
     8
 73
     4
 74
     0
 42
0.000000001
 43
0.00000001
 40
0.0
 40
0.0
 40
0.0
 40
0.0
 40
1.0
 40
1.0
 40
1.0
 40
1.0
 10
-32.60061867067988
 20
-0.333224683642554
 30
0.0
 10
-32.55835961301172
 20
-0.3832476977117792
 30
0.0
 10
-32.52064615656606
 20
-0.4314055764531929
 30
0.0
 10
-32.48854480894126
 20
-0.477260714168095
 30
0.0
  0
LINE
  5
410
330
1F
100
AcDbEntity
  8
0
  6
Continuous
 62
     1
370
    25
100
AcDbLine
 10
-32.50364158570376
 20
-0.4899284139927346
 30
0.0
 11
-33.33750000000002
 21
0.0000000000000086
 31
0.0
  0
LINE
  5
411
330
1F
100
AcDbEntity
  8
0
  6
Continuous
 62
     1
370
    25
100
AcDbLine
 10
-33.33750000000002
 20
0.0000000000000086
 30
0.0
 11
-33.33750000000002
 21
0.3181861326165546
 31
0.0
  0
SPLINE
  5
412
330
1F
100
AcDbEntity
  8
0
  6
Continuous
 62
     1
370
    25
100
AcDbSpline
210
0.0
220
0.0
230
1.0
 70
     8
 71
     3
 72
    10
 73
     6
 74
     0
 42
0.000000001
 43
0.00000001
 40
0.0
 40
0.0
 40
0.0
 40
0.0
 40
0.5
 40
0.5
 40
1.0
 40
1.0
 40
1.0
 40
1.0
 10
-33.33750000000002
 20
0.3181861326165475
 30
0.0
 10
-33.20994037202748
 20
0.2179006366655557
 30
0.0
 10
-33.08451330534633
 20
0.1135000420721198
 30
0.0
 10
-32.83802308936829
 20
-0.1037219838688926
 30
0.0
 10
-32.71580137272726
 20
-0.2176860461589228
 30
0.0
 10
-32.6006186706788
 20
-0.3332246836399392
 30
0.0
  0
SPLINE
  5
413
330
1F
100
AcDbEntity
  8
0
  6
Continuous
 62
     1
370
    25
100
AcDbSpline
210
0.0
220
0.0
230
1.0
 70
     8
 71
     3
 72
    13
 73
     9
 74
     0
 42
0.000000001
 43
0.00000001
 40
0.0
 40
0.0
 40
0.0
 40
0.0
 40
0.0973812427724128
 40
0.280458408141525
 40
0.4641825728292457
 40
0.7082632014214
 40
0.9522978910589877
 40
1.0
 40
1.0
 40
1.0
 40
1.0
 10
-32.60061867067988
 20
-0.333224683642554
 30
0.0
 10
-32.5116582423852
 20
-0.3711922531873512
 30
0.0
 10
-32.25545181703258
 20
-0.48053902072064
 30
0.0
 10
-31.83121998555096
 20
-0.6416942160359212
 30
0.0
 10
-31.27256654721261
 20
-0.813706349400816
 30
0.0
 10
-30.65836410924648
 20
-0.9283325589167774
 30
0.0
 10
-30.16847900528286
 20
-0.972150087267002
 30
0.0
 10
-29.90176266850484
 20
-0.9430887508503986
 30
0.0
 10
-29.85815167457015
 20
-0.9383369093190254
 30
0.0
  0
SPLINE
  5
414
330
1F
100
AcDbEntity
  8
0
  6
Continuous
 62
     1
370
    25
100
AcDbSpline
210
0.0
220
0.0
230
1.0
 70
    24
 71
     3
 72
    10
 73
     6
 74
     0
 42
0.000000001
 43
0.00000001
 40
0.0
 40
0.0
 40
0.0
 40
0.0
 40
0.5
 40
0.5
 40
1.0
 40
1.0
 40
1.0
 40
1.0
 10
-33.33750000000002
 20
0.9393701022634119
 30
0.0
 10
-33.33750000000002
 20
0.8673600600326609
 30
0.0
 10
-33.33750000000002
 20
0.7763726105261469
 30
0.0
 10
-33.33750000000002
 20
0.5648355469887832
 30
0.0
 10
-33.33750000000002
 20
0.4444691743829751
 30
0.0
 10
-33.33750000000002
 20
0.3181861326165901
 30
0.0
  0
SPLINE
  5
415
330
1F
100
AcDbEntity
  8
0
  6
Continuous
 62
     1
370
    25
100
AcDbSpline
210
0.0
220
0.0
230
1.0
 70
     8
 71
     3
 72
    12
 73
     8
 74
     0
 42
0.000000001
 43
0.00000001
 40
0.0
 40
0.0
 40
0.0
 40
0.0
 40
0.1372832090466598
 40
0.404135489936425
 40
0.671711941187112
 40
0.9400283784304324
 40
1.0
 40
1.0
 40
1.0
 40
1.0
 10
-28.07060232097446
 20
0.9831868361324055
 30
0.0
 10
-27.98469151176546
 20
0.9931694770152731
 30
0.0
 10
-27.73178653371595
 20
1.022556460988577
 30
0.0
 10
-27.31183442968951
 20
1.006923210669137
 30
0.0
 10
-26.8096785119876
 20
0.9394788646602962
 30
0.0
 10
-26.43640236061695
 20
0.8473841653322524
 30
0.0
 10
-26.23123072818056
 20
0.7834171904802588
 30
0.0
 10
-26.19375000000004
 20
0.7717317115059515
 30
0.0
  0
SPLINE
  5
416
330
1F
100
AcDbEntity
  8
0
  6
Continuous
 62
     1
370
    25
100
AcDbSpline
210
0.0
220
0.0
230
1.0
 70
     8
 71
     3
 72
    15
 73
    11
 74
     0
 42
0.000000001
 43
0.00000001
 40
0.0
 40
0.0
 40
0.0
 40
0.0
 40
0.0347655690729551
 40
0.1794698257012448
 40
0.3241554265454097
 40
0.4688310099261442
 40
0.6135052431420795
 40
0.7581867974002919
 40
0.8789081306893023
 40
1.0
 40
1.0
 40
1.0
 40
1.0
 10
-30.81912609069708
 20
0.8863806491218625
 30
0.0
 10
-30.76552195704222
 20
0.8974018592760317
 30
0.0
 10
-30.48880206490655
 20
0.954296502974637
 30
0.0
 10
-29.98901238374113
 20
0.9633535792794575
 30
0.0
 10
-29.31976921076712
 20
0.9024353426158612
 30
0.0
 10
-28.65057154301813
 20
0.7398995240912157
 30
0.0
 10
-27.98141208751046
 20
0.5018999666872773
 30
0.0
 10
-27.34906824005573
 20
0.2275659812392391
 30
0.0
 10
-26.7534395324134
 20
-0.0507012122578686
 30
0.0
 10
-26.38050366358705
 20
-0.217948138776704
 30
0.0
 10
-26.19375000000007
 20
-0.3016997402232121
 30
0.0
  0
SPLINE
  5
417
330
1F
100
AcDbEntity
  8
외형선
  6
Continuous
370
    15
100
AcDbSpline
210
0.0
220
0.0
230
1.0
 70
    24
 71
     3
 72
    10
 73
     6
 74
     0
 42
0.000000001
 43
0.00000001
 40
0.0
 40
0.0
 40
0.0
 40
0.0
 40
0.5
 40
0.5
 40
1.0
 40
1.0
 40
1.0
 40
1.0
 10
-26.19375000000004
 20
-0.3016997402232263
 30
0.0
 10
-26.19375000000004
 20
-0.1219537598744494
 30
0.0
 10
-26.19375000000004
 20
0.0748402021915325
 30
0.0
 10
-26.19375000000004
 20
0.4500576858240152
 30
0.0
 10
-26.19375000000004
 20
0.6268661246581587
 30
0.0
 10
-26.19375000000004
 20
0.7717317115059658
 30
0.0
  0
SPLINE
  5
418
330
1F
100
AcDbEntity
  8
외형선
  6
Continuous
370
    15
100
AcDbSpline
210
0.0
220
0.0
230
1.0
 70
    24
 71
     3
 72
    12
 73
     8
 74
     0
 42
0.000000001
 43
0.00000001
 40
0.0
 40
0.0
 40
0.0
 40
0.0
 40
0.0601207162244602
 40
0.2512964665238621
 40
0.4370843554580082
 40
0.6282601057574099
 40
1.0
 40
1.0
 40
1.0
 40
1.0
 10
-26.19375000000004
 20
-0.794146893174782
 30
0.0
 10
-26.19375000000004
 20
-0.7951380019548381
 30
0.0
 10
-26.19375000000004
 20
-0.7992807026744785
 30
0.0
 10
-26.19375000000004
 20
-0.7687967773417753
 30
0.0
 10
-26.19375000000004
 20
-0.701792408294493
 30
0.0
 10
-26.19375000000001
 20
-0.5677020671946721
 30
0.0
 10
-26.19375000000001
 20
-0.4074966598298303
 30
0.0
 10
-26.19375000000001
 20
-0.3016997402232405
 30
0.0
  0
SPLINE
  5
419
330
1F
100
AcDbEntity
  8
0
  6
Continuous
 62
     1
370
    25
100
AcDbSpline
210
0.0
220
0.0
230
1.0
 70
    24
 71
     3
 72
     8
 73
     4
 74
     0
 42
0.000000001
 43
0.00000001
 40
0.0
 40
0.0
 40
0.0
 40
0.0
 40
1.0
 40
1.0
 40
1.0
 40
1.0
 10
-32.61282161587651
 20
-0.5815413370426071
 30
0.0
 10
-32.57350547470794
 20
-0.5485511774887598
 30
0.0
 10
-32.53189779872908
 20
-0.5136381919207323
 30
0.0
 10
-32.48854480893631
 20
-0.477260714175172
 30
0.0
  0
LINE
  5
41A
330
1F
100
AcDbEntity
  8
0
  6
Continuous
 62
     1
370
    25
100
AcDbLine
 10
-33.33750000000002
 20
-0.8334374999999937
 30
0.0
 11
-32.89076263280687
 21
-0.8043935180459328
 31
0.0
  0
SPLINE
  5
41B
330
1F
100
AcDbEntity
  8
0
  6
Continuous
 62
     1
370
    25
100
AcDbSpline
210
0.0
220
0.0
230
1.0
 70
     8
 71
     3
 72
     8
 73
     4
 74
     0
 42
0.000000001
 43
0.00000001
 40
0.0
 40
0.0
 40
0.0
 40
0.0
 40
1.0
 40
1.0
 40
1.0
 40
1.0
 10
-33.33750000000002
 20
-0.8334374999999937
 30
0.0
 10
-33.09258565133293
 20
-0.766870709674555
 30
0.0
 10
-32.85004529027894
 20
-0.6850608002371729
 30
0.0
 10
-32.61282161589078
 20
-0.5815413370488386
 30
0.0
  0
SPLINE
  5
41C
330
1F
100
AcDbEntity
  8
0
  6
Continuous
 62
     1
370
    25
100
AcDbSpline
210
0.0
220
0.0
230
1.0
 70
     8
 71
     3
 72
    12
 73
     8
 74
     0
 42
0.000000001
 43
0.00000001
 40
0.0
 40
0.0
 40
0.0
 40
0.0
 40
0.0602444251507433
 40
0.2949352537339588
 40
0.5297566012296722
 40
0.7647912415800749
 40
1.0
 40
1.0
 40
1.0
 40
1.0
 10
-28.87036783734176
 20
0.9366194533417499
 30
0.0
 10
-28.8166301887352
 20
0.9578924735492024
 30
0.0
 10
-28.55354979603204
 20
1.06203760559872
 30
0.0
 10
-28.08099417191103
 20
1.161067243112002
 30
0.0
 10
-27.45245707905063
 20
1.208579893979634
 30
0.0
 10
-26.82332987872537
 20
1.144370449184636
 30
0.0
 10
-26.40366175672493
 20
1.016601200930148
 30
0.0
 10
-26.19375000000007
 20
0.952692922100988
 30
0.0
  0
SPLINE
  5
41D
330
1F
100
AcDbEntity
  8
외형선
  6
Continuous
370
    15
100
AcDbSpline
210
0.0
220
0.0
230
1.0
 70
    24
 71
     3
 72
     8
 73
     4
 74
     0
 42
0.000000001
 43
0.00000001
 40
0.0
 40
0.0
 40
0.0
 40
0.0
 40
1.0
 40
1.0
 40
1.0
 40
1.0
 10
-26.19375000000151
 20
0.7717317115064347
 30
0.0
 10
-26.19375000000151
 20
0.8301453215547042
 30
0.0
 10
-26.19375000000151
 20
0.8908449451200099
 30
0.0
 10
-26.19375000000151
 20
0.9526929221008459
 30
0.0
  0
SPLINE
  5
41E
330
1F
100
AcDbEntity
  8
0
  6
Continuous
 62
     1
370
    25
100
AcDbSpline
210
0.0
220
0.0
230
1.0
 70
     8
 71
     3
 72
     9
 73
     5
 74
     0
 42
0.000000001
 43
0.00000001
 40
0.0
 40
0.0
 40
0.0
 40
0.0
 40
0.8904247368658865
 40
1.0
 40
1.0
 40
1.0
 40
1.0
 10
-26.19375000000001
 20
1.112864183541719
 30
0.0
 10
-26.41618712477181
 20
1.156769936776564
 30
0.0
 10
-26.66599726094874
 20
1.206078712035202
 30
0.0
 10
-26.91580994570676
 20
1.186131504585598
 30
0.0
 10
-26.94318323637334
 20
1.183945784080515
 30
0.0
  0
SPLINE
  5
41F
330
1F
100
AcDbEntity
  8
0
  6
Continuous
 62
     1
370
    25
100
AcDbSpline
210
0.0
220
0.0
230
1.0
 70
     8
 71
     3
 72
    10
 73
     6
 74
     0
 42
0.000000001
 43
0.00000001
 40
0.0
 40
0.0
 40
0.0
 40
0.0
 40
0.2233756543436591
 40
0.6114851772303548
 40
0.9999999999999999
 40
0.9999999999999999
 40
0.9999999999999999
 40
0.9999999999999999
 10
-31.71748657497604
 20
-0.7973757387475814
 30
0.0
 10
-31.83808559170286
 20
-0.8496562204497579
 30
0.0
 10
-32.16822233526916
 20
-0.9927727105313536
 30
0.0
 10
-32.70819213081667
 20
-1.140608761683622
 30
0.0
 10
-33.12765774090441
 20
-1.173276372359906
 30
0.0
 10
-33.33750000000001
 20
-1.190625000000004
 30
0.0
  0
LINE
  5
420
330
1F
100
AcDbEntity
  8
0
  6
Continuous
 62
     1
370
    25
100
AcDbLine
 10
-33.33750000000002
 20
0.0000000000000086
 30
0.0
 11
-33.33750000000002
 21
-0.8334374999999937
 31
0.0
  0
SPLINE
  5
421
330
1F
100
AcDbEntity
  8
0
  6
Continuous
 62
     1
370
    25
100
AcDbSpline
210
0.0
220
0.0
230
1.0
 70
    24
 71
     3
 72
    10
 73
     6
 74
     0
 42
0.000000001
 43
0.00000001
 40
0.0
 40
0.0
 40
0.0
 40
0.0
 40
0.5
 40
0.5
 40
1.0
 40
1.0
 40
1.0
 40
1.0
 10
-33.33750000000002
 20
-0.8334374999999937
 30
0.0
 10
-33.33750000000002
 20
-0.8839584057612043
 30
0.0
 10
-33.33750000000002
 20
-0.9426683769949008
 30
0.0
 10
-33.33750000000002
 20
-1.06584173851901
 30
0.0
 10
-33.33750000000002
 20
-1.129990559501122
 30
0.0
 10
-33.33750000000001
 20
-1.190625000000004
 30
0.0
  0
ENDSEC
  0
SECTION
  2
OBJECTS
  0
DICTIONARY
  5
C
330
0
100
AcDbDictionary
281
     1
  3
ACAD_GROUP
350
D
  3
ACAD_IMAGE_VARS
350
161
  3
ACAD_LAYOUT
350
1A
  3
ACAD_MLINESTYLE
350
17
  3
ACAD_PLOTSETTINGS
350
19
  3
ACAD_PLOTSTYLENAME
350
E
  3
ACAD_SCALELIST
350
47
  3
APPDATA
350
15F
  3
DWGPROPS
350
49A
  0
DICTIONARY
  5
23D
330
2
100
AcDbDictionary
280
     1
281
     1
  3
ACAD_LAYERSTATES
360
23E
  0
DICTIONARY
  5
D
102
{ACAD_REACTORS
330
C
102
}
330
C
100
AcDbDictionary
281
     1
  0
RASTERVARIABLES
  5
161
102
{ACAD_REACTORS
330
C
102
}
330
C
100
AcDbRasterVariables
 90
        0
 70
     1
 71
     1
 72
     1
  0
DICTIONARY
  5
1A
102
{ACAD_REACTORS
330
C
102
}
330
C
100
AcDbDictionary
281
     1
  3
Layout1
350
1E
  3
Layout2
350
26
  3
Model
350
22
  0
DICTIONARY
  5
17
102
{ACAD_REACTORS
330
C
102
}
330
C
100
AcDbDictionary
281
     1
  3
Standard
350
18
  0
DICTIONARY
  5
19
102
{ACAD_REACTORS
330
C
102
}
330
C
100
AcDbDictionary
281
     1
  0
ACDBDICTIONARYWDFLT
  5
E
102
{ACAD_REACTORS
330
C
102
}
330
C
100
AcDbDictionary
281
     1
  3
Normal
350
F
100
AcDbDictionaryWithDefault
340
F
  0
DICTIONARY
  5
47
102
{ACAD_REACTORS
330
C
102
}
330
C
100
AcDbDictionary
281
     1
  3
A0
350
48
  3
A1
350
49
  3
A2
350
4A
  3
A3
350
4B
  3
A4
350
4C
  3
A5
350
4D
  3
A6
350
4E
  3
A7
350
4F
  3
A8
350
50
  3
A9
350
51
  3
B0
350
52
  3
B1
350
53
  3
B2
350
54
  3
B3
350
55
  3
B4
350
56
  3
B5
350
57
  3
B6
350
58
  3
B7
350
59
  3
B8
350
5A
  3
B9
350
5B
  3
C0
350
5C
  3
C1
350
5D
  3
C2
350
5E
  3
C3
350
5F
  3
C4
350
60
  3
C5
350
61
  3
C6
350
62
  3
C7
350
63
  3
C8
350
64
  3
C9
350
65
  3
D0
350
66
  3
D1
350
67
  3
D2
350
68
  0
DICTIONARY
  5
15F
102
{ACAD_REACTORS
330
C
102
}
330
C
100
AcDbDictionary
281
     1
  0
XRECORD
  5
49A
102
{ACAD_REACTORS
330
C
102
}
330
C
100
AcDbXrecord
280
     1
  1
DWGPROPS COOKIE
  2

  3

  4

  6

  7

  8
12016016
  9

300
=
301
=
302
=
303
=
304
=
305
=
306
=
307
=
308
=
309
=
 40
0.0
 41
2458313.037247952
 42
2458320.373836922
  1

 90
        0
  0
DICTIONARY
  5
23E
102
{ACAD_REACTORS
330
23D
102
}
330
23D
100
AcDbDictionary
281
     1
  0
LAYOUT
  5
1E
102
{ACAD_REACTORS
330
1A
102
}
330
1A
100
AcDbPlotSettings
  1

  2
none_device
  4

  6

 40
0.0
 41
0.0
 42
0.0
 43
0.0
 44
0.0
 45
0.0
 46
0.0
 47
0.0
 48
0.0
 49
0.0
140
0.0
141
0.0
142
1.0
143
1.0
 70
   688
 72
     1
 73
     0
 74
     5
  7

 75
    16
147
1.0
148
0.0
149
0.0
100
AcDbLayout
  1
Layout1
 70
     1
 71
     1
 10
0.0
 20
0.0
 11
420.0
 21
297.0
 12
0.0
 22
0.0
 32
0.0
 14
1.000000000000000E+20
 24
1.000000000000000E+20
 34
1.000000000000000E+20
 15
-1.000000000000000E+20
 25
-1.000000000000000E+20
 35
-1.000000000000000E+20
146
0.0
 13
0.0
 23
0.0
 33
0.0
 16
1.0
 26
0.0
 36
0.0
 17
0.0
 27
1.0
 37
0.0
 76
     0
330
1B
  0
LAYOUT
  5
26
102
{ACAD_REACTORS
330
1A
102
}
330
1A
100
AcDbPlotSettings
  1

  2
none_device
  4

  6

 40
0.0
 41
0.0
 42
0.0
 43
0.0
 44
0.0
 45
0.0
 46
0.0
 47
0.0
 48
0.0
 49
0.0
140
0.0
141
0.0
142
1.0
143
1.0
 70
   688
 72
     1
 73
     0
 74
     5
  7

 75
    16
147
1.0
148
0.0
149
0.0
100
AcDbLayout
  1
Layout2
 70
     1
 71
     2
 10
0.0
 20
0.0
 11
0.0
 21
0.0
 12
0.0
 22
0.0
 32
0.0
 14
0.0
 24
0.0
 34
0.0
 15
0.0
 25
0.0
 35
0.0
146
0.0
 13
0.0
 23
0.0
 33
0.0
 16
1.0
 26
0.0
 36
0.0
 17
0.0
 27
1.0
 37
0.0
 76
     0
330
23
  0
LAYOUT
  5
22
102
{ACAD_REACTORS
330
1A
102
}
330
1A
100
AcDbPlotSettings
  1

  2
none_device
  4
ANSI_A_(11.00_x_8.50_Inches)
  6

 40
6.35
 41
19.05
 42
6.35000508
 43
19.05000254
 44
279.4
 45
215.9
 46
115.9141798552421
 47
91.8334743907837
 48
0.0
 49
0.0
140
0.0
141
0.0
142
0.0652586203479596
143
1.0
 70
  1696
 72
     0
 73
     0
 74
     0
  7

 75
     0
147
0.0235690232323232
148
0.0
149
0.0
100
AcDbLayout
  1
Model
 70
     1
 71
     0
 10
0.0
 20
0.0
 11
420.0
 21
297.0
 12
0.0
 22
0.0
 32
0.0
 14
-50.71250000000004
 24
-49.97180738881174
 34
0.0
 15
81.21241335422454
 25
44.71940988448053
 35
0.0
146
0.0
 13
0.0
 23
0.0
 33
0.0
 16
1.0
 26
0.0
 36
0.0
 17
0.0
 27
1.0
 37
0.0
 76
     0
330
1F
331
29
  0
MLINESTYLE
  5
18
102
{ACAD_REACTORS
330
17
102
}
330
17
100
AcDbMlineStyle
  2
Standard
 70
     0
  3

 62
   256
 51
90.0
 52
90.0
 71
     2
 49
0.5
 62
   256
  6
BYLAYER
 49
-0.5
 62
   256
  6
BYLAYER
  0
ACDBPLACEHOLDER
  5
F
102
{ACAD_REACTORS
330
E
102
}
330
E
  0
SCALE
  5
48
102
{ACAD_REACTORS
330
47
102
}
330
47
100
AcDbScale
 70
     0
300
1:1
140
1.0
141
1.0
290
     1
  0
SCALE
  5
49
102
{ACAD_REACTORS
330
47
102
}
330
47
100
AcDbScale
 70
     0
300
1:2
140
1.0
141
2.0
290
     0
  0
SCALE
  5
4A
102
{ACAD_REACTORS
330
47
102
}
330
47
100
AcDbScale
 70
     0
300
1:4
140
1.0
141
4.0
290
     0
  0
SCALE
  5
4B
102
{ACAD_REACTORS
330
47
102
}
330
47
100
AcDbScale
 70
     0
300
1:5
140
1.0
141
5.0
290
     0
  0
SCALE
  5
4C
102
{ACAD_REACTORS
330
47
102
}
330
47
100
AcDbScale
 70
     0
300
1:8
140
1.0
141
8.0
290
     0
  0
SCALE
  5
4D
102
{ACAD_REACTORS
330
47
102
}
330
47
100
AcDbScale
 70
     0
300
1:10
140
1.0
141
10.0
290
     0
  0
SCALE
  5
4E
102
{ACAD_REACTORS
330
47
102
}
330
47
100
AcDbScale
 70
     0
300
1:16
140
1.0
141
16.0
290
     0
  0
SCALE
  5
4F
102
{ACAD_REACTORS
330
47
102
}
330
47
100
AcDbScale
 70
     0
300
1:20
140
1.0
141
20.0
290
     0
  0
SCALE
  5
50
102
{ACAD_REACTORS
330
47
102
}
330
47
100
AcDbScale
 70
     0
300
1:30
140
1.0
141
30.0
290
     0
  0
SCALE
  5
51
102
{ACAD_REACTORS
330
47
102
}
330
47
100
AcDbScale
 70
     0
300
1:40
140
1.0
141
40.0
290
     0
  0
SCALE
  5
52
102
{ACAD_REACTORS
330
47
102
}
330
47
100
AcDbScale
 70
     0
300
1:50
140
1.0
141
50.0
290
     0
  0
SCALE
  5
53
102
{ACAD_REACTORS
330
47
102
}
330
47
100
AcDbScale
 70
     0
300
1:100
140
1.0
141
100.0
290
     0
  0
SCALE
  5
54
102
{ACAD_REACTORS
330
47
102
}
330
47
100
AcDbScale
 70
     0
300
2:1
140
2.0
141
1.0
290
     0
  0
SCALE
  5
55
102
{ACAD_REACTORS
330
47
102
}
330
47
100
AcDbScale
 70
     0
300
4:1
140
4.0
141
1.0
290
     0
  0
SCALE
  5
56
102
{ACAD_REACTORS
330
47
102
}
330
47
100
AcDbScale
 70
     0
300
8:1
140
8.0
141
1.0
290
     0
  0
SCALE
  5
57
102
{ACAD_REACTORS
330
47
102
}
330
47
100
AcDbScale
 70
     0
300
10:1
140
10.0
141
1.0
290
     0
  0
SCALE
  5
58
102
{ACAD_REACTORS
330
47
102
}
330
47
100
AcDbScale
 70
     0
300
100:1
140
100.0
141
1.0
290
     0
  0
SCALE
  5
59
102
{ACAD_REACTORS
330
47
102
}
330
47
100
AcDbScale
 70
     0
300
1/128" = 1'-0"
140
0.0078125
141
12.0
290
     0
  0
SCALE
  5
5A
102
{ACAD_REACTORS
330
47
102
}
330
47
100
AcDbScale
 70
     0
300
1/64" = 1'-0"
140
0.015625
141
12.0
290
     0
  0
SCALE
  5
5B
102
{ACAD_REACTORS
330
47
102
}
330
47
100
AcDbScale
 70
     0
300
1/32" = 1'-0"
140
0.03125
141
12.0
290
     0
  0
SCALE
  5
5C
102
{ACAD_REACTORS
330
47
102
}
330
47
100
AcDbScale
 70
     0
300
1/16" = 1'-0"
140
0.0625
141
12.0
290
     0
  0
SCALE
  5
5D
102
{ACAD_REACTORS
330
47
102
}
330
47
100
AcDbScale
 70
     0
300
3/32" = 1'-0"
140
0.09375
141
12.0
290
     0
  0
SCALE
  5
5E
102
{ACAD_REACTORS
330
47
102
}
330
47
100
AcDbScale
 70
     0
300
1/8" = 1'-0"
140
0.125
141
12.0
290
     0
  0
SCALE
  5
5F
102
{ACAD_REACTORS
330
47
102
}
330
47
100
AcDbScale
 70
     0
300
3/16" = 1'-0"
140
0.1875
141
12.0
290
     0
  0
SCALE
  5
60
102
{ACAD_REACTORS
330
47
102
}
330
47
100
AcDbScale
 70
     0
300
1/4" = 1'-0"
140
0.25
141
12.0
290
     0
  0
SCALE
  5
61
102
{ACAD_REACTORS
330
47
102
}
330
47
100
AcDbScale
 70
     0
300
3/8" = 1'-0"
140
0.375
141
12.0
290
     0
  0
SCALE
  5
62
102
{ACAD_REACTORS
330
47
102
}
330
47
100
AcDbScale
 70
     0
300
1/2" = 1'-0"
140
0.5
141
12.0
290
     0
  0
SCALE
  5
63
102
{ACAD_REACTORS
330
47
102
}
330
47
100
AcDbScale
 70
     0
300
3/4" = 1'-0"
140
0.75
141
12.0
290
     0
  0
SCALE
  5
64
102
{ACAD_REACTORS
330
47
102
}
330
47
100
AcDbScale
 70
     0
300
1" = 1'-0"
140
1.0
141
12.0
290
     0
  0
SCALE
  5
65
102
{ACAD_REACTORS
330
47
102
}
330
47
100
AcDbScale
 70
     0
300
1-1/2" = 1'-0"
140
1.5
141
12.0
290
     0
  0
SCALE
  5
66
102
{ACAD_REACTORS
330
47
102
}
330
47
100
AcDbScale
 70
     0
300
3" = 1'-0"
140
3.0
141
12.0
290
     0
  0
SCALE
  5
67
102
{ACAD_REACTORS
330
47
102
}
330
47
100
AcDbScale
 70
     0
300
6" = 1'-0"
140
6.0
141
12.0
290
     0
  0
SCALE
  5
68
102
{ACAD_REACTORS
330
47
102
}
330
47
100
AcDbScale
 70
     0
300
1'-0" = 1'-0"
140
12.0
141
12.0
290
     0
  0
ENDSEC
  0
EOF
