  0
SECTION
  2
HEADER
  9
$ACADVER
  1
AC1015
  9
$ACADMAINTVER
 70
     6
  9
$DWGCODEPAGE
  3
ANSI_949
  9
$INSBASE
 10
0.0
 20
0.0
 30
0.0
  9
$EXTMIN
 10
-50.71250000000004
 20
-49.97180738881174
 30
0.0
  9
$EXTMAX
 10
81.21241335422454
 20
36.86806250000006
 30
0.0
  9
$LIMMIN
 10
0.0
 20
0.0
  9
$LIMMAX
 10
420.0
 20
297.0
  9
$ORTHOMODE
 70
     1
  9
$REGENMODE
 70
     1
  9
$FILLMODE
 70
     1
  9
$QTEXTMODE
 70
     0
  9
$MIRRTEXT
 70
     1
  9
$LTSCALE
 40
1.0
  9
$ATTMODE
 70
     1
  9
$TEXTSIZE
 40
3.5
  9
$TRACEWID
 40
1.0
  9
$TEXTSTYLE
  7
Standard
  9
$CLAYER
  8
0
  9
$CELTYPE
  6
ByLayer
  9
$CECOLOR
 62
   256
  9
$CELTSCALE
 40
1.0
  9
$DISPSILH
 70
     0
  9
$DIMSCALE
 40
1.0
  9
$DIMASZ
 40
3.302
  9
$DIMEXO
 40
1.0
  9
$DIMDLI
 40
3.75
  9
$DIMRND
 40
0.0
  9
$DIMDLE
 40
0.0
  9
$DIMEXE
 40
1.0
  9
$DIMTP
 40
0.0
  9
$DIMTM
 40
0.0
  9
$DIMTXT
 40
3.5
  9
$DIMCEN
 40
2.5
  9
$DIMTSZ
 40
0.0
  9
$DIMTOL
 70
     0
  9
$DIMLIM
 70
     0
  9
$DIMTIH
 70
     1
  9
$DIMTOH
 70
     1
  9
$DIMSE1
 70
     0
  9
$DIMSE2
 70
     0
  9
$DIMTAD
 70
     1
  9
$DIMZIN
 70
     0
  9
$DIMBLK
  1

  9
$DIMASO
 70
     1
  9
$DIMSHO
 70
     1
  9
$DIMPOST
  1

  9
$DIMAPOST
  1

  9
$DIMALT
 70
     0
  9
$DIMALTD
 70
     3
  9
$DIMALTF
 40
0.0393700787401575
  9
$DIMLFAC
 40
1.0
  9
$DIMTOFL
 70
     1
  9
$DIMTVP
 40
0.0
  9
$DIMTIX
 70
     0
  9
$DIMSOXD
 70
     0
  9
$DIMSAH
 70
     0
  9
$DIMBLK1
  1

  9
$DIMBLK2
  1

  9
$DIMSTYLE
  2
ISO-25
  9
$DIMCLRD
 70
     0
  9
$DIMCLRE
 70
     0
  9
$DIMCLRT
 70
     0
  9
$DIMTFAC
 40
1.0
  9
$DIMGAP
 40
1.524
  9
$DIMJUST
 70
     0
  9
$DIMSD1
 70
     0
  9
$DIMSD2
 70
     0
  9
$DIMTOLJ
 70
     0
  9
$DIMTZIN
 70
     0
  9
$DIMALTZ
 70
     0
  9
$DIMALTTZ
 70
     0
  9
$DIMUPT
 70
     0
  9
$DIMDEC
 70
     2
  9
$DIMTDEC
 70
     2
  9
$DIMALTU
 70
     2
  9
$DIMALTTD
 70
     3
  9
$DIMTXSTY
  7
Standard
  9
$DIMAUNIT
 70
     0
  9
$DIMADEC
 70
     2
  9
$DIMALTRND
 40
0.0
  9
$DIMAZIN
 70
     0
  9
$DIMDSEP
 70
    44
  9
$DIMATFIT
 70
     3
  9
$DIMFRAC
 70
     0
  9
$DIMLDRBLK
  1

  9
$DIMLUNIT
 70
     2
  9
$DIMLWD
 70
    -2
  9
$DIMLWE
 70
    -2
  9
$DIMTMOVE
 70
     0
  9
$LUNITS
 70
     2
  9
$LUPREC
 70
     2
  9
$SKETCHINC
 40
1.0
  9
$FILLETRAD
 40
10.0
  9
$AUNITS
 70
     0
  9
$AUPREC
 70
     2
  9
$MENU
  1
.
  9
$ELEVATION
 40
0.0
  9
$PELEVATION
 40
0.0
  9
$THICKNESS
 40
0.0
  9
$LIMCHECK
 70
     0
  9
$CHAMFERA
 40
0.0
  9
$CHAMFERB
 40
0.0
  9
$CHAMFERC
 40
0.0
  9
$CHAMFERD
 40
0.0
  9
$SKPOLY
 70
     0
  9
$TDCREATE
 40
2458313.412459757
  9
$TDUCREATE
 40
2458313.037459757
  9
$TDUPDATE
 40
2458320.748791076
  9
$TDUUPDATE
 40
2458320.373791076
  9
$TDINDWG
 40
0.0012483333
  9
$TDUSRTIMER
 40
2458320.373756343
  9
$USRTIMER
 70
     1
  9
$ANGBASE
 50
0.0
  9
$ANGDIR
 70
     0
  9
$PDMODE
 70
     0
  9
$PDSIZE
 40
-1.0
  9
$PLINEWID
 40
0.0
  9
$SPLFRAME
 70
     0
  9
$SPLINETYPE
 70
     6
  9
$SPLINESEGS
 70
     8
  9
$HANDSEED
  5
503
  9
$SURFTAB1
 70
     6
  9
$SURFTAB2
 70
     6
  9
$SURFTYPE
 70
     6
  9
$SURFU
 70
     6
  9
$SURFV
 70
     6
  9
$UCSBASE
  2

  9
$UCSNAME
  2

  9
$UCSORG
 10
0.0
 20
0.0
 30
0.0
  9
$UCSXDIR
 10
1.0
 20
0.0
 30
0.0
  9
$UCSYDIR
 10
0.0
 20
1.0
 30
0.0
  9
$UCSORTHOREF
  2

  9
$UCSORTHOVIEW
 70
     0
  9
$UCSORGTOP
 10
0.0
 20
0.0
 30
0.0
  9
$UCSORGBOTTOM
 10
0.0
 20
0.0
 30
0.0
  9
$UCSORGLEFT
 10
0.0
 20
0.0
 30
0.0
  9
$UCSORGRIGHT
 10
0.0
 20
0.0
 30
0.0
  9
$UCSORGFRONT
 10
0.0
 20
0.0
 30
0.0
  9
$UCSORGBACK
 10
0.0
 20
0.0
 30
0.0
  9
$PUCSBASE
  2

  9
$PUCSNAME
  2

  9
$PUCSORG
 10
0.0
 20
0.0
 30
0.0
  9
$PUCSXDIR
 10
1.0
 20
0.0
 30
0.0
  9
$PUCSYDIR
 10
0.0
 20
1.0
 30
0.0
  9
$PUCSORTHOREF
  2

  9
$PUCSORTHOVIEW
 70
     0
  9
$PUCSORGTOP
 10
0.0
 20
0.0
 30
0.0
  9
$PUCSORGBOTTOM
 10
0.0
 20
0.0
 30
0.0
  9
$PUCSORGLEFT
 10
0.0
 20
0.0
 30
0.0
  9
$PUCSORGRIGHT
 10
0.0
 20
0.0
 30
0.0
  9
$PUCSORGFRONT
 10
0.0
 20
0.0
 30
0.0
  9
$PUCSORGBACK
 10
0.0
 20
0.0
 30
0.0
  9
$USERI1
 70
     0
  9
$USERI2
 70
     0
  9
$USERI3
 70
     0
  9
$USERI4
 70
     0
  9
$USERI5
 70
     0
  9
$USERR1
 40
0.0
  9
$USERR2
 40
0.0
  9
$USERR3
 40
0.0
  9
$USERR4
 40
0.0
  9
$USERR5
 40
0.0
  9
$WORLDVIEW
 70
     1
  9
$SHADEDGE
 70
     3
  9
$SHADEDIF
 70
    70
  9
$TILEMODE
 70
     1
  9
$MAXACTVP
 70
    64
  9
$PINSBASE
 10
0.0
 20
0.0
 30
0.0
  9
$PLIMCHECK
 70
     0
  9
$PEXTMIN
 10
1.000000000000000E+20
 20
1.000000000000000E+20
 30
1.000000000000000E+20
  9
$PEXTMAX
 10
-1.000000000000000E+20
 20
-1.000000000000000E+20
 30
-1.000000000000000E+20
  9
$PLIMMIN
 10
0.0
 20
0.0
  9
$PLIMMAX
 10
0.0
 20
0.0
  9
$UNITMODE
 70
     0
  9
$VISRETAIN
 70
     1
  9
$PLINEGEN
 70
     0
  9
$PSLTSCALE
 70
     1
  9
$TREEDEPTH
 70
  3020
  9
$CMLSTYLE
  2
Standard
  9
$CMLJUST
 70
     0
  9
$CMLSCALE
 40
20.0
  9
$PROXYGRAPHICS
 70
     1
  9
$MEASUREMENT
 70
     1
  9
$CELWEIGHT
370
    -1
  9
$ENDCAPS
280
     0
  9
$JOINSTYLE
280
     0
  9
$LWDISPLAY
290
     1
  9
$INSUNITS
 70
     4
  9
$HYPERLINKBASE
  1

  9
$STYLESHEET
  1

  9
$XEDIT
290
     1
  9
$CEPSNTYPE
380
     0
  9
$PSTYLEMODE
290
     1
  9
$FINGERPRINTGUID
  2
{D7A299A1-E7A7-4398-90A1-4A90199AE3DF}
  9
$VERSIONGUID
  2
{FAEB1C32-E019-11D5-929B-00C0DF256EC4}
  9
$EXTNAMES
290
     1
  9
$PSVPSCALE
 40
0.0
  9
$OLESTARTUP
290
     0
  0
ENDSEC
  0
SECTION
  2
CLASSES
  0
CLASS
  1
ACDBDICTIONARYWDFLT
  2
AcDbDictionaryWithDefault
  3
ObjectDBX Classes
 90
        0
280
     0
281
     0
  0
CLASS
  1
VISUALSTYLE
  2
AcDbVisualStyle
  3
ObjectDBX Classes
 90
     4095
280
     0
281
     0
  0
CLASS
  1
MATERIAL
  2
AcDbMaterial
  3
ObjectDBX Classes
 90
     1153
280
     0
281
     0
  0
CLASS
  1
SCALE
  2
AcDbScale
  3
ObjectDBX Classes
 90
     1153
280
     0
281
     0
  0
CLASS
  1
SUN
  2
AcDbSun
  3
SCENEOE
 90
     1153
280
     0
281
     0
  0
CLASS
  1
ACDBPLACEHOLDER
  2
AcDbPlaceHolder
  3
ObjectDBX Classes
 90
        0
280
     0
281
     0
  0
CLASS
  1
LAYOUT
  2
AcDbLayout
  3
ObjectDBX Classes
 90
        0
280
     0
281
     0
  0
CLASS
  1
TABLESTYLE
  2
AcDbTableStyle
  3
ObjectDBX Classes
 90
     4095
280
     0
281
     0
  0
CLASS
  1
MLEADERSTYLE
  2
AcDbMLeaderStyle
  3
ACDB_MLEADERSTYLE_CLASS
 90
     4095
280
     0
281
     0
  0
CLASS
  1
RASTERVARIABLES
  2
AcDbRasterVariables
  3
ISM
 90
        0
280
     0
281
     0
  0
ENDSEC
  0
SECTION
  2
TABLES
  0
TABLE
  2
VPORT
  5
8
330
0
100
AcDbSymbolTable
 70
     1
  0
VPORT
  5
29
330
8
100
AcDbSymbolTableRecord
100
AcDbViewportTableRecord
  2
*Active
 70
     0
 10
0.0
 20
0.0
 11
1.0
 21
1.0
 12
1.877658085267541
 22
-6.844618362189713
 13
0.0
 23
0.0
 14
10.0
 24
10.0
 15
10.0
 25
10.0
 16
0.0
 26
0.0
 36
1.0
 17
0.0
 27
0.0
 37
0.0
 40
104.2905632557412
 41
1.632093933463796
 42
50.0
 43
0.0
 44
0.0
 50
0.0
 51
0.0
 71
    16
 72
  2000
 73
     1
 74
     3
 75
     0
 76
     0
 77
     0
 78
     0
281
     0
 65
     1
110
0.0
120
0.0
130
0.0
111
1.0
121
0.0
131
0.0
112
0.0
122
1.0
132
0.0
 79
     0
146
0.0
  0
ENDTAB
  0
TABLE
  2
LTYPE
  5
5
330
0
100
AcDbSymbolTable
 70
     6
  0
LTYPE
  5
14
330
5
100
AcDbSymbolTableRecord
100
AcDbLinetypeTableRecord
  2
ByBlock
 70
     0
  3

 72
    65
 73
     0
 40
0.0
  0
LTYPE
  5
15
330
5
100
AcDbSymbolTableRecord
100
AcDbLinetypeTableRecord
  2
ByLayer
 70
     0
  3

 72
    65
 73
     0
 40
0.0
  0
LTYPE
  5
16
330
5
100
AcDbSymbolTableRecord
100
AcDbLinetypeTableRecord
  2
Continuous
 70
     0
  3
Solid line
 72
    65
 73
     0
 40
0.0
  0
LTYPE
  5
6A
330
5
100
AcDbSymbolTableRecord
100
AcDbLinetypeTableRecord
  2
HIDDEN
 70
     0
  3
Hidden __ __ __ __ __ __ __ __ __ __ __ __ __ __
 72
    65
 73
     2
 40
1.905
 49
1.27
 74
     0
 49
-0.635
 74
     0
  0
LTYPE
  5
6B
330
5
100
AcDbSymbolTableRecord
100
AcDbLinetypeTableRecord
  2
PHANTOM
 70
     0
  3
Phantom ______  __  __  ______  __  __  ______
 72
    65
 73
     6
 40
12.7
 49
6.35
 74
     0
 49
-1.27
 74
     0
 49
1.27
 74
     0
 49
-1.27
 74
     0
 49
1.27
 74
     0
 49
-1.27
 74
     0
  0
LTYPE
  5
6C
330
5
100
AcDbSymbolTableRecord
100
AcDbLinetypeTableRecord
  2
CENTER
 70
     0
  3
Center ____ _ ____ _ ____ _ ____ _ ____ _ ____
 72
    65
 73
     4
 40
10.16
 49
6.35
 74
     0
 49
-1.27
 74
     0
 49
1.27
 74
     0
 49
-1.27
 74
     0
  0
LTYPE
  5
6D
330
5
100
AcDbSymbolTableRecord
100
AcDbLinetypeTableRecord
  2
CENTERX2
 70
     0
  3
Center (2x) ________  __  ________  __  _____
 72
    65
 73
     4
 40
20.32
 49
12.7
 74
     0
 49
-2.54
 74
     0
 49
2.54
 74
     0
 49
-2.54
 74
     0
  0
LTYPE
  5
6E
330
5
100
AcDbSymbolTableRecord
100
AcDbLinetypeTableRecord
  2
DOT2
 70
     0
  3
Dot (.5x) ........................................
 72
    65
 73
     2
 40
0.635
 49
0.0
 74
     0
 49
-0.635
 74
     0
  0
ENDTAB
  0
TABLE
  2
LAYER
  5
2
102
{ACAD_XDICTIONARY
360
25C
102
}
330
0
100
AcDbSymbolTable
 70
    18
  0
LAYER
  5
10
330
2
100
AcDbSymbolTableRecord
100
AcDbLayerTableRecord
  2
0
 70
     0
 62
     7
  6
Continuous
370
    -3
390
F
  0
LAYER
  5
6F
330
2
100
AcDbSymbolTableRecord
100
AcDbLayerTableRecord
  2
FORMAT
 70
     0
 62
     2
  6
Continuous
370
    -3
390
F
  0
LAYER
  5
70
330
2
100
AcDbSymbolTableRecord
100
AcDbLayerTableRecord
  2
외형선
 70
     0
 62
     4
  6
Continuous
370
    30
390
F
  0
LAYER
  5
71
330
2
100
AcDbSymbolTableRecord
100
AcDbLayerTableRecord
  2
숨은선
 70
     0
 62
     2
  6
HIDDEN
370
    15
390
F
  0
LAYER
  5
72
330
2
100
AcDbSymbolTableRecord
100
AcDbLayerTableRecord
  2
중심선
 70
     0
 62
     1
  6
CENTERX2
370
    -3
390
F
  0
LAYER
  5
73
330
2
100
AcDbSymbolTableRecord
100
AcDbLayerTableRecord
  2
파단선
 70
     0
 62
     4
  6
Continuous
370
    -3
390
F
  0
LAYER
  5
74
330
2
100
AcDbSymbolTableRecord
100
AcDbLayerTableRecord
  2
해칭선
 70
     0
 62
   100
  6
Continuous
370
    -3
390
F
  0
LAYER
  5
75
330
2
100
AcDbSymbolTableRecord
100
AcDbLayerTableRecord
  2
가는실선
 70
     0
 62
     4
  6
Continuous
370
    -3
390
F
  0
LAYER
  5
76
330
2
100
AcDbSymbolTableRecord
100
AcDbLayerTableRecord
  2
치수_보조선
 70
     0
 62
     4
  6
Continuous
370
    -3
390
F
  0
LAYER
  5
77
330
2
100
AcDbSymbolTableRecord
100
AcDbLayerTableRecord
  2
치수문자_일반주서
 70
     0
 62
     7
  6
Continuous
370
    15
390
F
  0
LAYER
  5
78
330
2
100
AcDbSymbolTableRecord
100
AcDbLayerTableRecord
  2
개별주서
 70
     0
 62
   100
  6
Continuous
370
    30
390
F
  0
LAYER
  5
79
330
2
100
AcDbSymbolTableRecord
100
AcDbLayerTableRecord
  2
중간선
 70
     0
 62
     2
  6
Continuous
370
    15
390
F
  0
LAYER
  5
7A
330
2
100
AcDbSymbolTableRecord
100
AcDbLayerTableRecord
  2
윤곽선
 70
     0
 62
     3
  6
Continuous
370
    40
390
F
  0
LAYER
  5
7B
330
2
100
AcDbSymbolTableRecord
100
AcDbLayerTableRecord
  2
중심마크
 70
     0
 62
   100
  6
Continuous
370
    30
390
F
  0
LAYER
  5
7C
330
2
100
AcDbSymbolTableRecord
100
AcDbLayerTableRecord
  2
가상선
 70
     0
 62
     4
  6
PHANTOM
370
    -3
390
F
  0
LAYER
  5
7D
330
2
100
AcDbSymbolTableRecord
100
AcDbLayerTableRecord
  2
특수지정선
 70
     0
 62
     5
  6
CENTERX2
370
    60
390
F
  0
LAYER
  5
7E
330
2
100
AcDbSymbolTableRecord
100
AcDbLayerTableRecord
  2
참조1
 70
     0
 62
    -4
  6
Continuous
370
    -3
390
F
  0
LAYER
  5
162
330
2
100
AcDbSymbolTableRecord
100
AcDbLayerTableRecord
  2
Defpoints
 70
     0
 62
     7
  6
Continuous
290
     0
370
    -3
390
F
  0
ENDTAB
  0
TABLE
  2
STYLE
  5
3
330
0
100
AcDbSymbolTable
 70
     2
  0
STYLE
  5
11
330
3
100
AcDbSymbolTableRecord
100
AcDbTextStyleTableRecord
  2
Standard
 70
     0
 40
0.0
 41
1.0
 50
0.0
 71
     0
 42
3.5
  3
txt
  4

  0
STYLE
  5
94
330
3
100
AcDbSymbolTableRecord
100
AcDbTextStyleTableRecord
  2
SLDTEXTSTYLE0
 70
     0
 40
0.0
 41
0.75
 50
0.0
 71
     0
 42
3.5
  3
TXT
  4

  0
ENDTAB
  0
TABLE
  2
VIEW
  5
6
330
0
100
AcDbSymbolTable
 70
     0
  0
ENDTAB
  0
TABLE
  2
UCS
  5
7
330
0
100
AcDbSymbolTable
 70
     0
  0
ENDTAB
  0
TABLE
  2
APPID
  5
9
330
0
100
AcDbSymbolTable
 70
     1
  0
APPID
  5
12
330
9
100
AcDbSymbolTableRecord
100
AcDbRegAppTableRecord
  2
ACAD
 70
     0
  0
ENDTAB
  0
TABLE
  2
DIMSTYLE
  5
A
330
0
100
AcDbSymbolTable
 70
     3
100
AcDbDimStyleTable
  0
DIMSTYLE
105
27
330
A
100
AcDbSymbolTableRecord
100
AcDbDimStyleTableRecord
  2
ISO-25
 70
     0
 41
2.5
 42
0.625
 43
3.75
 44
1.25
 73
     0
 74
     0
 77
     1
 78
     8
140
2.5
141
2.5
143
0.03937007874016
147
0.625
171
     3
172
     1
178
     0
271
     2
272
     2
274
     3
278
    44
283
     0
284
     8
340
11
  0
DIMSTYLE
105
DE
102
{ACAD_REACTORS
330
DD
330
F2
330
106
330
11B
102
}
330
A
100
AcDbSymbolTableRecord
100
AcDbDimStyleTableRecord
  2
SLDDIMSTYLE0
 70
     0
 41
3.302
 44
0.0
 45
0.000000001
 73
     0
 74
     0
 77
     1
 78
    12
 79
     3
140
3.5
143
0.0393700787401575
147
0.875
148
0.000000001
170
     1
172
     1
173
     1
178
     0
271
     2
272
     2
276
     2
284
    12
289
     0
340
94
  0
DIMSTYLE
105
11C
330
A
100
AcDbSymbolTableRecord
100
AcDbDimStyleTableRecord
  2
SLDDIMSTYLE1
 70
     0
 41
3.302
 44
0.0
 45
0.000000001
 73
     0
 74
     0
 77
     1
 78
    12
 79
     3
140
3.5
143
0.0393700787401575
147
0.875
148
0.000000001
170
     1
173
     1
178
     0
271
     2
272
     2
276
     2
284
    12
340
94
  0
ENDTAB
  0
TABLE
  2
BLOCK_RECORD
  5
1
330
0
100
AcDbSymbolTable
 70
    21
  0
BLOCK_RECORD
  5
1F
330
1
100
AcDbSymbolTableRecord
100
AcDbBlockTableRecord
  2
*Model_Space
340
22
  0
BLOCK_RECORD
  5
1B
330
1
100
AcDbSymbolTableRecord
100
AcDbBlockTableRecord
  2
*Paper_Space
340
1E
  0
BLOCK_RECORD
  5
23
330
1
100
AcDbSymbolTableRecord
100
AcDbBlockTableRecord
  2
*Paper_Space0
340
26
  0
BLOCK_RECORD
  5
7F
330
1
100
AcDbSymbolTableRecord
100
AcDbBlockTableRecord
  2
블럭10
340
0
102
{BLKREFS
331
D6
102
}
  0
BLOCK_RECORD
  5
DF
330
1
100
AcDbSymbolTableRecord
100
AcDbBlockTableRecord
  2
_D
340
0
  0
BLOCK_RECORD
  5
F3
330
1
100
AcDbSymbolTableRecord
100
AcDbBlockTableRecord
  2
_D_1
340
0
  0
BLOCK_RECORD
  5
107
330
1
100
AcDbSymbolTableRecord
100
AcDbBlockTableRecord
  2
_D_2
340
0
  0
BLOCK_RECORD
  5
11D
330
1
100
AcDbSymbolTableRecord
100
AcDbBlockTableRecord
  2
_D_3
340
0
  0
BLOCK_RECORD
  5
136
330
1
100
AcDbSymbolTableRecord
100
AcDbBlockTableRecord
  2
SW_DOWELSYMBOL_0
340
0
102
{BLKREFS
331
13C
102
}
  0
BLOCK_RECORD
  5
260
330
1
100
AcDbSymbolTableRecord
100
AcDbBlockTableRecord
  2
*D7
340
0
  0
BLOCK_RECORD
  5
26C
330
1
100
AcDbSymbolTableRecord
100
AcDbBlockTableRecord
  2
*D8
340
0
  0
BLOCK_RECORD
  5
27B
330
1
100
AcDbSymbolTableRecord
100
AcDbBlockTableRecord
  2
*D9
340
0
  0
BLOCK_RECORD
  5
28A
330
1
100
AcDbSymbolTableRecord
100
AcDbBlockTableRecord
  2
*D10
340
0
  0
BLOCK_RECORD
  5
32C
330
1
100
AcDbSymbolTableRecord
100
AcDbBlockTableRecord
  2
*D11
340
0
  0
BLOCK_RECORD
  5
338
330
1
100
AcDbSymbolTableRecord
100
AcDbBlockTableRecord
  2
*D12
340
0
  0
BLOCK_RECORD
  5
347
330
1
100
AcDbSymbolTableRecord
100
AcDbBlockTableRecord
  2
*D13
340
0
  0
BLOCK_RECORD
  5
356
330
1
100
AcDbSymbolTableRecord
100
AcDbBlockTableRecord
  2
*D14
340
0
  0
BLOCK_RECORD
  5
427
330
1
100
AcDbSymbolTableRecord
100
AcDbBlockTableRecord
  2
*D15
340
0
  0
BLOCK_RECORD
  5
436
330
1
100
AcDbSymbolTableRecord
100
AcDbBlockTableRecord
  2
*D16
340
0
  0
BLOCK_RECORD
  5
445
330
1
100
AcDbSymbolTableRecord
100
AcDbBlockTableRecord
  2
*D17
340
0
  0
BLOCK_RECORD
  5
490
330
1
100
AcDbSymbolTableRecord
100
AcDbBlockTableRecord
  2
*D18
340
0
  0
BLOCK_RECORD
  5
49F
330
1
100
AcDbSymbolTableRecord
100
AcDbBlockTableRecord
  2
*D19
340
0
  0
BLOCK_RECORD
  5
4AE
330
1
100
AcDbSymbolTableRecord
100
AcDbBlockTableRecord
  2
*D20
340
0
  0
ENDTAB
  0
ENDSEC
  0
SECTION
  2
BLOCKS
  0
BLOCK
  5
20
330
1F
100
AcDbEntity
  8
0
100
AcDbBlockBegin
  2
*Model_Space
 70
     0
 10
0.0
 20
0.0
 30
0.0
  3
*Model_Space
  1
*Model_Space
  0
ENDBLK
  5
21
330
1F
100
AcDbEntity
  8
0
100
AcDbBlockEnd
  0
BLOCK
  5
1C
330
1B
100
AcDbEntity
 67
     1
  8
0
100
AcDbBlockBegin
  2
*Paper_Space
 70
     0
 10
0.0
 20
0.0
 30
0.0
  3
*Paper_Space
  1
*Paper_Space
  0
ENDBLK
  5
1D
330
1B
100
AcDbEntity
 67
     1
  8
0
100
AcDbBlockEnd
  0
BLOCK
  5
24
330
23
100
AcDbEntity
  8
0
100
AcDbBlockBegin
  2
*Paper_Space0
 70
     0
 10
0.0
 20
0.0
 30
0.0
  3
*Paper_Space0
  1
*Paper_Space0
  0
ENDBLK
  5
25
330
23
100
AcDbEntity
  8
0
100
AcDbBlockEnd
  0
BLOCK
  5
80
330
7F
100
AcDbEntity
  8
0
100
AcDbBlockBegin
  2
블럭10
 70
     2
 10
0.0
 20
0.0
 30
0.0
  3
블럭10
  1
블럭10
  0
ELLIPSE
  5
82
330
7F
100
AcDbEntity
  8
중심선
100
AcDbEllipse
 10
20.54032771741204
 20
12.0471743016438
 30
0.0
 11
6.600054785286829
 21
-1.261213355974178E-13
 31
0.0
210
0.0
220
0.0
230
1.0
 40
0.636358354079598
 41
0.9219305317359503
 42
6.513795318482858
  0
ELLIPSE
  5
83
330
7F
100
AcDbEntity
  8
중심선
100
AcDbEllipse
 10
20.54032771746488
 20
12.04717430159265
 30
0.0
 11
3.960054785062283
 21
1.540847449632565E-10
 31
0.0
210
0.0
220
0.0
230
1.0
 40
0.3939339440162632
 41
1.131841032648279
 42
5.62031148352944
  0
LINE
  5
84
330
7F
100
AcDbEntity
  8
중심선
100
AcDbLine
 10
2.268634060543552
 20
16.24717430164393
 30
0.0
 11
5.714909304380834
 21
16.24717430164393
 31
0.0
  0
LINE
  5
85
330
7F
100
AcDbEntity
  8
중심선
100
AcDbLine
 10
5.245725140726316
 20
7.84717430164391
 30
0.0
 11
8.692000384563599
 21
7.84717430164391
 31
0.0
  0
LINE
  5
86
330
7F
100
AcDbEntity
  8
중심선
100
AcDbLine
 10
15.74043728645272
 20
16.24717430164393
 30
0.0
 11
8.692000384563599
 21
7.84717430164391
 31
0.0
  0
LINE
  5
87
330
7F
100
AcDbEntity
  8
중심선
100
AcDbLine
 10
0.1404042013395286
 20
13.71084872107135
 30
0.0
 11
3.58671253028996
 21
13.71088815037384
 31
0.0
  0
LINE
  5
88
330
7F
100
AcDbEntity
  8
중심선
100
AcDbLine
 10
2.750260043222114
 20
10.84717430164391
 30
0.0
 11
6.196535287059397
 21
10.84717430164391
 31
0.0
  0
LINE
  5
89
330
7F
100
AcDbEntity
  8
중심선
100
AcDbLine
 10
12.29416204261559
 20
16.24717430164393
 30
0.0
 11
5.245725140726316
 21
7.84717430164391
 31
0.0
  0
LINE
  5
8A
330
7F
100
AcDbEntity
  8
중심선
100
AcDbLine
 10
10.72767329541681
 20
16.24717430164393
 30
0.0
 11
6.196535287059397
 21
10.84717430164391
 31
0.0
  0
LINE
  5
8B
330
7F
100
AcDbEntity
  8
중심선
100
AcDbLine
 10
7.28139805157953
 20
16.24717430164393
 30
0.0
 11
2.750260043222114
 21
10.84717430164391
 31
0.0
  0
LINE
  5
8C
330
7F
100
AcDbEntity
  8
중심선
100
AcDbLine
 10
5.714909304380834
 20
16.24717430164393
 30
0.0
 11
3.58671253028996
 21
13.71088815037384
 31
0.0
  0
LINE
  5
8D
330
7F
100
AcDbEntity
  8
중심선
100
AcDbLine
 10
2.268634060543552
 20
16.24717430164393
 30
0.0
 11
0.1404042013395286
 21
13.71084872107135
 31
0.0
  0
LINE
  5
8E
330
7F
100
AcDbEntity
  8
중심선
100
AcDbLine
 10
7.28139805157953
 20
16.24717430164393
 30
0.0
 11
10.72767329541681
 21
16.24717430164393
 31
0.0
  0
LINE
  5
8F
330
7F
100
AcDbEntity
  8
중심선
100
AcDbLine
 10
12.29416204261559
 20
16.24717430164393
 30
0.0
 11
15.74043728645272
 21
16.24717430164393
 31
0.0
  0
LINE
  5
90
330
7F
100
AcDbEntity
  8
중심선
100
AcDbLine
 10
19.22036997980202
 20
11.08717430171403
 30
0.0
 11
23.66174974927406
 21
11.08717430171406
 31
0.0
  0
LINE
  5
91
330
7F
100
AcDbEntity
  8
중심선
100
AcDbLine
 10
19.22039502424796
 20
13.00717430171391
 30
0.0
 11
19.22036997980202
 21
11.08717430171403
 31
0.0
  0
LINE
  5
92
330
7F
100
AcDbEntity
  8
중심선
100
AcDbLine
 10
19.22039502424796
 20
13.00717430171391
 30
0.0
 11
26.96566020931264
 21
13.00717430171391
 31
0.0
  0
LINE
  5
93
330
7F
100
AcDbEntity
  8
중심선
100
AcDbLine
 10
22.22332737316547
 20
13.45928029700563
 30
0.0
 11
24.52862924686651
 21
15.39360700705356
 31
0.0
  0
ATTDEF
  5
95
330
7F
100
AcDbEntity
  8
FORMAT
 62
     2
100
AcDbText
 10
4.408487351596664
 20
2.075366912832191
 30
0.0
 40
4.233333333333333
  1
E2005007
 41
0.75
  7
SLDTEXTSTYLE0
 11
4.408487351596664
 21
-0.0412997538344756
 31
0.0
100
AcDbAttributeDefinition
  3

  2
AUTOATTR0
 70
     0
 74
     1
  0
ENDBLK
  5
81
330
7F
100
AcDbEntity
  8
0
100
AcDbBlockEnd
  0
BLOCK
  5
E0
330
DF
100
AcDbEntity
  8
0
100
AcDbBlockBegin
  2
_D
 70
     0
 10
0.0
 20
0.0
 30
0.0
  3
_D
  1
_D
  0
LINE
  5
E2
330
DF
100
AcDbEntity
  8
치수문자_일반주서
 62
     0
370
    -2
100
AcDbLine
 10
-21.55335583936528
 20
2.381250000000002
 30
0.0
 11
-46.33750000000001
 21
2.381249999999909
 31
0.0
  0
LINE
  5
E3
330
DF
100
AcDbEntity
  8
치수문자_일반주서
 62
     0
370
    -2
100
AcDbLine
 10
-21.55335583936528
 20
-2.381250000000002
 30
0.0
 11
-46.33749999999999
 21
-2.381250000000095
 31
0.0
  0
LINE
  5
E4
330
DF
100
AcDbEntity
  8
치수문자_일반주서
 62
     0
370
    -2
100
AcDbLine
 10
-46.3375
 20
-0.9207500000000901
 30
0.0
 11
-46.3375
 21
0.9207499999999049
 31
0.0
  0
SOLID
  5
E5
330
DF
100
AcDbEntity
  8
치수문자_일반주서
 62
     0
100
AcDbTrace
 10
-45.78716666666666
 20
-0.9207500000000884
 30
0.0
 11
-46.88783333333333
 21
-0.9207500000000918
 31
0.0
 12
-46.33750000000001
 22
2.381249999999909
 32
0.0
 13
-46.33750000000001
 23
2.381249999999909
 33
0.0
  0
SOLID
  5
E6
330
DF
100
AcDbEntity
  8
치수문자_일반주서
 62
     0
100
AcDbTrace
 10
-46.88783333333333
 20
0.9207499999999033
 30
0.0
 11
-45.78716666666666
 21
0.9207499999999066
 31
0.0
 12
-46.33749999999999
 22
-2.381250000000095
 32
0.0
 13
-46.33749999999999
 23
-2.381250000000095
 33
0.0
  0
MTEXT
  5
E7
330
DF
100
AcDbEntity
  8
치수문자_일반주서
 62
     0
100
AcDbMText
 10
-50.7125
 20
-0.0000000000000089
 30
0.0
 40
3.5
 41
0.0
 71
     2
 72
     1
  1
\A1;%%c4.76 [3/16]
  7
SLDTEXTSTYLE0
 11
-2.983906501879683E-15
 21
1.0
 31
0.0
 73
     1
 44
1.0
  0
POINT
  5
E8
330
DF
100
AcDbEntity
  8
Defpoints
 62
     0
100
AcDbPoint
 10
-21.49085583936528
 20
2.381250000000003
 30
0.0
  0
POINT
  5
E9
330
DF
100
AcDbEntity
  8
Defpoints
 62
     0
100
AcDbPoint
 10
-21.49085583936528
 20
-2.381250000000001
 30
0.0
  0
POINT
  5
EA
330
DF
100
AcDbEntity
  8
Defpoints
 62
     0
100
AcDbPoint
 10
-46.33749999999999
 20
-2.381250000000094
 30
0.0
  0
ENDBLK
  5
E1
330
DF
100
AcDbEntity
  8
0
100
AcDbBlockEnd
  0
BLOCK
  5
F4
330
F3
100
AcDbEntity
  8
0
100
AcDbBlockBegin
  2
_D_1
 70
     0
 10
0.0
 20
0.0
 30
0.0
  3
_D_1
  1
_D_1
  0
LINE
  5
F6
330
F3
100
AcDbEntity
  8
치수문자_일반주서
 62
     0
370
    -2
100
AcDbLine
 10
33.40000000000003
 20
-1.389062499999996
 30
0.0
 11
52.33750000000013
 21
-1.389062499999923
 31
0.0
  0
LINE
  5
F7
330
F3
100
AcDbEntity
  8
치수문자_일반주서
 62
     0
370
    -2
100
AcDbLine
 10
33.39999999999997
 20
1.389062500000004
 30
0.0
 11
52.33750000000013
 21
1.389062500000076
 31
0.0
  0
LINE
  5
F8
330
F3
100
AcDbEntity
  8
치수문자_일반주서
 62
     0
370
    -2
100
AcDbLine
 10
52.33750000000013
 20
1.389062500000076
 30
0.0
 11
52.33750000000003
 21
36.86806250000006
 31
0.0
  0
LINE
  5
F9
330
F3
100
AcDbEntity
  8
치수문자_일반주서
 62
     0
370
    -2
100
AcDbLine
 10
52.33750000000013
 20
-1.389062499999923
 30
0.0
 11
52.33750000000013
 21
1.389062500000076
 31
0.0
  0
LINE
  5
FA
330
F3
100
AcDbEntity
  8
치수문자_일반주서
 62
     0
370
    -2
100
AcDbLine
 10
52.33750000000014
 20
-4.691062499999923
 30
0.0
 11
52.33750000000015
 21
-7.993062499999922
 31
0.0
  0
LINE
  5
FB
330
F3
100
AcDbEntity
  8
치수문자_일반주서
 62
     0
370
    -2
100
AcDbLine
 10
52.33750000000012
 20
4.691062500000076
 30
0.0
 11
52.33750000000011
 21
7.993062500000075
 31
0.0
  0
SOLID
  5
FC
330
F3
100
AcDbEntity
  8
치수문자_일반주서
 62
     0
100
AcDbTrace
 10
52.88783333333348
 20
-4.691062499999921
 30
0.0
 11
51.78716666666681
 21
-4.691062499999925
 31
0.0
 12
52.33750000000013
 22
-1.389062499999923
 32
0.0
 13
52.33750000000013
 23
-1.389062499999923
 33
0.0
  0
SOLID
  5
FD
330
F3
100
AcDbEntity
  8
치수문자_일반주서
 62
     0
100
AcDbTrace
 10
51.78716666666678
 20
4.691062500000074
 30
0.0
 11
52.88783333333345
 21
4.691062500000077
 31
0.0
 12
52.33750000000013
 22
1.389062500000076
 32
0.0
 13
52.33750000000013
 23
1.389062500000076
 33
0.0
  0
MTEXT
  5
FE
330
F3
100
AcDbEntity
  8
치수문자_일반주서
 62
     0
100
AcDbMText
 10
47.96250000000007
 20
22.43056250000006
 30
0.0
 40
3.5
 41
0.0
 71
     2
 72
     1
  1
\A1;%%c2.78 [7/64]
  7
SLDTEXTSTYLE0
 11
-2.557634144468302E-15
 21
1.0
 31
0.0
 73
     1
 44
1.0
  0
POINT
  5
FF
330
F3
100
AcDbEntity
  8
Defpoints
 62
     0
100
AcDbPoint
 10
33.33750000000003
 20
-1.389062499999996
 30
0.0
  0
POINT
  5
100
330
F3
100
AcDbEntity
  8
Defpoints
 62
     0
100
AcDbPoint
 10
33.33749999999997
 20
1.389062500000004
 30
0.0
  0
POINT
  5
101
330
F3
100
AcDbEntity
  8
Defpoints
 62
     0
100
AcDbPoint
 10
52.33750000000013
 20
1.389062500000075
 30
0.0
  0
ENDBLK
  5
F5
330
F3
100
AcDbEntity
  8
0
100
AcDbBlockEnd
  0
BLOCK
  5
108
330
107
100
AcDbEntity
  8
0
100
AcDbBlockBegin
  2
_D_2
 70
     0
 10
0.0
 20
0.0
 30
0.0
  3
_D_2
  1
_D_2
  0
LINE
  5
10A
330
107
100
AcDbEntity
  8
치수문자_일반주서
 62
     0
370
    -2
100
AcDbLine
 10
33.33749999999997
 20
1.451562500000004
 30
0.0
 11
33.33749999999997
 21
15.37862659212398
 31
0.0
  0
LINE
  5
10B
330
107
100
AcDbEntity
  8
치수문자_일반주서
 62
     0
370
    -2
100
AcDbLine
 10
26.19375000000002
 20
1.439614062047603
 30
0.0
 11
26.19375000000002
 21
15.37862659212398
 31
0.0
  0
LINE
  5
10C
330
107
100
AcDbEntity
  8
치수문자_일반주서
 62
     0
370
    -2
100
AcDbLine
 10
26.19375000000002
 20
15.37862659212398
 30
0.0
 11
-17.6099327230842
 21
15.37862659212398
 31
0.0
  0
LINE
  5
10D
330
107
100
AcDbEntity
  8
치수문자_일반주서
 62
     0
370
    -2
100
AcDbLine
 10
33.33749999999997
 20
15.37862659212398
 30
0.0
 11
26.19375000000002
 21
15.37862659212398
 31
0.0
  0
LINE
  5
10E
330
107
100
AcDbEntity
  8
치수문자_일반주서
 62
     0
370
    -2
100
AcDbLine
 10
36.63949999999997
 20
15.37862659212398
 30
0.0
 11
39.94149999999997
 21
15.37862659212398
 31
0.0
  0
LINE
  5
10F
330
107
100
AcDbEntity
  8
치수문자_일반주서
 62
     0
370
    -2
100
AcDbLine
 10
22.89175000000002
 20
15.37862659212398
 30
0.0
 11
19.58975000000002
 21
15.37862659212398
 31
0.0
  0
SOLID
  5
110
330
107
100
AcDbEntity
  8
치수문자_일반주서
 62
     0
100
AcDbTrace
 10
36.63949999999997
 20
15.92895992545731
 30
0.0
 11
36.63949999999997
 21
14.82829325879065
 31
0.0
 12
33.33749999999997
 22
15.37862659212398
 32
0.0
 13
33.33749999999997
 23
15.37862659212398
 33
0.0
  0
SOLID
  5
111
330
107
100
AcDbEntity
  8
치수문자_일반주서
 62
     0
100
AcDbTrace
 10
22.89175000000002
 20
14.82829325879065
 30
0.0
 11
22.89175000000002
 21
15.92895992545731
 31
0.0
 12
26.19375000000002
 22
15.37862659212398
 32
0.0
 13
26.19375000000002
 23
15.37862659212398
 33
0.0
  0
MTEXT
  5
112
330
107
100
AcDbEntity
  8
치수문자_일반주서
 62
     0
100
AcDbMText
 10
-4.922432723084199
 20
19.75362659212398
 30
0.0
 40
3.5
 41
0.0
 71
     2
 72
     1
  1
\A1;7.14 [9/32]
  7
SLDTEXTSTYLE0
 73
     1
 44
1.0
  0
POINT
  5
113
330
107
100
AcDbEntity
  8
Defpoints
 62
     0
100
AcDbPoint
 10
33.33749999999997
 20
1.389062500000004
 30
0.0
  0
POINT
  5
114
330
107
100
AcDbEntity
  8
Defpoints
 62
     0
100
AcDbPoint
 10
26.19375000000002
 20
1.377114062047603
 30
0.0
  0
POINT
  5
115
330
107
100
AcDbEntity
  8
Defpoints
 62
     0
100
AcDbPoint
 10
26.19375000000002
 20
15.37862659212398
 30
0.0
  0
ENDBLK
  5
109
330
107
100
AcDbEntity
  8
0
100
AcDbBlockEnd
  0
BLOCK
  5
11E
330
11D
100
AcDbEntity
  8
0
100
AcDbBlockBegin
  2
_D_3
 70
     0
 10
0.0
 20
0.0
 30
0.0
  3
_D_3
  1
_D_3
  0
LINE
  5
120
330
11D
100
AcDbEntity
  8
치수문자_일반주서
 62
     0
370
    -2
100
AcDbLine
 10
-33.33750000000001
 20
1.451562499999996
 30
0.0
 11
-33.33750000000001
 21
29.0909988401575
 31
0.0
  0
LINE
  5
121
330
11D
100
AcDbEntity
  8
치수문자_일반주서
 62
     0
370
    -2
100
AcDbLine
 10
33.33749999999997
 20
1.451562500000004
 30
0.0
 11
33.33749999999997
 21
29.0909988401575
 31
0.0
  0
LINE
  5
122
330
11D
100
AcDbEntity
  8
치수문자_일반주서
 62
     0
370
    -2
100
AcDbLine
 10
-30.03550000000001
 20
29.0909988401575
 30
0.0
 11
30.03549999999997
 21
29.0909988401575
 31
0.0
  0
SOLID
  5
123
330
11D
100
AcDbEntity
  8
치수문자_일반주서
 62
     0
100
AcDbTrace
 10
-30.03550000000001
 20
29.64133217349083
 30
0.0
 11
-30.03550000000001
 21
28.54066550682417
 31
0.0
 12
-33.33750000000001
 22
29.0909988401575
 32
0.0
 13
-33.33750000000001
 23
29.0909988401575
 33
0.0
  0
SOLID
  5
124
330
11D
100
AcDbEntity
  8
치수문자_일반주서
 62
     0
100
AcDbTrace
 10
30.03549999999997
 20
28.54066550682417
 30
0.0
 11
30.03549999999997
 21
29.64133217349083
 31
0.0
 12
33.33749999999997
 22
29.0909988401575
 32
0.0
 13
33.33749999999997
 23
29.0909988401575
 33
0.0
  0
MTEXT
  5
125
330
11D
100
AcDbEntity
  8
치수문자_일반주서
 62
     0
100
AcDbMText
 10
1.455414834140697
 20
33.4659988401575
 30
0.0
 40
3.5
 41
0.0
 71
     2
 72
     1
  1
\A1;66.68 [2 5/8]
  7
SLDTEXTSTYLE0
 73
     1
 44
1.0
  0
POINT
  5
126
330
11D
100
AcDbEntity
  8
Defpoints
 62
     0
100
AcDbPoint
 10
-33.33750000000001
 20
1.389062499999996
 30
0.0
  0
POINT
  5
127
330
11D
100
AcDbEntity
  8
Defpoints
 62
     0
100
AcDbPoint
 10
33.33749999999997
 20
1.389062500000004
 30
0.0
  0
POINT
  5
128
330
11D
100
AcDbEntity
  8
Defpoints
 62
     0
100
AcDbPoint
 10
33.33749999999997
 20
29.0909988401575
 30
0.0
  0
ENDBLK
  5
11F
330
11D
100
AcDbEntity
  8
0
100
AcDbBlockEnd
  0
BLOCK
  5
137
330
136
100
AcDbEntity
  8
0
100
AcDbBlockBegin
  2
SW_DOWELSYMBOL_0
 70
     0
 10
0.0
 20
0.0
 30
0.0
  3
SW_DOWELSYMBOL_0
  1
SW_DOWELSYMBOL_0
  0
CIRCLE
  5
139
330
136
100
AcDbEntity
  8
해칭선
 62
     0
100
AcDbCircle
 10
0.0
 20
0.0
 30
0.0
 40
3.000000000000001
  0
HATCH
  5
13A
330
136
100
AcDbEntity
  8
0
  6
Continuous
 62
     0
370
     0
100
AcDbHatch
 10
0.0
 20
0.0
 30
0.0
210
0.0
220
0.0
230
1.0
  2
SOLID
 70
     1
 71
     0
 91
        1
 92
        0
 93
        3
 72
     2
 10
0.0
 20
0.0
 40
3.000000000000001
 50
0.0
 51
90.0
 73
     1
 72
     1
 10
0.0
 20
3.000000000000001
 11
0.0
 21
0.0
 72
     1
 10
0.0
 20
0.0
 11
3.000000000000001
 21
0.0
 97
        0
 75
     0
 76
     1
 98
        1
 10
0.0
 20
0.0
  0
HATCH
  5
13B
330
136
100
AcDbEntity
  8
0
  6
Continuous
 62
     0
370
     0
100
AcDbHatch
 10
0.0
 20
0.0
 30
0.0
210
0.0
220
0.0
230
1.0
  2
SOLID
 70
     1
 71
     0
 91
        1
 92
        0
 93
        3
 72
     2
 10
0.0
 20
0.0
 40
3.000000000000001
 50
180.0
 51
270.0000000000007
 73
     1
 72
     1
 10
0.0
 20
-3.000000000000001
 11
0.0
 21
0.0
 72
     1
 10
0.0
 20
0.0
 11
-3.000000000000001
 21
0.0
 97
        0
 75
     0
 76
     1
 98
        1
 10
0.0
 20
0.0
  0
ENDBLK
  5
138
330
136
100
AcDbEntity
  8
0
100
AcDbBlockEnd
  0
BLOCK
  5
261
330
260
100
AcDbEntity
  8
0
100
AcDbBlockBegin
  2
*D7
 70
     1
 10
0.0
 20
0.0
 30
0.0
  3
*D7
  1
*D8
  0
LINE
  5
263
330
260
100
AcDbEntity
  8
치수문자_일반주서
 62
     0
370
    -2
100
AcDbLine
 10
40.32481532850782
 20
15.50624999999999
 30
0.0
 11
4.375000000000028
 21
15.50624999999986
 31
0.0
  0
LINE
  5
264
330
260
100
AcDbEntity
  8
치수문자_일반주서
 62
     0
370
    -2
100
AcDbLine
 10
40.32481532850782
 20
10.74375
 30
0.0
 11
4.375000000000044
 21
10.74374999999986
 31
0.0
  0
LINE
  5
265
330
260
100
AcDbEntity
  8
치수문자_일반주서
 62
     0
370
    -2
100
AcDbLine
 10
4.375000000000039
 20
12.20424999999986
 30
0.0
 11
4.375000000000033
 21
14.04574999999986
 31
0.0
  0
SOLID
  5
266
330
260
100
AcDbEntity
  8
치수문자_일반주서
 62
     0
100
AcDbTrace
 10
4.925333333333373
 20
12.20424999999986
 30
0.0
 11
3.824666666666706
 21
12.20424999999985
 31
0.0
 12
4.375000000000028
 22
15.50624999999986
 32
0.0
 13
4.375000000000028
 23
15.50624999999986
 33
0.0
  0
SOLID
  5
267
330
260
100
AcDbEntity
  8
치수문자_일반주서
 62
     0
100
AcDbTrace
 10
3.8246666666667
 20
14.04574999999986
 30
0.0
 11
4.925333333333366
 21
14.04574999999986
 31
0.0
 12
4.375000000000044
 22
10.74374999999986
 32
0.0
 13
4.375000000000044
 23
10.74374999999986
 33
0.0
  0
MTEXT
  5
268
330
260
100
AcDbEntity
  8
치수문자_일반주서
 62
     0
100
AcDbMText
 10
0.0000000000000355
 20
13.12499999999999
 30
0.0
 40
3.5
 41
0.0
 71
     2
 72
     1
  1
\A1;%%c4.76 [3/16]
  7
SLDTEXTSTYLE0
 11
-3.543388970982130E-15
 21
1.0
 31
0.0
 73
     1
 44
1.0
  0
POINT
  5
269
330
260
100
AcDbEntity
  8
Defpoints
 62
     0
100
AcDbPoint
 10
40.38731532850782
 20
15.50624999999999
 30
0.0
  0
POINT
  5
26A
330
260
100
AcDbEntity
  8
Defpoints
 62
     0
100
AcDbPoint
 10
40.38731532850782
 20
10.74375
 30
0.0
  0
POINT
  5
26B
330
260
100
AcDbEntity
  8
Defpoints
 62
     0
100
AcDbPoint
 10
4.375000000000043
 20
10.74374999999986
 30
0.0
  0
ENDBLK
  5
262
330
260
100
AcDbEntity
  8
0
100
AcDbBlockEnd
  0
BLOCK
  5
26D
330
26C
100
AcDbEntity
  8
0
100
AcDbBlockBegin
  2
*D8
 70
     1
 10
0.0
 20
0.0
 30
0.0
  3
*D8
  1
*D9
  0
LINE
  5
26F
330
26C
100
AcDbEntity
  8
치수문자_일반주서
 62
     0
370
    -2
100
AcDbLine
 10
96.81250000000009
 20
11.5375
 30
0.0
 11
115.7500000000003
 21
11.53750000000007
 31
0.0
  0
LINE
  5
270
330
26C
100
AcDbEntity
  8
치수문자_일반주서
 62
     0
370
    -2
100
AcDbLine
 10
96.81250000000009
 20
14.7125
 30
0.0
 11
115.7500000000003
 21
14.71250000000008
 31
0.0
  0
LINE
  5
271
330
26C
100
AcDbEntity
  8
치수문자_일반주서
 62
     0
370
    -2
100
AcDbLine
 10
115.7500000000003
 20
14.71250000000008
 30
0.0
 11
115.7500000000001
 21
46.10537018544231
 31
0.0
  0
LINE
  5
272
330
26C
100
AcDbEntity
  8
치수문자_일반주서
 62
     0
370
    -2
100
AcDbLine
 10
115.7500000000003
 20
11.53750000000007
 30
0.0
 11
115.7500000000003
 21
14.71250000000008
 31
0.0
  0
LINE
  5
273
330
26C
100
AcDbEntity
  8
치수문자_일반주서
 62
     0
370
    -2
100
AcDbLine
 10
115.7500000000003
 20
8.235500000000073
 30
0.0
 11
115.7500000000003
 21
4.933500000000073
 31
0.0
  0
LINE
  5
274
330
26C
100
AcDbEntity
  8
치수문자_일반주서
 62
     0
370
    -2
100
AcDbLine
 10
115.7500000000002
 20
18.01450000000008
 30
0.0
 11
115.7500000000002
 21
21.31650000000008
 31
0.0
  0
SOLID
  5
275
330
26C
100
AcDbEntity
  8
치수문자_일반주서
 62
     0
100
AcDbTrace
 10
116.3003333333336
 20
8.235500000000075
 30
0.0
 11
115.199666666667
 21
8.235500000000071
 31
0.0
 12
115.7500000000003
 22
11.53750000000007
 32
0.0
 13
115.7500000000003
 23
11.53750000000007
 33
0.0
  0
SOLID
  5
276
330
26C
100
AcDbEntity
  8
치수문자_일반주서
 62
     0
100
AcDbTrace
 10
115.1996666666669
 20
18.01450000000007
 30
0.0
 11
116.3003333333336
 21
18.01450000000008
 31
0.0
 12
115.7500000000003
 22
14.71250000000008
 32
0.0
 13
115.7500000000003
 23
14.71250000000008
 33
0.0
  0
MTEXT
  5
277
330
26C
100
AcDbEntity
  8
치수문자_일반주서
 62
     0
100
AcDbMText
 10
111.3750000000002
 20
33.85537018544229
 30
0.0
 40
3.5
 41
0.0
 71
     2
 72
     1
  1
\A1;%%c3.18 [1/8]
  7
SLDTEXTSTYLE0
 11
-4.475859752819526E-15
 21
1.0
 31
0.0
 73
     1
 44
1.0
  0
POINT
  5
278
330
26C
100
AcDbEntity
  8
Defpoints
 62
     0
100
AcDbPoint
 10
96.75000000000009
 20
11.5375
 30
0.0
  0
POINT
  5
279
330
26C
100
AcDbEntity
  8
Defpoints
 62
     0
100
AcDbPoint
 10
96.75000000000009
 20
14.7125
 30
0.0
  0
POINT
  5
27A
330
26C
100
AcDbEntity
  8
Defpoints
 62
     0
100
AcDbPoint
 10
115.7500000000003
 20
14.71250000000007
 30
0.0
  0
ENDBLK
  5
26E
330
26C
100
AcDbEntity
  8
0
100
AcDbBlockEnd
  0
BLOCK
  5
27C
330
27B
100
AcDbEntity
  8
0
100
AcDbBlockBegin
  2
*D9
 70
     1
 10
0.0
 20
0.0
 30
0.0
  3
*D9
  1
*D10
  0
LINE
  5
27E
330
27B
100
AcDbEntity
  8
치수문자_일반주서
 62
     0
370
    -2
100
AcDbLine
 10
96.75000000000009
 20
14.775
 30
0.0
 11
96.75000000000009
 21
26.25750263812486
 31
0.0
  0
LINE
  5
27F
330
27B
100
AcDbEntity
  8
치수문자_일반주서
 62
     0
370
    -2
100
AcDbLine
 10
77.70000000000007
 20
14.234813479171
 30
0.0
 11
77.70000000000007
 21
26.25750263812486
 31
0.0
  0
LINE
  5
280
330
27B
100
AcDbEntity
  8
치수문자_일반주서
 62
     0
370
    -2
100
AcDbLine
 10
77.70000000000007
 20
26.25750263812486
 30
0.0
 11
46.15850000000007
 21
26.25750263812486
 31
0.0
  0
LINE
  5
281
330
27B
100
AcDbEntity
  8
치수문자_일반주서
 62
     0
370
    -2
100
AcDbLine
 10
96.75000000000009
 20
26.25750263812486
 30
0.0
 11
77.70000000000007
 21
26.25750263812486
 31
0.0
  0
LINE
  5
282
330
27B
100
AcDbEntity
  8
치수문자_일반주서
 62
     0
370
    -2
100
AcDbLine
 10
100.0520000000001
 20
26.25750263812486
 30
0.0
 11
103.3540000000001
 21
26.25750263812486
 31
0.0
  0
LINE
  5
283
330
27B
100
AcDbEntity
  8
치수문자_일반주서
 62
     0
370
    -2
100
AcDbLine
 10
74.39800000000008
 20
26.25750263812486
 30
0.0
 11
71.09600000000009
 21
26.25750263812486
 31
0.0
  0
SOLID
  5
284
330
27B
100
AcDbEntity
  8
치수문자_일반주서
 62
     0
100
AcDbTrace
 10
100.0520000000001
 20
26.80783597145819
 30
0.0
 11
100.0520000000001
 21
25.70716930479152
 31
0.0
 12
96.75000000000009
 22
26.25750263812486
 32
0.0
 13
96.75000000000009
 23
26.25750263812486
 33
0.0
  0
SOLID
  5
285
330
27B
100
AcDbEntity
  8
치수문자_일반주서
 62
     0
100
AcDbTrace
 10
74.39800000000008
 20
25.70716930479152
 30
0.0
 11
74.39800000000008
 21
26.80783597145819
 31
0.0
 12
77.70000000000007
 22
26.25750263812486
 32
0.0
 13
77.70000000000007
 23
26.25750263812486
 33
0.0
  0
MTEXT
  5
286
330
27B
100
AcDbEntity
  8
치수문자_일반주서
 62
     0
100
AcDbMText
 10
58.62725000000007
 20
30.63250263812486
 30
0.0
 40
3.5
 41
0.0
 71
     2
 72
     1
  1
\A1;19.05 [3/4]
  7
SLDTEXTSTYLE0
 73
     1
 44
1.0
  0
POINT
  5
287
330
27B
100
AcDbEntity
  8
Defpoints
 62
     0
100
AcDbPoint
 10
96.75000000000009
 20
14.7125
 30
0.0
  0
POINT
  5
288
330
27B
100
AcDbEntity
  8
Defpoints
 62
     0
100
AcDbPoint
 10
77.70000000000007
 20
14.172313479171
 30
0.0
  0
POINT
  5
289
330
27B
100
AcDbEntity
  8
Defpoints
 62
     0
100
AcDbPoint
 10
77.70000000000007
 20
26.25750263812486
 30
0.0
  0
ENDBLK
  5
27D
330
27B
100
AcDbEntity
  8
0
100
AcDbBlockEnd
  0
BLOCK
  5
28B
330
28A
100
AcDbEntity
  8
0
100
AcDbBlockBegin
  2
*D10
 70
     1
 10
0.0
 20
0.0
 30
0.0
  3
*D10
  1
*D11
  0
LINE
  5
28D
330
28A
100
AcDbEntity
  8
치수문자_일반주서
 62
     0
370
    -2
100
AcDbLine
 10
17.37500000000001
 20
14.775
 30
0.0
 11
17.375
 21
36.3484673928743
 31
0.0
  0
LINE
  5
28E
330
28A
100
AcDbEntity
  8
치수문자_일반주서
 62
     0
370
    -2
100
AcDbLine
 10
96.75000000000009
 20
14.775
 30
0.0
 11
96.75000000000009
 21
36.3484673928743
 31
0.0
  0
LINE
  5
28F
330
28A
100
AcDbEntity
  8
치수문자_일반주서
 62
     0
370
    -2
100
AcDbLine
 10
20.677
 20
36.3484673928743
 30
0.0
 11
93.44800000000009
 21
36.3484673928743
 31
0.0
  0
SOLID
  5
290
330
28A
100
AcDbEntity
  8
치수문자_일반주서
 62
     0
100
AcDbTrace
 10
20.677
 20
36.89880072620763
 30
0.0
 11
20.677
 21
35.79813405954096
 31
0.0
 12
17.375
 22
36.3484673928743
 32
0.0
 13
17.375
 23
36.3484673928743
 33
0.0
  0
SOLID
  5
291
330
28A
100
AcDbEntity
  8
치수문자_일반주서
 62
     0
100
AcDbTrace
 10
93.44800000000009
 20
35.79813405954096
 30
0.0
 11
93.44800000000009
 21
36.89880072620763
 31
0.0
 12
96.75000000000009
 22
36.3484673928743
 32
0.0
 13
96.75000000000009
 23
36.3484673928743
 33
0.0
  0
MTEXT
  5
292
330
28A
100
AcDbEntity
  8
치수문자_일반주서
 62
     0
100
AcDbMText
 10
57.98525512743494
 20
40.7234673928743
 30
0.0
 40
3.5
 41
0.0
 71
     2
 72
     1
  1
\A1;79.38 [3 1/8]
  7
SLDTEXTSTYLE0
 73
     1
 44
1.0
  0
POINT
  5
293
330
28A
100
AcDbEntity
  8
Defpoints
 62
     0
100
AcDbPoint
 10
17.37500000000001
 20
14.7125
 30
0.0
  0
POINT
  5
294
330
28A
100
AcDbEntity
  8
Defpoints
 62
     0
100
AcDbPoint
 10
96.75000000000009
 20
14.7125
 30
0.0
  0
POINT
  5
295
330
28A
100
AcDbEntity
  8
Defpoints
 62
     0
100
AcDbPoint
 10
96.75000000000009
 20
36.3484673928743
 30
0.0
  0
ENDBLK
  5
28C
330
28A
100
AcDbEntity
  8
0
100
AcDbBlockEnd
  0
BLOCK
  5
32D
330
32C
100
AcDbEntity
  8
0
100
AcDbBlockBegin
  2
*D11
 70
     1
 10
0.0
 20
0.0
 30
0.0
  3
*D11
  1
*D12
  0
LINE
  5
32F
330
32C
100
AcDbEntity
  8
치수문자_일반주서
 62
     0
370
    -2
100
AcDbLine
 10
74.31420369295839
 20
-32.76830309209757
 30
0.0
 11
38.36438836445059
 21
-32.7683030920977
 31
0.0
  0
LINE
  5
330
330
32C
100
AcDbEntity
  8
치수문자_일반주서
 62
     0
370
    -2
100
AcDbLine
 10
74.31420369295839
 20
-37.53080309209756
 30
0.0
 11
38.3643883644506
 21
-37.53080309209769
 31
0.0
  0
LINE
  5
331
330
32C
100
AcDbEntity
  8
치수문자_일반주서
 62
     0
370
    -2
100
AcDbLine
 10
38.3643883644506
 20
-36.0703030920977
 30
0.0
 11
38.3643883644506
 21
-34.22880309209769
 31
0.0
  0
SOLID
  5
332
330
32C
100
AcDbEntity
  8
치수문자_일반주서
 62
     0
100
AcDbTrace
 10
38.91472169778393
 20
-36.0703030920977
 30
0.0
 11
37.81405503111726
 21
-36.0703030920977
 31
0.0
 12
38.36438836445059
 22
-32.7683030920977
 32
0.0
 13
38.36438836445059
 23
-32.7683030920977
 33
0.0
  0
SOLID
  5
333
330
32C
100
AcDbEntity
  8
치수문자_일반주서
 62
     0
100
AcDbTrace
 10
37.81405503111726
 20
-34.22880309209769
 30
0.0
 11
38.91472169778393
 21
-34.22880309209769
 31
0.0
 12
38.3643883644506
 22
-37.53080309209769
 32
0.0
 13
38.3643883644506
 23
-37.53080309209769
 33
0.0
  0
MTEXT
  5
334
330
32C
100
AcDbEntity
  8
치수문자_일반주서
 62
     0
100
AcDbMText
 10
33.9893883644506
 20
-35.14955309209757
 30
0.0
 40
3.5
 41
0.0
 71
     2
 72
     1
  1
\A1;%%c4.76 [3/16]
  7
SLDTEXTSTYLE0
 11
-2.983906501879693E-15
 21
1.0
 31
0.0
 73
     1
 44
1.0
  0
POINT
  5
335
330
32C
100
AcDbEntity
  8
Defpoints
 62
     0
100
AcDbPoint
 10
74.37670369295839
 20
-32.76830309209757
 30
0.0
  0
POINT
  5
336
330
32C
100
AcDbEntity
  8
Defpoints
 62
     0
100
AcDbPoint
 10
74.37670369295839
 20
-37.53080309209756
 30
0.0
  0
POINT
  5
337
330
32C
100
AcDbEntity
  8
Defpoints
 62
     0
100
AcDbPoint
 10
38.3643883644506
 20
-37.53080309209769
 30
0.0
  0
ENDBLK
  5
32E
330
32C
100
AcDbEntity
  8
0
100
AcDbBlockEnd
  0
BLOCK
  5
339
330
338
100
AcDbEntity
  8
0
100
AcDbBlockBegin
  2
*D12
 70
     1
 10
0.0
 20
0.0
 30
0.0
  3
*D12
  1
*D13
  0
LINE
  5
33B
330
338
100
AcDbEntity
  8
치수문자_일반주서
 62
     0
370
    -2
100
AcDbLine
 10
130.8018883644506
 20
-36.73705309209755
 30
0.0
 11
149.7393883644507
 21
-36.73705309209748
 31
0.0
  0
LINE
  5
33C
330
338
100
AcDbEntity
  8
치수문자_일반주서
 62
     0
370
    -2
100
AcDbLine
 10
130.8018883644506
 20
-33.56205309209755
 30
0.0
 11
149.7393883644507
 21
-33.56205309209748
 31
0.0
  0
LINE
  5
33D
330
338
100
AcDbEntity
  8
치수문자_일반주서
 62
     0
370
    -2
100
AcDbLine
 10
149.7393883644507
 20
-33.56205309209748
 30
0.0
 11
149.7393883644507
 21
-2.169182906655244
 31
0.0
  0
LINE
  5
33E
330
338
100
AcDbEntity
  8
치수문자_일반주서
 62
     0
370
    -2
100
AcDbLine
 10
149.7393883644507
 20
-36.73705309209748
 30
0.0
 11
149.7393883644507
 21
-33.56205309209748
 31
0.0
  0
LINE
  5
33F
330
338
100
AcDbEntity
  8
치수문자_일반주서
 62
     0
370
    -2
100
AcDbLine
 10
149.7393883644507
 20
-40.03905309209748
 30
0.0
 11
149.7393883644507
 21
-43.34105309209748
 31
0.0
  0
LINE
  5
340
330
338
100
AcDbEntity
  8
치수문자_일반주서
 62
     0
370
    -2
100
AcDbLine
 10
149.7393883644507
 20
-30.26005309209748
 30
0.0
 11
149.7393883644507
 21
-26.95805309209748
 31
0.0
  0
SOLID
  5
341
330
338
100
AcDbEntity
  8
치수문자_일반주서
 62
     0
100
AcDbTrace
 10
150.2897216977841
 20
-40.03905309209748
 30
0.0
 11
149.1890550311174
 21
-40.03905309209748
 31
0.0
 12
149.7393883644507
 22
-36.73705309209748
 32
0.0
 13
149.7393883644507
 23
-36.73705309209748
 33
0.0
  0
SOLID
  5
342
330
338
100
AcDbEntity
  8
치수문자_일반주서
 62
     0
100
AcDbTrace
 10
149.1890550311174
 20
-30.26005309209748
 30
0.0
 11
150.2897216977841
 21
-30.26005309209748
 31
0.0
 12
149.7393883644507
 22
-33.56205309209748
 32
0.0
 13
149.7393883644507
 23
-33.56205309209748
 33
0.0
  0
MTEXT
  5
343
330
338
100
AcDbEntity
  8
치수문자_일반주서
 62
     0
100
AcDbMText
 10
145.3643883644507
 20
-14.41918290665524
 30
0.0
 40
3.5
 41
0.0
 71
     2
 72
     1
  1
\A1;%%c3.18 [1/8]
  7
SLDTEXTSTYLE0
 11
0.0
 21
1.0
 31
0.0
 73
     1
 44
1.0
  0
POINT
  5
344
330
338
100
AcDbEntity
  8
Defpoints
 62
     0
100
AcDbPoint
 10
130.7393883644506
 20
-36.73705309209755
 30
0.0
  0
POINT
  5
345
330
338
100
AcDbEntity
  8
Defpoints
 62
     0
100
AcDbPoint
 10
130.7393883644506
 20
-33.56205309209755
 30
0.0
  0
POINT
  5
346
330
338
100
AcDbEntity
  8
Defpoints
 62
     0
100
AcDbPoint
 10
149.7393883644508
 20
-33.56205309209748
 30
0.0
  0
ENDBLK
  5
33A
330
338
100
AcDbEntity
  8
0
100
AcDbBlockEnd
  0
BLOCK
  5
348
330
347
100
AcDbEntity
  8
0
100
AcDbBlockBegin
  2
*D13
 70
     1
 10
0.0
 20
0.0
 30
0.0
  3
*D13
  1
*D14
  0
LINE
  5
34A
330
347
100
AcDbEntity
  8
치수문자_일반주서
 62
     0
370
    -2
100
AcDbLine
 10
130.7393883644506
 20
-33.49955309209755
 30
0.0
 11
130.7393883644506
 21
-22.0170504539727
 31
0.0
  0
LINE
  5
34B
330
347
100
AcDbEntity
  8
치수문자_일반주서
 62
     0
370
    -2
100
AcDbLine
 10
111.6893883644506
 20
-34.03973961292655
 30
0.0
 11
111.6893883644506
 21
-22.0170504539727
 31
0.0
  0
LINE
  5
34C
330
347
100
AcDbEntity
  8
치수문자_일반주서
 62
     0
370
    -2
100
AcDbLine
 10
111.6893883644506
 20
-22.0170504539727
 30
0.0
 11
80.14788836445064
 21
-22.0170504539727
 31
0.0
  0
LINE
  5
34D
330
347
100
AcDbEntity
  8
치수문자_일반주서
 62
     0
370
    -2
100
AcDbLine
 10
130.7393883644506
 20
-22.0170504539727
 30
0.0
 11
111.6893883644506
 21
-22.0170504539727
 31
0.0
  0
LINE
  5
34E
330
347
100
AcDbEntity
  8
치수문자_일반주서
 62
     0
370
    -2
100
AcDbLine
 10
134.0413883644506
 20
-22.0170504539727
 30
0.0
 11
137.3433883644506
 21
-22.0170504539727
 31
0.0
  0
LINE
  5
34F
330
347
100
AcDbEntity
  8
치수문자_일반주서
 62
     0
370
    -2
100
AcDbLine
 10
108.3873883644506
 20
-22.0170504539727
 30
0.0
 11
105.0853883644506
 21
-22.0170504539727
 31
0.0
  0
SOLID
  5
350
330
347
100
AcDbEntity
  8
치수문자_일반주서
 62
     0
100
AcDbTrace
 10
134.0413883644506
 20
-21.46671712063936
 30
0.0
 11
134.0413883644506
 21
-22.56738378730603
 31
0.0
 12
130.7393883644506
 22
-22.0170504539727
 32
0.0
 13
130.7393883644506
 23
-22.0170504539727
 33
0.0
  0
SOLID
  5
351
330
347
100
AcDbEntity
  8
치수문자_일반주서
 62
     0
100
AcDbTrace
 10
108.3873883644506
 20
-22.56738378730603
 30
0.0
 11
108.3873883644506
 21
-21.46671712063936
 31
0.0
 12
111.6893883644506
 22
-22.0170504539727
 32
0.0
 13
111.6893883644506
 23
-22.0170504539727
 33
0.0
  0
MTEXT
  5
352
330
347
100
AcDbEntity
  8
치수문자_일반주서
 62
     0
100
AcDbMText
 10
92.61663836445064
 20
-17.6420504539727
 30
0.0
 40
3.5
 41
0.0
 71
     2
 72
     1
  1
\A1;19.05 [3/4]
  7
SLDTEXTSTYLE0
 73
     1
 44
1.0
  0
POINT
  5
353
330
347
100
AcDbEntity
  8
Defpoints
 62
     0
100
AcDbPoint
 10
130.7393883644506
 20
-33.56205309209755
 30
0.0
  0
POINT
  5
354
330
347
100
AcDbEntity
  8
Defpoints
 62
     0
100
AcDbPoint
 10
111.6893883644506
 20
-34.10223961292655
 30
0.0
  0
POINT
  5
355
330
347
100
AcDbEntity
  8
Defpoints
 62
     0
100
AcDbPoint
 10
111.6893883644506
 20
-22.0170504539727
 30
0.0
  0
ENDBLK
  5
349
330
347
100
AcDbEntity
  8
0
100
AcDbBlockEnd
  0
BLOCK
  5
357
330
356
100
AcDbEntity
  8
0
100
AcDbBlockBegin
  2
*D14
 70
     1
 10
0.0
 20
0.0
 30
0.0
  3
*D14
  1
*D15
  0
LINE
  5
359
330
356
100
AcDbEntity
  8
치수문자_일반주서
 62
     0
370
    -2
100
AcDbLine
 10
51.36438836445057
 20
-33.49955309209756
 30
0.0
 11
51.36438836445058
 21
-11.92608569922326
 31
0.0
  0
LINE
  5
35A
330
356
100
AcDbEntity
  8
치수문자_일반주서
 62
     0
370
    -2
100
AcDbLine
 10
130.7393883644506
 20
-33.49955309209755
 30
0.0
 11
130.7393883644506
 21
-11.92608569922326
 31
0.0
  0
LINE
  5
35B
330
356
100
AcDbEntity
  8
치수문자_일반주서
 62
     0
370
    -2
100
AcDbLine
 10
54.66638836445058
 20
-11.92608569922326
 30
0.0
 11
127.4373883644506
 21
-11.92608569922326
 31
0.0
  0
SOLID
  5
35C
330
356
100
AcDbEntity
  8
치수문자_일반주서
 62
     0
100
AcDbTrace
 10
54.66638836445058
 20
-11.37575236588992
 30
0.0
 11
54.66638836445058
 21
-12.47641903255659
 31
0.0
 12
51.36438836445058
 22
-11.92608569922326
 32
0.0
 13
51.36438836445058
 23
-11.92608569922326
 33
0.0
  0
SOLID
  5
35D
330
356
100
AcDbEntity
  8
치수문자_일반주서
 62
     0
100
AcDbTrace
 10
127.4373883644506
 20
-12.47641903255659
 30
0.0
 11
127.4373883644506
 21
-11.37575236588992
 31
0.0
 12
130.7393883644506
 22
-11.92608569922326
 32
0.0
 13
130.7393883644506
 23
-11.92608569922326
 33
0.0
  0
MTEXT
  5
35E
330
356
100
AcDbEntity
  8
치수문자_일반주서
 62
     0
100
AcDbMText
 10
91.9746434918855
 20
-7.551085699223258
 30
0.0
 40
3.5
 41
0.0
 71
     2
 72
     1
  1
\A1;79.38 [3 1/8]
  7
SLDTEXTSTYLE0
 73
     1
 44
1.0
  0
POINT
  5
35F
330
356
100
AcDbEntity
  8
Defpoints
 62
     0
100
AcDbPoint
 10
51.36438836445057
 20
-33.56205309209756
 30
0.0
  0
POINT
  5
360
330
356
100
AcDbEntity
  8
Defpoints
 62
     0
100
AcDbPoint
 10
130.7393883644506
 20
-33.56205309209755
 30
0.0
  0
POINT
  5
361
330
356
100
AcDbEntity
  8
Defpoints
 62
     0
100
AcDbPoint
 10
130.7393883644506
 20
-11.92608569922326
 30
0.0
  0
ENDBLK
  5
358
330
356
100
AcDbEntity
  8
0
100
AcDbBlockEnd
  0
BLOCK
  5
428
330
427
100
AcDbEntity
  8
0
100
AcDbBlockBegin
  2
*D15
 70
     1
 10
0.0
 20
0.0
 30
0.0
  3
*D15
  1
*D18
  0
LINE
  5
42A
330
427
100
AcDbEntity
  8
치수문자_일반주서
 62
     0
370
    -2
100
AcDbLine
 10
69.73750000000003
 20
6.60399999999993
 30
0.0
 11
88.6750000000002
 21
6.603999999999999
 31
0.0
  0
LINE
  5
42B
330
427
100
AcDbEntity
  8
치수문자_일반주서
 62
     0
370
    -2
100
AcDbLine
 10
69.73750000000003
 20
9.379776971059785
 30
0.0
 11
88.67500000000018
 21
9.379776971059854
 31
0.0
  0
LINE
  5
42C
330
427
100
AcDbEntity
  8
치수문자_일반주서
 62
     0
370
    -2
100
AcDbLine
 10
88.67500000000018
 20
9.379776971059854
 30
0.0
 11
88.675
 21
44.85877697105985
 31
0.0
  0
LINE
  5
42D
330
427
100
AcDbEntity
  8
치수문자_일반주서
 62
     0
370
    -2
100
AcDbLine
 10
88.6750000000002
 20
6.603999999999999
 30
0.0
 11
88.67500000000018
 21
9.379776971059854
 31
0.0
  0
LINE
  5
42E
330
427
100
AcDbEntity
  8
치수문자_일반주서
 62
     0
370
    -2
100
AcDbLine
 10
88.67500000000021
 20
3.302
 30
0.0
 11
88.67500000000022
 21
0.0
 31
0.0
  0
LINE
  5
42F
330
427
100
AcDbEntity
  8
치수문자_일반주서
 62
     0
370
    -2
100
AcDbLine
 10
88.67500000000017
 20
12.68177697105985
 30
0.0
 11
88.67500000000015
 21
15.98377697105985
 31
0.0
  0
SOLID
  5
430
330
427
100
AcDbEntity
  8
치수문자_일반주서
 62
     0
100
AcDbTrace
 10
89.22533333333354
 20
3.302000000000002
 30
0.0
 11
88.12466666666688
 21
3.301999999999997
 31
0.0
 12
88.6750000000002
 22
6.603999999999999
 32
0.0
 13
88.6750000000002
 23
6.603999999999999
 33
0.0
  0
SOLID
  5
431
330
427
100
AcDbEntity
  8
치수문자_일반주서
 62
     0
100
AcDbTrace
 10
88.12466666666684
 20
12.68177697105985
 30
0.0
 11
89.2253333333335
 21
12.68177697105986
 31
0.0
 12
88.67500000000018
 22
9.379776971059854
 32
0.0
 13
88.67500000000018
 23
9.379776971059854
 33
0.0
  0
MTEXT
  5
432
330
427
100
AcDbEntity
  8
치수문자_일반주서
 62
     0
100
AcDbMText
 10
84.30000000000007
 20
30.42127697105983
 30
0.0
 40
3.5
 41
0.0
 71
     2
 72
     1
  1
\A1;%%c2.78 [7/64]
  7
SLDTEXTSTYLE0
 11
-5.119595292908556E-15
 21
1.0
 31
0.0
 73
     1
 44
1.0
  0
POINT
  5
433
330
427
100
AcDbEntity
  8
Defpoints
 62
     0
100
AcDbPoint
 10
69.67500000000003
 20
6.60399999999993
 30
0.0
  0
POINT
  5
434
330
427
100
AcDbEntity
  8
Defpoints
 62
     0
100
AcDbPoint
 10
69.67500000000003
 20
9.379776971059785
 30
0.0
  0
POINT
  5
435
330
427
100
AcDbEntity
  8
Defpoints
 62
     0
100
AcDbPoint
 10
88.67500000000013
 20
9.379776971059856
 30
0.0
  0
ENDBLK
  5
429
330
427
100
AcDbEntity
  8
0
100
AcDbBlockEnd
  0
BLOCK
  5
437
330
436
100
AcDbEntity
  8
0
100
AcDbBlockBegin
  2
*D16
 70
     1
 10
0.0
 20
0.0
 30
0.0
  3
*D16
  1
*D19
  0
LINE
  5
439
330
436
100
AcDbEntity
  8
치수문자_일반주서
 62
     0
370
    -2
100
AcDbLine
 10
69.67500000000003
 20
9.442276971059785
 30
0.0
 11
69.67500000000003
 21
23.37051507765384
 31
0.0
  0
LINE
  5
43A
330
436
100
AcDbEntity
  8
치수문자_일반주서
 62
     0
370
    -2
100
AcDbLine
 10
62.53125000000003
 20
9.43150254757746
 30
0.0
 11
62.53125000000003
 21
23.37051507765384
 31
0.0
  0
LINE
  5
43B
330
436
100
AcDbEntity
  8
치수문자_일반주서
 62
     0
370
    -2
100
AcDbLine
 10
62.53125000000003
 20
23.37051507765384
 30
0.0
 11
18.72756727691581
 21
23.37051507765384
 31
0.0
  0
LINE
  5
43C
330
436
100
AcDbEntity
  8
치수문자_일반주서
 62
     0
370
    -2
100
AcDbLine
 10
69.67500000000003
 20
23.37051507765384
 30
0.0
 11
62.53125000000003
 21
23.37051507765384
 31
0.0
  0
LINE
  5
43D
330
436
100
AcDbEntity
  8
치수문자_일반주서
 62
     0
370
    -2
100
AcDbLine
 10
72.97700000000003
 20
23.37051507765384
 30
0.0
 11
76.27900000000002
 21
23.37051507765384
 31
0.0
  0
LINE
  5
43E
330
436
100
AcDbEntity
  8
치수문자_일반주서
 62
     0
370
    -2
100
AcDbLine
 10
59.22925000000003
 20
23.37051507765384
 30
0.0
 11
55.92725000000003
 21
23.37051507765384
 31
0.0
  0
SOLID
  5
43F
330
436
100
AcDbEntity
  8
치수문자_일반주서
 62
     0
100
AcDbTrace
 10
72.97700000000003
 20
23.92084841098718
 30
0.0
 11
72.97700000000003
 21
22.82018174432051
 31
0.0
 12
69.67500000000003
 22
23.37051507765384
 32
0.0
 13
69.67500000000003
 23
23.37051507765384
 33
0.0
  0
SOLID
  5
440
330
436
100
AcDbEntity
  8
치수문자_일반주서
 62
     0
100
AcDbTrace
 10
59.22925000000003
 20
22.82018174432051
 30
0.0
 11
59.22925000000003
 21
23.92084841098718
 31
0.0
 12
62.53125000000003
 22
23.37051507765384
 32
0.0
 13
62.53125000000003
 23
23.37051507765384
 33
0.0
  0
MTEXT
  5
441
330
436
100
AcDbEntity
  8
치수문자_일반주서
 62
     0
100
AcDbMText
 10
31.41506727691581
 20
27.74551507765384
 30
0.0
 40
3.5
 41
0.0
 71
     2
 72
     1
  1
\A1;7.14 [9/32]
  7
SLDTEXTSTYLE0
 73
     1
 44
1.0
  0
POINT
  5
442
330
436
100
AcDbEntity
  8
Defpoints
 62
     0
100
AcDbPoint
 10
69.67500000000003
 20
9.379776971059785
 30
0.0
  0
POINT
  5
443
330
436
100
AcDbEntity
  8
Defpoints
 62
     0
100
AcDbPoint
 10
62.53125000000003
 20
9.36900254757746
 30
0.0
  0
POINT
  5
444
330
436
100
AcDbEntity
  8
Defpoints
 62
     0
100
AcDbPoint
 10
62.53125000000003
 20
23.37051507765384
 30
0.0
  0
ENDBLK
  5
438
330
436
100
AcDbEntity
  8
0
100
AcDbBlockEnd
  0
BLOCK
  5
446
330
445
100
AcDbEntity
  8
0
100
AcDbBlockBegin
  2
*D17
 70
     1
 10
0.0
 20
0.0
 30
0.0
  3
*D17
  1
*D20
  0
LINE
  5
448
330
445
100
AcDbEntity
  8
치수문자_일반주서
 62
     0
370
    -2
100
AcDbLine
 10
3.000000000000021
 20
10.00563848552985
 30
0.0
 11
3.000000000000014
 21
37.08288732568735
 31
0.0
  0
LINE
  5
449
330
445
100
AcDbEntity
  8
치수문자_일반주서
 62
     0
370
    -2
100
AcDbLine
 10
69.67500000000003
 20
9.442276971059785
 30
0.0
 11
69.67500000000001
 21
37.08288732568735
 31
0.0
  0
LINE
  5
44A
330
445
100
AcDbEntity
  8
치수문자_일반주서
 62
     0
370
    -2
100
AcDbLine
 10
6.302000000000014
 20
37.08288732568735
 30
0.0
 11
66.37300000000002
 21
37.08288732568735
 31
0.0
  0
SOLID
  5
44B
330
445
100
AcDbEntity
  8
치수문자_일반주서
 62
     0
100
AcDbTrace
 10
6.302000000000014
 20
37.63322065902069
 30
0.0
 11
6.302000000000014
 21
36.53255399235402
 31
0.0
 12
3.000000000000014
 22
37.08288732568735
 32
0.0
 13
3.000000000000014
 23
37.08288732568735
 33
0.0
  0
SOLID
  5
44C
330
445
100
AcDbEntity
  8
치수문자_일반주서
 62
     0
100
AcDbTrace
 10
66.37300000000002
 20
36.53255399235402
 30
0.0
 11
66.37300000000002
 21
37.63322065902069
 31
0.0
 12
69.67500000000001
 22
37.08288732568735
 32
0.0
 13
69.67500000000001
 23
37.08288732568735
 33
0.0
  0
MTEXT
  5
44D
330
445
100
AcDbEntity
  8
치수문자_일반주서
 62
     0
100
AcDbMText
 10
37.7929148341407
 20
41.45788732568735
 30
0.0
 40
3.5
 41
0.0
 71
     2
 72
     1
  1
\A1;66.68 [2 5/8]
  7
SLDTEXTSTYLE0
 73
     1
 44
1.0
  0
POINT
  5
44E
330
445
100
AcDbEntity
  8
Defpoints
 62
     0
100
AcDbPoint
 10
3.000000000000021
 20
9.94313848552985
 30
0.0
  0
POINT
  5
44F
330
445
100
AcDbEntity
  8
Defpoints
 62
     0
100
AcDbPoint
 10
69.67500000000003
 20
9.379776971059785
 30
0.0
  0
POINT
  5
450
330
445
100
AcDbEntity
  8
Defpoints
 62
     0
100
AcDbPoint
 10
69.67500000000003
 20
37.08288732568735
 30
0.0
  0
ENDBLK
  5
447
330
445
100
AcDbEntity
  8
0
100
AcDbBlockEnd
  0
BLOCK
  5
491
330
490
100
AcDbEntity
  8
0
100
AcDbBlockBegin
  2
*D18
 70
     1
 10
0.0
 20
0.0
 30
0.0
  3
*D18
  1
*D21
  0
LINE
  5
493
330
490
100
AcDbEntity
  8
치수문자_일반주서
 62
     0
370
    -2
100
AcDbLine
 10
139.3651839888412
 20
-29.87261117758959
 30
0.0
 11
158.3026839888413
 21
-29.87261117758952
 31
0.0
  0
LINE
  5
494
330
490
100
AcDbEntity
  8
치수문자_일반주서
 62
     0
370
    -2
100
AcDbLine
 10
139.3651839888412
 20
-27.09683420652973
 30
0.0
 11
158.3026839888413
 21
-27.09683420652966
 31
0.0
  0
LINE
  5
495
330
490
100
AcDbEntity
  8
치수문자_일반주서
 62
     0
370
    -2
100
AcDbLine
 10
158.3026839888413
 20
-27.09683420652966
 30
0.0
 11
158.3026839888413
 21
8.382165793470335
 31
0.0
  0
LINE
  5
496
330
490
100
AcDbEntity
  8
치수문자_일반주서
 62
     0
370
    -2
100
AcDbLine
 10
158.3026839888413
 20
-29.87261117758952
 30
0.0
 11
158.3026839888413
 21
-27.09683420652966
 31
0.0
  0
LINE
  5
497
330
490
100
AcDbEntity
  8
치수문자_일반주서
 62
     0
370
    -2
100
AcDbLine
 10
158.3026839888413
 20
-33.17461117758952
 30
0.0
 11
158.3026839888413
 21
-36.47661117758952
 31
0.0
  0
LINE
  5
498
330
490
100
AcDbEntity
  8
치수문자_일반주서
 62
     0
370
    -2
100
AcDbLine
 10
158.3026839888413
 20
-23.79483420652966
 30
0.0
 11
158.3026839888413
 21
-20.49283420652966
 31
0.0
  0
SOLID
  5
499
330
490
100
AcDbEntity
  8
치수문자_일반주서
 62
     0
100
AcDbTrace
 10
158.8530173221746
 20
-33.17461117758952
 30
0.0
 11
157.752350655508
 21
-33.17461117758952
 31
0.0
 12
158.3026839888413
 22
-29.87261117758952
 32
0.0
 13
158.3026839888413
 23
-29.87261117758952
 33
0.0
  0
SOLID
  5
49A
330
490
100
AcDbEntity
  8
치수문자_일반주서
 62
     0
100
AcDbTrace
 10
157.752350655508
 20
-23.79483420652966
 30
0.0
 11
158.8530173221746
 21
-23.79483420652966
 31
0.0
 12
158.3026839888413
 22
-27.09683420652966
 32
0.0
 13
158.3026839888413
 23
-27.09683420652966
 33
0.0
  0
MTEXT
  5
49B
330
490
100
AcDbEntity
  8
치수문자_일반주서
 62
     0
100
AcDbMText
 10
153.9276839888413
 20
-6.055334206529665
 30
0.0
 40
3.5
 41
0.0
 71
     2
 72
     1
  1
\A1;%%c2.78 [7/64]
  7
SLDTEXTSTYLE0
 11
0.0
 21
1.0
 31
0.0
 73
     1
 44
1.0
  0
POINT
  5
49C
330
490
100
AcDbEntity
  8
Defpoints
 62
     0
100
AcDbPoint
 10
139.3026839888412
 20
-29.87261117758959
 30
0.0
  0
POINT
  5
49D
330
490
100
AcDbEntity
  8
Defpoints
 62
     0
100
AcDbPoint
 10
139.3026839888412
 20
-27.09683420652973
 30
0.0
  0
POINT
  5
49E
330
490
100
AcDbEntity
  8
Defpoints
 62
     0
100
AcDbPoint
 10
158.3026839888414
 20
-27.09683420652966
 30
0.0
  0
ENDBLK
  5
492
330
490
100
AcDbEntity
  8
0
100
AcDbBlockEnd
  0
BLOCK
  5
4A0
330
49F
100
AcDbEntity
  8
0
100
AcDbBlockBegin
  2
*D19
 70
     1
 10
0.0
 20
0.0
 30
0.0
  3
*D19
  1
*D22
  0
LINE
  5
4A2
330
49F
100
AcDbEntity
  8
치수문자_일반주서
 62
     0
370
    -2
100
AcDbLine
 10
139.3026839888412
 20
-27.03433420652973
 30
0.0
 11
139.3026839888412
 21
-13.10609609993568
 31
0.0
  0
LINE
  5
4A3
330
49F
100
AcDbEntity
  8
치수문자_일반주서
 62
     0
370
    -2
100
AcDbLine
 10
132.1589339888413
 20
-27.04510863001206
 30
0.0
 11
132.1589339888413
 21
-13.10609609993568
 31
0.0
  0
LINE
  5
4A4
330
49F
100
AcDbEntity
  8
치수문자_일반주서
 62
     0
370
    -2
100
AcDbLine
 10
132.1589339888413
 20
-13.10609609993568
 30
0.0
 11
88.35525126575703
 21
-13.10609609993568
 31
0.0
  0
LINE
  5
4A5
330
49F
100
AcDbEntity
  8
치수문자_일반주서
 62
     0
370
    -2
100
AcDbLine
 10
139.3026839888412
 20
-13.10609609993568
 30
0.0
 11
132.1589339888413
 21
-13.10609609993568
 31
0.0
  0
LINE
  5
4A6
330
49F
100
AcDbEntity
  8
치수문자_일반주서
 62
     0
370
    -2
100
AcDbLine
 10
142.6046839888412
 20
-13.10609609993568
 30
0.0
 11
145.9066839888412
 21
-13.10609609993568
 31
0.0
  0
LINE
  5
4A7
330
49F
100
AcDbEntity
  8
치수문자_일반주서
 62
     0
370
    -2
100
AcDbLine
 10
128.8569339888413
 20
-13.10609609993568
 30
0.0
 11
125.5549339888413
 21
-13.10609609993568
 31
0.0
  0
SOLID
  5
4A8
330
49F
100
AcDbEntity
  8
치수문자_일반주서
 62
     0
100
AcDbTrace
 10
142.6046839888412
 20
-12.55576276660234
 30
0.0
 11
142.6046839888412
 21
-13.65642943326901
 31
0.0
 12
139.3026839888412
 22
-13.10609609993568
 32
0.0
 13
139.3026839888412
 23
-13.10609609993568
 33
0.0
  0
SOLID
  5
4A9
330
49F
100
AcDbEntity
  8
치수문자_일반주서
 62
     0
100
AcDbTrace
 10
128.8569339888413
 20
-13.65642943326901
 30
0.0
 11
128.8569339888413
 21
-12.55576276660234
 31
0.0
 12
132.1589339888413
 22
-13.10609609993568
 32
0.0
 13
132.1589339888413
 23
-13.10609609993568
 33
0.0
  0
MTEXT
  5
4AA
330
49F
100
AcDbEntity
  8
치수문자_일반주서
 62
     0
100
AcDbMText
 10
101.042751265757
 20
-8.731096099935677
 30
0.0
 40
3.5
 41
0.0
 71
     2
 72
     1
  1
\A1;7.14 [9/32]
  7
SLDTEXTSTYLE0
 73
     1
 44
1.0
  0
POINT
  5
4AB
330
49F
100
AcDbEntity
  8
Defpoints
 62
     0
100
AcDbPoint
 10
139.3026839888412
 20
-27.09683420652973
 30
0.0
  0
POINT
  5
4AC
330
49F
100
AcDbEntity
  8
Defpoints
 62
     0
100
AcDbPoint
 10
132.1589339888413
 20
-27.10760863001206
 30
0.0
  0
POINT
  5
4AD
330
49F
100
AcDbEntity
  8
Defpoints
 62
     0
100
AcDbPoint
 10
132.1589339888413
 20
-13.10609609993568
 30
0.0
  0
ENDBLK
  5
4A1
330
49F
100
AcDbEntity
  8
0
100
AcDbBlockEnd
  0
BLOCK
  5
4AF
330
4AE
100
AcDbEntity
  8
0
100
AcDbBlockBegin
  2
*D20
 70
     1
 10
0.0
 20
0.0
 30
0.0
  3
*D20
  1
*D23
  0
LINE
  5
4B1
330
4AE
100
AcDbEntity
  8
치수문자_일반주서
 62
     0
370
    -2
100
AcDbLine
 10
72.62768398884126
 20
-26.47097269205967
 30
0.0
 11
72.62768398884126
 21
0.6062761480978338
 31
0.0
  0
LINE
  5
4B2
330
4AE
100
AcDbEntity
  8
치수문자_일반주서
 62
     0
370
    -2
100
AcDbLine
 10
139.3026839888412
 20
-27.03433420652973
 30
0.0
 11
139.3026839888412
 21
0.6062761480978338
 31
0.0
  0
LINE
  5
4B3
330
4AE
100
AcDbEntity
  8
치수문자_일반주서
 62
     0
370
    -2
100
AcDbLine
 10
75.92968398884125
 20
0.6062761480978338
 30
0.0
 11
136.0006839888412
 21
0.6062761480978338
 31
0.0
  0
SOLID
  5
4B4
330
4AE
100
AcDbEntity
  8
치수문자_일반주서
 62
     0
100
AcDbTrace
 10
75.92968398884125
 20
1.156609481431167
 30
0.0
 11
75.92968398884125
 21
0.0559428147645006
 31
0.0
 12
72.62768398884126
 22
0.6062761480978338
 32
0.0
 13
72.62768398884126
 23
0.6062761480978338
 33
0.0
  0
SOLID
  5
4B5
330
4AE
100
AcDbEntity
  8
치수문자_일반주서
 62
     0
100
AcDbTrace
 10
136.0006839888412
 20
0.0559428147645006
 30
0.0
 11
136.0006839888412
 21
1.156609481431167
 31
0.0
 12
139.3026839888412
 22
0.6062761480978338
 32
0.0
 13
139.3026839888412
 23
0.6062761480978338
 33
0.0
  0
MTEXT
  5
4B6
330
4AE
100
AcDbEntity
  8
치수문자_일반주서
 62
     0
100
AcDbMText
 10
107.4205988229819
 20
4.981276148097834
 30
0.0
 40
3.5
 41
0.0
 71
     2
 72
     1
  1
\A1;66.68 [2 5/8]
  7
SLDTEXTSTYLE0
 73
     1
 44
1.0
  0
POINT
  5
4B7
330
4AE
100
AcDbEntity
  8
Defpoints
 62
     0
100
AcDbPoint
 10
72.62768398884126
 20
-26.53347269205967
 30
0.0
  0
POINT
  5
4B8
330
4AE
100
AcDbEntity
  8
Defpoints
 62
     0
100
AcDbPoint
 10
139.3026839888412
 20
-27.09683420652973
 30
0.0
  0
POINT
  5
4B9
330
4AE
100
AcDbEntity
  8
Defpoints
 62
     0
100
AcDbPoint
 10
139.3026839888412
 20
0.6062761480978338
 30
0.0
  0
ENDBLK
  5
4B0
330
4AE
100
AcDbEntity
  8
0
100
AcDbBlockEnd
  0
ENDSEC
  0
SECTION
  2
ENTITIES
  0
LINE
  5
96
330
1F
100
AcDbEntity
  8
외형선
  6
Continuous
370
    15
100
AcDbLine
 10
21.49085583936528
 20
2.381249999999997
 30
0.0
 11
-21.49085583936531
 21
2.381249999999995
 31
0.0
  0
LINE
  5
97
330
1F
100
AcDbEntity
  8
외형선
  6
Continuous
370
    15
100
AcDbLine
 10
-21.49085583936528
 20
-2.381250000000001
 30
0.0
 11
21.49085583936529
 21
-2.381249999999999
 31
0.0
  0
LINE
  5
98
330
1F
100
AcDbEntity
  8
외형선
  6
Continuous
370
    15
100
AcDbLine
 10
21.49085583936528
 20
-2.381250000000001
 30
0.0
 11
25.19375000000002
 21
-1.3890625
 31
0.0
  0
LINE
  5
99
330
1F
100
AcDbEntity
  8
외형선
  6
Continuous
370
    15
100
AcDbLine
 10
25.19375000000002
 20
1.3890625
 30
0.0
 11
21.49085583936528
 21
2.38125
 31
0.0
  0
LINE
  5
9C
330
1F
100
AcDbEntity
  8
외형선
  6
Continuous
370
    15
100
AcDbLine
 10
25.3037113855054
 20
1.3890625
 30
0.0
 11
25.19375000000002
 21
1.3890625
 31
0.0
  0
LINE
  5
9D
330
1F
100
AcDbEntity
  8
외형선
  6
Continuous
370
    15
100
AcDbLine
 10
26.19375000000002
 20
1.3890625
 30
0.0
 11
25.87763016793944
 21
1.3890625
 31
0.0
  0
LINE
  5
9E
330
1F
100
AcDbEntity
  8
외형선
  6
Continuous
370
    15
100
AcDbLine
 10
25.87763016793944
 20
-1.3890625
 30
0.0
 11
26.19375000000002
 21
-1.3890625
 31
0.0
  0
LINE
  5
9F
330
1F
100
AcDbEntity
  8
외형선
  6
Continuous
370
    15
100
AcDbLine
 10
25.19375000000002
 20
-1.3890625
 30
0.0
 11
25.3037113855054
 21
-1.3890625
 31
0.0
  0
LINE
  5
A0
330
1F
100
AcDbEntity
  8
0
  6
Continuous
 62
     1
370
    25
100
AcDbLine
 10
29.73938411427254
 20
0.3559987446992132
 30
0.0
 11
29.35272886813318
 21
0.5486435707481483
 31
0.0
  0
LINE
  5
A1
330
1F
100
AcDbEntity
  8
0
  6
Continuous
 62
     1
370
    25
100
AcDbLine
 10
26.55089847251421
 20
1.389062500000001
 30
0.0
 11
26.19375000000002
 21
1.389062500000001
 31
0.0
  0
SPLINE
  5
A2
330
1F
100
AcDbEntity
  8
0
  6
Continuous
 62
     1
370
    25
100
AcDbSpline
210
0.0
220
0.0
230
1.0
 70
     8
 71
     3
 72
    10
 73
     6
 74
     0
 42
0.000000001
 43
0.00000001
 40
0.0
 40
0.0
 40
0.0
 40
0.0
 40
0.4652728742583976
 40
0.9113805070871797
 40
1.0
 40
1.0
 40
1.0
 40
1.0
 10
29.27874458974328
 20
1.103800428033973
 30
0.0
 10
29.09675349536994
 20
1.096491602324792
 30
0.0
 10
28.74026777472762
 20
1.082175011675354
 30
0.0
 10
28.34948209821863
 20
1.082875960343344
 30
0.0
 10
28.14032998128756
 20
1.092875257453792
 30
0.0
 10
28.10566752701545
 20
1.094532425375063
 30
0.0
  0
SPLINE
  5
A3
330
1F
100
AcDbEntity
  8
0
  6
Continuous
 62
     1
370
    25
100
AcDbSpline
210
0.0
220
0.0
230
1.0
 70
     8
 71
     3
 72
    17
 73
    13
 74
     0
 42
0.000000001
 43
0.00000001
 40
0.0
 40
0.0
 40
0.0
 40
0.0
 40
0.1330398237401093
 40
0.2238262172544111
 40
0.2798898025811026
 40
0.3338238389890656
 40
0.3901252701462435
 40
0.4563025884095899
 40
0.5793370660166893
 40
0.6956825761669435
 40
0.8263552395914656
 40
1.0
 40
1.0
 40
1.0
 40
1.0
 10
32.83999088527104
 20
0.9516605604304594
 30
0.0
 10
32.73085636497773
 20
0.9430865400763474
 30
0.0
 10
32.54724843343954
 20
0.9286616070858159
 30
0.0
 10
32.31885100181799
 20
0.9191148713878479
 30
0.0
 10
32.15536220569494
 20
0.9151512942656366
 30
0.0
 10
32.01994788997395
 20
0.9138184455568403
 30
0.0
 10
31.87628063851033
 20
0.9144224319352996
 30
0.0
 10
31.67650459955708
 20
0.9184342835466448
 30
0.0
 10
31.42805678244097
 20
0.9295961080480333
 30
0.0
 10
31.1264791174381
 20
0.9520508394120535
 30
0.0
 10
30.78476708672594
 20
0.9873558328352207
 30
0.0
 10
30.53656960267268
 20
1.023885197762246
 30
0.0
 10
30.3949471082733
 20
1.044729002039811
 30
0.0
  0
SPLINE
  5
A4
330
1F
100
AcDbEntity
  8
0
  6
Continuous
 62
     1
370
    25
100
AcDbSpline
210
0.0
220
0.0
230
1.0
 70
     8
 71
     3
 72
    11
 73
     7
 74
     0
 42
0.000000001
 43
0.00000001
 40
0.0
 40
0.0
 40
0.0
 40
0.0
 40
0.2656366914472044
 40
0.4914851522804639
 40
0.74039584678224
 40
0.9999999999999999
 40
0.9999999999999999
 40
0.9999999999999999
 40
0.9999999999999999
 10
27.17467476244289
 20
-1.157500924639283
 30
0.0
 10
27.36147948310774
 20
-1.14048504766504
 30
0.0
 10
27.70710849272414
 20
-1.109002006522233
 30
0.0
 10
28.22580080092703
 20
-1.086700443189355
 30
0.0
 10
28.74030393323786
 20
-1.081191191466285
 30
0.0
 10
29.09676571600166
 20
-1.096159096798979
 30
0.0
 10
29.27874458974328
 20
-1.103800428033973
 30
0.0
  0
SPLINE
  5
A5
330
1F
100
AcDbEntity
  8
0
  6
Continuous
 62
     1
370
    25
100
AcDbSpline
210
0.0
220
0.0
230
1.0
 70
     8
 71
     3
 72
    13
 73
     9
 74
     0
 42
0.000000001
 43
0.00000001
 40
0.0
 40
0.0
 40
0.0
 40
0.0
 40
0.3046768675967244
 40
0.5132114060898918
 40
0.6442434057254478
 40
0.7708268576331037
 40
0.9029074650303707
 40
1.0
 40
1.0
 40
1.0
 40
1.0
 10
30.3949471082733
 20
-1.044729002039811
 30
0.0
 10
30.50036746580227
 20
-1.028999592909198
 30
0.0
 10
30.67794225296844
 20
-1.002504269386408
 30
0.0
 10
30.89961665931054
 20
-0.9759190206833428
 30
0.0
 10
31.06040707540426
 20
-0.9593312462542188
 30
0.0
 10
31.19487609491237
 20
-0.9473593969587287
 30
0.0
 10
31.31764737273242
 20
-0.9378228788321101
 30
0.0
 10
31.39670921062601
 20
-0.9331224554326938
 30
0.0
 10
31.43020490816353
 20
-0.9311310526942822
 30
0.0
  0
LINE
  5
A6
330
1F
100
AcDbEntity
  8
0
  6
Continuous
 62
     1
370
    25
100
AcDbLine
 10
26.19375000000002
 20
-1.389062500000001
 30
0.0
 11
26.55089847251421
 21
-1.389062500000001
 31
0.0
  0
LINE
  5
A7
330
1F
100
AcDbEntity
  8
외형선
  6
Continuous
370
    15
100
AcDbLine
 10
21.49085583936528
 20
2.38125
 30
0.0
 11
21.49085583936528
 21
-2.381249999999999
 31
0.0
  0
LINE
  5
A9
330
1F
100
AcDbEntity
  8
외형선
  6
Continuous
370
    15
100
AcDbLine
 10
25.19375000000002
 20
1.3890625
 30
0.0
 11
25.19375000000002
 21
-1.3890625
 31
0.0
  0
LINE
  5
AB
330
1F
100
AcDbEntity
  8
외형선
  6
Continuous
370
    15
100
AcDbLine
 10
26.19375000000002
 20
1.3890625
 30
0.0
 11
26.19375000000002
 21
1.37711406205862
 31
0.0
  0
SPLINE
  5
AC
330
1F
100
AcDbEntity
  8
외형선
  6
Continuous
370
    15
100
AcDbSpline
210
0.0
220
0.0
230
1.0
 70
     8
 71
     3
 72
    10
 73
     6
 74
     0
 42
0.000000001
 43
0.00000001
 40
0.0
 40
0.0
 40
0.0
 40
0.0
 40
0.5
 40
0.5
 40
1.0
 40
1.0
 40
1.0
 40
1.0
 10
25.3037113855054
 20
1.349718173931794
 30
0.0
 10
25.45306485609147
 20
1.369997783386609
 30
0.0
 10
25.60287928811618
 20
1.382504275446823
 30
0.0
 10
25.89585506071218
 20
1.391635246350124
 30
0.0
 10
26.04433816390321
 20
1.38834696426533
 30
0.0
 10
26.19374999999904
 20
1.377114062058429
 30
0.0
  0
SPLINE
  5
AD
330
1F
100
AcDbEntity
  8
외형선
  6
Continuous
370
    15
100
AcDbSpline
210
0.0
220
0.0
230
1.0
 70
     8
 71
     3
 72
    10
 73
     6
 74
     0
 42
0.000000001
 43
0.00000001
 40
0.0
 40
0.0
 40
0.0
 40
0.0
 40
0.5
 40
0.5
 40
1.0
 40
1.0
 40
1.0
 40
1.0
 10
26.19375000000002
 20
-1.373762037875439
 30
0.0
 10
26.04433140395109
 20
-1.36105790468608
 30
0.0
 10
25.89584210405712
 20
-1.340479304205394
 30
0.0
 10
25.60285247875684
 20
-1.284670823692481
 30
0.0
 10
25.45303098336133
 20
-1.249073923389934
 30
0.0
 10
25.30367084164346
 20
-1.206550836943733
 30
0.0
  0
SPLINE
  5
AE
330
1F
100
AcDbEntity
  8
외형선
  6
Continuous
370
    15
100
AcDbSpline
210
0.0
220
0.0
230
1.0
 70
     8
 71
     3
 72
    10
 73
     6
 74
     0
 42
0.000000001
 43
0.00000001
 40
0.0
 40
0.0
 40
0.0
 40
0.0
 40
0.3842043855233663
 40
0.7715113373658204
 40
1.0
 40
1.0
 40
1.0
 40
1.0
 10
25.30502209897377
 20
-1.34989594660034
 30
0.0
 10
25.37846598050358
 20
-1.358660378813221
 30
0.0
 10
25.52594682506297
 20
-1.376260018673137
 30
0.0
 10
25.71668841916629
 20
-1.388165876512565
 30
0.0
 10
25.83407450080677
 20
-1.387754651028496
 30
0.0
 10
25.87763016793944
 20
-1.38760206734864
 30
0.0
  0
SPLINE
  5
AF
330
1F
100
AcDbEntity
  8
외형선
  6
Continuous
370
    15
100
AcDbSpline
210
0.0
220
0.0
230
1.0
 70
     8
 71
     3
 72
     8
 73
     4
 74
     0
 42
0.000000001
 43
0.00000001
 40
0.0
 40
0.0
 40
0.0
 40
0.0
 40
0.0000767894439933
 40
0.0000767894439933
 40
0.0000767894439933
 40
0.0000767894439933
 10
25.3037113855054
 20
-1.365930642322832
 30
0.0
 10
25.3037113855054
 20
-1.361278810576766
 30
0.0
 10
25.30408669693855
 20
-1.355927354386412
 30
0.0
 10
25.30502209897719
 20
-1.349895946600339
 30
0.0
  0
LINE
  5
B0
330
1F
100
AcDbEntity
  8
외형선
  6
Continuous
370
    15
100
AcDbLine
 10
25.3037113855054
 20
-1.3890625
 30
0.0
 11
25.3037113855054
 21
-1.365930642322831
 31
0.0
  0
LINE
  5
B1
330
1F
100
AcDbEntity
  8
외형선
  6
Continuous
370
    15
100
AcDbLine
 10
25.3037113855054
 20
-1.206521338080376
 30
0.0
 11
25.3037113855054
 21
1.3890625
 31
0.0
  0
SPLINE
  5
B2
330
1F
100
AcDbEntity
  8
외형선
  6
Continuous
370
    15
100
AcDbSpline
210
0.0
220
0.0
230
1.0
 70
    24
 71
     3
 72
    10
 73
     6
 74
     0
 42
0.000000001
 43
0.00000001
 40
0.0
 40
0.0
 40
0.0
 40
0.0
 40
0.5
 40
0.5
 40
1.0
 40
1.0
 40
1.0
 40
1.0
 10
26.19375000000002
 20
-0.1906031005273124
 30
0.0
 10
26.19375000000002
 20
-0.3960199587253333
 30
0.0
 10
26.19375000000002
 20
-0.5979980296156489
 30
0.0
 10
26.19375000000002
 20
-0.935117070364002
 30
0.0
 10
26.19375000000002
 20
-1.068806948081574
 30
0.0
 10
26.19375000000002
 20
-1.155041585143606
 30
0.0
  0
SPLINE
  5
B3
330
1F
100
AcDbEntity
  8
외형선
  6
Continuous
370
    15
100
AcDbSpline
210
0.0
220
0.0
230
1.0
 70
     8
 71
     3
 72
    10
 73
     6
 74
     0
 42
0.000000001
 43
0.00000001
 40
0.0
 40
0.0
 40
0.0
 40
0.0
 40
0.5
 40
0.5
 40
1.0
 40
1.0
 40
1.0
 40
1.0
 10
26.19375000000002
 20
-1.155041585143606
 30
0.0
 10
26.04433140395109
 20
-1.139913980858639
 30
0.0
 10
25.89584210405712
 20
-1.118175207111257
 30
0.0
 10
25.60285247875684
 20
-1.062568616679224
 30
0.0
 10
25.45303098336133
 20
-1.028340153591394
 30
0.0
 10
25.30367084164346
 20
-0.9884423332131145
 30
0.0
  0
SPLINE
  5
B4
330
1F
100
AcDbEntity
  8
외형선
  6
Continuous
370
    15
100
AcDbSpline
210
0.0
220
0.0
230
1.0
 70
     8
 71
     3
 72
    10
 73
     6
 74
     0
 42
0.000000001
 43
0.00000001
 40
0.0
 40
0.0
 40
0.0
 40
0.0
 40
0.5
 40
0.5
 40
1.0
 40
1.0
 40
1.0
 40
1.0
 10
26.19375000000002
 20
-0.190603100527311
 30
0.0
 10
26.04433569734418
 20
-0.1229588061236567
 30
0.0
 10
25.89585033311414
 20
-0.0543639630660686
 30
0.0
 10
25.60286950597019
 20
0.0820494306215141
 30
0.0
 10
25.45305249667431
 20
0.1506904039428999
 30
0.0
 10
25.303696591929
 20
0.2180091718920845
 30
0.0
  0
SPLINE
  5
B5
330
1F
100
AcDbEntity
  8
외형선
  6
Continuous
370
    15
100
AcDbSpline
210
0.0
220
0.0
230
1.0
 70
    24
 71
     3
 72
    10
 73
     6
 74
     0
 42
0.000000001
 43
0.00000001
 40
0.0
 40
0.0
 40
0.0
 40
0.0
 40
0.5
 40
0.5
 40
1.0
 40
1.0
 40
1.0
 40
1.0
 10
26.19375000000002
 20
0.9579340074469783
 30
0.0
 10
26.19375000000002
 20
0.8650736354986245
 30
0.0
 10
26.19375000000002
 20
0.7073342403381052
 30
0.0
 10
26.19375000000002
 20
0.2990779249644477
 30
0.0
 10
26.19375000000002
 20
0.0517242098960441
 30
0.0
 10
26.19375000000002
 20
-0.1906031005273108
 30
0.0
  0
SPLINE
  5
B6
330
1F
100
AcDbEntity
  8
외형선
  6
Continuous
370
    15
100
AcDbSpline
210
0.0
220
0.0
230
1.0
 70
     8
 71
     3
 72
    10
 73
     6
 74
     0
 42
0.000000001
 43
0.00000001
 40
0.0
 40
0.0
 40
0.0
 40
0.0
 40
0.5
 40
0.5
 40
1.0
 40
1.0
 40
1.0
 40
1.0
 10
26.19375000000002
 20
0.9579340074469782
 30
0.0
 10
26.04433653680092
 20
0.9682387988928385
 30
0.0
 10
25.89585194208203
 20
0.9730117485562115
 30
0.0
 10
25.6028728351781
 20
0.9715248877557738
 30
0.0
 10
25.45305670301777
 20
0.9652335597221521
 30
0.0
 10
25.30370162670101
 20
0.9534487408660709
 30
0.0
  0
SPLINE
  5
B7
330
1F
100
AcDbEntity
  8
외형선
  6
Continuous
370
    15
100
AcDbSpline
210
0.0
220
0.0
230
1.0
 70
    24
 71
     3
 72
     8
 73
     4
 74
     0
 42
0.000000001
 43
0.00000001
 40
0.0
 40
0.0
 40
0.0
 40
0.0
 40
1.0
 40
1.0
 40
1.0
 40
1.0
 10
26.19375000000002
 20
-1.155041585143606
 30
0.0
 10
26.19375000000002
 20
-1.228597506208418
 30
0.0
 10
26.19375000000002
 20
-1.301975778420159
 30
0.0
 10
26.19375000000002
 20
-1.373762037866763
 30
0.0
  0
SPLINE
  5
B8
330
1F
100
AcDbEntity
  8
외형선
  6
Continuous
370
    15
100
AcDbSpline
210
0.0
220
0.0
230
1.0
 70
    24
 71
     3
 72
    10
 73
     6
 74
     0
 42
0.000000001
 43
0.00000001
 40
0.0
 40
0.0
 40
0.0
 40
0.0
 40
0.5
 40
0.5
 40
1.0
 40
1.0
 40
1.0
 40
1.0
 10
26.19375000000002
 20
1.3771140620476
 30
0.0
 10
26.19375000000002
 20
1.311631937585426
 30
0.0
 10
26.19375000000002
 20
1.238624940048356
 30
0.0
 10
26.19375000000002
 20
1.093533523648737
 30
0.0
 10
26.19375000000002
 20
1.021838390396811
 30
0.0
 10
26.19375000000002
 20
0.9579340074469785
 30
0.0
  0
SPLINE
  5
B9
330
1F
100
AcDbEntity
  8
0
  6
Continuous
 62
     1
370
    25
100
AcDbSpline
210
0.0
220
0.0
230
1.0
 70
     8
 71
     3
 72
    16
 73
    12
 74
     0
 42
0.000000001
 43
0.00000001
 40
0.0
 40
0.0
 40
0.0
 40
0.0
 40
0.1179561386756739
 40
0.235893322244347
 40
0.3538134645944433
 40
0.4717185015375948
 40
0.5896103883964128
 40
0.7053841368374538
 40
0.8211422235188883
 40
0.9368896850832551
 40
1.0
 40
1.0
 40
1.0
 40
1.0
 10
33.33750000000002
 20
-1.318138176167436
 30
0.0
 10
33.0706258363619
 20
-1.255397802917541
 30
0.0
 10
32.53692039475812
 20
-1.129927138559312
 30
0.0
 10
31.73645568198449
 20
-0.7791379767324486
 30
0.0
 10
30.93612627795403
 20
-0.3533847090327522
 30
0.0
 10
30.13592529433677
 20
0.1139909510860168
 30
0.0
 10
29.34057917336867
 20
0.5648866535721879
 30
0.0
 10
28.55017257095093
 20
0.954252594446395
 30
0.0
 10
27.76462386792578
 20
1.233307852516526
 30
0.0
 10
27.09821523735826
 20
1.381740845853275
 30
0.0
 10
26.69365007744268
 20
1.373609134101645
 30
0.0
 10
26.55089847251421
 20
1.370739843766305
 30
0.0
  0
SPLINE
  5
BA
330
1F
100
AcDbEntity
  8
0
  6
Continuous
 62
     1
370
    25
100
AcDbSpline
210
0.0
220
0.0
230
1.0
 70
     8
 71
     3
 72
    13
 73
     9
 74
     0
 42
0.000000001
 43
0.00000001
 40
0.0
 40
0.0
 40
0.0
 40
0.0
 40
0.1853776120602986
 40
0.3703025622189035
 40
0.555082803580064
 40
0.7400297365512751
 40
0.9254470329069895
 40
1.0
 40
1.0
 40
1.0
 40
1.0
 10
33.33750000000002
 20
-1.095931785973975
 30
0.0
 10
33.11391910526169
 20
-1.046958223706441
 30
0.0
 10
32.66730326387373
 20
-0.9491306846249912
 30
0.0
 10
31.99818141307502
 20
-0.7066521248047491
 30
0.0
 10
31.32961642512787
 20
-0.4154724996173068
 30
0.0
 10
30.6604212042997
 20
-0.0923036536102515
 30
0.0
 10
30.12375378312782
 20
0.1767407651695725
 30
0.0
 10
29.81025384485671
 20
0.3197633412223804
 30
0.0
 10
29.72034990633877
 20
0.3607786376050208
 30
0.0
  0
LINE
  5
BB
330
1F
100
AcDbEntity
  8
0
  6
Continuous
 62
     1
370
    25
100
AcDbLine
 10
33.33750000000002
 20
-1.318138176167437
 30
0.0
 11
33.33750000000002
 21
-1.095931785973975
 31
0.0
  0
SPLINE
  5
BC
330
1F
100
AcDbEntity
  8
0
  6
Continuous
 62
     1
370
    25
100
AcDbSpline
210
0.0
220
0.0
230
1.0
 70
     8
 71
     3
 72
    38
 73
    34
 74
     0
 42
0.000000001
 43
0.00000001
 40
0.0
 40
0.0
 40
0.0
 40
0.0
 40
0.0625
 40
0.0625
 40
0.125
 40
0.125
 40
0.1875
 40
0.1875
 40
0.2500000000000001
 40
0.2500000000000001
 40
0.3125000000000002
 40
0.3125000000000002
 40
0.3750000000000002
 40
0.3750000000000002
 40
0.4375000000000002
 40
0.4375000000000002
 40
0.5000000000000002
 40
0.5000000000000002
 40
0.5625000000000002
 40
0.5625000000000002
 40
0.6250000000000002
 40
0.6250000000000002
 40
0.6875000000000001
 40
0.6875000000000001
 40
0.7500000000000001
 40
0.7500000000000001
 40
0.8125000000000001
 40
0.8125000000000001
 40
0.875
 40
0.875
 40
0.9375
 40
0.9375
 40
1.0
 40
1.0
 40
1.0
 40
1.0
 10
26.19374999999967
 20
1.377114062058363
 30
0.0
 10
26.34371593820713
 20
1.365839502008292
 30
0.0
 10
26.49307085538766
 20
1.346592654466482
 30
0.0
 10
26.78687077452688
 20
1.293288160801924
 30
0.0
 10
26.93719413009546
 20
1.258854222027321
 30
0.0
 10
27.23703724468107
 20
1.175890688491092
 30
0.0
 10
27.38472801682231
 20
1.127598935518236
 30
0.0
 10
27.68004126958786
 20
1.018777439169335
 30
0.0
 10
27.83067883481863
 20
0.9578223256213544
 30
0.0
 10
28.13021287991824
 20
0.8257893591105028
 30
0.0
 10
28.27674136096243
 20
0.7551348529391979
 30
0.0
 10
28.57335863278245
 20
0.6054786798222015
 30
0.0
 10
28.72419852818513
 20
0.526299029411591
 30
0.0
 10
29.02320395270294
 20
0.3632497054174194
 30
0.0
 10
29.16907480514332
 20
0.2798432687983996
 30
0.0
 10
29.46678363784158
 20
0.1096789957179052
 30
0.0
 10
29.61771347771938
 20
0.0230783425314272
 30
0.0
 10
29.91597202234261
 20
-0.1487132561228537
 30
0.0
 10
30.06169150028069
 20
-0.2335977866617719
 30
0.0
 10
30.3602767911993
 20
-0.4010785980206795
 30
0.0
 10
30.51118396455262
 20
-0.4832747596373588
 30
0.0
 10
30.80847919035528
 20
-0.640379049244046
 30
0.0
 10
30.95455391451053
 20
-0.7152792721232587
 30
0.0
 10
31.25379842902258
 20
-0.857203400650484
 30
0.0
 10
31.40457038164523
 20
-0.9237744763871999
 30
0.0
 10
31.70068818939802
 20
-1.044824906058324
 30
0.0
 10
31.84762392026208
 20
-1.099587339310345
 30
0.0
 10
32.1473088151392
 20
-1.196546876775863
 30
0.0
 10
32.29783333141384
 20
-1.23842028146793
 30
0.0
 10
32.59256246900642
 20
-1.307039208434305
 30
0.0
 10
32.7408628843499
 20
-1.334151412437612
 30
0.0
 10
33.04076823935524
 20
-1.372877846133595
 30
0.0
 10
33.19093372225777
 20
-1.38437438744235
 30
0.0
 10
33.33750000000003
 20
-1.389062499999996
 30
0.0
  0
SPLINE
  5
BD
330
1F
100
AcDbEntity
  8
0
  6
Continuous
 62
     1
370
    25
100
AcDbSpline
210
0.0
220
0.0
230
1.0
 70
     8
 71
     3
 72
    12
 73
     8
 74
     0
 42
0.000000001
 43
0.00000001
 40
0.0
 40
0.0
 40
0.0
 40
0.0
 40
0.1526908121458353
 40
0.424571846708852
 40
0.6963341986336659
 40
0.8485976174544559
 40
1.0
 40
1.0
 40
1.0
 40
1.0
 10
29.88306612953545
 20
-0.1286340768350756
 30
0.0
 10
29.69523022243846
 20
-0.0537286362227215
 30
0.0
 10
29.17293397662223
 20
0.1545533212990744
 30
0.0
 10
28.31652676165589
 20
0.494885619509277
 30
0.0
 10
27.46062651028141
 20
0.7577829506179369
 30
0.0
 10
26.75293267208896
 20
0.9039017498885956
 30
0.0
 10
26.37979154679566
 20
0.9399573331421937
 30
0.0
 10
26.19375000000002
 20
0.9579340074469781
 30
0.0
  0
SPLINE
  5
BE
330
1F
100
AcDbEntity
  8
외형선
  6
Continuous
370
    15
100
AcDbSpline
210
0.0
220
0.0
230
1.0
 70
    24
 71
     3
 72
    10
 73
     6
 74
     0
 42
0.000000001
 43
0.00000001
 40
0.0
 40
0.0
 40
0.0
 40
0.0
 40
0.5
 40
0.5
 40
1.0
 40
1.0
 40
1.0
 40
1.0
 10
26.19375000000002
 20
1.377114062047601
 30
0.0
 10
26.19375000000002
 20
1.311631937585427
 30
0.0
 10
26.19375000000002
 20
1.238624940048357
 30
0.0
 10
26.19375000000002
 20
1.093533523648737
 30
0.0
 10
26.19375000000002
 20
1.021838390396811
 30
0.0
 10
26.19375000000002
 20
0.9579340074469787
 30
0.0
  0
LINE
  5
BF
330
1F
100
AcDbEntity
  8
0
  6
Continuous
 62
     1
370
    25
100
AcDbLine
 10
33.33750000000003
 20
-1.389062499999996
 30
0.0
 11
33.33750000000002
 21
-1.318138176167437
 31
0.0
  0
SPLINE
  5
C0
330
1F
100
AcDbEntity
  8
0
  6
Continuous
 62
     1
370
    25
100
AcDbSpline
210
0.0
220
0.0
230
1.0
 70
     8
 71
     3
 72
     8
 73
     4
 74
     0
 42
0.000000001
 43
0.00000001
 40
0.0
 40
0.0
 40
0.0
 40
0.0
 40
1.0
 40
1.0
 40
1.0
 40
1.0
 10
32.47780511579325
 20
0.3887621309162965
 30
0.0
 10
32.42850288184702
 20
0.4471223139970688
 30
0.0
 10
32.38450384932706
 20
0.5033065058620655
 30
0.0
 10
32.34705227709811
 20
0.5568041665294565
 30
0.0
  0
LINE
  5
C1
330
1F
100
AcDbEntity
  8
0
  6
Continuous
 62
     1
370
    25
100
AcDbLine
 10
32.36466518332106
 20
0.571583149658195
 30
0.0
 11
33.33750000000002
 21
0.0000000000000009
 31
0.0
  0
LINE
  5
C2
330
1F
100
AcDbEntity
  8
0
  6
Continuous
 62
     1
370
    25
100
AcDbLine
 10
33.33750000000002
 20
0.0000000000000009
 30
0.0
 11
33.33750000000002
 21
-0.3712171547193028
 31
0.0
  0
SPLINE
  5
C3
330
1F
100
AcDbEntity
  8
0
  6
Continuous
 62
     1
370
    25
100
AcDbSpline
210
0.0
220
0.0
230
1.0
 70
     8
 71
     3
 72
    10
 73
     6
 74
     0
 42
0.000000001
 43
0.00000001
 40
0.0
 40
0.0
 40
0.0
 40
0.0
 40
0.5
 40
0.5
 40
1.0
 40
1.0
 40
1.0
 40
1.0
 10
33.33750000000002
 20
-0.3712171547193026
 30
0.0
 10
33.18868043403187
 20
-0.2542174094430067
 30
0.0
 10
33.04234885623704
 20
-0.1324167157505184
 30
0.0
 10
32.75477693759564
 20
0.1210089811809811
 30
0.0
 10
32.61218493484975
 20
0.2539670538550267
 30
0.0
 10
32.4778051157932
 20
0.388762130916317
 30
0.0
  0
SPLINE
  5
C4
330
1F
100
AcDbEntity
  8
0
  6
Continuous
 62
     1
370
    25
100
AcDbSpline
210
0.0
220
0.0
230
1.0
 70
     8
 71
     3
 72
    13
 73
     9
 74
     0
 42
0.000000001
 43
0.00000001
 40
0.0
 40
0.0
 40
0.0
 40
0.0
 40
0.1798803414008574
 40
0.3588895763274677
 40
0.5679830463321167
 40
0.7776157490337569
 40
0.9871547877148958
 40
1.0
 40
1.0
 40
1.0
 40
1.0
 10
32.47780510453649
 20
0.3887621358300405
 30
0.0
 10
32.28591061333359
 20
0.4694678077890275
 30
0.0
 10
31.90305091832162
 20
0.6304883183741068
 30
0.0
 10
31.29783571950992
 20
0.8420720330021416
 30
0.0
 10
30.66037956480213
 20
1.011496641898093
 30
0.0
 10
29.99018720303645
 20
1.101701163376595
 30
0.0
 10
29.52930508134517
 20
1.129430633177303
 30
0.0
 10
29.29217800448978
 20
1.102893028081809
 30
0.0
 10
29.27848122682896
 20
1.101360180456544
 30
0.0
  0
SPLINE
  5
C5
330
1F
100
AcDbEntity
  8
0
  6
Continuous
 62
     1
370
    25
100
AcDbSpline
210
0.0
220
0.0
230
1.0
 70
    24
 71
     3
 72
    10
 73
     6
 74
     0
 42
0.000000001
 43
0.00000001
 40
0.0
 40
0.0
 40
0.0
 40
0.0
 40
0.5
 40
0.5
 40
1.0
 40
1.0
 40
1.0
 40
1.0
 10
33.33750000000002
 20
-1.095931785973975
 30
0.0
 10
33.33750000000002
 20
-1.011920070038098
 30
0.0
 10
33.33750000000002
 20
-0.9057680456138292
 30
0.0
 10
33.33750000000002
 20
-0.6589748048202412
 30
0.0
 10
33.33750000000002
 20
-0.5185473701134597
 30
0.0
 10
33.33750000000002
 20
-0.3712171547193473
 30
0.0
  0
SPLINE
  5
C6
330
1F
100
AcDbEntity
  8
0
  6
Continuous
 62
     1
370
    25
100
AcDbSpline
210
0.0
220
0.0
230
1.0
 70
    24
 71
     3
 72
     8
 73
     4
 74
     0
 42
0.000000001
 43
0.00000001
 40
0.0
 40
0.0
 40
0.0
 40
0.0
 40
1.0
 40
1.0
 40
1.0
 40
1.0
 10
32.49204188518926
 20
0.6784648932163826
 30
0.0
 10
32.44624130942262
 20
0.6400336469828914
 30
0.0
 10
32.39763097456621
 20
0.5992447329334628
 30
0.0
 10
32.34705227709234
 20
0.5568041665377036
 30
0.0
  0
LINE
  5
C7
330
1F
100
AcDbEntity
  8
0
  6
Continuous
 62
     1
370
    25
100
AcDbLine
 10
33.33750000000002
 20
0.9723437499999995
 30
0.0
 11
32.83455268118695
 21
0.9305197961882617
 31
0.0
  0
SPLINE
  5
C8
330
1F
100
AcDbEntity
  8
0
  6
Continuous
 62
     1
370
    25
100
AcDbSpline
210
0.0
220
0.0
230
1.0
 70
     8
 71
     3
 72
     8
 73
     4
 74
     0
 42
0.000000001
 43
0.00000001
 40
0.0
 40
0.0
 40
0.0
 40
0.0
 40
1.0
 40
1.0
 40
1.0
 40
1.0
 10
33.33750000000002
 20
0.9723437500000004
 30
0.0
 10
33.0517665932217
 20
0.8946824946203157
 30
0.0
 10
32.76880283865871
 20
0.799237600276695
 30
0.0
 10
32.49204188520584
 20
0.6784648932236234
 30
0.0
  0
SPLINE
  5
C9
330
1F
100
AcDbEntity
  8
0
  6
Continuous
 62
     1
370
    25
100
AcDbSpline
210
0.0
220
0.0
230
1.0
 70
     8
 71
     3
 72
     9
 73
     5
 74
     0
 42
0.000000001
 43
0.00000001
 40
0.0
 40
0.0
 40
0.0
 40
0.0
 40
0.431590967988046
 40
1.0
 40
1.0
 40
1.0
 40
1.0
 10
27.17612061522349
 20
-1.151507650886026
 30
0.0
 10
27.03470371869534
 20
-1.16459182566244
 30
0.0
 10
26.707039548179
 20
-1.194907971612873
 30
0.0
 10
26.37977189178166
 20
-1.169489610932989
 30
0.0
 10
26.19375000000002
 20
-1.155041585143605
 30
0.0
  0
SPLINE
  5
CA
330
1F
100
AcDbEntity
  8
0
  6
Continuous
 62
     1
370
    25
100
AcDbSpline
210
0.0
220
0.0
230
1.0
 70
     8
 71
     3
 72
    14
 73
    10
 74
     0
 42
0.000000001
 43
0.00000001
 40
0.0
 40
0.0
 40
0.0
 40
0.0
 40
0.0974303372825608
 40
0.2568038990647256
 40
0.4158015432409863
 40
0.574692212093396
 40
0.7337474095943358
 40
0.8672413685114645
 40
1.0
 40
1.0
 40
1.0
 40
1.0
 10
30.40000616701552
 20
-1.034331540932737
 30
0.0
 10
30.26336428202007
 20
-1.056799135417739
 30
0.0
 10
29.90320778640394
 20
-1.116018532858808
 30
0.0
 10
29.32004564967655
 20
-1.118055182128949
 30
0.0
 10
28.65100550047843
 20
-1.047204368084172
 30
0.0
 10
27.98241315917779
 20
-0.8925137505404089
 30
0.0
 10
27.34960446386587
 20
-0.6815041319867992
 30
0.0
 10
26.75286187509903
 20
-0.4426485379485323
 30
0.0
 10
26.37977716744349
 20
-0.2744634170019266
 30
0.0
 10
26.19375000000002
 20
-0.1906031005273109
 30
0.0
  0
SPLINE
  5
CB
330
1F
100
AcDbEntity
  8
외형선
  6
Continuous
370
    15
100
AcDbSpline
210
0.0
220
0.0
230
1.0
 70
    24
 71
     3
 72
    10
 73
     6
 74
     0
 42
0.000000001
 43
0.00000001
 40
0.0
 40
0.0
 40
0.0
 40
0.0
 40
0.5
 40
0.5
 40
1.0
 40
1.0
 40
1.0
 40
1.0
 10
26.19375000000002
 20
-0.1906031005273127
 30
0.0
 10
26.19375000000002
 20
-0.3960199587253338
 30
0.0
 10
26.19375000000002
 20
-0.5979980296156493
 30
0.0
 10
26.19375000000003
 20
-0.9351170703640023
 30
0.0
 10
26.19375000000002
 20
-1.068806948081574
 30
0.0
 10
26.19375000000002
 20
-1.155041585143606
 30
0.0
  0
SPLINE
  5
CC
330
1F
100
AcDbEntity
  8
외형선
  6
Continuous
370
    15
100
AcDbSpline
210
0.0
220
0.0
230
1.0
 70
    24
 71
     3
 72
    10
 73
     6
 74
     0
 42
0.000000001
 43
0.00000001
 40
0.0
 40
0.0
 40
0.0
 40
0.0
 40
0.5
 40
0.5
 40
1.0
 40
1.0
 40
1.0
 40
1.0
 10
26.19375000000002
 20
0.9579340074469783
 30
0.0
 10
26.19375000000002
 20
0.8650736354986245
 30
0.0
 10
26.19375000000002
 20
0.7073342403381052
 30
0.0
 10
26.19375000000002
 20
0.2990779249644477
 30
0.0
 10
26.19375000000002
 20
0.0517242098960441
 30
0.0
 10
26.19375000000002
 20
-0.1906031005273108
 30
0.0
  0
LINE
  5
CD
330
1F
100
AcDbEntity
  8
0
  6
Continuous
 62
     1
370
    25
100
AcDbLine
 10
33.33750000000002
 20
0.0000000000000009
 30
0.0
 11
33.33750000000002
 21
0.9723437500000005
 31
0.0
  0
SPLINE
  5
CE
330
1F
100
AcDbEntity
  8
0
  6
Continuous
 62
     1
370
    25
100
AcDbSpline
210
0.0
220
0.0
230
1.0
 70
     8
 71
     3
 72
    10
 73
     6
 74
     0
 42
0.000000001
 43
0.00000001
 40
0.0
 40
0.0
 40
0.0
 40
0.0
 40
0.1783854471988217
 40
0.5892025955806424
 40
1.0
 40
1.0
 40
1.0
 40
1.0
 10
28.10566752701545
 20
-1.094532425375063
 30
0.0
 10
27.99197897348186
 20
-1.137228358740043
 30
0.0
 10
27.61646857237194
 20
-1.278251940845068
 30
0.0
 10
26.97916562257452
 20
-1.394418925400457
 30
0.0
 10
26.45555101324977
 20
-1.38064755673845
 30
0.0
 10
26.19374999999688
 20
-1.373762037875173
 30
0.0
  0
SPLINE
  5
CF
330
1F
100
AcDbEntity
  8
0
  6
Continuous
 62
     1
370
    25
100
AcDbSpline
210
0.0
220
0.0
230
1.0
 70
     8
 71
     3
 72
    12
 73
     8
 74
     0
 42
0.000000001
 43
0.00000001
 40
0.0
 40
0.0
 40
0.0
 40
0.0
 40
0.2563637076359713
 40
0.4398154714874436
 40
0.624237088777915
 40
0.76479034354023
 40
1.0
 40
1.0
 40
1.0
 40
1.0
 10
31.43575471224468
 20
0.9307763756287
 30
0.0
 10
31.59816435146716
 20
0.9988567730293203
 30
0.0
 10
31.87679299476236
 20
1.115654943713934
 30
0.0
 10
32.27334396011043
 20
1.233311083729838
 30
0.0
 10
32.59475919833211
 20
1.308634124921195
 30
0.0
 10
32.950254474679
 20
1.366954488365697
 30
0.0
 10
33.18841984191378
 20
1.379829403106617
 30
0.0
 10
33.33749999999997
 20
1.389062500000004
 30
0.0
  0
SPLINE
  5
D0
330
1F
100
AcDbEntity
  8
외형선
  6
Continuous
370
    15
100
AcDbSpline
210
0.0
220
0.0
230
1.0
 70
    24
 71
     3
 72
     8
 73
     4
 74
     0
 42
0.000000001
 43
0.00000001
 40
0.0
 40
0.0
 40
0.0
 40
0.0
 40
1.0
 40
1.0
 40
1.0
 40
1.0
 10
26.19375000000002
 20
-1.155041585143606
 30
0.0
 10
26.19375000000002
 20
-1.228597506208417
 30
0.0
 10
26.19375000000002
 20
-1.301975778420157
 30
0.0
 10
26.19375000000002
 20
-1.37376203786676
 30
0.0
  0
SPLINE
  5
D1
330
1F
100
AcDbEntity
  8
0
  6
Continuous
 62
     1
370
    25
100
AcDbSpline
210
0.0
220
0.0
230
1.0
 70
    24
 71
     3
 72
    10
 73
     6
 74
     0
 42
0.000000001
 43
0.00000001
 40
0.0
 40
0.0
 40
0.0
 40
0.0
 40
0.5
 40
0.5
 40
1.0
 40
1.0
 40
1.0
 40
1.0
 10
33.33750000000002
 20
0.9723437499999997
 30
0.0
 10
33.33750000000002
 20
1.03128480672141
 30
0.0
 10
33.33750000000002
 20
1.09977977316073
 30
0.0
 10
33.33750000000003
 20
1.243482028272189
 30
0.0
 10
33.33750000000002
 20
1.318322319417983
 30
0.0
 10
33.33749999999997
 20
1.389062500000004
 30
0.0
  0
LINE
  5
D2
330
1F
100
AcDbEntity
  8
중심선
 48
0.5
100
AcDbLine
 10
-36.33750000000001
 20
-0.0000000000000044
 30
0.0
 11
36.33750000000001
 21
0.0000000000000045
 31
0.0
  0
LINE
  5
D3
330
1F
100
AcDbEntity
  8
참조1
100
AcDbLine
 10
-15.78796167873052
 20
0.0010749287238892
 30
0.0
 11
-15.78796167873052
 21
-39.99892507127611
 31
0.0
  0
LINE
  5
D4
330
1F
100
AcDbEntity
  8
참조1
100
AcDbLine
 10
-15.78796167873052
 20
-39.99892507127611
 30
0.0
 11
-29.45992727542973
 21
-39.9989250712761
 31
0.0
  0
CIRCLE
  5
D5
330
1F
100
AcDbEntity
  8
해칭선
100
AcDbCircle
 10
-0.0000000000000018
 20
0.0
 30
0.0
 40
3.000000000000001
  0
INSERT
  5
D6
330
1F
100
AcDbEntity
  8
0
  6
Continuous
 62
     7
100
AcDbBlockReference
 66
     1
  2
블럭10
 10
-13.9402729321252
 20
-52.04717430164393
 30
0.0
  0
ATTRIB
  5
D7
330
D6
100
AcDbEntity
  8
FORMAT
 62
     2
100
AcDbText
 10
-23.12156822086648
 20
-49.97180738881174
 30
0.0
 40
4.233333333333333
  1
E1005007 [ 2 FLUTE ]
 41
0.75
  7
SLDTEXTSTYLE0
 11
-23.12156822086648
 21
-52.08847405547841
 31
0.0
100
AcDbAttribute
  2
AUTOATTR0
 70
     0
 74
     1
  0
SEQEND
  5
D8
330
D6
100
AcDbEntity
  8
0
  6
Continuous
 62
     7
  0
HATCH
  5
D9
330
1F
100
AcDbEntity
  8
중심선
100
AcDbHatch
 10
0.0
 20
0.0
 30
0.0
210
0.0
220
0.0
230
1.0
  2
SOLID
 70
     1
 71
     0
 91
        1
 92
        0
 93
        4
 72
     1
 10
-8.22536362774435
 20
-35.8
 11
-11.67163887158163
 21
-35.8
 72
     1
 10
-11.67163887158163
 20
-35.8
 11
-13.79986873078568
 21
-38.3363255805726
 72
     1
 10
-13.79986873078568
 20
-38.3363255805726
 11
-10.35356040183522
 21
-38.33628615127011
 72
     1
 10
-10.35356040183522
 20
-38.33628615127011
 11
-8.22536362774435
 21
-35.8
 97
        0
 75
     0
 76
     1
 98
        1
 10
15.78796167873053
 20
-0.0010749287238937
  0
HATCH
  5
DA
330
1F
100
AcDbEntity
  8
중심선
100
AcDbHatch
 10
0.0
 20
0.0
 30
0.0
210
0.0
220
0.0
230
1.0
  2
SOLID
 70
     1
 71
     0
 91
        1
 92
        0
 93
        4
 72
     1
 10
-3.212599636708372
 20
-35.8
 11
-6.658874880545653
 21
-35.8
 72
     1
 10
-6.658874880545653
 20
-35.8
 11
-11.19001288890307
 21
-41.20000000000002
 72
     1
 10
-11.19001288890307
 20
-41.20000000000002
 11
-7.743737645065789
 21
-41.20000000000002
 72
     1
 10
-7.743737645065789
 20
-41.20000000000002
 11
-3.212599636708372
 21
-35.8
 97
        0
 75
     0
 76
     1
 98
        1
 10
15.78796167873053
 20
-0.0010749287238937
  0
HATCH
  5
DB
330
1F
100
AcDbEntity
  8
중심선
100
AcDbHatch
 10
0.0
 20
0.0
 30
0.0
210
0.0
220
0.0
230
1.0
  2
SOLID
 70
     1
 71
     0
 91
        1
 92
        0
 93
        4
 72
     1
 10
1.800164354327496
 20
-35.79999999999998
 11
-1.646110889509618
 21
-35.8
 72
     1
 10
-1.646110889509618
 20
-35.8
 11
-8.694547791398868
 21
-44.20000000000002
 72
     1
 10
-8.694547791398868
 20
-44.20000000000002
 11
-5.248272547561587
 21
-44.20000000000002
 72
     1
 10
-5.248272547561587
 20
-44.20000000000002
 11
1.800164354327496
 21
-35.79999999999998
 97
        0
 75
     0
 76
     1
 98
        1
 10
15.78796167873053
 20
-0.0010749287238937
  0
HATCH
  5
DC
330
1F
100
AcDbEntity
  8
중심선
100
AcDbHatch
 10
0.0
 20
0.0
 30
0.0
210
0.0
220
0.0
230
1.0
  2
SOLID
 70
     1
 71
     0
 91
        1
 92
        0
 93
        6
 72
     3
 10
6.600054785339696
 20
-40.00000000005127
 11
3.960054785062283
 21
1.540882976769353E-10
 40
0.3939339440162628
 50
17.09539180608436
 51
320.0019657685086
 73
     0
 72
     1
 10
8.283054441040292
 20
-38.58789400463833
 11
10.58835631474133
 21
-36.65356729459038
 72
     3
 10
6.600054785286849
 20
-40.00000000000015
 11
6.600054785286829
 21
-1.278976924368180E-13
 40
0.636358354079598
 50
39.99873849337411
 51
368.4976242363724
 73
     1
 72
     1
 10
13.02538727718746
 20
-39.03999999993002
 11
5.280122092122772
 21
-39.03999999993
 72
     1
 10
5.280122092122772
 20
-39.03999999993
 11
5.280097047676838
 21
-40.95999999992991
 72
     1
 10
5.280097047676838
 20
-40.95999999992991
 11
9.721476817148876
 21
-40.95999999992988
 97
        0
 75
     0
 76
     1
 98
        1
 10
15.78796167873053
 20
-0.0010749287238937
  0
DIMENSION
  5
DD
330
1F
100
AcDbEntity
  8
치수문자_일반주서
100
AcDbDimension
  2
_D
 10
-46.33749999999999
 20
-2.381250000000095
 30
0.0
 11
-46.3375
 21
0.0000000000000043
 31
0.0
 70
   160
  1
%%c<>
 71
     2
 42
4.762500000000005
 52
-270.0
  3
SLDDIMSTYLE0
100
AcDbAlignedDimension
 13
-21.49085583936528
 23
2.381250000000003
 33
0.0
 14
-21.49085583936528
 24
-2.381250000000001
 34
0.0
 50
90.0000000000002
100
AcDbRotatedDimension
1001
ACAD
1000
DSTYLE
1002
{
1070
   171
1070
     6
1070
   273
1070
     7
1002
}
  0
DIMENSION
  5
F2
330
1F
100
AcDbEntity
  8
치수문자_일반주서
100
AcDbDimension
  2
_D_1
 10
52.33750000000013
 20
1.389062500000076
 30
0.0
 11
52.33750000000007
 21
22.43056250000007
 31
0.0
 70
   160
  1
%%c<>
 71
     2
 42
2.778125
 52
-270.0
  3
SLDDIMSTYLE0
100
AcDbAlignedDimension
 13
33.33750000000003
 23
-1.389062499999996
 33
0.0
 14
33.33749999999997
 24
1.389062500000004
 34
0.0
 50
90.0000000000002
100
AcDbRotatedDimension
1001
ACAD
1000
DSTYLE
1002
{
1070
   171
1070
     6
1070
   273
1070
     7
1002
}
  0
DIMENSION
  5
106
330
1F
100
AcDbEntity
  8
치수문자_일반주서
100
AcDbDimension
  2
_D_2
 10
26.19375000000002
 20
15.37862659212398
 30
0.0
 11
-4.922432723084199
 21
15.37862659212398
 31
0.0
 70
   160
  1
<>
 71
     2
 42
7.143749999999951
  3
SLDDIMSTYLE0
100
AcDbAlignedDimension
 13
33.33749999999997
 23
1.389062500000004
 33
0.0
 14
26.19375000000002
 24
1.377114062047603
 34
0.0
100
AcDbRotatedDimension
1001
ACAD
1000
DSTYLE
1002
{
1070
   171
1070
     6
1070
   273
1070
     7
1002
}
  0
DIMENSION
  5
11B
330
1F
100
AcDbEntity
  8
치수문자_일반주서
100
AcDbDimension
  2
_D_3
 10
33.33749999999997
 20
29.0909988401575
 30
0.0
 11
1.455414834140697
 21
29.0909988401575
 31
0.0
 70
   160
  1
<>
 71
     2
 42
66.67499999999998
  3
SLDDIMSTYLE0
100
AcDbAlignedDimension
 13
-33.33750000000001
 23
1.389062499999996
 33
0.0
 14
33.33749999999997
 24
1.389062500000004
 34
0.0
100
AcDbRotatedDimension
1001
ACAD
1000
DSTYLE
1002
{
1070
   171
1070
     6
1070
   273
1070
     7
1002
}
  0
LINE
  5
12F
330
1F
100
AcDbEntity
  8
참조1
100
AcDbLine
 10
68.51241335422453
 20
7.441074928723896
 30
0.0
 11
68.51241335422453
 21
-7.438925071276109
 31
0.0
  0
LINE
  5
130
330
1F
100
AcDbEntity
  8
참조1
100
AcDbLine
 10
81.21241335422454
 20
5.441074928723896
 30
0.0
 11
68.51241335422453
 21
5.441074928723896
 31
0.0
  0
SOLID
  5
131
330
1F
100
AcDbEntity
  8
참조1
100
AcDbTrace
 10
68.51241335422453
 20
5.441074928723896
 30
0.0
 11
74.86241335422453
 21
4.425074928723896
 31
0.0
 12
74.86241335422453
 22
6.457074928723896
 32
0.0
 13
74.86241335422453
 23
6.457074928723896
 33
0.0
  0
LINE
  5
132
330
1F
100
AcDbEntity
  8
참조1
100
AcDbLine
 10
81.21241335422454
 20
-5.438925071276109
 30
0.0
 11
68.51241335422453
 21
-5.438925071276109
 31
0.0
  0
SOLID
  5
133
330
1F
100
AcDbEntity
  8
참조1
100
AcDbTrace
 10
68.51241335422453
 20
-5.438925071276109
 30
0.0
 11
74.86241335422453
 21
-6.454925071276109
 31
0.0
 12
74.86241335422453
 22
-4.422925071276109
 32
0.0
 13
74.86241335422453
 23
-4.422925071276109
 33
0.0
  0
MTEXT
  5
134
330
1F
100
AcDbEntity
  8
참조1
100
AcDbMText
 10
77.89676348685053
 20
11.01136670591222
 30
0.0
 40
3.5
 41
0.0
 71
     1
 72
     1
  1
A
  7
SLDTEXTSTYLE0
 73
     1
 44
1.0
  0
MTEXT
  5
135
330
1F
100
AcDbEntity
  8
참조1
100
AcDbMText
 10
77.89676348685053
 20
0.1313667059122192
 30
0.0
 40
3.5
 41
0.0
 71
     1
 72
     1
  1
A
  7
SLDTEXTSTYLE0
 73
     1
 44
1.0
  0
INSERT
  5
13C
330
1F
100
AcDbEntity
  8
해칭선
100
AcDbBlockReference
  2
SW_DOWELSYMBOL_0
 10
-0.0000000000000018
 20
0.0
 30
0.0
  0
LINE
  5
454
330
1F
100
AcDbEntity
  8
외형선
  6
Continuous
370
    15
100
AcDbLine
 10
-21.49085583936528
 20
2.381250000000003
 30
0.0
 11
-25.19375000000002
 21
1.389062500000003
 31
0.0
  0
LINE
  5
455
330
1F
100
AcDbEntity
  8
외형선
  6
Continuous
370
    15
100
AcDbLine
 10
-25.19375000000002
 20
-1.389062499999996
 30
0.0
 11
-21.49085583936528
 21
-2.38125
 31
0.0
  0
LINE
  5
456
330
1F
100
AcDbEntity
  8
외형선
  6
Continuous
370
    15
100
AcDbLine
 10
-25.30371138550541
 20
-1.389062499999996
 30
0.0
 11
-25.19375000000002
 21
-1.389062499999996
 31
0.0
  0
LINE
  5
457
330
1F
100
AcDbEntity
  8
외형선
  6
Continuous
370
    15
100
AcDbLine
 10
-26.19375000000002
 20
-1.389062499999996
 30
0.0
 11
-25.87763016793943
 21
-1.389062499999996
 31
0.0
  0
LINE
  5
458
330
1F
100
AcDbEntity
  8
외형선
  6
Continuous
370
    15
100
AcDbLine
 10
-25.87763016793943
 20
1.389062500000003
 30
0.0
 11
-26.19375000000002
 21
1.389062500000003
 31
0.0
  0
LINE
  5
459
330
1F
100
AcDbEntity
  8
외형선
  6
Continuous
370
    15
100
AcDbLine
 10
-25.19375000000002
 20
1.389062500000003
 30
0.0
 11
-25.30371138550541
 21
1.389062500000003
 31
0.0
  0
LINE
  5
45A
330
1F
100
AcDbEntity
  8
0
  6
Continuous
 62
     1
370
    25
100
AcDbLine
 10
-29.73938411427255
 20
-0.3559987446992089
 30
0.0
 11
-29.35272886813317
 21
-0.5486435707481462
 31
0.0
  0
LINE
  5
45B
330
1F
100
AcDbEntity
  8
0
  6
Continuous
 62
     1
370
    25
100
AcDbLine
 10
-26.55089847251421
 20
-1.389062499999996
 30
0.0
 11
-26.19375000000002
 21
-1.389062499999996
 31
0.0
  0
SPLINE
  5
45C
330
1F
100
AcDbEntity
  8
0
  6
Continuous
 62
     1
370
    25
100
AcDbSpline
210
0.0
220
0.0
230
1.0
 70
     8
 71
     3
 72
    10
 73
     6
 74
     0
 42
0.000000001
 43
0.00000001
 40
0.0
 40
0.0
 40
0.0
 40
0.0
 40
0.4652728742583976
 40
0.9113805070871797
 40
1.0
 40
1.0
 40
1.0
 40
1.0
 10
-29.27874458974327
 20
-1.103800428033969
 30
0.0
 10
-29.09675349536994
 20
-1.096491602324791
 30
0.0
 10
-28.74026777472761
 20
-1.082175011675352
 30
0.0
 10
-28.34948209821863
 20
-1.082875960343339
 30
0.0
 10
-28.14032998128755
 20
-1.092875257453789
 30
0.0
 10
-28.10566752701544
 20
-1.094532425375059
 30
0.0
  0
SPLINE
  5
45D
330
1F
100
AcDbEntity
  8
0
  6
Continuous
 62
     1
370
    25
100
AcDbSpline
210
0.0
220
0.0
230
1.0
 70
     8
 71
     3
 72
    17
 73
    13
 74
     0
 42
0.000000001
 43
0.00000001
 40
0.0
 40
0.0
 40
0.0
 40
0.0
 40
0.1330398237401093
 40
0.2238262172544111
 40
0.2798898025811026
 40
0.3338238389890656
 40
0.3901252701462435
 40
0.4563025884095899
 40
0.5793370660166893
 40
0.6956825761669435
 40
0.8263552395914656
 40
1.0
 40
1.0
 40
1.0
 40
1.0
 10
-32.83999088527105
 20
-0.9516605604304565
 30
0.0
 10
-32.73085636497774
 20
-0.9430865400763458
 30
0.0
 10
-32.54724843343953
 20
-0.928661607085813
 30
0.0
 10
-32.31885100181799
 20
-0.9191148713878426
 30
0.0
 10
-32.15536220569493
 20
-0.915151294265636
 30
0.0
 10
-32.01994788997396
 20
-0.9138184455568371
 30
0.0
 10
-31.87628063851034
 20
-0.914422431935295
 30
0.0
 10
-31.67650459955709
 20
-0.9184342835466403
 30
0.0
 10
-31.42805678244096
 20
-0.9295961080480296
 30
0.0
 10
-31.12647911743809
 20
-0.9520508394120512
 30
0.0
 10
-30.78476708672594
 20
-0.9873558328352153
 30
0.0
 10
-30.53656960267267
 20
-1.023885197762242
 30
0.0
 10
-30.3949471082733
 20
-1.044729002039811
 30
0.0
  0
SPLINE
  5
45E
330
1F
100
AcDbEntity
  8
0
  6
Continuous
 62
     1
370
    25
100
AcDbSpline
210
0.0
220
0.0
230
1.0
 70
     8
 71
     3
 72
    11
 73
     7
 74
     0
 42
0.000000001
 43
0.00000001
 40
0.0
 40
0.0
 40
0.0
 40
0.0
 40
0.2656366914472044
 40
0.4914851522804639
 40
0.74039584678224
 40
0.9999999999999999
 40
0.9999999999999999
 40
0.9999999999999999
 40
0.9999999999999999
 10
-27.17467476244289
 20
1.157500924639285
 30
0.0
 10
-27.36147948310773
 20
1.140485047665043
 30
0.0
 10
-27.70710849272413
 20
1.109002006522237
 30
0.0
 10
-28.22580080092703
 20
1.086700443189356
 30
0.0
 10
-28.74030393323787
 20
1.081191191466287
 30
0.0
 10
-29.09676571600167
 20
1.096159096798983
 30
0.0
 10
-29.27874458974327
 20
1.103800428033976
 30
0.0
  0
SPLINE
  5
45F
330
1F
100
AcDbEntity
  8
0
  6
Continuous
 62
     1
370
    25
100
AcDbSpline
210
0.0
220
0.0
230
1.0
 70
     8
 71
     3
 72
    13
 73
     9
 74
     0
 42
0.000000001
 43
0.00000001
 40
0.0
 40
0.0
 40
0.0
 40
0.0
 40
0.3046768675967244
 40
0.5132114060898918
 40
0.6442434057254478
 40
0.7708268576331037
 40
0.9029074650303707
 40
1.0
 40
1.0
 40
1.0
 40
1.0
 10
-30.3949471082733
 20
1.044729002039814
 30
0.0
 10
-30.50036746580227
 20
1.0289995929092
 30
0.0
 10
-30.67794225296845
 20
1.002504269386412
 30
0.0
 10
-30.89961665931054
 20
0.9759190206833473
 30
0.0
 10
-31.06040707540424
 20
0.9593312462542208
 30
0.0
 10
-31.19487609491236
 20
0.9473593969587327
 30
0.0
 10
-31.31764737273241
 20
0.9378228788321131
 30
0.0
 10
-31.396709210626
 20
0.9331224554326966
 30
0.0
 10
-31.43020490816352
 20
0.9311310526942848
 30
0.0
  0
LINE
  5
460
330
1F
100
AcDbEntity
  8
0
  6
Continuous
 62
     1
370
    25
100
AcDbLine
 10
-26.19375000000002
 20
1.389062500000003
 30
0.0
 11
-26.55089847251421
 21
1.389062500000003
 31
0.0
  0
LINE
  5
461
330
1F
100
AcDbEntity
  8
외형선
  6
Continuous
370
    15
100
AcDbLine
 10
-21.49085583936528
 20
-2.38125
 30
0.0
 11
-21.49085583936528
 21
2.381249999999996
 31
0.0
  0
LINE
  5
462
330
1F
100
AcDbEntity
  8
외형선
  6
Continuous
370
    15
100
AcDbLine
 10
-25.19375000000002
 20
-1.389062499999996
 30
0.0
 11
-25.19375000000002
 21
1.389062500000003
 31
0.0
  0
LINE
  5
463
330
1F
100
AcDbEntity
  8
외형선
  6
Continuous
370
    15
100
AcDbLine
 10
-26.19375000000002
 20
-1.389062499999996
 30
0.0
 11
-26.19375000000002
 21
-1.377114062058619
 31
0.0
  0
SPLINE
  5
464
330
1F
100
AcDbEntity
  8
외형선
  6
Continuous
370
    15
100
AcDbSpline
210
0.0
220
0.0
230
1.0
 70
     8
 71
     3
 72
    10
 73
     6
 74
     0
 42
0.000000001
 43
0.00000001
 40
0.0
 40
0.0
 40
0.0
 40
0.0
 40
0.5
 40
0.5
 40
1.0
 40
1.0
 40
1.0
 40
1.0
 10
-25.30371138550541
 20
-1.349718173931793
 30
0.0
 10
-25.45306485609146
 20
-1.369997783386603
 30
0.0
 10
-25.60287928811618
 20
-1.382504275446822
 30
0.0
 10
-25.89585506071219
 20
-1.391635246350122
 30
0.0
 10
-26.04433816390321
 20
-1.388346964265326
 30
0.0
 10
-26.19374999999903
 20
-1.377114062058427
 30
0.0
  0
SPLINE
  5
465
330
1F
100
AcDbEntity
  8
외형선
  6
Continuous
370
    15
100
AcDbSpline
210
0.0
220
0.0
230
1.0
 70
     8
 71
     3
 72
    10
 73
     6
 74
     0
 42
0.000000001
 43
0.00000001
 40
0.0
 40
0.0
 40
0.0
 40
0.0
 40
0.5
 40
0.5
 40
1.0
 40
1.0
 40
1.0
 40
1.0
 10
-26.19375000000002
 20
1.373762037875442
 30
0.0
 10
-26.04433140395108
 20
1.361057904686083
 30
0.0
 10
-25.89584210405712
 20
1.340479304205397
 30
0.0
 10
-25.60285247875683
 20
1.284670823692485
 30
0.0
 10
-25.45303098336134
 20
1.249073923389938
 30
0.0
 10
-25.30367084164345
 20
1.206550836943735
 30
0.0
  0
SPLINE
  5
466
330
1F
100
AcDbEntity
  8
외형선
  6
Continuous
370
    15
100
AcDbSpline
210
0.0
220
0.0
230
1.0
 70
     8
 71
     3
 72
    10
 73
     6
 74
     0
 42
0.000000001
 43
0.00000001
 40
0.0
 40
0.0
 40
0.0
 40
0.0
 40
0.3842043855233663
 40
0.7715113373658204
 40
1.0
 40
1.0
 40
1.0
 40
1.0
 10
-25.30502209897375
 20
1.349895946600343
 30
0.0
 10
-25.37846598050359
 20
1.358660378813225
 30
0.0
 10
-25.52594682506296
 20
1.376260018673141
 30
0.0
 10
-25.71668841916627
 20
1.388165876512568
 30
0.0
 10
-25.83407450080679
 20
1.387754651028499
 30
0.0
 10
-25.87763016793943
 20
1.387602067348643
 30
0.0
  0
SPLINE
  5
467
330
1F
100
AcDbEntity
  8
외형선
  6
Continuous
370
    15
100
AcDbSpline
210
0.0
220
0.0
230
1.0
 70
     8
 71
     3
 72
     8
 73
     4
 74
     0
 42
0.000000001
 43
0.00000001
 40
0.0
 40
0.0
 40
0.0
 40
0.0
 40
0.0000767894439933
 40
0.0000767894439933
 40
0.0000767894439933
 40
0.0000767894439933
 10
-25.30371138550541
 20
1.365930642322835
 30
0.0
 10
-25.30371138550541
 20
1.361278810576769
 30
0.0
 10
-25.30408669693855
 20
1.355927354386415
 30
0.0
 10
-25.30502209897719
 20
1.349895946600343
 30
0.0
  0
LINE
  5
468
330
1F
100
AcDbEntity
  8
외형선
  6
Continuous
370
    15
100
AcDbLine
 10
-25.30371138550541
 20
1.389062500000003
 30
0.0
 11
-25.30371138550541
 21
1.365930642322835
 31
0.0
  0
LINE
  5
469
330
1F
100
AcDbEntity
  8
외형선
  6
Continuous
370
    15
100
AcDbLine
 10
-25.30371138550541
 20
1.20652133808038
 30
0.0
 11
-25.30371138550541
 21
-1.389062499999996
 31
0.0
  0
SPLINE
  5
46A
330
1F
100
AcDbEntity
  8
외형선
  6
Continuous
370
    15
100
AcDbSpline
210
0.0
220
0.0
230
1.0
 70
    24
 71
     3
 72
    10
 73
     6
 74
     0
 42
0.000000001
 43
0.00000001
 40
0.0
 40
0.0
 40
0.0
 40
0.0
 40
0.5
 40
0.5
 40
1.0
 40
1.0
 40
1.0
 40
1.0
 10
-26.19375000000002
 20
0.1906031005273171
 30
0.0
 10
-26.19375000000002
 20
0.3960199587253378
 30
0.0
 10
-26.19375000000002
 20
0.5979980296156505
 30
0.0
 10
-26.19375000000002
 20
0.9351170703640058
 30
0.0
 10
-26.19375000000002
 20
1.068806948081578
 30
0.0
 10
-26.19375000000002
 20
1.155041585143609
 30
0.0
  0
SPLINE
  5
46B
330
1F
100
AcDbEntity
  8
외형선
  6
Continuous
370
    15
100
AcDbSpline
210
0.0
220
0.0
230
1.0
 70
     8
 71
     3
 72
    10
 73
     6
 74
     0
 42
0.000000001
 43
0.00000001
 40
0.0
 40
0.0
 40
0.0
 40
0.0
 40
0.5
 40
0.5
 40
1.0
 40
1.0
 40
1.0
 40
1.0
 10
-26.19375000000002
 20
1.155041585143609
 30
0.0
 10
-26.04433140395108
 20
1.139913980858642
 30
0.0
 10
-25.89584210405712
 20
1.118175207111262
 30
0.0
 10
-25.60285247875683
 20
1.062568616679227
 30
0.0
 10
-25.45303098336134
 20
1.028340153591399
 30
0.0
 10
-25.30367084164345
 20
0.9884423332131164
 30
0.0
  0
SPLINE
  5
46C
330
1F
100
AcDbEntity
  8
외형선
  6
Continuous
370
    15
100
AcDbSpline
210
0.0
220
0.0
230
1.0
 70
     8
 71
     3
 72
    10
 73
     6
 74
     0
 42
0.000000001
 43
0.00000001
 40
0.0
 40
0.0
 40
0.0
 40
0.0
 40
0.5
 40
0.5
 40
1.0
 40
1.0
 40
1.0
 40
1.0
 10
-26.19375000000002
 20
0.1906031005273136
 30
0.0
 10
-26.04433569734417
 20
0.1229588061236605
 30
0.0
 10
-25.89585033311414
 20
0.0543639630660714
 30
0.0
 10
-25.60286950597018
 20
-0.0820494306215117
 30
0.0
 10
-25.4530524966743
 20
-0.1506904039428981
 30
0.0
 10
-25.303696591929
 20
-0.2180091718920799
 30
0.0
  0
SPLINE
  5
46D
330
1F
100
AcDbEntity
  8
외형선
  6
Continuous
370
    15
100
AcDbSpline
210
0.0
220
0.0
230
1.0
 70
    24
 71
     3
 72
    10
 73
     6
 74
     0
 42
0.000000001
 43
0.00000001
 40
0.0
 40
0.0
 40
0.0
 40
0.0
 40
0.5
 40
0.5
 40
1.0
 40
1.0
 40
1.0
 40
1.0
 10
-26.19375000000002
 20
-0.9579340074469748
 30
0.0
 10
-26.19375000000002
 20
-0.86507363549862
 30
0.0
 10
-26.19375000000002
 20
-0.7073342403381012
 30
0.0
 10
-26.19375000000002
 20
-0.2990779249644454
 30
0.0
 10
-26.19375000000002
 20
-0.0517242098960388
 30
0.0
 10
-26.19375000000002
 20
0.1906031005273136
 30
0.0
  0
SPLINE
  5
46E
330
1F
100
AcDbEntity
  8
외형선
  6
Continuous
370
    15
100
AcDbSpline
210
0.0
220
0.0
230
1.0
 70
     8
 71
     3
 72
    10
 73
     6
 74
     0
 42
0.000000001
 43
0.00000001
 40
0.0
 40
0.0
 40
0.0
 40
0.0
 40
0.5
 40
0.5
 40
1.0
 40
1.0
 40
1.0
 40
1.0
 10
-26.19375000000002
 20
-0.9579340074469748
 30
0.0
 10
-26.04433653680093
 20
-0.9682387988928361
 30
0.0
 10
-25.89585194208203
 20
-0.973011748556209
 30
0.0
 10
-25.60287283517809
 20
-0.971524887755772
 30
0.0
 10
-25.45305670301778
 20
-0.9652335597221494
 30
0.0
 10
-25.30370162670101
 20
-0.9534487408660673
 30
0.0
  0
SPLINE
  5
46F
330
1F
100
AcDbEntity
  8
외형선
  6
Continuous
370
    15
100
AcDbSpline
210
0.0
220
0.0
230
1.0
 70
    24
 71
     3
 72
     8
 73
     4
 74
     0
 42
0.000000001
 43
0.00000001
 40
0.0
 40
0.0
 40
0.0
 40
0.0
 40
1.0
 40
1.0
 40
1.0
 40
1.0
 10
-26.19375000000002
 20
1.155041585143609
 30
0.0
 10
-26.19375000000002
 20
1.228597506208421
 30
0.0
 10
-26.19375000000002
 20
1.301975778420162
 30
0.0
 10
-26.19375000000002
 20
1.373762037866767
 30
0.0
  0
SPLINE
  5
470
330
1F
100
AcDbEntity
  8
외형선
  6
Continuous
370
    15
100
AcDbSpline
210
0.0
220
0.0
230
1.0
 70
    24
 71
     3
 72
    10
 73
     6
 74
     0
 42
0.000000001
 43
0.00000001
 40
0.0
 40
0.0
 40
0.0
 40
0.0
 40
0.5
 40
0.5
 40
1.0
 40
1.0
 40
1.0
 40
1.0
 10
-26.19375000000002
 20
-1.377114062047598
 30
0.0
 10
-26.19375000000002
 20
-1.311631937585423
 30
0.0
 10
-26.19375000000002
 20
-1.238624940048352
 30
0.0
 10
-26.19375000000002
 20
-1.093533523648732
 30
0.0
 10
-26.19375000000002
 20
-1.021838390396807
 30
0.0
 10
-26.19375000000002
 20
-0.9579340074469748
 30
0.0
  0
SPLINE
  5
471
330
1F
100
AcDbEntity
  8
0
  6
Continuous
 62
     1
370
    25
100
AcDbSpline
210
0.0
220
0.0
230
1.0
 70
     8
 71
     3
 72
    16
 73
    12
 74
     0
 42
0.000000001
 43
0.00000001
 40
0.0
 40
0.0
 40
0.0
 40
0.0
 40
0.1179561386756739
 40
0.235893322244347
 40
0.3538134645944433
 40
0.4717185015375948
 40
0.5896103883964128
 40
0.7053841368374538
 40
0.8211422235188883
 40
0.9368896850832551
 40
1.0
 40
1.0
 40
1.0
 40
1.0
 10
-33.33750000000001
 20
1.318138176167439
 30
0.0
 10
-33.0706258363619
 20
1.255397802917544
 30
0.0
 10
-32.53692039475811
 20
1.129927138559315
 30
0.0
 10
-31.73645568198449
 20
0.7791379767324514
 30
0.0
 10
-30.93612627795403
 20
0.3533847090327541
 30
0.0
 10
-30.13592529433677
 20
-0.1139909510860114
 30
0.0
 10
-29.34057917336867
 20
-0.5648866535721829
 30
0.0
 10
-28.55017257095093
 20
-0.9542525944463897
 30
0.0
 10
-27.76462386792579
 20
-1.233307852516523
 30
0.0
 10
-27.09821523735826
 20
-1.381740845853271
 30
0.0
 10
-26.69365007744267
 20
-1.373609134101644
 30
0.0
 10
-26.55089847251421
 20
-1.370739843766304
 30
0.0
  0
SPLINE
  5
472
330
1F
100
AcDbEntity
  8
0
  6
Continuous
 62
     1
370
    25
100
AcDbSpline
210
0.0
220
0.0
230
1.0
 70
     8
 71
     3
 72
    13
 73
     9
 74
     0
 42
0.000000001
 43
0.00000001
 40
0.0
 40
0.0
 40
0.0
 40
0.0
 40
0.1853776120602986
 40
0.3703025622189035
 40
0.555082803580064
 40
0.7400297365512751
 40
0.9254470329069895
 40
1.0
 40
1.0
 40
1.0
 40
1.0
 10
-33.33750000000001
 20
1.095931785973979
 30
0.0
 10
-33.11391910526169
 20
1.046958223706445
 30
0.0
 10
-32.66730326387372
 20
0.9491306846249948
 30
0.0
 10
-31.998181413075
 20
0.7066521248047529
 30
0.0
 10
-31.32961642512788
 20
0.4154724996173101
 30
0.0
 10
-30.66042120429969
 20
0.0923036536102565
 30
0.0
 10
-30.12375378312782
 20
-0.1767407651695713
 30
0.0
 10
-29.8102538448567
 20
-0.3197633412223787
 30
0.0
 10
-29.72034990633878
 20
-0.3607786376050178
 30
0.0
  0
LINE
  5
473
330
1F
100
AcDbEntity
  8
0
  6
Continuous
 62
     1
370
    25
100
AcDbLine
 10
-33.33750000000001
 20
1.318138176167439
 30
0.0
 11
-33.33750000000001
 21
1.095931785973979
 31
0.0
  0
SPLINE
  5
474
330
1F
100
AcDbEntity
  8
0
  6
Continuous
 62
     1
370
    25
100
AcDbSpline
210
0.0
220
0.0
230
1.0
 70
     8
 71
     3
 72
    38
 73
    34
 74
     0
 42
0.000000001
 43
0.00000001
 40
0.0
 40
0.0
 40
0.0
 40
0.0
 40
0.0625
 40
0.0625
 40
0.125
 40
0.125
 40
0.1875
 40
0.1875
 40
0.2500000000000001
 40
0.2500000000000001
 40
0.3125000000000002
 40
0.3125000000000002
 40
0.3750000000000002
 40
0.3750000000000002
 40
0.4375000000000002
 40
0.4375000000000002
 40
0.5000000000000002
 40
0.5000000000000002
 40
0.5625000000000002
 40
0.5625000000000002
 40
0.6250000000000002
 40
0.6250000000000002
 40
0.6875000000000001
 40
0.6875000000000001
 40
0.7500000000000001
 40
0.7500000000000001
 40
0.8125000000000001
 40
0.8125000000000001
 40
0.875
 40
0.875
 40
0.9375
 40
0.9375
 40
1.0
 40
1.0
 40
1.0
 40
1.0
 10
-26.19374999999965
 20
-1.377114062058359
 30
0.0
 10
-26.34371593820714
 20
-1.365839502008287
 30
0.0
 10
-26.49307085538766
 20
-1.346592654466479
 30
0.0
 10
-26.78687077452688
 20
-1.29328816080192
 30
0.0
 10
-26.93719413009546
 20
-1.258854222027319
 30
0.0
 10
-27.23703724468106
 20
-1.175890688491089
 30
0.0
 10
-27.38472801682232
 20
-1.127598935518231
 30
0.0
 10
-27.68004126958786
 20
-1.018777439169332
 30
0.0
 10
-27.83067883481863
 20
-0.9578223256213526
 30
0.0
 10
-28.13021287991825
 20
-0.8257893591105002
 30
0.0
 10
-28.2767413609624
 20
-0.7551348529391951
 30
0.0
 10
-28.57335863278246
 20
-0.6054786798222004
 30
0.0
 10
-28.72419852818516
 20
-0.526299029411588
 30
0.0
 10
-29.02320395270294
 20
-0.3632497054174187
 30
0.0
 10
-29.16907480514331
 20
-0.2798432687983968
 30
0.0
 10
-29.46678363784159
 20
-0.1096789957179019
 30
0.0
 10
-29.61771347771938
 20
-0.0230783425314222
 30
0.0
 10
-29.91597202234263
 20
0.1487132561228585
 30
0.0
 10
-30.06169150028072
 20
0.2335977866617732
 30
0.0
 10
-30.36027679119931
 20
0.4010785980206834
 30
0.0
 10
-30.51118396455263
 20
0.4832747596373622
 30
0.0
 10
-30.80847919035529
 20
0.6403790492440479
 30
0.0
 10
-30.95455391451051
 20
0.7152792721232594
 30
0.0
 10
-31.25379842902257
 20
0.8572034006504886
 30
0.0
 10
-31.40457038164524
 20
0.923774476387203
 30
0.0
 10
-31.70068818939802
 20
1.044824906058329
 30
0.0
 10
-31.84762392026207
 20
1.099587339310348
 30
0.0
 10
-32.14730881513921
 20
1.196546876775867
 30
0.0
 10
-32.29783333141384
 20
1.238420281467933
 30
0.0
 10
-32.59256246900642
 20
1.307039208434309
 30
0.0
 10
-32.74086288434989
 20
1.334151412437615
 30
0.0
 10
-33.04076823935523
 20
1.372877846133599
 30
0.0
 10
-33.19093372225777
 20
1.384374387442355
 30
0.0
 10
-33.33750000000001
 20
1.389062499999996
 30
0.0
  0
SPLINE
  5
475
330
1F
100
AcDbEntity
  8
0
  6
Continuous
 62
     1
370
    25
100
AcDbSpline
210
0.0
220
0.0
230
1.0
 70
     8
 71
     3
 72
    12
 73
     8
 74
     0
 42
0.000000001
 43
0.00000001
 40
0.0
 40
0.0
 40
0.0
 40
0.0
 40
0.1526908121458353
 40
0.424571846708852
 40
0.6963341986336659
 40
0.8485976174544559
 40
1.0
 40
1.0
 40
1.0
 40
1.0
 10
-29.88306612953545
 20
0.1286340768350783
 30
0.0
 10
-29.69523022243845
 20
0.0537286362227235
 30
0.0
 10
-29.17293397662223
 20
-0.1545533212990712
 30
0.0
 10
-28.31652676165589
 20
-0.4948856195092745
 30
0.0
 10
-27.4606265102814
 20
-0.757782950617932
 30
0.0
 10
-26.75293267208897
 20
-0.9039017498885918
 30
0.0
 10
-26.37979154679564
 20
-0.9399573331421912
 30
0.0
 10
-26.19375000000002
 20
-0.9579340074469748
 30
0.0
  0
SPLINE
  5
476
330
1F
100
AcDbEntity
  8
외형선
  6
Continuous
370
    15
100
AcDbSpline
210
0.0
220
0.0
230
1.0
 70
    24
 71
     3
 72
    10
 73
     6
 74
     0
 42
0.000000001
 43
0.00000001
 40
0.0
 40
0.0
 40
0.0
 40
0.0
 40
0.5
 40
0.5
 40
1.0
 40
1.0
 40
1.0
 40
1.0
 10
-26.19375000000002
 20
-1.377114062047598
 30
0.0
 10
-26.19375000000002
 20
-1.311631937585423
 30
0.0
 10
-26.19375000000002
 20
-1.238624940048356
 30
0.0
 10
-26.19375000000002
 20
-1.093533523648732
 30
0.0
 10
-26.19375000000002
 20
-1.021838390396807
 30
0.0
 10
-26.19375000000002
 20
-0.9579340074469748
 30
0.0
  0
LINE
  5
477
330
1F
100
AcDbEntity
  8
0
  6
Continuous
 62
     1
370
    25
100
AcDbLine
 10
-33.33750000000001
 20
1.389062499999996
 30
0.0
 11
-33.33750000000001
 21
1.318138176167439
 31
0.0
  0
SPLINE
  5
478
330
1F
100
AcDbEntity
  8
0
  6
Continuous
 62
     1
370
    25
100
AcDbSpline
210
0.0
220
0.0
230
1.0
 70
     8
 71
     3
 72
     8
 73
     4
 74
     0
 42
0.000000001
 43
0.00000001
 40
0.0
 40
0.0
 40
0.0
 40
0.0
 40
1.0
 40
1.0
 40
1.0
 40
1.0
 10
-32.47780511579325
 20
-0.3887621309162931
 30
0.0
 10
-32.42850288184704
 20
-0.4471223139970654
 30
0.0
 10
-32.38450384932705
 20
-0.5033065058620622
 30
0.0
 10
-32.3470522770981
 20
-0.5568041665294551
 30
0.0
  0
LINE
  5
479
330
1F
100
AcDbEntity
  8
0
  6
Continuous
 62
     1
370
    25
100
AcDbLine
 10
-32.36466518332105
 20
-0.5715831496581906
 30
0.0
 11
-33.33750000000001
 21
0.0000000000000015
 31
0.0
  0
LINE
  5
47A
330
1F
100
AcDbEntity
  8
0
  6
Continuous
 62
     1
370
    25
100
AcDbLine
 10
-33.33750000000001
 20
0.0000000000000015
 30
0.0
 11
-33.33750000000001
 21
0.3712171547193052
 31
0.0
  0
SPLINE
  5
47B
330
1F
100
AcDbEntity
  8
0
  6
Continuous
 62
     1
370
    25
100
AcDbSpline
210
0.0
220
0.0
230
1.0
 70
     8
 71
     3
 72
    10
 73
     6
 74
     0
 42
0.000000001
 43
0.00000001
 40
0.0
 40
0.0
 40
0.0
 40
0.0
 40
0.5
 40
0.5
 40
1.0
 40
1.0
 40
1.0
 40
1.0
 10
-33.33750000000001
 20
0.3712171547193052
 30
0.0
 10
-33.18868043403185
 20
0.2542174094430095
 30
0.0
 10
-33.04234885623706
 20
0.1324167157505208
 30
0.0
 10
-32.75477693759564
 20
-0.1210089811809801
 30
0.0
 10
-32.61218493484975
 20
-0.2539670538550233
 30
0.0
 10
-32.47780511579319
 20
-0.3887621309163144
 30
0.0
  0
SPLINE
  5
47C
330
1F
100
AcDbEntity
  8
0
  6
Continuous
 62
     1
370
    25
100
AcDbSpline
210
0.0
220
0.0
230
1.0
 70
     8
 71
     3
 72
    13
 73
     9
 74
     0
 42
0.000000001
 43
0.00000001
 40
0.0
 40
0.0
 40
0.0
 40
0.0
 40
0.1798803414008574
 40
0.3588895763274677
 40
0.5679830463321167
 40
0.7776157490337569
 40
0.9871547877148958
 40
1.0
 40
1.0
 40
1.0
 40
1.0
 10
-32.47780510453649
 20
-0.3887621358300372
 30
0.0
 10
-32.28591061333358
 20
-0.4694678077890252
 30
0.0
 10
-31.90305091832161
 20
-0.630488318374104
 30
0.0
 10
-31.29783571950992
 20
-0.8420720330021382
 30
0.0
 10
-30.66037956480213
 20
-1.01149664189809
 30
0.0
 10
-29.99018720303644
 20
-1.101701163376591
 30
0.0
 10
-29.52930508134517
 20
-1.129430633177302
 30
0.0
 10
-29.29217800448978
 20
-1.102893028081804
 30
0.0
 10
-29.27848122682897
 20
-1.10136018045654
 30
0.0
  0
SPLINE
  5
47D
330
1F
100
AcDbEntity
  8
0
  6
Continuous
 62
     1
370
    25
100
AcDbSpline
210
0.0
220
0.0
230
1.0
 70
    24
 71
     3
 72
    10
 73
     6
 74
     0
 42
0.000000001
 43
0.00000001
 40
0.0
 40
0.0
 40
0.0
 40
0.0
 40
0.5
 40
0.5
 40
1.0
 40
1.0
 40
1.0
 40
1.0
 10
-33.33750000000001
 20
1.095931785973979
 30
0.0
 10
-33.33750000000001
 20
1.011920070038099
 30
0.0
 10
-33.33750000000001
 20
0.9057680456138307
 30
0.0
 10
-33.33750000000001
 20
0.6589748048202445
 30
0.0
 10
-33.33750000000001
 20
0.5185473701134647
 30
0.0
 10
-33.33750000000001
 20
0.3712171547193513
 30
0.0
  0
SPLINE
  5
47E
330
1F
100
AcDbEntity
  8
0
  6
Continuous
 62
     1
370
    25
100
AcDbSpline
210
0.0
220
0.0
230
1.0
 70
    24
 71
     3
 72
     8
 73
     4
 74
     0
 42
0.000000001
 43
0.00000001
 40
0.0
 40
0.0
 40
0.0
 40
0.0
 40
1.0
 40
1.0
 40
1.0
 40
1.0
 10
-32.49204188518925
 20
-0.6784648932163811
 30
0.0
 10
-32.44624130942262
 20
-0.6400336469828879
 30
0.0
 10
-32.39763097456623
 20
-0.5992447329334588
 30
0.0
 10
-32.34705227709233
 20
-0.5568041665377009
 30
0.0
  0
LINE
  5
47F
330
1F
100
AcDbEntity
  8
0
  6
Continuous
 62
     1
370
    25
100
AcDbLine
 10
-33.33750000000001
 20
-0.9723437499999953
 30
0.0
 11
-32.83455268118695
 21
-0.9305197961882591
 31
0.0
  0
SPLINE
  5
480
330
1F
100
AcDbEntity
  8
0
  6
Continuous
 62
     1
370
    25
100
AcDbSpline
210
0.0
220
0.0
230
1.0
 70
     8
 71
     3
 72
     8
 73
     4
 74
     0
 42
0.000000001
 43
0.00000001
 40
0.0
 40
0.0
 40
0.0
 40
0.0
 40
1.0
 40
1.0
 40
1.0
 40
1.0
 10
-33.33750000000001
 20
-0.9723437499999953
 30
0.0
 10
-33.05176659322169
 20
-0.8946824946203144
 30
0.0
 10
-32.76880283865873
 20
-0.7992376002766924
 30
0.0
 10
-32.49204188520585
 20
-0.6784648932236216
 30
0.0
  0
SPLINE
  5
481
330
1F
100
AcDbEntity
  8
0
  6
Continuous
 62
     1
370
    25
100
AcDbSpline
210
0.0
220
0.0
230
1.0
 70
     8
 71
     3
 72
     9
 73
     5
 74
     0
 42
0.000000001
 43
0.00000001
 40
0.0
 40
0.0
 40
0.0
 40
0.0
 40
0.431590967988046
 40
1.0
 40
1.0
 40
1.0
 40
1.0
 10
-27.17612061522348
 20
1.15150765088603
 30
0.0
 10
-27.03470371869534
 20
1.164591825662443
 30
0.0
 10
-26.70703954817901
 20
1.194907971612876
 30
0.0
 10
-26.37977189178164
 20
1.169489610932993
 30
0.0
 10
-26.19375000000002
 20
1.155041585143609
 30
0.0
  0
SPLINE
  5
482
330
1F
100
AcDbEntity
  8
0
  6
Continuous
 62
     1
370
    25
100
AcDbSpline
210
0.0
220
0.0
230
1.0
 70
     8
 71
     3
 72
    14
 73
    10
 74
     0
 42
0.000000001
 43
0.00000001
 40
0.0
 40
0.0
 40
0.0
 40
0.0
 40
0.0974303372825608
 40
0.2568038990647256
 40
0.4158015432409863
 40
0.574692212093396
 40
0.7337474095943358
 40
0.8672413685114645
 40
1.0
 40
1.0
 40
1.0
 40
1.0
 10
-30.4000061670155
 20
1.034331540932738
 30
0.0
 10
-30.26336428202006
 20
1.056799135417742
 30
0.0
 10
-29.90320778640395
 20
1.116018532858811
 30
0.0
 10
-29.32004564967656
 20
1.118055182128953
 30
0.0
 10
-28.65100550047842
 20
1.047204368084175
 30
0.0
 10
-27.98241315917778
 20
0.8925137505404109
 30
0.0
 10
-27.34960446386586
 20
0.6815041319868037
 30
0.0
 10
-26.75286187509903
 20
0.4426485379485335
 30
0.0
 10
-26.37977716744348
 20
0.2744634170019303
 30
0.0
 10
-26.19375000000002
 20
0.1906031005273136
 30
0.0
  0
SPLINE
  5
483
330
1F
100
AcDbEntity
  8
외형선
  6
Continuous
370
    15
100
AcDbSpline
210
0.0
220
0.0
230
1.0
 70
    24
 71
     3
 72
    10
 73
     6
 74
     0
 42
0.000000001
 43
0.00000001
 40
0.0
 40
0.0
 40
0.0
 40
0.0
 40
0.5
 40
0.5
 40
1.0
 40
1.0
 40
1.0
 40
1.0
 10
-26.19375000000002
 20
0.1906031005273171
 30
0.0
 10
-26.19375000000002
 20
0.3960199587253378
 30
0.0
 10
-26.19375000000002
 20
0.5979980296156505
 30
0.0
 10
-26.19375000000002
 20
0.9351170703640058
 30
0.0
 10
-26.19375000000002
 20
1.068806948081578
 30
0.0
 10
-26.19375000000002
 20
1.155041585143609
 30
0.0
  0
SPLINE
  5
484
330
1F
100
AcDbEntity
  8
외형선
  6
Continuous
370
    15
100
AcDbSpline
210
0.0
220
0.0
230
1.0
 70
    24
 71
     3
 72
    10
 73
     6
 74
     0
 42
0.000000001
 43
0.00000001
 40
0.0
 40
0.0
 40
0.0
 40
0.0
 40
0.5
 40
0.5
 40
1.0
 40
1.0
 40
1.0
 40
1.0
 10
-26.19375000000002
 20
-0.9579340074469748
 30
0.0
 10
-26.19375000000002
 20
-0.86507363549862
 30
0.0
 10
-26.19375000000002
 20
-0.7073342403381012
 30
0.0
 10
-26.19375000000002
 20
-0.2990779249644454
 30
0.0
 10
-26.19375000000002
 20
-0.0517242098960388
 30
0.0
 10
-26.19375000000002
 20
0.1906031005273136
 30
0.0
  0
LINE
  5
485
330
1F
100
AcDbEntity
  8
0
  6
Continuous
 62
     1
370
    25
100
AcDbLine
 10
-33.33750000000001
 20
0.0000000000000015
 30
0.0
 11
-33.33750000000001
 21
-0.9723437499999953
 31
0.0
  0
SPLINE
  5
486
330
1F
100
AcDbEntity
  8
0
  6
Continuous
 62
     1
370
    25
100
AcDbSpline
210
0.0
220
0.0
230
1.0
 70
     8
 71
     3
 72
    10
 73
     6
 74
     0
 42
0.000000001
 43
0.00000001
 40
0.0
 40
0.0
 40
0.0
 40
0.0
 40
0.1783854471988217
 40
0.5892025955806424
 40
1.0
 40
1.0
 40
1.0
 40
1.0
 10
-28.10566752701544
 20
1.094532425375066
 30
0.0
 10
-27.99197897348185
 20
1.137228358740044
 30
0.0
 10
-27.61646857237193
 20
1.278251940845072
 30
0.0
 10
-26.97916562257453
 20
1.39441892540046
 30
0.0
 10
-26.45555101324976
 20
1.38064755673845
 30
0.0
 10
-26.19374999999687
 20
1.373762037875176
 30
0.0
  0
SPLINE
  5
487
330
1F
100
AcDbEntity
  8
0
  6
Continuous
 62
     1
370
    25
100
AcDbSpline
210
0.0
220
0.0
230
1.0
 70
     8
 71
     3
 72
    12
 73
     8
 74
     0
 42
0.000000001
 43
0.00000001
 40
0.0
 40
0.0
 40
0.0
 40
0.0
 40
0.2563637076359713
 40
0.4398154714874436
 40
0.624237088777915
 40
0.76479034354023
 40
1.0
 40
1.0
 40
1.0
 40
1.0
 10
-31.43575471224469
 20
-0.9307763756286981
 30
0.0
 10
-31.59816435146715
 20
-0.9988567730293191
 30
0.0
 10
-31.87679299476235
 20
-1.11565494371393
 30
0.0
 10
-32.27334396011042
 20
-1.233311083729833
 30
0.0
 10
-32.5947591983321
 20
-1.308634124921193
 30
0.0
 10
-32.95025447467899
 20
-1.366954488365695
 30
0.0
 10
-33.18841984191377
 20
-1.379829403106614
 30
0.0
 10
-33.33750000000001
 20
-1.389062500000004
 30
0.0
  0
SPLINE
  5
488
330
1F
100
AcDbEntity
  8
외형선
  6
Continuous
370
    15
100
AcDbSpline
210
0.0
220
0.0
230
1.0
 70
    24
 71
     3
 72
     8
 73
     4
 74
     0
 42
0.000000001
 43
0.00000001
 40
0.0
 40
0.0
 40
0.0
 40
0.0
 40
1.0
 40
1.0
 40
1.0
 40
1.0
 10
-26.19375000000002
 20
1.155041585143609
 30
0.0
 10
-26.19375000000002
 20
1.228597506208421
 30
0.0
 10
-26.19375000000002
 20
1.301975778420159
 30
0.0
 10
-26.19375000000002
 20
1.373762037866763
 30
0.0
  0
SPLINE
  5
489
330
1F
100
AcDbEntity
  8
0
  6
Continuous
 62
     1
370
    25
100
AcDbSpline
210
0.0
220
0.0
230
1.0
 70
    24
 71
     3
 72
    10
 73
     6
 74
     0
 42
0.000000001
 43
0.00000001
 40
0.0
 40
0.0
 40
0.0
 40
0.0
 40
0.5
 40
0.5
 40
1.0
 40
1.0
 40
1.0
 40
1.0
 10
-33.33750000000001
 20
-0.9723437499999953
 30
0.0
 10
-33.33750000000001
 20
-1.031284806721404
 30
0.0
 10
-33.33750000000001
 20
-1.099779773160728
 30
0.0
 10
-33.33750000000003
 20
-1.243482028272185
 30
0.0
 10
-33.33750000000001
 20
-1.318322319417982
 30
0.0
 10
-33.33750000000001
 20
-1.389062500000004
 30
0.0
  0
ENDSEC
  0
SECTION
  2
OBJECTS
  0
DICTIONARY
  5
C
330
0
100
AcDbDictionary
281
     1
  3
ACAD_GROUP
350
D
  3
ACAD_IMAGE_VARS
350
160
  3
ACAD_LAYOUT
350
1A
  3
ACAD_MLINESTYLE
350
17
  3
ACAD_PLOTSETTINGS
350
19
  3
ACAD_PLOTSTYLENAME
350
E
  3
ACAD_SCALELIST
350
47
  3
APPDATA
350
15E
  3
DWGPROPS
350
502
  0
DICTIONARY
  5
25C
330
2
100
AcDbDictionary
280
     1
281
     1
  3
ACAD_LAYERSTATES
360
25D
  0
DICTIONARY
  5
D
102
{ACAD_REACTORS
330
C
102
}
330
C
100
AcDbDictionary
281
     1
  0
RASTERVARIABLES
  5
160
102
{ACAD_REACTORS
330
C
102
}
330
C
100
AcDbRasterVariables
 90
        0
 70
     1
 71
     1
 72
     1
  0
DICTIONARY
  5
1A
102
{ACAD_REACTORS
330
C
102
}
330
C
100
AcDbDictionary
281
     1
  3
Layout1
350
1E
  3
Layout2
350
26
  3
Model
350
22
  0
DICTIONARY
  5
17
102
{ACAD_REACTORS
330
C
102
}
330
C
100
AcDbDictionary
281
     1
  3
Standard
350
18
  0
DICTIONARY
  5
19
102
{ACAD_REACTORS
330
C
102
}
330
C
100
AcDbDictionary
281
     1
  0
ACDBDICTIONARYWDFLT
  5
E
102
{ACAD_REACTORS
330
C
102
}
330
C
100
AcDbDictionary
281
     1
  3
Normal
350
F
100
AcDbDictionaryWithDefault
340
F
  0
DICTIONARY
  5
47
102
{ACAD_REACTORS
330
C
102
}
330
C
100
AcDbDictionary
281
     1
  3
A0
350
48
  3
A1
350
49
  3
A2
350
4A
  3
A3
350
4B
  3
A4
350
4C
  3
A5
350
4D
  3
A6
350
4E
  3
A7
350
4F
  3
A8
350
50
  3
A9
350
51
  3
B0
350
52
  3
B1
350
53
  3
B2
350
54
  3
B3
350
55
  3
B4
350
56
  3
B5
350
57
  3
B6
350
58
  3
B7
350
59
  3
B8
350
5A
  3
B9
350
5B
  3
C0
350
5C
  3
C1
350
5D
  3
C2
350
5E
  3
C3
350
5F
  3
C4
350
60
  3
C5
350
61
  3
C6
350
62
  3
C7
350
63
  3
C8
350
64
  3
C9
350
65
  3
D0
350
66
  3
D1
350
67
  3
D2
350
68
  0
DICTIONARY
  5
15E
102
{ACAD_REACTORS
330
C
102
}
330
C
100
AcDbDictionary
281
     1
  0
XRECORD
  5
502
102
{ACAD_REACTORS
330
C
102
}
330
C
100
AcDbXrecord
280
     1
  1
DWGPROPS COOKIE
  2

  3

  4

  6

  7

  8
12016016
  9

300
=
301
=
302
=
303
=
304
=
305
=
306
=
307
=
308
=
309
=
 40
0.0
 41
2458313.037459757
 42
2458320.373791076
  1

 90
        0
  0
DICTIONARY
  5
25D
102
{ACAD_REACTORS
330
25C
102
}
330
25C
100
AcDbDictionary
281
     1
  0
LAYOUT
  5
1E
102
{ACAD_REACTORS
330
1A
102
}
330
1A
100
AcDbPlotSettings
  1

  2
none_device
  4

  6

 40
0.0
 41
0.0
 42
0.0
 43
0.0
 44
0.0
 45
0.0
 46
0.0
 47
0.0
 48
0.0
 49
0.0
140
0.0
141
0.0
142
1.0
143
1.0
 70
   688
 72
     1
 73
     0
 74
     5
  7

 75
    16
147
1.0
148
0.0
149
0.0
100
AcDbLayout
  1
Layout1
 70
     1
 71
     1
 10
0.0
 20
0.0
 11
420.0
 21
297.0
 12
0.0
 22
0.0
 32
0.0
 14
1.000000000000000E+20
 24
1.000000000000000E+20
 34
1.000000000000000E+20
 15
-1.000000000000000E+20
 25
-1.000000000000000E+20
 35
-1.000000000000000E+20
146
0.0
 13
0.0
 23
0.0
 33
0.0
 16
1.0
 26
0.0
 36
0.0
 17
0.0
 27
1.0
 37
0.0
 76
     0
330
1B
  0
LAYOUT
  5
26
102
{ACAD_REACTORS
330
1A
102
}
330
1A
100
AcDbPlotSettings
  1

  2
none_device
  4

  6

 40
0.0
 41
0.0
 42
0.0
 43
0.0
 44
0.0
 45
0.0
 46
0.0
 47
0.0
 48
0.0
 49
0.0
140
0.0
141
0.0
142
1.0
143
1.0
 70
   688
 72
     1
 73
     0
 74
     5
  7

 75
    16
147
1.0
148
0.0
149
0.0
100
AcDbLayout
  1
Layout2
 70
     1
 71
     2
 10
0.0
 20
0.0
 11
0.0
 21
0.0
 12
0.0
 22
0.0
 32
0.0
 14
0.0
 24
0.0
 34
0.0
 15
0.0
 25
0.0
 35
0.0
146
0.0
 13
0.0
 23
0.0
 33
0.0
 16
1.0
 26
0.0
 36
0.0
 17
0.0
 27
1.0
 37
0.0
 76
     0
330
23
  0
LAYOUT
  5
22
102
{ACAD_REACTORS
330
1A
102
}
330
1A
100
AcDbPlotSettings
  1

  2
none_device
  4
ANSI_A_(11.00_x_8.50_Inches)
  6

 40
6.35
 41
19.05
 42
6.35000508
 43
19.05000254
 44
279.4
 45
215.9
 46
115.9141798552421
 47
91.8334743907837
 48
0.0
 49
0.0
140
0.0
141
0.0
142
0.0652586203479596
143
1.0
 70
  1696
 72
     0
 73
     0
 74
     0
  7

 75
     0
147
0.0235690232323232
148
0.0
149
0.0
100
AcDbLayout
  1
Model
 70
     1
 71
     0
 10
0.0
 20
0.0
 11
420.0
 21
297.0
 12
0.0
 22
0.0
 32
0.0
 14
-50.71250000000004
 24
-49.97180738881174
 34
0.0
 15
81.21241335422454
 25
36.86806250000006
 35
0.0
146
0.0
 13
0.0
 23
0.0
 33
0.0
 16
1.0
 26
0.0
 36
0.0
 17
0.0
 27
1.0
 37
0.0
 76
     0
330
1F
331
29
  0
MLINESTYLE
  5
18
102
{ACAD_REACTORS
330
17
102
}
330
17
100
AcDbMlineStyle
  2
Standard
 70
     0
  3

 62
   256
 51
90.0
 52
90.0
 71
     2
 49
0.5
 62
   256
  6
BYLAYER
 49
-0.5
 62
   256
  6
BYLAYER
  0
ACDBPLACEHOLDER
  5
F
102
{ACAD_REACTORS
330
E
102
}
330
E
  0
SCALE
  5
48
102
{ACAD_REACTORS
330
47
102
}
330
47
100
AcDbScale
 70
     0
300
1:1
140
1.0
141
1.0
290
     1
  0
SCALE
  5
49
102
{ACAD_REACTORS
330
47
102
}
330
47
100
AcDbScale
 70
     0
300
1:2
140
1.0
141
2.0
290
     0
  0
SCALE
  5
4A
102
{ACAD_REACTORS
330
47
102
}
330
47
100
AcDbScale
 70
     0
300
1:4
140
1.0
141
4.0
290
     0
  0
SCALE
  5
4B
102
{ACAD_REACTORS
330
47
102
}
330
47
100
AcDbScale
 70
     0
300
1:5
140
1.0
141
5.0
290
     0
  0
SCALE
  5
4C
102
{ACAD_REACTORS
330
47
102
}
330
47
100
AcDbScale
 70
     0
300
1:8
140
1.0
141
8.0
290
     0
  0
SCALE
  5
4D
102
{ACAD_REACTORS
330
47
102
}
330
47
100
AcDbScale
 70
     0
300
1:10
140
1.0
141
10.0
290
     0
  0
SCALE
  5
4E
102
{ACAD_REACTORS
330
47
102
}
330
47
100
AcDbScale
 70
     0
300
1:16
140
1.0
141
16.0
290
     0
  0
SCALE
  5
4F
102
{ACAD_REACTORS
330
47
102
}
330
47
100
AcDbScale
 70
     0
300
1:20
140
1.0
141
20.0
290
     0
  0
SCALE
  5
50
102
{ACAD_REACTORS
330
47
102
}
330
47
100
AcDbScale
 70
     0
300
1:30
140
1.0
141
30.0
290
     0
  0
SCALE
  5
51
102
{ACAD_REACTORS
330
47
102
}
330
47
100
AcDbScale
 70
     0
300
1:40
140
1.0
141
40.0
290
     0
  0
SCALE
  5
52
102
{ACAD_REACTORS
330
47
102
}
330
47
100
AcDbScale
 70
     0
300
1:50
140
1.0
141
50.0
290
     0
  0
SCALE
  5
53
102
{ACAD_REACTORS
330
47
102
}
330
47
100
AcDbScale
 70
     0
300
1:100
140
1.0
141
100.0
290
     0
  0
SCALE
  5
54
102
{ACAD_REACTORS
330
47
102
}
330
47
100
AcDbScale
 70
     0
300
2:1
140
2.0
141
1.0
290
     0
  0
SCALE
  5
55
102
{ACAD_REACTORS
330
47
102
}
330
47
100
AcDbScale
 70
     0
300
4:1
140
4.0
141
1.0
290
     0
  0
SCALE
  5
56
102
{ACAD_REACTORS
330
47
102
}
330
47
100
AcDbScale
 70
     0
300
8:1
140
8.0
141
1.0
290
     0
  0
SCALE
  5
57
102
{ACAD_REACTORS
330
47
102
}
330
47
100
AcDbScale
 70
     0
300
10:1
140
10.0
141
1.0
290
     0
  0
SCALE
  5
58
102
{ACAD_REACTORS
330
47
102
}
330
47
100
AcDbScale
 70
     0
300
100:1
140
100.0
141
1.0
290
     0
  0
SCALE
  5
59
102
{ACAD_REACTORS
330
47
102
}
330
47
100
AcDbScale
 70
     0
300
1/128" = 1'-0"
140
0.0078125
141
12.0
290
     0
  0
SCALE
  5
5A
102
{ACAD_REACTORS
330
47
102
}
330
47
100
AcDbScale
 70
     0
300
1/64" = 1'-0"
140
0.015625
141
12.0
290
     0
  0
SCALE
  5
5B
102
{ACAD_REACTORS
330
47
102
}
330
47
100
AcDbScale
 70
     0
300
1/32" = 1'-0"
140
0.03125
141
12.0
290
     0
  0
SCALE
  5
5C
102
{ACAD_REACTORS
330
47
102
}
330
47
100
AcDbScale
 70
     0
300
1/16" = 1'-0"
140
0.0625
141
12.0
290
     0
  0
SCALE
  5
5D
102
{ACAD_REACTORS
330
47
102
}
330
47
100
AcDbScale
 70
     0
300
3/32" = 1'-0"
140
0.09375
141
12.0
290
     0
  0
SCALE
  5
5E
102
{ACAD_REACTORS
330
47
102
}
330
47
100
AcDbScale
 70
     0
300
1/8" = 1'-0"
140
0.125
141
12.0
290
     0
  0
SCALE
  5
5F
102
{ACAD_REACTORS
330
47
102
}
330
47
100
AcDbScale
 70
     0
300
3/16" = 1'-0"
140
0.1875
141
12.0
290
     0
  0
SCALE
  5
60
102
{ACAD_REACTORS
330
47
102
}
330
47
100
AcDbScale
 70
     0
300
1/4" = 1'-0"
140
0.25
141
12.0
290
     0
  0
SCALE
  5
61
102
{ACAD_REACTORS
330
47
102
}
330
47
100
AcDbScale
 70
     0
300
3/8" = 1'-0"
140
0.375
141
12.0
290
     0
  0
SCALE
  5
62
102
{ACAD_REACTORS
330
47
102
}
330
47
100
AcDbScale
 70
     0
300
1/2" = 1'-0"
140
0.5
141
12.0
290
     0
  0
SCALE
  5
63
102
{ACAD_REACTORS
330
47
102
}
330
47
100
AcDbScale
 70
     0
300
3/4" = 1'-0"
140
0.75
141
12.0
290
     0
  0
SCALE
  5
64
102
{ACAD_REACTORS
330
47
102
}
330
47
100
AcDbScale
 70
     0
300
1" = 1'-0"
140
1.0
141
12.0
290
     0
  0
SCALE
  5
65
102
{ACAD_REACTORS
330
47
102
}
330
47
100
AcDbScale
 70
     0
300
1-1/2" = 1'-0"
140
1.5
141
12.0
290
     0
  0
SCALE
  5
66
102
{ACAD_REACTORS
330
47
102
}
330
47
100
AcDbScale
 70
     0
300
3" = 1'-0"
140
3.0
141
12.0
290
     0
  0
SCALE
  5
67
102
{ACAD_REACTORS
330
47
102
}
330
47
100
AcDbScale
 70
     0
300
6" = 1'-0"
140
6.0
141
12.0
290
     0
  0
SCALE
  5
68
102
{ACAD_REACTORS
330
47
102
}
330
47
100
AcDbScale
 70
     0
300
1'-0" = 1'-0"
140
12.0
141
12.0
290
     0
  0
ENDSEC
  0
EOF
