  0
SECTION
  2
HEADER
  9
$ACADVER
  1
AC1015
  9
$ACADMAINTVER
 70
     6
  9
$DWGCODEPAGE
  3
ANSI_949
  9
$INSBASE
 10
0.0
 20
0.0
 30
0.0
  9
$EXTMIN
 10
-42.95000000000011
 20
-49.97180738881175
 30
0.0
  9
$EXTMAX
 10
88.36973381534557
 20
38.53681250000012
 30
0.0
  9
$LIMMIN
 10
0.0
 20
0.0
  9
$LIMMAX
 10
420.0
 20
297.0
  9
$ORTHOMODE
 70
     1
  9
$REGENMODE
 70
     1
  9
$FILLMODE
 70
     1
  9
$QTEXTMODE
 70
     0
  9
$MIRRTEXT
 70
     1
  9
$LTSCALE
 40
1.0
  9
$ATTMODE
 70
     1
  9
$TEXTSIZE
 40
3.5
  9
$TRACEWID
 40
1.0
  9
$TEXTSTYLE
  7
Standard
  9
$CLAYER
  8
0
  9
$CELTYPE
  6
ByLayer
  9
$CECOLOR
 62
   256
  9
$CELTSCALE
 40
1.0
  9
$DISPSILH
 70
     0
  9
$DIMSCALE
 40
1.0
  9
$DIMASZ
 40
3.302
  9
$DIMEXO
 40
1.0
  9
$DIMDLI
 40
3.75
  9
$DIMRND
 40
0.0
  9
$DIMDLE
 40
0.0
  9
$DIMEXE
 40
1.0
  9
$DIMTP
 40
0.0
  9
$DIMTM
 40
0.0
  9
$DIMTXT
 40
3.5
  9
$DIMCEN
 40
2.5
  9
$DIMTSZ
 40
0.0
  9
$DIMTOL
 70
     0
  9
$DIMLIM
 70
     0
  9
$DIMTIH
 70
     1
  9
$DIMTOH
 70
     1
  9
$DIMSE1
 70
     0
  9
$DIMSE2
 70
     0
  9
$DIMTAD
 70
     1
  9
$DIMZIN
 70
     0
  9
$DIMBLK
  1

  9
$DIMASO
 70
     1
  9
$DIMSHO
 70
     1
  9
$DIMPOST
  1

  9
$DIMAPOST
  1

  9
$DIMALT
 70
     0
  9
$DIMALTD
 70
     3
  9
$DIMALTF
 40
0.0393700787401575
  9
$DIMLFAC
 40
1.0
  9
$DIMTOFL
 70
     1
  9
$DIMTVP
 40
0.0
  9
$DIMTIX
 70
     0
  9
$DIMSOXD
 70
     0
  9
$DIMSAH
 70
     0
  9
$DIMBLK1
  1

  9
$DIMBLK2
  1

  9
$DIMSTYLE
  2
ISO-25
  9
$DIMCLRD
 70
     0
  9
$DIMCLRE
 70
     0
  9
$DIMCLRT
 70
     0
  9
$DIMTFAC
 40
1.0
  9
$DIMGAP
 40
1.524
  9
$DIMJUST
 70
     0
  9
$DIMSD1
 70
     0
  9
$DIMSD2
 70
     0
  9
$DIMTOLJ
 70
     0
  9
$DIMTZIN
 70
     0
  9
$DIMALTZ
 70
     0
  9
$DIMALTTZ
 70
     0
  9
$DIMUPT
 70
     0
  9
$DIMDEC
 70
     2
  9
$DIMTDEC
 70
     2
  9
$DIMALTU
 70
     2
  9
$DIMALTTD
 70
     3
  9
$DIMTXSTY
  7
Standard
  9
$DIMAUNIT
 70
     0
  9
$DIMADEC
 70
     2
  9
$DIMALTRND
 40
0.0
  9
$DIMAZIN
 70
     0
  9
$DIMDSEP
 70
    44
  9
$DIMATFIT
 70
     3
  9
$DIMFRAC
 70
     0
  9
$DIMLDRBLK
  1

  9
$DIMLUNIT
 70
     2
  9
$DIMLWD
 70
    -2
  9
$DIMLWE
 70
    -2
  9
$DIMTMOVE
 70
     0
  9
$LUNITS
 70
     2
  9
$LUPREC
 70
     2
  9
$SKETCHINC
 40
1.0
  9
$FILLETRAD
 40
10.0
  9
$AUNITS
 70
     0
  9
$AUPREC
 70
     2
  9
$MENU
  1
.
  9
$ELEVATION
 40
0.0
  9
$PELEVATION
 40
0.0
  9
$THICKNESS
 40
0.0
  9
$LIMCHECK
 70
     0
  9
$CHAMFERA
 40
0.0
  9
$CHAMFERB
 40
0.0
  9
$CHAMFERC
 40
0.0
  9
$CHAMFERD
 40
0.0
  9
$SKPOLY
 70
     0
  9
$TDCREATE
 40
2458319.739652662
  9
$TDUCREATE
 40
2458319.364652662
  9
$TDUPDATE
 40
2458323.503234537
  9
$TDUUPDATE
 40
2458323.128234537
  9
$TDINDWG
 40
0.0019402894
  9
$TDUSRTIMER
 40
0.0019402778
  9
$USRTIMER
 70
     1
  9
$ANGBASE
 50
0.0
  9
$ANGDIR
 70
     0
  9
$PDMODE
 70
     0
  9
$PDSIZE
 40
-1.0
  9
$PLINEWID
 40
0.0
  9
$SPLFRAME
 70
     0
  9
$SPLINETYPE
 70
     6
  9
$SPLINESEGS
 70
     8
  9
$HANDSEED
  5
202
  9
$SURFTAB1
 70
     6
  9
$SURFTAB2
 70
     6
  9
$SURFTYPE
 70
     6
  9
$SURFU
 70
     6
  9
$SURFV
 70
     6
  9
$UCSBASE
  2

  9
$UCSNAME
  2

  9
$UCSORG
 10
0.0
 20
0.0
 30
0.0
  9
$UCSXDIR
 10
1.0
 20
0.0
 30
0.0
  9
$UCSYDIR
 10
0.0
 20
1.0
 30
0.0
  9
$UCSORTHOREF
  2

  9
$UCSORTHOVIEW
 70
     0
  9
$UCSORGTOP
 10
0.0
 20
0.0
 30
0.0
  9
$UCSORGBOTTOM
 10
0.0
 20
0.0
 30
0.0
  9
$UCSORGLEFT
 10
0.0
 20
0.0
 30
0.0
  9
$UCSORGRIGHT
 10
0.0
 20
0.0
 30
0.0
  9
$UCSORGFRONT
 10
0.0
 20
0.0
 30
0.0
  9
$UCSORGBACK
 10
0.0
 20
0.0
 30
0.0
  9
$PUCSBASE
  2

  9
$PUCSNAME
  2

  9
$PUCSORG
 10
0.0
 20
0.0
 30
0.0
  9
$PUCSXDIR
 10
1.0
 20
0.0
 30
0.0
  9
$PUCSYDIR
 10
0.0
 20
1.0
 30
0.0
  9
$PUCSORTHOREF
  2

  9
$PUCSORTHOVIEW
 70
     0
  9
$PUCSORGTOP
 10
0.0
 20
0.0
 30
0.0
  9
$PUCSORGBOTTOM
 10
0.0
 20
0.0
 30
0.0
  9
$PUCSORGLEFT
 10
0.0
 20
0.0
 30
0.0
  9
$PUCSORGRIGHT
 10
0.0
 20
0.0
 30
0.0
  9
$PUCSORGFRONT
 10
0.0
 20
0.0
 30
0.0
  9
$PUCSORGBACK
 10
0.0
 20
0.0
 30
0.0
  9
$USERI1
 70
     0
  9
$USERI2
 70
     0
  9
$USERI3
 70
     0
  9
$USERI4
 70
     0
  9
$USERI5
 70
     0
  9
$USERR1
 40
0.0
  9
$USERR2
 40
0.0
  9
$USERR3
 40
0.0
  9
$USERR4
 40
0.0
  9
$USERR5
 40
0.0
  9
$WORLDVIEW
 70
     1
  9
$SHADEDGE
 70
     3
  9
$SHADEDIF
 70
    70
  9
$TILEMODE
 70
     1
  9
$MAXACTVP
 70
    64
  9
$PINSBASE
 10
0.0
 20
0.0
 30
0.0
  9
$PLIMCHECK
 70
     0
  9
$PEXTMIN
 10
1.000000000000000E+20
 20
1.000000000000000E+20
 30
1.000000000000000E+20
  9
$PEXTMAX
 10
-1.000000000000000E+20
 20
-1.000000000000000E+20
 30
-1.000000000000000E+20
  9
$PLIMMIN
 10
0.0
 20
0.0
  9
$PLIMMAX
 10
0.0
 20
0.0
  9
$UNITMODE
 70
     0
  9
$VISRETAIN
 70
     1
  9
$PLINEGEN
 70
     0
  9
$PSLTSCALE
 70
     1
  9
$TREEDEPTH
 70
  3020
  9
$CMLSTYLE
  2
Standard
  9
$CMLJUST
 70
     0
  9
$CMLSCALE
 40
20.0
  9
$PROXYGRAPHICS
 70
     1
  9
$MEASUREMENT
 70
     1
  9
$CELWEIGHT
370
    -1
  9
$ENDCAPS
280
     0
  9
$JOINSTYLE
280
     0
  9
$LWDISPLAY
290
     1
  9
$INSUNITS
 70
     4
  9
$HYPERLINKBASE
  1

  9
$STYLESHEET
  1

  9
$XEDIT
290
     1
  9
$CEPSNTYPE
380
     0
  9
$PSTYLEMODE
290
     1
  9
$FINGERPRINTGUID
  2
{99B212BA-D08B-4742-ACC6-81C5C4D2E832}
  9
$VERSIONGUID
  2
{FAEB1C32-E019-11D5-929B-00C0DF256EC4}
  9
$EXTNAMES
290
     1
  9
$PSVPSCALE
 40
0.0
  9
$OLESTARTUP
290
     0
  0
ENDSEC
  0
SECTION
  2
CLASSES
  0
CLASS
  1
ACDBDICTIONARYWDFLT
  2
AcDbDictionaryWithDefault
  3
ObjectDBX Classes
 90
        0
280
     0
281
     0
  0
CLASS
  1
VISUALSTYLE
  2
AcDbVisualStyle
  3
ObjectDBX Classes
 90
     4095
280
     0
281
     0
  0
CLASS
  1
MATERIAL
  2
AcDbMaterial
  3
ObjectDBX Classes
 90
     1153
280
     0
281
     0
  0
CLASS
  1
SCALE
  2
AcDbScale
  3
ObjectDBX Classes
 90
     1153
280
     0
281
     0
  0
CLASS
  1
SUN
  2
AcDbSun
  3
SCENEOE
 90
     1153
280
     0
281
     0
  0
CLASS
  1
ACDBPLACEHOLDER
  2
AcDbPlaceHolder
  3
ObjectDBX Classes
 90
        0
280
     0
281
     0
  0
CLASS
  1
LAYOUT
  2
AcDbLayout
  3
ObjectDBX Classes
 90
        0
280
     0
281
     0
  0
CLASS
  1
TABLESTYLE
  2
AcDbTableStyle
  3
ObjectDBX Classes
 90
     4095
280
     0
281
     0
  0
CLASS
  1
MLEADERSTYLE
  2
AcDbMLeaderStyle
  3
ACDB_MLEADERSTYLE_CLASS
 90
     4095
280
     0
281
     0
  0
CLASS
  1
DICTIONARYVAR
  2
AcDbDictionaryVar
  3
ObjectDBX Classes
 90
        0
280
     0
281
     0
  0
ENDSEC
  0
SECTION
  2
TABLES
  0
TABLE
  2
VPORT
  5
8
330
0
100
AcDbSymbolTable
 70
     1
  0
VPORT
  5
29
330
8
100
AcDbSymbolTableRecord
100
AcDbViewportTableRecord
  2
*Active
 70
     0
 10
0.0
 20
0.0
 11
1.0
 21
1.0
 12
22.70986690767273
 22
-5.717497444405815
 13
0.0
 23
0.0
 14
10.0
 24
10.0
 15
10.0
 25
10.0
 16
0.0
 26
0.0
 36
1.0
 17
0.0
 27
0.0
 37
0.0
 40
90.2787922865881
 41
1.782762691853601
 42
50.0
 43
0.0
 44
0.0
 50
0.0
 51
0.0
 71
    16
 72
  2000
 73
     1
 74
     3
 75
     0
 76
     0
 77
     0
 78
     0
281
     0
 65
     1
110
0.0
120
0.0
130
0.0
111
1.0
121
0.0
131
0.0
112
0.0
122
1.0
132
0.0
 79
     0
146
0.0
  0
ENDTAB
  0
TABLE
  2
LTYPE
  5
5
330
0
100
AcDbSymbolTable
 70
     6
  0
LTYPE
  5
14
330
5
100
AcDbSymbolTableRecord
100
AcDbLinetypeTableRecord
  2
ByBlock
 70
     0
  3

 72
    65
 73
     0
 40
0.0
  0
LTYPE
  5
15
330
5
100
AcDbSymbolTableRecord
100
AcDbLinetypeTableRecord
  2
ByLayer
 70
     0
  3

 72
    65
 73
     0
 40
0.0
  0
LTYPE
  5
16
330
5
100
AcDbSymbolTableRecord
100
AcDbLinetypeTableRecord
  2
Continuous
 70
     0
  3
Solid line
 72
    65
 73
     0
 40
0.0
  0
LTYPE
  5
6A
330
5
100
AcDbSymbolTableRecord
100
AcDbLinetypeTableRecord
  2
HIDDEN
 70
     0
  3
Hidden __ __ __ __ __ __ __ __ __ __ __ __ __ __
 72
    65
 73
     2
 40
1.905
 49
1.27
 74
     0
 49
-0.635
 74
     0
  0
LTYPE
  5
6B
330
5
100
AcDbSymbolTableRecord
100
AcDbLinetypeTableRecord
  2
PHANTOM
 70
     0
  3
Phantom ______  __  __  ______  __  __  ______
 72
    65
 73
     6
 40
12.7
 49
6.35
 74
     0
 49
-1.27
 74
     0
 49
1.27
 74
     0
 49
-1.27
 74
     0
 49
1.27
 74
     0
 49
-1.27
 74
     0
  0
LTYPE
  5
6C
330
5
100
AcDbSymbolTableRecord
100
AcDbLinetypeTableRecord
  2
CENTER
 70
     0
  3
Center ____ _ ____ _ ____ _ ____ _ ____ _ ____
 72
    65
 73
     4
 40
10.16
 49
6.35
 74
     0
 49
-1.27
 74
     0
 49
1.27
 74
     0
 49
-1.27
 74
     0
  0
LTYPE
  5
6D
330
5
100
AcDbSymbolTableRecord
100
AcDbLinetypeTableRecord
  2
CENTERX2
 70
     0
  3
Center (2x) ________  __  ________  __  _____
 72
    65
 73
     4
 40
20.32
 49
12.7
 74
     0
 49
-2.54
 74
     0
 49
2.54
 74
     0
 49
-2.54
 74
     0
  0
LTYPE
  5
6E
330
5
100
AcDbSymbolTableRecord
100
AcDbLinetypeTableRecord
  2
DOT2
 70
     0
  3
Dot (.5x) ........................................
 72
    65
 73
     2
 40
0.635
 49
0.0
 74
     0
 49
-0.635
 74
     0
  0
ENDTAB
  0
TABLE
  2
LAYER
  5
2
102
{ACAD_XDICTIONARY
360
185
102
}
330
0
100
AcDbSymbolTable
 70
    18
  0
LAYER
  5
10
330
2
100
AcDbSymbolTableRecord
100
AcDbLayerTableRecord
  2
0
 70
     0
 62
     7
  6
Continuous
370
    -3
390
F
  0
LAYER
  5
6F
330
2
100
AcDbSymbolTableRecord
100
AcDbLayerTableRecord
  2
FORMAT
 70
     0
 62
     2
  6
Continuous
370
    -3
390
F
  0
LAYER
  5
70
330
2
100
AcDbSymbolTableRecord
100
AcDbLayerTableRecord
  2
외형선
 70
     0
 62
     4
  6
Continuous
370
    30
390
F
  0
LAYER
  5
71
330
2
100
AcDbSymbolTableRecord
100
AcDbLayerTableRecord
  2
숨은선
 70
     0
 62
     2
  6
HIDDEN
370
    15
390
F
  0
LAYER
  5
72
330
2
100
AcDbSymbolTableRecord
100
AcDbLayerTableRecord
  2
중심선
 70
     0
 62
     1
  6
CENTERX2
370
    -3
390
F
  0
LAYER
  5
73
330
2
100
AcDbSymbolTableRecord
100
AcDbLayerTableRecord
  2
파단선
 70
     0
 62
     4
  6
Continuous
370
    -3
390
F
  0
LAYER
  5
74
330
2
100
AcDbSymbolTableRecord
100
AcDbLayerTableRecord
  2
해칭선
 70
     0
 62
   100
  6
Continuous
370
    -3
390
F
  0
LAYER
  5
75
330
2
100
AcDbSymbolTableRecord
100
AcDbLayerTableRecord
  2
가는실선
 70
     0
 62
     4
  6
Continuous
370
    -3
390
F
  0
LAYER
  5
76
330
2
100
AcDbSymbolTableRecord
100
AcDbLayerTableRecord
  2
치수_보조선
 70
     0
 62
     4
  6
Continuous
370
    -3
390
F
  0
LAYER
  5
77
330
2
100
AcDbSymbolTableRecord
100
AcDbLayerTableRecord
  2
치수문자_일반주서
 70
     0
 62
     7
  6
Continuous
370
    15
390
F
  0
LAYER
  5
78
330
2
100
AcDbSymbolTableRecord
100
AcDbLayerTableRecord
  2
개별주서
 70
     0
 62
   100
  6
Continuous
370
    30
390
F
  0
LAYER
  5
79
330
2
100
AcDbSymbolTableRecord
100
AcDbLayerTableRecord
  2
중간선
 70
     0
 62
     2
  6
Continuous
370
    15
390
F
  0
LAYER
  5
7A
330
2
100
AcDbSymbolTableRecord
100
AcDbLayerTableRecord
  2
윤곽선
 70
     0
 62
     3
  6
Continuous
370
    40
390
F
  0
LAYER
  5
7B
330
2
100
AcDbSymbolTableRecord
100
AcDbLayerTableRecord
  2
중심마크
 70
     0
 62
   100
  6
Continuous
370
    30
390
F
  0
LAYER
  5
7C
330
2
100
AcDbSymbolTableRecord
100
AcDbLayerTableRecord
  2
가상선
 70
     0
 62
     4
  6
PHANTOM
370
    -3
390
F
  0
LAYER
  5
7D
330
2
100
AcDbSymbolTableRecord
100
AcDbLayerTableRecord
  2
특수지정선
 70
     0
 62
     5
  6
CENTERX2
370
    60
390
F
  0
LAYER
  5
7E
330
2
100
AcDbSymbolTableRecord
100
AcDbLayerTableRecord
  2
참조1
 70
     0
 62
    -4
  6
Continuous
370
    -3
390
F
  0
LAYER
  5
14E
330
2
100
AcDbSymbolTableRecord
100
AcDbLayerTableRecord
  2
Defpoints
 70
     0
 62
     7
  6
Continuous
290
     0
370
    -3
390
F
  0
ENDTAB
  0
TABLE
  2
STYLE
  5
3
330
0
100
AcDbSymbolTable
 70
     2
  0
STYLE
  5
11
330
3
100
AcDbSymbolTableRecord
100
AcDbTextStyleTableRecord
  2
Standard
 70
     0
 40
0.0
 41
1.0
 50
0.0
 71
     0
 42
3.5
  3
txt
  4

  0
STYLE
  5
94
330
3
100
AcDbSymbolTableRecord
100
AcDbTextStyleTableRecord
  2
SLDTEXTSTYLE0
 70
     0
 40
0.0
 41
0.75
 50
0.0
 71
     0
 42
3.5
  3
TXT
  4

  0
ENDTAB
  0
TABLE
  2
VIEW
  5
6
330
0
100
AcDbSymbolTable
 70
     0
  0
ENDTAB
  0
TABLE
  2
UCS
  5
7
330
0
100
AcDbSymbolTable
 70
     0
  0
ENDTAB
  0
TABLE
  2
APPID
  5
9
330
0
100
AcDbSymbolTable
 70
     4
  0
APPID
  5
12
330
9
100
AcDbSymbolTableRecord
100
AcDbRegAppTableRecord
  2
ACAD
 70
     0
  0
APPID
  5
155
330
9
100
AcDbSymbolTableRecord
100
AcDbRegAppTableRecord
  2
PE_URL
 70
     0
  0
APPID
  5
200
330
9
100
AcDbSymbolTableRecord
100
AcDbRegAppTableRecord
  2
ACAD_DSTYLE_DIMFLIPARROW_SYMBOL
 70
     0
  0
APPID
  5
201
330
9
100
AcDbSymbolTableRecord
100
AcDbRegAppTableRecord
  2
ACAD_DSTYLE_DIMFLIPARROW_WHICH_SYMBOL
 70
     0
  0
ENDTAB
  0
TABLE
  2
DIMSTYLE
  5
A
330
0
100
AcDbSymbolTable
 70
     4
100
AcDbDimStyleTable
  0
DIMSTYLE
105
27
330
A
100
AcDbSymbolTableRecord
100
AcDbDimStyleTableRecord
  2
ISO-25
 70
     0
 41
2.5
 42
0.625
 43
3.75
 44
1.25
 73
     0
 74
     0
 77
     1
 78
     8
140
2.5
141
2.5
143
0.03937007874016
147
0.625
171
     3
172
     1
178
     0
271
     2
272
     2
274
     3
278
    44
283
     0
284
     8
340
11
  0
DIMSTYLE
105
CC
102
{ACAD_REACTORS
330
CB
330
174
330
E0
330
109
330
F4
102
}
330
A
100
AcDbSymbolTableRecord
100
AcDbDimStyleTableRecord
  2
SLDDIMSTYLE0
 70
     0
 41
3.302
 44
0.0
 45
0.000000001
 73
     0
 74
     0
 77
     1
 78
     4
 79
     1
140
3.5
143
0.0393700787401575
147
0.875
148
0.000000001
170
     1
173
     1
178
     0
271
     2
272
     2
276
     2
284
    12
340
94
  0
DIMSTYLE
105
E1
330
A
100
AcDbSymbolTableRecord
100
AcDbDimStyleTableRecord
  2
SLDDIMSTYLE1
 70
     0
 41
3.302
 44
0.0
 45
0.000000001
 73
     0
 74
     0
 77
     1
 78
    12
 79
     3
140
3.5
143
0.0393700787401575
147
0.875
148
0.000000001
170
     1
173
     1
178
     0
271
     2
272
     2
276
     2
284
    12
340
94
  0
DIMSTYLE
105
F5
330
A
100
AcDbSymbolTableRecord
100
AcDbDimStyleTableRecord
  2
SLDDIMSTYLE2
 70
     0
 41
3.302
 44
0.0
 45
0.000000001
 73
     0
 74
     0
 77
     1
 78
    12
 79
     3
140
3.5
143
0.0393700787401575
147
0.875
148
0.000000001
170
     1
172
     1
173
     1
178
     0
271
     2
272
     2
276
     2
284
    12
289
     0
340
94
  0
ENDTAB
  0
TABLE
  2
BLOCK_RECORD
  5
1
330
0
100
AcDbSymbolTable
 70
    10
  0
BLOCK_RECORD
  5
1F
330
1
100
AcDbSymbolTableRecord
100
AcDbBlockTableRecord
  2
*Model_Space
340
22
  0
BLOCK_RECORD
  5
1B
330
1
100
AcDbSymbolTableRecord
100
AcDbBlockTableRecord
  2
*Paper_Space
340
1E
  0
BLOCK_RECORD
  5
23
330
1
100
AcDbSymbolTableRecord
100
AcDbBlockTableRecord
  2
*Paper_Space0
340
26
  0
BLOCK_RECORD
  5
7F
330
1
100
AcDbSymbolTableRecord
100
AcDbBlockTableRecord
  2
블럭10
340
0
102
{BLKREFS
331
C4
102
}
  0
BLOCK_RECORD
  5
CD
330
1
100
AcDbSymbolTableRecord
100
AcDbBlockTableRecord
  2
_D
340
0
  0
BLOCK_RECORD
  5
E2
330
1
100
AcDbSymbolTableRecord
100
AcDbBlockTableRecord
  2
_D_1
340
0
  0
BLOCK_RECORD
  5
F6
330
1
100
AcDbSymbolTableRecord
100
AcDbBlockTableRecord
  2
_D_2
340
0
  0
BLOCK_RECORD
  5
10A
330
1
100
AcDbSymbolTableRecord
100
AcDbBlockTableRecord
  2
_D_3
340
0
  0
BLOCK_RECORD
  5
124
330
1
100
AcDbSymbolTableRecord
100
AcDbBlockTableRecord
  2
SW_DOWELSYMBOL_0
340
0
102
{BLKREFS
331
12A
102
}
  0
BLOCK_RECORD
  5
189
330
1
100
AcDbSymbolTableRecord
100
AcDbBlockTableRecord
  2
*D8
340
0
  0
BLOCK_RECORD
  5
19B
330
1
100
AcDbSymbolTableRecord
100
AcDbBlockTableRecord
  2
*D9
340
0
  0
ENDTAB
  0
ENDSEC
  0
SECTION
  2
BLOCKS
  0
BLOCK
  5
20
330
1F
100
AcDbEntity
  8
0
100
AcDbBlockBegin
  2
*Model_Space
 70
     0
 10
0.0
 20
0.0
 30
0.0
  3
*Model_Space
  1

  0
ENDBLK
  5
21
330
1F
100
AcDbEntity
  8
0
100
AcDbBlockEnd
  0
BLOCK
  5
1C
330
1B
100
AcDbEntity
 67
     1
  8
0
100
AcDbBlockBegin
  2
*Paper_Space
 70
     0
 10
0.0
 20
0.0
 30
0.0
  3
*Paper_Space
  1

  0
ENDBLK
  5
1D
330
1B
100
AcDbEntity
 67
     1
  8
0
100
AcDbBlockEnd
  0
BLOCK
  5
24
330
23
100
AcDbEntity
  8
0
100
AcDbBlockBegin
  2
*Paper_Space0
 70
     0
 10
0.0
 20
0.0
 30
0.0
  3
*Paper_Space0
  1

  0
ENDBLK
  5
25
330
23
100
AcDbEntity
  8
0
100
AcDbBlockEnd
  0
BLOCK
  5
80
330
7F
100
AcDbEntity
  8
0
100
AcDbBlockBegin
  2
블럭10
 70
     2
 10
0.0
 20
0.0
 30
0.0
  3
블럭10
  1

  0
ELLIPSE
  5
82
330
7F
100
AcDbEntity
  8
중심선
100
AcDbEllipse
 10
20.54032771741204
 20
12.0471743016438
 30
0.0
 11
6.600054785286829
 21
-1.261213355974178E-13
 31
0.0
210
0.0
220
0.0
230
1.0
 40
0.636358354079598
 41
0.9219305317359503
 42
6.513795318482858
  0
ELLIPSE
  5
83
330
7F
100
AcDbEntity
  8
중심선
100
AcDbEllipse
 10
20.54032771746488
 20
12.04717430159265
 30
0.0
 11
3.960054785062283
 21
1.540847449632565E-10
 31
0.0
210
0.0
220
0.0
230
1.0
 40
0.3939339440162632
 41
1.131841032648279
 42
5.62031148352944
  0
LINE
  5
84
330
7F
100
AcDbEntity
  8
중심선
100
AcDbLine
 10
2.268634060543552
 20
16.24717430164393
 30
0.0
 11
5.714909304380834
 21
16.24717430164393
 31
0.0
  0
LINE
  5
85
330
7F
100
AcDbEntity
  8
중심선
100
AcDbLine
 10
5.245725140726316
 20
7.84717430164391
 30
0.0
 11
8.692000384563599
 21
7.84717430164391
 31
0.0
  0
LINE
  5
86
330
7F
100
AcDbEntity
  8
중심선
100
AcDbLine
 10
15.74043728645272
 20
16.24717430164393
 30
0.0
 11
8.692000384563599
 21
7.84717430164391
 31
0.0
  0
LINE
  5
87
330
7F
100
AcDbEntity
  8
중심선
100
AcDbLine
 10
0.1404042013395286
 20
13.71084872107135
 30
0.0
 11
3.58671253028996
 21
13.71088815037384
 31
0.0
  0
LINE
  5
88
330
7F
100
AcDbEntity
  8
중심선
100
AcDbLine
 10
2.750260043222114
 20
10.84717430164391
 30
0.0
 11
6.196535287059397
 21
10.84717430164391
 31
0.0
  0
LINE
  5
89
330
7F
100
AcDbEntity
  8
중심선
100
AcDbLine
 10
12.29416204261559
 20
16.24717430164393
 30
0.0
 11
5.245725140726316
 21
7.84717430164391
 31
0.0
  0
LINE
  5
8A
330
7F
100
AcDbEntity
  8
중심선
100
AcDbLine
 10
10.72767329541681
 20
16.24717430164393
 30
0.0
 11
6.196535287059397
 21
10.84717430164391
 31
0.0
  0
LINE
  5
8B
330
7F
100
AcDbEntity
  8
중심선
100
AcDbLine
 10
7.28139805157953
 20
16.24717430164393
 30
0.0
 11
2.750260043222114
 21
10.84717430164391
 31
0.0
  0
LINE
  5
8C
330
7F
100
AcDbEntity
  8
중심선
100
AcDbLine
 10
5.714909304380834
 20
16.24717430164393
 30
0.0
 11
3.58671253028996
 21
13.71088815037384
 31
0.0
  0
LINE
  5
8D
330
7F
100
AcDbEntity
  8
중심선
100
AcDbLine
 10
2.268634060543552
 20
16.24717430164393
 30
0.0
 11
0.1404042013395286
 21
13.71084872107135
 31
0.0
  0
LINE
  5
8E
330
7F
100
AcDbEntity
  8
중심선
100
AcDbLine
 10
7.28139805157953
 20
16.24717430164393
 30
0.0
 11
10.72767329541681
 21
16.24717430164393
 31
0.0
  0
LINE
  5
8F
330
7F
100
AcDbEntity
  8
중심선
100
AcDbLine
 10
12.29416204261559
 20
16.24717430164393
 30
0.0
 11
15.74043728645272
 21
16.24717430164393
 31
0.0
  0
LINE
  5
90
330
7F
100
AcDbEntity
  8
중심선
100
AcDbLine
 10
19.22036997980202
 20
11.08717430171403
 30
0.0
 11
23.66174974927406
 21
11.08717430171406
 31
0.0
  0
LINE
  5
91
330
7F
100
AcDbEntity
  8
중심선
100
AcDbLine
 10
19.22039502424796
 20
13.00717430171391
 30
0.0
 11
19.22036997980202
 21
11.08717430171403
 31
0.0
  0
LINE
  5
92
330
7F
100
AcDbEntity
  8
중심선
100
AcDbLine
 10
19.22039502424796
 20
13.00717430171391
 30
0.0
 11
26.96566020931264
 21
13.00717430171391
 31
0.0
  0
LINE
  5
93
330
7F
100
AcDbEntity
  8
중심선
100
AcDbLine
 10
22.22332737316547
 20
13.45928029700563
 30
0.0
 11
24.52862924686651
 21
15.39360700705356
 31
0.0
  0
ATTDEF
  5
95
330
7F
100
AcDbEntity
  8
FORMAT
 62
     2
100
AcDbText
 10
4.408487351596664
 20
2.075366912832191
 30
0.0
 40
4.233333333333333
  1
E1013011
 41
0.75
  7
SLDTEXTSTYLE0
 11
4.408487351596664
 21
-0.0412997538344756
 31
0.0
100
AcDbAttributeDefinition
  3

  2
AUTOATTR0
 70
     0
 74
     1
  0
ENDBLK
  5
81
330
7F
100
AcDbEntity
  8
0
100
AcDbBlockEnd
  0
BLOCK
  5
CE
330
CD
100
AcDbEntity
  8
0
100
AcDbBlockBegin
  2
_D
 70
     0
 10
0.0
 20
0.0
 30
0.0
  3
_D
  1

  0
LINE
  5
D0
330
CD
100
AcDbEntity
  8
치수문자_일반주서
 62
     0
370
    -2
100
AcDbLine
 10
28.575
 20
2.245312500000003
 30
0.0
 11
28.575
 21
12.38125
 31
0.0
  0
LINE
  5
D1
330
CD
100
AcDbEntity
  8
치수문자_일반주서
 62
     0
370
    -2
100
AcDbLine
 10
15.875
 20
2.245312499999992
 30
0.0
 11
15.875
 21
12.38125
 31
0.0
  0
LINE
  5
D2
330
CD
100
AcDbEntity
  8
치수문자_일반주서
 62
     0
370
    -2
100
AcDbLine
 10
28.575
 20
12.38125
 30
0.0
 11
55.9395
 21
12.38125
 31
0.0
  0
LINE
  5
D3
330
CD
100
AcDbEntity
  8
치수문자_일반주서
 62
     0
370
    -2
100
AcDbLine
 10
28.575
 20
12.38125
 30
0.0
 11
15.875
 21
12.38125
 31
0.0
  0
LINE
  5
D4
330
CD
100
AcDbEntity
  8
치수문자_일반주서
 62
     0
370
    -2
100
AcDbLine
 10
31.877
 20
12.38125
 30
0.0
 11
35.179
 21
12.38125
 31
0.0
  0
LINE
  5
D5
330
CD
100
AcDbEntity
  8
치수문자_일반주서
 62
     0
370
    -2
100
AcDbLine
 10
12.573
 20
12.38125
 30
0.0
 11
9.271
 21
12.38125
 31
0.0
  0
SOLID
  5
D6
330
CD
100
AcDbEntity
  8
치수문자_일반주서
 62
     0
100
AcDbTrace
 10
31.877
 20
12.93158333333334
 30
0.0
 11
31.877
 21
11.83091666666667
 31
0.0
 12
28.575
 22
12.38125
 32
0.0
 13
28.575
 23
12.38125
 33
0.0
  0
SOLID
  5
D7
330
CD
100
AcDbEntity
  8
치수문자_일반주서
 62
     0
100
AcDbTrace
 10
12.573
 20
11.83091666666667
 30
0.0
 11
12.573
 21
12.93158333333334
 31
0.0
 12
15.875
 22
12.38125
 32
0.0
 13
15.875
 23
12.38125
 33
0.0
  0
MTEXT
  5
D8
330
CD
100
AcDbEntity
  8
치수문자_일반주서
 62
     0
100
AcDbMText
 10
43.90825
 20
16.75625
 30
0.0
 40
3.5
 41
0.0
 71
     2
 72
     1
  1
\A1;12.70 [1/2]
  7
SLDTEXTSTYLE0
 73
     1
 44
1.0
  0
POINT
  5
D9
330
CD
100
AcDbEntity
  8
Defpoints
 62
     0
100
AcDbPoint
 10
28.575
 20
2.182812500000003
 30
0.0
  0
POINT
  5
1B6
330
CD
100
AcDbEntity
  8
Defpoints
 62
     0
100
AcDbPoint
 10
15.875
 20
2.182812499999992
 30
0.0
  0
POINT
  5
1B7
330
CD
100
AcDbEntity
  8
Defpoints
 62
     0
100
AcDbPoint
 10
15.875
 20
12.38125
 30
0.0
  0
ENDBLK
  5
CF
330
CD
100
AcDbEntity
  8
0
100
AcDbBlockEnd
  0
BLOCK
  5
E3
330
E2
100
AcDbEntity
  8
0
100
AcDbBlockBegin
  2
_D_1
 70
     0
 10
0.0
 20
0.0
 30
0.0
  3
_D_1
  1

  0
LINE
  5
E5
330
E2
100
AcDbEntity
  8
치수문자_일반주서
 62
     0
370
    -2
100
AcDbLine
 10
28.575
 20
2.245312500000003
 30
0.0
 11
28.575
 21
22.38125
 31
0.0
  0
LINE
  5
E6
330
E2
100
AcDbEntity
  8
치수문자_일반주서
 62
     0
370
    -2
100
AcDbLine
 10
-28.575
 20
2.245312500000003
 30
0.0
 11
-28.575
 21
22.38125
 31
0.0
  0
LINE
  5
E7
330
E2
100
AcDbEntity
  8
치수문자_일반주서
 62
     0
370
    -2
100
AcDbLine
 10
25.273
 20
22.38125
 30
0.0
 11
-25.273
 21
22.38125
 31
0.0
  0
SOLID
  5
E8
330
E2
100
AcDbEntity
  8
치수문자_일반주서
 62
     0
100
AcDbTrace
 10
25.273
 20
21.83091666666667
 30
0.0
 11
25.273
 21
22.93158333333334
 31
0.0
 12
28.575
 22
22.38125
 32
0.0
 13
28.575
 23
22.38125
 33
0.0
  0
SOLID
  5
E9
330
E2
100
AcDbEntity
  8
치수문자_일반주서
 62
     0
100
AcDbTrace
 10
-25.273
 20
22.93158333333334
 30
0.0
 11
-25.273
 21
21.83091666666667
 31
0.0
 12
-28.575
 22
22.38125
 32
0.0
 13
-28.575
 23
22.38125
 33
0.0
  0
MTEXT
  5
EA
330
E2
100
AcDbEntity
  8
치수문자_일반주서
 62
     0
100
AcDbMText
 10
0.2501241026247421
 20
26.75625
 30
0.0
 40
3.5
 41
0.0
 71
     2
 72
     1
  1
\A1;57.15 [2 1/4]
  7
SLDTEXTSTYLE0
 73
     1
 44
1.0
  0
POINT
  5
EB
330
E2
100
AcDbEntity
  8
Defpoints
 62
     0
100
AcDbPoint
 10
28.575
 20
2.182812500000003
 30
0.0
  0
POINT
  5
EC
330
E2
100
AcDbEntity
  8
Defpoints
 62
     0
100
AcDbPoint
 10
-28.575
 20
2.182812500000003
 30
0.0
  0
POINT
  5
ED
330
E2
100
AcDbEntity
  8
Defpoints
 62
     0
100
AcDbPoint
 10
-28.575
 20
22.38125
 30
0.0
  0
ENDBLK
  5
E4
330
E2
100
AcDbEntity
  8
0
100
AcDbBlockEnd
  0
BLOCK
  5
F7
330
F6
100
AcDbEntity
  8
0
100
AcDbBlockBegin
  2
_D_2
 70
     0
 10
0.0
 20
0.0
 30
0.0
  3
_D_2
  1

  0
LINE
  5
F9
330
F6
100
AcDbEntity
  8
치수문자_일반주서
 62
     0
370
    -2
100
AcDbLine
 10
-14.19692116787305
 20
2.381250000000005
 30
0.0
 11
-38.575
 21
2.381249999999913
 31
0.0
  0
LINE
  5
FA
330
F6
100
AcDbEntity
  8
치수문자_일반주서
 62
     0
370
    -2
100
AcDbLine
 10
-14.19692116787304
 20
-2.38125
 30
0.0
 11
-38.57499999999999
 21
-2.38125000000009
 31
0.0
  0
LINE
  5
FB
330
F6
100
AcDbEntity
  8
치수문자_일반주서
 62
     0
370
    -2
100
AcDbLine
 10
-38.575
 20
2.381249999999913
 30
0.0
 11
-38.57500000000011
 21
36.98524999999997
 31
0.0
  0
LINE
  5
FC
330
F6
100
AcDbEntity
  8
치수문자_일반주서
 62
     0
370
    -2
100
AcDbLine
 10
-38.57500000000001
 20
5.683249999999912
 30
0.0
 11
-38.57500000000002
 21
8.985249999999912
 31
0.0
  0
LINE
  5
FD
330
F6
100
AcDbEntity
  8
치수문자_일반주서
 62
     0
370
    -2
100
AcDbLine
 10
-38.57499999999998
 20
-5.68325000000009
 30
0.0
 11
-38.57499999999997
 21
-8.98525000000009
 31
0.0
  0
SOLID
  5
FE
330
F6
100
AcDbEntity
  8
치수문자_일반주서
 62
     0
100
AcDbTrace
 10
-39.12533333333334
 20
5.68324999999991
 30
0.0
 11
-38.02466666666668
 21
5.683249999999914
 31
0.0
 12
-38.575
 22
2.381249999999913
 32
0.0
 13
-38.575
 23
2.381249999999913
 33
0.0
  0
SOLID
  5
FF
330
F6
100
AcDbEntity
  8
치수문자_일반주서
 62
     0
100
AcDbTrace
 10
-38.02466666666665
 20
-5.683250000000088
 30
0.0
 11
-39.12533333333332
 21
-5.683250000000092
 31
0.0
 12
-38.57499999999999
 22
-2.38125000000009
 32
0.0
 13
-38.57499999999999
 23
-2.38125000000009
 33
0.0
  0
MTEXT
  5
100
330
F6
100
AcDbEntity
  8
치수문자_일반주서
 62
     0
100
AcDbMText
 10
-42.95000000000007
 20
22.98524999999995
 30
0.0
 40
3.5
 41
0.0
 71
     2
 72
     1
  1
\A1;%%c4.76 [3/16]
  7
SLDTEXTSTYLE0
 11
-2.983906501879683E-15
 21
1.0
 31
0.0
 73
     1
 44
1.0
  0
POINT
  5
101
330
F6
100
AcDbEntity
  8
Defpoints
 62
     0
100
AcDbPoint
 10
-14.13442116787305
 20
2.381250000000005
 30
0.0
  0
POINT
  5
102
330
F6
100
AcDbEntity
  8
Defpoints
 62
     0
100
AcDbPoint
 10
-14.13442116787304
 20
-2.381249999999999
 30
0.0
  0
POINT
  5
1B5
330
F6
100
AcDbEntity
  8
Defpoints
 62
     0
100
AcDbPoint
 10
-38.57499999999999
 20
-2.381250000000091
 30
0.0
  0
ENDBLK
  5
F8
330
F6
100
AcDbEntity
  8
0
100
AcDbBlockEnd
  0
BLOCK
  5
10B
330
10A
100
AcDbEntity
  8
0
100
AcDbBlockBegin
  2
_D_3
 70
     0
 10
0.0
 20
0.0
 30
0.0
  3
_D_3
  1

  0
LINE
  5
10D
330
10A
100
AcDbEntity
  8
치수문자_일반주서
 62
     0
370
    -2
100
AcDbLine
 10
28.6375
 20
2.182812500000004
 30
0.0
 11
61.83786612752498
 21
2.182812500000129
 31
0.0
  0
LINE
  5
10E
330
10A
100
AcDbEntity
  8
치수문자_일반주서
 62
     0
370
    -2
100
AcDbLine
 10
28.6375
 20
-2.182812499999996
 30
0.0
 11
61.83786612752499
 21
-2.182812499999873
 31
0.0
  0
LINE
  5
10F
330
10A
100
AcDbEntity
  8
치수문자_일반주서
 62
     0
370
    -2
100
AcDbLine
 10
61.83786612752498
 20
2.182812500000129
 30
0.0
 11
61.83786612752485
 21
38.53681250000012
 31
0.0
  0
LINE
  5
110
330
10A
100
AcDbEntity
  8
치수문자_일반주서
 62
     0
370
    -2
100
AcDbLine
 10
61.83786612752496
 20
5.484812500000128
 30
0.0
 11
61.83786612752495
 21
8.786812500000128
 31
0.0
  0
LINE
  5
111
330
10A
100
AcDbEntity
  8
치수문자_일반주서
 62
     0
370
    -2
100
AcDbLine
 10
61.837866127525
 20
-5.484812499999872
 30
0.0
 11
61.83786612752502
 21
-8.786812499999872
 31
0.0
  0
SOLID
  5
112
330
10A
100
AcDbEntity
  8
치수문자_일반주서
 62
     0
100
AcDbTrace
 10
61.28753279419163
 20
5.484812500000126
 30
0.0
 11
62.3881994608583
 21
5.48481250000013
 31
0.0
 12
61.83786612752498
 22
2.182812500000129
 32
0.0
 13
61.83786612752498
 23
2.182812500000129
 33
0.0
  0
SOLID
  5
113
330
10A
100
AcDbEntity
  8
치수문자_일반주서
 62
     0
100
AcDbTrace
 10
62.38819946085834
 20
-5.484812499999871
 30
0.0
 11
61.28753279419167
 21
-5.484812499999874
 31
0.0
 12
61.83786612752499
 22
-2.182812499999873
 32
0.0
 13
61.83786612752499
 23
-2.182812499999873
 33
0.0
  0
MTEXT
  5
114
330
10A
100
AcDbEntity
  8
치수문자_일반주서
 62
     0
100
AcDbMText
 10
57.4628661275249
 20
23.66181250000011
 30
0.0
 40
3.5
 41
0.0
 71
     2
 72
     1
  1
\A1;%%c4.37 [11/64]
  7
SLDTEXTSTYLE0
 11
-3.255170729323294E-15
 21
1.0
 31
0.0
 73
     1
 44
1.0
  0
POINT
  5
115
330
10A
100
AcDbEntity
  8
Defpoints
 62
     0
100
AcDbPoint
 10
28.575
 20
2.182812500000003
 30
0.0
  0
POINT
  5
116
330
10A
100
AcDbEntity
  8
Defpoints
 62
     0
100
AcDbPoint
 10
28.575
 20
-2.182812499999996
 30
0.0
  0
POINT
  5
117
330
10A
100
AcDbEntity
  8
Defpoints
 62
     0
100
AcDbPoint
 10
61.837866127525
 20
-2.182812499999872
 30
0.0
  0
ENDBLK
  5
10C
330
10A
100
AcDbEntity
  8
0
100
AcDbBlockEnd
  0
BLOCK
  5
125
330
124
100
AcDbEntity
  8
0
100
AcDbBlockBegin
  2
SW_DOWELSYMBOL_0
 70
     0
 10
0.0
 20
0.0
 30
0.0
  3
SW_DOWELSYMBOL_0
  1

  0
CIRCLE
  5
127
330
124
100
AcDbEntity
  8
해칭선
 62
     0
100
AcDbCircle
 10
0.0
 20
0.0
 30
0.0
 40
3.000000000000001
  0
HATCH
  5
128
330
124
100
AcDbEntity
  8
0
  6
Continuous
 62
     0
370
     0
100
AcDbHatch
 10
0.0
 20
0.0
 30
0.0
210
0.0
220
0.0
230
1.0
  2
SOLID
 70
     1
 71
     0
 91
        1
 92
        0
 93
        3
 72
     2
 10
0.0
 20
0.0
 40
3.000000000000001
 50
0.0
 51
90.0
 73
     1
 72
     1
 10
0.0
 20
3.000000000000001
 11
0.0
 21
0.0
 72
     1
 10
0.0
 20
0.0
 11
3.000000000000001
 21
0.0
 97
        0
 75
     0
 76
     1
 98
        1
 10
0.0
 20
0.0
  0
HATCH
  5
129
330
124
100
AcDbEntity
  8
0
  6
Continuous
 62
     0
370
     0
100
AcDbHatch
 10
0.0
 20
0.0
 30
0.0
210
0.0
220
0.0
230
1.0
  2
SOLID
 70
     1
 71
     0
 91
        1
 92
        0
 93
        3
 72
     2
 10
0.0
 20
0.0
 40
3.000000000000001
 50
180.0
 51
270.0000000000008
 73
     1
 72
     1
 10
0.0
 20
-3.000000000000001
 11
0.0
 21
0.0
 72
     1
 10
0.0
 20
0.0
 11
-3.000000000000001
 21
0.0
 97
        0
 75
     0
 76
     1
 98
        1
 10
0.0
 20
0.0
  0
ENDBLK
  5
126
330
124
100
AcDbEntity
  8
0
100
AcDbBlockEnd
  0
BLOCK
  5
18A
330
189
100
AcDbEntity
  8
0
100
AcDbBlockBegin
  2
*D8
 70
     1
 10
0.0
 20
0.0
 30
0.0
  3
*D8
  1

  0
LINE
  5
18C
330
189
100
AcDbEntity
  8
치수문자_일반주서
 62
     0
370
    -2
100
AcDbLine
 10
16.12899999999999
 20
2.314062027106202
 30
0.0
 11
16.12899999999999
 21
13.0453120271062
 31
0.0
  0
LINE
  5
18D
330
189
100
AcDbEntity
  8
치수문자_일반주서
 62
     0
370
    -2
100
AcDbLine
 10
6.604000000000001
 20
2.31406202710619
 30
0.0
 11
6.603999999999999
 21
13.0453120271062
 31
0.0
  0
LINE
  5
18E
330
189
100
AcDbEntity
  8
치수문자_일반주서
 62
     0
370
    -2
100
AcDbLine
 10
16.12899999999999
 20
13.0453120271062
 30
0.0
 11
43.27475
 21
13.0453120271062
 31
0.0
  0
LINE
  5
18F
330
189
100
AcDbEntity
  8
치수문자_일반주서
 62
     0
370
    -2
100
AcDbLine
 10
16.12899999999999
 20
13.0453120271062
 30
0.0
 11
6.603999999999999
 21
13.0453120271062
 31
0.0
  0
LINE
  5
190
330
189
100
AcDbEntity
  8
치수문자_일반주서
 62
     0
370
    -2
100
AcDbLine
 10
19.43099999999999
 20
13.0453120271062
 30
0.0
 11
22.73299999999999
 21
13.0453120271062
 31
0.0
  0
LINE
  5
191
330
189
100
AcDbEntity
  8
치수문자_일반주서
 62
     0
370
    -2
100
AcDbLine
 10
3.302
 20
13.0453120271062
 30
0.0
 11
0.0
 21
13.0453120271062
 31
0.0
  0
SOLID
  5
192
330
189
100
AcDbEntity
  8
치수문자_일반주서
 62
     0
100
AcDbTrace
 10
19.43099999999999
 20
13.59564536043953
 30
0.0
 11
19.43099999999999
 21
12.49497869377287
 31
0.0
 12
16.12899999999999
 22
13.0453120271062
 32
0.0
 13
16.12899999999999
 23
13.0453120271062
 33
0.0
  0
SOLID
  5
193
330
189
100
AcDbEntity
  8
치수문자_일반주서
 62
     0
100
AcDbTrace
 10
3.302
 20
12.49497869377287
 30
0.0
 11
3.302
 21
13.59564536043953
 31
0.0
 12
6.603999999999999
 22
13.0453120271062
 32
0.0
 13
6.603999999999999
 23
13.0453120271062
 33
0.0
  0
MTEXT
  5
194
330
189
100
AcDbEntity
  8
치수문자_일반주서
 62
     0
100
AcDbMText
 10
31.46225
 20
17.4203120271062
 30
0.0
 40
3.5
 41
0.0
 71
     2
 72
     1
  1
\A1;9.53 [3/8]
  7
SLDTEXTSTYLE0
 73
     1
 44
1.0
  0
POINT
  5
195
330
189
100
AcDbEntity
  8
Defpoints
 62
     0
100
AcDbPoint
 10
16.12899999999999
 20
2.251562027106202
 30
0.0
  0
POINT
  5
196
330
189
100
AcDbEntity
  8
Defpoints
 62
     0
100
AcDbPoint
 10
6.604000000000001
 20
2.25156202710619
 30
0.0
  0
POINT
  5
197
330
189
100
AcDbEntity
  8
Defpoints
 62
     0
100
AcDbPoint
 10
6.604000000000001
 20
13.0453120271062
 30
0.0
  0
ENDBLK
  5
18B
330
189
100
AcDbEntity
  8
0
100
AcDbBlockEnd
  0
BLOCK
  5
19C
330
19B
100
AcDbEntity
  8
0
100
AcDbBlockBegin
  2
*D9
 70
     1
 10
0.0
 20
0.0
 30
0.0
  3
*D9
  1

  0
LINE
  5
19E
330
19B
100
AcDbEntity
  8
치수문자_일반주서
 62
     0
370
    -2
100
AcDbLine
 10
72.57649067957138
 20
-18.9504751507889
 30
0.0
 11
72.57649067957138
 21
-8.219225150788901
 31
0.0
  0
LINE
  5
19F
330
19B
100
AcDbEntity
  8
치수문자_일반주서
 62
     0
370
    -2
100
AcDbLine
 10
63.05149067957139
 20
-18.95047515078891
 30
0.0
 11
63.05149067957139
 21
-8.219225150788901
 31
0.0
  0
LINE
  5
1A0
330
19B
100
AcDbEntity
  8
치수문자_일반주서
 62
     0
370
    -2
100
AcDbLine
 10
72.57649067957138
 20
-8.219225150788901
 30
0.0
 11
99.7222406795714
 21
-8.219225150788901
 31
0.0
  0
LINE
  5
1A1
330
19B
100
AcDbEntity
  8
치수문자_일반주서
 62
     0
370
    -2
100
AcDbLine
 10
72.57649067957138
 20
-8.219225150788901
 30
0.0
 11
63.05149067957139
 21
-8.219225150788901
 31
0.0
  0
LINE
  5
1A2
330
19B
100
AcDbEntity
  8
치수문자_일반주서
 62
     0
370
    -2
100
AcDbLine
 10
75.87849067957137
 20
-8.219225150788901
 30
0.0
 11
79.18049067957136
 21
-8.219225150788901
 31
0.0
  0
LINE
  5
1A3
330
19B
100
AcDbEntity
  8
치수문자_일반주서
 62
     0
370
    -2
100
AcDbLine
 10
59.74949067957139
 20
-8.219225150788901
 30
0.0
 11
56.44749067957139
 21
-8.219225150788901
 31
0.0
  0
SOLID
  5
1A4
330
19B
100
AcDbEntity
  8
치수문자_일반주서
 62
     0
100
AcDbTrace
 10
75.87849067957137
 20
-7.668891817455568
 30
0.0
 11
75.87849067957137
 21
-8.769558484122234
 31
0.0
 12
72.57649067957138
 22
-8.219225150788901
 32
0.0
 13
72.57649067957138
 23
-8.219225150788901
 33
0.0
  0
SOLID
  5
1A5
330
19B
100
AcDbEntity
  8
치수문자_일반주서
 62
     0
100
AcDbTrace
 10
59.74949067957139
 20
-8.769558484122234
 30
0.0
 11
59.74949067957139
 21
-7.668891817455568
 31
0.0
 12
63.05149067957139
 22
-8.219225150788901
 32
0.0
 13
63.05149067957139
 23
-8.219225150788901
 33
0.0
  0
MTEXT
  5
1A6
330
19B
100
AcDbEntity
  8
치수문자_일반주서
 62
     0
100
AcDbMText
 10
87.9097406795714
 20
-3.844225150788901
 30
0.0
 40
3.5
 41
0.0
 71
     2
 72
     1
  1
\A1;9.53 [3/8]
  7
SLDTEXTSTYLE0
 73
     1
 44
1.0
  0
POINT
  5
1A7
330
19B
100
AcDbEntity
  8
Defpoints
 62
     0
100
AcDbPoint
 10
72.57649067957138
 20
-19.0129751507889
 30
0.0
  0
POINT
  5
1A8
330
19B
100
AcDbEntity
  8
Defpoints
 62
     0
100
AcDbPoint
 10
63.05149067957139
 20
-19.01297515078891
 30
0.0
  0
POINT
  5
1A9
330
19B
100
AcDbEntity
  8
Defpoints
 62
     0
100
AcDbPoint
 10
63.05149067957139
 20
-8.219225150788901
 30
0.0
  0
ENDBLK
  5
19D
330
19B
100
AcDbEntity
  8
0
100
AcDbBlockEnd
  0
ENDSEC
  0
SECTION
  2
ENTITIES
  0
LINE
  5
96
330
1F
100
AcDbEntity
  8
외형선
  6
Continuous
370
    15
100
AcDbLine
 10
14.13442116787304
 20
2.381250000000003
 30
0.0
 11
-14.13442116787305
 21
2.38125
 31
0.0
  0
LINE
  5
97
330
1F
100
AcDbEntity
  8
외형선
  6
Continuous
370
    15
100
AcDbLine
 10
-14.13442116787304
 20
-2.381249999999999
 30
0.0
 11
14.13442116787305
 21
-2.381249999999996
 31
0.0
  0
LINE
  5
9A
330
1F
100
AcDbEntity
  8
외형선
  6
Continuous
370
    15
100
AcDbLine
 10
14.13442116787305
 20
-2.381249999999996
 30
0.0
 11
14.87499999999999
 21
-2.182812499999996
 31
0.0
  0
LINE
  5
9B
330
1F
100
AcDbEntity
  8
외형선
  6
Continuous
370
    15
100
AcDbLine
 10
14.87499999999999
 20
2.182812500000003
 30
0.0
 11
14.13442116787304
 21
2.381250000000003
 31
0.0
  0
LINE
  5
9C
330
1F
100
AcDbEntity
  8
외형선
  6
Continuous
370
    15
100
AcDbLine
 10
15.87499999999999
 20
2.182812500000003
 30
0.0
 11
14.87499999999999
 21
2.182812500000003
 31
0.0
  0
LINE
  5
9D
330
1F
100
AcDbEntity
  8
외형선
  6
Continuous
370
    15
100
AcDbLine
 10
14.87499999999999
 20
-2.182812499999996
 30
0.0
 11
15.87499999999999
 21
-2.182812499999996
 31
0.0
  0
LINE
  5
9E
330
1F
100
AcDbEntity
  8
0
  6
Continuous
 62
     1
370
    15
100
AcDbLine
 10
25.95521402271753
 20
-2.182812499999996
 30
0.0
 11
26.3921875
 21
-2.182812499999996
 31
0.0
1001
PE_URL
1000

  0
LINE
  5
9F
330
1F
100
AcDbEntity
  8
0
  6
Continuous
 62
     1
370
    15
100
AcDbLine
 10
18.82285214474154
 20
2.182812500000003
 30
0.0
 11
15.87499999999999
 21
2.182812500000003
 31
0.0
1001
PE_URL
1000

  0
ARC
  5
A0
330
1F
100
AcDbEntity
  8
0
  6
Continuous
 62
     1
370
    15
100
AcDbCircle
 10
26.3921875
 20
0.0000000000000035
 30
0.0
 40
2.1828125
100
AcDbArc
 50
270.0000000000008
 51
0.0
1001
PE_URL
1000

  0
ARC
  5
A1
330
1F
100
AcDbEntity
  8
0
  6
Continuous
 62
     1
370
    15
100
AcDbCircle
 10
26.3921875
 20
0.0000000000000035
 30
0.0
 40
2.1828125
100
AcDbArc
 50
0.0
 51
90.0
1001
PE_URL
1000

  0
LINE
  5
A2
330
1F
100
AcDbEntity
  8
0
  6
Continuous
 62
     1
370
    15
100
AcDbLine
 10
15.87499999999999
 20
-2.182812499999996
 30
0.0
 11
18.82285214474155
 21
-2.182812499999996
 31
0.0
1001
PE_URL
1000

  0
LINE
  5
A3
330
1F
100
AcDbEntity
  8
0
  6
Continuous
 62
     1
370
    15
100
AcDbLine
 10
26.3921875
 20
2.182812500000003
 30
0.0
 11
25.95521402271752
 21
2.182812500000003
 31
0.0
1001
PE_URL
1000

  0
LINE
  5
A4
330
1F
100
AcDbEntity
  8
외형선
  6
Continuous
370
    15
100
AcDbLine
 10
14.13442116787304
 20
2.381250000000003
 30
0.0
 11
14.13442116787305
 21
-2.381249999999998
 31
0.0
  0
LINE
  5
A7
330
1F
100
AcDbEntity
  8
외형선
  6
Continuous
370
    15
100
AcDbLine
 10
14.87499999999999
 20
2.182812500000003
 30
0.0
 11
14.87499999999999
 21
-2.182812499999999
 31
0.0
  0
LINE
  5
A8
330
1F
100
AcDbEntity
  8
외형선
  6
Continuous
370
    15
100
AcDbLine
 10
15.87499999999999
 20
2.182812500000003
 30
0.0
 11
15.87499999999999
 21
1.940686637669264
 31
0.0
  0
SPLINE
  5
A9
330
1F
100
AcDbEntity
  8
외형선
  6
Continuous
370
    15
100
AcDbSpline
210
0.0
220
0.0
230
1.0
 70
     8
 71
     3
 72
    10
 73
     6
 74
     0
 42
0.000000001
 43
0.00000001
 40
0.0
 40
0.0
 40
0.0
 40
0.0
 40
0.5
 40
0.5
 40
1.0
 40
1.0
 40
1.0
 40
1.0
 10
14.984959152107
 20
2.120271959266132
 30
0.0
 10
15.13408968397205
 20
2.099872751888273
 30
0.0
 10
15.28354140759065
 20
2.074524372117324
 30
0.0
 10
15.57998651395991
 20
2.01451452974838
 30
0.0
 10
15.72642353578292
 20
1.979929214178112
 30
0.0
 10
15.87500000000006
 20
1.940686637669248
 30
0.0
  0
SPLINE
  5
AA
330
1F
100
AcDbEntity
  8
외형선
  6
Continuous
370
    15
100
AcDbSpline
210
0.0
220
0.0
230
1.0
 70
     8
 71
     3
 72
    10
 73
     6
 74
     0
 42
0.000000001
 43
0.00000001
 40
0.0
 40
0.0
 40
0.0
 40
0.0
 40
0.5
 40
0.5
 40
1.0
 40
1.0
 40
1.0
 40
1.0
 10
15.87500000000009
 20
-1.552626892293065
 30
0.0
 10
15.72640795369715
 20
-1.492363357564699
 30
0.0
 10
15.57995568107302
 20
-1.428813038131004
 30
0.0
 10
15.28347897058222
 20
-1.294912781081568
 30
0.0
 10
15.1340113474934
 20
-1.224620576034726
 30
0.0
 10
14.98486531098485
 20
-1.151698784026433
 30
0.0
  0
LINE
  5
AB
330
1F
100
AcDbEntity
  8
외형선
  6
Continuous
370
    15
100
AcDbLine
 10
15.87499999999999
 20
-1.552626892293027
 30
0.0
 11
15.87499999999999
 21
-2.182812499999996
 31
0.0
  0
LINE
  5
AC
330
1F
100
AcDbEntity
  8
외형선
  6
Continuous
370
    15
100
AcDbLine
 10
14.98486531098485
 20
-1.151810465163509
 30
0.0
 11
14.98486531098485
 21
2.120297726959318
 31
0.0
  0
SPLINE
  5
AD
330
1F
100
AcDbEntity
  8
외형선
  6
Continuous
370
    15
100
AcDbSpline
210
0.0
220
0.0
230
1.0
 70
    24
 71
     3
 72
    14
 73
    10
 74
     0
 42
0.000000001
 43
0.00000001
 40
0.0
 40
0.0
 40
0.0
 40
0.0
 40
0.25
 40
0.25
 40
0.5
 40
0.5
 40
0.75
 40
0.75
 40
1.0
 40
1.0
 40
1.0
 40
1.0
 10
15.87499999999999
 20
0.320549172725344
 30
0.0
 10
15.87499999999999
 20
0.219787111030469
 30
0.0
 10
15.87499999999999
 20
0.0978212706512156
 30
0.0
 10
15.87499999999999
 20
-0.1889824999629346
 30
0.0
 10
15.87499999999999
 20
-0.3541731223309981
 30
0.0
 10
15.87499999999999
 20
-0.7074499275455887
 30
0.0
 10
15.87499999999999
 20
-0.8951138108388429
 30
0.0
 10
15.87499999999999
 20
-1.250263122240028
 30
0.0
 10
15.87499999999999
 20
-1.416590316718783
 30
0.0
 10
15.87499999999999
 20
-1.552626892285911
 30
0.0
  0
SPLINE
  5
AE
330
1F
100
AcDbEntity
  8
외형선
  6
Continuous
370
    15
100
AcDbSpline
210
0.0
220
0.0
230
1.0
 70
     8
 71
     3
 72
    10
 73
     6
 74
     0
 42
0.000000001
 43
0.00000001
 40
0.0
 40
0.0
 40
0.0
 40
0.0
 40
0.5
 40
0.5
 40
1.0
 40
1.0
 40
1.0
 40
1.0
 10
15.87500000000004
 20
0.3205491727253258
 30
0.0
 10
15.72640795369711
 20
0.3775611669494737
 30
0.0
 10
15.57995568107298
 20
0.4335612051228373
 30
0.0
 10
15.28347897058221
 20
0.5437551568282275
 30
0.0
 10
15.13401134749339
 20
0.5978710582435066
 30
0.0
 10
14.98486531098485
 20
0.6504356911547624
 30
0.0
  0
SPLINE
  5
AF
330
1F
100
AcDbEntity
  8
외형선
  6
Continuous
370
    15
100
AcDbSpline
210
0.0
220
0.0
230
1.0
 70
    24
 71
     3
 72
    14
 73
    10
 74
     0
 42
0.000000001
 43
0.00000001
 40
0.0
 40
0.0
 40
0.0
 40
0.0
 40
0.25
 40
0.25
 40
0.5
 40
0.5
 40
0.75
 40
0.75
 40
1.0
 40
1.0
 40
1.0
 40
1.0
 10
15.87499999999999
 20
1.940686637652916
 30
0.0
 10
15.87499999999999
 20
1.787198887143863
 30
0.0
 10
15.87499999999999
 20
1.617545464922904
 30
0.0
 10
15.87499999999999
 20
1.281717410213758
 30
0.0
 10
15.87499999999999
 20
1.116335377602157
 30
0.0
 10
15.87499999999999
 20
0.8204303556782406
 30
0.0
 10
15.87499999999999
 20
0.6900166770150027
 30
0.0
 10
15.87499999999999
 20
0.4738070224908373
 30
0.0
 10
15.87499999999999
 20
0.38765587526083
 30
0.0
 10
15.87499999999999
 20
0.3205491727253424
 30
0.0
  0
SPLINE
  5
B0
330
1F
100
AcDbEntity
  8
0
  6
Continuous
 62
     1
370
    15
100
AcDbSpline
210
0.0
220
0.0
230
1.0
 70
     8
 71
     3
 72
    15
 73
    11
 74
     0
 42
0.000000001
 43
0.00000001
 40
0.0
 40
0.0
 40
0.0
 40
0.0
 40
0.1297534981016823
 40
0.2594587005280108
 40
0.3891229377939769
 40
0.5187570835937335
 40
0.6483721081846597
 40
0.7779790433496647
 40
0.9001653264887037
 40
1.0
 40
1.0
 40
1.0
 40
1.0
 10
26.39218749999999
 20
-0.9125348870825859
 30
0.0
 10
26.06474204143125
 20
-0.7349554785046681
 30
0.0
 10
25.40997300308542
 20
-0.3798627583527021
 30
0.0
 10
24.42807834984739
 20
0.194674955591348
 30
0.0
 10
23.44654355291786
 20
0.7517786602814878
 30
0.0
 10
22.46527833427871
 20
1.259333590671575
 30
0.0
 10
21.48420400796535
 20
1.683269995718535
 30
0.0
 10
20.52186793708113
 20
1.984516504114293
 30
0.0
 10
19.63488310406639
 20
2.158605367306994
 30
0.0
 10
19.07473167738961
 20
2.168572157567476
 30
0.0
 10
18.82285214474154
 20
2.173053857253051
 30
0.0
1001
PE_URL
1000

  0
SPLINE
  5
B1
330
1F
100
AcDbEntity
  8
0
  6
Continuous
 62
     1
370
    15
100
AcDbSpline
210
0.0
220
0.0
230
1.0
 70
     8
 71
     3
 72
    13
 73
     9
 74
     0
 42
0.000000001
 43
0.00000001
 40
0.0
 40
0.0
 40
0.0
 40
0.0
 40
0.155797670318273
 40
0.3116269039220814
 40
0.4675333351565075
 40
0.6557672307280525
 40
0.8440156783244631
 40
1.0
 40
1.0
 40
1.0
 40
1.0
 10
27.99064597910572
 20
0.2287782867254429
 30
0.0
 10
27.67829576787114
 20
0.3488323591627574
 30
0.0
 10
27.05353206590053
 20
0.5889648259733964
 30
0.0
 10
26.11617515729014
 20
0.909222995263619
 30
0.0
 10
25.11377414301719
 20
1.193936820196084
 30
0.0
 10
24.04612355037173
 20
1.402914433602031
 30
0.0
 10
22.97838059768053
 20
1.507209866427868
 30
0.0
 10
22.28808177032319
 20
1.470851135326578
 30
0.0
 10
21.97528239748461
 20
1.45437567885039
 30
0.0
1001
PE_URL
1000

  0
SPLINE
  5
B2
330
1F
100
AcDbEntity
  8
0
  6
Continuous
 62
     1
370
    15
100
AcDbSpline
210
0.0
220
0.0
230
1.0
 70
     8
 71
     3
 72
    22
 73
    18
 74
     0
 42
0.000000001
 43
0.00000001
 40
0.0
 40
0.0
 40
0.0
 40
0.0
 40
0.125
 40
0.125
 40
0.25
 40
0.25
 40
0.375
 40
0.375
 40
0.5
 40
0.5
 40
0.625
 40
0.625
 40
0.75
 40
0.75
 40
0.875
 40
0.875
 40
1.0
 40
1.0
 40
1.0
 40
1.0
 10
26.3921875
 20
-0.9125348870825876
 30
0.0
 10
26.51324446422802
 20
-0.976406043891741
 30
0.0
 10
26.63249160807472
 20
-1.03346119029297
 30
0.0
 10
26.87061759446406
 20
-1.129332716565744
 30
0.0
 10
26.99072637054784
 20
-1.168585456955765
 30
0.0
 10
27.22780270969612
 20
-1.219062732496164
 30
0.0
 10
27.34396228189451
 20
-1.230638966851151
 30
0.0
 10
27.5766501089546
 20
-1.213840150007606
 30
0.0
 10
27.69013512984331
 20
-1.184996166112879
 30
0.0
 10
27.90416086601909
 20
-1.069253600578431
 30
0.0
 10
28.00368436316526
 20
-0.9814995701325836
 30
0.0
 10
28.15501502747356
 20
-0.7484738239864566
 30
0.0
 10
28.20056886408668
 20
-0.610392273913118
 30
0.0
 10
28.22355573933868
 20
-0.3404192957455632
 30
0.0
 10
28.20281998247978
 20
-0.2131973521675965
 30
0.0
 10
28.12263367888227
 20
0.0198192350281504
 30
0.0
 10
28.06324439387733
 20
0.1268117331984944
 30
0.0
 10
27.99064597909955
 20
0.2287782867278343
 30
0.0
1001
PE_URL
1000

  0
SPLINE
  5
B3
330
1F
100
AcDbEntity
  8
0
  6
Continuous
 62
     1
370
    15
100
AcDbSpline
210
0.0
220
0.0
230
1.0
 70
     8
 71
     3
 72
    14
 73
    10
 74
     0
 42
0.000000001
 43
0.00000001
 40
0.0
 40
0.0
 40
0.0
 40
0.0
 40
0.1527398304839575
 40
0.3152087772290435
 40
0.477684279293638
 40
0.6401643207962311
 40
0.7599540719780354
 40
0.8799960704192017
 40
1.0
 40
1.0
 40
1.0
 40
1.0
 10
22.84591170025841
 20
-1.480461376933521
 30
0.0
 10
22.49097871298
 20
-1.478291778740803
 30
0.0
 10
21.75850446206724
 20
-1.473814384787711
 30
0.0
 10
20.64845093233279
 20
-1.303129570895789
 30
0.0
 10
19.51582082514956
 20
-1.023845670051237
 30
0.0
 10
18.48215042564717
 20
-0.6831505371234731
 30
0.0
 10
17.54772139379153
 20
-0.3339740616297305
 30
0.0
 10
16.71153869862767
 20
-0.0049728217942686
 30
0.0
 10
16.1538167498527
 20
0.2120533139367186
 30
0.0
 10
15.87500000000001
 20
0.3205491727253381
 30
0.0
1001
PE_URL
1000

  0
SPLINE
  5
B4
330
1F
100
AcDbEntity
  8
외형선
  6
Continuous
370
    15
100
AcDbSpline
210
0.0
220
0.0
230
1.0
 70
    24
 71
     3
 72
    14
 73
    10
 74
     0
 42
0.000000001
 43
0.00000001
 40
0.0
 40
0.0
 40
0.0
 40
0.0
 40
0.25
 40
0.25
 40
0.5
 40
0.5
 40
0.75
 40
0.75
 40
1.0
 40
1.0
 40
1.0
 40
1.0
 10
15.87499999999999
 20
1.940686637652916
 30
0.0
 10
15.87499999999999
 20
1.787198887143863
 30
0.0
 10
15.87499999999999
 20
1.617545464922904
 30
0.0
 10
15.87499999999999
 20
1.281717410213758
 30
0.0
 10
15.87499999999999
 20
1.116335377602157
 30
0.0
 10
15.87499999999999
 20
0.8204303556782406
 30
0.0
 10
15.87499999999999
 20
0.6900166770150027
 30
0.0
 10
15.87499999999999
 20
0.4738070224908373
 30
0.0
 10
15.87499999999999
 20
0.38765587526083
 30
0.0
 10
15.87499999999999
 20
0.3205491727253424
 30
0.0
  0
SPLINE
  5
B5
330
1F
100
AcDbEntity
  8
0
  6
Continuous
 62
     1
370
    15
100
AcDbSpline
210
0.0
220
0.0
230
1.0
 70
     8
 71
     3
 72
    23
 73
    19
 74
     0
 42
0.000000001
 43
0.00000001
 40
0.0
 40
0.0
 40
0.0
 40
0.0
 40
0.0761919126753219
 40
0.1531758821146753
 40
0.2154801797450855
 40
0.2782155885699786
 40
0.3403356904991701
 40
0.4028851637888464
 40
0.4650014786352901
 40
0.5275491994432863
 40
0.589664789801756
 40
0.6522096343847963
 40
0.7143250286789306
 40
0.7768681977362948
 40
0.8422065774629021
 40
0.9080418410059752
 40
0.9754167457061114
 40
1.0
 40
1.0
 40
1.0
 40
1.0
 10
15.87499999999999
 20
1.940686637669265
 30
0.0
 10
16.13111531512163
 20
1.865367095652336
 30
0.0
 10
16.646008404681
 20
1.713945023626401
 30
0.0
 10
17.37041550838427
 20
1.414018678887643
 30
0.0
 10
18.04840609121178
 20
1.090179068195636
 30
0.0
 10
18.6781081902589
 20
0.7612022812406694
 30
0.0
 10
19.30713811462413
 20
0.4087532010955862
 30
0.0
 10
19.93494929651634
 20
0.0474860179048804
 30
0.0
 10
20.56417848121916
 20
-0.3158826381151767
 30
0.0
 10
21.19111758772264
 20
-0.671123178981003
 30
0.0
 10
21.8210006727092
 20
-1.006233092631389
 30
0.0
 10
22.44770172227133
 20
-1.315518441484203
 30
0.0
 10
23.07737947724593
 20
-1.587078681345163
 30
0.0
 10
23.71544072634784
 20
-1.819389330269234
 30
0.0
 10
24.36606396859575
 20
-2.003883138940159
 30
0.0
 10
25.03389946371518
 20
-2.126346065063525
 30
0.0
 10
25.56347216412117
 20
-2.184981936554233
 30
0.0
 10
25.87257996624145
 20
-2.176762699306747
 30
0.0
 10
25.95521402271753
 20
-2.174565443494243
 30
0.0
1001
PE_URL
1000

  0
SPLINE
  5
B6
330
1F
100
AcDbEntity
  8
0
  6
Continuous
 62
     1
370
    15
100
AcDbSpline
210
0.0
220
0.0
230
1.0
 70
     8
 71
     3
 72
    10
 73
     6
 74
     0
 42
0.000000001
 43
0.00000001
 40
0.0
 40
0.0
 40
0.0
 40
0.0
 40
0.5
 40
0.5
 40
1.0
 40
1.0
 40
1.0
 40
1.0
 10
27.99064597909955
 20
0.228778286727835
 30
0.0
 10
28.04083604125893
 20
0.2590725648462731
 30
0.0
 10
28.08090614964718
 20
0.3051270439750201
 30
0.0
 10
28.13450379306671
 20
0.4218683303175029
 30
0.0
 10
28.14778077398465
 20
0.4921913945939981
 30
0.0
 10
28.14901514131232
 20
0.5653289365354427
 30
0.0
1001
PE_URL
1000

  0
ARC
  5
B7
330
1F
100
AcDbEntity
  8
0
  6
Continuous
 62
     1
370
    15
100
AcDbCircle
 10
27.53066475154775
 20
-0.3794468643791901
 30
0.0
 40
1.129140610604335
100
AcDbArc
 50
23.84128576077813
 51
56.7954810300107
1001
PE_URL
1000

  0
ARC
  5
B8
330
1F
100
AcDbEntity
  8
0
  6
Continuous
 62
     1
370
    15
100
AcDbCircle
 10
26.61183330587326
 20
0.0404914352369232
 30
0.0
 40
1.951961602254417
100
AcDbArc
 50
1.07042838779991
 51
71.14416676675717
1001
PE_URL
1000

  0
SPLINE
  5
B9
330
1F
100
AcDbEntity
  8
0
  6
Continuous
 62
     1
370
    15
100
AcDbSpline
210
0.0
220
0.0
230
1.0
 70
     8
 71
     3
 72
    10
 73
     6
 74
     0
 42
0.000000001
 43
0.00000001
 40
0.0
 40
0.0
 40
0.0
 40
0.0
 40
0.5
 40
0.5
 40
1.0
 40
1.0
 40
1.0
 40
1.0
 10
27.24268392474774
 20
1.887700571566995
 30
0.0
 10
27.1075505951482
 20
1.970101784388389
 30
0.0
 10
26.96833344969314
 20
2.034812222680883
 30
0.0
 10
26.68443289368042
 20
2.128968399209626
 30
0.0
 10
26.53836777737763
 20
2.158506521503359
 30
0.0
 10
26.39218749999999
 20
2.16828539334036
 30
0.0
1001
PE_URL
1000

  0
SPLINE
  5
BA
330
1F
100
AcDbEntity
  8
0
  6
Continuous
 62
     1
370
    15
100
AcDbSpline
210
0.0
220
0.0
230
1.0
 70
     8
 71
     3
 72
    14
 73
    10
 74
     0
 42
0.000000001
 43
0.00000001
 40
0.0
 40
0.0
 40
0.0
 40
0.0
 40
0.0805078027038365
 40
0.2413244713103201
 40
0.39293357292832
 40
0.5446047941234327
 40
0.6963906830616551
 40
0.8482598491105132
 40
1.0
 40
1.0
 40
1.0
 40
1.0
 10
21.97528239748461
 20
-1.454375678850382
 30
0.0
 10
21.81158053238631
 20
-1.52676204057019
 30
0.0
 10
21.32087944850889
 20
-1.74374225721294
 30
0.0
 10
20.52187037781661
 20
-1.98403688425737
 30
0.0
 10
19.57836592285388
 20
-2.161591776043359
 30
0.0
 10
18.65308906403661
 20
-2.202576020637304
 30
0.0
 10
17.72715437206
 20
-2.11168371925495
 30
0.0
 10
16.80088923124507
 20
-1.901319159075166
 30
0.0
 10
16.18354229900889
 20
-1.668824715973199
 30
0.0
 10
15.87499999999999
 20
-1.552626892293026
 30
0.0
1001
PE_URL
1000

  0
SPLINE
  5
BB
330
1F
100
AcDbEntity
  8
외형선
  6
Continuous
370
    15
100
AcDbSpline
210
0.0
220
0.0
230
1.0
 70
    24
 71
     3
 72
    14
 73
    10
 74
     0
 42
0.000000001
 43
0.00000001
 40
0.0
 40
0.0
 40
0.0
 40
0.0
 40
0.2500000000000001
 40
0.2500000000000001
 40
0.5000000000000001
 40
0.5000000000000001
 40
0.7500000000000002
 40
0.7500000000000002
 40
1.0
 40
1.0
 40
1.0
 40
1.0
 10
15.87499999999999
 20
0.320549172725343
 30
0.0
 10
15.87499999999999
 20
0.2197871110304669
 30
0.0
 10
15.87499999999999
 20
0.0978212706512117
 30
0.0
 10
15.87499999999999
 20
-0.1889824999629428
 30
0.0
 10
15.87499999999999
 20
-0.3541731223310091
 30
0.0
 10
15.87499999999999
 20
-0.7074499275456049
 30
0.0
 10
15.87499999999999
 20
-0.8951138108388613
 30
0.0
 10
15.87499999999999
 20
-1.250263122240049
 30
0.0
 10
15.87499999999999
 20
-1.416590316718805
 30
0.0
 10
15.87499999999999
 20
-1.552626892285933
 30
0.0
  0
SPLINE
  5
BC
330
1F
100
AcDbEntity
  8
0
  6
Continuous
 62
     1
370
    15
100
AcDbSpline
210
0.0
220
0.0
230
1.0
 70
     8
 71
     3
 72
    13
 73
     9
 74
     0
 42
0.000000001
 43
0.00000001
 40
0.0
 40
0.0
 40
0.0
 40
0.0
 40
0.0647932587421289
 40
0.2425694882398027
 40
0.4282909821191693
 40
0.6154248465694729
 40
0.8069350738393671
 40
1.0
 40
1.0
 40
1.0
 40
1.0
 10
22.84591170025841
 20
1.48046137693353
 30
0.0
 10
22.92253960590776
 20
1.51403298779988
 30
0.0
 10
23.20941500342753
 20
1.639716563920761
 30
0.0
 10
23.71544439772943
 20
1.817775585550101
 30
0.0
 10
24.36606869318587
 20
2.003826339841261
 30
0.0
 10
25.03387646116244
 20
2.128255920506759
 30
0.0
 10
25.70901123751577
 20
2.193276911779458
 30
0.0
 10
26.16384916384339
 20
2.176638320764479
 30
0.0
 10
26.3921875
 20
2.168285393340361
 30
0.0
1001
PE_URL
1000

  0
SPLINE
  5
BD
330
1F
100
AcDbEntity
  8
0
  6
Continuous
 62
     1
370
    15
100
AcDbSpline
210
0.0
220
0.0
230
1.0
 70
     8
 71
     3
 72
     8
 73
     4
 74
     0
 42
0.000000001
 43
0.00000001
 40
0.0
 40
0.0
 40
0.0
 40
0.0
 40
1.0
 40
1.0
 40
1.0
 40
1.0
 10
26.79930861293305
 20
0.977142938306283
 30
0.0
 10
27.24306903825514
 20
0.853796601850092
 30
0.0
 10
27.69550564532904
 20
0.7148461585544679
 30
0.0
 10
28.14901514131234
 20
0.5653289365354546
 30
0.0
1001
PE_URL
1000

  0
SPLINE
  5
BE
330
1F
100
AcDbEntity
  8
0
  6
Continuous
 62
     1
370
    15
100
AcDbSpline
210
0.0
220
0.0
230
1.0
 70
     8
 71
     3
 72
    14
 73
    10
 74
     0
 42
0.000000001
 43
0.00000001
 40
0.0
 40
0.0
 40
0.0
 40
0.0
 40
0.25
 40
0.25
 40
0.5
 40
0.5
 40
0.75
 40
0.75
 40
1.0
 40
1.0
 40
1.0
 40
1.0
 10
27.24268392474775
 20
1.887700571566997
 30
0.0
 10
27.25816641263686
 20
1.796047731852313
 30
0.0
 10
27.26510721642772
 20
1.702715508940326
 30
0.0
 10
27.25149927566124
 20
1.513824637688354
 30
0.0
 10
27.23041607684169
 20
1.420752986050999
 30
0.0
 10
27.15333003702557
 20
1.251468457033824
 30
0.0
 10
27.09705025985034
 20
1.176098152589624
 30
0.0
 10
26.96123956304644
 20
1.055728590474792
 30
0.0
 10
26.8817122973981
 20
1.009921524884697
 30
0.0
 10
26.79930861293409
 20
0.977142938306075
 30
0.0
1001
PE_URL
1000

  0
LINE
  5
BF
330
1F
100
AcDbEntity
  8
중심선
 62
     1
100
AcDbLine
 10
-31.57499999999999
 20
-0.0000000000000039
 30
0.0
 11
31.57499999999999
 21
0.0000000000000039
 31
0.0
  0
LINE
  5
C0
330
1F
100
AcDbEntity
  8
참조1
100
AcDbLine
 10
0.0000000000000036
 20
-0.0000000000000039
 30
0.0
 11
0.0000000000000071
 21
-40.00000000000001
 31
0.0
  0
LINE
  5
C1
330
1F
100
AcDbEntity
  8
참조1
100
AcDbLine
 10
28.575
 20
-0.0000000000000039
 30
0.0
 11
28.575
 21
0.6309734778393064
 31
0.0
  0
LINE
  5
C2
330
1F
100
AcDbEntity
  8
참조1
100
AcDbLine
 10
0.0000000000000071
 20
-40.00000000000001
 30
0.0
 11
-22.30260681430868
 21
-40.0
 31
0.0
  0
CIRCLE
  5
C3
330
1F
100
AcDbEntity
  8
해칭선
100
AcDbCircle
 10
0.0
 20
0.0
 30
0.0
 40
3.000000000000001
  0
INSERT
  5
C4
330
1F
100
AcDbEntity
  8
0
  6
Continuous
 62
     7
100
AcDbBlockReference
 66
     1
  2
블럭10
 10
-13.9402729321252
 20
-52.04717430164393
 30
0.0
  0
ATTRIB
  5
C5
330
C4
100
AcDbEntity
  8
FORMAT
 62
     2
100
AcDbText
 10
-23.12156822086648
 20
-49.97180738881175
 30
0.0
 40
4.233333333333333
  1
E1013011 [ 2 FLUTE ]
 41
0.75
  7
SLDTEXTSTYLE0
 11
-23.12156822086648
 21
-52.08847405547841
 31
0.0
100
AcDbAttribute
  2
AUTOATTR0
 70
     0
 74
     1
  0
SEQEND
  5
C6
330
C4
100
AcDbEntity
  8
0
  6
Continuous
 62
     7
  0
HATCH
  5
C7
330
1F
100
AcDbEntity
  8
중심선
100
AcDbHatch
 10
0.0
 20
0.0
 30
0.0
210
0.0
220
0.0
230
1.0
  2
SOLID
 70
     1
 71
     0
 91
        1
 92
        0
 93
        4
 72
     1
 10
-8.22536362774437
 20
-35.8
 11
-11.67163887158165
 21
-35.8
 72
     1
 10
-11.67163887158165
 20
-35.8
 11
-13.79986873078568
 21
-38.3363255805726
 72
     1
 10
-13.79986873078568
 20
-38.3363255805726
 11
-10.35356040183524
 21
-38.33628615127011
 72
     1
 10
-10.35356040183524
 20
-38.33628615127011
 11
-8.22536362774437
 21
-35.8
 97
        0
 75
     0
 76
     1
 98
        1
 10
6.95036934298443
 20
-0.0010749287238931
  0
HATCH
  5
C8
330
1F
100
AcDbEntity
  8
중심선
100
AcDbHatch
 10
0.0
 20
0.0
 30
0.0
210
0.0
220
0.0
230
1.0
  2
SOLID
 70
     1
 71
     0
 91
        1
 92
        0
 93
        4
 72
     1
 10
-3.21259963670839
 20
-35.8
 11
-6.658874880545701
 21
-35.8
 72
     1
 10
-6.658874880545701
 20
-35.8
 11
-11.19001288890309
 21
-41.20000000000002
 72
     1
 10
-11.19001288890309
 20
-41.20000000000002
 11
-7.743737645065806
 21
-41.20000000000002
 72
     1
 10
-7.743737645065806
 20
-41.20000000000002
 11
-3.21259963670839
 21
-35.8
 97
        0
 75
     0
 76
     1
 98
        1
 10
6.95036934298443
 20
-0.0010749287238931
  0
HATCH
  5
C9
330
1F
100
AcDbEntity
  8
중심선
100
AcDbHatch
 10
0.0
 20
0.0
 30
0.0
210
0.0
220
0.0
230
1.0
  2
SOLID
 70
     1
 71
     0
 91
        1
 92
        0
 93
        4
 72
     1
 10
1.800164354327477
 20
-35.80000000000003
 11
-1.646110889509611
 21
-35.80000000000003
 72
     1
 10
-1.646110889509611
 20
-35.80000000000003
 11
-8.694547791398888
 21
-44.20000000000002
 72
     1
 10
-8.694547791398888
 20
-44.20000000000002
 11
-5.248272547561605
 21
-44.20000000000002
 72
     1
 10
-5.248272547561605
 20
-44.20000000000002
 11
1.800164354327477
 21
-35.80000000000003
 97
        0
 75
     0
 76
     1
 98
        1
 10
6.95036934298443
 20
-0.0010749287238931
  0
HATCH
  5
CA
330
1F
100
AcDbEntity
  8
중심선
100
AcDbHatch
 10
0.0
 20
0.0
 30
0.0
210
0.0
220
0.0
230
1.0
  2
SOLID
 70
     1
 71
     0
 91
        1
 92
        0
 93
        6
 72
     3
 10
6.600054785339676
 20
-40.00000000005127
 11
3.960054785062283
 21
1.540882976769353E-10
 40
0.3939339440162628
 50
17.09539180608437
 51
320.0019657685086
 73
     0
 72
     1
 10
8.28305444104027
 20
-38.58789400463833
 11
10.58835631474131
 21
-36.65356729459038
 72
     3
 10
6.600054785286829
 20
-40.00000000000015
 11
6.600054785286829
 21
-1.278976924368180E-13
 40
0.636358354079598
 50
39.9987384933741
 51
368.4976242363725
 73
     1
 72
     1
 10
13.02538727718744
 20
-39.03999999993002
 11
5.280122092122753
 21
-39.03999999993002
 72
     1
 10
5.280122092122753
 20
-39.03999999993002
 11
5.280097047676819
 21
-40.95999999992991
 72
     1
 10
5.280097047676819
 20
-40.95999999992991
 11
9.721476817148854
 21
-40.95999999992988
 97
        0
 75
     0
 76
     1
 98
        1
 10
6.95036934298443
 20
-0.0010749287238931
  0
DIMENSION
  5
CB
330
1F
100
AcDbEntity
  8
치수문자_일반주서
100
AcDbDimension
  2
_D
 10
15.875
 20
12.38125
 30
0.0
 11
43.90825
 21
12.38125
 31
0.0
 70
   160
  1
<>
 71
     2
 42
12.7
  3
SLDDIMSTYLE0
100
AcDbAlignedDimension
 13
28.575
 23
2.182812500000003
 33
0.0
 14
15.875
 24
2.182812499999992
 34
0.0
 50
0.000000000000008
100
AcDbRotatedDimension
1001
PE_URL
1000

1001
ACAD
1000
DSTYLE
1002
{
1070
   171
1070
     8
1070
   273
1070
     7
1002
}
1001
ACAD_DSTYLE_DIMFLIPARROW_SYMBOL
1070
   385
1070
     0
1001
ACAD_DSTYLE_DIMFLIPARROW_WHICH_SYMBOL
1070
   386
1070
     3
  0
DIMENSION
  5
E0
330
1F
100
AcDbEntity
  8
치수문자_일반주서
100
AcDbDimension
  2
_D_1
 10
-28.575
 20
22.38125
 30
0.0
 11
0.2501241026247421
 21
22.38125
 31
0.0
 70
   160
  1
<>
 71
     2
 42
57.15
  3
SLDDIMSTYLE0
100
AcDbAlignedDimension
 13
28.575
 23
2.182812500000003
 33
0.0
 14
-28.575
 24
2.182812500000003
 34
0.0
100
AcDbRotatedDimension
1001
PE_URL
1000

1001
ACAD
1000
DSTYLE
1002
{
1070
   171
1070
     8
1070
   273
1070
     7
1002
}
  0
DIMENSION
  5
F4
330
1F
100
AcDbEntity
  8
치수문자_일반주서
100
AcDbDimension
  2
_D_2
 10
-38.57499999999999
 20
-2.38125000000009
 30
0.0
 11
-38.57500000000007
 21
22.98524999999997
 31
0.0
 70
   160
  1
%%c<>
 71
     2
 42
4.762500000000005
 52
-270.0
  3
SLDDIMSTYLE0
100
AcDbAlignedDimension
 13
-14.13442116787305
 23
2.381250000000005
 33
0.0
 14
-14.13442116787304
 24
-2.381249999999999
 34
0.0
 50
90.0000000000002
100
AcDbRotatedDimension
1001
PE_URL
1000

1001
ACAD
1000
DSTYLE
1002
{
1070
   171
1070
     8
1070
   273
1070
     7
1002
}
  0
DIMENSION
  5
109
330
1F
100
AcDbEntity
  8
치수문자_일반주서
100
AcDbDimension
  2
_D_3
 10
61.83786612752499
 20
-2.182812499999873
 30
0.0
 11
61.8378661275249
 21
23.66181250000013
 31
0.0
 70
   160
  1
%%c<>
 71
     2
 42
4.365625
 52
-270.0
  3
SLDDIMSTYLE0
100
AcDbAlignedDimension
 13
28.575
 23
2.182812500000003
 33
0.0
 14
28.575
 24
-2.182812499999996
 34
0.0
 50
90.0000000000002
100
AcDbRotatedDimension
1001
PE_URL
1000

1001
ACAD
1000
DSTYLE
1002
{
1070
   171
1070
     8
1070
   273
1070
     7
1002
}
  0
LINE
  5
11D
330
1F
100
AcDbEntity
  8
참조1
100
AcDbLine
 10
75.66973381534558
 20
7.440000000000002
 30
0.0
 11
75.66973381534558
 21
-7.440000000000002
 31
0.0
  0
LINE
  5
11E
330
1F
100
AcDbEntity
  8
참조1
100
AcDbLine
 10
88.36973381534558
 20
5.440000000000002
 30
0.0
 11
75.66973381534558
 21
5.440000000000002
 31
0.0
  0
SOLID
  5
11F
330
1F
100
AcDbEntity
  8
참조1
100
AcDbTrace
 10
75.66973381534558
 20
5.440000000000002
 30
0.0
 11
82.01973381534557
 21
4.424000000000002
 31
0.0
 12
82.01973381534557
 22
6.456000000000002
 32
0.0
 13
82.01973381534557
 23
6.456000000000002
 33
0.0
  0
LINE
  5
120
330
1F
100
AcDbEntity
  8
참조1
100
AcDbLine
 10
88.36973381534558
 20
-5.440000000000002
 30
0.0
 11
75.66973381534558
 21
-5.440000000000002
 31
0.0
  0
SOLID
  5
121
330
1F
100
AcDbEntity
  8
참조1
100
AcDbTrace
 10
75.66973381534558
 20
-5.440000000000002
 30
0.0
 11
82.01973381534557
 21
-6.456000000000002
 31
0.0
 12
82.01973381534557
 22
-4.424000000000002
 32
0.0
 13
82.01973381534557
 23
-4.424000000000002
 33
0.0
  0
MTEXT
  5
122
330
1F
100
AcDbEntity
  8
참조1
100
AcDbMText
 10
85.06722390781586
 20
10.98821664464994
 30
0.0
 40
3.5
 41
0.0
 71
     1
 72
     1
  1
A
  7
SLDTEXTSTYLE0
 73
     1
 44
1.0
  0
MTEXT
  5
123
330
1F
100
AcDbEntity
  8
참조1
100
AcDbMText
 10
85.06722390781586
 20
0.108216644649932
 30
0.0
 40
3.5
 41
0.0
 71
     1
 72
     1
  1
A
  7
SLDTEXTSTYLE0
 73
     1
 44
1.0
  0
INSERT
  5
12A
330
1F
100
AcDbEntity
  8
해칭선
100
AcDbBlockReference
  2
SW_DOWELSYMBOL_0
 10
0.0
 20
0.0
 30
0.0
  0
LINE
  5
1DB
330
1F
100
AcDbEntity
  8
외형선
  6
Continuous
370
    15
100
AcDbLine
 10
-14.13442116787305
 20
2.381250000000001
 30
0.0
 11
-14.87499999999999
 21
2.182812500000004
 31
0.0
  0
LINE
  5
1DC
330
1F
100
AcDbEntity
  8
외형선
  6
Continuous
370
    15
100
AcDbLine
 10
-14.87499999999999
 20
-2.182812499999997
 30
0.0
 11
-14.13442116787304
 21
-2.381249999999994
 31
0.0
  0
LINE
  5
1DD
330
1F
100
AcDbEntity
  8
외형선
  6
Continuous
370
    15
100
AcDbLine
 10
-15.87499999999999
 20
-2.182812499999997
 30
0.0
 11
-14.87499999999999
 21
-2.182812499999997
 31
0.0
  0
LINE
  5
1DE
330
1F
100
AcDbEntity
  8
외형선
  6
Continuous
370
    15
100
AcDbLine
 10
-14.87499999999999
 20
2.182812500000004
 30
0.0
 11
-15.87499999999999
 21
2.182812500000004
 31
0.0
  0
LINE
  5
1DF
330
1F
100
AcDbEntity
  8
0
  6
Continuous
 62
     1
370
    15
100
AcDbLine
 10
-25.95521402271753
 20
2.182812500000004
 30
0.0
 11
-26.3921875
 21
2.182812500000004
 31
0.0
1001
PE_URL
1000

  0
LINE
  5
1E0
330
1F
100
AcDbEntity
  8
0
  6
Continuous
 62
     1
370
    15
100
AcDbLine
 10
-18.82285214474154
 20
-2.182812499999997
 30
0.0
 11
-15.87499999999999
 21
-2.182812499999997
 31
0.0
1001
PE_URL
1000

  0
ARC
  5
1E1
330
1F
100
AcDbEntity
  8
0
  6
Continuous
 62
     1
370
    15
100
AcDbCircle
 10
-26.3921875
 20
0.0000000000000036
 30
0.0
 40
2.1828125
100
AcDbArc
 50
90.00000000000084
 51
180.0
1001
PE_URL
1000

  0
ARC
  5
1E2
330
1F
100
AcDbEntity
  8
0
  6
Continuous
 62
     1
370
    15
100
AcDbCircle
 10
-26.3921875
 20
0.0000000000000036
 30
0.0
 40
2.1828125
100
AcDbArc
 50
180.0
 51
270.0
1001
PE_URL
1000

  0
LINE
  5
1E3
330
1F
100
AcDbEntity
  8
0
  6
Continuous
 62
     1
370
    15
100
AcDbLine
 10
-15.87499999999999
 20
2.182812500000004
 30
0.0
 11
-18.82285214474155
 21
2.182812500000004
 31
0.0
1001
PE_URL
1000

  0
LINE
  5
1E4
330
1F
100
AcDbEntity
  8
0
  6
Continuous
 62
     1
370
    15
100
AcDbLine
 10
-26.3921875
 20
-2.182812499999997
 30
0.0
 11
-25.95521402271752
 21
-2.182812499999997
 31
0.0
1001
PE_URL
1000

  0
LINE
  5
1E5
330
1F
100
AcDbEntity
  8
외형선
  6
Continuous
370
    15
100
AcDbLine
 10
-14.13442116787304
 20
-2.381249999999994
 30
0.0
 11
-14.13442116787305
 21
2.381250000000005
 31
0.0
  0
LINE
  5
1E6
330
1F
100
AcDbEntity
  8
외형선
  6
Continuous
370
    15
100
AcDbLine
 10
-14.87499999999999
 20
-2.182812499999997
 30
0.0
 11
-14.87499999999999
 21
2.182812500000004
 31
0.0
  0
LINE
  5
1E7
330
1F
100
AcDbEntity
  8
외형선
  6
Continuous
370
    15
100
AcDbLine
 10
-15.87499999999999
 20
-2.182812499999997
 30
0.0
 11
-15.87499999999999
 21
-1.940686637669256
 31
0.0
  0
SPLINE
  5
1E8
330
1F
100
AcDbEntity
  8
외형선
  6
Continuous
370
    15
100
AcDbSpline
210
0.0
220
0.0
230
1.0
 70
     8
 71
     3
 72
    10
 73
     6
 74
     0
 42
0.000000001
 43
0.00000001
 40
0.0
 40
0.0
 40
0.0
 40
0.0
 40
0.5
 40
0.5
 40
1.0
 40
1.0
 40
1.0
 40
1.0
 10
-14.984959152107
 20
-2.120271959266127
 30
0.0
 10
-15.13408968397205
 20
-2.099872751888267
 30
0.0
 10
-15.28354140759065
 20
-2.074524372117317
 30
0.0
 10
-15.57998651395991
 20
-2.014514529748372
 30
0.0
 10
-15.72642353578292
 20
-1.979929214178103
 30
0.0
 10
-15.87500000000006
 20
-1.940686637669241
 30
0.0
  0
SPLINE
  5
1E9
330
1F
100
AcDbEntity
  8
외형선
  6
Continuous
370
    15
100
AcDbSpline
210
0.0
220
0.0
230
1.0
 70
     8
 71
     3
 72
    10
 73
     6
 74
     0
 42
0.000000001
 43
0.00000001
 40
0.0
 40
0.0
 40
0.0
 40
0.0
 40
0.5
 40
0.5
 40
1.0
 40
1.0
 40
1.0
 40
1.0
 10
-15.87500000000009
 20
1.552626892293073
 30
0.0
 10
-15.72640795369715
 20
1.492363357564706
 30
0.0
 10
-15.57995568107302
 20
1.428813038131011
 30
0.0
 10
-15.28347897058222
 20
1.294912781081575
 30
0.0
 10
-15.1340113474934
 20
1.224620576034731
 30
0.0
 10
-14.98486531098485
 20
1.15169878402644
 30
0.0
  0
LINE
  5
1EA
330
1F
100
AcDbEntity
  8
외형선
  6
Continuous
370
    15
100
AcDbLine
 10
-15.87499999999999
 20
1.552626892293034
 30
0.0
 11
-15.87499999999999
 21
2.182812500000004
 31
0.0
  0
LINE
  5
1EB
330
1F
100
AcDbEntity
  8
외형선
  6
Continuous
370
    15
100
AcDbLine
 10
-14.98486531098485
 20
1.151810465163518
 30
0.0
 11
-14.98486531098485
 21
-2.120297726959311
 31
0.0
  0
SPLINE
  5
1EC
330
1F
100
AcDbEntity
  8
외형선
  6
Continuous
370
    15
100
AcDbSpline
210
0.0
220
0.0
230
1.0
 70
    24
 71
     3
 72
    14
 73
    10
 74
     0
 42
0.000000001
 43
0.00000001
 40
0.0
 40
0.0
 40
0.0
 40
0.0
 40
0.25
 40
0.25
 40
0.5
 40
0.5
 40
0.75
 40
0.75
 40
1.0
 40
1.0
 40
1.0
 40
1.0
 10
-15.87499999999999
 20
-0.320549172725336
 30
0.0
 10
-15.87499999999999
 20
-0.2197871110304632
 30
0.0
 10
-15.87499999999999
 20
-0.0978212706512096
 30
0.0
 10
-15.87499999999999
 20
0.1889824999629433
 30
0.0
 10
-15.87499999999999
 20
0.3541731223310052
 30
0.0
 10
-15.87499999999999
 20
0.7074499275455963
 30
0.0
 10
-15.87499999999999
 20
0.8951138108388506
 30
0.0
 10
-15.87499999999999
 20
1.250263122240035
 30
0.0
 10
-15.87499999999999
 20
1.416590316718789
 30
0.0
 10
-15.87499999999999
 20
1.552626892285918
 30
0.0
  0
SPLINE
  5
1ED
330
1F
100
AcDbEntity
  8
외형선
  6
Continuous
370
    15
100
AcDbSpline
210
0.0
220
0.0
230
1.0
 70
     8
 71
     3
 72
    10
 73
     6
 74
     0
 42
0.000000001
 43
0.00000001
 40
0.0
 40
0.0
 40
0.0
 40
0.0
 40
0.5
 40
0.5
 40
1.0
 40
1.0
 40
1.0
 40
1.0
 10
-15.87500000000004
 20
-0.3205491727253182
 30
0.0
 10
-15.72640795369711
 20
-0.3775611669494658
 30
0.0
 10
-15.57995568107298
 20
-0.4335612051228317
 30
0.0
 10
-15.28347897058221
 20
-0.5437551568282188
 30
0.0
 10
-15.13401134749339
 20
-0.5978710582434985
 30
0.0
 10
-14.98486531098485
 20
-0.6504356911547546
 30
0.0
  0
SPLINE
  5
1EE
330
1F
100
AcDbEntity
  8
외형선
  6
Continuous
370
    15
100
AcDbSpline
210
0.0
220
0.0
230
1.0
 70
    24
 71
     3
 72
    14
 73
    10
 74
     0
 42
0.000000001
 43
0.00000001
 40
0.0
 40
0.0
 40
0.0
 40
0.0
 40
0.25
 40
0.25
 40
0.5
 40
0.5
 40
0.75
 40
0.75
 40
1.0
 40
1.0
 40
1.0
 40
1.0
 10
-15.87499999999999
 20
-1.940686637652909
 30
0.0
 10
-15.87499999999999
 20
-1.787198887143855
 30
0.0
 10
-15.87499999999999
 20
-1.617545464922898
 30
0.0
 10
-15.87499999999999
 20
-1.281717410213751
 30
0.0
 10
-15.87499999999999
 20
-1.116335377602148
 30
0.0
 10
-15.87499999999999
 20
-0.8204303556782335
 30
0.0
 10
-15.87499999999999
 20
-0.6900166770149951
 30
0.0
 10
-15.87499999999999
 20
-0.4738070224908313
 30
0.0
 10
-15.87499999999999
 20
-0.3876558752608226
 30
0.0
 10
-15.87499999999999
 20
-0.320549172725336
 30
0.0
  0
SPLINE
  5
1EF
330
1F
100
AcDbEntity
  8
0
  6
Continuous
 62
     1
370
    15
100
AcDbSpline
210
0.0
220
0.0
230
1.0
 70
     8
 71
     3
 72
    15
 73
    11
 74
     0
 42
0.000000001
 43
0.00000001
 40
0.0
 40
0.0
 40
0.0
 40
0.0
 40
0.1297534981016823
 40
0.2594587005280108
 40
0.3891229377939769
 40
0.5187570835937335
 40
0.6483721081846597
 40
0.7779790433496647
 40
0.9001653264887037
 40
1.0
 40
1.0
 40
1.0
 40
1.0
 10
-26.39218749999999
 20
0.9125348870825931
 30
0.0
 10
-26.06474204143125
 20
0.7349554785046735
 30
0.0
 10
-25.40997300308542
 20
0.3798627583527079
 30
0.0
 10
-24.42807834984739
 20
-0.1946749555913421
 30
0.0
 10
-23.44654355291786
 20
-0.7517786602814809
 30
0.0
 10
-22.46527833427871
 20
-1.259333590671567
 30
0.0
 10
-21.48420400796535
 20
-1.683269995718529
 30
0.0
 10
-20.52186793708113
 20
-1.984516504114286
 30
0.0
 10
-19.63488310406639
 20
-2.158605367306986
 30
0.0
 10
-19.07473167738961
 20
-2.168572157567468
 30
0.0
 10
-18.82285214474154
 20
-2.173053857253045
 30
0.0
1001
PE_URL
1000

  0
SPLINE
  5
1F0
330
1F
100
AcDbEntity
  8
0
  6
Continuous
 62
     1
370
    15
100
AcDbSpline
210
0.0
220
0.0
230
1.0
 70
     8
 71
     3
 72
    13
 73
     9
 74
     0
 42
0.000000001
 43
0.00000001
 40
0.0
 40
0.0
 40
0.0
 40
0.0
 40
0.155797670318273
 40
0.3116269039220814
 40
0.4675333351565075
 40
0.6557672307280525
 40
0.8440156783244631
 40
1.0
 40
1.0
 40
1.0
 40
1.0
 10
-27.99064597910572
 20
-0.2287782867254364
 30
0.0
 10
-27.67829576787114
 20
-0.3488323591627491
 30
0.0
 10
-27.05353206590053
 20
-0.5889648259733882
 30
0.0
 10
-26.11617515729014
 20
-0.9092229952636117
 30
0.0
 10
-25.11377414301719
 20
-1.193936820196079
 30
0.0
 10
-24.04612355037173
 20
-1.402914433602025
 30
0.0
 10
-22.97838059768053
 20
-1.507209866427861
 30
0.0
 10
-22.28808177032319
 20
-1.470851135326573
 30
0.0
 10
-21.97528239748461
 20
-1.454375678850383
 30
0.0
1001
PE_URL
1000

  0
SPLINE
  5
1F1
330
1F
100
AcDbEntity
  8
0
  6
Continuous
 62
     1
370
    15
100
AcDbSpline
210
0.0
220
0.0
230
1.0
 70
     8
 71
     3
 72
    22
 73
    18
 74
     0
 42
0.000000001
 43
0.00000001
 40
0.0
 40
0.0
 40
0.0
 40
0.0
 40
0.125
 40
0.125
 40
0.25
 40
0.25
 40
0.375
 40
0.375
 40
0.5
 40
0.5
 40
0.625
 40
0.625
 40
0.75
 40
0.75
 40
0.875
 40
0.875
 40
1.0
 40
1.0
 40
1.0
 40
1.0
 10
-26.3921875
 20
0.9125348870825931
 30
0.0
 10
-26.51324446422802
 20
0.9764060438917497
 30
0.0
 10
-26.63249160807472
 20
1.033461190292975
 30
0.0
 10
-26.87061759446406
 20
1.129332716565752
 30
0.0
 10
-26.99072637054784
 20
1.168585456955771
 30
0.0
 10
-27.22780270969612
 20
1.21906273249617
 30
0.0
 10
-27.34396228189451
 20
1.23063896685116
 30
0.0
 10
-27.5766501089546
 20
1.213840150007613
 30
0.0
 10
-27.69013512984331
 20
1.184996166112885
 30
0.0
 10
-27.90416086601909
 20
1.069253600578438
 30
0.0
 10
-28.00368436316526
 20
0.9814995701325913
 30
0.0
 10
-28.15501502747356
 20
0.7484738239864654
 30
0.0
 10
-28.20056886408668
 20
0.6103922739131242
 30
0.0
 10
-28.22355573933868
 20
0.3404192957455692
 30
0.0
 10
-28.20281998247978
 20
0.2131973521676045
 30
0.0
 10
-28.12263367888227
 20
-0.0198192350281445
 30
0.0
 10
-28.06324439387733
 20
-0.1268117331984868
 30
0.0
 10
-27.99064597909955
 20
-0.2287782867278274
 30
0.0
1001
PE_URL
1000

  0
SPLINE
  5
1F2
330
1F
100
AcDbEntity
  8
0
  6
Continuous
 62
     1
370
    15
100
AcDbSpline
210
0.0
220
0.0
230
1.0
 70
     8
 71
     3
 72
    14
 73
    10
 74
     0
 42
0.000000001
 43
0.00000001
 40
0.0
 40
0.0
 40
0.0
 40
0.0
 40
0.1527398304839575
 40
0.3152087772290435
 40
0.477684279293638
 40
0.6401643207962311
 40
0.7599540719780354
 40
0.8799960704192017
 40
1.0
 40
1.0
 40
1.0
 40
1.0
 10
-22.84591170025841
 20
1.480461376933526
 30
0.0
 10
-22.49097871298
 20
1.478291778740811
 30
0.0
 10
-21.75850446206724
 20
1.473814384787719
 30
0.0
 10
-20.64845093233279
 20
1.303129570895795
 30
0.0
 10
-19.51582082514956
 20
1.023845670051244
 30
0.0
 10
-18.48215042564717
 20
0.6831505371234812
 30
0.0
 10
-17.54772139379153
 20
0.3339740616297391
 30
0.0
 10
-16.71153869862767
 20
0.0049728217942757
 30
0.0
 10
-16.1538167498527
 20
-0.2120533139367105
 30
0.0
 10
-15.87500000000001
 20
-0.3205491727253325
 30
0.0
1001
PE_URL
1000

  0
SPLINE
  5
1F3
330
1F
100
AcDbEntity
  8
외형선
  6
Continuous
370
    15
100
AcDbSpline
210
0.0
220
0.0
230
1.0
 70
    24
 71
     3
 72
    14
 73
    10
 74
     0
 42
0.000000001
 43
0.00000001
 40
0.0
 40
0.0
 40
0.0
 40
0.0
 40
0.25
 40
0.25
 40
0.5
 40
0.5
 40
0.75
 40
0.75
 40
1.0
 40
1.0
 40
1.0
 40
1.0
 10
-15.87499999999999
 20
-1.940686637652909
 30
0.0
 10
-15.87499999999999
 20
-1.787198887143855
 30
0.0
 10
-15.87499999999999
 20
-1.617545464922898
 30
0.0
 10
-15.87499999999999
 20
-1.281717410213751
 30
0.0
 10
-15.87499999999999
 20
-1.116335377602148
 30
0.0
 10
-15.87499999999999
 20
-0.8204303556782335
 30
0.0
 10
-15.87499999999999
 20
-0.6900166770149951
 30
0.0
 10
-15.87499999999999
 20
-0.4738070224908313
 30
0.0
 10
-15.87499999999999
 20
-0.3876558752608226
 30
0.0
 10
-15.87499999999999
 20
-0.320549172725336
 30
0.0
  0
SPLINE
  5
1F4
330
1F
100
AcDbEntity
  8
0
  6
Continuous
 62
     1
370
    15
100
AcDbSpline
210
0.0
220
0.0
230
1.0
 70
     8
 71
     3
 72
    23
 73
    19
 74
     0
 42
0.000000001
 43
0.00000001
 40
0.0
 40
0.0
 40
0.0
 40
0.0
 40
0.0761919126753219
 40
0.1531758821146753
 40
0.2154801797450855
 40
0.2782155885699786
 40
0.3403356904991701
 40
0.4028851637888464
 40
0.4650014786352901
 40
0.5275491994432863
 40
0.589664789801756
 40
0.6522096343847963
 40
0.7143250286789306
 40
0.7768681977362948
 40
0.8422065774629021
 40
0.9080418410059752
 40
0.9754167457061114
 40
1.0
 40
1.0
 40
1.0
 40
1.0
 10
-15.87499999999999
 20
-1.940686637669259
 30
0.0
 10
-16.13111531512163
 20
-1.865367095652328
 30
0.0
 10
-16.646008404681
 20
-1.713945023626394
 30
0.0
 10
-17.37041550838427
 20
-1.414018678887636
 30
0.0
 10
-18.04840609121178
 20
-1.090179068195628
 30
0.0
 10
-18.6781081902589
 20
-0.7612022812406636
 30
0.0
 10
-19.30713811462413
 20
-0.4087532010955783
 30
0.0
 10
-19.93494929651634
 20
-0.0474860179048733
 30
0.0
 10
-20.56417848121916
 20
0.315882638115184
 30
0.0
 10
-21.19111758772264
 20
0.6711231789810093
 30
0.0
 10
-21.8210006727092
 20
1.006233092631398
 30
0.0
 10
-22.44770172227133
 20
1.315518441484208
 30
0.0
 10
-23.07737947724593
 20
1.587078681345169
 30
0.0
 10
-23.71544072634784
 20
1.819389330269242
 30
0.0
 10
-24.36606396859575
 20
2.003883138940168
 30
0.0
 10
-25.03389946371518
 20
2.126346065063533
 30
0.0
 10
-25.56347216412117
 20
2.184981936554241
 30
0.0
 10
-25.87257996624145
 20
2.176762699306753
 30
0.0
 10
-25.95521402271753
 20
2.174565443494252
 30
0.0
1001
PE_URL
1000

  0
SPLINE
  5
1F5
330
1F
100
AcDbEntity
  8
0
  6
Continuous
 62
     1
370
    15
100
AcDbSpline
210
0.0
220
0.0
230
1.0
 70
     8
 71
     3
 72
    10
 73
     6
 74
     0
 42
0.000000001
 43
0.00000001
 40
0.0
 40
0.0
 40
0.0
 40
0.0
 40
0.5
 40
0.5
 40
1.0
 40
1.0
 40
1.0
 40
1.0
 10
-27.99064597909955
 20
-0.2287782867278274
 30
0.0
 10
-28.04083604125893
 20
-0.2590725648462673
 30
0.0
 10
-28.08090614964718
 20
-0.3051270439750127
 30
0.0
 10
-28.13450379306671
 20
-0.4218683303174942
 30
0.0
 10
-28.14778077398465
 20
-0.4921913945939913
 30
0.0
 10
-28.14901514131232
 20
-0.5653289365354368
 30
0.0
1001
PE_URL
1000

  0
ARC
  5
1F6
330
1F
100
AcDbEntity
  8
0
  6
Continuous
 62
     1
370
    15
100
AcDbCircle
 10
-27.53066475154775
 20
0.3794468643791973
 30
0.0
 40
1.129140610604335
100
AcDbArc
 50
203.8412857607781
 51
236.7954810300107
1001
PE_URL
1000

  0
ARC
  5
1F7
330
1F
100
AcDbEntity
  8
0
  6
Continuous
 62
     1
370
    15
100
AcDbCircle
 10
-26.61183330587326
 20
-0.0404914352369161
 30
0.0
 40
1.951961602254417
100
AcDbArc
 50
181.0704283877999
 51
251.1441667667572
1001
PE_URL
1000

  0
SPLINE
  5
1F8
330
1F
100
AcDbEntity
  8
0
  6
Continuous
 62
     1
370
    15
100
AcDbSpline
210
0.0
220
0.0
230
1.0
 70
     8
 71
     3
 72
    10
 73
     6
 74
     0
 42
0.000000001
 43
0.00000001
 40
0.0
 40
0.0
 40
0.0
 40
0.0
 40
0.5
 40
0.5
 40
1.0
 40
1.0
 40
1.0
 40
1.0
 10
-27.24268392474774
 20
-1.887700571566988
 30
0.0
 10
-27.1075505951482
 20
-1.970101784388383
 30
0.0
 10
-26.96833344969314
 20
-2.034812222680877
 30
0.0
 10
-26.68443289368042
 20
-2.128968399209619
 30
0.0
 10
-26.53836777737763
 20
-2.158506521503352
 30
0.0
 10
-26.39218749999999
 20
-2.168285393340351
 30
0.0
1001
PE_URL
1000

  0
SPLINE
  5
1F9
330
1F
100
AcDbEntity
  8
0
  6
Continuous
 62
     1
370
    15
100
AcDbSpline
210
0.0
220
0.0
230
1.0
 70
     8
 71
     3
 72
    14
 73
    10
 74
     0
 42
0.000000001
 43
0.00000001
 40
0.0
 40
0.0
 40
0.0
 40
0.0
 40
0.0805078027038365
 40
0.2413244713103201
 40
0.39293357292832
 40
0.5446047941234327
 40
0.6963906830616551
 40
0.8482598491105132
 40
1.0
 40
1.0
 40
1.0
 40
1.0
 10
-21.97528239748461
 20
1.45437567885039
 30
0.0
 10
-21.81158053238631
 20
1.526762040570198
 30
0.0
 10
-21.32087944850889
 20
1.743742257212947
 30
0.0
 10
-20.52187037781661
 20
1.984036884257378
 30
0.0
 10
-19.57836592285388
 20
2.161591776043366
 30
0.0
 10
-18.65308906403661
 20
2.202576020637309
 30
0.0
 10
-17.72715437206
 20
2.111683719254959
 30
0.0
 10
-16.80088923124507
 20
1.901319159075172
 30
0.0
 10
-16.18354229900889
 20
1.668824715973205
 30
0.0
 10
-15.87499999999999
 20
1.552626892293034
 30
0.0
1001
PE_URL
1000

  0
SPLINE
  5
1FA
330
1F
100
AcDbEntity
  8
외형선
  6
Continuous
370
    15
100
AcDbSpline
210
0.0
220
0.0
230
1.0
 70
    24
 71
     3
 72
    14
 73
    10
 74
     0
 42
0.000000001
 43
0.00000001
 40
0.0
 40
0.0
 40
0.0
 40
0.0
 40
0.2500000000000001
 40
0.2500000000000001
 40
0.5000000000000001
 40
0.5000000000000001
 40
0.7500000000000002
 40
0.7500000000000002
 40
1.0
 40
1.0
 40
1.0
 40
1.0
 10
-15.87499999999999
 20
-0.320549172725336
 30
0.0
 10
-15.87499999999999
 20
-0.2197871110304597
 30
0.0
 10
-15.87499999999999
 20
-0.097821270651206
 30
0.0
 10
-15.87499999999999
 20
0.1889824999629504
 30
0.0
 10
-15.87499999999999
 20
0.3541731223310158
 30
0.0
 10
-15.87499999999999
 20
0.7074499275456105
 30
0.0
 10
-15.87499999999999
 20
0.8951138108388683
 30
0.0
 10
-15.87499999999999
 20
1.250263122240057
 30
0.0
 10
-15.87499999999999
 20
1.416590316718814
 30
0.0
 10
-15.87499999999999
 20
1.552626892285939
 30
0.0
  0
SPLINE
  5
1FB
330
1F
100
AcDbEntity
  8
0
  6
Continuous
 62
     1
370
    15
100
AcDbSpline
210
0.0
220
0.0
230
1.0
 70
     8
 71
     3
 72
    13
 73
     9
 74
     0
 42
0.000000001
 43
0.00000001
 40
0.0
 40
0.0
 40
0.0
 40
0.0
 40
0.0647932587421289
 40
0.2425694882398027
 40
0.4282909821191693
 40
0.6154248465694729
 40
0.8069350738393671
 40
1.0
 40
1.0
 40
1.0
 40
1.0
 10
-22.84591170025841
 20
-1.480461376933523
 30
0.0
 10
-22.92253960590776
 20
-1.514032987799872
 30
0.0
 10
-23.20941500342753
 20
-1.639716563920754
 30
0.0
 10
-23.71544439772943
 20
-1.817775585550095
 30
0.0
 10
-24.36606869318587
 20
-2.003826339841254
 30
0.0
 10
-25.03387646116244
 20
-2.128255920506753
 30
0.0
 10
-25.70901123751577
 20
-2.193276911779449
 30
0.0
 10
-26.16384916384339
 20
-2.176638320764472
 30
0.0
 10
-26.3921875
 20
-2.168285393340355
 30
0.0
1001
PE_URL
1000

  0
SPLINE
  5
1FC
330
1F
100
AcDbEntity
  8
0
  6
Continuous
 62
     1
370
    15
100
AcDbSpline
210
0.0
220
0.0
230
1.0
 70
     8
 71
     3
 72
     8
 73
     4
 74
     0
 42
0.000000001
 43
0.00000001
 40
0.0
 40
0.0
 40
0.0
 40
0.0
 40
1.0
 40
1.0
 40
1.0
 40
1.0
 10
-26.79930861293305
 20
-0.977142938306276
 30
0.0
 10
-27.24306903825514
 20
-0.8537966018500853
 30
0.0
 10
-27.69550564532904
 20
-0.7148461585544617
 30
0.0
 10
-28.14901514131234
 20
-0.5653289365354475
 30
0.0
1001
PE_URL
1000

  0
SPLINE
  5
1FD
330
1F
100
AcDbEntity
  8
0
  6
Continuous
 62
     1
370
    15
100
AcDbSpline
210
0.0
220
0.0
230
1.0
 70
     8
 71
     3
 72
    14
 73
    10
 74
     0
 42
0.000000001
 43
0.00000001
 40
0.0
 40
0.0
 40
0.0
 40
0.0
 40
0.25
 40
0.25
 40
0.5
 40
0.5
 40
0.75
 40
0.75
 40
1.0
 40
1.0
 40
1.0
 40
1.0
 10
-27.24268392474775
 20
-1.887700571566988
 30
0.0
 10
-27.25816641263686
 20
-1.796047731852305
 30
0.0
 10
-27.26510721642772
 20
-1.702715508940319
 30
0.0
 10
-27.25149927566124
 20
-1.513824637688348
 30
0.0
 10
-27.23041607684169
 20
-1.420752986050992
 30
0.0
 10
-27.15333003702557
 20
-1.251468457033816
 30
0.0
 10
-27.09705025985034
 20
-1.176098152589617
 30
0.0
 10
-26.96123956304644
 20
-1.055728590474786
 30
0.0
 10
-26.8817122973981
 20
-1.009921524884689
 30
0.0
 10
-26.79930861293409
 20
-0.9771429383060664
 30
0.0
1001
PE_URL
1000

  0
ENDSEC
  0
SECTION
  2
OBJECTS
  0
DICTIONARY
  5
C
330
0
100
AcDbDictionary
281
     1
  3
ACAD_DETAILVIEWSTYLE
350
1AF
  3
ACAD_GROUP
350
D
  3
ACAD_LAYOUT
350
1A
  3
ACAD_MLINESTYLE
350
17
  3
ACAD_PLOTSETTINGS
350
19
  3
ACAD_PLOTSTYLENAME
350
E
  3
ACAD_SCALELIST
350
47
  3
ACAD_SECTIONVIEWSTYLE
350
1B0
  3
AcDbVariableDictionary
350
1AA
  3
APPDATA
350
14C
  3
DWGPROPS
350
1FF
  0
DICTIONARY
  5
185
330
2
100
AcDbDictionary
280
     1
281
     1
  3
ACAD_LAYERSTATES
360
186
  0
DICTIONARY
  5
1AF
102
{ACAD_REACTORS
330
C
102
}
330
C
100
AcDbDictionary
281
     1
  0
DICTIONARY
  5
D
102
{ACAD_REACTORS
330
C
102
}
330
C
100
AcDbDictionary
281
     1
  0
DICTIONARY
  5
1A
102
{ACAD_REACTORS
330
C
102
}
330
C
100
AcDbDictionary
281
     1
  3
Layout1
350
1E
  3
Layout2
350
26
  3
Model
350
22
  0
DICTIONARY
  5
17
102
{ACAD_REACTORS
330
C
102
}
330
C
100
AcDbDictionary
281
     1
  3
Standard
350
18
  0
DICTIONARY
  5
19
102
{ACAD_REACTORS
330
C
102
}
330
C
100
AcDbDictionary
281
     1
  0
ACDBDICTIONARYWDFLT
  5
E
102
{ACAD_REACTORS
330
C
102
}
330
C
100
AcDbDictionary
281
     1
  3
Normal
350
F
100
AcDbDictionaryWithDefault
340
F
  0
DICTIONARY
  5
47
102
{ACAD_REACTORS
330
C
102
}
330
C
100
AcDbDictionary
281
     1
  3
A0
350
48
  3
A1
350
49
  3
A2
350
4A
  3
A3
350
4B
  3
A4
350
4C
  3
A5
350
4D
  3
A6
350
4E
  3
A7
350
4F
  3
A8
350
50
  3
A9
350
51
  3
B0
350
52
  3
B1
350
53
  3
B2
350
54
  3
B3
350
55
  3
B4
350
56
  3
B5
350
57
  3
B6
350
58
  3
B7
350
59
  3
B8
350
5A
  3
B9
350
5B
  3
C0
350
5C
  3
C1
350
5D
  3
C2
350
5E
  3
C3
350
5F
  3
C4
350
60
  3
C5
350
61
  3
C6
350
62
  3
C7
350
63
  3
C8
350
64
  3
C9
350
65
  3
D0
350
66
  3
D1
350
67
  3
D2
350
68
  0
DICTIONARY
  5
1B0
102
{ACAD_REACTORS
330
C
102
}
330
C
100
AcDbDictionary
281
     1
  0
DICTIONARY
  5
1AA
102
{ACAD_REACTORS
330
C
102
}
330
C
100
AcDbDictionary
281
     1
  0
DICTIONARY
  5
14C
102
{ACAD_REACTORS
330
C
102
}
330
C
100
AcDbDictionary
281
     1
  0
XRECORD
  5
1FF
102
{ACAD_REACTORS
330
C
102
}
330
C
100
AcDbXrecord
280
     1
  1
DWGPROPS COOKIE
  2

  3

  4

  6

  7

  8
120170442
  9

300
=
301
=
302
=
303
=
304
=
305
=
306
=
307
=
308
=
309
=
 40
0.0
 41
2458319.364652662
 42
2458323.128234537
  1

 90
        0
  0
DICTIONARY
  5
186
102
{ACAD_REACTORS
330
185
102
}
330
185
100
AcDbDictionary
281
     1
  0
LAYOUT
  5
1E
102
{ACAD_REACTORS
330
1A
102
}
330
1A
100
AcDbPlotSettings
  1

  2
none_device
  4

  6

 40
0.0
 41
0.0
 42
0.0
 43
0.0
 44
0.0
 45
0.0
 46
0.0
 47
0.0
 48
0.0
 49
0.0
140
0.0
141
0.0
142
1.0
143
1.0
 70
   688
 72
     1
 73
     0
 74
     5
  7

 75
    16
147
1.0
148
0.0
149
0.0
100
AcDbLayout
  1
Layout1
 70
     1
 71
     1
 10
0.0
 20
0.0
 11
420.0
 21
297.0
 12
0.0
 22
0.0
 32
0.0
 14
1.000000000000000E+20
 24
1.000000000000000E+20
 34
1.000000000000000E+20
 15
-1.000000000000000E+20
 25
-1.000000000000000E+20
 35
-1.000000000000000E+20
146
0.0
 13
0.0
 23
0.0
 33
0.0
 16
1.0
 26
0.0
 36
0.0
 17
0.0
 27
1.0
 37
0.0
 76
     0
330
1B
  0
LAYOUT
  5
26
102
{ACAD_REACTORS
330
1A
102
}
330
1A
100
AcDbPlotSettings
  1

  2
none_device
  4

  6

 40
0.0
 41
0.0
 42
0.0
 43
0.0
 44
0.0
 45
0.0
 46
0.0
 47
0.0
 48
0.0
 49
0.0
140
0.0
141
0.0
142
1.0
143
1.0
 70
   688
 72
     1
 73
     0
 74
     5
  7

 75
    16
147
1.0
148
0.0
149
0.0
100
AcDbLayout
  1
Layout2
 70
     1
 71
     2
 10
0.0
 20
0.0
 11
0.0
 21
0.0
 12
0.0
 22
0.0
 32
0.0
 14
0.0
 24
0.0
 34
0.0
 15
0.0
 25
0.0
 35
0.0
146
0.0
 13
0.0
 23
0.0
 33
0.0
 16
1.0
 26
0.0
 36
0.0
 17
0.0
 27
1.0
 37
0.0
 76
     0
330
23
  0
LAYOUT
  5
22
102
{ACAD_REACTORS
330
1A
102
}
330
1A
100
AcDbPlotSettings
  1

  2
none_device
  4
ANSI_A_(11.00_x_8.50_Inches)
  6

 40
6.35
 41
19.05
 42
6.35000508
 43
19.05000254
 44
279.4
 45
215.9
 46
111.6312105041232
 47
99.34882547384967
 48
0.0
 49
0.0
140
0.0
141
0.0
142
0.0773780340023682
143
1.0
 70
  1696
 72
     0
 73
     0
 74
     0
  7

 75
     0
147
0.0235690232323232
148
0.0
149
0.0
100
AcDbLayout
  1
Model
 70
     1
 71
     0
 10
0.0
 20
0.0
 11
420.0
 21
297.0
 12
0.0
 22
0.0
 32
0.0
 14
-42.95000000000011
 24
-49.97180738881175
 34
0.0
 15
88.36973381534557
 25
38.53681250000012
 35
0.0
146
0.0
 13
0.0
 23
0.0
 33
0.0
 16
1.0
 26
0.0
 36
0.0
 17
0.0
 27
1.0
 37
0.0
 76
     0
330
1F
331
29
  0
MLINESTYLE
  5
18
102
{ACAD_REACTORS
330
17
102
}
330
17
100
AcDbMlineStyle
  2
Standard
 70
     0
  3

 62
   256
 51
90.0
 52
90.0
 71
     2
 49
0.5
 62
   256
  6
BYLAYER
 49
-0.5
 62
   256
  6
BYLAYER
  0
ACDBPLACEHOLDER
  5
F
102
{ACAD_REACTORS
330
E
102
}
330
E
  0
SCALE
  5
48
102
{ACAD_REACTORS
330
47
102
}
330
47
100
AcDbScale
 70
     0
300
1:1
140
1.0
141
1.0
290
     1
  0
SCALE
  5
49
102
{ACAD_REACTORS
330
47
102
}
330
47
100
AcDbScale
 70
     0
300
1:2
140
1.0
141
2.0
290
     0
  0
SCALE
  5
4A
102
{ACAD_REACTORS
330
47
102
}
330
47
100
AcDbScale
 70
     0
300
1:4
140
1.0
141
4.0
290
     0
  0
SCALE
  5
4B
102
{ACAD_REACTORS
330
47
102
}
330
47
100
AcDbScale
 70
     0
300
1:5
140
1.0
141
5.0
290
     0
  0
SCALE
  5
4C
102
{ACAD_REACTORS
330
47
102
}
330
47
100
AcDbScale
 70
     0
300
1:8
140
1.0
141
8.0
290
     0
  0
SCALE
  5
4D
102
{ACAD_REACTORS
330
47
102
}
330
47
100
AcDbScale
 70
     0
300
1:10
140
1.0
141
10.0
290
     0
  0
SCALE
  5
4E
102
{ACAD_REACTORS
330
47
102
}
330
47
100
AcDbScale
 70
     0
300
1:16
140
1.0
141
16.0
290
     0
  0
SCALE
  5
4F
102
{ACAD_REACTORS
330
47
102
}
330
47
100
AcDbScale
 70
     0
300
1:20
140
1.0
141
20.0
290
     0
  0
SCALE
  5
50
102
{ACAD_REACTORS
330
47
102
}
330
47
100
AcDbScale
 70
     0
300
1:30
140
1.0
141
30.0
290
     0
  0
SCALE
  5
51
102
{ACAD_REACTORS
330
47
102
}
330
47
100
AcDbScale
 70
     0
300
1:40
140
1.0
141
40.0
290
     0
  0
SCALE
  5
52
102
{ACAD_REACTORS
330
47
102
}
330
47
100
AcDbScale
 70
     0
300
1:50
140
1.0
141
50.0
290
     0
  0
SCALE
  5
53
102
{ACAD_REACTORS
330
47
102
}
330
47
100
AcDbScale
 70
     0
300
1:100
140
1.0
141
100.0
290
     0
  0
SCALE
  5
54
102
{ACAD_REACTORS
330
47
102
}
330
47
100
AcDbScale
 70
     0
300
2:1
140
2.0
141
1.0
290
     0
  0
SCALE
  5
55
102
{ACAD_REACTORS
330
47
102
}
330
47
100
AcDbScale
 70
     0
300
4:1
140
4.0
141
1.0
290
     0
  0
SCALE
  5
56
102
{ACAD_REACTORS
330
47
102
}
330
47
100
AcDbScale
 70
     0
300
8:1
140
8.0
141
1.0
290
     0
  0
SCALE
  5
57
102
{ACAD_REACTORS
330
47
102
}
330
47
100
AcDbScale
 70
     0
300
10:1
140
10.0
141
1.0
290
     0
  0
SCALE
  5
58
102
{ACAD_REACTORS
330
47
102
}
330
47
100
AcDbScale
 70
     0
300
100:1
140
100.0
141
1.0
290
     0
  0
SCALE
  5
59
102
{ACAD_REACTORS
330
47
102
}
330
47
100
AcDbScale
 70
     0
300
1/128" = 1'-0"
140
0.0078125
141
12.0
290
     0
  0
SCALE
  5
5A
102
{ACAD_REACTORS
330
47
102
}
330
47
100
AcDbScale
 70
     0
300
1/64" = 1'-0"
140
0.015625
141
12.0
290
     0
  0
SCALE
  5
5B
102
{ACAD_REACTORS
330
47
102
}
330
47
100
AcDbScale
 70
     0
300
1/32" = 1'-0"
140
0.03125
141
12.0
290
     0
  0
SCALE
  5
5C
102
{ACAD_REACTORS
330
47
102
}
330
47
100
AcDbScale
 70
     0
300
1/16" = 1'-0"
140
0.0625
141
12.0
290
     0
  0
SCALE
  5
5D
102
{ACAD_REACTORS
330
47
102
}
330
47
100
AcDbScale
 70
     0
300
3/32" = 1'-0"
140
0.09375
141
12.0
290
     0
  0
SCALE
  5
5E
102
{ACAD_REACTORS
330
47
102
}
330
47
100
AcDbScale
 70
     0
300
1/8" = 1'-0"
140
0.125
141
12.0
290
     0
  0
SCALE
  5
5F
102
{ACAD_REACTORS
330
47
102
}
330
47
100
AcDbScale
 70
     0
300
3/16" = 1'-0"
140
0.1875
141
12.0
290
     0
  0
SCALE
  5
60
102
{ACAD_REACTORS
330
47
102
}
330
47
100
AcDbScale
 70
     0
300
1/4" = 1'-0"
140
0.25
141
12.0
290
     0
  0
SCALE
  5
61
102
{ACAD_REACTORS
330
47
102
}
330
47
100
AcDbScale
 70
     0
300
3/8" = 1'-0"
140
0.375
141
12.0
290
     0
  0
SCALE
  5
62
102
{ACAD_REACTORS
330
47
102
}
330
47
100
AcDbScale
 70
     0
300
1/2" = 1'-0"
140
0.5
141
12.0
290
     0
  0
SCALE
  5
63
102
{ACAD_REACTORS
330
47
102
}
330
47
100
AcDbScale
 70
     0
300
3/4" = 1'-0"
140
0.75
141
12.0
290
     0
  0
SCALE
  5
64
102
{ACAD_REACTORS
330
47
102
}
330
47
100
AcDbScale
 70
     0
300
1" = 1'-0"
140
1.0
141
12.0
290
     0
  0
SCALE
  5
65
102
{ACAD_REACTORS
330
47
102
}
330
47
100
AcDbScale
 70
     0
300
1-1/2" = 1'-0"
140
1.5
141
12.0
290
     0
  0
SCALE
  5
66
102
{ACAD_REACTORS
330
47
102
}
330
47
100
AcDbScale
 70
     0
300
3" = 1'-0"
140
3.0
141
12.0
290
     0
  0
SCALE
  5
67
102
{ACAD_REACTORS
330
47
102
}
330
47
100
AcDbScale
 70
     0
300
6" = 1'-0"
140
6.0
141
12.0
290
     0
  0
SCALE
  5
68
102
{ACAD_REACTORS
330
47
102
}
330
47
100
AcDbScale
 70
     0
300
1'-0" = 1'-0"
140
12.0
141
12.0
290
     0
  0
ENDSEC
  0
EOF
