  0
SECTION
  2
HEADER
  9
$ACADVER
  1
AC1015
  9
$ACADMAINTVER
 70
     6
  9
$DWGCODEPAGE
  3
ANSI_949
  9
$INSBASE
 10
0.0
 20
0.0
 30
0.0
  9
$EXTMIN
 10
-42.95000000000011
 20
-49.97180738881175
 30
0.0
  9
$EXTMAX
 10
88.36973381534558
 20
36.98525000000014
 30
0.0
  9
$LIMMIN
 10
0.0
 20
0.0
  9
$LIMMAX
 10
420.0
 20
297.0
  9
$ORTHOMODE
 70
     1
  9
$REGENMODE
 70
     1
  9
$FILLMODE
 70
     1
  9
$QTEXTMODE
 70
     0
  9
$MIRRTEXT
 70
     1
  9
$LTSCALE
 40
1.0
  9
$ATTMODE
 70
     1
  9
$TEXTSIZE
 40
3.5
  9
$TRACEWID
 40
1.0
  9
$TEXTSTYLE
  7
Standard
  9
$CLAYER
  8
0
  9
$CELTYPE
  6
ByLayer
  9
$CECOLOR
 62
   256
  9
$CELTSCALE
 40
1.0
  9
$DISPSILH
 70
     0
  9
$DIMSCALE
 40
1.0
  9
$DIMASZ
 40
3.302
  9
$DIMEXO
 40
1.0
  9
$DIMDLI
 40
3.75
  9
$DIMRND
 40
0.0
  9
$DIMDLE
 40
0.0
  9
$DIMEXE
 40
1.0
  9
$DIMTP
 40
0.0
  9
$DIMTM
 40
0.0
  9
$DIMTXT
 40
3.5
  9
$DIMCEN
 40
2.5
  9
$DIMTSZ
 40
0.0
  9
$DIMTOL
 70
     0
  9
$DIMLIM
 70
     0
  9
$DIMTIH
 70
     1
  9
$DIMTOH
 70
     1
  9
$DIMSE1
 70
     0
  9
$DIMSE2
 70
     0
  9
$DIMTAD
 70
     1
  9
$DIMZIN
 70
     0
  9
$DIMBLK
  1

  9
$DIMASO
 70
     1
  9
$DIMSHO
 70
     1
  9
$DIMPOST
  1

  9
$DIMAPOST
  1

  9
$DIMALT
 70
     0
  9
$DIMALTD
 70
     3
  9
$DIMALTF
 40
0.0393700787401575
  9
$DIMLFAC
 40
1.0
  9
$DIMTOFL
 70
     1
  9
$DIMTVP
 40
0.0
  9
$DIMTIX
 70
     0
  9
$DIMSOXD
 70
     0
  9
$DIMSAH
 70
     0
  9
$DIMBLK1
  1

  9
$DIMBLK2
  1

  9
$DIMSTYLE
  2
ISO-25
  9
$DIMCLRD
 70
     0
  9
$DIMCLRE
 70
     0
  9
$DIMCLRT
 70
     0
  9
$DIMTFAC
 40
1.0
  9
$DIMGAP
 40
1.524
  9
$DIMJUST
 70
     0
  9
$DIMSD1
 70
     0
  9
$DIMSD2
 70
     0
  9
$DIMTOLJ
 70
     0
  9
$DIMTZIN
 70
     0
  9
$DIMALTZ
 70
     0
  9
$DIMALTTZ
 70
     0
  9
$DIMUPT
 70
     0
  9
$DIMDEC
 70
     2
  9
$DIMTDEC
 70
     2
  9
$DIMALTU
 70
     2
  9
$DIMALTTD
 70
     3
  9
$DIMTXSTY
  7
Standard
  9
$DIMAUNIT
 70
     0
  9
$DIMADEC
 70
     2
  9
$DIMALTRND
 40
0.0
  9
$DIMAZIN
 70
     0
  9
$DIMDSEP
 70
    44
  9
$DIMATFIT
 70
     3
  9
$DIMFRAC
 70
     0
  9
$DIMLDRBLK
  1

  9
$DIMLUNIT
 70
     2
  9
$DIMLWD
 70
    -2
  9
$DIMLWE
 70
    -2
  9
$DIMTMOVE
 70
     0
  9
$LUNITS
 70
     2
  9
$LUPREC
 70
     2
  9
$SKETCHINC
 40
1.0
  9
$FILLETRAD
 40
10.0
  9
$AUNITS
 70
     0
  9
$AUPREC
 70
     2
  9
$MENU
  1
.
  9
$ELEVATION
 40
0.0
  9
$PELEVATION
 40
0.0
  9
$THICKNESS
 40
0.0
  9
$LIMCHECK
 70
     0
  9
$CHAMFERA
 40
0.0
  9
$CHAMFERB
 40
0.0
  9
$CHAMFERC
 40
0.0
  9
$CHAMFERD
 40
0.0
  9
$SKPOLY
 70
     0
  9
$TDCREATE
 40
2458319.739864641
  9
$TDUCREATE
 40
2458319.364864641
  9
$TDUPDATE
 40
2458323.513852871
  9
$TDUUPDATE
 40
2458323.138852871
  9
$TDINDWG
 40
0.0024962269
  9
$TDUSRTIMER
 40
0.0106158796
  9
$USRTIMER
 70
     1
  9
$ANGBASE
 50
0.0
  9
$ANGDIR
 70
     0
  9
$PDMODE
 70
     0
  9
$PDSIZE
 40
-1.0
  9
$PLINEWID
 40
0.0
  9
$SPLFRAME
 70
     0
  9
$SPLINETYPE
 70
     6
  9
$SPLINESEGS
 70
     8
  9
$HANDSEED
  5
1F4
  9
$SURFTAB1
 70
     6
  9
$SURFTAB2
 70
     6
  9
$SURFTYPE
 70
     6
  9
$SURFU
 70
     6
  9
$SURFV
 70
     6
  9
$UCSBASE
  2

  9
$UCSNAME
  2

  9
$UCSORG
 10
0.0
 20
0.0
 30
0.0
  9
$UCSXDIR
 10
1.0
 20
0.0
 30
0.0
  9
$UCSYDIR
 10
0.0
 20
1.0
 30
0.0
  9
$UCSORTHOREF
  2

  9
$UCSORTHOVIEW
 70
     0
  9
$UCSORGTOP
 10
0.0
 20
0.0
 30
0.0
  9
$UCSORGBOTTOM
 10
0.0
 20
0.0
 30
0.0
  9
$UCSORGLEFT
 10
0.0
 20
0.0
 30
0.0
  9
$UCSORGRIGHT
 10
0.0
 20
0.0
 30
0.0
  9
$UCSORGFRONT
 10
0.0
 20
0.0
 30
0.0
  9
$UCSORGBACK
 10
0.0
 20
0.0
 30
0.0
  9
$PUCSBASE
  2

  9
$PUCSNAME
  2

  9
$PUCSORG
 10
0.0
 20
0.0
 30
0.0
  9
$PUCSXDIR
 10
1.0
 20
0.0
 30
0.0
  9
$PUCSYDIR
 10
0.0
 20
1.0
 30
0.0
  9
$PUCSORTHOREF
  2

  9
$PUCSORTHOVIEW
 70
     0
  9
$PUCSORGTOP
 10
0.0
 20
0.0
 30
0.0
  9
$PUCSORGBOTTOM
 10
0.0
 20
0.0
 30
0.0
  9
$PUCSORGLEFT
 10
0.0
 20
0.0
 30
0.0
  9
$PUCSORGRIGHT
 10
0.0
 20
0.0
 30
0.0
  9
$PUCSORGFRONT
 10
0.0
 20
0.0
 30
0.0
  9
$PUCSORGBACK
 10
0.0
 20
0.0
 30
0.0
  9
$USERI1
 70
     0
  9
$USERI2
 70
     0
  9
$USERI3
 70
     0
  9
$USERI4
 70
     0
  9
$USERI5
 70
     0
  9
$USERR1
 40
0.0
  9
$USERR2
 40
0.0
  9
$USERR3
 40
0.0
  9
$USERR4
 40
0.0
  9
$USERR5
 40
0.0
  9
$WORLDVIEW
 70
     1
  9
$SHADEDGE
 70
     3
  9
$SHADEDIF
 70
    70
  9
$TILEMODE
 70
     1
  9
$MAXACTVP
 70
    64
  9
$PINSBASE
 10
0.0
 20
0.0
 30
0.0
  9
$PLIMCHECK
 70
     0
  9
$PEXTMIN
 10
1.000000000000000E+20
 20
1.000000000000000E+20
 30
1.000000000000000E+20
  9
$PEXTMAX
 10
-1.000000000000000E+20
 20
-1.000000000000000E+20
 30
-1.000000000000000E+20
  9
$PLIMMIN
 10
0.0
 20
0.0
  9
$PLIMMAX
 10
0.0
 20
0.0
  9
$UNITMODE
 70
     0
  9
$VISRETAIN
 70
     1
  9
$PLINEGEN
 70
     0
  9
$PSLTSCALE
 70
     1
  9
$TREEDEPTH
 70
  3020
  9
$CMLSTYLE
  2
Standard
  9
$CMLJUST
 70
     0
  9
$CMLSCALE
 40
20.0
  9
$PROXYGRAPHICS
 70
     1
  9
$MEASUREMENT
 70
     1
  9
$CELWEIGHT
370
    -1
  9
$ENDCAPS
280
     0
  9
$JOINSTYLE
280
     0
  9
$LWDISPLAY
290
     1
  9
$INSUNITS
 70
     4
  9
$HYPERLINKBASE
  1

  9
$STYLESHEET
  1

  9
$XEDIT
290
     1
  9
$CEPSNTYPE
380
     0
  9
$PSTYLEMODE
290
     1
  9
$FINGERPRINTGUID
  2
{1F82BB1C-C529-4649-BA49-353CA969CA1A}
  9
$VERSIONGUID
  2
{FAEB1C32-E019-11D5-929B-00C0DF256EC4}
  9
$EXTNAMES
290
     1
  9
$PSVPSCALE
 40
0.0
  9
$OLESTARTUP
290
     0
  0
ENDSEC
  0
SECTION
  2
CLASSES
  0
CLASS
  1
ACDBDICTIONARYWDFLT
  2
AcDbDictionaryWithDefault
  3
ObjectDBX Classes
 90
        0
280
     0
281
     0
  0
CLASS
  1
VISUALSTYLE
  2
AcDbVisualStyle
  3
ObjectDBX Classes
 90
     4095
280
     0
281
     0
  0
CLASS
  1
MATERIAL
  2
AcDbMaterial
  3
ObjectDBX Classes
 90
     1153
280
     0
281
     0
  0
CLASS
  1
SCALE
  2
AcDbScale
  3
ObjectDBX Classes
 90
     1153
280
     0
281
     0
  0
CLASS
  1
SUN
  2
AcDbSun
  3
SCENEOE
 90
     1153
280
     0
281
     0
  0
CLASS
  1
ACDBPLACEHOLDER
  2
AcDbPlaceHolder
  3
ObjectDBX Classes
 90
        0
280
     0
281
     0
  0
CLASS
  1
LAYOUT
  2
AcDbLayout
  3
ObjectDBX Classes
 90
        0
280
     0
281
     0
  0
CLASS
  1
TABLESTYLE
  2
AcDbTableStyle
  3
ObjectDBX Classes
 90
     4095
280
     0
281
     0
  0
CLASS
  1
MLEADERSTYLE
  2
AcDbMLeaderStyle
  3
ACDB_MLEADERSTYLE_CLASS
 90
     4095
280
     0
281
     0
  0
CLASS
  1
DICTIONARYVAR
  2
AcDbDictionaryVar
  3
ObjectDBX Classes
 90
        0
280
     0
281
     0
  0
ENDSEC
  0
SECTION
  2
TABLES
  0
TABLE
  2
VPORT
  5
8
330
0
100
AcDbSymbolTable
 70
     1
  0
VPORT
  5
29
330
8
100
AcDbSymbolTableRecord
100
AcDbViewportTableRecord
  2
*Active
 70
     0
 10
0.0
 20
0.0
 11
1.0
 21
1.0
 12
22.70986690767273
 22
-6.493278694405809
 13
0.0
 23
0.0
 14
10.0
 24
10.0
 15
10.0
 25
10.0
 16
0.0
 26
0.0
 36
1.0
 17
0.0
 27
0.0
 37
0.0
 40
88.69619853658811
 41
1.782762691853601
 42
50.0
 43
0.0
 44
0.0
 50
0.0
 51
0.0
 71
    16
 72
  2000
 73
     1
 74
     3
 75
     0
 76
     0
 77
     0
 78
     0
281
     0
 65
     1
110
0.0
120
0.0
130
0.0
111
1.0
121
0.0
131
0.0
112
0.0
122
1.0
132
0.0
 79
     0
146
0.0
  0
ENDTAB
  0
TABLE
  2
LTYPE
  5
5
330
0
100
AcDbSymbolTable
 70
     6
  0
LTYPE
  5
14
330
5
100
AcDbSymbolTableRecord
100
AcDbLinetypeTableRecord
  2
ByBlock
 70
     0
  3

 72
    65
 73
     0
 40
0.0
  0
LTYPE
  5
15
330
5
100
AcDbSymbolTableRecord
100
AcDbLinetypeTableRecord
  2
ByLayer
 70
     0
  3

 72
    65
 73
     0
 40
0.0
  0
LTYPE
  5
16
330
5
100
AcDbSymbolTableRecord
100
AcDbLinetypeTableRecord
  2
Continuous
 70
     0
  3
Solid line
 72
    65
 73
     0
 40
0.0
  0
LTYPE
  5
6A
330
5
100
AcDbSymbolTableRecord
100
AcDbLinetypeTableRecord
  2
HIDDEN
 70
     0
  3
Hidden __ __ __ __ __ __ __ __ __ __ __ __ __ __
 72
    65
 73
     2
 40
1.905
 49
1.27
 74
     0
 49
-0.635
 74
     0
  0
LTYPE
  5
6B
330
5
100
AcDbSymbolTableRecord
100
AcDbLinetypeTableRecord
  2
PHANTOM
 70
     0
  3
Phantom ______  __  __  ______  __  __  ______
 72
    65
 73
     6
 40
12.7
 49
6.35
 74
     0
 49
-1.27
 74
     0
 49
1.27
 74
     0
 49
-1.27
 74
     0
 49
1.27
 74
     0
 49
-1.27
 74
     0
  0
LTYPE
  5
6C
330
5
100
AcDbSymbolTableRecord
100
AcDbLinetypeTableRecord
  2
CENTER
 70
     0
  3
Center ____ _ ____ _ ____ _ ____ _ ____ _ ____
 72
    65
 73
     4
 40
10.16
 49
6.35
 74
     0
 49
-1.27
 74
     0
 49
1.27
 74
     0
 49
-1.27
 74
     0
  0
LTYPE
  5
6D
330
5
100
AcDbSymbolTableRecord
100
AcDbLinetypeTableRecord
  2
CENTERX2
 70
     0
  3
Center (2x) ________  __  ________  __  _____
 72
    65
 73
     4
 40
20.32
 49
12.7
 74
     0
 49
-2.54
 74
     0
 49
2.54
 74
     0
 49
-2.54
 74
     0
  0
LTYPE
  5
6E
330
5
100
AcDbSymbolTableRecord
100
AcDbLinetypeTableRecord
  2
DOT2
 70
     0
  3
Dot (.5x) ........................................
 72
    65
 73
     2
 40
0.635
 49
0.0
 74
     0
 49
-0.635
 74
     0
  0
ENDTAB
  0
TABLE
  2
LAYER
  5
2
102
{ACAD_XDICTIONARY
360
17F
102
}
330
0
100
AcDbSymbolTable
 70
    18
  0
LAYER
  5
10
330
2
100
AcDbSymbolTableRecord
100
AcDbLayerTableRecord
  2
0
 70
     0
 62
     7
  6
Continuous
370
    -3
390
F
  0
LAYER
  5
6F
330
2
100
AcDbSymbolTableRecord
100
AcDbLayerTableRecord
  2
FORMAT
 70
     0
 62
     2
  6
Continuous
370
    -3
390
F
  0
LAYER
  5
70
330
2
100
AcDbSymbolTableRecord
100
AcDbLayerTableRecord
  2
외형선
 70
     0
 62
     4
  6
Continuous
370
    30
390
F
  0
LAYER
  5
71
330
2
100
AcDbSymbolTableRecord
100
AcDbLayerTableRecord
  2
숨은선
 70
     0
 62
     2
  6
HIDDEN
370
    15
390
F
  0
LAYER
  5
72
330
2
100
AcDbSymbolTableRecord
100
AcDbLayerTableRecord
  2
중심선
 70
     0
 62
     1
  6
CENTERX2
370
    -3
390
F
  0
LAYER
  5
73
330
2
100
AcDbSymbolTableRecord
100
AcDbLayerTableRecord
  2
파단선
 70
     0
 62
     4
  6
Continuous
370
    -3
390
F
  0
LAYER
  5
74
330
2
100
AcDbSymbolTableRecord
100
AcDbLayerTableRecord
  2
해칭선
 70
     0
 62
   100
  6
Continuous
370
    -3
390
F
  0
LAYER
  5
75
330
2
100
AcDbSymbolTableRecord
100
AcDbLayerTableRecord
  2
가는실선
 70
     0
 62
     4
  6
Continuous
370
    -3
390
F
  0
LAYER
  5
76
330
2
100
AcDbSymbolTableRecord
100
AcDbLayerTableRecord
  2
치수_보조선
 70
     0
 62
     4
  6
Continuous
370
    -3
390
F
  0
LAYER
  5
77
330
2
100
AcDbSymbolTableRecord
100
AcDbLayerTableRecord
  2
치수문자_일반주서
 70
     0
 62
     7
  6
Continuous
370
    15
390
F
  0
LAYER
  5
78
330
2
100
AcDbSymbolTableRecord
100
AcDbLayerTableRecord
  2
개별주서
 70
     0
 62
   100
  6
Continuous
370
    30
390
F
  0
LAYER
  5
79
330
2
100
AcDbSymbolTableRecord
100
AcDbLayerTableRecord
  2
중간선
 70
     0
 62
     2
  6
Continuous
370
    15
390
F
  0
LAYER
  5
7A
330
2
100
AcDbSymbolTableRecord
100
AcDbLayerTableRecord
  2
윤곽선
 70
     0
 62
     3
  6
Continuous
370
    40
390
F
  0
LAYER
  5
7B
330
2
100
AcDbSymbolTableRecord
100
AcDbLayerTableRecord
  2
중심마크
 70
     0
 62
   100
  6
Continuous
370
    30
390
F
  0
LAYER
  5
7C
330
2
100
AcDbSymbolTableRecord
100
AcDbLayerTableRecord
  2
가상선
 70
     0
 62
     4
  6
PHANTOM
370
    -3
390
F
  0
LAYER
  5
7D
330
2
100
AcDbSymbolTableRecord
100
AcDbLayerTableRecord
  2
특수지정선
 70
     0
 62
     5
  6
CENTERX2
370
    60
390
F
  0
LAYER
  5
7E
330
2
100
AcDbSymbolTableRecord
100
AcDbLayerTableRecord
  2
참조1
 70
     0
 62
    -4
  6
Continuous
370
    -3
390
F
  0
LAYER
  5
148
330
2
100
AcDbSymbolTableRecord
100
AcDbLayerTableRecord
  2
Defpoints
 70
     0
 62
     7
  6
Continuous
290
     0
370
    -3
390
F
  0
ENDTAB
  0
TABLE
  2
STYLE
  5
3
330
0
100
AcDbSymbolTable
 70
     2
  0
STYLE
  5
11
330
3
100
AcDbSymbolTableRecord
100
AcDbTextStyleTableRecord
  2
Standard
 70
     0
 40
0.0
 41
1.0
 50
0.0
 71
     0
 42
3.5
  3
txt
  4

  0
STYLE
  5
94
330
3
100
AcDbSymbolTableRecord
100
AcDbTextStyleTableRecord
  2
SLDTEXTSTYLE0
 70
     0
 40
0.0
 41
0.75
 50
0.0
 71
     0
 42
3.5
  3
TXT
  4

  0
ENDTAB
  0
TABLE
  2
VIEW
  5
6
330
0
100
AcDbSymbolTable
 70
     0
  0
ENDTAB
  0
TABLE
  2
UCS
  5
7
330
0
100
AcDbSymbolTable
 70
     0
  0
ENDTAB
  0
TABLE
  2
APPID
  5
9
330
0
100
AcDbSymbolTable
 70
     4
  0
APPID
  5
12
330
9
100
AcDbSymbolTableRecord
100
AcDbRegAppTableRecord
  2
ACAD
 70
     0
  0
APPID
  5
14F
330
9
100
AcDbSymbolTableRecord
100
AcDbRegAppTableRecord
  2
PE_URL
 70
     0
  0
APPID
  5
1F2
330
9
100
AcDbSymbolTableRecord
100
AcDbRegAppTableRecord
  2
ACAD_DSTYLE_DIMFLIPARROW_SYMBOL
 70
     0
  0
APPID
  5
1F3
330
9
100
AcDbSymbolTableRecord
100
AcDbRegAppTableRecord
  2
ACAD_DSTYLE_DIMFLIPARROW_WHICH_SYMBOL
 70
     0
  0
ENDTAB
  0
TABLE
  2
DIMSTYLE
  5
A
330
0
100
AcDbSymbolTable
 70
     4
100
AcDbDimStyleTable
  0
DIMSTYLE
105
27
330
A
100
AcDbSymbolTableRecord
100
AcDbDimStyleTableRecord
  2
ISO-25
 70
     0
 41
2.5
 42
0.625
 43
3.75
 44
1.25
 73
     0
 74
     0
 77
     1
 78
     8
140
2.5
141
2.5
143
0.03937007874016
147
0.625
171
     3
172
     1
178
     0
271
     2
272
     2
274
     3
278
    44
283
     0
284
     8
340
11
  0
DIMSTYLE
105
C6
102
{ACAD_REACTORS
330
C5
330
16E
330
DA
330
103
330
EE
102
}
330
A
100
AcDbSymbolTableRecord
100
AcDbDimStyleTableRecord
  2
SLDDIMSTYLE0
 70
     0
 41
3.302
 44
0.0
 45
0.000000001
 73
     0
 74
     0
 77
     1
 78
     4
 79
     1
140
3.5
143
0.0393700787401575
147
0.875
148
0.000000001
170
     1
173
     1
178
     0
271
     2
272
     2
276
     2
284
    12
340
94
  0
DIMSTYLE
105
DB
330
A
100
AcDbSymbolTableRecord
100
AcDbDimStyleTableRecord
  2
SLDDIMSTYLE1
 70
     0
 41
3.302
 44
0.0
 45
0.000000001
 73
     0
 74
     0
 77
     1
 78
    12
 79
     3
140
3.5
143
0.0393700787401575
147
0.875
148
0.000000001
170
     1
173
     1
178
     0
271
     2
272
     2
276
     2
284
    12
340
94
  0
DIMSTYLE
105
EF
330
A
100
AcDbSymbolTableRecord
100
AcDbDimStyleTableRecord
  2
SLDDIMSTYLE2
 70
     0
 41
3.302
 44
0.0
 45
0.000000001
 73
     0
 74
     0
 77
     1
 78
    12
 79
     3
140
3.5
143
0.0393700787401575
147
0.875
148
0.000000001
170
     1
172
     1
173
     1
178
     0
271
     2
272
     2
276
     2
284
    12
289
     0
340
94
  0
ENDTAB
  0
TABLE
  2
BLOCK_RECORD
  5
1
330
0
100
AcDbSymbolTable
 70
    10
  0
BLOCK_RECORD
  5
1F
330
1
100
AcDbSymbolTableRecord
100
AcDbBlockTableRecord
  2
*Model_Space
340
22
  0
BLOCK_RECORD
  5
1B
330
1
100
AcDbSymbolTableRecord
100
AcDbBlockTableRecord
  2
*Paper_Space
340
1E
  0
BLOCK_RECORD
  5
23
330
1
100
AcDbSymbolTableRecord
100
AcDbBlockTableRecord
  2
*Paper_Space0
340
26
  0
BLOCK_RECORD
  5
7F
330
1
100
AcDbSymbolTableRecord
100
AcDbBlockTableRecord
  2
블럭10
340
0
102
{BLKREFS
331
BE
102
}
  0
BLOCK_RECORD
  5
C7
330
1
100
AcDbSymbolTableRecord
100
AcDbBlockTableRecord
  2
_D
340
0
  0
BLOCK_RECORD
  5
DC
330
1
100
AcDbSymbolTableRecord
100
AcDbBlockTableRecord
  2
_D_1
340
0
  0
BLOCK_RECORD
  5
F0
330
1
100
AcDbSymbolTableRecord
100
AcDbBlockTableRecord
  2
_D_2
340
0
  0
BLOCK_RECORD
  5
104
330
1
100
AcDbSymbolTableRecord
100
AcDbBlockTableRecord
  2
_D_3
340
0
  0
BLOCK_RECORD
  5
11E
330
1
100
AcDbSymbolTableRecord
100
AcDbBlockTableRecord
  2
SW_DOWELSYMBOL_0
340
0
102
{BLKREFS
331
124
102
}
  0
BLOCK_RECORD
  5
183
330
1
100
AcDbSymbolTableRecord
100
AcDbBlockTableRecord
  2
*D8
340
0
  0
BLOCK_RECORD
  5
195
330
1
100
AcDbSymbolTableRecord
100
AcDbBlockTableRecord
  2
*D9
340
0
  0
ENDTAB
  0
ENDSEC
  0
SECTION
  2
BLOCKS
  0
BLOCK
  5
20
330
1F
100
AcDbEntity
  8
0
100
AcDbBlockBegin
  2
*Model_Space
 70
     0
 10
0.0
 20
0.0
 30
0.0
  3
*Model_Space
  1

  0
ENDBLK
  5
21
330
1F
100
AcDbEntity
  8
0
100
AcDbBlockEnd
  0
BLOCK
  5
1C
330
1B
100
AcDbEntity
 67
     1
  8
0
100
AcDbBlockBegin
  2
*Paper_Space
 70
     0
 10
0.0
 20
0.0
 30
0.0
  3
*Paper_Space
  1

  0
ENDBLK
  5
1D
330
1B
100
AcDbEntity
 67
     1
  8
0
100
AcDbBlockEnd
  0
BLOCK
  5
24
330
23
100
AcDbEntity
  8
0
100
AcDbBlockBegin
  2
*Paper_Space0
 70
     0
 10
0.0
 20
0.0
 30
0.0
  3
*Paper_Space0
  1

  0
ENDBLK
  5
25
330
23
100
AcDbEntity
  8
0
100
AcDbBlockEnd
  0
BLOCK
  5
80
330
7F
100
AcDbEntity
  8
0
100
AcDbBlockBegin
  2
블럭10
 70
     2
 10
0.0
 20
0.0
 30
0.0
  3
블럭10
  1

  0
ELLIPSE
  5
82
330
7F
100
AcDbEntity
  8
중심선
100
AcDbEllipse
 10
20.54032771741204
 20
12.0471743016438
 30
0.0
 11
6.600054785286829
 21
-1.261213355974178E-13
 31
0.0
210
0.0
220
0.0
230
1.0
 40
0.636358354079598
 41
0.9219305317359503
 42
6.513795318482858
  0
ELLIPSE
  5
83
330
7F
100
AcDbEntity
  8
중심선
100
AcDbEllipse
 10
20.54032771746488
 20
12.04717430159265
 30
0.0
 11
3.960054785062283
 21
1.540847449632565E-10
 31
0.0
210
0.0
220
0.0
230
1.0
 40
0.3939339440162632
 41
1.131841032648279
 42
5.62031148352944
  0
LINE
  5
84
330
7F
100
AcDbEntity
  8
중심선
100
AcDbLine
 10
2.268634060543552
 20
16.24717430164393
 30
0.0
 11
5.714909304380834
 21
16.24717430164393
 31
0.0
  0
LINE
  5
85
330
7F
100
AcDbEntity
  8
중심선
100
AcDbLine
 10
5.245725140726316
 20
7.84717430164391
 30
0.0
 11
8.692000384563599
 21
7.84717430164391
 31
0.0
  0
LINE
  5
86
330
7F
100
AcDbEntity
  8
중심선
100
AcDbLine
 10
15.74043728645272
 20
16.24717430164393
 30
0.0
 11
8.692000384563599
 21
7.84717430164391
 31
0.0
  0
LINE
  5
87
330
7F
100
AcDbEntity
  8
중심선
100
AcDbLine
 10
0.1404042013395286
 20
13.71084872107135
 30
0.0
 11
3.58671253028996
 21
13.71088815037384
 31
0.0
  0
LINE
  5
88
330
7F
100
AcDbEntity
  8
중심선
100
AcDbLine
 10
2.750260043222114
 20
10.84717430164391
 30
0.0
 11
6.196535287059397
 21
10.84717430164391
 31
0.0
  0
LINE
  5
89
330
7F
100
AcDbEntity
  8
중심선
100
AcDbLine
 10
12.29416204261559
 20
16.24717430164393
 30
0.0
 11
5.245725140726316
 21
7.84717430164391
 31
0.0
  0
LINE
  5
8A
330
7F
100
AcDbEntity
  8
중심선
100
AcDbLine
 10
10.72767329541681
 20
16.24717430164393
 30
0.0
 11
6.196535287059397
 21
10.84717430164391
 31
0.0
  0
LINE
  5
8B
330
7F
100
AcDbEntity
  8
중심선
100
AcDbLine
 10
7.28139805157953
 20
16.24717430164393
 30
0.0
 11
2.750260043222114
 21
10.84717430164391
 31
0.0
  0
LINE
  5
8C
330
7F
100
AcDbEntity
  8
중심선
100
AcDbLine
 10
5.714909304380834
 20
16.24717430164393
 30
0.0
 11
3.58671253028996
 21
13.71088815037384
 31
0.0
  0
LINE
  5
8D
330
7F
100
AcDbEntity
  8
중심선
100
AcDbLine
 10
2.268634060543552
 20
16.24717430164393
 30
0.0
 11
0.1404042013395286
 21
13.71084872107135
 31
0.0
  0
LINE
  5
8E
330
7F
100
AcDbEntity
  8
중심선
100
AcDbLine
 10
7.28139805157953
 20
16.24717430164393
 30
0.0
 11
10.72767329541681
 21
16.24717430164393
 31
0.0
  0
LINE
  5
8F
330
7F
100
AcDbEntity
  8
중심선
100
AcDbLine
 10
12.29416204261559
 20
16.24717430164393
 30
0.0
 11
15.74043728645272
 21
16.24717430164393
 31
0.0
  0
LINE
  5
90
330
7F
100
AcDbEntity
  8
중심선
100
AcDbLine
 10
19.22036997980202
 20
11.08717430171403
 30
0.0
 11
23.66174974927406
 21
11.08717430171406
 31
0.0
  0
LINE
  5
91
330
7F
100
AcDbEntity
  8
중심선
100
AcDbLine
 10
19.22039502424796
 20
13.00717430171391
 30
0.0
 11
19.22036997980202
 21
11.08717430171403
 31
0.0
  0
LINE
  5
92
330
7F
100
AcDbEntity
  8
중심선
100
AcDbLine
 10
19.22039502424796
 20
13.00717430171391
 30
0.0
 11
26.96566020931264
 21
13.00717430171391
 31
0.0
  0
LINE
  5
93
330
7F
100
AcDbEntity
  8
중심선
100
AcDbLine
 10
22.22332737316547
 20
13.45928029700563
 30
0.0
 11
24.52862924686651
 21
15.39360700705356
 31
0.0
  0
ATTDEF
  5
95
330
7F
100
AcDbEntity
  8
FORMAT
 62
     2
100
AcDbText
 10
4.408487351596664
 20
2.075366912832191
 30
0.0
 40
4.233333333333333
  1
E1013012
 41
0.75
  7
SLDTEXTSTYLE0
 11
4.408487351596664
 21
-0.0412997538344756
 31
0.0
100
AcDbAttributeDefinition
  3

  2
AUTOATTR0
 70
     0
 74
     1
  0
ENDBLK
  5
81
330
7F
100
AcDbEntity
  8
0
100
AcDbBlockEnd
  0
BLOCK
  5
C8
330
C7
100
AcDbEntity
  8
0
100
AcDbBlockBegin
  2
_D
 70
     0
 10
0.0
 20
0.0
 30
0.0
  3
_D
  1

  0
LINE
  5
CA
330
C7
100
AcDbEntity
  8
치수문자_일반주서
 62
     0
370
    -2
100
AcDbLine
 10
28.575
 20
2.443750000000003
 30
0.0
 11
28.575
 21
12.38125
 31
0.0
  0
LINE
  5
CB
330
C7
100
AcDbEntity
  8
치수문자_일반주서
 62
     0
370
    -2
100
AcDbLine
 10
15.875
 20
2.443750000000002
 30
0.0
 11
15.875
 21
12.38125
 31
0.0
  0
LINE
  5
CC
330
C7
100
AcDbEntity
  8
치수문자_일반주서
 62
     0
370
    -2
100
AcDbLine
 10
28.575
 20
12.38125
 30
0.0
 11
55.9395
 21
12.38125
 31
0.0
  0
LINE
  5
CD
330
C7
100
AcDbEntity
  8
치수문자_일반주서
 62
     0
370
    -2
100
AcDbLine
 10
28.575
 20
12.38125
 30
0.0
 11
15.875
 21
12.38125
 31
0.0
  0
LINE
  5
CE
330
C7
100
AcDbEntity
  8
치수문자_일반주서
 62
     0
370
    -2
100
AcDbLine
 10
31.877
 20
12.38125
 30
0.0
 11
35.17899999999999
 21
12.38125
 31
0.0
  0
LINE
  5
CF
330
C7
100
AcDbEntity
  8
치수문자_일반주서
 62
     0
370
    -2
100
AcDbLine
 10
12.573
 20
12.38125
 30
0.0
 11
9.271
 21
12.38125
 31
0.0
  0
SOLID
  5
D0
330
C7
100
AcDbEntity
  8
치수문자_일반주서
 62
     0
100
AcDbTrace
 10
31.877
 20
12.93158333333333
 30
0.0
 11
31.877
 21
11.83091666666667
 31
0.0
 12
28.575
 22
12.38125
 32
0.0
 13
28.575
 23
12.38125
 33
0.0
  0
SOLID
  5
D1
330
C7
100
AcDbEntity
  8
치수문자_일반주서
 62
     0
100
AcDbTrace
 10
12.573
 20
11.83091666666667
 30
0.0
 11
12.573
 21
12.93158333333333
 31
0.0
 12
15.875
 22
12.38125
 32
0.0
 13
15.875
 23
12.38125
 33
0.0
  0
MTEXT
  5
D2
330
C7
100
AcDbEntity
  8
치수문자_일반주서
 62
     0
100
AcDbMText
 10
43.90825
 20
16.75625
 30
0.0
 40
3.5
 41
0.0
 71
     2
 72
     1
  1
\A1;12.70 [1/2]
  7
SLDTEXTSTYLE0
 73
     1
 44
1.0
  0
POINT
  5
D3
330
C7
100
AcDbEntity
  8
Defpoints
 62
     0
100
AcDbPoint
 10
28.575
 20
2.381250000000003
 30
0.0
  0
POINT
  5
1AF
330
C7
100
AcDbEntity
  8
Defpoints
 62
     0
100
AcDbPoint
 10
15.875
 20
2.381250000000002
 30
0.0
  0
POINT
  5
1B0
330
C7
100
AcDbEntity
  8
Defpoints
 62
     0
100
AcDbPoint
 10
15.875
 20
12.38125
 30
0.0
  0
ENDBLK
  5
C9
330
C7
100
AcDbEntity
  8
0
100
AcDbBlockEnd
  0
BLOCK
  5
DD
330
DC
100
AcDbEntity
  8
0
100
AcDbBlockBegin
  2
_D_1
 70
     0
 10
0.0
 20
0.0
 30
0.0
  3
_D_1
  1

  0
LINE
  5
DF
330
DC
100
AcDbEntity
  8
치수문자_일반주서
 62
     0
370
    -2
100
AcDbLine
 10
28.575
 20
2.443750000000003
 30
0.0
 11
28.575
 21
22.38125
 31
0.0
  0
LINE
  5
E0
330
DC
100
AcDbEntity
  8
치수문자_일반주서
 62
     0
370
    -2
100
AcDbLine
 10
-28.57499999999999
 20
2.443750000000007
 30
0.0
 11
-28.57499999999999
 21
22.38125
 31
0.0
  0
LINE
  5
E1
330
DC
100
AcDbEntity
  8
치수문자_일반주서
 62
     0
370
    -2
100
AcDbLine
 10
25.273
 20
22.38125
 30
0.0
 11
-25.27299999999999
 21
22.38125
 31
0.0
  0
SOLID
  5
E2
330
DC
100
AcDbEntity
  8
치수문자_일반주서
 62
     0
100
AcDbTrace
 10
25.273
 20
21.83091666666667
 30
0.0
 11
25.273
 21
22.93158333333334
 31
0.0
 12
28.575
 22
22.38125
 32
0.0
 13
28.575
 23
22.38125
 33
0.0
  0
SOLID
  5
E3
330
DC
100
AcDbEntity
  8
치수문자_일반주서
 62
     0
100
AcDbTrace
 10
-25.27299999999999
 20
22.93158333333334
 30
0.0
 11
-25.27299999999999
 21
21.83091666666667
 31
0.0
 12
-28.57499999999999
 22
22.38125
 32
0.0
 13
-28.57499999999999
 23
22.38125
 33
0.0
  0
MTEXT
  5
E4
330
DC
100
AcDbEntity
  8
치수문자_일반주서
 62
     0
100
AcDbMText
 10
0.2501241026247349
 20
26.75625
 30
0.0
 40
3.5
 41
0.0
 71
     2
 72
     1
  1
\A1;57.15 [2 1/4]
  7
SLDTEXTSTYLE0
 73
     1
 44
1.0
  0
POINT
  5
E5
330
DC
100
AcDbEntity
  8
Defpoints
 62
     0
100
AcDbPoint
 10
28.575
 20
2.381250000000003
 30
0.0
  0
POINT
  5
E6
330
DC
100
AcDbEntity
  8
Defpoints
 62
     0
100
AcDbPoint
 10
-28.57499999999999
 20
2.381250000000007
 30
0.0
  0
POINT
  5
E7
330
DC
100
AcDbEntity
  8
Defpoints
 62
     0
100
AcDbPoint
 10
-28.57499999999999
 20
22.38125
 30
0.0
  0
ENDBLK
  5
DE
330
DC
100
AcDbEntity
  8
0
100
AcDbBlockEnd
  0
BLOCK
  5
F1
330
F0
100
AcDbEntity
  8
0
100
AcDbBlockBegin
  2
_D_2
 70
     0
 10
0.0
 20
0.0
 30
0.0
  3
_D_2
  1

  0
LINE
  5
F3
330
F0
100
AcDbEntity
  8
치수문자_일반주서
 62
     0
370
    -2
100
AcDbLine
 10
-15.93749999999999
 20
2.38125
 30
0.0
 11
-38.575
 21
2.381249999999916
 31
0.0
  0
LINE
  5
F4
330
F0
100
AcDbEntity
  8
치수문자_일반주서
 62
     0
370
    -2
100
AcDbLine
 10
-15.93749999999999
 20
-2.381250000000005
 30
0.0
 11
-38.57499999999999
 21
-2.38125000000009
 31
0.0
  0
LINE
  5
F5
330
F0
100
AcDbEntity
  8
치수문자_일반주서
 62
     0
370
    -2
100
AcDbLine
 10
-38.575
 20
2.381249999999916
 30
0.0
 11
-38.57500000000011
 21
36.98524999999997
 31
0.0
  0
LINE
  5
F6
330
F0
100
AcDbEntity
  8
치수문자_일반주서
 62
     0
370
    -2
100
AcDbLine
 10
-38.57500000000001
 20
5.683249999999916
 30
0.0
 11
-38.57500000000002
 21
8.985249999999915
 31
0.0
  0
LINE
  5
F7
330
F0
100
AcDbEntity
  8
치수문자_일반주서
 62
     0
370
    -2
100
AcDbLine
 10
-38.57499999999998
 20
-5.68325000000009
 30
0.0
 11
-38.57499999999997
 21
-8.98525000000009
 31
0.0
  0
SOLID
  5
F8
330
F0
100
AcDbEntity
  8
치수문자_일반주서
 62
     0
100
AcDbTrace
 10
-39.12533333333334
 20
5.683249999999914
 30
0.0
 11
-38.02466666666668
 21
5.683249999999918
 31
0.0
 12
-38.575
 22
2.381249999999916
 32
0.0
 13
-38.575
 23
2.381249999999916
 33
0.0
  0
SOLID
  5
F9
330
F0
100
AcDbEntity
  8
치수문자_일반주서
 62
     0
100
AcDbTrace
 10
-38.02466666666665
 20
-5.683250000000088
 30
0.0
 11
-39.12533333333332
 21
-5.683250000000092
 31
0.0
 12
-38.57499999999999
 22
-2.38125000000009
 32
0.0
 13
-38.57499999999999
 23
-2.38125000000009
 33
0.0
  0
MTEXT
  5
FA
330
F0
100
AcDbEntity
  8
치수문자_일반주서
 62
     0
100
AcDbMText
 10
-42.95000000000007
 20
22.98524999999995
 30
0.0
 40
3.5
 41
0.0
 71
     2
 72
     1
  1
\A1;%%c4.76 [3/16]
  7
SLDTEXTSTYLE0
 11
-2.983906501879682E-15
 21
1.0
 31
0.0
 73
     1
 44
1.0
  0
POINT
  5
FB
330
F0
100
AcDbEntity
  8
Defpoints
 62
     0
100
AcDbPoint
 10
-15.87499999999999
 20
2.381250000000001
 30
0.0
  0
POINT
  5
FC
330
F0
100
AcDbEntity
  8
Defpoints
 62
     0
100
AcDbPoint
 10
-15.87499999999999
 20
-2.381250000000005
 30
0.0
  0
POINT
  5
1AE
330
F0
100
AcDbEntity
  8
Defpoints
 62
     0
100
AcDbPoint
 10
-38.57499999999999
 20
-2.38125000000009
 30
0.0
  0
ENDBLK
  5
F2
330
F0
100
AcDbEntity
  8
0
100
AcDbBlockEnd
  0
BLOCK
  5
105
330
104
100
AcDbEntity
  8
0
100
AcDbBlockBegin
  2
_D_3
 70
     0
 10
0.0
 20
0.0
 30
0.0
  3
_D_3
  1

  0
LINE
  5
107
330
104
100
AcDbEntity
  8
치수문자_일반주서
 62
     0
370
    -2
100
AcDbLine
 10
28.6375
 20
2.381250000000004
 30
0.0
 11
62.35550636093407
 21
2.381250000000129
 31
0.0
  0
LINE
  5
108
330
104
100
AcDbEntity
  8
치수문자_일반주서
 62
     0
370
    -2
100
AcDbLine
 10
28.6375
 20
-2.381249999999996
 30
0.0
 11
62.35550636093409
 21
-2.381249999999874
 31
0.0
  0
LINE
  5
109
330
104
100
AcDbEntity
  8
치수문자_일반주서
 62
     0
370
    -2
100
AcDbLine
 10
62.35550636093407
 20
2.381250000000129
 30
0.0
 11
62.35550636093397
 21
36.98525000000014
 31
0.0
  0
LINE
  5
10A
330
104
100
AcDbEntity
  8
치수문자_일반주서
 62
     0
370
    -2
100
AcDbLine
 10
62.35550636093406
 20
5.683250000000129
 30
0.0
 11
62.35550636093406
 21
8.985250000000129
 31
0.0
  0
LINE
  5
10B
330
104
100
AcDbEntity
  8
치수문자_일반주서
 62
     0
370
    -2
100
AcDbLine
 10
62.35550636093409
 20
-5.683249999999873
 30
0.0
 11
62.3555063609341
 21
-8.985249999999873
 31
0.0
  0
SOLID
  5
10C
330
104
100
AcDbEntity
  8
치수문자_일반주서
 62
     0
100
AcDbTrace
 10
61.80517302760073
 20
5.683250000000127
 30
0.0
 11
62.9058396942674
 21
5.683250000000131
 31
0.0
 12
62.35550636093407
 22
2.381250000000129
 32
0.0
 13
62.35550636093407
 23
2.381250000000129
 33
0.0
  0
SOLID
  5
10D
330
104
100
AcDbEntity
  8
치수문자_일반주서
 62
     0
100
AcDbTrace
 10
62.90583969426743
 20
-5.683249999999871
 30
0.0
 11
61.80517302760076
 21
-5.683249999999875
 31
0.0
 12
62.35550636093409
 22
-2.381249999999874
 32
0.0
 13
62.35550636093409
 23
-2.381249999999874
 33
0.0
  0
MTEXT
  5
10E
330
104
100
AcDbEntity
  8
치수문자_일반주서
 62
     0
100
AcDbMText
 10
57.98050636093401
 20
22.98525000000012
 30
0.0
 40
3.5
 41
0.0
 71
     2
 72
     1
  1
\A1;%%c4.76 [3/16]
  7
SLDTEXTSTYLE0
 11
-2.983906501879686E-15
 21
1.0
 31
0.0
 73
     1
 44
1.0
  0
POINT
  5
10F
330
104
100
AcDbEntity
  8
Defpoints
 62
     0
100
AcDbPoint
 10
28.575
 20
2.381250000000003
 30
0.0
  0
POINT
  5
110
330
104
100
AcDbEntity
  8
Defpoints
 62
     0
100
AcDbPoint
 10
28.575
 20
-2.381249999999996
 30
0.0
  0
POINT
  5
111
330
104
100
AcDbEntity
  8
Defpoints
 62
     0
100
AcDbPoint
 10
62.35550636093409
 20
-2.38124999999987
 30
0.0
  0
ENDBLK
  5
106
330
104
100
AcDbEntity
  8
0
100
AcDbBlockEnd
  0
BLOCK
  5
11F
330
11E
100
AcDbEntity
  8
0
100
AcDbBlockBegin
  2
SW_DOWELSYMBOL_0
 70
     0
 10
0.0
 20
0.0
 30
0.0
  3
SW_DOWELSYMBOL_0
  1

  0
CIRCLE
  5
121
330
11E
100
AcDbEntity
  8
해칭선
 62
     0
100
AcDbCircle
 10
0.0
 20
0.0
 30
0.0
 40
3.000000000000001
  0
HATCH
  5
122
330
11E
100
AcDbEntity
  8
0
  6
Continuous
 62
     0
370
     0
100
AcDbHatch
 10
0.0
 20
0.0
 30
0.0
210
0.0
220
0.0
230
1.0
  2
SOLID
 70
     1
 71
     0
 91
        1
 92
        0
 93
        3
 72
     2
 10
0.0
 20
0.0
 40
3.000000000000001
 50
0.0
 51
90.0
 73
     1
 72
     1
 10
0.0
 20
3.000000000000001
 11
0.0
 21
0.0
 72
     1
 10
0.0
 20
0.0
 11
3.000000000000001
 21
0.0
 97
        0
 75
     0
 76
     1
 98
        1
 10
0.0
 20
0.0
  0
HATCH
  5
123
330
11E
100
AcDbEntity
  8
0
  6
Continuous
 62
     0
370
     0
100
AcDbHatch
 10
0.0
 20
0.0
 30
0.0
210
0.0
220
0.0
230
1.0
  2
SOLID
 70
     1
 71
     0
 91
        1
 92
        0
 93
        3
 72
     2
 10
0.0
 20
0.0
 40
3.000000000000001
 50
180.0
 51
270.0000000000008
 73
     1
 72
     1
 10
0.0
 20
-3.000000000000001
 11
0.0
 21
0.0
 72
     1
 10
0.0
 20
0.0
 11
-3.000000000000001
 21
0.0
 97
        0
 75
     0
 76
     1
 98
        1
 10
0.0
 20
0.0
  0
ENDBLK
  5
120
330
11E
100
AcDbEntity
  8
0
100
AcDbBlockEnd
  0
BLOCK
  5
184
330
183
100
AcDbEntity
  8
0
100
AcDbBlockBegin
  2
*D8
 70
     1
 10
0.0
 20
0.0
 30
0.0
  3
*D8
  1

  0
LINE
  5
186
330
183
100
AcDbEntity
  8
치수문자_일반주서
 62
     0
370
    -2
100
AcDbLine
 10
16.12899999999999
 20
2.314062027106202
 30
0.0
 11
16.12899999999999
 21
13.0453120271062
 31
0.0
  0
LINE
  5
187
330
183
100
AcDbEntity
  8
치수문자_일반주서
 62
     0
370
    -2
100
AcDbLine
 10
6.604000000000001
 20
2.31406202710619
 30
0.0
 11
6.603999999999999
 21
13.0453120271062
 31
0.0
  0
LINE
  5
188
330
183
100
AcDbEntity
  8
치수문자_일반주서
 62
     0
370
    -2
100
AcDbLine
 10
16.12899999999999
 20
13.0453120271062
 30
0.0
 11
43.27475
 21
13.0453120271062
 31
0.0
  0
LINE
  5
189
330
183
100
AcDbEntity
  8
치수문자_일반주서
 62
     0
370
    -2
100
AcDbLine
 10
16.12899999999999
 20
13.0453120271062
 30
0.0
 11
6.603999999999999
 21
13.0453120271062
 31
0.0
  0
LINE
  5
18A
330
183
100
AcDbEntity
  8
치수문자_일반주서
 62
     0
370
    -2
100
AcDbLine
 10
19.43099999999999
 20
13.0453120271062
 30
0.0
 11
22.73299999999999
 21
13.0453120271062
 31
0.0
  0
LINE
  5
18B
330
183
100
AcDbEntity
  8
치수문자_일반주서
 62
     0
370
    -2
100
AcDbLine
 10
3.302
 20
13.0453120271062
 30
0.0
 11
0.0
 21
13.0453120271062
 31
0.0
  0
SOLID
  5
18C
330
183
100
AcDbEntity
  8
치수문자_일반주서
 62
     0
100
AcDbTrace
 10
19.43099999999999
 20
13.59564536043953
 30
0.0
 11
19.43099999999999
 21
12.49497869377287
 31
0.0
 12
16.12899999999999
 22
13.0453120271062
 32
0.0
 13
16.12899999999999
 23
13.0453120271062
 33
0.0
  0
SOLID
  5
18D
330
183
100
AcDbEntity
  8
치수문자_일반주서
 62
     0
100
AcDbTrace
 10
3.302
 20
12.49497869377287
 30
0.0
 11
3.302
 21
13.59564536043953
 31
0.0
 12
6.603999999999999
 22
13.0453120271062
 32
0.0
 13
6.603999999999999
 23
13.0453120271062
 33
0.0
  0
MTEXT
  5
18E
330
183
100
AcDbEntity
  8
치수문자_일반주서
 62
     0
100
AcDbMText
 10
31.46225
 20
17.4203120271062
 30
0.0
 40
3.5
 41
0.0
 71
     2
 72
     1
  1
\A1;9.53 [3/8]
  7
SLDTEXTSTYLE0
 73
     1
 44
1.0
  0
POINT
  5
18F
330
183
100
AcDbEntity
  8
Defpoints
 62
     0
100
AcDbPoint
 10
16.12899999999999
 20
2.251562027106202
 30
0.0
  0
POINT
  5
190
330
183
100
AcDbEntity
  8
Defpoints
 62
     0
100
AcDbPoint
 10
6.604000000000001
 20
2.25156202710619
 30
0.0
  0
POINT
  5
191
330
183
100
AcDbEntity
  8
Defpoints
 62
     0
100
AcDbPoint
 10
6.604000000000001
 20
13.0453120271062
 30
0.0
  0
ENDBLK
  5
185
330
183
100
AcDbEntity
  8
0
100
AcDbBlockEnd
  0
BLOCK
  5
196
330
195
100
AcDbEntity
  8
0
100
AcDbBlockBegin
  2
*D9
 70
     1
 10
0.0
 20
0.0
 30
0.0
  3
*D9
  1

  0
LINE
  5
198
330
195
100
AcDbEntity
  8
치수문자_일반주서
 62
     0
370
    -2
100
AcDbLine
 10
75.46235934288559
 20
-19.0614700993779
 30
0.0
 11
75.46235934288559
 21
-8.330220099377904
 31
0.0
  0
LINE
  5
199
330
195
100
AcDbEntity
  8
치수문자_일반주서
 62
     0
370
    -2
100
AcDbLine
 10
65.9373593428856
 20
-19.06147009937791
 30
0.0
 11
65.9373593428856
 21
-8.330220099377904
 31
0.0
  0
LINE
  5
19A
330
195
100
AcDbEntity
  8
치수문자_일반주서
 62
     0
370
    -2
100
AcDbLine
 10
75.46235934288559
 20
-8.330220099377904
 30
0.0
 11
102.6081093428856
 21
-8.330220099377904
 31
0.0
  0
LINE
  5
19B
330
195
100
AcDbEntity
  8
치수문자_일반주서
 62
     0
370
    -2
100
AcDbLine
 10
75.46235934288559
 20
-8.330220099377904
 30
0.0
 11
65.9373593428856
 21
-8.330220099377904
 31
0.0
  0
LINE
  5
19C
330
195
100
AcDbEntity
  8
치수문자_일반주서
 62
     0
370
    -2
100
AcDbLine
 10
78.7643593428856
 20
-8.330220099377904
 30
0.0
 11
82.06635934288559
 21
-8.330220099377904
 31
0.0
  0
LINE
  5
19D
330
195
100
AcDbEntity
  8
치수문자_일반주서
 62
     0
370
    -2
100
AcDbLine
 10
62.6353593428856
 20
-8.330220099377904
 30
0.0
 11
59.3333593428856
 21
-8.330220099377904
 31
0.0
  0
SOLID
  5
19E
330
195
100
AcDbEntity
  8
치수문자_일반주서
 62
     0
100
AcDbTrace
 10
78.7643593428856
 20
-7.77988676604457
 30
0.0
 11
78.7643593428856
 21
-8.880553432711237
 31
0.0
 12
75.46235934288559
 22
-8.330220099377904
 32
0.0
 13
75.46235934288559
 23
-8.330220099377904
 33
0.0
  0
SOLID
  5
19F
330
195
100
AcDbEntity
  8
치수문자_일반주서
 62
     0
100
AcDbTrace
 10
62.6353593428856
 20
-8.880553432711237
 30
0.0
 11
62.6353593428856
 21
-7.77988676604457
 31
0.0
 12
65.9373593428856
 22
-8.330220099377904
 32
0.0
 13
65.9373593428856
 23
-8.330220099377904
 33
0.0
  0
MTEXT
  5
1A0
330
195
100
AcDbEntity
  8
치수문자_일반주서
 62
     0
100
AcDbMText
 10
90.7956093428856
 20
-3.955220099377904
 30
0.0
 40
3.5
 41
0.0
 71
     2
 72
     1
  1
\A1;9.53 [3/8]
  7
SLDTEXTSTYLE0
 73
     1
 44
1.0
  0
POINT
  5
1A1
330
195
100
AcDbEntity
  8
Defpoints
 62
     0
100
AcDbPoint
 10
75.46235934288559
 20
-19.1239700993779
 30
0.0
  0
POINT
  5
1A2
330
195
100
AcDbEntity
  8
Defpoints
 62
     0
100
AcDbPoint
 10
65.9373593428856
 20
-19.12397009937791
 30
0.0
  0
POINT
  5
1A3
330
195
100
AcDbEntity
  8
Defpoints
 62
     0
100
AcDbPoint
 10
65.9373593428856
 20
-8.330220099377904
 30
0.0
  0
ENDBLK
  5
197
330
195
100
AcDbEntity
  8
0
100
AcDbBlockEnd
  0
ENDSEC
  0
SECTION
  2
ENTITIES
  0
LINE
  5
96
330
1F
100
AcDbEntity
  8
외형선
  6
Continuous
370
    15
100
AcDbLine
 10
15.87499999999999
 20
2.381250000000004
 30
0.0
 11
-15.87499999999999
 21
2.381250000000001
 31
0.0
  0
LINE
  5
97
330
1F
100
AcDbEntity
  8
외형선
  6
Continuous
370
    15
100
AcDbLine
 10
-15.87499999999999
 20
-2.381250000000001
 30
0.0
 11
15.87499999999999
 21
-2.381249999999997
 31
0.0
  0
LINE
  5
9A
330
1F
100
AcDbEntity
  8
0
  6
Continuous
 62
     1
370
    15
100
AcDbLine
 10
25.71708770386638
 20
-2.381249999999996
 30
0.0
 11
26.19374999999999
 21
-2.381249999999996
 31
0.0
1001
PE_URL
1000

  0
LINE
  5
9B
330
1F
100
AcDbEntity
  8
0
  6
Continuous
 62
     1
370
    15
100
AcDbLine
 10
17.93629596040598
 20
2.381250000000003
 30
0.0
 11
15.87499999999999
 21
2.381250000000003
 31
0.0
1001
PE_URL
1000

  0
ARC
  5
9C
330
1F
100
AcDbEntity
  8
0
  6
Continuous
 62
     1
370
    15
100
AcDbCircle
 10
26.19374999999999
 20
0.0000000000000035
 30
0.0
 40
2.38125
100
AcDbArc
 50
270.0000000000006
 51
0.0
1001
PE_URL
1000

  0
ARC
  5
9D
330
1F
100
AcDbEntity
  8
0
  6
Continuous
 62
     1
370
    15
100
AcDbCircle
 10
26.19374999999999
 20
0.0000000000000035
 30
0.0
 40
2.38125
100
AcDbArc
 50
0.0
 51
90.00000000000018
1001
PE_URL
1000

  0
LINE
  5
9E
330
1F
100
AcDbEntity
  8
0
  6
Continuous
 62
     1
370
    15
100
AcDbLine
 10
15.87499999999999
 20
-2.381249999999996
 30
0.0
 11
17.93629596040598
 21
-2.381249999999996
 31
0.0
1001
PE_URL
1000

  0
LINE
  5
9F
330
1F
100
AcDbEntity
  8
0
  6
Continuous
 62
     1
370
    15
100
AcDbLine
 10
26.19374999999999
 20
2.381250000000003
 30
0.0
 11
25.71708770386638
 21
2.381250000000003
 31
0.0
1001
PE_URL
1000

  0
LINE
  5
A0
330
1F
100
AcDbEntity
  8
외형선
  6
Continuous
370
    15
100
AcDbLine
 10
15.87499999999999
 20
2.381250000000004
 30
0.0
 11
15.87499999999999
 21
1.733538984855917
 31
0.0
  0
SPLINE
  5
A1
330
1F
100
AcDbEntity
  8
외형선
  6
Continuous
370
    15
100
AcDbSpline
210
0.0
220
0.0
230
1.0
 70
     8
 71
     3
 72
    10
 73
     6
 74
     0
 42
0.000000001
 43
0.00000001
 40
0.0
 40
0.0
 40
0.0
 40
0.0
 40
0.5
 40
0.5
 40
1.0
 40
1.0
 40
1.0
 40
1.0
 10
14.98498029172966
 20
2.04307914336308
 30
0.0
 10
15.13421985083401
 20
1.998967080426487
 30
0.0
 10
15.28358542426583
 20
1.950845740184783
 30
0.0
 10
15.57996413446744
 20
1.847479238597034
 30
0.0
 10
15.72646717124607
 20
1.792320827803078
 30
0.0
 10
15.87499999999932
 20
1.733538984856182
 30
0.0
  0
SPLINE
  5
A2
330
1F
100
AcDbEntity
  8
외형선
  6
Continuous
370
    15
100
AcDbSpline
210
0.0
220
0.0
230
1.0
 70
     8
 71
     3
 72
    10
 73
     6
 74
     0
 42
0.000000001
 43
0.00000001
 40
0.0
 40
0.0
 40
0.0
 40
0.0
 40
0.5000000000000001
 40
0.5000000000000001
 40
1.0
 40
1.0
 40
1.0
 40
1.0
 10
15.87499999999999
 20
-2.090284799074942
 30
0.0
 10
15.72645965928909
 20
-2.049212447488549
 30
0.0
 10
15.57994926393922
 20
-2.004280465854717
 30
0.0
 10
15.28355532725732
 20
-1.906487166217276
 30
0.0
 10
15.13418208644183
 20
-1.853653159871128
 30
0.0
 10
14.98493500553362
 20
-1.797317614624675
 30
0.0
  0
LINE
  5
A3
330
1F
100
AcDbEntity
  8
외형선
  6
Continuous
370
    15
100
AcDbLine
 10
15.87499999999999
 20
-2.090284799074944
 30
0.0
 11
15.87499999999999
 21
-2.381249999999997
 31
0.0
  0
LINE
  5
A5
330
1F
100
AcDbEntity
  8
외형선
  6
Continuous
370
    15
100
AcDbLine
 10
14.98493500553362
 20
-1.797410857579558
 30
0.0
 11
14.98493500553362
 21
2.043140290239509
 31
0.0
  0
SPLINE
  5
A7
330
1F
100
AcDbEntity
  8
외형선
  6
Continuous
370
    15
100
AcDbSpline
210
0.0
220
0.0
230
1.0
 70
     8
 71
     3
 72
    10
 73
     6
 74
     0
 42
0.000000001
 43
0.00000001
 40
0.0
 40
0.0
 40
0.0
 40
0.0
 40
0.5
 40
0.5
 40
1.0
 40
1.0
 40
1.0
 40
1.0
 10
15.875
 20
-0.1014110002950959
 30
0.0
 10
15.72645965928909
 20
-0.0431342528191221
 30
0.0
 10
15.57994926393923
 20
0.0150733973213937
 30
0.0
 10
15.28355532725732
 20
0.131646073168608
 30
0.0
 10
15.13418208644183
 20
0.1899434381089853
 30
0.0
 10
14.98493500553362
 20
0.2477403539516752
 30
0.0
  0
SPLINE
  5
A8
330
1F
100
AcDbEntity
  8
외형선
  6
Continuous
370
    15
100
AcDbSpline
210
0.0
220
0.0
230
1.0
 70
    24
 71
     3
 72
    14
 73
    10
 74
     0
 42
0.000000001
 43
0.00000001
 40
0.0
 40
0.0
 40
0.0
 40
0.0
 40
0.25
 40
0.25
 40
0.5
 40
0.5
 40
0.75
 40
0.75
 40
1.0
 40
1.0
 40
1.0
 40
1.0
 10
15.87499999999999
 20
1.73353898484412
 30
0.0
 10
15.87499999999999
 20
1.593055283134883
 30
0.0
 10
15.87499999999999
 20
1.426879776168779
 30
0.0
 10
15.87499999999999
 20
1.078151240177107
 30
0.0
 10
15.87499999999999
 20
0.8965093776639232
 30
0.0
 10
15.87499999999999
 20
0.5550690456785237
 30
0.0
 10
15.87499999999999
 20
0.3955898939644747
 30
0.0
 10
15.87499999999999
 20
0.1171274923237855
 30
0.0
 10
15.87499999999999
 20
-0.0021310572846695
 30
0.0
 10
15.87499999999999
 20
-0.101411000295093
 30
0.0
  0
SPLINE
  5
A9
330
1F
100
AcDbEntity
  8
외형선
  6
Continuous
370
    15
100
AcDbSpline
210
0.0
220
0.0
230
1.0
 70
    24
 71
     3
 72
    14
 73
    10
 74
     0
 42
0.000000001
 43
0.00000001
 40
0.0
 40
0.0
 40
0.0
 40
0.0
 40
0.25
 40
0.25
 40
0.5
 40
0.5
 40
0.75
 40
0.75
 40
1.0
 40
1.0
 40
1.0
 40
1.0
 10
15.87499999999999
 20
-0.1014110002950925
 30
0.0
 10
15.87499999999999
 20
-0.1826124505891717
 30
0.0
 10
15.87499999999999
 20
-0.287758967816622
 30
0.0
 10
15.87499999999999
 20
-0.5541454099745162
 30
0.0
 10
15.87499999999999
 20
-0.7159178982340894
 30
0.0
 10
15.87499999999999
 20
-1.083440842705913
 30
0.0
 10
15.87499999999999
 20
-1.289004118211626
 30
0.0
 10
15.87499999999999
 20
-1.702005470410214
 30
0.0
 10
15.87499999999999
 20
-1.908216939906177
 30
0.0
 10
15.87499999999999
 20
-2.090284799060819
 30
0.0
  0
SPLINE
  5
AA
330
1F
100
AcDbEntity
  8
0
  6
Continuous
 62
     1
370
    15
100
AcDbSpline
210
0.0
220
0.0
230
1.0
 70
     8
 71
     3
 72
    16
 73
    12
 74
     0
 42
0.000000001
 43
0.00000001
 40
0.0
 40
0.0
 40
0.0
 40
0.0
 40
0.1167481747379806
 40
0.2333354392445626
 40
0.3498463467245365
 40
0.466369836176011
 40
0.582994685912556
 40
0.6997696019205227
 40
0.8097564029566963
 40
0.9195916833359935
 40
1.0
 40
1.0
 40
1.0
 40
1.0
 10
26.19374999999999
 20
-0.9954926040900934
 30
0.0
 10
25.8722968837964
 20
-0.8218548651806838
 30
0.0
 10
25.22983369981741
 20
-0.4748187066386769
 30
0.0
 10
24.26694262164711
 20
0.0863532198631716
 30
0.0
 10
23.30477232254146
 20
0.6387645625375405
 30
0.0
 10
22.3424749419905
 20
1.157665653980011
 30
0.0
 10
21.37931812025729
 20
1.613279857440543
 30
0.0
 10
20.43371141475219
 20
1.975199252726166
 30
0.0
 10
19.50722443083257
 20
2.225814999829549
 30
0.0
 10
18.68112402181888
 20
2.365085022137381
 30
0.0
 10
18.15757786379977
 20
2.368508788589875
 30
0.0
 10
17.93629596040598
 20
2.369955876961701
 30
0.0
1001
PE_URL
1000

  0
SPLINE
  5
AB
330
1F
100
AcDbEntity
  8
0
  6
Continuous
 62
     1
370
    15
100
AcDbSpline
210
0.0
220
0.0
230
1.0
 70
     8
 71
     3
 72
    14
 73
    10
 74
     0
 42
0.000000001
 43
0.00000001
 40
0.0
 40
0.0
 40
0.0
 40
0.0
 40
0.1407348425340009
 40
0.2816418991810301
 40
0.4227963415277122
 40
0.5962190249750449
 40
0.7696313596818254
 40
0.9430344854570907
 40
1.0
 40
1.0
 40
1.0
 40
1.0
 10
27.93752288629396
 20
0.2495763127926268
 30
0.0
 10
27.63123042134291
 20
0.3674775207460652
 30
0.0
 10
27.01827068812821
 20
0.6034242097525315
 30
0.0
 10
26.09799742782457
 20
0.9242390969965726
 30
0.0
 10
25.10632604422777
 20
1.220438040603448
 30
0.0
 10
24.0439942486261
 20
1.463713301071103
 30
0.0
 10
22.9114328178658
 20
1.604837558215179
 30
0.0
 10
22.03240987535458
 20
1.645193417390882
 30
0.0
 10
21.53090396276613
 20
1.597618329266901
 30
0.0
 10
21.40689167395175
 20
1.585853970321762
 30
0.0
1001
PE_URL
1000

  0
SPLINE
  5
AC
330
1F
100
AcDbEntity
  8
0
  6
Continuous
 62
     1
370
    15
100
AcDbSpline
210
0.0
220
0.0
230
1.0
 70
     8
 71
     3
 72
    22
 73
    18
 74
     0
 42
0.000000001
 43
0.00000001
 40
0.0
 40
0.0
 40
0.0
 40
0.0
 40
0.125
 40
0.125
 40
0.25
 40
0.25
 40
0.375
 40
0.375
 40
0.5
 40
0.5
 40
0.625
 40
0.625
 40
0.75
 40
0.75
 40
0.875
 40
0.875
 40
1.0
 40
1.0
 40
1.0
 40
1.0
 10
26.19374999999999
 20
-0.9954926040893837
 30
0.0
 10
26.32581214279417
 20
-1.065170229699244
 30
0.0
 10
26.4558999360816
 20
-1.12741220759237
 30
0.0
 10
26.71567373941534
 20
-1.231999327162631
 30
0.0
 10
26.84670149514309
 20
-1.274820498497198
 30
0.0
 10
27.1053302287594
 20
-1.329886617268545
 30
0.0
 10
27.23204976206674
 20
-1.342515236564894
 30
0.0
 10
27.48589102795047
 20
-1.324189254553755
 30
0.0
 10
27.60969286891997
 20
-1.292723090304962
 30
0.0
 10
27.84317549020264
 20
-1.166458473358291
 30
0.0
 10
27.95174657799847
 20
-1.070726803781003
 30
0.0
 10
28.11683457542571
 20
-0.8165168988943255
 30
0.0
 10
28.16652966991274
 20
-0.6658824806324936
 30
0.0
 10
28.19160626109674
 20
-0.3713665044497096
 30
0.0
 10
28.16898543543248
 20
-0.2325789296373802
 30
0.0
 10
28.08150946787156
 20
0.0216209836670745
 30
0.0
 10
28.01672115695709
 20
0.1383400725801751
 30
0.0
 10
27.93752288629042
 20
0.2495763127940004
 30
0.0
1001
PE_URL
1000

  0
SPLINE
  5
AD
330
1F
100
AcDbEntity
  8
0
  6
Continuous
 62
     1
370
    15
100
AcDbSpline
210
0.0
220
0.0
230
1.0
 70
     8
 71
     3
 72
    13
 73
     9
 74
     0
 42
0.000000001
 43
0.00000001
 40
0.0
 40
0.0
 40
0.0
 40
0.0
 40
0.0801621260563764
 40
0.2566034773302253
 40
0.433037793513444
 40
0.6094662490304058
 40
0.8047422227196601
 40
0.9999999999999999
 40
0.9999999999999999
 40
0.9999999999999999
 40
0.9999999999999999
 10
22.2934242320089
 20
-1.604634130350715
 30
0.0
 10
22.12192553044951
 20
-1.611211344841307
 30
0.0
 10
21.57294853417062
 20
-1.632265378615881
 30
0.0
 10
20.64651746290532
 20
-1.537487251937149
 30
0.0
 10
19.51412250997719
 20
-1.331989040010299
 30
0.0
 10
18.34150184547891
 20
-1.008618618992664
 30
0.0
 10
17.12835187622303
 20
-0.5905619923795395
 30
0.0
 10
16.29277098114167
 20
-0.2644562661667644
 30
0.0
 10
15.875
 20
-0.1014110002950959
 30
0.0
1001
PE_URL
1000

  0
SPLINE
  5
AE
330
1F
100
AcDbEntity
  8
외형선
  6
Continuous
370
    15
100
AcDbSpline
210
0.0
220
0.0
230
1.0
 70
    24
 71
     3
 72
    14
 73
    10
 74
     0
 42
0.000000001
 43
0.00000001
 40
0.0
 40
0.0
 40
0.0
 40
0.0
 40
0.25
 40
0.25
 40
0.5
 40
0.5
 40
0.75
 40
0.75
 40
1.0
 40
1.0
 40
1.0
 40
1.0
 10
15.87499999999999
 20
1.733538984844202
 30
0.0
 10
15.87499999999999
 20
1.593055283134969
 30
0.0
 10
15.87499999999999
 20
1.426879776168862
 30
0.0
 10
15.87499999999999
 20
1.078151240177178
 30
0.0
 10
15.87499999999999
 20
0.8965093776639836
 30
0.0
 10
15.87499999999999
 20
0.5550690456785634
 30
0.0
 10
15.87499999999999
 20
0.3955898939645034
 30
0.0
 10
15.87499999999999
 20
0.1171274923237969
 30
0.0
 10
15.87499999999999
 20
-0.0021310572846652
 30
0.0
 10
15.87499999999999
 20
-0.1014110002950936
 30
0.0
  0
SPLINE
  5
AF
330
1F
100
AcDbEntity
  8
0
  6
Continuous
 62
     1
370
    15
100
AcDbSpline
210
0.0
220
0.0
230
1.0
 70
     8
 71
     3
 72
    21
 73
    17
 74
     0
 42
0.000000001
 43
0.00000001
 40
0.0
 40
0.0
 40
0.0
 40
0.0
 40
0.0851312082467893
 40
0.1711478189924706
 40
0.2407589684917156
 40
0.3108515805931066
 40
0.3802880827264097
 40
0.4502045598072553
 40
0.5196118830246355
 40
0.589501095529683
 40
0.6589077796636651
 40
0.7287943817785852
 40
0.7982007772937235
 40
0.8680853769427993
 40
0.9577320081233834
 40
1.0
 40
1.0
 40
1.0
 40
1.0
 10
15.87499999999999
 20
1.733538984861583
 30
0.0
 10
16.15441546050076
 20
1.616221553301279
 30
0.0
 10
16.71615242679462
 20
1.380366536617644
 30
0.0
 10
17.50632889135696
 20
0.9765844790285867
 30
0.0
 10
18.2459603581898
 20
0.5694435796782037
 30
0.0
 10
18.9330063721974
 20
0.1782588626381803
 30
0.0
 10
19.6193207673109
 20
-0.2210387228200902
 30
0.0
 10
20.30453559955173
 20
-0.6110802760214619
 30
0.0
 10
20.9909438260929
 20
-0.985622977555792
 30
0.0
 10
21.67499289442772
 20
-1.333067488893646
 30
0.0
 10
22.36213157983408
 20
-1.642548517717943
 30
0.0
 10
23.04582152484513
 20
-1.908126790869333
 30
0.0
 10
23.73285721113149
 20
-2.120843468219611
 30
0.0
 10
24.48337105621189
 20
-2.286467900412686
 30
0.0
 10
25.14539045270698
 20
-2.379727596332407
 30
0.0
 10
25.57835689667835
 20
-2.37039777396142
 30
0.0
 10
25.71708770386638
 20
-2.367408318758898
 30
0.0
1001
PE_URL
1000

  0
SPLINE
  5
B0
330
1F
100
AcDbEntity
  8
0
  6
Continuous
 62
     1
370
    15
100
AcDbSpline
210
0.0
220
0.0
230
1.0
 70
     8
 71
     3
 72
    10
 73
     6
 74
     0
 42
0.000000001
 43
0.00000001
 40
0.0
 40
0.0
 40
0.0
 40
0.0
 40
0.5
 40
0.5
 40
1.0
 40
1.0
 40
1.0
 40
1.0
 10
27.93752288629041
 20
0.2495763127940019
 30
0.0
 10
27.99227568137337
 20
0.282624616195934
 30
0.0
 10
28.03598852688783
 20
0.3328658661545666
 30
0.0
 10
28.0944586833455
 20
0.4602199967100009
 30
0.0
 10
28.10894266252871
 20
0.5369360668298131
 30
0.0
 10
28.11028924506799
 20
0.616722476220479
 30
0.0
1001
PE_URL
1000

  0
ARC
  5
B1
330
1F
100
AcDbEntity
  8
0
  6
Continuous
 62
     1
370
    15
100
AcDbCircle
 10
27.43572518350675
 20
-0.4139420338681185
 30
0.0
 40
1.231789757022769
100
AcDbArc
 50
23.84128576077656
 51
56.79548103001314
1001
PE_URL
1000

  0
ARC
  5
B2
330
1F
100
AcDbEntity
  8
0
  6
Continuous
 62
     1
370
    15
100
AcDbCircle
 10
26.43122614240377
 20
0.0426133921985681
 30
0.0
 40
2.131579415006422
100
AcDbArc
 50
1.111255110871905
 51
71.10334004368524
1001
PE_URL
1000

  0
SPLINE
  5
B3
330
1F
100
AcDbEntity
  8
0
  6
Continuous
 62
     1
370
    15
100
AcDbSpline
210
0.0
220
0.0
230
1.0
 70
     8
 71
     3
 72
    10
 73
     6
 74
     0
 42
0.000000001
 43
0.00000001
 40
0.0
 40
0.0
 40
0.0
 40
0.0
 40
0.5
 40
0.5
 40
1.0
 40
1.0
 40
1.0
 40
1.0
 10
27.12156428154299
 20
2.059309714436724
 30
0.0
 10
26.97414610379786
 20
2.149201946605627
 30
0.0
 10
26.82227285421033
 20
2.219795152015682
 30
0.0
 10
26.51256315674151
 20
2.322510980956161
 30
0.0
 10
26.35321939350175
 20
2.354734387094766
 30
0.0
 10
26.19374999999868
 20
2.365402247280481
 30
0.0
1001
PE_URL
1000

  0
SPLINE
  5
B4
330
1F
100
AcDbEntity
  8
0
  6
Continuous
 62
     1
370
    15
100
AcDbSpline
210
0.0
220
0.0
230
1.0
 70
     8
 71
     3
 72
    14
 73
    10
 74
     0
 42
0.000000001
 43
0.00000001
 40
0.0
 40
0.0
 40
0.0
 40
0.0
 40
0.0049233101937557
 40
0.1792406455939649
 40
0.3434249305521382
 40
0.5073830310002495
 40
0.6713776065576292
 40
0.8356705887402668
 40
1.0
 40
1.0
 40
1.0
 40
1.0
 10
21.40689167395175
 20
-1.585853970321753
 30
0.0
 10
21.39781321678257
 20
-1.590121792058549
 30
0.0
 10
21.06729808367869
 20
-1.745498376770465
 30
0.0
 10
20.43368557275771
 20
-1.969017675458201
 30
0.0
 10
19.50723777060997
 20
-2.229628828473771
 30
0.0
 10
18.60005857870539
 20
-2.369475880347344
 30
0.0
 10
17.69268791492388
 20
-2.395229177856168
 30
0.0
 10
16.7841184626028
 20
-2.312059062309527
 30
0.0
 10
16.1780618821146
 20
-2.164215016516602
 30
0.0
 10
15.87499999999982
 20
-2.090284799074896
 30
0.0
1001
PE_URL
1000

  0
SPLINE
  5
B5
330
1F
100
AcDbEntity
  8
외형선
  6
Continuous
370
    15
100
AcDbSpline
210
0.0
220
0.0
230
1.0
 70
    24
 71
     3
 72
    14
 73
    10
 74
     0
 42
0.000000001
 43
0.00000001
 40
0.0
 40
0.0
 40
0.0
 40
0.0
 40
0.25
 40
0.25
 40
0.5
 40
0.5
 40
0.75
 40
0.75
 40
1.0
 40
1.0
 40
1.0
 40
1.0
 10
15.87499999999999
 20
-0.1014110002950931
 30
0.0
 10
15.87499999999999
 20
-0.1826124505891704
 30
0.0
 10
15.87499999999999
 20
-0.2877589678166177
 30
0.0
 10
15.87499999999999
 20
-0.5541454099745032
 30
0.0
 10
15.87499999999999
 20
-0.7159178982340704
 30
0.0
 10
15.87499999999999
 20
-1.083440842705882
 30
0.0
 10
15.87499999999999
 20
-1.289004118211589
 30
0.0
 10
15.87499999999999
 20
-1.702005470410166
 30
0.0
 10
15.87499999999999
 20
-1.908216939906127
 30
0.0
 10
15.87499999999999
 20
-2.09028479906077
 30
0.0
  0
SPLINE
  5
B6
330
1F
100
AcDbEntity
  8
0
  6
Continuous
 62
     1
370
    15
100
AcDbSpline
210
0.0
220
0.0
230
1.0
 70
     8
 71
     3
 72
     8
 73
     4
 74
     0
 42
0.000000001
 43
0.00000001
 40
0.0
 40
0.0
 40
0.0
 40
0.0
 40
1.0
 40
1.0
 40
1.0
 40
1.0
 10
26.6378821231997
 20
1.065974114515945
 30
0.0
 10
27.12198241956292
 20
0.9314150267144126
 30
0.0
 10
27.61554438412077
 20
0.7798345562809703
 30
0.0
 10
28.110289245068
 20
0.6167224762204973
 30
0.0
1001
PE_URL
1000

  0
SPLINE
  5
B7
330
1F
100
AcDbEntity
  8
0
  6
Continuous
 62
     1
370
    15
100
AcDbSpline
210
0.0
220
0.0
230
1.0
 70
     8
 71
     3
 72
    13
 73
     9
 74
     0
 42
0.000000001
 43
0.00000001
 40
0.0
 40
0.0
 40
0.0
 40
0.0
 40
0.0171246844773422
 40
0.1934767202238598
 40
0.368617001372391
 40
0.5449639840913262
 40
0.7711785291985089
 40
1.0
 40
1.0
 40
1.0
 40
1.0
 10
22.2934242320089
 20
1.604634130350724
 30
0.0
 10
22.31569978550624
 20
1.614704365798377
 30
0.0
 10
22.5673716360176
 20
1.728479082574724
 30
0.0
 10
23.04577864288464
 20
1.905571733013425
 30
0.0
 10
23.73286991199369
 20
2.121104013114395
 30
0.0
 10
24.48336135524446
 20
2.288127894137941
 30
0.0
 10
25.30423854914665
 20
2.392710088269986
 30
0.0
 10
25.89611588406976
 20
2.374539560918249
 30
0.0
 10
26.19374999999951
 20
2.365402247280425
 30
0.0
1001
PE_URL
1000

  0
SPLINE
  5
B8
330
1F
100
AcDbEntity
  8
0
  6
Continuous
 62
     1
370
    15
100
AcDbSpline
210
0.0
220
0.0
230
1.0
 70
     8
 71
     3
 72
    14
 73
    10
 74
     0
 42
0.000000001
 43
0.00000001
 40
0.0
 40
0.0
 40
0.0
 40
0.0
 40
0.25
 40
0.25
 40
0.5
 40
0.5
 40
0.75
 40
0.75
 40
1.0
 40
1.0
 40
1.0
 40
1.0
 10
27.121564281543
 20
2.059309714436726
 30
0.0
 10
27.13845426833112
 20
1.959324798384341
 30
0.0
 10
27.14602605428479
 20
1.857507827934759
 30
0.0
 10
27.13118102799408
 20
1.651445059296363
 30
0.0
 10
27.10818117473636
 20
1.549912348419177
 30
0.0
 10
27.02408731311881
 20
1.365238316764183
 30
0.0
 10
26.96269119256399
 20
1.28301616646138
 30
0.0
 10
26.81453406877793
 20
1.151703916881589
 30
0.0
 10
26.72777705170702
 20
1.101732572601487
 30
0.0
 10
26.63788212320082
 20
1.065974114515718
 30
0.0
1001
PE_URL
1000

  0
LINE
  5
B9
330
1F
100
AcDbEntity
  8
중심선
 62
     1
100
AcDbLine
 10
-31.57499999999999
 20
-0.0000000000000039
 30
0.0
 11
31.57499999999999
 21
0.0000000000000039
 31
0.0
  0
LINE
  5
BA
330
1F
100
AcDbEntity
  8
참조1
100
AcDbLine
 10
0.0000000000000036
 20
-0.0000000000000039
 30
0.0
 11
0.0000000000000071
 21
-40.00000000000001
 31
0.0
  0
LINE
  5
BB
330
1F
100
AcDbEntity
  8
참조1
100
AcDbLine
 10
28.575
 20
-0.0000000000000039
 30
0.0
 11
28.575
 21
0.6309734778393064
 31
0.0
  0
LINE
  5
BC
330
1F
100
AcDbEntity
  8
참조1
100
AcDbLine
 10
0.0000000000000071
 20
-40.00000000000001
 30
0.0
 11
-22.30260681430868
 21
-40.0
 31
0.0
  0
CIRCLE
  5
BD
330
1F
100
AcDbEntity
  8
해칭선
100
AcDbCircle
 10
0.0
 20
0.0
 30
0.0
 40
3.000000000000001
  0
INSERT
  5
BE
330
1F
100
AcDbEntity
  8
0
  6
Continuous
 62
     7
100
AcDbBlockReference
 66
     1
  2
블럭10
 10
-13.9402729321252
 20
-52.04717430164393
 30
0.0
  0
ATTRIB
  5
BF
330
BE
100
AcDbEntity
  8
FORMAT
 62
     2
100
AcDbText
 10
-23.12156822086648
 20
-49.97180738881175
 30
0.0
 40
4.233333333333333
  1
E1013012 [ 2 FLUTE ]
 41
0.75
  7
SLDTEXTSTYLE0
 11
-23.12156822086648
 21
-52.08847405547841
 31
0.0
100
AcDbAttribute
  2
AUTOATTR0
 70
     0
 74
     1
  0
SEQEND
  5
C0
330
BE
100
AcDbEntity
  8
0
  6
Continuous
 62
     7
  0
HATCH
  5
C1
330
1F
100
AcDbEntity
  8
중심선
100
AcDbHatch
 10
0.0
 20
0.0
 30
0.0
210
0.0
220
0.0
230
1.0
  2
SOLID
 70
     1
 71
     0
 91
        1
 92
        0
 93
        4
 72
     1
 10
-8.22536362774437
 20
-35.8
 11
-11.67163887158165
 21
-35.8
 72
     1
 10
-11.67163887158165
 20
-35.8
 11
-13.79986873078568
 21
-38.3363255805726
 72
     1
 10
-13.79986873078568
 20
-38.3363255805726
 11
-10.35356040183524
 21
-38.33628615127011
 72
     1
 10
-10.35356040183524
 20
-38.33628615127011
 11
-8.22536362774437
 21
-35.8
 97
        0
 75
     0
 76
     1
 98
        1
 10
6.95036934298443
 20
-0.0010749287238931
  0
HATCH
  5
C2
330
1F
100
AcDbEntity
  8
중심선
100
AcDbHatch
 10
0.0
 20
0.0
 30
0.0
210
0.0
220
0.0
230
1.0
  2
SOLID
 70
     1
 71
     0
 91
        1
 92
        0
 93
        4
 72
     1
 10
-3.21259963670839
 20
-35.8
 11
-6.658874880545701
 21
-35.8
 72
     1
 10
-6.658874880545701
 20
-35.8
 11
-11.19001288890309
 21
-41.20000000000002
 72
     1
 10
-11.19001288890309
 20
-41.20000000000002
 11
-7.743737645065806
 21
-41.20000000000002
 72
     1
 10
-7.743737645065806
 20
-41.20000000000002
 11
-3.21259963670839
 21
-35.8
 97
        0
 75
     0
 76
     1
 98
        1
 10
6.95036934298443
 20
-0.0010749287238931
  0
HATCH
  5
C3
330
1F
100
AcDbEntity
  8
중심선
100
AcDbHatch
 10
0.0
 20
0.0
 30
0.0
210
0.0
220
0.0
230
1.0
  2
SOLID
 70
     1
 71
     0
 91
        1
 92
        0
 93
        4
 72
     1
 10
1.800164354327477
 20
-35.80000000000003
 11
-1.646110889509611
 21
-35.80000000000003
 72
     1
 10
-1.646110889509611
 20
-35.80000000000003
 11
-8.694547791398888
 21
-44.20000000000002
 72
     1
 10
-8.694547791398888
 20
-44.20000000000002
 11
-5.248272547561605
 21
-44.20000000000002
 72
     1
 10
-5.248272547561605
 20
-44.20000000000002
 11
1.800164354327477
 21
-35.80000000000003
 97
        0
 75
     0
 76
     1
 98
        1
 10
6.95036934298443
 20
-0.0010749287238931
  0
HATCH
  5
C4
330
1F
100
AcDbEntity
  8
중심선
100
AcDbHatch
 10
0.0
 20
0.0
 30
0.0
210
0.0
220
0.0
230
1.0
  2
SOLID
 70
     1
 71
     0
 91
        1
 92
        0
 93
        6
 72
     3
 10
6.600054785339676
 20
-40.00000000005127
 11
3.960054785062283
 21
1.540882976769353E-10
 40
0.3939339440162628
 50
17.09539180608437
 51
320.0019657685086
 73
     0
 72
     1
 10
8.28305444104027
 20
-38.58789400463833
 11
10.58835631474131
 21
-36.65356729459038
 72
     3
 10
6.600054785286829
 20
-40.00000000000015
 11
6.600054785286829
 21
-1.278976924368180E-13
 40
0.636358354079598
 50
39.9987384933741
 51
368.4976242363725
 73
     1
 72
     1
 10
13.02538727718744
 20
-39.03999999993002
 11
5.280122092122753
 21
-39.03999999993002
 72
     1
 10
5.280122092122753
 20
-39.03999999993002
 11
5.280097047676819
 21
-40.95999999992991
 72
     1
 10
5.280097047676819
 20
-40.95999999992991
 11
9.721476817148854
 21
-40.95999999992988
 97
        0
 75
     0
 76
     1
 98
        1
 10
6.95036934298443
 20
-0.0010749287238931
  0
DIMENSION
  5
C5
330
1F
100
AcDbEntity
  8
치수문자_일반주서
100
AcDbDimension
  2
_D
 10
15.875
 20
12.38125
 30
0.0
 11
43.90825
 21
12.38125
 31
0.0
 70
   160
  1
<>
 71
     2
 42
12.7
  3
SLDDIMSTYLE0
100
AcDbAlignedDimension
 13
28.575
 23
2.381250000000003
 33
0.0
 14
15.875
 24
2.381250000000002
 34
0.0
 50
0.000000000000008
100
AcDbRotatedDimension
1001
PE_URL
1000

1001
ACAD
1000
DSTYLE
1002
{
1070
   171
1070
     8
1070
   273
1070
     7
1002
}
1001
ACAD_DSTYLE_DIMFLIPARROW_SYMBOL
1070
   385
1070
     0
1001
ACAD_DSTYLE_DIMFLIPARROW_WHICH_SYMBOL
1070
   386
1070
     3
  0
DIMENSION
  5
DA
330
1F
100
AcDbEntity
  8
치수문자_일반주서
100
AcDbDimension
  2
_D_1
 10
-28.57499999999999
 20
22.38125
 30
0.0
 11
0.2501241026247349
 21
22.38125
 31
0.0
 70
   160
  1
<>
 71
     2
 42
57.14999999999998
  3
SLDDIMSTYLE0
100
AcDbAlignedDimension
 13
28.575
 23
2.381250000000003
 33
0.0
 14
-28.57499999999999
 24
2.381250000000007
 34
0.0
100
AcDbRotatedDimension
1001
PE_URL
1000

1001
ACAD
1000
DSTYLE
1002
{
1070
   171
1070
     8
1070
   273
1070
     7
1002
}
  0
DIMENSION
  5
EE
330
1F
100
AcDbEntity
  8
치수문자_일반주서
100
AcDbDimension
  2
_D_2
 10
-38.57499999999999
 20
-2.38125000000009
 30
0.0
 11
-38.57500000000007
 21
22.98524999999997
 31
0.0
 70
   160
  1
%%c<>
 71
     2
 42
4.762500000000006
 52
-270.0
  3
SLDDIMSTYLE0
100
AcDbAlignedDimension
 13
-15.87499999999999
 23
2.381250000000001
 33
0.0
 14
-15.87499999999999
 24
-2.381250000000005
 34
0.0
 50
90.0000000000002
100
AcDbRotatedDimension
1001
PE_URL
1000

1001
ACAD
1000
DSTYLE
1002
{
1070
   171
1070
     8
1070
   273
1070
     7
1002
}
  0
DIMENSION
  5
103
330
1F
100
AcDbEntity
  8
치수문자_일반주서
100
AcDbDimension
  2
_D_3
 10
62.35550636093409
 20
-2.381249999999874
 30
0.0
 11
62.35550636093401
 21
22.98525000000013
 31
0.0
 70
   160
  1
%%c<>
 71
     2
 42
4.762499999999999
 52
-270.0
  3
SLDDIMSTYLE0
100
AcDbAlignedDimension
 13
28.575
 23
2.381250000000003
 33
0.0
 14
28.575
 24
-2.381249999999996
 34
0.0
 50
90.0000000000002
100
AcDbRotatedDimension
1001
PE_URL
1000

1001
ACAD
1000
DSTYLE
1002
{
1070
   171
1070
     8
1070
   273
1070
     7
1002
}
  0
LINE
  5
117
330
1F
100
AcDbEntity
  8
참조1
100
AcDbLine
 10
75.66973381534558
 20
7.440000000000002
 30
0.0
 11
75.66973381534558
 21
-7.440000000000002
 31
0.0
  0
LINE
  5
118
330
1F
100
AcDbEntity
  8
참조1
100
AcDbLine
 10
88.36973381534558
 20
5.440000000000002
 30
0.0
 11
75.66973381534558
 21
5.440000000000002
 31
0.0
  0
SOLID
  5
119
330
1F
100
AcDbEntity
  8
참조1
100
AcDbTrace
 10
75.66973381534558
 20
5.440000000000002
 30
0.0
 11
82.01973381534557
 21
4.424000000000002
 31
0.0
 12
82.01973381534557
 22
6.456000000000002
 32
0.0
 13
82.01973381534557
 23
6.456000000000002
 33
0.0
  0
LINE
  5
11A
330
1F
100
AcDbEntity
  8
참조1
100
AcDbLine
 10
88.36973381534558
 20
-5.440000000000002
 30
0.0
 11
75.66973381534558
 21
-5.440000000000002
 31
0.0
  0
SOLID
  5
11B
330
1F
100
AcDbEntity
  8
참조1
100
AcDbTrace
 10
75.66973381534558
 20
-5.440000000000002
 30
0.0
 11
82.01973381534557
 21
-6.456000000000002
 31
0.0
 12
82.01973381534557
 22
-4.424000000000002
 32
0.0
 13
82.01973381534557
 23
-4.424000000000002
 33
0.0
  0
MTEXT
  5
11C
330
1F
100
AcDbEntity
  8
참조1
100
AcDbMText
 10
85.06722390781586
 20
10.98821664464994
 30
0.0
 40
3.5
 41
0.0
 71
     1
 72
     1
  1
A
  7
SLDTEXTSTYLE0
 73
     1
 44
1.0
  0
MTEXT
  5
11D
330
1F
100
AcDbEntity
  8
참조1
100
AcDbMText
 10
85.06722390781586
 20
0.108216644649932
 30
0.0
 40
3.5
 41
0.0
 71
     1
 72
     1
  1
A
  7
SLDTEXTSTYLE0
 73
     1
 44
1.0
  0
INSERT
  5
124
330
1F
100
AcDbEntity
  8
해칭선
100
AcDbBlockReference
  2
SW_DOWELSYMBOL_0
 10
0.0
 20
0.0
 30
0.0
  0
LINE
  5
1CF
330
1F
100
AcDbEntity
  8
0
  6
Continuous
 62
     1
370
    15
100
AcDbLine
 10
-25.71708770386637
 20
2.381249999999993
 30
0.0
 11
-26.19374999999998
 21
2.381249999999993
 31
0.0
1001
PE_URL
1000

  0
LINE
  5
1D0
330
1F
100
AcDbEntity
  8
0
  6
Continuous
 62
     1
370
    15
100
AcDbLine
 10
-17.93629596040597
 20
-2.381250000000001
 30
0.0
 11
-15.87499999999999
 21
-2.381250000000001
 31
0.0
1001
PE_URL
1000

  0
ARC
  5
1D1
330
1F
100
AcDbEntity
  8
0
  6
Continuous
 62
     1
370
    15
100
AcDbCircle
 10
-26.19374999999999
 20
-0.0000000000000071
 30
0.0
 40
2.38125
100
AcDbArc
 50
90.0000000000006
 51
180.0
1001
PE_URL
1000

  0
ARC
  5
1D2
330
1F
100
AcDbEntity
  8
0
  6
Continuous
 62
     1
370
    15
100
AcDbCircle
 10
-26.19374999999999
 20
-0.0000000000000071
 30
0.0
 40
2.38125
100
AcDbArc
 50
180.0
 51
270.0000000000002
1001
PE_URL
1000

  0
LINE
  5
1D3
330
1F
100
AcDbEntity
  8
0
  6
Continuous
 62
     1
370
    15
100
AcDbLine
 10
-15.87499999999999
 20
2.381249999999998
 30
0.0
 11
-17.93629596040598
 21
2.381249999999996
 31
0.0
1001
PE_URL
1000

  0
LINE
  5
1D4
330
1F
100
AcDbEntity
  8
0
  6
Continuous
 62
     1
370
    15
100
AcDbLine
 10
-26.19374999999998
 20
-2.381250000000005
 30
0.0
 11
-25.71708770386637
 21
-2.381250000000005
 31
0.0
1001
PE_URL
1000

  0
LINE
  5
1D5
330
1F
100
AcDbEntity
  8
외형선
  6
Continuous
370
    15
100
AcDbLine
 10
-15.87499999999999
 20
-2.381250000000005
 30
0.0
 11
-15.87499999999999
 21
-1.733538984855919
 31
0.0
  0
SPLINE
  5
1D6
330
1F
100
AcDbEntity
  8
외형선
  6
Continuous
370
    15
100
AcDbSpline
210
0.0
220
0.0
230
1.0
 70
     8
 71
     3
 72
    10
 73
     6
 74
     0
 42
0.000000001
 43
0.00000001
 40
0.0
 40
0.0
 40
0.0
 40
0.0
 40
0.5
 40
0.5
 40
1.0
 40
1.0
 40
1.0
 40
1.0
 10
-14.98498029172965
 20
-2.04307914336308
 30
0.0
 10
-15.13421985083401
 20
-1.998967080426485
 30
0.0
 10
-15.28358542426583
 20
-1.950845740184782
 30
0.0
 10
-15.57996413446743
 20
-1.847479238597035
 30
0.0
 10
-15.72646717124606
 20
-1.792320827803078
 30
0.0
 10
-15.87499999999932
 20
-1.733538984856182
 30
0.0
  0
SPLINE
  5
1D7
330
1F
100
AcDbEntity
  8
외형선
  6
Continuous
370
    15
100
AcDbSpline
210
0.0
220
0.0
230
1.0
 70
     8
 71
     3
 72
    10
 73
     6
 74
     0
 42
0.000000001
 43
0.00000001
 40
0.0
 40
0.0
 40
0.0
 40
0.0
 40
0.5000000000000001
 40
0.5000000000000001
 40
1.0
 40
1.0
 40
1.0
 40
1.0
 10
-15.87499999999999
 20
2.090284799074944
 30
0.0
 10
-15.72645965928908
 20
2.04921244748855
 30
0.0
 10
-15.57994926393922
 20
2.004280465854716
 30
0.0
 10
-15.28355532725731
 20
1.906487166217275
 30
0.0
 10
-15.13418208644182
 20
1.853653159871129
 30
0.0
 10
-14.98493500553361
 20
1.797317614624674
 30
0.0
  0
LINE
  5
1D8
330
1F
100
AcDbEntity
  8
외형선
  6
Continuous
370
    15
100
AcDbLine
 10
-15.87499999999999
 20
2.090284799074945
 30
0.0
 11
-15.87499999999999
 21
2.38125
 31
0.0
  0
LINE
  5
1D9
330
1F
100
AcDbEntity
  8
외형선
  6
Continuous
370
    15
100
AcDbLine
 10
-14.98493500553361
 20
1.797410857579557
 30
0.0
 11
-14.98493500553361
 21
-2.04314029023951
 31
0.0
  0
SPLINE
  5
1DA
330
1F
100
AcDbEntity
  8
외형선
  6
Continuous
370
    15
100
AcDbSpline
210
0.0
220
0.0
230
1.0
 70
     8
 71
     3
 72
    10
 73
     6
 74
     0
 42
0.000000001
 43
0.00000001
 40
0.0
 40
0.0
 40
0.0
 40
0.0
 40
0.5
 40
0.5
 40
1.0
 40
1.0
 40
1.0
 40
1.0
 10
-15.87499999999999
 20
0.1014110002950943
 30
0.0
 10
-15.72645965928909
 20
0.0431342528191223
 30
0.0
 10
-15.57994926393922
 20
-0.0150733973213946
 30
0.0
 10
-15.28355532725731
 20
-0.1316460731686071
 30
0.0
 10
-15.13418208644182
 20
-0.1899434381089868
 30
0.0
 10
-14.98493500553361
 20
-0.2477403539516736
 30
0.0
  0
SPLINE
  5
1DB
330
1F
100
AcDbEntity
  8
외형선
  6
Continuous
370
    15
100
AcDbSpline
210
0.0
220
0.0
230
1.0
 70
    24
 71
     3
 72
    14
 73
    10
 74
     0
 42
0.000000001
 43
0.00000001
 40
0.0
 40
0.0
 40
0.0
 40
0.0
 40
0.25
 40
0.25
 40
0.5
 40
0.5
 40
0.75
 40
0.75
 40
1.0
 40
1.0
 40
1.0
 40
1.0
 10
-15.87499999999998
 20
-1.73353898484412
 30
0.0
 10
-15.87499999999998
 20
-1.593055283134884
 30
0.0
 10
-15.87499999999998
 20
-1.426879776168779
 30
0.0
 10
-15.87499999999998
 20
-1.078151240177107
 30
0.0
 10
-15.87499999999998
 20
-0.896509377663925
 30
0.0
 10
-15.87499999999998
 20
-0.5550690456785219
 30
0.0
 10
-15.87499999999998
 20
-0.3955898939644733
 30
0.0
 10
-15.87499999999999
 20
-0.1171274923237853
 30
0.0
 10
-15.87499999999998
 20
0.002131057284668
 30
0.0
 10
-15.87499999999998
 20
0.1014110002950943
 30
0.0
  0
SPLINE
  5
1DC
330
1F
100
AcDbEntity
  8
외형선
  6
Continuous
370
    15
100
AcDbSpline
210
0.0
220
0.0
230
1.0
 70
    24
 71
     3
 72
    14
 73
    10
 74
     0
 42
0.000000001
 43
0.00000001
 40
0.0
 40
0.0
 40
0.0
 40
0.0
 40
0.25
 40
0.25
 40
0.5
 40
0.5
 40
0.75
 40
0.75
 40
1.0
 40
1.0
 40
1.0
 40
1.0
 10
-15.87499999999998
 20
0.1014110002950908
 30
0.0
 10
-15.87499999999999
 20
0.182612450589172
 30
0.0
 10
-15.87499999999998
 20
0.2877589678166217
 30
0.0
 10
-15.87499999999999
 20
0.5541454099745167
 30
0.0
 10
-15.87499999999998
 20
0.715917898234089
 30
0.0
 10
-15.87499999999999
 20
1.083440842705912
 30
0.0
 10
-15.87499999999998
 20
1.289004118211626
 30
0.0
 10
-15.87499999999999
 20
1.702005470410214
 30
0.0
 10
-15.87499999999999
 20
1.908216939906175
 30
0.0
 10
-15.87499999999999
 20
2.090284799060822
 30
0.0
  0
SPLINE
  5
1DD
330
1F
100
AcDbEntity
  8
0
  6
Continuous
 62
     1
370
    15
100
AcDbSpline
210
0.0
220
0.0
230
1.0
 70
     8
 71
     3
 72
    16
 73
    12
 74
     0
 42
0.000000001
 43
0.00000001
 40
0.0
 40
0.0
 40
0.0
 40
0.0
 40
0.1167481747379806
 40
0.2333354392445626
 40
0.3498463467245365
 40
0.466369836176011
 40
0.582994685912556
 40
0.6997696019205227
 40
0.8097564029566963
 40
0.9195916833359935
 40
1.0
 40
1.0
 40
1.0
 40
1.0
 10
-26.19374999999998
 20
0.9954926040900887
 30
0.0
 10
-25.8722968837964
 20
0.8218548651806792
 30
0.0
 10
-25.2298336998174
 20
0.474818706638672
 30
0.0
 10
-24.26694262164711
 20
-0.0863532198631738
 30
0.0
 10
-23.30477232254146
 20
-0.6387645625375455
 30
0.0
 10
-22.34247494199049
 20
-1.157665653980011
 30
0.0
 10
-21.37931812025729
 20
-1.613279857440542
 30
0.0
 10
-20.43371141475219
 20
-1.975199252726167
 30
0.0
 10
-19.50722443083257
 20
-2.225814999829549
 30
0.0
 10
-18.68112402181888
 20
-2.365085022137382
 30
0.0
 10
-18.15757786379977
 20
-2.368508788589875
 30
0.0
 10
-17.93629596040597
 20
-2.369955876961701
 30
0.0
1001
PE_URL
1000

  0
SPLINE
  5
1DE
330
1F
100
AcDbEntity
  8
0
  6
Continuous
 62
     1
370
    15
100
AcDbSpline
210
0.0
220
0.0
230
1.0
 70
     8
 71
     3
 72
    14
 73
    10
 74
     0
 42
0.000000001
 43
0.00000001
 40
0.0
 40
0.0
 40
0.0
 40
0.0
 40
0.1407348425340009
 40
0.2816418991810301
 40
0.4227963415277122
 40
0.5962190249750449
 40
0.7696313596818254
 40
0.9430344854570907
 40
1.0
 40
1.0
 40
1.0
 40
1.0
 10
-27.93752288629396
 20
-0.2495763127926303
 30
0.0
 10
-27.63123042134291
 20
-0.3674775207460677
 30
0.0
 10
-27.01827068812821
 20
-0.6034242097525357
 30
0.0
 10
-26.09799742782456
 20
-0.9242390969965761
 30
0.0
 10
-25.10632604422777
 20
-1.220438040603451
 30
0.0
 10
-24.0439942486261
 20
-1.463713301071106
 30
0.0
 10
-22.91143281786579
 20
-1.604837558215181
 30
0.0
 10
-22.03240987535458
 20
-1.645193417390882
 30
0.0
 10
-21.53090396276612
 20
-1.597618329266901
 30
0.0
 10
-21.40689167395175
 20
-1.585853970321761
 30
0.0
1001
PE_URL
1000

  0
SPLINE
  5
1DF
330
1F
100
AcDbEntity
  8
0
  6
Continuous
 62
     1
370
    15
100
AcDbSpline
210
0.0
220
0.0
230
1.0
 70
     8
 71
     3
 72
    22
 73
    18
 74
     0
 42
0.000000001
 43
0.00000001
 40
0.0
 40
0.0
 40
0.0
 40
0.0
 40
0.125
 40
0.125
 40
0.25
 40
0.25
 40
0.375
 40
0.375
 40
0.5
 40
0.5
 40
0.625
 40
0.625
 40
0.75
 40
0.75
 40
0.875
 40
0.875
 40
1.0
 40
1.0
 40
1.0
 40
1.0
 10
-26.19374999999998
 20
0.9954926040893817
 30
0.0
 10
-26.32581214279417
 20
1.065170229699241
 30
0.0
 10
-26.4558999360816
 20
1.127412207592368
 30
0.0
 10
-26.71567373941534
 20
1.231999327162626
 30
0.0
 10
-26.84670149514309
 20
1.274820498497196
 30
0.0
 10
-27.10533022875939
 20
1.329886617268542
 30
0.0
 10
-27.23204976206673
 20
1.342515236564889
 30
0.0
 10
-27.48589102795046
 20
1.324189254553751
 30
0.0
 10
-27.60969286891997
 20
1.292723090304957
 30
0.0
 10
-27.84317549020264
 20
1.166458473358286
 30
0.0
 10
-27.95174657799847
 20
1.070726803781
 30
0.0
 10
-28.1168345754257
 20
0.8165168988943208
 30
0.0
 10
-28.16652966991273
 20
0.6658824806324901
 30
0.0
 10
-28.19160626109674
 20
0.371366504449707
 30
0.0
 10
-28.16898543543248
 20
0.232578929637377
 30
0.0
 10
-28.08150946787156
 20
-0.0216209836670771
 30
0.0
 10
-28.01672115695709
 20
-0.1383400725801778
 30
0.0
 10
-27.93752288629041
 20
-0.2495763127940052
 30
0.0
1001
PE_URL
1000

  0
SPLINE
  5
1E0
330
1F
100
AcDbEntity
  8
0
  6
Continuous
 62
     1
370
    15
100
AcDbSpline
210
0.0
220
0.0
230
1.0
 70
     8
 71
     3
 72
    13
 73
     9
 74
     0
 42
0.000000001
 43
0.00000001
 40
0.0
 40
0.0
 40
0.0
 40
0.0
 40
0.0801621260563764
 40
0.2566034773302253
 40
0.433037793513444
 40
0.6094662490304058
 40
0.8047422227196601
 40
0.9999999999999999
 40
0.9999999999999999
 40
0.9999999999999999
 40
0.9999999999999999
 10
-22.2934242320089
 20
1.604634130350714
 30
0.0
 10
-22.12192553044951
 20
1.611211344841308
 30
0.0
 10
-21.57294853417062
 20
1.63226537861588
 30
0.0
 10
-20.64651746290532
 20
1.537487251937147
 30
0.0
 10
-19.51412250997719
 20
1.331989040010299
 30
0.0
 10
-18.34150184547891
 20
1.008618618992664
 30
0.0
 10
-17.12835187622303
 20
0.5905619923795413
 30
0.0
 10
-16.29277098114167
 20
0.2644562661667642
 30
0.0
 10
-15.87499999999999
 20
0.1014110002950943
 30
0.0
1001
PE_URL
1000

  0
SPLINE
  5
1E1
330
1F
100
AcDbEntity
  8
외형선
  6
Continuous
370
    15
100
AcDbSpline
210
0.0
220
0.0
230
1.0
 70
    24
 71
     3
 72
    14
 73
    10
 74
     0
 42
0.000000001
 43
0.00000001
 40
0.0
 40
0.0
 40
0.0
 40
0.0
 40
0.25
 40
0.25
 40
0.5
 40
0.5
 40
0.75
 40
0.75
 40
1.0
 40
1.0
 40
1.0
 40
1.0
 10
-15.87499999999999
 20
-1.733538984844202
 30
0.0
 10
-15.87499999999999
 20
-1.593055283134969
 30
0.0
 10
-15.87499999999999
 20
-1.42687977616886
 30
0.0
 10
-15.87499999999999
 20
-1.078151240177178
 30
0.0
 10
-15.87499999999999
 20
-0.8965093776639819
 30
0.0
 10
-15.87499999999999
 20
-0.5550690456785645
 30
0.0
 10
-15.87499999999999
 20
-0.3955898939645017
 30
0.0
 10
-15.87499999999999
 20
-0.1171274923237959
 30
0.0
 10
-15.87499999999999
 20
0.0021310572846645
 30
0.0
 10
-15.87499999999999
 20
0.1014110002950943
 30
0.0
  0
SPLINE
  5
1E2
330
1F
100
AcDbEntity
  8
0
  6
Continuous
 62
     1
370
    15
100
AcDbSpline
210
0.0
220
0.0
230
1.0
 70
     8
 71
     3
 72
    21
 73
    17
 74
     0
 42
0.000000001
 43
0.00000001
 40
0.0
 40
0.0
 40
0.0
 40
0.0
 40
0.0851312082467893
 40
0.1711478189924706
 40
0.2407589684917156
 40
0.3108515805931066
 40
0.3802880827264097
 40
0.4502045598072553
 40
0.5196118830246355
 40
0.589501095529683
 40
0.6589077796636651
 40
0.7287943817785852
 40
0.7982007772937235
 40
0.8680853769427993
 40
0.9577320081233834
 40
1.0
 40
1.0
 40
1.0
 40
1.0
 10
-15.87499999999999
 20
-1.733538984861582
 30
0.0
 10
-16.15441546050075
 20
-1.61622155330128
 30
0.0
 10
-16.71615242679462
 20
-1.380366536617643
 30
0.0
 10
-17.50632889135696
 20
-0.9765844790285882
 30
0.0
 10
-18.24596035818979
 20
-0.5694435796782038
 30
0.0
 10
-18.9330063721974
 20
-0.1782588626381809
 30
0.0
 10
-19.61932076731089
 20
0.2210387228200901
 30
0.0
 10
-20.30453559955173
 20
0.6110802760214611
 30
0.0
 10
-20.99094382609289
 20
0.9856229775557921
 30
0.0
 10
-21.67499289442771
 20
1.333067488893647
 30
0.0
 10
-22.36213157983408
 20
1.642548517717941
 30
0.0
 10
-23.04582152484512
 20
1.908126790869332
 30
0.0
 10
-23.73285721113149
 20
2.12084346821961
 30
0.0
 10
-24.48337105621189
 20
2.286467900412685
 30
0.0
 10
-25.14539045270698
 20
2.379727596332406
 30
0.0
 10
-25.57835689667835
 20
2.370397773961416
 30
0.0
 10
-25.71708770386637
 20
2.367408318758894
 30
0.0
1001
PE_URL
1000

  0
SPLINE
  5
1E3
330
1F
100
AcDbEntity
  8
0
  6
Continuous
 62
     1
370
    15
100
AcDbSpline
210
0.0
220
0.0
230
1.0
 70
     8
 71
     3
 72
    10
 73
     6
 74
     0
 42
0.000000001
 43
0.00000001
 40
0.0
 40
0.0
 40
0.0
 40
0.0
 40
0.5
 40
0.5
 40
1.0
 40
1.0
 40
1.0
 40
1.0
 10
-27.93752288629041
 20
-0.2495763127940052
 30
0.0
 10
-27.99227568137337
 20
-0.2826246161959389
 30
0.0
 10
-28.03598852688783
 20
-0.3328658661545703
 30
0.0
 10
-28.0944586833455
 20
-0.4602199967100056
 30
0.0
 10
-28.10894266252871
 20
-0.5369360668298171
 30
0.0
 10
-28.11028924506799
 20
-0.616722476220481
 30
0.0
1001
PE_URL
1000

  0
ARC
  5
1E4
330
1F
100
AcDbEntity
  8
0
  6
Continuous
 62
     1
370
    15
100
AcDbCircle
 10
-27.43572518350675
 20
0.4139420338681141
 30
0.0
 40
1.231789757022769
100
AcDbArc
 50
203.8412857607765
 51
236.7954810300131
1001
PE_URL
1000

  0
ARC
  5
1E5
330
1F
100
AcDbEntity
  8
0
  6
Continuous
 62
     1
370
    15
100
AcDbCircle
 10
-26.43122614240377
 20
-0.0426133921985716
 30
0.0
 40
2.131579415006422
100
AcDbArc
 50
181.1112551108719
 51
251.1033400436852
1001
PE_URL
1000

  0
SPLINE
  5
1E6
330
1F
100
AcDbEntity
  8
0
  6
Continuous
 62
     1
370
    15
100
AcDbSpline
210
0.0
220
0.0
230
1.0
 70
     8
 71
     3
 72
    10
 73
     6
 74
     0
 42
0.000000001
 43
0.00000001
 40
0.0
 40
0.0
 40
0.0
 40
0.0
 40
0.5
 40
0.5
 40
1.0
 40
1.0
 40
1.0
 40
1.0
 10
-27.12156428154299
 20
-2.059309714436726
 30
0.0
 10
-26.97414610379785
 20
-2.149201946605629
 30
0.0
 10
-26.82227285421033
 20
-2.219795152015685
 30
0.0
 10
-26.51256315674151
 20
-2.322510980956164
 30
0.0
 10
-26.35321939350175
 20
-2.354734387094769
 30
0.0
 10
-26.19374999999867
 20
-2.365402247280485
 30
0.0
1001
PE_URL
1000

  0
SPLINE
  5
1E7
330
1F
100
AcDbEntity
  8
0
  6
Continuous
 62
     1
370
    15
100
AcDbSpline
210
0.0
220
0.0
230
1.0
 70
     8
 71
     3
 72
    14
 73
    10
 74
     0
 42
0.000000001
 43
0.00000001
 40
0.0
 40
0.0
 40
0.0
 40
0.0
 40
0.0049233101937557
 40
0.1792406455939649
 40
0.3434249305521382
 40
0.5073830310002495
 40
0.6713776065576292
 40
0.8356705887402668
 40
1.0
 40
1.0
 40
1.0
 40
1.0
 10
-21.40689167395175
 20
1.585853970321754
 30
0.0
 10
-21.39781321678257
 20
1.59012179205855
 30
0.0
 10
-21.06729808367868
 20
1.745498376770467
 30
0.0
 10
-20.43368557275771
 20
1.969017675458201
 30
0.0
 10
-19.50723777060996
 20
2.229628828473771
 30
0.0
 10
-18.60005857870539
 20
2.369475880347345
 30
0.0
 10
-17.69268791492388
 20
2.395229177856168
 30
0.0
 10
-16.78411846260279
 20
2.312059062309528
 30
0.0
 10
-16.1780618821146
 20
2.164215016516602
 30
0.0
 10
-15.87499999999982
 20
2.090284799074897
 30
0.0
1001
PE_URL
1000

  0
SPLINE
  5
1E8
330
1F
100
AcDbEntity
  8
외형선
  6
Continuous
370
    15
100
AcDbSpline
210
0.0
220
0.0
230
1.0
 70
    24
 71
     3
 72
    14
 73
    10
 74
     0
 42
0.000000001
 43
0.00000001
 40
0.0
 40
0.0
 40
0.0
 40
0.0
 40
0.25
 40
0.25
 40
0.5
 40
0.5
 40
0.75
 40
0.75
 40
1.0
 40
1.0
 40
1.0
 40
1.0
 10
-15.87499999999999
 20
0.1014110002950943
 30
0.0
 10
-15.87499999999999
 20
0.182612450589172
 30
0.0
 10
-15.87499999999999
 20
0.2877589678166181
 30
0.0
 10
-15.87499999999999
 20
0.5541454099745025
 30
0.0
 10
-15.87499999999999
 20
0.7159178982340713
 30
0.0
 10
-15.87499999999999
 20
1.083440842705883
 30
0.0
 10
-15.87499999999999
 20
1.28900411821159
 30
0.0
 10
-15.87499999999999
 20
1.702005470410167
 30
0.0
 10
-15.87499999999999
 20
1.908216939906126
 30
0.0
 10
-15.87499999999999
 20
2.090284799060772
 30
0.0
  0
SPLINE
  5
1E9
330
1F
100
AcDbEntity
  8
0
  6
Continuous
 62
     1
370
    15
100
AcDbSpline
210
0.0
220
0.0
230
1.0
 70
     8
 71
     3
 72
     8
 73
     4
 74
     0
 42
0.000000001
 43
0.00000001
 40
0.0
 40
0.0
 40
0.0
 40
0.0
 40
1.0
 40
1.0
 40
1.0
 40
1.0
 10
-26.63788212319969
 20
-1.065974114515949
 30
0.0
 10
-27.12198241956292
 20
-0.931415026714415
 30
0.0
 10
-27.61554438412077
 20
-0.7798345562809743
 30
0.0
 10
-28.11028924506799
 20
-0.6167224762205024
 30
0.0
1001
PE_URL
1000

  0
SPLINE
  5
1EA
330
1F
100
AcDbEntity
  8
0
  6
Continuous
 62
     1
370
    15
100
AcDbSpline
210
0.0
220
0.0
230
1.0
 70
     8
 71
     3
 72
    13
 73
     9
 74
     0
 42
0.000000001
 43
0.00000001
 40
0.0
 40
0.0
 40
0.0
 40
0.0
 40
0.0171246844773422
 40
0.1934767202238598
 40
0.368617001372391
 40
0.5449639840913262
 40
0.7711785291985089
 40
1.0
 40
1.0
 40
1.0
 40
1.0
 10
-22.2934242320089
 20
-1.604634130350725
 30
0.0
 10
-22.31569978550624
 20
-1.614704365798378
 30
0.0
 10
-22.56737163601759
 20
-1.728479082574722
 30
0.0
 10
-23.04577864288463
 20
-1.905571733013424
 30
0.0
 10
-23.73286991199369
 20
-2.121104013114397
 30
0.0
 10
-24.48336135524446
 20
-2.288127894137943
 30
0.0
 10
-25.30423854914665
 20
-2.39271008826999
 30
0.0
 10
-25.89611588406975
 20
-2.374539560918251
 30
0.0
 10
-26.1937499999995
 20
-2.365402247280429
 30
0.0
1001
PE_URL
1000

  0
SPLINE
  5
1EB
330
1F
100
AcDbEntity
  8
0
  6
Continuous
 62
     1
370
    15
100
AcDbSpline
210
0.0
220
0.0
230
1.0
 70
     8
 71
     3
 72
    14
 73
    10
 74
     0
 42
0.000000001
 43
0.00000001
 40
0.0
 40
0.0
 40
0.0
 40
0.0
 40
0.25
 40
0.25
 40
0.5
 40
0.5
 40
0.75
 40
0.75
 40
1.0
 40
1.0
 40
1.0
 40
1.0
 10
-27.12156428154299
 20
-2.059309714436729
 30
0.0
 10
-27.13845426833112
 20
-1.959324798384344
 30
0.0
 10
-27.14602605428479
 20
-1.857507827934761
 30
0.0
 10
-27.13118102799407
 20
-1.651445059296368
 30
0.0
 10
-27.10818117473636
 20
-1.549912348419181
 30
0.0
 10
-27.0240873131188
 20
-1.365238316764188
 30
0.0
 10
-26.96269119256399
 20
-1.283016166461383
 30
0.0
 10
-26.81453406877792
 20
-1.151703916881594
 30
0.0
 10
-26.72777705170701
 20
-1.101732572601492
 30
0.0
 10
-26.63788212320082
 20
-1.065974114515722
 30
0.0
1001
PE_URL
1000

  0
LINE
  5
1EC
330
1F
100
AcDbEntity
  8
0
100
AcDbLine
 10
14.98498029172966
 20
2.04307914336308
 30
0.0
 11
14.98498029172966
 21
2.381250000000004
 31
0.0
  0
ENDSEC
  0
SECTION
  2
OBJECTS
  0
DICTIONARY
  5
C
330
0
100
AcDbDictionary
281
     1
  3
ACAD_DETAILVIEWSTYLE
350
1A9
  3
ACAD_GROUP
350
D
  3
ACAD_LAYOUT
350
1A
  3
ACAD_MLINESTYLE
350
17
  3
ACAD_PLOTSETTINGS
350
19
  3
ACAD_PLOTSTYLENAME
350
E
  3
ACAD_SCALELIST
350
47
  3
ACAD_SECTIONVIEWSTYLE
350
1AA
  3
AcDbVariableDictionary
350
1A4
  3
APPDATA
350
146
  3
DWGPROPS
350
1F1
  0
DICTIONARY
  5
17F
330
2
100
AcDbDictionary
280
     1
281
     1
  3
ACAD_LAYERSTATES
360
180
  0
DICTIONARY
  5
1A9
102
{ACAD_REACTORS
330
C
102
}
330
C
100
AcDbDictionary
281
     1
  0
DICTIONARY
  5
D
102
{ACAD_REACTORS
330
C
102
}
330
C
100
AcDbDictionary
281
     1
  0
DICTIONARY
  5
1A
102
{ACAD_REACTORS
330
C
102
}
330
C
100
AcDbDictionary
281
     1
  3
Layout1
350
1E
  3
Layout2
350
26
  3
Model
350
22
  0
DICTIONARY
  5
17
102
{ACAD_REACTORS
330
C
102
}
330
C
100
AcDbDictionary
281
     1
  3
Standard
350
18
  0
DICTIONARY
  5
19
102
{ACAD_REACTORS
330
C
102
}
330
C
100
AcDbDictionary
281
     1
  0
ACDBDICTIONARYWDFLT
  5
E
102
{ACAD_REACTORS
330
C
102
}
330
C
100
AcDbDictionary
281
     1
  3
Normal
350
F
100
AcDbDictionaryWithDefault
340
F
  0
DICTIONARY
  5
47
102
{ACAD_REACTORS
330
C
102
}
330
C
100
AcDbDictionary
281
     1
  3
A0
350
48
  3
A1
350
49
  3
A2
350
4A
  3
A3
350
4B
  3
A4
350
4C
  3
A5
350
4D
  3
A6
350
4E
  3
A7
350
4F
  3
A8
350
50
  3
A9
350
51
  3
B0
350
52
  3
B1
350
53
  3
B2
350
54
  3
B3
350
55
  3
B4
350
56
  3
B5
350
57
  3
B6
350
58
  3
B7
350
59
  3
B8
350
5A
  3
B9
350
5B
  3
C0
350
5C
  3
C1
350
5D
  3
C2
350
5E
  3
C3
350
5F
  3
C4
350
60
  3
C5
350
61
  3
C6
350
62
  3
C7
350
63
  3
C8
350
64
  3
C9
350
65
  3
D0
350
66
  3
D1
350
67
  3
D2
350
68
  0
DICTIONARY
  5
1AA
102
{ACAD_REACTORS
330
C
102
}
330
C
100
AcDbDictionary
281
     1
  0
DICTIONARY
  5
1A4
102
{ACAD_REACTORS
330
C
102
}
330
C
100
AcDbDictionary
281
     1
  0
DICTIONARY
  5
146
102
{ACAD_REACTORS
330
C
102
}
330
C
100
AcDbDictionary
281
     1
  0
XRECORD
  5
1F1
102
{ACAD_REACTORS
330
C
102
}
330
C
100
AcDbXrecord
280
     1
  1
DWGPROPS COOKIE
  2

  3

  4

  6

  7

  8
120170442
  9

300
=
301
=
302
=
303
=
304
=
305
=
306
=
307
=
308
=
309
=
 40
0.0
 41
2458319.364864641
 42
2458323.138852871
  1

 90
        0
  0
DICTIONARY
  5
180
102
{ACAD_REACTORS
330
17F
102
}
330
17F
100
AcDbDictionary
281
     1
  0
LAYOUT
  5
1E
102
{ACAD_REACTORS
330
1A
102
}
330
1A
100
AcDbPlotSettings
  1

  2
none_device
  4

  6

 40
0.0
 41
0.0
 42
0.0
 43
0.0
 44
0.0
 45
0.0
 46
0.0
 47
0.0
 48
0.0
 49
0.0
140
0.0
141
0.0
142
1.0
143
1.0
 70
   688
 72
     1
 73
     0
 74
     5
  7

 75
    16
147
1.0
148
0.0
149
0.0
100
AcDbLayout
  1
Layout1
 70
     1
 71
     1
 10
0.0
 20
0.0
 11
420.0
 21
297.0
 12
0.0
 22
0.0
 32
0.0
 14
1.000000000000000E+20
 24
1.000000000000000E+20
 34
1.000000000000000E+20
 15
-1.000000000000000E+20
 25
-1.000000000000000E+20
 35
-1.000000000000000E+20
146
0.0
 13
0.0
 23
0.0
 33
0.0
 16
1.0
 26
0.0
 36
0.0
 17
0.0
 27
1.0
 37
0.0
 76
     0
330
1B
  0
LAYOUT
  5
26
102
{ACAD_REACTORS
330
1A
102
}
330
1A
100
AcDbPlotSettings
  1

  2
none_device
  4

  6

 40
0.0
 41
0.0
 42
0.0
 43
0.0
 44
0.0
 45
0.0
 46
0.0
 47
0.0
 48
0.0
 49
0.0
140
0.0
141
0.0
142
1.0
143
1.0
 70
   688
 72
     1
 73
     0
 74
     5
  7

 75
    16
147
1.0
148
0.0
149
0.0
100
AcDbLayout
  1
Layout2
 70
     1
 71
     2
 10
0.0
 20
0.0
 11
0.0
 21
0.0
 12
0.0
 22
0.0
 32
0.0
 14
0.0
 24
0.0
 34
0.0
 15
0.0
 25
0.0
 35
0.0
146
0.0
 13
0.0
 23
0.0
 33
0.0
 16
1.0
 26
0.0
 36
0.0
 17
0.0
 27
1.0
 37
0.0
 76
     0
330
23
  0
LAYOUT
  5
22
102
{ACAD_REACTORS
330
1A
102
}
330
1A
100
AcDbPlotSettings
  1

  2
none_device
  4
ANSI_A_(11.00_x_8.50_Inches)
  6

 40
6.35
 41
19.05
 42
6.35000508
 43
19.05000254
 44
279.4
 45
215.9
 46
111.6312105041232
 47
99.34882547384967
 48
0.0
 49
0.0
140
0.0
141
0.0
142
0.0773780340023682
143
1.0
 70
  1696
 72
     0
 73
     0
 74
     0
  7

 75
     0
147
0.0235690232323232
148
0.0
149
0.0
100
AcDbLayout
  1
Model
 70
     1
 71
     0
 10
0.0
 20
0.0
 11
420.0
 21
297.0
 12
0.0
 22
0.0
 32
0.0
 14
-42.95000000000011
 24
-49.97180738881175
 34
0.0
 15
88.36973381534558
 25
36.98525000000014
 35
0.0
146
0.0
 13
0.0
 23
0.0
 33
0.0
 16
1.0
 26
0.0
 36
0.0
 17
0.0
 27
1.0
 37
0.0
 76
     0
330
1F
331
29
  0
MLINESTYLE
  5
18
102
{ACAD_REACTORS
330
17
102
}
330
17
100
AcDbMlineStyle
  2
Standard
 70
     0
  3

 62
   256
 51
90.0
 52
90.0
 71
     2
 49
0.5
 62
   256
  6
BYLAYER
 49
-0.5
 62
   256
  6
BYLAYER
  0
ACDBPLACEHOLDER
  5
F
102
{ACAD_REACTORS
330
E
102
}
330
E
  0
SCALE
  5
48
102
{ACAD_REACTORS
330
47
102
}
330
47
100
AcDbScale
 70
     0
300
1:1
140
1.0
141
1.0
290
     1
  0
SCALE
  5
49
102
{ACAD_REACTORS
330
47
102
}
330
47
100
AcDbScale
 70
     0
300
1:2
140
1.0
141
2.0
290
     0
  0
SCALE
  5
4A
102
{ACAD_REACTORS
330
47
102
}
330
47
100
AcDbScale
 70
     0
300
1:4
140
1.0
141
4.0
290
     0
  0
SCALE
  5
4B
102
{ACAD_REACTORS
330
47
102
}
330
47
100
AcDbScale
 70
     0
300
1:5
140
1.0
141
5.0
290
     0
  0
SCALE
  5
4C
102
{ACAD_REACTORS
330
47
102
}
330
47
100
AcDbScale
 70
     0
300
1:8
140
1.0
141
8.0
290
     0
  0
SCALE
  5
4D
102
{ACAD_REACTORS
330
47
102
}
330
47
100
AcDbScale
 70
     0
300
1:10
140
1.0
141
10.0
290
     0
  0
SCALE
  5
4E
102
{ACAD_REACTORS
330
47
102
}
330
47
100
AcDbScale
 70
     0
300
1:16
140
1.0
141
16.0
290
     0
  0
SCALE
  5
4F
102
{ACAD_REACTORS
330
47
102
}
330
47
100
AcDbScale
 70
     0
300
1:20
140
1.0
141
20.0
290
     0
  0
SCALE
  5
50
102
{ACAD_REACTORS
330
47
102
}
330
47
100
AcDbScale
 70
     0
300
1:30
140
1.0
141
30.0
290
     0
  0
SCALE
  5
51
102
{ACAD_REACTORS
330
47
102
}
330
47
100
AcDbScale
 70
     0
300
1:40
140
1.0
141
40.0
290
     0
  0
SCALE
  5
52
102
{ACAD_REACTORS
330
47
102
}
330
47
100
AcDbScale
 70
     0
300
1:50
140
1.0
141
50.0
290
     0
  0
SCALE
  5
53
102
{ACAD_REACTORS
330
47
102
}
330
47
100
AcDbScale
 70
     0
300
1:100
140
1.0
141
100.0
290
     0
  0
SCALE
  5
54
102
{ACAD_REACTORS
330
47
102
}
330
47
100
AcDbScale
 70
     0
300
2:1
140
2.0
141
1.0
290
     0
  0
SCALE
  5
55
102
{ACAD_REACTORS
330
47
102
}
330
47
100
AcDbScale
 70
     0
300
4:1
140
4.0
141
1.0
290
     0
  0
SCALE
  5
56
102
{ACAD_REACTORS
330
47
102
}
330
47
100
AcDbScale
 70
     0
300
8:1
140
8.0
141
1.0
290
     0
  0
SCALE
  5
57
102
{ACAD_REACTORS
330
47
102
}
330
47
100
AcDbScale
 70
     0
300
10:1
140
10.0
141
1.0
290
     0
  0
SCALE
  5
58
102
{ACAD_REACTORS
330
47
102
}
330
47
100
AcDbScale
 70
     0
300
100:1
140
100.0
141
1.0
290
     0
  0
SCALE
  5
59
102
{ACAD_REACTORS
330
47
102
}
330
47
100
AcDbScale
 70
     0
300
1/128" = 1'-0"
140
0.0078125
141
12.0
290
     0
  0
SCALE
  5
5A
102
{ACAD_REACTORS
330
47
102
}
330
47
100
AcDbScale
 70
     0
300
1/64" = 1'-0"
140
0.015625
141
12.0
290
     0
  0
SCALE
  5
5B
102
{ACAD_REACTORS
330
47
102
}
330
47
100
AcDbScale
 70
     0
300
1/32" = 1'-0"
140
0.03125
141
12.0
290
     0
  0
SCALE
  5
5C
102
{ACAD_REACTORS
330
47
102
}
330
47
100
AcDbScale
 70
     0
300
1/16" = 1'-0"
140
0.0625
141
12.0
290
     0
  0
SCALE
  5
5D
102
{ACAD_REACTORS
330
47
102
}
330
47
100
AcDbScale
 70
     0
300
3/32" = 1'-0"
140
0.09375
141
12.0
290
     0
  0
SCALE
  5
5E
102
{ACAD_REACTORS
330
47
102
}
330
47
100
AcDbScale
 70
     0
300
1/8" = 1'-0"
140
0.125
141
12.0
290
     0
  0
SCALE
  5
5F
102
{ACAD_REACTORS
330
47
102
}
330
47
100
AcDbScale
 70
     0
300
3/16" = 1'-0"
140
0.1875
141
12.0
290
     0
  0
SCALE
  5
60
102
{ACAD_REACTORS
330
47
102
}
330
47
100
AcDbScale
 70
     0
300
1/4" = 1'-0"
140
0.25
141
12.0
290
     0
  0
SCALE
  5
61
102
{ACAD_REACTORS
330
47
102
}
330
47
100
AcDbScale
 70
     0
300
3/8" = 1'-0"
140
0.375
141
12.0
290
     0
  0
SCALE
  5
62
102
{ACAD_REACTORS
330
47
102
}
330
47
100
AcDbScale
 70
     0
300
1/2" = 1'-0"
140
0.5
141
12.0
290
     0
  0
SCALE
  5
63
102
{ACAD_REACTORS
330
47
102
}
330
47
100
AcDbScale
 70
     0
300
3/4" = 1'-0"
140
0.75
141
12.0
290
     0
  0
SCALE
  5
64
102
{ACAD_REACTORS
330
47
102
}
330
47
100
AcDbScale
 70
     0
300
1" = 1'-0"
140
1.0
141
12.0
290
     0
  0
SCALE
  5
65
102
{ACAD_REACTORS
330
47
102
}
330
47
100
AcDbScale
 70
     0
300
1-1/2" = 1'-0"
140
1.5
141
12.0
290
     0
  0
SCALE
  5
66
102
{ACAD_REACTORS
330
47
102
}
330
47
100
AcDbScale
 70
     0
300
3" = 1'-0"
140
3.0
141
12.0
290
     0
  0
SCALE
  5
67
102
{ACAD_REACTORS
330
47
102
}
330
47
100
AcDbScale
 70
     0
300
6" = 1'-0"
140
6.0
141
12.0
290
     0
  0
SCALE
  5
68
102
{ACAD_REACTORS
330
47
102
}
330
47
100
AcDbScale
 70
     0
300
1'-0" = 1'-0"
140
12.0
141
12.0
290
     0
  0
ENDSEC
  0
EOF
