  0
SECTION
  2
HEADER
  9
$ACADVER
  1
AC1015
  9
$ACADMAINTVER
 70
     6
  9
$DWGCODEPAGE
  3
ANSI_949
  9
$INSBASE
 10
0.0
 20
0.0
 30
0.0
  9
$EXTMIN
 10
-55.65000000000011
 20
-49.97180738881175
 30
0.0
  9
$EXTMAX
 10
91.54473381534558
 20
37.46337500000014
 30
0.0
  9
$LIMMIN
 10
0.0
 20
0.0
  9
$LIMMAX
 10
420.0
 20
297.0
  9
$ORTHOMODE
 70
     1
  9
$REGENMODE
 70
     1
  9
$FILLMODE
 70
     1
  9
$QTEXTMODE
 70
     0
  9
$MIRRTEXT
 70
     1
  9
$LTSCALE
 40
1.0
  9
$ATTMODE
 70
     1
  9
$TEXTSIZE
 40
3.5
  9
$TRACEWID
 40
1.0
  9
$TEXTSTYLE
  7
Standard
  9
$CLAYER
  8
0
  9
$CELTYPE
  6
ByLayer
  9
$CECOLOR
 62
   256
  9
$CELTSCALE
 40
1.0
  9
$DISPSILH
 70
     0
  9
$DIMSCALE
 40
1.0
  9
$DIMASZ
 40
3.302
  9
$DIMEXO
 40
1.0
  9
$DIMDLI
 40
3.75
  9
$DIMRND
 40
0.0
  9
$DIMDLE
 40
0.0
  9
$DIMEXE
 40
1.0
  9
$DIMTP
 40
0.0
  9
$DIMTM
 40
0.0
  9
$DIMTXT
 40
3.5
  9
$DIMCEN
 40
2.5
  9
$DIMTSZ
 40
0.0
  9
$DIMTOL
 70
     0
  9
$DIMLIM
 70
     0
  9
$DIMTIH
 70
     1
  9
$DIMTOH
 70
     1
  9
$DIMSE1
 70
     0
  9
$DIMSE2
 70
     0
  9
$DIMTAD
 70
     1
  9
$DIMZIN
 70
     0
  9
$DIMBLK
  1

  9
$DIMASO
 70
     1
  9
$DIMSHO
 70
     1
  9
$DIMPOST
  1

  9
$DIMAPOST
  1

  9
$DIMALT
 70
     0
  9
$DIMALTD
 70
     3
  9
$DIMALTF
 40
0.0393700787401575
  9
$DIMLFAC
 40
1.0
  9
$DIMTOFL
 70
     1
  9
$DIMTVP
 40
0.0
  9
$DIMTIX
 70
     0
  9
$DIMSOXD
 70
     0
  9
$DIMSAH
 70
     0
  9
$DIMBLK1
  1

  9
$DIMBLK2
  1

  9
$DIMSTYLE
  2
ISO-25
  9
$DIMCLRD
 70
     0
  9
$DIMCLRE
 70
     0
  9
$DIMCLRT
 70
     0
  9
$DIMTFAC
 40
1.0
  9
$DIMGAP
 40
1.524
  9
$DIMJUST
 70
     0
  9
$DIMSD1
 70
     0
  9
$DIMSD2
 70
     0
  9
$DIMTOLJ
 70
     0
  9
$DIMTZIN
 70
     0
  9
$DIMALTZ
 70
     0
  9
$DIMALTTZ
 70
     0
  9
$DIMUPT
 70
     0
  9
$DIMDEC
 70
     2
  9
$DIMTDEC
 70
     2
  9
$DIMALTU
 70
     2
  9
$DIMALTTD
 70
     3
  9
$DIMTXSTY
  7
Standard
  9
$DIMAUNIT
 70
     0
  9
$DIMADEC
 70
     2
  9
$DIMALTRND
 40
0.0
  9
$DIMAZIN
 70
     0
  9
$DIMDSEP
 70
    44
  9
$DIMATFIT
 70
     3
  9
$DIMFRAC
 70
     0
  9
$DIMLDRBLK
  1

  9
$DIMLUNIT
 70
     2
  9
$DIMLWD
 70
    -2
  9
$DIMLWE
 70
    -2
  9
$DIMTMOVE
 70
     0
  9
$LUNITS
 70
     2
  9
$LUPREC
 70
     2
  9
$SKETCHINC
 40
1.0
  9
$FILLETRAD
 40
10.0
  9
$AUNITS
 70
     0
  9
$AUPREC
 70
     2
  9
$MENU
  1
.
  9
$ELEVATION
 40
0.0
  9
$PELEVATION
 40
0.0
  9
$THICKNESS
 40
0.0
  9
$LIMCHECK
 70
     0
  9
$CHAMFERA
 40
0.0
  9
$CHAMFERB
 40
0.0
  9
$CHAMFERC
 40
0.0
  9
$CHAMFERD
 40
0.0
  9
$SKPOLY
 70
     0
  9
$TDCREATE
 40
2458319.74134772
  9
$TDUCREATE
 40
2458319.36634772
  9
$TDUPDATE
 40
2458323.619410776
  9
$TDUUPDATE
 40
2458323.244410776
  9
$TDINDWG
 40
0.0026002894
  9
$TDUSRTIMER
 40
0.0026002778
  9
$USRTIMER
 70
     1
  9
$ANGBASE
 50
0.0
  9
$ANGDIR
 70
     0
  9
$PDMODE
 70
     0
  9
$PDSIZE
 40
-1.0
  9
$PLINEWID
 40
0.0
  9
$SPLFRAME
 70
     0
  9
$SPLINETYPE
 70
     6
  9
$SPLINESEGS
 70
     8
  9
$HANDSEED
  5
209
  9
$SURFTAB1
 70
     6
  9
$SURFTAB2
 70
     6
  9
$SURFTYPE
 70
     6
  9
$SURFU
 70
     6
  9
$SURFV
 70
     6
  9
$UCSBASE
  2

  9
$UCSNAME
  2

  9
$UCSORG
 10
0.0
 20
0.0
 30
0.0
  9
$UCSXDIR
 10
1.0
 20
0.0
 30
0.0
  9
$UCSYDIR
 10
0.0
 20
1.0
 30
0.0
  9
$UCSORTHOREF
  2

  9
$UCSORTHOVIEW
 70
     0
  9
$UCSORGTOP
 10
0.0
 20
0.0
 30
0.0
  9
$UCSORGBOTTOM
 10
0.0
 20
0.0
 30
0.0
  9
$UCSORGLEFT
 10
0.0
 20
0.0
 30
0.0
  9
$UCSORGRIGHT
 10
0.0
 20
0.0
 30
0.0
  9
$UCSORGFRONT
 10
0.0
 20
0.0
 30
0.0
  9
$UCSORGBACK
 10
0.0
 20
0.0
 30
0.0
  9
$PUCSBASE
  2

  9
$PUCSNAME
  2

  9
$PUCSORG
 10
0.0
 20
0.0
 30
0.0
  9
$PUCSXDIR
 10
1.0
 20
0.0
 30
0.0
  9
$PUCSYDIR
 10
0.0
 20
1.0
 30
0.0
  9
$PUCSORTHOREF
  2

  9
$PUCSORTHOVIEW
 70
     0
  9
$PUCSORGTOP
 10
0.0
 20
0.0
 30
0.0
  9
$PUCSORGBOTTOM
 10
0.0
 20
0.0
 30
0.0
  9
$PUCSORGLEFT
 10
0.0
 20
0.0
 30
0.0
  9
$PUCSORGRIGHT
 10
0.0
 20
0.0
 30
0.0
  9
$PUCSORGFRONT
 10
0.0
 20
0.0
 30
0.0
  9
$PUCSORGBACK
 10
0.0
 20
0.0
 30
0.0
  9
$USERI1
 70
     0
  9
$USERI2
 70
     0
  9
$USERI3
 70
     0
  9
$USERI4
 70
     0
  9
$USERI5
 70
     0
  9
$USERR1
 40
0.0
  9
$USERR2
 40
0.0
  9
$USERR3
 40
0.0
  9
$USERR4
 40
0.0
  9
$USERR5
 40
0.0
  9
$WORLDVIEW
 70
     1
  9
$SHADEDGE
 70
     3
  9
$SHADEDIF
 70
    70
  9
$TILEMODE
 70
     1
  9
$MAXACTVP
 70
    64
  9
$PINSBASE
 10
0.0
 20
0.0
 30
0.0
  9
$PLIMCHECK
 70
     0
  9
$PEXTMIN
 10
1.000000000000000E+20
 20
1.000000000000000E+20
 30
1.000000000000000E+20
  9
$PEXTMAX
 10
-1.000000000000000E+20
 20
-1.000000000000000E+20
 30
-1.000000000000000E+20
  9
$PLIMMIN
 10
0.0
 20
0.0
  9
$PLIMMAX
 10
0.0
 20
0.0
  9
$UNITMODE
 70
     0
  9
$VISRETAIN
 70
     1
  9
$PLINEGEN
 70
     0
  9
$PSLTSCALE
 70
     1
  9
$TREEDEPTH
 70
  3020
  9
$CMLSTYLE
  2
Standard
  9
$CMLJUST
 70
     0
  9
$CMLSCALE
 40
20.0
  9
$PROXYGRAPHICS
 70
     1
  9
$MEASUREMENT
 70
     1
  9
$CELWEIGHT
370
    -1
  9
$ENDCAPS
280
     0
  9
$JOINSTYLE
280
     0
  9
$LWDISPLAY
290
     1
  9
$INSUNITS
 70
     4
  9
$HYPERLINKBASE
  1

  9
$STYLESHEET
  1

  9
$XEDIT
290
     1
  9
$CEPSNTYPE
380
     0
  9
$PSTYLEMODE
290
     1
  9
$FINGERPRINTGUID
  2
{D7543A07-EEA7-4CA7-9882-B04E63354B4F}
  9
$VERSIONGUID
  2
{FAEB1C32-E019-11D5-929B-00C0DF256EC4}
  9
$EXTNAMES
290
     1
  9
$PSVPSCALE
 40
0.0
  9
$OLESTARTUP
290
     0
  0
ENDSEC
  0
SECTION
  2
CLASSES
  0
CLASS
  1
ACDBDICTIONARYWDFLT
  2
AcDbDictionaryWithDefault
  3
ObjectDBX Classes
 90
        0
280
     0
281
     0
  0
CLASS
  1
VISUALSTYLE
  2
AcDbVisualStyle
  3
ObjectDBX Classes
 90
     4095
280
     0
281
     0
  0
CLASS
  1
MATERIAL
  2
AcDbMaterial
  3
ObjectDBX Classes
 90
     1153
280
     0
281
     0
  0
CLASS
  1
SCALE
  2
AcDbScale
  3
ObjectDBX Classes
 90
     1153
280
     0
281
     0
  0
CLASS
  1
SUN
  2
AcDbSun
  3
SCENEOE
 90
     1153
280
     0
281
     0
  0
CLASS
  1
ACDBPLACEHOLDER
  2
AcDbPlaceHolder
  3
ObjectDBX Classes
 90
        0
280
     0
281
     0
  0
CLASS
  1
LAYOUT
  2
AcDbLayout
  3
ObjectDBX Classes
 90
        0
280
     0
281
     0
  0
CLASS
  1
TABLESTYLE
  2
AcDbTableStyle
  3
ObjectDBX Classes
 90
     4095
280
     0
281
     0
  0
CLASS
  1
MLEADERSTYLE
  2
AcDbMLeaderStyle
  3
ACDB_MLEADERSTYLE_CLASS
 90
     4095
280
     0
281
     0
  0
ENDSEC
  0
SECTION
  2
TABLES
  0
TABLE
  2
VPORT
  5
8
330
0
100
AcDbSymbolTable
 70
     1
  0
VPORT
  5
29
330
8
100
AcDbSymbolTableRecord
100
AcDbViewportTableRecord
  2
*Active
 70
     0
 10
0.0
 20
0.0
 11
1.0
 21
1.0
 12
17.94736690767273
 22
-6.254216194405799
 13
0.0
 23
0.0
 14
10.0
 24
10.0
 15
10.0
 25
10.0
 16
0.0
 26
0.0
 36
1.0
 17
0.0
 27
0.0
 37
0.0
 40
89.18388603658812
 41
1.782762691853601
 42
50.0
 43
0.0
 44
0.0
 50
0.0
 51
0.0
 71
    16
 72
  2000
 73
     1
 74
     3
 75
     0
 76
     0
 77
     0
 78
     0
281
     0
 65
     1
110
0.0
120
0.0
130
0.0
111
1.0
121
0.0
131
0.0
112
0.0
122
1.0
132
0.0
 79
     0
146
0.0
  0
ENDTAB
  0
TABLE
  2
LTYPE
  5
5
330
0
100
AcDbSymbolTable
 70
     6
  0
LTYPE
  5
14
330
5
100
AcDbSymbolTableRecord
100
AcDbLinetypeTableRecord
  2
ByBlock
 70
     0
  3

 72
    65
 73
     0
 40
0.0
  0
LTYPE
  5
15
330
5
100
AcDbSymbolTableRecord
100
AcDbLinetypeTableRecord
  2
ByLayer
 70
     0
  3

 72
    65
 73
     0
 40
0.0
  0
LTYPE
  5
16
330
5
100
AcDbSymbolTableRecord
100
AcDbLinetypeTableRecord
  2
Continuous
 70
     0
  3
Solid line
 72
    65
 73
     0
 40
0.0
  0
LTYPE
  5
6A
330
5
100
AcDbSymbolTableRecord
100
AcDbLinetypeTableRecord
  2
HIDDEN
 70
     0
  3
Hidden __ __ __ __ __ __ __ __ __ __ __ __ __ __
 72
    65
 73
     2
 40
1.905
 49
1.27
 74
     0
 49
-0.635
 74
     0
  0
LTYPE
  5
6B
330
5
100
AcDbSymbolTableRecord
100
AcDbLinetypeTableRecord
  2
PHANTOM
 70
     0
  3
Phantom ______  __  __  ______  __  __  ______
 72
    65
 73
     6
 40
12.7
 49
6.35
 74
     0
 49
-1.27
 74
     0
 49
1.27
 74
     0
 49
-1.27
 74
     0
 49
1.27
 74
     0
 49
-1.27
 74
     0
  0
LTYPE
  5
6C
330
5
100
AcDbSymbolTableRecord
100
AcDbLinetypeTableRecord
  2
CENTER
 70
     0
  3
Center ____ _ ____ _ ____ _ ____ _ ____ _ ____
 72
    65
 73
     4
 40
10.16
 49
6.35
 74
     0
 49
-1.27
 74
     0
 49
1.27
 74
     0
 49
-1.27
 74
     0
  0
LTYPE
  5
6D
330
5
100
AcDbSymbolTableRecord
100
AcDbLinetypeTableRecord
  2
CENTERX2
 70
     0
  3
Center (2x) ________  __  ________  __  _____
 72
    65
 73
     4
 40
20.32
 49
12.7
 74
     0
 49
-2.54
 74
     0
 49
2.54
 74
     0
 49
-2.54
 74
     0
  0
LTYPE
  5
6E
330
5
100
AcDbSymbolTableRecord
100
AcDbLinetypeTableRecord
  2
DOT2
 70
     0
  3
Dot (.5x) ........................................
 72
    65
 73
     2
 40
0.635
 49
0.0
 74
     0
 49
-0.635
 74
     0
  0
ENDTAB
  0
TABLE
  2
LAYER
  5
2
102
{ACAD_XDICTIONARY
360
189
102
}
330
0
100
AcDbSymbolTable
 70
    18
  0
LAYER
  5
10
330
2
100
AcDbSymbolTableRecord
100
AcDbLayerTableRecord
  2
0
 70
     0
 62
     7
  6
Continuous
370
    -3
390
F
  0
LAYER
  5
6F
330
2
100
AcDbSymbolTableRecord
100
AcDbLayerTableRecord
  2
FORMAT
 70
     0
 62
     2
  6
Continuous
370
    -3
390
F
  0
LAYER
  5
70
330
2
100
AcDbSymbolTableRecord
100
AcDbLayerTableRecord
  2
외형선
 70
     0
 62
     4
  6
Continuous
370
    30
390
F
  0
LAYER
  5
71
330
2
100
AcDbSymbolTableRecord
100
AcDbLayerTableRecord
  2
숨은선
 70
     0
 62
     2
  6
HIDDEN
370
    15
390
F
  0
LAYER
  5
72
330
2
100
AcDbSymbolTableRecord
100
AcDbLayerTableRecord
  2
중심선
 70
     0
 62
     1
  6
CENTERX2
370
    -3
390
F
  0
LAYER
  5
73
330
2
100
AcDbSymbolTableRecord
100
AcDbLayerTableRecord
  2
파단선
 70
     0
 62
     4
  6
Continuous
370
    -3
390
F
  0
LAYER
  5
74
330
2
100
AcDbSymbolTableRecord
100
AcDbLayerTableRecord
  2
해칭선
 70
     0
 62
   100
  6
Continuous
370
    -3
390
F
  0
LAYER
  5
75
330
2
100
AcDbSymbolTableRecord
100
AcDbLayerTableRecord
  2
가는실선
 70
     0
 62
     4
  6
Continuous
370
    -3
390
F
  0
LAYER
  5
76
330
2
100
AcDbSymbolTableRecord
100
AcDbLayerTableRecord
  2
치수_보조선
 70
     0
 62
     4
  6
Continuous
370
    -3
390
F
  0
LAYER
  5
77
330
2
100
AcDbSymbolTableRecord
100
AcDbLayerTableRecord
  2
치수문자_일반주서
 70
     0
 62
     7
  6
Continuous
370
    15
390
F
  0
LAYER
  5
78
330
2
100
AcDbSymbolTableRecord
100
AcDbLayerTableRecord
  2
개별주서
 70
     0
 62
   100
  6
Continuous
370
    30
390
F
  0
LAYER
  5
79
330
2
100
AcDbSymbolTableRecord
100
AcDbLayerTableRecord
  2
중간선
 70
     0
 62
     2
  6
Continuous
370
    15
390
F
  0
LAYER
  5
7A
330
2
100
AcDbSymbolTableRecord
100
AcDbLayerTableRecord
  2
윤곽선
 70
     0
 62
     3
  6
Continuous
370
    40
390
F
  0
LAYER
  5
7B
330
2
100
AcDbSymbolTableRecord
100
AcDbLayerTableRecord
  2
중심마크
 70
     0
 62
   100
  6
Continuous
370
    30
390
F
  0
LAYER
  5
7C
330
2
100
AcDbSymbolTableRecord
100
AcDbLayerTableRecord
  2
가상선
 70
     0
 62
     4
  6
PHANTOM
370
    -3
390
F
  0
LAYER
  5
7D
330
2
100
AcDbSymbolTableRecord
100
AcDbLayerTableRecord
  2
특수지정선
 70
     0
 62
     5
  6
CENTERX2
370
    60
390
F
  0
LAYER
  5
7E
330
2
100
AcDbSymbolTableRecord
100
AcDbLayerTableRecord
  2
참조1
 70
     0
 62
    -4
  6
Continuous
370
    -3
390
F
  0
LAYER
  5
152
330
2
100
AcDbSymbolTableRecord
100
AcDbLayerTableRecord
  2
Defpoints
 70
     0
 62
     7
  6
Continuous
290
     0
370
    -3
390
F
  0
ENDTAB
  0
TABLE
  2
STYLE
  5
3
330
0
100
AcDbSymbolTable
 70
     2
  0
STYLE
  5
11
330
3
100
AcDbSymbolTableRecord
100
AcDbTextStyleTableRecord
  2
Standard
 70
     0
 40
0.0
 41
1.0
 50
0.0
 71
     0
 42
3.5
  3
txt
  4

  0
STYLE
  5
94
330
3
100
AcDbSymbolTableRecord
100
AcDbTextStyleTableRecord
  2
SLDTEXTSTYLE0
 70
     0
 40
0.0
 41
0.75
 50
0.0
 71
     0
 42
3.5
  3
TXT
  4

  0
ENDTAB
  0
TABLE
  2
VIEW
  5
6
330
0
100
AcDbSymbolTable
 70
     0
  0
ENDTAB
  0
TABLE
  2
UCS
  5
7
330
0
100
AcDbSymbolTable
 70
     0
  0
ENDTAB
  0
TABLE
  2
APPID
  5
9
330
0
100
AcDbSymbolTable
 70
     4
  0
APPID
  5
12
330
9
100
AcDbSymbolTableRecord
100
AcDbRegAppTableRecord
  2
ACAD
 70
     0
  0
APPID
  5
159
330
9
100
AcDbSymbolTableRecord
100
AcDbRegAppTableRecord
  2
PE_URL
 70
     0
  0
APPID
  5
207
330
9
100
AcDbSymbolTableRecord
100
AcDbRegAppTableRecord
  2
ACAD_DSTYLE_DIMFLIPARROW_SYMBOL
 70
     0
  0
APPID
  5
208
330
9
100
AcDbSymbolTableRecord
100
AcDbRegAppTableRecord
  2
ACAD_DSTYLE_DIMFLIPARROW_WHICH_SYMBOL
 70
     0
  0
ENDTAB
  0
TABLE
  2
DIMSTYLE
  5
A
330
0
100
AcDbSymbolTable
 70
     3
100
AcDbDimStyleTable
  0
DIMSTYLE
105
27
330
A
100
AcDbSymbolTableRecord
100
AcDbDimStyleTableRecord
  2
ISO-25
 70
     0
 41
2.5
 42
0.625
 43
3.75
 44
1.25
 73
     0
 74
     0
 77
     1
 78
     8
140
2.5
141
2.5
143
0.03937007874016
147
0.625
171
     3
172
     1
178
     0
271
     2
272
     2
274
     3
278
    44
283
     0
284
     8
340
11
  0
DIMSTYLE
105
D1
102
{ACAD_REACTORS
330
D0
330
E5
330
179
330
10D
330
F8
102
}
330
A
100
AcDbSymbolTableRecord
100
AcDbDimStyleTableRecord
  2
SLDDIMSTYLE0
 70
     0
 41
3.302
 44
0.0
 45
0.000000001
 73
     0
 74
     0
 77
     1
 78
    12
 79
     3
140
3.5
143
0.0393700787401575
147
0.875
148
0.000000001
170
     1
173
     1
178
     0
271
     2
272
     2
276
     2
284
    12
340
94
  0
DIMSTYLE
105
F9
330
A
100
AcDbSymbolTableRecord
100
AcDbDimStyleTableRecord
  2
SLDDIMSTYLE1
 70
     0
 41
3.302
 44
0.0
 45
0.000000001
 73
     0
 74
     0
 77
     1
 78
    12
 79
     3
140
3.5
143
0.0393700787401575
147
0.875
148
0.000000001
170
     1
172
     1
173
     1
178
     0
271
     2
272
     2
276
     2
284
    12
289
     0
340
94
  0
ENDTAB
  0
TABLE
  2
BLOCK_RECORD
  5
1
330
0
100
AcDbSymbolTable
 70
    10
  0
BLOCK_RECORD
  5
1F
330
1
100
AcDbSymbolTableRecord
100
AcDbBlockTableRecord
  2
*Model_Space
340
22
  0
BLOCK_RECORD
  5
1B
330
1
100
AcDbSymbolTableRecord
100
AcDbBlockTableRecord
  2
*Paper_Space
340
1E
  0
BLOCK_RECORD
  5
23
330
1
100
AcDbSymbolTableRecord
100
AcDbBlockTableRecord
  2
*Paper_Space0
340
26
  0
BLOCK_RECORD
  5
7F
330
1
100
AcDbSymbolTableRecord
100
AcDbBlockTableRecord
  2
블럭10
340
0
102
{BLKREFS
331
C9
102
}
  0
BLOCK_RECORD
  5
D2
330
1
100
AcDbSymbolTableRecord
100
AcDbBlockTableRecord
  2
_D
340
0
  0
BLOCK_RECORD
  5
E6
330
1
100
AcDbSymbolTableRecord
100
AcDbBlockTableRecord
  2
_D_1
340
0
  0
BLOCK_RECORD
  5
FA
330
1
100
AcDbSymbolTableRecord
100
AcDbBlockTableRecord
  2
_D_2
340
0
  0
BLOCK_RECORD
  5
10E
330
1
100
AcDbSymbolTableRecord
100
AcDbBlockTableRecord
  2
_D_3
340
0
  0
BLOCK_RECORD
  5
128
330
1
100
AcDbSymbolTableRecord
100
AcDbBlockTableRecord
  2
SW_DOWELSYMBOL_0
340
0
102
{BLKREFS
331
12E
102
}
  0
BLOCK_RECORD
  5
18D
330
1
100
AcDbSymbolTableRecord
100
AcDbBlockTableRecord
  2
*D8
340
0
  0
BLOCK_RECORD
  5
19F
330
1
100
AcDbSymbolTableRecord
100
AcDbBlockTableRecord
  2
*D9
340
0
  0
ENDTAB
  0
ENDSEC
  0
SECTION
  2
BLOCKS
  0
BLOCK
  5
20
330
1F
100
AcDbEntity
  8
0
100
AcDbBlockBegin
  2
*Model_Space
 70
     0
 10
0.0
 20
0.0
 30
0.0
  3
*Model_Space
  1

  0
ENDBLK
  5
21
330
1F
100
AcDbEntity
  8
0
100
AcDbBlockEnd
  0
BLOCK
  5
1C
330
1B
100
AcDbEntity
 67
     1
  8
0
100
AcDbBlockBegin
  2
*Paper_Space
 70
     0
 10
0.0
 20
0.0
 30
0.0
  3
*Paper_Space
  1

  0
ENDBLK
  5
1D
330
1B
100
AcDbEntity
 67
     1
  8
0
100
AcDbBlockEnd
  0
BLOCK
  5
24
330
23
100
AcDbEntity
  8
0
100
AcDbBlockBegin
  2
*Paper_Space0
 70
     0
 10
0.0
 20
0.0
 30
0.0
  3
*Paper_Space0
  1

  0
ENDBLK
  5
25
330
23
100
AcDbEntity
  8
0
100
AcDbBlockEnd
  0
BLOCK
  5
80
330
7F
100
AcDbEntity
  8
0
100
AcDbBlockBegin
  2
블럭10
 70
     2
 10
0.0
 20
0.0
 30
0.0
  3
블럭10
  1

  0
ELLIPSE
  5
82
330
7F
100
AcDbEntity
  8
중심선
100
AcDbEllipse
 10
20.54032771741204
 20
12.0471743016438
 30
0.0
 11
6.600054785286829
 21
-1.261213355974178E-13
 31
0.0
210
0.0
220
0.0
230
1.0
 40
0.636358354079598
 41
0.9219305317359503
 42
6.513795318482858
  0
ELLIPSE
  5
83
330
7F
100
AcDbEntity
  8
중심선
100
AcDbEllipse
 10
20.54032771746488
 20
12.04717430159265
 30
0.0
 11
3.960054785062283
 21
1.540847449632565E-10
 31
0.0
210
0.0
220
0.0
230
1.0
 40
0.3939339440162632
 41
1.131841032648279
 42
5.62031148352944
  0
LINE
  5
84
330
7F
100
AcDbEntity
  8
중심선
100
AcDbLine
 10
2.268634060543552
 20
16.24717430164393
 30
0.0
 11
5.714909304380834
 21
16.24717430164393
 31
0.0
  0
LINE
  5
85
330
7F
100
AcDbEntity
  8
중심선
100
AcDbLine
 10
5.245725140726316
 20
7.84717430164391
 30
0.0
 11
8.692000384563599
 21
7.84717430164391
 31
0.0
  0
LINE
  5
86
330
7F
100
AcDbEntity
  8
중심선
100
AcDbLine
 10
15.74043728645272
 20
16.24717430164393
 30
0.0
 11
8.692000384563599
 21
7.84717430164391
 31
0.0
  0
LINE
  5
87
330
7F
100
AcDbEntity
  8
중심선
100
AcDbLine
 10
0.1404042013395286
 20
13.71084872107135
 30
0.0
 11
3.58671253028996
 21
13.71088815037384
 31
0.0
  0
LINE
  5
88
330
7F
100
AcDbEntity
  8
중심선
100
AcDbLine
 10
2.750260043222114
 20
10.84717430164391
 30
0.0
 11
6.196535287059397
 21
10.84717430164391
 31
0.0
  0
LINE
  5
89
330
7F
100
AcDbEntity
  8
중심선
100
AcDbLine
 10
12.29416204261559
 20
16.24717430164393
 30
0.0
 11
5.245725140726316
 21
7.84717430164391
 31
0.0
  0
LINE
  5
8A
330
7F
100
AcDbEntity
  8
중심선
100
AcDbLine
 10
10.72767329541681
 20
16.24717430164393
 30
0.0
 11
6.196535287059397
 21
10.84717430164391
 31
0.0
  0
LINE
  5
8B
330
7F
100
AcDbEntity
  8
중심선
100
AcDbLine
 10
7.28139805157953
 20
16.24717430164393
 30
0.0
 11
2.750260043222114
 21
10.84717430164391
 31
0.0
  0
LINE
  5
8C
330
7F
100
AcDbEntity
  8
중심선
100
AcDbLine
 10
5.714909304380834
 20
16.24717430164393
 30
0.0
 11
3.58671253028996
 21
13.71088815037384
 31
0.0
  0
LINE
  5
8D
330
7F
100
AcDbEntity
  8
중심선
100
AcDbLine
 10
2.268634060543552
 20
16.24717430164393
 30
0.0
 11
0.1404042013395286
 21
13.71084872107135
 31
0.0
  0
LINE
  5
8E
330
7F
100
AcDbEntity
  8
중심선
100
AcDbLine
 10
7.28139805157953
 20
16.24717430164393
 30
0.0
 11
10.72767329541681
 21
16.24717430164393
 31
0.0
  0
LINE
  5
8F
330
7F
100
AcDbEntity
  8
중심선
100
AcDbLine
 10
12.29416204261559
 20
16.24717430164393
 30
0.0
 11
15.74043728645272
 21
16.24717430164393
 31
0.0
  0
LINE
  5
90
330
7F
100
AcDbEntity
  8
중심선
100
AcDbLine
 10
19.22036997980202
 20
11.08717430171403
 30
0.0
 11
23.66174974927406
 21
11.08717430171406
 31
0.0
  0
LINE
  5
91
330
7F
100
AcDbEntity
  8
중심선
100
AcDbLine
 10
19.22039502424796
 20
13.00717430171391
 30
0.0
 11
19.22036997980202
 21
11.08717430171403
 31
0.0
  0
LINE
  5
92
330
7F
100
AcDbEntity
  8
중심선
100
AcDbLine
 10
19.22039502424796
 20
13.00717430171391
 30
0.0
 11
26.96566020931264
 21
13.00717430171391
 31
0.0
  0
LINE
  5
93
330
7F
100
AcDbEntity
  8
중심선
100
AcDbLine
 10
22.22332737316547
 20
13.45928029700563
 30
0.0
 11
24.52862924686651
 21
15.39360700705356
 31
0.0
  0
ATTDEF
  5
95
330
7F
100
AcDbEntity
  8
FORMAT
 62
     2
100
AcDbText
 10
4.408487351596664
 20
2.075366912832191
 30
0.0
 40
4.233333333333333
  1
E1015010
 41
0.75
  7
SLDTEXTSTYLE0
 11
4.408487351596664
 21
-0.0412997538344756
 31
0.0
100
AcDbAttributeDefinition
  3

  2
AUTOATTR0
 70
     0
 74
     1
  0
ENDBLK
  5
81
330
7F
100
AcDbEntity
  8
0
100
AcDbBlockEnd
  0
BLOCK
  5
D3
330
D2
100
AcDbEntity
  8
0
100
AcDbBlockBegin
  2
_D
 70
     0
 10
0.0
 20
0.0
 30
0.0
  3
_D
  1

  0
LINE
  5
D5
330
D2
100
AcDbEntity
  8
치수문자_일반주서
 62
     0
370
    -2
100
AcDbLine
 10
41.27500000000001
 20
2.046875000000002
 30
0.0
 11
41.27500000000001
 21
12.38125
 31
0.0
  0
LINE
  5
D6
330
D2
100
AcDbEntity
  8
치수문자_일반주서
 62
     0
370
    -2
100
AcDbLine
 10
19.05
 20
1.794554697000328
 30
0.0
 11
19.05
 21
12.38125
 31
0.0
  0
LINE
  5
D7
330
D2
100
AcDbEntity
  8
치수문자_일반주서
 62
     0
370
    -2
100
AcDbLine
 10
41.27500000000001
 20
12.38125
 30
0.0
 11
70.82700000000003
 21
12.38125
 31
0.0
  0
LINE
  5
D8
330
D2
100
AcDbEntity
  8
치수문자_일반주서
 62
     0
370
    -2
100
AcDbLine
 10
41.27500000000001
 20
12.38125
 30
0.0
 11
19.05
 21
12.38125
 31
0.0
  0
LINE
  5
D9
330
D2
100
AcDbEntity
  8
치수문자_일반주서
 62
     0
370
    -2
100
AcDbLine
 10
44.57700000000001
 20
12.38125
 30
0.0
 11
47.879
 21
12.38125
 31
0.0
  0
LINE
  5
DA
330
D2
100
AcDbEntity
  8
치수문자_일반주서
 62
     0
370
    -2
100
AcDbLine
 10
15.748
 20
12.38125
 30
0.0
 11
12.44600000000001
 21
12.38125
 31
0.0
  0
SOLID
  5
DB
330
D2
100
AcDbEntity
  8
치수문자_일반주서
 62
     0
100
AcDbTrace
 10
44.57700000000001
 20
12.93158333333333
 30
0.0
 11
44.57700000000001
 21
11.83091666666667
 31
0.0
 12
41.27500000000001
 22
12.38125
 32
0.0
 13
41.27500000000001
 23
12.38125
 33
0.0
  0
SOLID
  5
DC
330
D2
100
AcDbEntity
  8
치수문자_일반주서
 62
     0
100
AcDbTrace
 10
15.748
 20
11.83091666666667
 30
0.0
 11
15.748
 21
12.93158333333333
 31
0.0
 12
19.05
 22
12.38125
 32
0.0
 13
19.05
 23
12.38125
 33
0.0
  0
MTEXT
  5
DD
330
D2
100
AcDbEntity
  8
치수문자_일반주서
 62
     0
100
AcDbMText
 10
57.70200000000003
 20
16.75625
 30
0.0
 40
3.5
 41
0.0
 71
     2
 72
     1
  1
\A1;22.23 [7/8]
  7
SLDTEXTSTYLE0
 73
     1
 44
1.0
  0
POINT
  5
DE
330
D2
100
AcDbEntity
  8
Defpoints
 62
     0
100
AcDbPoint
 10
41.27500000000001
 20
1.984375000000002
 30
0.0
  0
POINT
  5
1B3
330
D2
100
AcDbEntity
  8
Defpoints
 62
     0
100
AcDbPoint
 10
19.05
 20
1.732054697000328
 30
0.0
  0
POINT
  5
1B4
330
D2
100
AcDbEntity
  8
Defpoints
 62
     0
100
AcDbPoint
 10
19.05
 20
12.38125
 30
0.0
  0
ENDBLK
  5
D4
330
D2
100
AcDbEntity
  8
0
100
AcDbBlockEnd
  0
BLOCK
  5
E7
330
E6
100
AcDbEntity
  8
0
100
AcDbBlockBegin
  2
_D_1
 70
     0
 10
0.0
 20
0.0
 30
0.0
  3
_D_1
  1

  0
LINE
  5
E9
330
E6
100
AcDbEntity
  8
치수문자_일반주서
 62
     0
370
    -2
100
AcDbLine
 10
41.27500000000001
 20
2.046875000000002
 30
0.0
 11
41.27500000000001
 21
22.38125
 31
0.0
  0
LINE
  5
EA
330
E6
100
AcDbEntity
  8
치수문자_일반주서
 62
     0
370
    -2
100
AcDbLine
 10
-41.27499999999998
 20
2.046875
 30
0.0
 11
-41.27499999999998
 21
22.38125
 31
0.0
  0
LINE
  5
EB
330
E6
100
AcDbEntity
  8
치수문자_일반주서
 62
     0
370
    -2
100
AcDbLine
 10
37.97300000000001
 20
22.38125
 30
0.0
 11
-37.97299999999998
 21
22.38125
 31
0.0
  0
SOLID
  5
EC
330
E6
100
AcDbEntity
  8
치수문자_일반주서
 62
     0
100
AcDbTrace
 10
37.97300000000001
 20
21.83091666666667
 30
0.0
 11
37.97300000000001
 21
22.93158333333334
 31
0.0
 12
41.27500000000001
 22
22.38125
 32
0.0
 13
41.27500000000001
 23
22.38125
 33
0.0
  0
SOLID
  5
ED
330
E6
100
AcDbEntity
  8
치수문자_일반주서
 62
     0
100
AcDbTrace
 10
-37.97299999999998
 20
22.93158333333334
 30
0.0
 11
-37.97299999999998
 21
21.83091666666667
 31
0.0
 12
-41.27499999999998
 22
22.38125
 32
0.0
 13
-41.27499999999998
 23
22.38125
 33
0.0
  0
MTEXT
  5
EE
330
E6
100
AcDbEntity
  8
치수문자_일반주서
 62
     0
100
AcDbMText
 10
-0.0000000000000142
 20
26.75625
 30
0.0
 40
3.5
 41
0.0
 71
     2
 72
     1
  1
\A1;82.55 [3 1/4]
  7
SLDTEXTSTYLE0
 73
     1
 44
1.0
  0
POINT
  5
EF
330
E6
100
AcDbEntity
  8
Defpoints
 62
     0
100
AcDbPoint
 10
41.27500000000001
 20
1.984375000000002
 30
0.0
  0
POINT
  5
F0
330
E6
100
AcDbEntity
  8
Defpoints
 62
     0
100
AcDbPoint
 10
-41.27499999999998
 20
1.984375
 30
0.0
  0
POINT
  5
F1
330
E6
100
AcDbEntity
  8
Defpoints
 62
     0
100
AcDbPoint
 10
-41.27499999999998
 20
22.38125
 30
0.0
  0
ENDBLK
  5
E8
330
E6
100
AcDbEntity
  8
0
100
AcDbBlockEnd
  0
BLOCK
  5
FB
330
FA
100
AcDbEntity
  8
0
100
AcDbBlockBegin
  2
_D_2
 70
     0
 10
0.0
 20
0.0
 30
0.0
  3
_D_2
  1

  0
LINE
  5
FD
330
FA
100
AcDbEntity
  8
치수문자_일반주서
 62
     0
370
    -2
100
AcDbLine
 10
-16.6313423357461
 20
2.381249999999997
 30
0.0
 11
-51.27500000000001
 21
2.381249999999866
 31
0.0
  0
LINE
  5
FE
330
FA
100
AcDbEntity
  8
치수문자_일반주서
 62
     0
370
    -2
100
AcDbLine
 10
-16.6313423357461
 20
-2.381250000000004
 30
0.0
 11
-51.27499999999999
 21
-2.381250000000133
 31
0.0
  0
LINE
  5
FF
330
FA
100
AcDbEntity
  8
치수문자_일반주서
 62
     0
370
    -2
100
AcDbLine
 10
-51.27500000000001
 20
2.381249999999866
 30
0.0
 11
-51.27500000000011
 21
36.98524999999995
 31
0.0
  0
LINE
  5
100
330
FA
100
AcDbEntity
  8
치수문자_일반주서
 62
     0
370
    -2
100
AcDbLine
 10
-51.27500000000001
 20
5.683249999999866
 30
0.0
 11
-51.27500000000002
 21
8.985249999999866
 31
0.0
  0
LINE
  5
101
330
FA
100
AcDbEntity
  8
치수문자_일반주서
 62
     0
370
    -2
100
AcDbLine
 10
-51.27499999999998
 20
-5.683250000000132
 30
0.0
 11
-51.27499999999998
 21
-8.985250000000132
 31
0.0
  0
SOLID
  5
102
330
FA
100
AcDbEntity
  8
치수문자_일반주서
 62
     0
100
AcDbTrace
 10
-51.82533333333335
 20
5.683249999999864
 30
0.0
 11
-50.72466666666668
 21
5.683249999999868
 31
0.0
 12
-51.27500000000001
 22
2.381249999999866
 32
0.0
 13
-51.27500000000001
 23
2.381249999999866
 33
0.0
  0
SOLID
  5
103
330
FA
100
AcDbEntity
  8
치수문자_일반주서
 62
     0
100
AcDbTrace
 10
-50.72466666666665
 20
-5.683250000000131
 30
0.0
 11
-51.82533333333332
 21
-5.683250000000134
 31
0.0
 12
-51.27499999999999
 22
-2.381250000000133
 32
0.0
 13
-51.27499999999999
 23
-2.381250000000133
 33
0.0
  0
MTEXT
  5
104
330
FA
100
AcDbEntity
  8
치수문자_일반주서
 62
     0
100
AcDbMText
 10
-55.65000000000007
 20
22.98524999999994
 30
0.0
 40
3.5
 41
0.0
 71
     2
 72
     1
  1
\A1;%%c4.76 [3/16]
  7
SLDTEXTSTYLE0
 11
-2.983906501879685E-15
 21
1.0
 31
0.0
 73
     1
 44
1.0
  0
POINT
  5
105
330
FA
100
AcDbEntity
  8
Defpoints
 62
     0
100
AcDbPoint
 10
-16.5688423357461
 20
2.381249999999998
 30
0.0
  0
POINT
  5
106
330
FA
100
AcDbEntity
  8
Defpoints
 62
     0
100
AcDbPoint
 10
-16.5688423357461
 20
-2.381250000000003
 30
0.0
  0
POINT
  5
1B2
330
FA
100
AcDbEntity
  8
Defpoints
 62
     0
100
AcDbPoint
 10
-51.27499999999999
 20
-2.381250000000133
 30
0.0
  0
ENDBLK
  5
FC
330
FA
100
AcDbEntity
  8
0
100
AcDbBlockEnd
  0
BLOCK
  5
10F
330
10E
100
AcDbEntity
  8
0
100
AcDbBlockBegin
  2
_D_3
 70
     0
 10
0.0
 20
0.0
 30
0.0
  3
_D_3
  1

  0
LINE
  5
111
330
10E
100
AcDbEntity
  8
치수문자_일반주서
 62
     0
370
    -2
100
AcDbLine
 10
41.33750000000001
 20
1.984375000000002
 30
0.0
 11
77.14061209964868
 21
1.984375000000139
 31
0.0
  0
LINE
  5
112
330
10E
100
AcDbEntity
  8
치수문자_일반주서
 62
     0
370
    -2
100
AcDbLine
 10
41.33750000000001
 20
-1.984374999999998
 30
0.0
 11
77.14061209964869
 21
-1.984374999999861
 31
0.0
  0
LINE
  5
113
330
10E
100
AcDbEntity
  8
치수문자_일반주서
 62
     0
370
    -2
100
AcDbLine
 10
77.14061209964868
 20
1.984375000000139
 30
0.0
 11
77.14061209964855
 21
37.46337500000014
 31
0.0
  0
LINE
  5
114
330
10E
100
AcDbEntity
  8
치수문자_일반주서
 62
     0
370
    -2
100
AcDbLine
 10
77.14061209964866
 20
5.286375000000138
 30
0.0
 11
77.14061209964865
 21
8.588375000000138
 31
0.0
  0
LINE
  5
115
330
10E
100
AcDbEntity
  8
치수문자_일반주서
 62
     0
370
    -2
100
AcDbLine
 10
77.1406120996487
 20
-5.286374999999861
 30
0.0
 11
77.14061209964872
 21
-8.58837499999986
 31
0.0
  0
SOLID
  5
116
330
10E
100
AcDbEntity
  8
치수문자_일반주서
 62
     0
100
AcDbTrace
 10
76.59027876631534
 20
5.286375000000136
 30
0.0
 11
77.69094543298199
 21
5.28637500000014
 31
0.0
 12
77.14061209964868
 22
1.984375000000139
 32
0.0
 13
77.14061209964868
 23
1.984375000000139
 33
0.0
  0
SOLID
  5
117
330
10E
100
AcDbEntity
  8
치수문자_일반주서
 62
     0
100
AcDbTrace
 10
77.69094543298203
 20
-5.286374999999859
 30
0.0
 11
76.59027876631538
 21
-5.286374999999863
 31
0.0
 12
77.14061209964869
 22
-1.984374999999861
 32
0.0
 13
77.14061209964869
 23
-1.984374999999861
 33
0.0
  0
MTEXT
  5
118
330
10E
100
AcDbEntity
  8
치수문자_일반주서
 62
     0
100
AcDbMText
 10
72.7656120996486
 20
23.02587500000012
 30
0.0
 40
3.5
 41
0.0
 71
     2
 72
     1
  1
\A1;%%c3.97 [5/32]
  7
SLDTEXTSTYLE0
 11
-3.580687802255623E-15
 21
1.0
 31
0.0
 73
     1
 44
1.0
  0
POINT
  5
119
330
10E
100
AcDbEntity
  8
Defpoints
 62
     0
100
AcDbPoint
 10
41.27500000000001
 20
1.984375000000002
 30
0.0
  0
POINT
  5
11A
330
10E
100
AcDbEntity
  8
Defpoints
 62
     0
100
AcDbPoint
 10
41.27500000000001
 20
-1.984374999999998
 30
0.0
  0
POINT
  5
11B
330
10E
100
AcDbEntity
  8
Defpoints
 62
     0
100
AcDbPoint
 10
77.1406120996487
 20
-1.984374999999864
 30
0.0
  0
ENDBLK
  5
110
330
10E
100
AcDbEntity
  8
0
100
AcDbBlockEnd
  0
BLOCK
  5
129
330
128
100
AcDbEntity
  8
0
100
AcDbBlockBegin
  2
SW_DOWELSYMBOL_0
 70
     0
 10
0.0
 20
0.0
 30
0.0
  3
SW_DOWELSYMBOL_0
  1

  0
CIRCLE
  5
12B
330
128
100
AcDbEntity
  8
해칭선
 62
     0
100
AcDbCircle
 10
0.0
 20
0.0
 30
0.0
 40
3.000000000000001
  0
HATCH
  5
12C
330
128
100
AcDbEntity
  8
0
  6
Continuous
 62
     0
370
     0
100
AcDbHatch
 10
0.0
 20
0.0
 30
0.0
210
0.0
220
0.0
230
1.0
  2
SOLID
 70
     1
 71
     0
 91
        1
 92
        0
 93
        3
 72
     2
 10
0.0
 20
0.0
 40
3.000000000000001
 50
0.0
 51
90.0
 73
     1
 72
     1
 10
0.0
 20
3.000000000000001
 11
0.0
 21
0.0
 72
     1
 10
0.0
 20
0.0
 11
3.000000000000001
 21
0.0
 97
        0
 75
     0
 76
     1
 98
        1
 10
0.0
 20
0.0
  0
HATCH
  5
12D
330
128
100
AcDbEntity
  8
0
  6
Continuous
 62
     0
370
     0
100
AcDbHatch
 10
0.0
 20
0.0
 30
0.0
210
0.0
220
0.0
230
1.0
  2
SOLID
 70
     1
 71
     0
 91
        1
 92
        0
 93
        3
 72
     2
 10
0.0
 20
0.0
 40
3.000000000000001
 50
180.0
 51
270.0000000000008
 73
     1
 72
     1
 10
0.0
 20
-3.000000000000001
 11
0.0
 21
0.0
 72
     1
 10
0.0
 20
0.0
 11
-3.000000000000001
 21
0.0
 97
        0
 75
     0
 76
     1
 98
        1
 10
0.0
 20
0.0
  0
ENDBLK
  5
12A
330
128
100
AcDbEntity
  8
0
100
AcDbBlockEnd
  0
BLOCK
  5
18E
330
18D
100
AcDbEntity
  8
0
100
AcDbBlockBegin
  2
*D8
 70
     1
 10
0.0
 20
0.0
 30
0.0
  3
*D8
  1

  0
LINE
  5
190
330
18D
100
AcDbEntity
  8
치수문자_일반주서
 62
     0
370
    -2
100
AcDbLine
 10
25.65399999999999
 20
3.236757328708212
 30
0.0
 11
25.65399999999999
 21
13.9680073287082
 31
0.0
  0
LINE
  5
191
330
18D
100
AcDbEntity
  8
치수문자_일반주서
 62
     0
370
    -2
100
AcDbLine
 10
6.603999999999999
 20
3.234952441387128
 30
0.0
 11
6.603999999999999
 21
13.9680073287082
 31
0.0
  0
LINE
  5
192
330
18D
100
AcDbEntity
  8
치수문자_일반주서
 62
     0
370
    -2
100
AcDbLine
 10
25.65399999999999
 20
13.9680073287082
 30
0.0
 11
54.11224999999998
 21
13.9680073287082
 31
0.0
  0
LINE
  5
193
330
18D
100
AcDbEntity
  8
치수문자_일반주서
 62
     0
370
    -2
100
AcDbLine
 10
25.65399999999999
 20
13.9680073287082
 30
0.0
 11
6.603999999999999
 21
13.9680073287082
 31
0.0
  0
LINE
  5
194
330
18D
100
AcDbEntity
  8
치수문자_일반주서
 62
     0
370
    -2
100
AcDbLine
 10
28.95599999999999
 20
13.9680073287082
 30
0.0
 11
32.25799999999999
 21
13.9680073287082
 31
0.0
  0
LINE
  5
195
330
18D
100
AcDbEntity
  8
치수문자_일반주서
 62
     0
370
    -2
100
AcDbLine
 10
3.302
 20
13.9680073287082
 30
0.0
 11
0.0
 21
13.9680073287082
 31
0.0
  0
SOLID
  5
196
330
18D
100
AcDbEntity
  8
치수문자_일반주서
 62
     0
100
AcDbTrace
 10
28.95599999999999
 20
14.51834066204153
 30
0.0
 11
28.95599999999999
 21
13.41767399537487
 31
0.0
 12
25.65399999999999
 22
13.9680073287082
 32
0.0
 13
25.65399999999999
 23
13.9680073287082
 33
0.0
  0
SOLID
  5
197
330
18D
100
AcDbEntity
  8
치수문자_일반주서
 62
     0
100
AcDbTrace
 10
3.302
 20
13.41767399537487
 30
0.0
 11
3.302
 21
14.51834066204153
 31
0.0
 12
6.603999999999999
 22
13.9680073287082
 32
0.0
 13
6.603999999999999
 23
13.9680073287082
 33
0.0
  0
MTEXT
  5
198
330
18D
100
AcDbEntity
  8
치수문자_일반주서
 62
     0
100
AcDbMText
 10
41.64349999999998
 20
18.3430073287082
 30
0.0
 40
3.5
 41
0.0
 71
     2
 72
     1
  1
\A1;19.05 [3/4]
  7
SLDTEXTSTYLE0
 73
     1
 44
1.0
  0
POINT
  5
199
330
18D
100
AcDbEntity
  8
Defpoints
 62
     0
100
AcDbPoint
 10
25.65399999999999
 20
3.174257328708212
 30
0.0
  0
POINT
  5
19A
330
18D
100
AcDbEntity
  8
Defpoints
 62
     0
100
AcDbPoint
 10
6.603999999999999
 20
3.172452441387128
 30
0.0
  0
POINT
  5
19B
330
18D
100
AcDbEntity
  8
Defpoints
 62
     0
100
AcDbPoint
 10
6.603999999999999
 20
13.9680073287082
 30
0.0
  0
ENDBLK
  5
18F
330
18D
100
AcDbEntity
  8
0
100
AcDbBlockEnd
  0
BLOCK
  5
1A0
330
19F
100
AcDbEntity
  8
0
100
AcDbBlockBegin
  2
*D9
 70
     1
 10
0.0
 20
0.0
 30
0.0
  3
*D9
  1

  0
LINE
  5
1A2
330
19F
100
AcDbEntity
  8
치수문자_일반주서
 62
     0
370
    -2
100
AcDbLine
 10
50.63306157870159
 20
-28.12832017078665
 30
0.0
 11
50.63306157870159
 21
-17.39707017078667
 31
0.0
  0
LINE
  5
1A3
330
19F
100
AcDbEntity
  8
치수문자_일반주서
 62
     0
370
    -2
100
AcDbLine
 10
31.5830615787016
 20
-28.13012505810774
 30
0.0
 11
31.5830615787016
 21
-17.39707017078667
 31
0.0
  0
LINE
  5
1A4
330
19F
100
AcDbEntity
  8
치수문자_일반주서
 62
     0
370
    -2
100
AcDbLine
 10
50.63306157870159
 20
-17.39707017078667
 30
0.0
 11
79.09131157870158
 21
-17.39707017078667
 31
0.0
  0
LINE
  5
1A5
330
19F
100
AcDbEntity
  8
치수문자_일반주서
 62
     0
370
    -2
100
AcDbLine
 10
50.63306157870159
 20
-17.39707017078667
 30
0.0
 11
31.5830615787016
 21
-17.39707017078667
 31
0.0
  0
LINE
  5
1A6
330
19F
100
AcDbEntity
  8
치수문자_일반주서
 62
     0
370
    -2
100
AcDbLine
 10
53.93506157870159
 20
-17.39707017078667
 30
0.0
 11
57.23706157870159
 21
-17.39707017078667
 31
0.0
  0
LINE
  5
1A7
330
19F
100
AcDbEntity
  8
치수문자_일반주서
 62
     0
370
    -2
100
AcDbLine
 10
28.2810615787016
 20
-17.39707017078667
 30
0.0
 11
24.9790615787016
 21
-17.39707017078667
 31
0.0
  0
SOLID
  5
1A8
330
19F
100
AcDbEntity
  8
치수문자_일반주서
 62
     0
100
AcDbTrace
 10
53.93506157870159
 20
-16.84673683745333
 30
0.0
 11
53.93506157870159
 21
-17.94740350412
 31
0.0
 12
50.63306157870159
 22
-17.39707017078667
 32
0.0
 13
50.63306157870159
 23
-17.39707017078667
 33
0.0
  0
SOLID
  5
1A9
330
19F
100
AcDbEntity
  8
치수문자_일반주서
 62
     0
100
AcDbTrace
 10
28.2810615787016
 20
-17.94740350412
 30
0.0
 11
28.2810615787016
 21
-16.84673683745333
 31
0.0
 12
31.5830615787016
 22
-17.39707017078667
 32
0.0
 13
31.5830615787016
 23
-17.39707017078667
 33
0.0
  0
MTEXT
  5
1AA
330
19F
100
AcDbEntity
  8
치수문자_일반주서
 62
     0
100
AcDbMText
 10
66.62256157870158
 20
-13.02207017078667
 30
0.0
 40
3.5
 41
0.0
 71
     2
 72
     1
  1
\A1;19.05 [3/4]
  7
SLDTEXTSTYLE0
 73
     1
 44
1.0
  0
POINT
  5
1AB
330
19F
100
AcDbEntity
  8
Defpoints
 62
     0
100
AcDbPoint
 10
50.63306157870159
 20
-28.19082017078665
 30
0.0
  0
POINT
  5
1AC
330
19F
100
AcDbEntity
  8
Defpoints
 62
     0
100
AcDbPoint
 10
31.5830615787016
 20
-28.19262505810774
 30
0.0
  0
POINT
  5
1AD
330
19F
100
AcDbEntity
  8
Defpoints
 62
     0
100
AcDbPoint
 10
31.5830615787016
 20
-17.39707017078667
 30
0.0
  0
ENDBLK
  5
1A1
330
19F
100
AcDbEntity
  8
0
100
AcDbBlockEnd
  0
ENDSEC
  0
SECTION
  2
ENTITIES
  0
LINE
  5
96
330
1F
100
AcDbEntity
  8
외형선
  6
Continuous
370
    15
100
AcDbLine
 10
16.5688423357461
 20
2.381250000000002
 30
0.0
 11
-16.5688423357461
 21
2.381249999999998
 31
0.0
  0
LINE
  5
97
330
1F
100
AcDbEntity
  8
외형선
  6
Continuous
370
    15
100
AcDbLine
 10
-16.5688423357461
 20
-2.381250000000003
 30
0.0
 11
16.5688423357461
 21
-2.381249999999999
 31
0.0
  0
LINE
  5
9A
330
1F
100
AcDbEntity
  8
외형선
  6
Continuous
370
    15
100
AcDbLine
 10
16.5688423357461
 20
-2.381249999999998
 30
0.0
 11
18.05
 21
-1.984374999999998
 31
0.0
  0
LINE
  5
9B
330
1F
100
AcDbEntity
  8
외형선
  6
Continuous
370
    15
100
AcDbLine
 10
18.05
 20
1.984375000000002
 30
0.0
 11
16.5688423357461
 21
2.381250000000001
 31
0.0
  0
LINE
  5
9C
330
1F
100
AcDbEntity
  8
외형선
  6
Continuous
370
    15
100
AcDbLine
 10
19.05
 20
1.984375000000002
 30
0.0
 11
18.05
 21
1.984375000000002
 31
0.0
  0
LINE
  5
9D
330
1F
100
AcDbEntity
  8
외형선
  6
Continuous
370
    15
100
AcDbLine
 10
18.05
 20
-1.984374999999998
 30
0.0
 11
19.05
 21
-1.984374999999998
 31
0.0
  0
LINE
  5
9E
330
1F
100
AcDbEntity
  8
0
  6
Continuous
 62
     1
370
    15
100
AcDbLine
 10
38.89316966880403
 20
-1.984374999999998
 30
0.0
 11
39.29062500000001
 21
-1.984374999999998
 31
0.0
1001
PE_URL
1000

  0
LINE
  5
9F
330
1F
100
AcDbEntity
  8
0
  6
Continuous
 62
     1
370
    15
100
AcDbLine
 10
19.05
 20
-1.984374999999998
 30
0.0
 11
21.61206048758671
 21
-1.984374999999998
 31
0.0
1001
PE_URL
1000

  0
LINE
  5
A0
330
1F
100
AcDbEntity
  8
0
  6
Continuous
 62
     1
370
    15
100
AcDbLine
 10
32.40820667311624
 20
1.984375000000002
 30
0.0
 11
28.09536685337802
 21
1.984375000000002
 31
0.0
1001
PE_URL
1000

  0
LINE
  5
A1
330
1F
100
AcDbEntity
  8
0
  6
Continuous
 62
     1
370
    15
100
AcDbLine
 10
28.09536685337801
 20
-1.984374999999998
 30
0.0
 11
32.40942493223001
 21
-1.984374999999998
 31
0.0
1001
PE_URL
1000

  0
LINE
  5
A2
330
1F
100
AcDbEntity
  8
0
  6
Continuous
 62
     1
370
    15
100
AcDbLine
 10
21.6121567928969
 20
1.984375000000002
 30
0.0
 11
19.05
 21
1.984375000000002
 31
0.0
1001
PE_URL
1000

  0
LINE
  5
A3
330
1F
100
AcDbEntity
  8
0
  6
Continuous
 62
     1
370
    15
100
AcDbLine
 10
39.29062500000001
 20
1.984375000000002
 30
0.0
 11
38.89316966880405
 21
1.984375000000002
 31
0.0
1001
PE_URL
1000

  0
ARC
  5
A4
330
1F
100
AcDbEntity
  8
0
  6
Continuous
 62
     1
370
    15
100
AcDbCircle
 10
39.29062500000001
 20
0.000000000000002
 30
0.0
 40
1.984374999999998
100
AcDbArc
 50
270.0000000000008
 51
0.0
1001
PE_URL
1000

  0
ARC
  5
A5
330
1F
100
AcDbEntity
  8
0
  6
Continuous
 62
     1
370
    15
100
AcDbCircle
 10
39.29062500000001
 20
0.000000000000002
 30
0.0
 40
1.984374999999997
100
AcDbArc
 50
0.0
 51
90.0
1001
PE_URL
1000

  0
LINE
  5
A6
330
1F
100
AcDbEntity
  8
외형선
  6
Continuous
370
    15
100
AcDbLine
 10
16.5688423357461
 20
2.381250000000001
 30
0.0
 11
16.5688423357461
 21
-2.381249999999999
 31
0.0
  0
LINE
  5
A9
330
1F
100
AcDbEntity
  8
외형선
  6
Continuous
370
    15
100
AcDbLine
 10
18.05
 20
1.984375000000002
 30
0.0
 11
18.05
 21
-1.984374999999998
 31
0.0
  0
SPLINE
  5
AA
330
1F
100
AcDbEntity
  8
외형선
  6
Continuous
370
    15
100
AcDbSpline
210
0.0
220
0.0
230
1.0
 70
     8
 71
     3
 72
     8
 73
     4
 74
     0
 42
0.000000001
 43
0.00000001
 40
0.0
 40
0.0
 40
0.0
 40
0.0
 40
1.0
 40
1.0
 40
1.0
 40
1.0
 10
19.05000000000001
 20
1.732054697000325
 30
0.0
 10
18.75128471059774
 20
1.81589850412247
 30
0.0
 10
18.4587301270298
 20
1.879757218129313
 30
0.0
 10
18.16005308617629
 20
1.922369589169385
 30
0.0
  0
SPLINE
  5
AB
330
1F
100
AcDbEntity
  8
외형선
  6
Continuous
370
    15
100
AcDbSpline
210
0.0
220
0.0
230
1.0
 70
     8
 71
     3
 72
     8
 73
     4
 74
     0
 42
0.000000001
 43
0.00000001
 40
0.0
 40
0.0
 40
0.0
 40
0.0
 40
1.0
 40
1.0
 40
1.0
 40
1.0
 10
19.05000000000003
 20
-1.458505160631173
 30
0.0
 10
18.75132538922673
 20
-1.342019392043525
 30
0.0
 10
18.458811013007
 20
-1.209998356561736
 30
0.0
 10
18.16017510634321
 20
-1.065055564863113
 30
0.0
  0
LINE
  5
AC
330
1F
100
AcDbEntity
  8
외형선
  6
Continuous
370
    15
100
AcDbLine
 10
19.05
 20
-1.458505160633092
 30
0.0
 11
19.05
 21
-1.984374999999998
 31
0.0
  0
LINE
  5
AD
330
1F
100
AcDbEntity
  8
외형선
  6
Continuous
370
    15
100
AcDbLine
 10
19.05
 20
1.984375000000002
 30
0.0
 11
19.05
 21
1.73205469700033
 31
0.0
  0
LINE
  5
AE
330
1F
100
AcDbEntity
  8
외형선
  6
Continuous
370
    15
100
AcDbLine
 10
18.16017510613368
 20
-1.065157485006239
 30
0.0
 11
18.16017510613368
 21
1.922393849365634
 31
0.0
  0
SPLINE
  5
AF
330
1F
100
AcDbEntity
  8
외형선
  6
Continuous
370
    15
100
AcDbSpline
210
0.0
220
0.0
230
1.0
 70
    24
 71
     3
 72
    14
 73
    10
 74
     0
 42
0.000000001
 43
0.00000001
 40
0.0
 40
0.0
 40
0.0
 40
0.0
 40
0.2499999999999999
 40
0.2499999999999999
 40
0.4999999999999999
 40
0.4999999999999999
 40
0.75
 40
0.75
 40
1.0
 40
1.0
 40
1.0
 40
1.0
 10
19.04999999999999
 20
0.2459616643654787
 30
0.0
 10
19.04999999999999
 20
0.1569431966761352
 30
0.0
 10
19.04999999999999
 20
0.0484825304576395
 30
0.0
 10
19.04999999999999
 20
-0.2085437941478109
 30
0.0
 10
19.04999999999999
 20
-0.3574467393207399
 30
0.0
 10
19.04999999999999
 20
-0.6781215185202872
 30
0.0
 10
19.04999999999999
 20
-0.8495361192078101
 30
0.0
 10
19.04999999999999
 20
-1.176415494323882
 30
0.0
 10
19.04999999999999
 20
-1.330826680025876
 30
0.0
 10
19.04999999999999
 20
-1.458505160632248
 30
0.0
  0
SPLINE
  5
B0
330
1F
100
AcDbEntity
  8
외형선
  6
Continuous
370
    15
100
AcDbSpline
210
0.0
220
0.0
230
1.0
 70
     8
 71
     3
 72
     8
 73
     4
 74
     0
 42
0.000000001
 43
0.00000001
 40
0.0
 40
0.0
 40
0.0
 40
0.0
 40
1.0
 40
1.0
 40
1.0
 40
1.0
 10
19.05000000000003
 20
0.2459616643654637
 30
0.0
 10
18.75132538915688
 20
0.3609943659836125
 30
0.0
 10
18.45881101286731
 20
0.4724792667710504
 30
0.0
 10
18.16017510613368
 20
0.5782115380584942
 30
0.0
  0
SPLINE
  5
B1
330
1F
100
AcDbEntity
  8
외형선
  6
Continuous
370
    15
100
AcDbSpline
210
0.0
220
0.0
230
1.0
 70
    24
 71
     3
 72
    14
 73
    10
 74
     0
 42
0.000000001
 43
0.00000001
 40
0.0
 40
0.0
 40
0.0
 40
0.0
 40
0.25
 40
0.25
 40
0.4999999999999999
 40
0.4999999999999999
 40
0.75
 40
0.75
 40
1.0
 40
1.0
 40
1.0
 40
1.0
 10
19.04999999999999
 20
1.732054696989962
 30
0.0
 10
19.04999999999999
 20
1.594717820868475
 30
0.0
 10
19.04999999999999
 20
1.44178873478297
 30
0.0
 10
19.04999999999999
 20
1.137018896416893
 30
0.0
 10
19.04999999999999
 20
0.9859065617759607
 30
0.0
 10
19.04999999999999
 20
0.7138315362034509
 30
0.0
 10
19.04999999999999
 20
0.592989345358793
 30
0.0
 10
19.04999999999999
 20
0.3911923779157957
 30
0.0
 10
19.04999999999999
 20
0.3099249548292584
 30
0.0
 10
19.04999999999999
 20
0.2459616643654789
 30
0.0
  0
SPLINE
  5
B2
330
1F
100
AcDbEntity
  8
0
  6
Continuous
 62
     1
370
    15
100
AcDbSpline
210
0.0
220
0.0
230
1.0
 70
     8
 71
     3
 72
    31
 73
    27
 74
     0
 42
0.000000001
 43
0.00000001
 40
0.0
 40
0.0
 40
0.0
 40
0.0
 40
0.0291664420836537
 40
0.0715426263709941
 40
0.1133629225837751
 40
0.1554737210504352
 40
0.1972903924056864
 40
0.2393971840589998
 40
0.2823993205657497
 40
0.3257168696432266
 40
0.367835034256167
 40
0.4102497132821238
 40
0.4535812496643341
 40
0.4972363421469148
 40
0.5392937102052853
 40
0.5816477583984377
 40
0.62322845361306
 40
0.6650966029262784
 40
0.7066434514542321
 40
0.7484777634089168
 40
0.7900246263343428
 40
0.8318590195322486
 40
0.8745801121561444
 40
0.9176134141121104
 40
0.9595394139546475
 40
1.0
 40
1.0
 40
1.0
 40
1.0
 10
35.29049902894108
 20
-1.323028019802936
 30
0.0
 10
35.15742325625158
 20
-1.379882376863861
 30
0.0
 10
34.83100050447228
 20
-1.519340937256885
 30
0.0
 10
34.3145862848618
 20
-1.69448233858911
 30
0.0
 10
33.73839900033457
 20
-1.846498384062446
 30
0.0
 10
33.16511034484004
 20
-1.945553374564814
 30
0.0
 10
32.59071181864334
 20
-1.990846337855021
 30
0.0
 10
32.01150402546124
 20
-1.980658345513777
 30
0.0
 10
31.42669769667744
 20
-1.91290275813411
 30
0.0
 10
30.84008620602751
 20
-1.790285871148977
 30
0.0
 10
30.25826751654406
 20
-1.615110222536287
 30
0.0
 10
29.67407454416889
 20
-1.396271091209053
 30
0.0
 10
29.08524580727123
 20
-1.13105593033259
 30
0.0
 10
28.49571379518818
 20
-0.8363252863928325
 30
0.0
 10
27.91278948616159
 20
-0.5165613339152676
 30
0.0
 10
27.33750317847854
 20
-0.1903792754050283
 30
0.0
 10
26.76454439138615
 20
0.1429742137343964
 30
0.0
 10
26.19422474024092
 20
0.4685335320324977
 30
0.0
 10
25.62334207037161
 20
0.7828493487581076
 30
0.0
 10
25.05383334997351
 20
1.074684370767676
 30
0.0
 10
24.48259957492395
 20
1.3371459978808
 30
0.0
 10
23.90820079240355
 20
1.565356765515958
 30
0.0
 10
23.32568182612759
 20
1.750871706916926
 30
0.0
 10
22.7444573245864
 20
1.886127417523917
 30
0.0
 10
22.17163078942714
 20
1.969385690271052
 30
0.0
 10
21.79642351569171
 20
1.978686251794306
 30
0.0
 10
21.6121567928969
 20
1.983253817809165
 30
0.0
1001
PE_URL
1000

  0
SPLINE
  5
B3
330
1F
100
AcDbEntity
  8
0
  6
Continuous
 62
     1
370
    15
100
AcDbSpline
210
0.0
220
0.0
230
1.0
 70
     8
 71
     3
 72
    20
 73
    16
 74
     0
 42
0.000000001
 43
0.00000001
 40
0.0
 40
0.0
 40
0.0
 40
0.0
 40
0.0490167400159229
 40
0.1323311507020133
 40
0.2156833801280068
 40
0.2990890896431145
 40
0.3825235577295109
 40
0.4659014181089325
 40
0.5492333541427715
 40
0.6325351405478272
 40
0.7158227210238957
 40
0.799112119121941
 40
0.8824193481679149
 40
0.9657603213076325
 40
1.0
 40
1.0
 40
1.0
 40
1.0
 10
36.0634722499555
 20
-1.336526174200543
 30
0.0
 10
35.87466473409962
 20
-1.342032949513083
 30
0.0
 10
35.36493855022287
 20
-1.356899664711382
 30
0.0
 10
34.53412422060832
 20
-1.263002850246429
 30
0.0
 10
33.57080444281138
 20
-1.073135821827385
 30
0.0
 10
32.60695550209907
 20
-0.7948123477614566
 30
0.0
 10
31.64295119568
 20
-0.4558257268466642
 30
0.0
 10
30.67932992624003
 20
-0.0808006194758879
 30
0.0
 10
29.71626381401294
 20
0.3003213327804942
 30
0.0
 10
28.75358182512299
 20
0.658115631717669
 30
0.0
 10
27.79107896069986
 20
0.9641024851416843
 30
0.0
 10
26.82855426724529
 20
1.196589021245897
 30
0.0
 10
25.86579973254065
 20
1.329477016270495
 30
0.0
 10
25.09196472220341
 20
1.3717832517015
 30
0.0
 10
24.63899872171483
 20
1.331728848917698
 30
0.0
 10
24.50709427932881
 20
1.320064941121961
 30
0.0
1001
PE_URL
1000

  0
SPLINE
  5
B4
330
1F
100
AcDbEntity
  8
0
  6
Continuous
 62
     1
370
    15
100
AcDbSpline
210
0.0
220
0.0
230
1.0
 70
     8
 71
     3
 72
    16
 73
    12
 74
     0
 42
0.000000001
 43
0.00000001
 40
0.0
 40
0.0
 40
0.0
 40
0.0
 40
0.1077546804053809
 40
0.2167812730903982
 40
0.3837268363472082
 40
0.4696714199066566
 40
0.5556162225896094
 40
0.6392822243093208
 40
0.723537419063492
 40
0.8902700701265943
 40
1.0
 40
1.0
 40
1.0
 40
1.0
 10
39.29062500000002
 20
-0.8300775338827513
 30
0.0
 10
39.04351048478453
 20
-0.6966413925848158
 30
0.0
 10
38.54636456958164
 20
-0.4281940594572586
 30
0.0
 10
37.66686389707934
 20
0.0831543507895142
 30
0.0
 10
36.8353882826067
 20
0.5616356494801324
 30
0.0
 10
36.058635127665
 20
0.9721723710364548
 30
0.0
 10
35.47252384433585
 20
1.253300610482546
 30
0.0
 10
34.88982629826901
 20
1.496618964549052
 30
0.0
 10
34.12313346893947
 20
1.758997146846328
 30
0.0
 10
33.29453849403237
 20
1.961806561645554
 30
0.0
 10
32.66004254727581
 20
1.960197073088643
 30
0.0
 10
32.40820667311624
 20
1.959558255835749
 30
0.0
1001
PE_URL
1000

  0
SPLINE
  5
B5
330
1F
100
AcDbEntity
  8
0
  6
Continuous
 62
     1
370
    15
100
AcDbSpline
210
0.0
220
0.0
230
1.0
 70
     8
 71
     3
 72
    15
 73
    11
 74
     0
 42
0.000000001
 43
0.00000001
 40
0.0
 40
0.0
 40
0.0
 40
0.0
 40
0.1033231677608151
 40
0.2115182593281397
 40
0.3197140729239566
 40
0.5318624077563986
 40
0.6410905060893375
 40
0.7503189924104132
 40
0.874559828587855
 40
1.0
 40
1.0
 40
1.0
 40
1.0
 10
24.47253648481908
 20
-1.317489077119885
 30
0.0
 10
24.28564561215025
 20
-1.401552137025494
 30
0.0
 10
23.90305153448184
 20
-1.573642022482673
 30
0.0
 10
23.32574716252217
 20
-1.749580987420255
 30
0.0
 10
22.55133969418183
 20
-1.93258704352213
 30
0.0
 10
21.77385386810016
 20
-2.004186340644977
 30
0.0
 10
20.99611257727865
 20
-1.962145709404199
 30
0.0
 10
20.37675626192044
 20
-1.867569914108553
 30
0.0
 10
19.72780248002613
 20
-1.707461596550043
 30
0.0
 10
19.27665651538085
 20
-1.541755959957982
 30
0.0
 10
19.05000000000014
 20
-1.458505160633133
 30
0.0
1001
PE_URL
1000

  0
SPLINE
  5
B6
330
1F
100
AcDbEntity
  8
외형선
  6
Continuous
370
    15
100
AcDbSpline
210
0.0
220
0.0
230
1.0
 70
    24
 71
     3
 72
    14
 73
    10
 74
     0
 42
0.000000001
 43
0.00000001
 40
0.0
 40
0.0
 40
0.0
 40
0.0
 40
0.2499999999999999
 40
0.2499999999999999
 40
0.4999999999999999
 40
0.4999999999999999
 40
0.75
 40
0.75
 40
1.0
 40
1.0
 40
1.0
 40
1.0
 10
19.04999999999999
 20
0.2459616643654787
 30
0.0
 10
19.04999999999999
 20
0.1569431966761352
 30
0.0
 10
19.04999999999999
 20
0.0484825304576395
 30
0.0
 10
19.04999999999999
 20
-0.2085437941478109
 30
0.0
 10
19.04999999999999
 20
-0.3574467393207399
 30
0.0
 10
19.04999999999999
 20
-0.6781215185202872
 30
0.0
 10
19.04999999999999
 20
-0.8495361192078101
 30
0.0
 10
19.04999999999999
 20
-1.176415494323882
 30
0.0
 10
19.04999999999999
 20
-1.330826680025876
 30
0.0
 10
19.04999999999999
 20
-1.458505160632248
 30
0.0
  0
SPLINE
  5
B7
330
1F
100
AcDbEntity
  8
0
  6
Continuous
 62
     1
370
    15
100
AcDbSpline
210
0.0
220
0.0
230
1.0
 70
     8
 71
     3
 72
    13
 73
     9
 74
     0
 42
0.000000001
 43
0.00000001
 40
0.0
 40
0.0
 40
0.0
 40
0.0
 40
0.2162838441037759
 40
0.4325485473865436
 40
0.6090822857183507
 40
0.7855946616449919
 40
0.9621196472113012
 40
0.9999999999999999
 40
0.9999999999999999
 40
0.9999999999999999
 40
0.9999999999999999
 10
40.74376907193921
 20
0.208047029662223
 30
0.0
 10
40.3505540241717
 20
0.3584135683574984
 30
0.0
 10
39.56415872762446
 20
0.6591333385173831
 30
0.0
 10
38.45667148570395
 20
1.003533388610446
 30
0.0
 10
37.42204005135204
 20
1.234425710339857
 30
0.0
 10
36.45952476762021
 20
1.343973240300266
 30
0.0
 10
35.74904298578049
 20
1.371494025797679
 30
0.0
 10
35.35934877929934
 20
1.330305124568645
 30
0.0
 10
35.29049902894108
 20
1.323028019802944
 30
0.0
1001
PE_URL
1000

  0
SPLINE
  5
B8
330
1F
100
AcDbEntity
  8
0
  6
Continuous
 62
     1
370
    15
100
AcDbSpline
210
0.0
220
0.0
230
1.0
 70
     8
 71
     3
 72
    14
 73
    10
 74
     0
 42
0.000000001
 43
0.00000001
 40
0.0
 40
0.0
 40
0.0
 40
0.0
 40
0.0588142994043998
 40
0.213791360656089
 40
0.3688573226907752
 40
0.5238376996519691
 40
0.6787252426325115
 40
0.8393729327757792
 40
0.9999999999999999
 40
0.9999999999999999
 40
0.9999999999999999
 40
0.9999999999999999
 10
25.26852911442283
 20
-1.336849664286383
 30
0.0
 10
25.14662165918509
 20
-1.342700565515818
 30
0.0
 10
24.7034851941871
 20
-1.363968728999405
 30
0.0
 10
23.93888422675555
 20
-1.290277872106753
 30
0.0
 10
22.97486444698917
 20
-1.121911779850213
 30
0.0
 10
22.01110859689023
 20
-0.8591051663827942
 30
0.0
 10
21.03585817230194
 20
-0.5273570767289374
 30
0.0
 10
20.04886288757501
 20
-0.1463186678920592
 30
0.0
 10
19.38294004712731
 20
0.1152071494730276
 30
0.0
 10
19.05000000000003
 20
0.2459616643654637
 30
0.0
1001
PE_URL
1000

  0
SPLINE
  5
B9
330
1F
100
AcDbEntity
  8
0
  6
Continuous
 62
     1
370
    15
100
AcDbSpline
210
0.0
220
0.0
230
1.0
 70
     8
 71
     3
 72
    22
 73
    18
 74
     0
 42
0.000000001
 43
0.00000001
 40
0.0
 40
0.0
 40
0.0
 40
0.0
 40
0.125
 40
0.125
 40
0.2500000000000001
 40
0.2500000000000001
 40
0.3750000000000001
 40
0.3750000000000001
 40
0.5000000000000001
 40
0.5000000000000001
 40
0.6250000000000001
 40
0.6250000000000001
 40
0.7500000000000002
 40
0.7500000000000002
 40
0.8750000000000001
 40
0.8750000000000001
 40
1.0
 40
1.0
 40
1.0
 40
1.0
 10
39.29062500000001
 20
-0.8300775338827473
 30
0.0
 10
39.40078657398243
 20
-0.8879341131298353
 30
0.0
 10
39.50933143308991
 20
-0.9395411437415842
 30
0.0
 10
39.72588600244688
 20
-1.026486217218812
 30
0.0
 10
39.83504300111438
 20
-1.062148162290747
 30
0.0
 10
40.05046643330481
 20
-1.108178324039668
 30
0.0
 10
40.1559080821307
 20
-1.119036308133486
 30
0.0
 10
40.36746790949182
 20
-1.103712219425276
 30
0.0
 10
40.47065196164901
 20
-1.077300210086851
 30
0.0
 10
40.66520374747888
 20
-0.9719650662643652
 30
0.0
 10
40.75566354798706
 20
-0.8921676036361879
 30
0.0
 10
40.89320642621583
 20
-0.6803282895537667
 30
0.0
 10
40.93461417403896
 20
-0.5547987590871277
 30
0.0
 10
40.95550259435146
 20
-0.3093907265024388
 30
0.0
 10
40.93665280749457
 20
-0.1937294326027686
 30
0.0
 10
40.86375614178233
 20
0.0181050338764547
 30
0.0
 10
40.8097710596432
 20
0.1153624110963863
 30
0.0
 10
40.74376907190868
 20
0.2080470296740314
 30
0.0
1001
PE_URL
1000

  0
SPLINE
  5
BA
330
1F
100
AcDbEntity
  8
0
  6
Continuous
 62
     1
370
    15
100
AcDbSpline
210
0.0
220
0.0
230
1.0
 70
     8
 71
     3
 72
     8
 73
     4
 74
     0
 42
0.000000001
 43
0.00000001
 40
0.0
 40
0.0
 40
0.0
 40
0.0
 40
1.0
 40
1.0
 40
1.0
 40
1.0
 10
39.66075209568504
 20
0.8883030911123524
 30
0.0
 10
40.06418533837598
 20
0.776163405350535
 30
0.0
 10
40.47553346495539
 20
0.6498357121981198
 30
0.0
 10
40.88773979422838
 20
0.5139363598915921
 30
0.0
1001
PE_URL
1000

  0
SPLINE
  5
BB
330
1F
100
AcDbEntity
  8
0
  6
Continuous
 62
     1
370
    15
100
AcDbSpline
210
0.0
220
0.0
230
1.0
 70
     8
 71
     3
 72
    10
 73
     6
 74
     0
 42
0.000000001
 43
0.00000001
 40
0.0
 40
0.0
 40
0.0
 40
0.0
 40
0.5
 40
0.5
 40
1.0
 40
1.0
 40
1.0
 40
1.0
 10
40.74376907190869
 20
0.208047029674031
 30
0.0
 10
40.78938540101898
 20
0.2355917229833794
 30
0.0
 10
40.82580812148345
 20
0.2774489934119351
 30
0.0
 10
40.87453444748553
 20
0.3835494034300965
 30
0.0
 10
40.88661007138991
 20
0.4474623992772214
 30
0.0
 10
40.88773979422837
 20
0.5139363598915696
 30
0.0
1001
PE_URL
1000

  0
SPLINE
  5
BC
330
1F
100
AcDbEntity
  8
외형선
  6
Continuous
370
    15
100
AcDbSpline
210
0.0
220
0.0
230
1.0
 70
    24
 71
     3
 72
    14
 73
    10
 74
     0
 42
0.000000001
 43
0.00000001
 40
0.0
 40
0.0
 40
0.0
 40
0.0
 40
0.25
 40
0.25
 40
0.5
 40
0.5
 40
0.75
 40
0.75
 40
1.0
 40
1.0
 40
1.0
 40
1.0
 10
19.05
 20
1.732054696990258
 30
0.0
 10
19.05
 20
1.594717820868768
 30
0.0
 10
19.05
 20
1.441788734783245
 30
0.0
 10
19.05
 20
1.13701889641711
 30
0.0
 10
19.05
 20
0.9859065617761422
 30
0.0
 10
19.05
 20
0.7138315362035619
 30
0.0
 10
19.05
 20
0.5929893453588713
 30
0.0
 10
19.05
 20
0.3911923779158237
 30
0.0
 10
19.05
 20
0.309924954829268
 30
0.0
 10
19.05
 20
0.2459616643654769
 30
0.0
  0
SPLINE
  5
BD
330
1F
100
AcDbEntity
  8
0
  6
Continuous
 62
     1
370
    15
100
AcDbSpline
210
0.0
220
0.0
230
1.0
 70
     8
 71
     3
 72
    17
 73
    13
 74
     0
 42
0.000000001
 43
0.00000001
 40
0.0
 40
0.0
 40
0.0
 40
0.0
 40
0.1080267545989879
 40
0.2160770557315835
 40
0.3241633684438037
 40
0.4322980068497733
 40
0.5404703991390011
 40
0.6470080676323123
 40
0.7534879186253682
 40
0.8599283388269376
 40
0.9663479301038712
 40
0.9999999999999999
 40
0.9999999999999999
 40
0.9999999999999999
 40
0.9999999999999999
 10
19.05000000000001
 20
1.732054697000323
 30
0.0
 10
19.37568484434059
 20
1.626693295292042
 30
0.0
 10
20.02712552237211
 20
1.415947526307408
 30
0.0
 10
21.00447839374276
 20
0.948785401281817
 30
0.0
 10
21.98222109369861
 20
0.4152927803853757
 30
0.0
 10
22.96041648205016
 20
-0.1542601840913553
 30
0.0
 10
23.9340617383295
 20
-0.7080782077070016
 30
0.0
 10
24.90256111217608
 20
-1.202478295180119
 30
0.0
 10
25.86573778864091
 20
-1.603458303543003
 30
0.0
 10
26.8284866083062
 20
-1.868291946263246
 30
0.0
 10
27.57164246812253
 20
-1.991983993124625
 30
0.0
 10
27.9939160641827
 20
-1.972303045060556
 30
0.0
 10
28.09536685337801
 20
-1.967574717900532
 30
0.0
1001
PE_URL
1000

  0
SPLINE
  5
BE
330
1F
100
AcDbEntity
  8
0
  6
Continuous
 62
     1
370
    15
100
AcDbSpline
210
0.0
220
0.0
230
1.0
 70
     8
 71
     3
 72
    11
 73
     7
 74
     0
 42
0.000000001
 43
0.00000001
 40
0.0
 40
0.0
 40
0.0
 40
0.0
 40
0.118299636344663
 40
0.4121175444336131
 40
0.7059930967164298
 40
1.0
 40
1.0
 40
1.0
 40
1.0
 10
36.0634722499555
 20
1.336526174200552
 30
0.0
 10
36.19072454264176
 20
1.393453036478913
 30
0.0
 10
36.6340302366054
 20
1.591767751717064
 30
0.0
 10
37.39343152457403
 20
1.815668093932714
 30
0.0
 10
38.34186741434738
 20
1.991696610120743
 30
0.0
 10
38.974325367937
 20
1.977969904549881
 30
0.0
 10
39.29062500000002
 20
1.971105018280591
 30
0.0
1001
PE_URL
1000

  0
SPLINE
  5
BF
330
1F
100
AcDbEntity
  8
0
  6
Continuous
 62
     1
370
    15
100
AcDbSpline
210
0.0
220
0.0
230
1.0
 70
     8
 71
     3
 72
    10
 73
     6
 74
     0
 42
0.000000001
 43
0.00000001
 40
0.0
 40
0.0
 40
0.0
 40
0.0
 40
0.5000000000000001
 40
0.5000000000000001
 40
1.0
 40
1.0
 40
1.0
 40
1.0
 10
40.06385634413625
 20
1.716074684276299
 30
0.0
 10
39.94112596567039
 20
1.790994664922359
 30
0.0
 10
39.814659014813
 20
1.849814266196814
 30
0.0
 10
39.5565529005137
 20
1.935399668267495
 30
0.0
 10
39.42362764323688
 20
1.962226064067958
 30
0.0
 10
39.29062500000001
 20
1.971105018280585
 30
0.0
1001
PE_URL
1000

  0
SPLINE
  5
C0
330
1F
100
AcDbEntity
  8
0
  6
Continuous
 62
     1
370
    15
100
AcDbSpline
210
0.0
220
0.0
230
1.0
 70
     8
 71
     3
 72
    14
 73
    10
 74
     0
 42
0.000000001
 43
0.00000001
 40
0.0
 40
0.0
 40
0.0
 40
0.0
 40
0.25
 40
0.25
 40
0.5
 40
0.5
 40
0.75
 40
0.75
 40
1.0
 40
1.0
 40
1.0
 40
1.0
 10
40.06385634413626
 20
1.716074684276306
 30
0.0
 10
40.07790321261467
 20
1.632734876113744
 30
0.0
 10
40.08419658843523
 20
1.547853063103869
 30
0.0
 10
40.07183638247847
 20
1.376146266903991
 30
0.0
 10
40.05269351254699
 20
1.291510334148875
 30
0.0
 10
39.98265909298888
 20
1.137608996775112
 30
0.0
 10
39.93149146462747
 20
1.069074365420363
 30
0.0
 10
39.80799747084867
 20
0.9596824978252602
 30
0.0
 10
39.7356765811667
 20
0.918078553493796
 30
0.0
 10
39.66075209568565
 20
0.8883030911124326
 30
0.0
1001
PE_URL
1000

  0
SPLINE
  5
C1
330
1F
100
AcDbEntity
  8
0
  6
Continuous
 62
     1
370
    15
100
AcDbSpline
210
0.0
220
0.0
230
1.0
 70
     8
 71
     3
 72
    22
 73
    18
 74
     0
 42
0.000000001
 43
0.00000001
 40
0.0
 40
0.0
 40
0.0
 40
0.0
 40
0.0438394332606221
 40
0.1145010095127847
 40
0.1851487582674269
 40
0.2557951042669548
 40
0.3264524799429465
 40
0.3971332573158684
 40
0.4678496805946664
 40
0.5386100350235875
 40
0.6093480377843492
 40
0.6800445378901323
 40
0.7507116939551527
 40
0.8203150243875944
 40
0.889914455974649
 40
0.9595275422880392
 40
1.0
 40
1.0
 40
1.0
 40
1.0
 10
25.26852911442283
 20
1.336849664286389
 30
0.0
 10
25.4676369744567
 20
1.422201430371085
 30
0.0
 10
25.98767223221827
 20
1.64512546596018
 30
0.0
 10
26.82848382356059
 20
1.872402215874857
 30
0.0
 10
27.7910094553012
 20
2.0033529242495
 30
0.0
 10
28.753508629879
 20
1.973575571523885
 30
0.0
 10
29.7161879007901
 20
1.791071332933669
 30
0.0
 10
30.67925294732905
 20
1.468501626498863
 30
0.0
 10
31.64286819479997
 20
1.031334346703677
 30
0.0
 10
32.60692778045561
 20
0.5137981695970212
 30
0.0
 10
33.57079192503754
 20
-0.0439042090506529
 30
0.0
 10
34.53410448204578
 20
-0.59828743446125
 30
0.0
 10
35.49220539487474
 20
-1.102888271857206
 30
0.0
 10
36.44520901027374
 20
-1.522062167551901
 30
0.0
 10
37.39343493566675
 20
-1.817123056888373
 30
0.0
 10
38.20939113186377
 20
-1.974386955072698
 30
0.0
 10
38.70935879458066
 20
-1.968252650044899
 30
0.0
 10
38.89316966880403
 20
-1.965997400247771
 30
0.0
1001
PE_URL
1000

  0
ARC
  5
C2
330
1F
100
AcDbEntity
  8
0
  6
Continuous
 62
     1
370
    15
100
AcDbCircle
 10
40.32560260748971
 20
-0.3449528589926476
 30
0.0
 40
1.026493500724688
100
AcDbArc
 50
23.84130656543861
 51
56.79552415731898
1001
PE_URL
1000

  0
ARC
  5
C3
330
1F
100
AcDbEntity
  8
0
  6
Continuous
 62
     1
370
    15
100
AcDbCircle
 10
39.49029824995683
 20
0.0368082333512445
 30
0.0
 40
1.774515342453026
100
AcDbArc
 50
1.070495324450655
 51
71.14225670173082
1001
PE_URL
1000

  0
LINE
  5
C4
330
1F
100
AcDbEntity
  8
중심선
 62
     1
100
AcDbLine
 10
-44.27500000000001
 20
-0.0000000000000054
 30
0.0
 11
44.27500000000001
 21
0.0000000000000054
 31
0.0
  0
LINE
  5
C5
330
1F
100
AcDbEntity
  8
참조1
100
AcDbLine
 10
0.0
 20
-0.0000000000000055
 30
0.0
 11
0.0000000000000053
 21
-40.00000000000001
 31
0.0
  0
LINE
  5
C6
330
1F
100
AcDbEntity
  8
참조1
100
AcDbLine
 10
41.27500000000001
 20
-0.0000000000000055
 30
0.0
 11
41.27500000000001
 21
0.6309734778393048
 31
0.0
  0
LINE
  5
C7
330
1F
100
AcDbEntity
  8
참조1
100
AcDbLine
 10
0.0000000000000053
 20
-40.00000000000001
 30
0.0
 11
-19.12760681430867
 21
-40.0
 31
0.0
  0
CIRCLE
  5
C8
330
1F
100
AcDbEntity
  8
해칭선
100
AcDbCircle
 10
0.0
 20
0.0
 30
0.0
 40
3.000000000000001
  0
INSERT
  5
C9
330
1F
100
AcDbEntity
  8
0
  6
Continuous
 62
     7
100
AcDbBlockReference
 66
     1
  2
블럭10
 10
-13.94027293212521
 20
-52.04717430164393
 30
0.0
  0
ATTRIB
  5
CA
330
C9
100
AcDbEntity
  8
FORMAT
 62
     2
100
AcDbText
 10
-23.12156822086649
 20
-49.97180738881175
 30
0.0
 40
4.233333333333333
  1
E1015010 [ 2 FLUTE ]
 41
0.75
  7
SLDTEXTSTYLE0
 11
-23.12156822086649
 21
-52.08847405547841
 31
0.0
100
AcDbAttribute
  2
AUTOATTR0
 70
     0
 74
     1
  0
SEQEND
  5
CB
330
C9
100
AcDbEntity
  8
0
  6
Continuous
 62
     7
  0
HATCH
  5
CC
330
1F
100
AcDbEntity
  8
중심선
100
AcDbHatch
 10
0.0
 20
0.0
 30
0.0
210
0.0
220
0.0
230
1.0
  2
SOLID
 70
     1
 71
     0
 91
        1
 92
        0
 93
        4
 72
     1
 10
-8.22536362774435
 20
-35.8
 11
-11.67163887158163
 21
-35.8
 72
     1
 10
-11.67163887158163
 20
-35.8
 11
-13.79986873078565
 21
-38.3363255805726
 72
     1
 10
-13.79986873078565
 20
-38.3363255805726
 11
-10.35356040183522
 21
-38.33628615127011
 72
     1
 10
-10.35356040183522
 20
-38.33628615127011
 11
-8.22536362774435
 21
-35.8
 97
        0
 75
     0
 76
     1
 98
        1
 10
10.12536934298443
 20
-0.0010749287238947
  0
HATCH
  5
CD
330
1F
100
AcDbEntity
  8
중심선
100
AcDbHatch
 10
0.0
 20
0.0
 30
0.0
210
0.0
220
0.0
230
1.0
  2
SOLID
 70
     1
 71
     0
 91
        1
 92
        0
 93
        4
 72
     1
 10
-3.212599636708397
 20
-35.80000000000003
 11
-6.658874880545653
 21
-35.79999999999998
 72
     1
 10
-6.658874880545653
 20
-35.79999999999998
 11
-11.19001288890307
 21
-41.20000000000002
 72
     1
 10
-11.19001288890307
 20
-41.20000000000002
 11
-7.743737645065785
 21
-41.20000000000002
 72
     1
 10
-7.743737645065785
 20
-41.20000000000002
 11
-3.212599636708397
 21
-35.80000000000003
 97
        0
 75
     0
 76
     1
 98
        1
 10
10.12536934298443
 20
-0.0010749287238947
  0
HATCH
  5
CE
330
1F
100
AcDbEntity
  8
중심선
100
AcDbHatch
 10
0.0
 20
0.0
 30
0.0
210
0.0
220
0.0
230
1.0
  2
SOLID
 70
     1
 71
     0
 91
        1
 92
        0
 93
        4
 72
     1
 10
1.800164354327498
 20
-35.8
 11
-1.64611088950959
 21
-35.8
 72
     1
 10
-1.64611088950959
 20
-35.8
 11
-8.694547791398868
 21
-44.20000000000002
 72
     1
 10
-8.694547791398868
 20
-44.20000000000002
 11
-5.248272547561584
 21
-44.20000000000002
 72
     1
 10
-5.248272547561584
 20
-44.20000000000002
 11
1.800164354327498
 21
-35.8
 97
        0
 75
     0
 76
     1
 98
        1
 10
10.12536934298443
 20
-0.0010749287238947
  0
HATCH
  5
CF
330
1F
100
AcDbEntity
  8
중심선
100
AcDbHatch
 10
0.0
 20
0.0
 30
0.0
210
0.0
220
0.0
230
1.0
  2
SOLID
 70
     1
 71
     0
 91
        1
 92
        0
 93
        6
 72
     3
 10
6.600054785339697
 20
-40.00000000005127
 11
3.960054785062283
 21
1.540882976769353E-10
 40
0.3939339440162628
 50
17.09539180608437
 51
320.0019657685081
 73
     0
 72
     1
 10
8.283054441040292
 20
-38.5878940046383
 11
10.58835631474133
 21
-36.65356729459038
 72
     3
 10
6.600054785286851
 20
-40.00000000000015
 11
6.600054785286829
 21
-1.278976924368180E-13
 40
0.636358354079598
 50
39.99873849337411
 51
368.4976242363725
 73
     1
 72
     1
 10
13.02538727718746
 20
-39.03999999993002
 11
5.280122092122772
 21
-39.03999999993002
 72
     1
 10
5.280122092122773
 20
-39.03999999993002
 11
5.280097047676839
 21
-40.95999999992991
 72
     1
 10
5.280097047676839
 20
-40.95999999992991
 11
9.721476817148876
 21
-40.95999999992988
 97
        0
 75
     0
 76
     1
 98
        1
 10
10.12536934298443
 20
-0.0010749287238947
  0
DIMENSION
  5
D0
330
1F
100
AcDbEntity
  8
치수문자_일반주서
100
AcDbDimension
  2
_D
 10
19.05
 20
12.38125
 30
0.0
 11
57.70200000000003
 21
12.38125
 31
0.0
 70
   160
  1
<>
 71
     2
 42
22.225
  3
SLDDIMSTYLE0
100
AcDbAlignedDimension
 13
41.27500000000001
 23
1.984375000000002
 33
0.0
 14
19.05
 24
1.732054697000328
 34
0.0
 50
0.0000000000000046
100
AcDbRotatedDimension
1001
PE_URL
1000

1001
ACAD
1000
DSTYLE
1002
{
1070
   171
1070
     8
1070
   273
1070
     7
1002
}
1001
ACAD_DSTYLE_DIMFLIPARROW_SYMBOL
1070
   385
1070
     0
1001
ACAD_DSTYLE_DIMFLIPARROW_WHICH_SYMBOL
1070
   386
1070
     3
  0
DIMENSION
  5
E5
330
1F
100
AcDbEntity
  8
치수문자_일반주서
100
AcDbDimension
  2
_D_1
 10
-41.27499999999998
 20
22.38125
 30
0.0
 11
-0.0000000000000142
 21
22.38125
 31
0.0
 70
   160
  1
<>
 71
     2
 42
82.54999999999998
  3
SLDDIMSTYLE0
100
AcDbAlignedDimension
 13
41.27500000000001
 23
1.984375000000002
 33
0.0
 14
-41.27499999999998
 24
1.984375
 34
0.0
 50
0.0000000000000074
100
AcDbRotatedDimension
1001
PE_URL
1000

1001
ACAD
1000
DSTYLE
1002
{
1070
   171
1070
     8
1070
   273
1070
     7
1002
}
  0
DIMENSION
  5
F8
330
1F
100
AcDbEntity
  8
치수문자_일반주서
100
AcDbDimension
  2
_D_2
 10
-51.27499999999999
 20
-2.381250000000133
 30
0.0
 11
-51.27500000000007
 21
22.98524999999996
 31
0.0
 70
   160
  1
%%c<>
 71
     2
 42
4.762500000000001
 52
-270.0
  3
SLDDIMSTYLE0
100
AcDbAlignedDimension
 13
-16.5688423357461
 23
2.381249999999998
 33
0.0
 14
-16.5688423357461
 24
-2.381250000000003
 34
0.0
 50
90.0000000000002
100
AcDbRotatedDimension
1001
PE_URL
1000

1001
ACAD
1000
DSTYLE
1002
{
1070
   171
1070
     8
1070
   273
1070
     7
1002
}
  0
DIMENSION
  5
10D
330
1F
100
AcDbEntity
  8
치수문자_일반주서
100
AcDbDimension
  2
_D_3
 10
77.14061209964869
 20
-1.984374999999861
 30
0.0
 11
77.1406120996486
 21
23.02587500000014
 31
0.0
 70
   160
  1
%%c<>
 71
     2
 42
3.96875
 52
-270.0
  3
SLDDIMSTYLE0
100
AcDbAlignedDimension
 13
41.27500000000001
 23
1.984375000000002
 33
0.0
 14
41.27500000000001
 24
-1.984374999999998
 34
0.0
 50
90.0000000000002
100
AcDbRotatedDimension
1001
PE_URL
1000

1001
ACAD
1000
DSTYLE
1002
{
1070
   171
1070
     8
1070
   273
1070
     7
1002
}
  0
LINE
  5
121
330
1F
100
AcDbEntity
  8
참조1
100
AcDbLine
 10
78.84473381534559
 20
7.440000000000001
 30
0.0
 11
78.84473381534559
 21
-7.440000000000003
 31
0.0
  0
LINE
  5
122
330
1F
100
AcDbEntity
  8
참조1
100
AcDbLine
 10
91.54473381534558
 20
5.440000000000001
 30
0.0
 11
78.84473381534559
 21
5.440000000000001
 31
0.0
  0
SOLID
  5
123
330
1F
100
AcDbEntity
  8
참조1
100
AcDbTrace
 10
78.84473381534559
 20
5.440000000000001
 30
0.0
 11
85.19473381534559
 21
4.424000000000001
 31
0.0
 12
85.19473381534559
 22
6.456000000000001
 32
0.0
 13
85.19473381534559
 23
6.456000000000001
 33
0.0
  0
LINE
  5
124
330
1F
100
AcDbEntity
  8
참조1
100
AcDbLine
 10
91.54473381534558
 20
-5.440000000000003
 30
0.0
 11
78.84473381534559
 21
-5.440000000000003
 31
0.0
  0
SOLID
  5
125
330
1F
100
AcDbEntity
  8
참조1
100
AcDbTrace
 10
78.84473381534559
 20
-5.440000000000003
 30
0.0
 11
85.19473381534559
 21
-6.456000000000003
 31
0.0
 12
85.19473381534559
 22
-4.424000000000003
 32
0.0
 13
85.19473381534559
 23
-4.424000000000003
 33
0.0
  0
MTEXT
  5
126
330
1F
100
AcDbEntity
  8
참조1
100
AcDbMText
 10
88.24222390781586
 20
10.98821664464993
 30
0.0
 40
3.5
 41
0.0
 71
     1
 72
     1
  1
A
  7
SLDTEXTSTYLE0
 73
     1
 44
1.0
  0
MTEXT
  5
127
330
1F
100
AcDbEntity
  8
참조1
100
AcDbMText
 10
88.24222390781586
 20
0.1082166446499304
 30
0.0
 40
3.5
 41
0.0
 71
     1
 72
     1
  1
A
  7
SLDTEXTSTYLE0
 73
     1
 44
1.0
  0
INSERT
  5
12E
330
1F
100
AcDbEntity
  8
해칭선
100
AcDbBlockReference
  2
SW_DOWELSYMBOL_0
 10
0.0
 20
0.0
 30
0.0
  0
LINE
  5
1DD
330
1F
100
AcDbEntity
  8
외형선
  6
Continuous
370
    15
100
AcDbLine
 10
-16.5688423357461
 20
2.381249999999996
 30
0.0
 11
-18.05
 21
1.984374999999996
 31
0.0
  0
LINE
  5
1DE
330
1F
100
AcDbEntity
  8
외형선
  6
Continuous
370
    15
100
AcDbLine
 10
-18.05
 20
-1.984375000000004
 30
0.0
 11
-16.5688423357461
 21
-2.381250000000001
 31
0.0
  0
LINE
  5
1DF
330
1F
100
AcDbEntity
  8
외형선
  6
Continuous
370
    15
100
AcDbLine
 10
-19.05
 20
-1.984375000000004
 30
0.0
 11
-18.05
 21
-1.984375000000004
 31
0.0
  0
LINE
  5
1E0
330
1F
100
AcDbEntity
  8
외형선
  6
Continuous
370
    15
100
AcDbLine
 10
-18.05
 20
1.984374999999996
 30
0.0
 11
-19.05
 21
1.984374999999996
 31
0.0
  0
LINE
  5
1E1
330
1F
100
AcDbEntity
  8
0
  6
Continuous
 62
     1
370
    15
100
AcDbLine
 10
-38.89316966880403
 20
1.984374999999996
 30
0.0
 11
-39.29062500000001
 21
1.984374999999996
 31
0.0
1001
PE_URL
1000

  0
LINE
  5
1E2
330
1F
100
AcDbEntity
  8
0
  6
Continuous
 62
     1
370
    15
100
AcDbLine
 10
-19.05
 20
1.984374999999996
 30
0.0
 11
-21.61206048758671
 21
1.984374999999996
 31
0.0
1001
PE_URL
1000

  0
LINE
  5
1E3
330
1F
100
AcDbEntity
  8
0
  6
Continuous
 62
     1
370
    15
100
AcDbLine
 10
-32.40820667311624
 20
-1.984375000000004
 30
0.0
 11
-28.09536685337802
 21
-1.984375000000004
 31
0.0
1001
PE_URL
1000

  0
LINE
  5
1E4
330
1F
100
AcDbEntity
  8
0
  6
Continuous
 62
     1
370
    15
100
AcDbLine
 10
-28.09536685337801
 20
1.984374999999996
 30
0.0
 11
-32.40942493223001
 21
1.984374999999996
 31
0.0
1001
PE_URL
1000

  0
LINE
  5
1E5
330
1F
100
AcDbEntity
  8
0
  6
Continuous
 62
     1
370
    15
100
AcDbLine
 10
-21.6121567928969
 20
-1.984375000000004
 30
0.0
 11
-19.05
 21
-1.984375000000004
 31
0.0
1001
PE_URL
1000

  0
LINE
  5
1E6
330
1F
100
AcDbEntity
  8
0
  6
Continuous
 62
     1
370
    15
100
AcDbLine
 10
-39.29062500000001
 20
-1.984375000000004
 30
0.0
 11
-38.89316966880405
 21
-1.984375000000004
 31
0.0
1001
PE_URL
1000

  0
ARC
  5
1E7
330
1F
100
AcDbEntity
  8
0
  6
Continuous
 62
     1
370
    15
100
AcDbCircle
 10
-39.29062500000001
 20
-0.0000000000000036
 30
0.0
 40
1.984374999999998
100
AcDbArc
 50
90.00000000000082
 51
180.0
1001
PE_URL
1000

  0
ARC
  5
1E8
330
1F
100
AcDbEntity
  8
0
  6
Continuous
 62
     1
370
    15
100
AcDbCircle
 10
-39.29062500000001
 20
-0.0000000000000036
 30
0.0
 40
1.984374999999997
100
AcDbArc
 50
180.0
 51
270.0
1001
PE_URL
1000

  0
LINE
  5
1E9
330
1F
100
AcDbEntity
  8
외형선
  6
Continuous
370
    15
100
AcDbLine
 10
-16.5688423357461
 20
-2.381250000000001
 30
0.0
 11
-16.5688423357461
 21
2.381249999999998
 31
0.0
  0
LINE
  5
1EA
330
1F
100
AcDbEntity
  8
외형선
  6
Continuous
370
    15
100
AcDbLine
 10
-18.05
 20
-1.984375000000004
 30
0.0
 11
-18.05
 21
1.984374999999996
 31
0.0
  0
SPLINE
  5
1EB
330
1F
100
AcDbEntity
  8
외형선
  6
Continuous
370
    15
100
AcDbSpline
210
0.0
220
0.0
230
1.0
 70
     8
 71
     3
 72
     8
 73
     4
 74
     0
 42
0.000000001
 43
0.00000001
 40
0.0
 40
0.0
 40
0.0
 40
0.0
 40
1.0
 40
1.0
 40
1.0
 40
1.0
 10
-19.05000000000001
 20
-1.732054697000327
 30
0.0
 10
-18.75128471059774
 20
-1.815898504122472
 30
0.0
 10
-18.4587301270298
 20
-1.879757218129315
 30
0.0
 10
-18.16005308617629
 20
-1.922369589169387
 30
0.0
  0
SPLINE
  5
1EC
330
1F
100
AcDbEntity
  8
외형선
  6
Continuous
370
    15
100
AcDbSpline
210
0.0
220
0.0
230
1.0
 70
     8
 71
     3
 72
     8
 73
     4
 74
     0
 42
0.000000001
 43
0.00000001
 40
0.0
 40
0.0
 40
0.0
 40
0.0
 40
1.0
 40
1.0
 40
1.0
 40
1.0
 10
-19.05000000000003
 20
1.458505160631171
 30
0.0
 10
-18.75132538922673
 20
1.342019392043523
 30
0.0
 10
-18.458811013007
 20
1.209998356561735
 30
0.0
 10
-18.16017510634321
 20
1.065055564863112
 30
0.0
  0
LINE
  5
1ED
330
1F
100
AcDbEntity
  8
외형선
  6
Continuous
370
    15
100
AcDbLine
 10
-19.05
 20
1.45850516063309
 30
0.0
 11
-19.05
 21
1.984374999999996
 31
0.0
  0
LINE
  5
1EE
330
1F
100
AcDbEntity
  8
외형선
  6
Continuous
370
    15
100
AcDbLine
 10
-19.05
 20
-1.984375000000004
 30
0.0
 11
-19.05
 21
-1.732054697000331
 31
0.0
  0
LINE
  5
1EF
330
1F
100
AcDbEntity
  8
외형선
  6
Continuous
370
    15
100
AcDbLine
 10
-18.16017510613368
 20
1.065157485006237
 30
0.0
 11
-18.16017510613368
 21
-1.922393849365635
 31
0.0
  0
SPLINE
  5
1F0
330
1F
100
AcDbEntity
  8
외형선
  6
Continuous
370
    15
100
AcDbSpline
210
0.0
220
0.0
230
1.0
 70
    24
 71
     3
 72
    14
 73
    10
 74
     0
 42
0.000000001
 43
0.00000001
 40
0.0
 40
0.0
 40
0.0
 40
0.0
 40
0.2499999999999999
 40
0.2499999999999999
 40
0.4999999999999999
 40
0.4999999999999999
 40
0.75
 40
0.75
 40
1.0
 40
1.0
 40
1.0
 40
1.0
 10
-19.04999999999999
 20
-0.2459616643654812
 30
0.0
 10
-19.04999999999999
 20
-0.1569431966761368
 30
0.0
 10
-19.04999999999999
 20
-0.0484825304576404
 30
0.0
 10
-19.04999999999999
 20
0.2085437941478094
 30
0.0
 10
-19.04999999999999
 20
0.3574467393207374
 30
0.0
 10
-19.04999999999999
 20
0.6781215185202853
 30
0.0
 10
-19.04999999999999
 20
0.8495361192078086
 30
0.0
 10
-19.04999999999999
 20
1.17641549432388
 30
0.0
 10
-19.04999999999999
 20
1.330826680025874
 30
0.0
 10
-19.04999999999999
 20
1.458505160632246
 30
0.0
  0
SPLINE
  5
1F1
330
1F
100
AcDbEntity
  8
외형선
  6
Continuous
370
    15
100
AcDbSpline
210
0.0
220
0.0
230
1.0
 70
     8
 71
     3
 72
     8
 73
     4
 74
     0
 42
0.000000001
 43
0.00000001
 40
0.0
 40
0.0
 40
0.0
 40
0.0
 40
1.0
 40
1.0
 40
1.0
 40
1.0
 10
-19.05000000000003
 20
-0.2459616643654652
 30
0.0
 10
-18.75132538915688
 20
-0.3609943659836148
 30
0.0
 10
-18.45881101286731
 20
-0.4724792667710513
 30
0.0
 10
-18.16017510613368
 20
-0.5782115380584951
 30
0.0
  0
SPLINE
  5
1F2
330
1F
100
AcDbEntity
  8
외형선
  6
Continuous
370
    15
100
AcDbSpline
210
0.0
220
0.0
230
1.0
 70
    24
 71
     3
 72
    14
 73
    10
 74
     0
 42
0.000000001
 43
0.00000001
 40
0.0
 40
0.0
 40
0.0
 40
0.0
 40
0.25
 40
0.25
 40
0.4999999999999999
 40
0.4999999999999999
 40
0.75
 40
0.75
 40
1.0
 40
1.0
 40
1.0
 40
1.0
 10
-19.04999999999999
 20
-1.732054696989964
 30
0.0
 10
-19.04999999999999
 20
-1.594717820868476
 30
0.0
 10
-19.04999999999999
 20
-1.441788734782971
 30
0.0
 10
-19.04999999999999
 20
-1.137018896416894
 30
0.0
 10
-19.04999999999999
 20
-0.9859065617759626
 30
0.0
 10
-19.04999999999999
 20
-0.7138315362034522
 30
0.0
 10
-19.04999999999999
 20
-0.5929893453587951
 30
0.0
 10
-19.04999999999999
 20
-0.3911923779157966
 30
0.0
 10
-19.04999999999999
 20
-0.3099249548292597
 30
0.0
 10
-19.04999999999999
 20
-0.2459616643654812
 30
0.0
  0
SPLINE
  5
1F3
330
1F
100
AcDbEntity
  8
0
  6
Continuous
 62
     1
370
    15
100
AcDbSpline
210
0.0
220
0.0
230
1.0
 70
     8
 71
     3
 72
    31
 73
    27
 74
     0
 42
0.000000001
 43
0.00000001
 40
0.0
 40
0.0
 40
0.0
 40
0.0
 40
0.0291664420836537
 40
0.0715426263709941
 40
0.1133629225837751
 40
0.1554737210504352
 40
0.1972903924056864
 40
0.2393971840589998
 40
0.2823993205657497
 40
0.3257168696432266
 40
0.367835034256167
 40
0.4102497132821238
 40
0.4535812496643341
 40
0.4972363421469148
 40
0.5392937102052853
 40
0.5816477583984377
 40
0.62322845361306
 40
0.6650966029262784
 40
0.7066434514542321
 40
0.7484777634089168
 40
0.7900246263343428
 40
0.8318590195322486
 40
0.8745801121561444
 40
0.9176134141121104
 40
0.9595394139546475
 40
1.0
 40
1.0
 40
1.0
 40
1.0
 10
-35.29049902894108
 20
1.323028019802935
 30
0.0
 10
-35.15742325625158
 20
1.37988237686386
 30
0.0
 10
-34.83100050447228
 20
1.519340937256883
 30
0.0
 10
-34.3145862848618
 20
1.694482338589108
 30
0.0
 10
-33.73839900033457
 20
1.846498384062444
 30
0.0
 10
-33.16511034484004
 20
1.945553374564813
 30
0.0
 10
-32.59071181864334
 20
1.99084633785502
 30
0.0
 10
-32.01150402546124
 20
1.980658345513776
 30
0.0
 10
-31.42669769667744
 20
1.912902758134107
 30
0.0
 10
-30.84008620602751
 20
1.790285871148974
 30
0.0
 10
-30.25826751654406
 20
1.615110222536286
 30
0.0
 10
-29.67407454416889
 20
1.396271091209051
 30
0.0
 10
-29.08524580727123
 20
1.131055930332588
 30
0.0
 10
-28.49571379518818
 20
0.8363252863928299
 30
0.0
 10
-27.91278948616159
 20
0.5165613339152664
 30
0.0
 10
-27.33750317847854
 20
0.1903792754050269
 30
0.0
 10
-26.76454439138615
 20
-0.1429742137343979
 30
0.0
 10
-26.19422474024092
 20
-0.4685335320324988
 30
0.0
 10
-25.62334207037161
 20
-0.7828493487581092
 30
0.0
 10
-25.05383334997351
 20
-1.074684370767677
 30
0.0
 10
-24.48259957492395
 20
-1.337145997880802
 30
0.0
 10
-23.90820079240355
 20
-1.565356765515959
 30
0.0
 10
-23.32568182612759
 20
-1.750871706916929
 30
0.0
 10
-22.7444573245864
 20
-1.886127417523918
 30
0.0
 10
-22.17163078942714
 20
-1.969385690271054
 30
0.0
 10
-21.79642351569171
 20
-1.978686251794308
 30
0.0
 10
-21.6121567928969
 20
-1.983253817809166
 30
0.0
1001
PE_URL
1000

  0
SPLINE
  5
1F4
330
1F
100
AcDbEntity
  8
0
  6
Continuous
 62
     1
370
    15
100
AcDbSpline
210
0.0
220
0.0
230
1.0
 70
     8
 71
     3
 72
    20
 73
    16
 74
     0
 42
0.000000001
 43
0.00000001
 40
0.0
 40
0.0
 40
0.0
 40
0.0
 40
0.0490167400159229
 40
0.1323311507020133
 40
0.2156833801280068
 40
0.2990890896431145
 40
0.3825235577295109
 40
0.4659014181089325
 40
0.5492333541427715
 40
0.6325351405478272
 40
0.7158227210238957
 40
0.799112119121941
 40
0.8824193481679149
 40
0.9657603213076325
 40
1.0
 40
1.0
 40
1.0
 40
1.0
 10
-36.0634722499555
 20
1.336526174200541
 30
0.0
 10
-35.87466473409962
 20
1.342032949513081
 30
0.0
 10
-35.36493855022287
 20
1.35689966471138
 30
0.0
 10
-34.53412422060832
 20
1.263002850246428
 30
0.0
 10
-33.57080444281138
 20
1.073135821827384
 30
0.0
 10
-32.60695550209907
 20
0.7948123477614555
 30
0.0
 10
-31.64295119568
 20
0.4558257268466619
 30
0.0
 10
-30.67932992624003
 20
0.0808006194758857
 30
0.0
 10
-29.71626381401294
 20
-0.3003213327804968
 30
0.0
 10
-28.75358182512299
 20
-0.6581156317176706
 30
0.0
 10
-27.79107896069986
 20
-0.9641024851416855
 30
0.0
 10
-26.82855426724529
 20
-1.196589021245899
 30
0.0
 10
-25.86579973254065
 20
-1.329477016270497
 30
0.0
 10
-25.09196472220341
 20
-1.371783251701501
 30
0.0
 10
-24.63899872171483
 20
-1.331728848917701
 30
0.0
 10
-24.50709427932881
 20
-1.320064941121963
 30
0.0
1001
PE_URL
1000

  0
SPLINE
  5
1F5
330
1F
100
AcDbEntity
  8
0
  6
Continuous
 62
     1
370
    15
100
AcDbSpline
210
0.0
220
0.0
230
1.0
 70
     8
 71
     3
 72
    16
 73
    12
 74
     0
 42
0.000000001
 43
0.00000001
 40
0.0
 40
0.0
 40
0.0
 40
0.0
 40
0.1077546804053809
 40
0.2167812730903982
 40
0.3837268363472082
 40
0.4696714199066566
 40
0.5556162225896094
 40
0.6392822243093208
 40
0.723537419063492
 40
0.8902700701265943
 40
1.0
 40
1.0
 40
1.0
 40
1.0
 10
-39.29062500000002
 20
0.8300775338827489
 30
0.0
 10
-39.04351048478453
 20
0.6966413925848141
 30
0.0
 10
-38.54636456958164
 20
0.4281940594572564
 30
0.0
 10
-37.66686389707934
 20
-0.0831543507895152
 30
0.0
 10
-36.8353882826067
 20
-0.5616356494801344
 30
0.0
 10
-36.058635127665
 20
-0.9721723710364572
 30
0.0
 10
-35.47252384433585
 20
-1.253300610482547
 30
0.0
 10
-34.88982629826901
 20
-1.496618964549054
 30
0.0
 10
-34.12313346893947
 20
-1.75899714684633
 30
0.0
 10
-33.29453849403237
 20
-1.961806561645556
 30
0.0
 10
-32.66004254727581
 20
-1.960197073088645
 30
0.0
 10
-32.40820667311624
 20
-1.95955825583575
 30
0.0
1001
PE_URL
1000

  0
SPLINE
  5
1F6
330
1F
100
AcDbEntity
  8
0
  6
Continuous
 62
     1
370
    15
100
AcDbSpline
210
0.0
220
0.0
230
1.0
 70
     8
 71
     3
 72
    15
 73
    11
 74
     0
 42
0.000000001
 43
0.00000001
 40
0.0
 40
0.0
 40
0.0
 40
0.0
 40
0.1033231677608151
 40
0.2115182593281397
 40
0.3197140729239566
 40
0.5318624077563986
 40
0.6410905060893375
 40
0.7503189924104132
 40
0.874559828587855
 40
1.0
 40
1.0
 40
1.0
 40
1.0
 10
-24.47253648481908
 20
1.317489077119884
 30
0.0
 10
-24.28564561215025
 20
1.401552137025492
 30
0.0
 10
-23.90305153448184
 20
1.573642022482671
 30
0.0
 10
-23.32574716252217
 20
1.749580987420254
 30
0.0
 10
-22.55133969418183
 20
1.932587043522128
 30
0.0
 10
-21.77385386810016
 20
2.004186340644976
 30
0.0
 10
-20.99611257727865
 20
1.962145709404197
 30
0.0
 10
-20.37675626192044
 20
1.86756991410855
 30
0.0
 10
-19.72780248002613
 20
1.707461596550042
 30
0.0
 10
-19.27665651538085
 20
1.54175595995798
 30
0.0
 10
-19.05000000000014
 20
1.458505160633131
 30
0.0
1001
PE_URL
1000

  0
SPLINE
  5
1F7
330
1F
100
AcDbEntity
  8
외형선
  6
Continuous
370
    15
100
AcDbSpline
210
0.0
220
0.0
230
1.0
 70
    24
 71
     3
 72
    14
 73
    10
 74
     0
 42
0.000000001
 43
0.00000001
 40
0.0
 40
0.0
 40
0.0
 40
0.0
 40
0.2499999999999999
 40
0.2499999999999999
 40
0.4999999999999999
 40
0.4999999999999999
 40
0.75
 40
0.75
 40
1.0
 40
1.0
 40
1.0
 40
1.0
 10
-19.04999999999999
 20
-0.2459616643654812
 30
0.0
 10
-19.04999999999999
 20
-0.1569431966761368
 30
0.0
 10
-19.04999999999999
 20
-0.0484825304576404
 30
0.0
 10
-19.04999999999999
 20
0.2085437941478094
 30
0.0
 10
-19.04999999999999
 20
0.3574467393207374
 30
0.0
 10
-19.04999999999999
 20
0.6781215185202853
 30
0.0
 10
-19.04999999999999
 20
0.8495361192078086
 30
0.0
 10
-19.04999999999999
 20
1.17641549432388
 30
0.0
 10
-19.04999999999999
 20
1.330826680025874
 30
0.0
 10
-19.04999999999999
 20
1.458505160632246
 30
0.0
  0
SPLINE
  5
1F8
330
1F
100
AcDbEntity
  8
0
  6
Continuous
 62
     1
370
    15
100
AcDbSpline
210
0.0
220
0.0
230
1.0
 70
     8
 71
     3
 72
    13
 73
     9
 74
     0
 42
0.000000001
 43
0.00000001
 40
0.0
 40
0.0
 40
0.0
 40
0.0
 40
0.2162838441037759
 40
0.4325485473865436
 40
0.6090822857183507
 40
0.7855946616449919
 40
0.9621196472113012
 40
0.9999999999999999
 40
0.9999999999999999
 40
0.9999999999999999
 40
0.9999999999999999
 10
-40.74376907193921
 20
-0.2080470296622252
 30
0.0
 10
-40.3505540241717
 20
-0.3584135683575003
 30
0.0
 10
-39.56415872762446
 20
-0.6591333385173854
 30
0.0
 10
-38.45667148570395
 20
-1.003533388610448
 30
0.0
 10
-37.42204005135204
 20
-1.234425710339858
 30
0.0
 10
-36.45952476762021
 20
-1.343973240300267
 30
0.0
 10
-35.74904298578049
 20
-1.371494025797681
 30
0.0
 10
-35.35934877929934
 20
-1.330305124568646
 30
0.0
 10
-35.29049902894108
 20
-1.323028019802946
 30
0.0
1001
PE_URL
1000

  0
SPLINE
  5
1F9
330
1F
100
AcDbEntity
  8
0
  6
Continuous
 62
     1
370
    15
100
AcDbSpline
210
0.0
220
0.0
230
1.0
 70
     8
 71
     3
 72
    14
 73
    10
 74
     0
 42
0.000000001
 43
0.00000001
 40
0.0
 40
0.0
 40
0.0
 40
0.0
 40
0.0588142994043998
 40
0.213791360656089
 40
0.3688573226907752
 40
0.5238376996519691
 40
0.6787252426325115
 40
0.8393729327757792
 40
0.9999999999999999
 40
0.9999999999999999
 40
0.9999999999999999
 40
0.9999999999999999
 10
-25.26852911442283
 20
1.336849664286381
 30
0.0
 10
-25.14662165918509
 20
1.342700565515816
 30
0.0
 10
-24.7034851941871
 20
1.363968728999403
 30
0.0
 10
-23.93888422675555
 20
1.290277872106751
 30
0.0
 10
-22.97486444698917
 20
1.12191177985021
 30
0.0
 10
-22.01110859689023
 20
0.8591051663827916
 30
0.0
 10
-21.03585817230194
 20
0.5273570767289364
 30
0.0
 10
-20.04886288757501
 20
0.1463186678920572
 30
0.0
 10
-19.38294004712731
 20
-0.1152071494730293
 30
0.0
 10
-19.05000000000003
 20
-0.2459616643654652
 30
0.0
1001
PE_URL
1000

  0
SPLINE
  5
1FA
330
1F
100
AcDbEntity
  8
0
  6
Continuous
 62
     1
370
    15
100
AcDbSpline
210
0.0
220
0.0
230
1.0
 70
     8
 71
     3
 72
    22
 73
    18
 74
     0
 42
0.000000001
 43
0.00000001
 40
0.0
 40
0.0
 40
0.0
 40
0.0
 40
0.125
 40
0.125
 40
0.2500000000000001
 40
0.2500000000000001
 40
0.3750000000000001
 40
0.3750000000000001
 40
0.5000000000000001
 40
0.5000000000000001
 40
0.6250000000000001
 40
0.6250000000000001
 40
0.7500000000000002
 40
0.7500000000000002
 40
0.8750000000000001
 40
0.8750000000000001
 40
1.0
 40
1.0
 40
1.0
 40
1.0
 10
-39.29062500000001
 20
0.8300775338827453
 30
0.0
 10
-39.40078657398243
 20
0.887934113129834
 30
0.0
 10
-39.50933143308991
 20
0.9395411437415824
 30
0.0
 10
-39.72588600244688
 20
1.02648621721881
 30
0.0
 10
-39.83504300111438
 20
1.062148162290745
 30
0.0
 10
-40.05046643330481
 20
1.108178324039665
 30
0.0
 10
-40.1559080821307
 20
1.119036308133484
 30
0.0
 10
-40.36746790949182
 20
1.103712219425274
 30
0.0
 10
-40.47065196164901
 20
1.07730021008685
 30
0.0
 10
-40.66520374747888
 20
0.9719650662643637
 30
0.0
 10
-40.75566354798706
 20
0.892167603636187
 30
0.0
 10
-40.89320642621583
 20
0.6803282895537652
 30
0.0
 10
-40.93461417403896
 20
0.5547987590871255
 30
0.0
 10
-40.95550259435146
 20
0.3093907265024374
 30
0.0
 10
-40.93665280749457
 20
0.1937294326027672
 30
0.0
 10
-40.86375614178233
 20
-0.0181050338764557
 30
0.0
 10
-40.8097710596432
 20
-0.1153624110963882
 30
0.0
 10
-40.74376907190868
 20
-0.2080470296740327
 30
0.0
1001
PE_URL
1000

  0
SPLINE
  5
1FB
330
1F
100
AcDbEntity
  8
0
  6
Continuous
 62
     1
370
    15
100
AcDbSpline
210
0.0
220
0.0
230
1.0
 70
     8
 71
     3
 72
     8
 73
     4
 74
     0
 42
0.000000001
 43
0.00000001
 40
0.0
 40
0.0
 40
0.0
 40
0.0
 40
1.0
 40
1.0
 40
1.0
 40
1.0
 10
-39.66075209568504
 20
-0.8883030911123537
 30
0.0
 10
-40.06418533837598
 20
-0.7761634053505375
 30
0.0
 10
-40.47553346495539
 20
-0.6498357121981222
 30
0.0
 10
-40.88773979422838
 20
-0.5139363598915931
 30
0.0
1001
PE_URL
1000

  0
SPLINE
  5
1FC
330
1F
100
AcDbEntity
  8
0
  6
Continuous
 62
     1
370
    15
100
AcDbSpline
210
0.0
220
0.0
230
1.0
 70
     8
 71
     3
 72
    10
 73
     6
 74
     0
 42
0.000000001
 43
0.00000001
 40
0.0
 40
0.0
 40
0.0
 40
0.0
 40
0.5
 40
0.5
 40
1.0
 40
1.0
 40
1.0
 40
1.0
 10
-40.74376907190869
 20
-0.2080470296740327
 30
0.0
 10
-40.78938540101898
 20
-0.235591722983381
 30
0.0
 10
-40.82580812148345
 20
-0.2774489934119373
 30
0.0
 10
-40.87453444748553
 20
-0.3835494034300986
 30
0.0
 10
-40.88661007138991
 20
-0.4474623992772226
 30
0.0
 10
-40.88773979422837
 20
-0.5139363598915718
 30
0.0
1001
PE_URL
1000

  0
SPLINE
  5
1FD
330
1F
100
AcDbEntity
  8
외형선
  6
Continuous
370
    15
100
AcDbSpline
210
0.0
220
0.0
230
1.0
 70
    24
 71
     3
 72
    14
 73
    10
 74
     0
 42
0.000000001
 43
0.00000001
 40
0.0
 40
0.0
 40
0.0
 40
0.0
 40
0.25
 40
0.25
 40
0.5
 40
0.5
 40
0.75
 40
0.75
 40
1.0
 40
1.0
 40
1.0
 40
1.0
 10
-19.05
 20
-1.732054696990259
 30
0.0
 10
-19.05
 20
-1.59471782086877
 30
0.0
 10
-19.05
 20
-1.441788734783247
 30
0.0
 10
-19.05
 20
-1.137018896417112
 30
0.0
 10
-19.05
 20
-0.9859065617761438
 30
0.0
 10
-19.05
 20
-0.7138315362035641
 30
0.0
 10
-19.05
 20
-0.5929893453588733
 30
0.0
 10
-19.05
 20
-0.3911923779158251
 30
0.0
 10
-19.05
 20
-0.3099249548292704
 30
0.0
 10
-19.05
 20
-0.2459616643654794
 30
0.0
  0
SPLINE
  5
1FE
330
1F
100
AcDbEntity
  8
0
  6
Continuous
 62
     1
370
    15
100
AcDbSpline
210
0.0
220
0.0
230
1.0
 70
     8
 71
     3
 72
    17
 73
    13
 74
     0
 42
0.000000001
 43
0.00000001
 40
0.0
 40
0.0
 40
0.0
 40
0.0
 40
0.1080267545989879
 40
0.2160770557315835
 40
0.3241633684438037
 40
0.4322980068497733
 40
0.5404703991390011
 40
0.6470080676323123
 40
0.7534879186253682
 40
0.8599283388269376
 40
0.9663479301038712
 40
0.9999999999999999
 40
0.9999999999999999
 40
0.9999999999999999
 40
0.9999999999999999
 10
-19.05000000000001
 20
-1.732054697000324
 30
0.0
 10
-19.37568484434059
 20
-1.626693295292045
 30
0.0
 10
-20.02712552237211
 20
-1.415947526307411
 30
0.0
 10
-21.00447839374276
 20
-0.9487854012818193
 30
0.0
 10
-21.98222109369861
 20
-0.4152927803853768
 30
0.0
 10
-22.96041648205016
 20
0.1542601840913544
 30
0.0
 10
-23.9340617383295
 20
0.7080782077070005
 30
0.0
 10
-24.90256111217608
 20
1.202478295180116
 30
0.0
 10
-25.86573778864091
 20
1.603458303543002
 30
0.0
 10
-26.8284866083062
 20
1.868291946263245
 30
0.0
 10
-27.57164246812253
 20
1.991983993124624
 30
0.0
 10
-27.9939160641827
 20
1.972303045060555
 30
0.0
 10
-28.09536685337801
 20
1.967574717900531
 30
0.0
1001
PE_URL
1000

  0
SPLINE
  5
1FF
330
1F
100
AcDbEntity
  8
0
  6
Continuous
 62
     1
370
    15
100
AcDbSpline
210
0.0
220
0.0
230
1.0
 70
     8
 71
     3
 72
    11
 73
     7
 74
     0
 42
0.000000001
 43
0.00000001
 40
0.0
 40
0.0
 40
0.0
 40
0.0
 40
0.118299636344663
 40
0.4121175444336131
 40
0.7059930967164298
 40
1.0
 40
1.0
 40
1.0
 40
1.0
 10
-36.0634722499555
 20
-1.336526174200554
 30
0.0
 10
-36.19072454264176
 20
-1.393453036478915
 30
0.0
 10
-36.6340302366054
 20
-1.591767751717066
 30
0.0
 10
-37.39343152457403
 20
-1.815668093932716
 30
0.0
 10
-38.34186741434738
 20
-1.991696610120746
 30
0.0
 10
-38.974325367937
 20
-1.977969904549884
 30
0.0
 10
-39.29062500000002
 20
-1.971105018280593
 30
0.0
1001
PE_URL
1000

  0
SPLINE
  5
200
330
1F
100
AcDbEntity
  8
0
  6
Continuous
 62
     1
370
    15
100
AcDbSpline
210
0.0
220
0.0
230
1.0
 70
     8
 71
     3
 72
    10
 73
     6
 74
     0
 42
0.000000001
 43
0.00000001
 40
0.0
 40
0.0
 40
0.0
 40
0.0
 40
0.5000000000000001
 40
0.5000000000000001
 40
1.0
 40
1.0
 40
1.0
 40
1.0
 10
-40.06385634413625
 20
-1.7160746842763
 30
0.0
 10
-39.94112596567039
 20
-1.79099466492236
 30
0.0
 10
-39.814659014813
 20
-1.849814266196816
 30
0.0
 10
-39.5565529005137
 20
-1.935399668267497
 30
0.0
 10
-39.42362764323688
 20
-1.962226064067961
 30
0.0
 10
-39.29062500000001
 20
-1.971105018280587
 30
0.0
1001
PE_URL
1000

  0
SPLINE
  5
201
330
1F
100
AcDbEntity
  8
0
  6
Continuous
 62
     1
370
    15
100
AcDbSpline
210
0.0
220
0.0
230
1.0
 70
     8
 71
     3
 72
    14
 73
    10
 74
     0
 42
0.000000001
 43
0.00000001
 40
0.0
 40
0.0
 40
0.0
 40
0.0
 40
0.25
 40
0.25
 40
0.5
 40
0.5
 40
0.75
 40
0.75
 40
1.0
 40
1.0
 40
1.0
 40
1.0
 10
-40.06385634413626
 20
-1.716074684276307
 30
0.0
 10
-40.07790321261467
 20
-1.632734876113746
 30
0.0
 10
-40.08419658843523
 20
-1.54785306310387
 30
0.0
 10
-40.07183638247847
 20
-1.376146266903993
 30
0.0
 10
-40.05269351254699
 20
-1.291510334148876
 30
0.0
 10
-39.98265909298888
 20
-1.137608996775114
 30
0.0
 10
-39.93149146462747
 20
-1.069074365420365
 30
0.0
 10
-39.80799747084867
 20
-0.9596824978252627
 30
0.0
 10
-39.7356765811667
 20
-0.9180785534937979
 30
0.0
 10
-39.66075209568565
 20
-0.8883030911124337
 30
0.0
1001
PE_URL
1000

  0
SPLINE
  5
202
330
1F
100
AcDbEntity
  8
0
  6
Continuous
 62
     1
370
    15
100
AcDbSpline
210
0.0
220
0.0
230
1.0
 70
     8
 71
     3
 72
    22
 73
    18
 74
     0
 42
0.000000001
 43
0.00000001
 40
0.0
 40
0.0
 40
0.0
 40
0.0
 40
0.0438394332606221
 40
0.1145010095127847
 40
0.1851487582674269
 40
0.2557951042669548
 40
0.3264524799429465
 40
0.3971332573158684
 40
0.4678496805946664
 40
0.5386100350235875
 40
0.6093480377843492
 40
0.6800445378901323
 40
0.7507116939551527
 40
0.8203150243875944
 40
0.889914455974649
 40
0.9595275422880392
 40
1.0
 40
1.0
 40
1.0
 40
1.0
 10
-25.26852911442283
 20
-1.33684966428639
 30
0.0
 10
-25.4676369744567
 20
-1.422201430371087
 30
0.0
 10
-25.98767223221827
 20
-1.645125465960181
 30
0.0
 10
-26.82848382356059
 20
-1.872402215874859
 30
0.0
 10
-27.7910094553012
 20
-2.003352924249501
 30
0.0
 10
-28.753508629879
 20
-1.973575571523886
 30
0.0
 10
-29.7161879007901
 20
-1.79107133293367
 30
0.0
 10
-30.67925294732905
 20
-1.468501626498865
 30
0.0
 10
-31.64286819479997
 20
-1.031334346703678
 30
0.0
 10
-32.60692778045561
 20
-0.5137981695970222
 30
0.0
 10
-33.57079192503754
 20
0.0439042090506518
 30
0.0
 10
-34.53410448204578
 20
0.5982874344612483
 30
0.0
 10
-35.49220539487474
 20
1.102888271857205
 30
0.0
 10
-36.44520901027374
 20
1.522062167551899
 30
0.0
 10
-37.39343493566675
 20
1.817123056888372
 30
0.0
 10
-38.20939113186377
 20
1.974386955072696
 30
0.0
 10
-38.70935879458066
 20
1.968252650044898
 30
0.0
 10
-38.89316966880403
 20
1.965997400247769
 30
0.0
1001
PE_URL
1000

  0
ARC
  5
203
330
1F
100
AcDbEntity
  8
0
  6
Continuous
 62
     1
370
    15
100
AcDbCircle
 10
-40.32560260748971
 20
0.3449528589926452
 30
0.0
 40
1.026493500724688
100
AcDbArc
 50
203.8413065654384
 51
236.795524157319
1001
PE_URL
1000

  0
ARC
  5
204
330
1F
100
AcDbEntity
  8
0
  6
Continuous
 62
     1
370
    15
100
AcDbCircle
 10
-39.49029824995683
 20
-0.0368082333512465
 30
0.0
 40
1.774515342453026
100
AcDbArc
 50
181.0704953244507
 51
251.1422567017308
1001
PE_URL
1000

  0
ENDSEC
  0
SECTION
  2
OBJECTS
  0
DICTIONARY
  5
C
330
0
100
AcDbDictionary
281
     1
  3
ACAD_GROUP
350
D
  3
ACAD_LAYOUT
350
1A
  3
ACAD_MLINESTYLE
350
17
  3
ACAD_PLOTSETTINGS
350
19
  3
ACAD_PLOTSTYLENAME
350
E
  3
ACAD_SCALELIST
350
47
  3
APPDATA
350
150
  3
DWGPROPS
350
206
  0
DICTIONARY
  5
189
330
2
100
AcDbDictionary
280
     1
281
     1
  3
ACAD_LAYERSTATES
360
18A
  0
DICTIONARY
  5
D
102
{ACAD_REACTORS
330
C
102
}
330
C
100
AcDbDictionary
281
     1
  0
DICTIONARY
  5
1A
102
{ACAD_REACTORS
330
C
102
}
330
C
100
AcDbDictionary
281
     1
  3
Layout1
350
1E
  3
Layout2
350
26
  3
Model
350
22
  0
DICTIONARY
  5
17
102
{ACAD_REACTORS
330
C
102
}
330
C
100
AcDbDictionary
281
     1
  3
Standard
350
18
  0
DICTIONARY
  5
19
102
{ACAD_REACTORS
330
C
102
}
330
C
100
AcDbDictionary
281
     1
  0
ACDBDICTIONARYWDFLT
  5
E
102
{ACAD_REACTORS
330
C
102
}
330
C
100
AcDbDictionary
281
     1
  3
Normal
350
F
100
AcDbDictionaryWithDefault
340
F
  0
DICTIONARY
  5
47
102
{ACAD_REACTORS
330
C
102
}
330
C
100
AcDbDictionary
281
     1
  3
A0
350
48
  3
A1
350
49
  3
A2
350
4A
  3
A3
350
4B
  3
A4
350
4C
  3
A5
350
4D
  3
A6
350
4E
  3
A7
350
4F
  3
A8
350
50
  3
A9
350
51
  3
B0
350
52
  3
B1
350
53
  3
B2
350
54
  3
B3
350
55
  3
B4
350
56
  3
B5
350
57
  3
B6
350
58
  3
B7
350
59
  3
B8
350
5A
  3
B9
350
5B
  3
C0
350
5C
  3
C1
350
5D
  3
C2
350
5E
  3
C3
350
5F
  3
C4
350
60
  3
C5
350
61
  3
C6
350
62
  3
C7
350
63
  3
C8
350
64
  3
C9
350
65
  3
D0
350
66
  3
D1
350
67
  3
D2
350
68
  0
DICTIONARY
  5
150
102
{ACAD_REACTORS
330
C
102
}
330
C
100
AcDbDictionary
281
     1
  0
XRECORD
  5
206
102
{ACAD_REACTORS
330
C
102
}
330
C
100
AcDbXrecord
280
     1
  1
DWGPROPS COOKIE
  2

  3

  4

  6

  7

  8
120170442
  9

300
=
301
=
302
=
303
=
304
=
305
=
306
=
307
=
308
=
309
=
 40
0.0
 41
2458319.36634772
 42
2458323.244410776
  1

 90
        0
  0
DICTIONARY
  5
18A
102
{ACAD_REACTORS
330
189
102
}
330
189
100
AcDbDictionary
281
     1
  0
LAYOUT
  5
1E
102
{ACAD_REACTORS
330
1A
102
}
330
1A
100
AcDbPlotSettings
  1

  2
none_device
  4

  6

 40
0.0
 41
0.0
 42
0.0
 43
0.0
 44
0.0
 45
0.0
 46
0.0
 47
0.0
 48
0.0
 49
0.0
140
0.0
141
0.0
142
1.0
143
1.0
 70
   688
 72
     1
 73
     0
 74
     5
  7

 75
    16
147
1.0
148
0.0
149
0.0
100
AcDbLayout
  1
Layout1
 70
     1
 71
     1
 10
0.0
 20
0.0
 11
420.0
 21
297.0
 12
0.0
 22
0.0
 32
0.0
 14
1.000000000000000E+20
 24
1.000000000000000E+20
 34
1.000000000000000E+20
 15
-1.000000000000000E+20
 25
-1.000000000000000E+20
 35
-1.000000000000000E+20
146
0.0
 13
0.0
 23
0.0
 33
0.0
 16
1.0
 26
0.0
 36
0.0
 17
0.0
 27
1.0
 37
0.0
 76
     0
330
1B
  0
LAYOUT
  5
26
102
{ACAD_REACTORS
330
1A
102
}
330
1A
100
AcDbPlotSettings
  1

  2
none_device
  4

  6

 40
0.0
 41
0.0
 42
0.0
 43
0.0
 44
0.0
 45
0.0
 46
0.0
 47
0.0
 48
0.0
 49
0.0
140
0.0
141
0.0
142
1.0
143
1.0
 70
   688
 72
     1
 73
     0
 74
     5
  7

 75
    16
147
1.0
148
0.0
149
0.0
100
AcDbLayout
  1
Layout2
 70
     1
 71
     2
 10
0.0
 20
0.0
 11
0.0
 21
0.0
 12
0.0
 22
0.0
 32
0.0
 14
0.0
 24
0.0
 34
0.0
 15
0.0
 25
0.0
 35
0.0
146
0.0
 13
0.0
 23
0.0
 33
0.0
 16
1.0
 26
0.0
 36
0.0
 17
0.0
 27
1.0
 37
0.0
 76
     0
330
23
  0
LAYOUT
  5
22
102
{ACAD_REACTORS
330
1A
102
}
330
1A
100
AcDbPlotSettings
  1

  2
none_device
  4
ANSI_A_(11.00_x_8.50_Inches)
  6

 40
6.35
 41
19.05
 42
6.35000508
 43
19.05000254
 44
279.4
 45
215.9
 46
127.8517803433096
 47
98.28968267110804
 48
0.0
 49
0.0
140
0.0
141
0.0
142
0.0695346282484978
143
1.0
 70
  1696
 72
     0
 73
     0
 74
     0
  7

 75
     0
147
0.0235690232323232
148
0.0
149
0.0
100
AcDbLayout
  1
Model
 70
     1
 71
     0
 10
0.0
 20
0.0
 11
420.0
 21
297.0
 12
0.0
 22
0.0
 32
0.0
 14
-55.65000000000011
 24
-49.97180738881175
 34
0.0
 15
91.54473381534558
 25
37.46337500000014
 35
0.0
146
0.0
 13
0.0
 23
0.0
 33
0.0
 16
1.0
 26
0.0
 36
0.0
 17
0.0
 27
1.0
 37
0.0
 76
     0
330
1F
331
29
  0
MLINESTYLE
  5
18
102
{ACAD_REACTORS
330
17
102
}
330
17
100
AcDbMlineStyle
  2
Standard
 70
     0
  3

 62
   256
 51
90.0
 52
90.0
 71
     2
 49
0.5
 62
   256
  6
BYLAYER
 49
-0.5
 62
   256
  6
BYLAYER
  0
ACDBPLACEHOLDER
  5
F
102
{ACAD_REACTORS
330
E
102
}
330
E
  0
SCALE
  5
48
102
{ACAD_REACTORS
330
47
102
}
330
47
100
AcDbScale
 70
     0
300
1:1
140
1.0
141
1.0
290
     1
  0
SCALE
  5
49
102
{ACAD_REACTORS
330
47
102
}
330
47
100
AcDbScale
 70
     0
300
1:2
140
1.0
141
2.0
290
     0
  0
SCALE
  5
4A
102
{ACAD_REACTORS
330
47
102
}
330
47
100
AcDbScale
 70
     0
300
1:4
140
1.0
141
4.0
290
     0
  0
SCALE
  5
4B
102
{ACAD_REACTORS
330
47
102
}
330
47
100
AcDbScale
 70
     0
300
1:5
140
1.0
141
5.0
290
     0
  0
SCALE
  5
4C
102
{ACAD_REACTORS
330
47
102
}
330
47
100
AcDbScale
 70
     0
300
1:8
140
1.0
141
8.0
290
     0
  0
SCALE
  5
4D
102
{ACAD_REACTORS
330
47
102
}
330
47
100
AcDbScale
 70
     0
300
1:10
140
1.0
141
10.0
290
     0
  0
SCALE
  5
4E
102
{ACAD_REACTORS
330
47
102
}
330
47
100
AcDbScale
 70
     0
300
1:16
140
1.0
141
16.0
290
     0
  0
SCALE
  5
4F
102
{ACAD_REACTORS
330
47
102
}
330
47
100
AcDbScale
 70
     0
300
1:20
140
1.0
141
20.0
290
     0
  0
SCALE
  5
50
102
{ACAD_REACTORS
330
47
102
}
330
47
100
AcDbScale
 70
     0
300
1:30
140
1.0
141
30.0
290
     0
  0
SCALE
  5
51
102
{ACAD_REACTORS
330
47
102
}
330
47
100
AcDbScale
 70
     0
300
1:40
140
1.0
141
40.0
290
     0
  0
SCALE
  5
52
102
{ACAD_REACTORS
330
47
102
}
330
47
100
AcDbScale
 70
     0
300
1:50
140
1.0
141
50.0
290
     0
  0
SCALE
  5
53
102
{ACAD_REACTORS
330
47
102
}
330
47
100
AcDbScale
 70
     0
300
1:100
140
1.0
141
100.0
290
     0
  0
SCALE
  5
54
102
{ACAD_REACTORS
330
47
102
}
330
47
100
AcDbScale
 70
     0
300
2:1
140
2.0
141
1.0
290
     0
  0
SCALE
  5
55
102
{ACAD_REACTORS
330
47
102
}
330
47
100
AcDbScale
 70
     0
300
4:1
140
4.0
141
1.0
290
     0
  0
SCALE
  5
56
102
{ACAD_REACTORS
330
47
102
}
330
47
100
AcDbScale
 70
     0
300
8:1
140
8.0
141
1.0
290
     0
  0
SCALE
  5
57
102
{ACAD_REACTORS
330
47
102
}
330
47
100
AcDbScale
 70
     0
300
10:1
140
10.0
141
1.0
290
     0
  0
SCALE
  5
58
102
{ACAD_REACTORS
330
47
102
}
330
47
100
AcDbScale
 70
     0
300
100:1
140
100.0
141
1.0
290
     0
  0
SCALE
  5
59
102
{ACAD_REACTORS
330
47
102
}
330
47
100
AcDbScale
 70
     0
300
1/128" = 1'-0"
140
0.0078125
141
12.0
290
     0
  0
SCALE
  5
5A
102
{ACAD_REACTORS
330
47
102
}
330
47
100
AcDbScale
 70
     0
300
1/64" = 1'-0"
140
0.015625
141
12.0
290
     0
  0
SCALE
  5
5B
102
{ACAD_REACTORS
330
47
102
}
330
47
100
AcDbScale
 70
     0
300
1/32" = 1'-0"
140
0.03125
141
12.0
290
     0
  0
SCALE
  5
5C
102
{ACAD_REACTORS
330
47
102
}
330
47
100
AcDbScale
 70
     0
300
1/16" = 1'-0"
140
0.0625
141
12.0
290
     0
  0
SCALE
  5
5D
102
{ACAD_REACTORS
330
47
102
}
330
47
100
AcDbScale
 70
     0
300
3/32" = 1'-0"
140
0.09375
141
12.0
290
     0
  0
SCALE
  5
5E
102
{ACAD_REACTORS
330
47
102
}
330
47
100
AcDbScale
 70
     0
300
1/8" = 1'-0"
140
0.125
141
12.0
290
     0
  0
SCALE
  5
5F
102
{ACAD_REACTORS
330
47
102
}
330
47
100
AcDbScale
 70
     0
300
3/16" = 1'-0"
140
0.1875
141
12.0
290
     0
  0
SCALE
  5
60
102
{ACAD_REACTORS
330
47
102
}
330
47
100
AcDbScale
 70
     0
300
1/4" = 1'-0"
140
0.25
141
12.0
290
     0
  0
SCALE
  5
61
102
{ACAD_REACTORS
330
47
102
}
330
47
100
AcDbScale
 70
     0
300
3/8" = 1'-0"
140
0.375
141
12.0
290
     0
  0
SCALE
  5
62
102
{ACAD_REACTORS
330
47
102
}
330
47
100
AcDbScale
 70
     0
300
1/2" = 1'-0"
140
0.5
141
12.0
290
     0
  0
SCALE
  5
63
102
{ACAD_REACTORS
330
47
102
}
330
47
100
AcDbScale
 70
     0
300
3/4" = 1'-0"
140
0.75
141
12.0
290
     0
  0
SCALE
  5
64
102
{ACAD_REACTORS
330
47
102
}
330
47
100
AcDbScale
 70
     0
300
1" = 1'-0"
140
1.0
141
12.0
290
     0
  0
SCALE
  5
65
102
{ACAD_REACTORS
330
47
102
}
330
47
100
AcDbScale
 70
     0
300
1-1/2" = 1'-0"
140
1.5
141
12.0
290
     0
  0
SCALE
  5
66
102
{ACAD_REACTORS
330
47
102
}
330
47
100
AcDbScale
 70
     0
300
3" = 1'-0"
140
3.0
141
12.0
290
     0
  0
SCALE
  5
67
102
{ACAD_REACTORS
330
47
102
}
330
47
100
AcDbScale
 70
     0
300
6" = 1'-0"
140
6.0
141
12.0
290
     0
  0
SCALE
  5
68
102
{ACAD_REACTORS
330
47
102
}
330
47
100
AcDbScale
 70
     0
300
1'-0" = 1'-0"
140
12.0
141
12.0
290
     0
  0
ENDSEC
  0
EOF
