  0
SECTION
  2
HEADER
  9
$ACADVER
  1
AC1015
  9
$ACADMAINTVER
 70
     6
  9
$DWGCODEPAGE
  3
ANSI_949
  9
$INSBASE
 10
0.0
 20
0.0
 30
0.0
  9
$EXTMIN
 10
-51.48786934298452
 20
-49.97073246008785
 30
0.0
  9
$EXTMAX
 10
84.5969087513702
 20
37.61757492872385
 30
0.0
  9
$LIMMIN
 10
0.0
 20
0.0
  9
$LIMMAX
 10
420.0
 20
297.0
  9
$ORTHOMODE
 70
     1
  9
$REGENMODE
 70
     1
  9
$FILLMODE
 70
     1
  9
$QTEXTMODE
 70
     0
  9
$MIRRTEXT
 70
     1
  9
$LTSCALE
 40
1.0
  9
$ATTMODE
 70
     1
  9
$TEXTSIZE
 40
3.5
  9
$TRACEWID
 40
1.0
  9
$TEXTSTYLE
  7
Standard
  9
$CLAYER
  8
0
  9
$CELTYPE
  6
ByLayer
  9
$CECOLOR
 62
   256
  9
$CELTSCALE
 40
1.0
  9
$DISPSILH
 70
     0
  9
$DIMSCALE
 40
1.0
  9
$DIMASZ
 40
3.302
  9
$DIMEXO
 40
1.0
  9
$DIMDLI
 40
3.75
  9
$DIMRND
 40
0.0
  9
$DIMDLE
 40
0.0
  9
$DIMEXE
 40
1.0
  9
$DIMTP
 40
0.0
  9
$DIMTM
 40
0.0
  9
$DIMTXT
 40
3.5
  9
$DIMCEN
 40
2.5
  9
$DIMTSZ
 40
0.0
  9
$DIMTOL
 70
     0
  9
$DIMLIM
 70
     0
  9
$DIMTIH
 70
     1
  9
$DIMTOH
 70
     1
  9
$DIMSE1
 70
     0
  9
$DIMSE2
 70
     0
  9
$DIMTAD
 70
     1
  9
$DIMZIN
 70
     0
  9
$DIMBLK
  1

  9
$DIMASO
 70
     1
  9
$DIMSHO
 70
     1
  9
$DIMPOST
  1

  9
$DIMAPOST
  1

  9
$DIMALT
 70
     0
  9
$DIMALTD
 70
     3
  9
$DIMALTF
 40
0.0393700787401575
  9
$DIMLFAC
 40
1.0
  9
$DIMTOFL
 70
     1
  9
$DIMTVP
 40
0.0
  9
$DIMTIX
 70
     0
  9
$DIMSOXD
 70
     0
  9
$DIMSAH
 70
     0
  9
$DIMBLK1
  1

  9
$DIMBLK2
  1

  9
$DIMSTYLE
  2
ISO-25
  9
$DIMCLRD
 70
     0
  9
$DIMCLRE
 70
     0
  9
$DIMCLRT
 70
     0
  9
$DIMTFAC
 40
1.0
  9
$DIMGAP
 40
1.524
  9
$DIMJUST
 70
     0
  9
$DIMSD1
 70
     0
  9
$DIMSD2
 70
     0
  9
$DIMTOLJ
 70
     0
  9
$DIMTZIN
 70
     0
  9
$DIMALTZ
 70
     0
  9
$DIMALTTZ
 70
     0
  9
$DIMUPT
 70
     0
  9
$DIMDEC
 70
     2
  9
$DIMTDEC
 70
     2
  9
$DIMALTU
 70
     2
  9
$DIMALTTD
 70
     3
  9
$DIMTXSTY
  7
Standard
  9
$DIMAUNIT
 70
     0
  9
$DIMADEC
 70
     2
  9
$DIMALTRND
 40
0.0
  9
$DIMAZIN
 70
     0
  9
$DIMDSEP
 70
    44
  9
$DIMATFIT
 70
     3
  9
$DIMFRAC
 70
     0
  9
$DIMLDRBLK
  1

  9
$DIMLUNIT
 70
     2
  9
$DIMLWD
 70
    -2
  9
$DIMLWE
 70
    -2
  9
$DIMTMOVE
 70
     0
  9
$LUNITS
 70
     2
  9
$LUPREC
 70
     2
  9
$SKETCHINC
 40
1.0
  9
$FILLETRAD
 40
10.0
  9
$AUNITS
 70
     0
  9
$AUPREC
 70
     2
  9
$MENU
  1
.
  9
$ELEVATION
 40
0.0
  9
$PELEVATION
 40
0.0
  9
$THICKNESS
 40
0.0
  9
$LIMCHECK
 70
     0
  9
$CHAMFERA
 40
0.0
  9
$CHAMFERB
 40
0.0
  9
$CHAMFERC
 40
0.0
  9
$CHAMFERD
 40
0.0
  9
$SKPOLY
 70
     0
  9
$TDCREATE
 40
2458311.456695868
  9
$TDUCREATE
 40
2458311.081695868
  9
$TDUPDATE
 40
2458320.476101817
  9
$TDUUPDATE
 40
2458320.101101817
  9
$TDINDWG
 40
0.0011434491
  9
$TDUSRTIMER
 40
0.0011434375
  9
$USRTIMER
 70
     1
  9
$ANGBASE
 50
0.0
  9
$ANGDIR
 70
     0
  9
$PDMODE
 70
     0
  9
$PDSIZE
 40
-1.0
  9
$PLINEWID
 40
0.0
  9
$SPLFRAME
 70
     0
  9
$SPLINETYPE
 70
     6
  9
$SPLINESEGS
 70
     8
  9
$HANDSEED
  5
1F9
  9
$SURFTAB1
 70
     6
  9
$SURFTAB2
 70
     6
  9
$SURFTYPE
 70
     6
  9
$SURFU
 70
     6
  9
$SURFV
 70
     6
  9
$UCSBASE
  2

  9
$UCSNAME
  2

  9
$UCSORG
 10
0.0
 20
0.0
 30
0.0
  9
$UCSXDIR
 10
1.0
 20
0.0
 30
0.0
  9
$UCSYDIR
 10
0.0
 20
1.0
 30
0.0
  9
$UCSORTHOREF
  2

  9
$UCSORTHOVIEW
 70
     0
  9
$UCSORGTOP
 10
0.0
 20
0.0
 30
0.0
  9
$UCSORGBOTTOM
 10
0.0
 20
0.0
 30
0.0
  9
$UCSORGLEFT
 10
0.0
 20
0.0
 30
0.0
  9
$UCSORGRIGHT
 10
0.0
 20
0.0
 30
0.0
  9
$UCSORGFRONT
 10
0.0
 20
0.0
 30
0.0
  9
$UCSORGBACK
 10
0.0
 20
0.0
 30
0.0
  9
$PUCSBASE
  2

  9
$PUCSNAME
  2

  9
$PUCSORG
 10
0.0
 20
0.0
 30
0.0
  9
$PUCSXDIR
 10
1.0
 20
0.0
 30
0.0
  9
$PUCSYDIR
 10
0.0
 20
1.0
 30
0.0
  9
$PUCSORTHOREF
  2

  9
$PUCSORTHOVIEW
 70
     0
  9
$PUCSORGTOP
 10
0.0
 20
0.0
 30
0.0
  9
$PUCSORGBOTTOM
 10
0.0
 20
0.0
 30
0.0
  9
$PUCSORGLEFT
 10
0.0
 20
0.0
 30
0.0
  9
$PUCSORGRIGHT
 10
0.0
 20
0.0
 30
0.0
  9
$PUCSORGFRONT
 10
0.0
 20
0.0
 30
0.0
  9
$PUCSORGBACK
 10
0.0
 20
0.0
 30
0.0
  9
$USERI1
 70
     0
  9
$USERI2
 70
     0
  9
$USERI3
 70
     0
  9
$USERI4
 70
     0
  9
$USERI5
 70
     0
  9
$USERR1
 40
0.0
  9
$USERR2
 40
0.0
  9
$USERR3
 40
0.0
  9
$USERR4
 40
0.0
  9
$USERR5
 40
0.0
  9
$WORLDVIEW
 70
     1
  9
$SHADEDGE
 70
     3
  9
$SHADEDIF
 70
    70
  9
$TILEMODE
 70
     1
  9
$MAXACTVP
 70
    64
  9
$PINSBASE
 10
0.0
 20
0.0
 30
0.0
  9
$PLIMCHECK
 70
     0
  9
$PEXTMIN
 10
1.000000000000000E+20
 20
1.000000000000000E+20
 30
1.000000000000000E+20
  9
$PEXTMAX
 10
-1.000000000000000E+20
 20
-1.000000000000000E+20
 30
-1.000000000000000E+20
  9
$PLIMMIN
 10
0.0
 20
0.0
  9
$PLIMMAX
 10
0.0
 20
0.0
  9
$UNITMODE
 70
     0
  9
$VISRETAIN
 70
     1
  9
$PLINEGEN
 70
     0
  9
$PSLTSCALE
 70
     1
  9
$TREEDEPTH
 70
  3020
  9
$CMLSTYLE
  2
Standard
  9
$CMLJUST
 70
     0
  9
$CMLSCALE
 40
20.0
  9
$PROXYGRAPHICS
 70
     1
  9
$MEASUREMENT
 70
     1
  9
$CELWEIGHT
370
    -1
  9
$ENDCAPS
280
     0
  9
$JOINSTYLE
280
     0
  9
$LWDISPLAY
290
     1
  9
$INSUNITS
 70
     4
  9
$HYPERLINKBASE
  1

  9
$STYLESHEET
  1

  9
$XEDIT
290
     1
  9
$CEPSNTYPE
380
     0
  9
$PSTYLEMODE
290
     1
  9
$FINGERPRINTGUID
  2
{9F24C552-A8D3-4184-BD19-1FFC8FB4E744}
  9
$VERSIONGUID
  2
{FAEB1C32-E019-11D5-929B-00C0DF256EC4}
  9
$EXTNAMES
290
     1
  9
$PSVPSCALE
 40
0.0
  9
$OLESTARTUP
290
     0
  0
ENDSEC
  0
SECTION
  2
CLASSES
  0
CLASS
  1
ACDBDICTIONARYWDFLT
  2
AcDbDictionaryWithDefault
  3
ObjectDBX Classes
 90
        0
280
     0
281
     0
  0
CLASS
  1
VISUALSTYLE
  2
AcDbVisualStyle
  3
ObjectDBX Classes
 90
     4095
280
     0
281
     0
  0
CLASS
  1
MATERIAL
  2
AcDbMaterial
  3
ObjectDBX Classes
 90
     1153
280
     0
281
     0
  0
CLASS
  1
SCALE
  2
AcDbScale
  3
ObjectDBX Classes
 90
     1153
280
     0
281
     0
  0
CLASS
  1
SUN
  2
AcDbSun
  3
SCENEOE
 90
     1153
280
     0
281
     0
  0
CLASS
  1
ACDBPLACEHOLDER
  2
AcDbPlaceHolder
  3
ObjectDBX Classes
 90
        0
280
     0
281
     0
  0
CLASS
  1
LAYOUT
  2
AcDbLayout
  3
ObjectDBX Classes
 90
        0
280
     0
281
     0
  0
CLASS
  1
TABLESTYLE
  2
AcDbTableStyle
  3
ObjectDBX Classes
 90
     4095
280
     0
281
     0
  0
CLASS
  1
MLEADERSTYLE
  2
AcDbMLeaderStyle
  3
ACDB_MLEADERSTYLE_CLASS
 90
     4095
280
     0
281
     0
  0
CLASS
  1
DICTIONARYVAR
  2
AcDbDictionaryVar
  3
ObjectDBX Classes
 90
        0
280
     0
281
     0
  0
ENDSEC
  0
SECTION
  2
TABLES
  0
TABLE
  2
VPORT
  5
8
330
0
100
AcDbSymbolTable
 70
     1
  0
VPORT
  5
29
330
8
100
AcDbSymbolTableRecord
100
AcDbViewportTableRecord
  2
*Active
 70
     0
 10
0.0
 20
0.0
 11
1.0
 21
1.0
 12
16.55451970419283
 22
-6.176578765682002
 13
0.0
 23
0.0
 14
10.0
 24
10.0
 15
10.0
 25
10.0
 16
0.0
 26
0.0
 36
1.0
 17
0.0
 27
0.0
 37
0.0
 40
89.34007353658794
 41
1.782762691853601
 42
50.0
 43
0.0
 44
0.0
 50
0.0
 51
0.0
 71
    16
 72
  2000
 73
     1
 74
     3
 75
     0
 76
     0
 77
     0
 78
     0
281
     0
 65
     1
110
0.0
120
0.0
130
0.0
111
1.0
121
0.0
131
0.0
112
0.0
122
1.0
132
0.0
 79
     0
146
0.0
  0
ENDTAB
  0
TABLE
  2
LTYPE
  5
5
330
0
100
AcDbSymbolTable
 70
     6
  0
LTYPE
  5
14
330
5
100
AcDbSymbolTableRecord
100
AcDbLinetypeTableRecord
  2
ByBlock
 70
     0
  3

 72
    65
 73
     0
 40
0.0
  0
LTYPE
  5
15
330
5
100
AcDbSymbolTableRecord
100
AcDbLinetypeTableRecord
  2
ByLayer
 70
     0
  3

 72
    65
 73
     0
 40
0.0
  0
LTYPE
  5
16
330
5
100
AcDbSymbolTableRecord
100
AcDbLinetypeTableRecord
  2
Continuous
 70
     0
  3
Solid line
 72
    65
 73
     0
 40
0.0
  0
LTYPE
  5
6A
330
5
100
AcDbSymbolTableRecord
100
AcDbLinetypeTableRecord
  2
HIDDEN
 70
     0
  3
Hidden __ __ __ __ __ __ __ __ __ __ __ __ __ __
 72
    65
 73
     2
 40
1.905
 49
1.27
 74
     0
 49
-0.635
 74
     0
  0
LTYPE
  5
6B
330
5
100
AcDbSymbolTableRecord
100
AcDbLinetypeTableRecord
  2
PHANTOM
 70
     0
  3
Phantom ______  __  __  ______  __  __  ______
 72
    65
 73
     6
 40
12.7
 49
6.35
 74
     0
 49
-1.27
 74
     0
 49
1.27
 74
     0
 49
-1.27
 74
     0
 49
1.27
 74
     0
 49
-1.27
 74
     0
  0
LTYPE
  5
6C
330
5
100
AcDbSymbolTableRecord
100
AcDbLinetypeTableRecord
  2
CENTER
 70
     0
  3
Center ____ _ ____ _ ____ _ ____ _ ____ _ ____
 72
    65
 73
     4
 40
10.16
 49
6.35
 74
     0
 49
-1.27
 74
     0
 49
1.27
 74
     0
 49
-1.27
 74
     0
  0
LTYPE
  5
6D
330
5
100
AcDbSymbolTableRecord
100
AcDbLinetypeTableRecord
  2
CENTERX2
 70
     0
  3
Center (2x) ________  __  ________  __  _____
 72
    65
 73
     4
 40
20.32
 49
12.7
 74
     0
 49
-2.54
 74
     0
 49
2.54
 74
     0
 49
-2.54
 74
     0
  0
LTYPE
  5
6E
330
5
100
AcDbSymbolTableRecord
100
AcDbLinetypeTableRecord
  2
DOT2
 70
     0
  3
Dot (.5x) ........................................
 72
    65
 73
     2
 40
0.635
 49
0.0
 74
     0
 49
-0.635
 74
     0
  0
ENDTAB
  0
TABLE
  2
LAYER
  5
2
102
{ACAD_XDICTIONARY
360
193
102
}
330
0
100
AcDbSymbolTable
 70
    18
  0
LAYER
  5
10
330
2
100
AcDbSymbolTableRecord
100
AcDbLayerTableRecord
  2
0
 70
     0
 62
     7
  6
Continuous
370
    -3
390
F
  0
LAYER
  5
6F
330
2
100
AcDbSymbolTableRecord
100
AcDbLayerTableRecord
  2
FORMAT
 70
     0
 62
     2
  6
Continuous
370
    -3
390
F
  0
LAYER
  5
70
330
2
100
AcDbSymbolTableRecord
100
AcDbLayerTableRecord
  2
외형선
 70
     0
 62
     4
  6
Continuous
370
    30
390
F
  0
LAYER
  5
71
330
2
100
AcDbSymbolTableRecord
100
AcDbLayerTableRecord
  2
숨은선
 70
     0
 62
     2
  6
HIDDEN
370
    15
390
F
  0
LAYER
  5
72
330
2
100
AcDbSymbolTableRecord
100
AcDbLayerTableRecord
  2
중심선
 70
     0
 62
     1
  6
CENTERX2
370
    -3
390
F
  0
LAYER
  5
73
330
2
100
AcDbSymbolTableRecord
100
AcDbLayerTableRecord
  2
파단선
 70
     0
 62
     4
  6
Continuous
370
    -3
390
F
  0
LAYER
  5
74
330
2
100
AcDbSymbolTableRecord
100
AcDbLayerTableRecord
  2
해칭선
 70
     0
 62
   100
  6
Continuous
370
    -3
390
F
  0
LAYER
  5
75
330
2
100
AcDbSymbolTableRecord
100
AcDbLayerTableRecord
  2
가는실선
 70
     0
 62
     4
  6
Continuous
370
    -3
390
F
  0
LAYER
  5
76
330
2
100
AcDbSymbolTableRecord
100
AcDbLayerTableRecord
  2
치수_보조선
 70
     0
 62
     4
  6
Continuous
370
    -3
390
F
  0
LAYER
  5
77
330
2
100
AcDbSymbolTableRecord
100
AcDbLayerTableRecord
  2
치수문자_일반주서
 70
     0
 62
     7
  6
Continuous
370
    15
390
F
  0
LAYER
  5
78
330
2
100
AcDbSymbolTableRecord
100
AcDbLayerTableRecord
  2
개별주서
 70
     0
 62
   100
  6
Continuous
370
    30
390
F
  0
LAYER
  5
79
330
2
100
AcDbSymbolTableRecord
100
AcDbLayerTableRecord
  2
중간선
 70
     0
 62
     2
  6
Continuous
370
    15
390
F
  0
LAYER
  5
7A
330
2
100
AcDbSymbolTableRecord
100
AcDbLayerTableRecord
  2
윤곽선
 70
     0
 62
     3
  6
Continuous
370
    40
390
F
  0
LAYER
  5
7B
330
2
100
AcDbSymbolTableRecord
100
AcDbLayerTableRecord
  2
중심마크
 70
     0
 62
   100
  6
Continuous
370
    30
390
F
  0
LAYER
  5
7C
330
2
100
AcDbSymbolTableRecord
100
AcDbLayerTableRecord
  2
가상선
 70
     0
 62
     4
  6
PHANTOM
370
    -3
390
F
  0
LAYER
  5
7D
330
2
100
AcDbSymbolTableRecord
100
AcDbLayerTableRecord
  2
특수지정선
 70
     0
 62
     5
  6
CENTERX2
370
    60
390
F
  0
LAYER
  5
7E
330
2
100
AcDbSymbolTableRecord
100
AcDbLayerTableRecord
  2
참조1
 70
     0
 62
    -4
  6
Continuous
370
    -3
390
F
  0
LAYER
  5
15C
330
2
100
AcDbSymbolTableRecord
100
AcDbLayerTableRecord
  2
Defpoints
 70
     0
 62
     7
  6
Continuous
290
     0
370
    -3
390
F
  0
ENDTAB
  0
TABLE
  2
STYLE
  5
3
330
0
100
AcDbSymbolTable
 70
     2
  0
STYLE
  5
11
330
3
100
AcDbSymbolTableRecord
100
AcDbTextStyleTableRecord
  2
Standard
 70
     0
 40
0.0
 41
1.0
 50
0.0
 71
     0
 42
3.5
  3
txt
  4

  0
STYLE
  5
94
330
3
100
AcDbSymbolTableRecord
100
AcDbTextStyleTableRecord
  2
SLDTEXTSTYLE0
 70
     0
 40
0.0
 41
0.75
 50
0.0
 71
     0
 42
3.5
  3
TXT
  4

  0
ENDTAB
  0
TABLE
  2
VIEW
  5
6
330
0
100
AcDbSymbolTable
 70
     0
  0
ENDTAB
  0
TABLE
  2
UCS
  5
7
330
0
100
AcDbSymbolTable
 70
     0
  0
ENDTAB
  0
TABLE
  2
APPID
  5
9
330
0
100
AcDbSymbolTable
 70
     2
  0
APPID
  5
12
330
9
100
AcDbSymbolTableRecord
100
AcDbRegAppTableRecord
  2
ACAD
 70
     0
  0
APPID
  5
163
330
9
100
AcDbSymbolTableRecord
100
AcDbRegAppTableRecord
  2
PE_URL
 70
     0
  0
ENDTAB
  0
TABLE
  2
DIMSTYLE
  5
A
330
0
100
AcDbSymbolTable
 70
     4
100
AcDbDimStyleTable
  0
DIMSTYLE
105
27
330
A
100
AcDbSymbolTableRecord
100
AcDbDimStyleTableRecord
  2
ISO-25
 70
     0
 41
2.5
 42
0.625
 43
3.75
 44
1.25
 73
     0
 74
     0
 77
     1
 78
     8
140
2.5
141
2.5
143
0.03937007874016
147
0.625
171
     3
172
     1
178
     0
271
     2
272
     2
274
     3
278
    44
283
     0
284
     8
340
11
  0
DIMSTYLE
105
DA
102
{ACAD_REACTORS
330
D9
330
117
330
182
330
EE
330
103
102
}
330
A
100
AcDbSymbolTableRecord
100
AcDbDimStyleTableRecord
  2
SLDDIMSTYLE0
 70
     0
 41
3.302
 44
0.0
 45
0.000000001
 73
     0
 74
     0
 77
     1
 78
    12
 79
     3
140
3.5
143
0.0393700787401575
147
0.875
148
0.000000001
170
     1
172
     1
173
     1
178
     0
271
     2
272
     2
276
     2
284
    12
289
     0
340
94
  0
DIMSTYLE
105
EF
330
A
100
AcDbSymbolTableRecord
100
AcDbDimStyleTableRecord
  2
SLDDIMSTYLE1
 70
     0
 41
3.302
 44
0.0
 45
0.000000001
 73
     0
 74
     0
 77
     1
 78
     4
 79
     1
140
3.5
143
0.0393700787401575
147
0.875
148
0.000000001
170
     1
173
     1
178
     0
271
     2
272
     2
276
     2
284
    12
340
94
  0
DIMSTYLE
105
104
330
A
100
AcDbSymbolTableRecord
100
AcDbDimStyleTableRecord
  2
SLDDIMSTYLE2
 70
     0
 41
3.302
 44
0.0
 45
0.000000001
 73
     0
 74
     0
 77
     1
 78
    12
 79
     3
140
3.5
143
0.0393700787401575
147
0.875
148
0.000000001
170
     1
173
     1
178
     0
271
     2
272
     2
276
     2
284
    12
340
94
  0
ENDTAB
  0
TABLE
  2
BLOCK_RECORD
  5
1
330
0
100
AcDbSymbolTable
 70
    11
  0
BLOCK_RECORD
  5
1F
330
1
100
AcDbSymbolTableRecord
100
AcDbBlockTableRecord
  2
*Model_Space
340
22
  0
BLOCK_RECORD
  5
1B
330
1
100
AcDbSymbolTableRecord
100
AcDbBlockTableRecord
  2
*Paper_Space
340
1E
  0
BLOCK_RECORD
  5
23
330
1
100
AcDbSymbolTableRecord
100
AcDbBlockTableRecord
  2
*Paper_Space0
340
26
  0
BLOCK_RECORD
  5
7F
330
1
100
AcDbSymbolTableRecord
100
AcDbBlockTableRecord
  2
블럭10
340
0
102
{BLKREFS
331
D2
102
}
  0
BLOCK_RECORD
  5
DB
330
1
100
AcDbSymbolTableRecord
100
AcDbBlockTableRecord
  2
_D
340
0
  0
BLOCK_RECORD
  5
F0
330
1
100
AcDbSymbolTableRecord
100
AcDbBlockTableRecord
  2
_D_1
340
0
  0
BLOCK_RECORD
  5
105
330
1
100
AcDbSymbolTableRecord
100
AcDbBlockTableRecord
  2
_D_2
340
0
  0
BLOCK_RECORD
  5
118
330
1
100
AcDbSymbolTableRecord
100
AcDbBlockTableRecord
  2
_D_3
340
0
  0
BLOCK_RECORD
  5
132
330
1
100
AcDbSymbolTableRecord
100
AcDbBlockTableRecord
  2
SW_DOWELSYMBOL_0
340
0
102
{BLKREFS
331
138
102
}
  0
BLOCK_RECORD
  5
197
330
1
100
AcDbSymbolTableRecord
100
AcDbBlockTableRecord
  2
*D8
340
0
  0
BLOCK_RECORD
  5
1A9
330
1
100
AcDbSymbolTableRecord
100
AcDbBlockTableRecord
  2
*D9
340
0
  0
ENDTAB
  0
ENDSEC
  0
SECTION
  2
BLOCKS
  0
BLOCK
  5
20
330
1F
100
AcDbEntity
  8
0
100
AcDbBlockBegin
  2
*Model_Space
 70
     0
 10
0.0
 20
0.0
 30
0.0
  3
*Model_Space
  1

  0
ENDBLK
  5
21
330
1F
100
AcDbEntity
  8
0
100
AcDbBlockEnd
  0
BLOCK
  5
1C
330
1B
100
AcDbEntity
 67
     1
  8
0
100
AcDbBlockBegin
  2
*Paper_Space
 70
     0
 10
0.0
 20
0.0
 30
0.0
  3
*Paper_Space
  1

  0
ENDBLK
  5
1D
330
1B
100
AcDbEntity
 67
     1
  8
0
100
AcDbBlockEnd
  0
BLOCK
  5
24
330
23
100
AcDbEntity
  8
0
100
AcDbBlockBegin
  2
*Paper_Space0
 70
     0
 10
0.0
 20
0.0
 30
0.0
  3
*Paper_Space0
  1

  0
ENDBLK
  5
25
330
23
100
AcDbEntity
  8
0
100
AcDbBlockEnd
  0
BLOCK
  5
80
330
7F
100
AcDbEntity
  8
0
100
AcDbBlockBegin
  2
블럭10
 70
     2
 10
0.0
 20
0.0
 30
0.0
  3
블럭10
  1

  0
ELLIPSE
  5
82
330
7F
100
AcDbEntity
  8
중심선
100
AcDbEllipse
 10
20.54032771741204
 20
12.0471743016438
 30
0.0
 11
6.600054785286829
 21
-1.261213355974178E-13
 31
0.0
210
0.0
220
0.0
230
1.0
 40
0.636358354079598
 41
0.9219305317359503
 42
6.513795318482858
  0
ELLIPSE
  5
83
330
7F
100
AcDbEntity
  8
중심선
100
AcDbEllipse
 10
20.54032771746488
 20
12.04717430159265
 30
0.0
 11
3.960054785062283
 21
1.540847449632565E-10
 31
0.0
210
0.0
220
0.0
230
1.0
 40
0.3939339440162632
 41
1.131841032648279
 42
5.62031148352944
  0
LINE
  5
84
330
7F
100
AcDbEntity
  8
중심선
100
AcDbLine
 10
2.268634060543552
 20
16.24717430164393
 30
0.0
 11
5.714909304380834
 21
16.24717430164393
 31
0.0
  0
LINE
  5
85
330
7F
100
AcDbEntity
  8
중심선
100
AcDbLine
 10
5.245725140726316
 20
7.84717430164391
 30
0.0
 11
8.692000384563599
 21
7.84717430164391
 31
0.0
  0
LINE
  5
86
330
7F
100
AcDbEntity
  8
중심선
100
AcDbLine
 10
15.74043728645272
 20
16.24717430164393
 30
0.0
 11
8.692000384563599
 21
7.84717430164391
 31
0.0
  0
LINE
  5
87
330
7F
100
AcDbEntity
  8
중심선
100
AcDbLine
 10
0.1404042013395286
 20
13.71084872107135
 30
0.0
 11
3.58671253028996
 21
13.71088815037384
 31
0.0
  0
LINE
  5
88
330
7F
100
AcDbEntity
  8
중심선
100
AcDbLine
 10
2.750260043222114
 20
10.84717430164391
 30
0.0
 11
6.196535287059397
 21
10.84717430164391
 31
0.0
  0
LINE
  5
89
330
7F
100
AcDbEntity
  8
중심선
100
AcDbLine
 10
12.29416204261559
 20
16.24717430164393
 30
0.0
 11
5.245725140726316
 21
7.84717430164391
 31
0.0
  0
LINE
  5
8A
330
7F
100
AcDbEntity
  8
중심선
100
AcDbLine
 10
10.72767329541681
 20
16.24717430164393
 30
0.0
 11
6.196535287059397
 21
10.84717430164391
 31
0.0
  0
LINE
  5
8B
330
7F
100
AcDbEntity
  8
중심선
100
AcDbLine
 10
7.28139805157953
 20
16.24717430164393
 30
0.0
 11
2.750260043222114
 21
10.84717430164391
 31
0.0
  0
LINE
  5
8C
330
7F
100
AcDbEntity
  8
중심선
100
AcDbLine
 10
5.714909304380834
 20
16.24717430164393
 30
0.0
 11
3.58671253028996
 21
13.71088815037384
 31
0.0
  0
LINE
  5
8D
330
7F
100
AcDbEntity
  8
중심선
100
AcDbLine
 10
2.268634060543552
 20
16.24717430164393
 30
0.0
 11
0.1404042013395286
 21
13.71084872107135
 31
0.0
  0
LINE
  5
8E
330
7F
100
AcDbEntity
  8
중심선
100
AcDbLine
 10
7.28139805157953
 20
16.24717430164393
 30
0.0
 11
10.72767329541681
 21
16.24717430164393
 31
0.0
  0
LINE
  5
8F
330
7F
100
AcDbEntity
  8
중심선
100
AcDbLine
 10
12.29416204261559
 20
16.24717430164393
 30
0.0
 11
15.74043728645272
 21
16.24717430164393
 31
0.0
  0
LINE
  5
90
330
7F
100
AcDbEntity
  8
중심선
100
AcDbLine
 10
19.22036997980202
 20
11.08717430171403
 30
0.0
 11
23.66174974927406
 21
11.08717430171406
 31
0.0
  0
LINE
  5
91
330
7F
100
AcDbEntity
  8
중심선
100
AcDbLine
 10
19.22039502424796
 20
13.00717430171391
 30
0.0
 11
19.22036997980202
 21
11.08717430171403
 31
0.0
  0
LINE
  5
92
330
7F
100
AcDbEntity
  8
중심선
100
AcDbLine
 10
19.22039502424796
 20
13.00717430171391
 30
0.0
 11
26.96566020931264
 21
13.00717430171391
 31
0.0
  0
LINE
  5
93
330
7F
100
AcDbEntity
  8
중심선
100
AcDbLine
 10
22.22332737316547
 20
13.45928029700563
 30
0.0
 11
24.52862924686651
 21
15.39360700705356
 31
0.0
  0
ATTDEF
  5
95
330
7F
100
AcDbEntity
  8
FORMAT
 62
     2
100
AcDbText
 10
4.408487351596664
 20
2.075366912832191
 30
0.0
 40
4.233333333333333
  1
E1030016
 41
0.75
  7
SLDTEXTSTYLE0
 11
4.408487351596664
 21
-0.0412997538344756
 31
0.0
100
AcDbAttributeDefinition
  3

  2
AUTOATTR0
 70
     0
 74
     1
  0
ENDBLK
  5
81
330
7F
100
AcDbEntity
  8
0
100
AcDbBlockEnd
  0
BLOCK
  5
DC
330
DB
100
AcDbEntity
  8
0
100
AcDbBlockBegin
  2
_D
 70
     0
 10
0.0
 20
0.0
 30
0.0
  3
_D
  1

  0
LINE
  5
DE
330
DB
100
AcDbEntity
  8
치수문자_일반주서
 62
     0
370
    -2
100
AcDbLine
 10
-36.36536934298442
 20
4.763574928723897
 30
0.0
 11
-47.11286934298441
 21
4.763574928723855
 31
0.0
  0
LINE
  5
DF
330
DB
100
AcDbEntity
  8
치수문자_일반주서
 62
     0
370
    -2
100
AcDbLine
 10
-36.36536934298442
 20
-4.761425071276109
 30
0.0
 11
-47.11286934298438
 21
-4.76142507127615
 31
0.0
  0
LINE
  5
E0
330
DB
100
AcDbEntity
  8
치수문자_일반주서
 62
     0
370
    -2
100
AcDbLine
 10
-47.11286934298441
 20
4.763574928723855
 30
0.0
 11
-47.11286934298453
 21
37.61757492872385
 31
0.0
  0
LINE
  5
E1
330
DB
100
AcDbEntity
  8
치수문자_일반주서
 62
     0
370
    -2
100
AcDbLine
 10
-47.11286934298441
 20
4.763574928723855
 30
0.0
 11
-47.11286934298438
 21
-4.76142507127615
 31
0.0
  0
LINE
  5
E2
330
DB
100
AcDbEntity
  8
치수문자_일반주서
 62
     0
370
    -2
100
AcDbLine
 10
-47.11286934298442
 20
8.065574928723855
 30
0.0
 11
-47.11286934298444
 21
11.36757492872385
 31
0.0
  0
LINE
  5
E3
330
DB
100
AcDbEntity
  8
치수문자_일반주서
 62
     0
370
    -2
100
AcDbLine
 10
-47.11286934298436
 20
-8.06342507127615
 30
0.0
 11
-47.11286934298435
 21
-11.36542507127615
 31
0.0
  0
SOLID
  5
E4
330
DB
100
AcDbEntity
  8
치수문자_일반주서
 62
     0
100
AcDbTrace
 10
-47.66320267631776
 20
8.065574928723853
 30
0.0
 11
-46.56253600965109
 21
8.065574928723857
 31
0.0
 12
-47.11286934298441
 22
4.763574928723855
 32
0.0
 13
-47.11286934298441
 23
4.763574928723855
 33
0.0
  0
SOLID
  5
E5
330
DB
100
AcDbEntity
  8
치수문자_일반주서
 62
     0
100
AcDbTrace
 10
-46.56253600965103
 20
-8.063425071276148
 30
0.0
 11
-47.6632026763177
 21
-8.063425071276152
 31
0.0
 12
-47.11286934298438
 22
-4.76142507127615
 32
0.0
 13
-47.11286934298438
 23
-4.76142507127615
 33
0.0
  0
MTEXT
  5
E6
330
DB
100
AcDbEntity
  8
치수문자_일반주서
 62
     0
100
AcDbMText
 10
-51.48786934298448
 20
24.49257492872384
 30
0.0
 40
3.5
 41
0.0
 71
     2
 72
     1
  1
\A1;%%c9.53 [3/8]
  7
SLDTEXTSTYLE0
 11
-3.729883127349606E-15
 21
1.0
 31
0.0
 73
     1
 44
1.0
  0
POINT
  5
1F5
330
DB
100
AcDbEntity
  8
Defpoints
 62
     0
100
AcDbPoint
 10
-36.30286934298442
 20
4.763574928723897
 30
0.0
  0
POINT
  5
1F6
330
DB
100
AcDbEntity
  8
Defpoints
 62
     0
100
AcDbPoint
 10
-36.30286934298442
 20
-4.761425071276109
 30
0.0
  0
POINT
  5
1F7
330
DB
100
AcDbEntity
  8
Defpoints
 62
     0
100
AcDbPoint
 10
-47.11286934298438
 20
-4.761425071276149
 30
0.0
  0
ENDBLK
  5
DD
330
DB
100
AcDbEntity
  8
0
100
AcDbBlockEnd
  0
BLOCK
  5
F1
330
F0
100
AcDbEntity
  8
0
100
AcDbBlockBegin
  2
_D_1
 70
     0
 10
0.0
 20
0.0
 30
0.0
  3
_D_1
  1

  0
LINE
  5
F3
330
F0
100
AcDbEntity
  8
치수문자_일반주서
 62
     0
370
    -2
100
AcDbLine
 10
21.62463065701558
 20
3.235891467078012
 30
0.0
 11
21.62463065701558
 21
14.76357492872389
 31
0.0
  0
LINE
  5
F4
330
F0
100
AcDbEntity
  8
치수문자_일반주서
 62
     0
370
    -2
100
AcDbLine
 10
8.92463065701558
 20
2.832369356066201
 30
0.0
 11
8.92463065701558
 21
14.76357492872389
 31
0.0
  0
LINE
  5
F5
330
F0
100
AcDbEntity
  8
치수문자_일반주서
 62
     0
370
    -2
100
AcDbLine
 10
21.62463065701558
 20
14.76357492872389
 30
0.0
 11
50.10363065701559
 21
14.76357492872389
 31
0.0
  0
LINE
  5
F6
330
F0
100
AcDbEntity
  8
치수문자_일반주서
 62
     0
370
    -2
100
AcDbLine
 10
21.62463065701558
 20
14.76357492872389
 30
0.0
 11
8.92463065701558
 21
14.76357492872389
 31
0.0
  0
LINE
  5
F7
330
F0
100
AcDbEntity
  8
치수문자_일반주서
 62
     0
370
    -2
100
AcDbLine
 10
24.92663065701558
 20
14.76357492872389
 30
0.0
 11
28.22863065701558
 21
14.76357492872389
 31
0.0
  0
LINE
  5
F8
330
F0
100
AcDbEntity
  8
치수문자_일반주서
 62
     0
370
    -2
100
AcDbLine
 10
5.622630657015581
 20
14.76357492872389
 30
0.0
 11
2.320630657015581
 21
14.76357492872389
 31
0.0
  0
SOLID
  5
F9
330
F0
100
AcDbEntity
  8
치수문자_일반주서
 62
     0
100
AcDbTrace
 10
24.92663065701558
 20
15.31390826205722
 30
0.0
 11
24.92663065701558
 21
14.21324159539056
 31
0.0
 12
21.62463065701558
 22
14.76357492872389
 32
0.0
 13
21.62463065701558
 23
14.76357492872389
 33
0.0
  0
SOLID
  5
FA
330
F0
100
AcDbEntity
  8
치수문자_일반주서
 62
     0
100
AcDbTrace
 10
5.622630657015581
 20
14.21324159539056
 30
0.0
 11
5.622630657015581
 21
15.31390826205722
 31
0.0
 12
8.92463065701558
 22
14.76357492872389
 32
0.0
 13
8.92463065701558
 23
14.76357492872389
 33
0.0
  0
MTEXT
  5
FB
330
F0
100
AcDbEntity
  8
치수문자_일반주서
 62
     0
100
AcDbMText
 10
39.16613065701559
 20
19.13857492872389
 30
0.0
 40
3.5
 41
0.0
 71
     2
 72
     1
  1
\A1;12.7 [1/2]
  7
SLDTEXTSTYLE0
 73
     1
 44
1.0
  0
POINT
  5
FC
330
F0
100
AcDbEntity
  8
Defpoints
 62
     0
100
AcDbPoint
 10
21.62463065701558
 20
3.173391467078012
 30
0.0
  0
POINT
  5
FD
330
F0
100
AcDbEntity
  8
Defpoints
 62
     0
100
AcDbPoint
 10
8.92463065701558
 20
2.769869356066201
 30
0.0
  0
POINT
  5
FE
330
F0
100
AcDbEntity
  8
Defpoints
 62
     0
100
AcDbPoint
 10
8.92463065701558
 20
14.76357492872389
 30
0.0
  0
ENDBLK
  5
F2
330
F0
100
AcDbEntity
  8
0
100
AcDbBlockEnd
  0
BLOCK
  5
106
330
105
100
AcDbEntity
  8
0
100
AcDbBlockBegin
  2
_D_2
 70
     0
 10
0.0
 20
0.0
 30
0.0
  3
_D_2
  1

  0
LINE
  5
108
330
105
100
AcDbEntity
  8
치수문자_일반주서
 62
     0
370
    -2
100
AcDbLine
 10
21.62463065701558
 20
3.235891467078012
 30
0.0
 11
21.62463065701559
 21
24.76357492872389
 31
0.0
  0
LINE
  5
109
330
105
100
AcDbEntity
  8
치수문자_일반주서
 62
     0
370
    -2
100
AcDbLine
 10
-37.11286934298442
 20
4.01607492872389
 30
0.0
 11
-37.11286934298442
 21
24.76357492872389
 31
0.0
  0
LINE
  5
10A
330
105
100
AcDbEntity
  8
치수문자_일반주서
 62
     0
370
    -2
100
AcDbLine
 10
18.32263065701559
 20
24.76357492872389
 30
0.0
 11
-33.81086934298442
 21
24.76357492872389
 31
0.0
  0
SOLID
  5
10B
330
105
100
AcDbEntity
  8
치수문자_일반주서
 62
     0
100
AcDbTrace
 10
18.32263065701559
 20
24.21324159539056
 30
0.0
 11
18.32263065701559
 21
25.31390826205723
 31
0.0
 12
21.62463065701559
 22
24.76357492872389
 32
0.0
 13
21.62463065701559
 23
24.76357492872389
 33
0.0
  0
SOLID
  5
10C
330
105
100
AcDbEntity
  8
치수문자_일반주서
 62
     0
100
AcDbTrace
 10
-33.81086934298442
 20
25.31390826205723
 30
0.0
 11
-33.81086934298442
 21
24.21324159539056
 31
0.0
 12
-37.11286934298442
 22
24.76357492872389
 32
0.0
 13
-37.11286934298442
 23
24.76357492872389
 33
0.0
  0
MTEXT
  5
10D
330
105
100
AcDbEntity
  8
치수문자_일반주서
 62
     0
100
AcDbMText
 10
-7.744119342984464
 20
29.13857492872389
 30
0.0
 40
3.5
 41
0.0
 71
     2
 72
     1
  1
\A1;58.74 [2 5/16]
  7
SLDTEXTSTYLE0
 73
     1
 44
1.0
  0
POINT
  5
10E
330
105
100
AcDbEntity
  8
Defpoints
 62
     0
100
AcDbPoint
 10
21.62463065701558
 20
3.173391467078012
 30
0.0
  0
POINT
  5
10F
330
105
100
AcDbEntity
  8
Defpoints
 62
     0
100
AcDbPoint
 10
-37.11286934298442
 20
3.95357492872389
 30
0.0
  0
POINT
  5
110
330
105
100
AcDbEntity
  8
Defpoints
 62
     0
100
AcDbPoint
 10
-37.11286934298442
 20
24.76357492872389
 30
0.0
  0
ENDBLK
  5
107
330
105
100
AcDbEntity
  8
0
100
AcDbBlockEnd
  0
BLOCK
  5
119
330
118
100
AcDbEntity
  8
0
100
AcDbBlockBegin
  2
_D_3
 70
     0
 10
0.0
 20
0.0
 30
0.0
  3
_D_3
  1

  0
LINE
  5
11B
330
118
100
AcDbEntity
  8
치수문자_일반주서
 62
     0
370
    -2
100
AcDbLine
 10
21.68713065701558
 20
-3.171241609630224
 30
0.0
 11
57.08763729583587
 21
-3.171241609630094
 31
0.0
  0
LINE
  5
11C
330
118
100
AcDbEntity
  8
치수문자_일반주서
 62
     0
370
    -2
100
AcDbLine
 10
21.68713065701558
 20
3.173391467078013
 30
0.0
 11
57.08763729583585
 21
3.173391467078144
 31
0.0
  0
LINE
  5
11D
330
118
100
AcDbEntity
  8
치수문자_일반주서
 62
     0
370
    -2
100
AcDbLine
 10
57.08763729583585
 20
3.173391467078144
 30
0.0
 11
57.08763729583574
 21
35.15239146707813
 31
0.0
  0
LINE
  5
11E
330
118
100
AcDbEntity
  8
치수문자_일반주서
 62
     0
370
    -2
100
AcDbLine
 10
57.08763729583587
 20
-3.171241609630094
 30
0.0
 11
57.08763729583585
 21
3.173391467078144
 31
0.0
  0
LINE
  5
11F
330
118
100
AcDbEntity
  8
치수문자_일반주서
 62
     0
370
    -2
100
AcDbLine
 10
57.08763729583588
 20
-6.473241609630094
 30
0.0
 11
57.0876372958359
 21
-9.775241609630093
 31
0.0
  0
LINE
  5
120
330
118
100
AcDbEntity
  8
치수문자_일반주서
 62
     0
370
    -2
100
AcDbLine
 10
57.08763729583583
 20
6.475391467078143
 30
0.0
 11
57.08763729583582
 21
9.777391467078143
 31
0.0
  0
SOLID
  5
121
330
118
100
AcDbEntity
  8
치수문자_일반주서
 62
     0
100
AcDbTrace
 10
57.63797062916922
 20
-6.473241609630092
 30
0.0
 11
56.53730396250255
 21
-6.473241609630096
 31
0.0
 12
57.08763729583587
 22
-3.171241609630094
 32
0.0
 13
57.08763729583587
 23
-3.171241609630094
 33
0.0
  0
SOLID
  5
122
330
118
100
AcDbEntity
  8
치수문자_일반주서
 62
     0
100
AcDbTrace
 10
56.5373039625025
 20
6.475391467078142
 30
0.0
 11
57.63797062916917
 21
6.475391467078145
 31
0.0
 12
57.08763729583585
 22
3.173391467078144
 32
0.0
 13
57.08763729583585
 23
3.173391467078144
 33
0.0
  0
MTEXT
  5
123
330
118
100
AcDbEntity
  8
치수문자_일반주서
 62
     0
100
AcDbMText
 10
52.71263729583578
 20
22.46489146707813
 30
0.0
 40
3.5
 41
0.0
 71
     2
 72
     1
  1
\A1;%%c6.34 [1/4]
  7
SLDTEXTSTYLE0
 11
-3.359734410971242E-15
 21
1.0
 31
0.0
 73
     1
 44
1.0
  0
POINT
  5
124
330
118
100
AcDbEntity
  8
Defpoints
 62
     0
100
AcDbPoint
 10
21.62463065701558
 20
-3.171241609630224
 30
0.0
  0
POINT
  5
125
330
118
100
AcDbEntity
  8
Defpoints
 62
     0
100
AcDbPoint
 10
21.62463065701558
 20
3.173391467078012
 30
0.0
  0
POINT
  5
126
330
118
100
AcDbEntity
  8
Defpoints
 62
     0
100
AcDbPoint
 10
57.08763729583585
 20
3.173391467078145
 30
0.0
  0
ENDBLK
  5
11A
330
118
100
AcDbEntity
  8
0
100
AcDbBlockEnd
  0
BLOCK
  5
133
330
132
100
AcDbEntity
  8
0
100
AcDbBlockBegin
  2
SW_DOWELSYMBOL_0
 70
     0
 10
0.0
 20
0.0
 30
0.0
  3
SW_DOWELSYMBOL_0
  1

  0
CIRCLE
  5
135
330
132
100
AcDbEntity
  8
해칭선
 62
     0
100
AcDbCircle
 10
0.0
 20
0.0
 30
0.0
 40
2.999999999999999
  0
HATCH
  5
136
330
132
100
AcDbEntity
  8
0
  6
Continuous
 62
     0
370
     0
100
AcDbHatch
 10
0.0
 20
0.0
 30
0.0
210
0.0
220
0.0
230
1.0
  2
SOLID
 70
     1
 71
     0
 91
        1
 92
        0
 93
        3
 72
     2
 10
0.0
 20
0.0
 40
2.999999999999999
 50
0.0
 51
90.0
 73
     1
 72
     1
 10
0.0
 20
2.999999999999999
 11
0.0
 21
0.0
 72
     1
 10
0.0
 20
0.0
 11
2.999999999999999
 21
0.0
 97
        0
 75
     0
 76
     1
 98
        1
 10
0.0
 20
0.0
  0
HATCH
  5
137
330
132
100
AcDbEntity
  8
0
  6
Continuous
 62
     0
370
     0
100
AcDbHatch
 10
0.0
 20
0.0
 30
0.0
210
0.0
220
0.0
230
1.0
  2
SOLID
 70
     1
 71
     0
 91
        1
 92
        0
 93
        3
 72
     2
 10
0.0
 20
0.0
 40
2.999999999999999
 50
180.0
 51
270.0000000000008
 73
     1
 72
     1
 10
0.0
 20
-2.999999999999999
 11
0.0
 21
0.0
 72
     1
 10
0.0
 20
0.0
 11
-2.999999999999999
 21
0.0
 97
        0
 75
     0
 76
     1
 98
        1
 10
0.0
 20
0.0
  0
ENDBLK
  5
134
330
132
100
AcDbEntity
  8
0
100
AcDbBlockEnd
  0
BLOCK
  5
198
330
197
100
AcDbEntity
  8
0
100
AcDbBlockBegin
  2
*D8
 70
     1
 10
0.0
 20
0.0
 30
0.0
  3
*D8
  1

  0
LINE
  5
19A
330
197
100
AcDbEntity
  8
치수문자_일반주서
 62
     0
370
    -2
100
AcDbLine
 10
16.129
 20
3.155101899082701
 30
0.0
 11
16.129
 21
16.26894362990564
 31
0.0
  0
LINE
  5
19B
330
197
100
AcDbEntity
  8
치수문자_일반주서
 62
     0
370
    -2
100
AcDbLine
 10
6.603999999999996
 20
3.052606254210743
 30
0.0
 11
6.603999999999996
 21
16.26894362990564
 31
0.0
  0
LINE
  5
19C
330
197
100
AcDbEntity
  8
치수문자_일반주서
 62
     0
370
    -2
100
AcDbLine
 10
16.129
 20
16.26894362990564
 30
0.0
 11
46.57674999999999
 21
16.26894362990564
 31
0.0
  0
LINE
  5
19D
330
197
100
AcDbEntity
  8
치수문자_일반주서
 62
     0
370
    -2
100
AcDbLine
 10
16.129
 20
16.26894362990564
 30
0.0
 11
6.603999999999996
 21
16.26894362990564
 31
0.0
  0
LINE
  5
19E
330
197
100
AcDbEntity
  8
치수문자_일반주서
 62
     0
370
    -2
100
AcDbLine
 10
19.431
 20
16.26894362990564
 30
0.0
 11
22.733
 21
16.26894362990564
 31
0.0
  0
LINE
  5
19F
330
197
100
AcDbEntity
  8
치수문자_일반주서
 62
     0
370
    -2
100
AcDbLine
 10
3.301999999999996
 20
16.26894362990564
 30
0.0
 11
-0.0000000000000036
 21
16.26894362990564
 31
0.0
  0
SOLID
  5
1A0
330
197
100
AcDbEntity
  8
치수문자_일반주서
 62
     0
100
AcDbTrace
 10
19.431
 20
16.81927696323897
 30
0.0
 11
19.431
 21
15.71861029657231
 31
0.0
 12
16.129
 22
16.26894362990564
 32
0.0
 13
16.129
 23
16.26894362990564
 33
0.0
  0
SOLID
  5
1A1
330
197
100
AcDbEntity
  8
치수문자_일반주서
 62
     0
100
AcDbTrace
 10
3.301999999999996
 20
15.71861029657231
 30
0.0
 11
3.301999999999996
 21
16.81927696323897
 31
0.0
 12
6.603999999999996
 22
16.26894362990564
 32
0.0
 13
6.603999999999996
 23
16.26894362990564
 33
0.0
  0
MTEXT
  5
1A2
330
197
100
AcDbEntity
  8
치수문자_일반주서
 62
     0
100
AcDbMText
 10
34.76424999999999
 20
20.64394362990564
 30
0.0
 40
3.5
 41
0.0
 71
     2
 72
     1
  1
\A1;9.53 [3/8]
  7
SLDTEXTSTYLE0
 73
     1
 44
1.0
  0
POINT
  5
1A3
330
197
100
AcDbEntity
  8
Defpoints
 62
     0
100
AcDbPoint
 10
16.129
 20
3.092601899082701
 30
0.0
  0
POINT
  5
1A4
330
197
100
AcDbEntity
  8
Defpoints
 62
     0
100
AcDbPoint
 10
6.603999999999996
 20
2.990106254210743
 30
0.0
  0
POINT
  5
1A5
330
197
100
AcDbEntity
  8
Defpoints
 62
     0
100
AcDbPoint
 10
6.603999999999996
 20
16.26894362990564
 30
0.0
  0
ENDBLK
  5
199
330
197
100
AcDbEntity
  8
0
100
AcDbBlockEnd
  0
BLOCK
  5
1AA
330
1A9
100
AcDbEntity
  8
0
100
AcDbBlockBegin
  2
*D9
 70
     1
 10
0.0
 20
0.0
 30
0.0
  3
*D9
  1

  0
LINE
  5
1AC
330
1A9
100
AcDbEntity
  8
치수문자_일반주서
 62
     0
370
    -2
100
AcDbLine
 10
61.68923193008071
 20
-28.18326304679398
 30
0.0
 11
61.68923193008071
 21
-15.06942131597105
 31
0.0
  0
LINE
  5
1AD
330
1A9
100
AcDbEntity
  8
치수문자_일반주서
 62
     0
370
    -2
100
AcDbLine
 10
52.1642319300807
 20
-28.28575869166594
 30
0.0
 11
52.1642319300807
 21
-15.06942131597105
 31
0.0
  0
LINE
  5
1AE
330
1A9
100
AcDbEntity
  8
치수문자_일반주서
 62
     0
370
    -2
100
AcDbLine
 10
61.68923193008071
 20
-15.06942131597105
 30
0.0
 11
92.1369819300807
 21
-15.06942131597105
 31
0.0
  0
LINE
  5
1AF
330
1A9
100
AcDbEntity
  8
치수문자_일반주서
 62
     0
370
    -2
100
AcDbLine
 10
61.68923193008071
 20
-15.06942131597105
 30
0.0
 11
52.1642319300807
 21
-15.06942131597105
 31
0.0
  0
LINE
  5
1B0
330
1A9
100
AcDbEntity
  8
치수문자_일반주서
 62
     0
370
    -2
100
AcDbLine
 10
64.99123193008072
 20
-15.06942131597105
 30
0.0
 11
68.29323193008071
 21
-15.06942131597105
 31
0.0
  0
LINE
  5
1B1
330
1A9
100
AcDbEntity
  8
치수문자_일반주서
 62
     0
370
    -2
100
AcDbLine
 10
48.8622319300807
 20
-15.06942131597105
 30
0.0
 11
45.5602319300807
 21
-15.06942131597105
 31
0.0
  0
SOLID
  5
1B2
330
1A9
100
AcDbEntity
  8
치수문자_일반주서
 62
     0
100
AcDbTrace
 10
64.99123193008072
 20
-14.51908798263771
 30
0.0
 11
64.99123193008072
 21
-15.61975464930438
 31
0.0
 12
61.68923193008071
 22
-15.06942131597105
 32
0.0
 13
61.68923193008071
 23
-15.06942131597105
 33
0.0
  0
SOLID
  5
1B3
330
1A9
100
AcDbEntity
  8
치수문자_일반주서
 62
     0
100
AcDbTrace
 10
48.8622319300807
 20
-15.61975464930438
 30
0.0
 11
48.8622319300807
 21
-14.51908798263771
 31
0.0
 12
52.1642319300807
 22
-15.06942131597105
 32
0.0
 13
52.1642319300807
 23
-15.06942131597105
 33
0.0
  0
MTEXT
  5
1B4
330
1A9
100
AcDbEntity
  8
치수문자_일반주서
 62
     0
100
AcDbMText
 10
80.3244819300807
 20
-10.69442131597105
 30
0.0
 40
3.5
 41
0.0
 71
     2
 72
     1
  1
\A1;9.53 [3/8]
  7
SLDTEXTSTYLE0
 73
     1
 44
1.0
  0
POINT
  5
1B5
330
1A9
100
AcDbEntity
  8
Defpoints
 62
     0
100
AcDbPoint
 10
61.68923193008071
 20
-28.24576304679398
 30
0.0
  0
POINT
  5
1B6
330
1A9
100
AcDbEntity
  8
Defpoints
 62
     0
100
AcDbPoint
 10
52.1642319300807
 20
-28.34825869166594
 30
0.0
  0
POINT
  5
1B7
330
1A9
100
AcDbEntity
  8
Defpoints
 62
     0
100
AcDbPoint
 10
52.1642319300807
 20
-15.06942131597105
 30
0.0
  0
ENDBLK
  5
1AB
330
1A9
100
AcDbEntity
  8
0
100
AcDbBlockEnd
  0
ENDSEC
  0
SECTION
  2
ENTITIES
  0
LINE
  5
96
330
1F
100
AcDbEntity
  8
외형선
  6
Continuous
370
    15
100
AcDbLine
 10
2.000000000000004
 20
4.763574928723893
 30
0.0
 11
-12.43041934298431
 21
4.763574928723892
 31
0.0
  0
LINE
  5
97
330
1F
100
AcDbEntity
  8
외형선
  6
Continuous
370
    15
100
AcDbLine
 10
-36.30286934298442
 20
-4.761425071276107
 30
0.0
 11
2.000000000000004
 21
-4.761425071276104
 31
0.0
  0
LINE
  5
98
330
1F
100
AcDbEntity
  8
외형선
  6
Continuous
370
    15
100
AcDbLine
 10
2.000000000000004
 20
-4.761425071276106
 30
0.0
 11
7.404536300900959
 21
-3.313283933985005
 31
0.0
  0
LINE
  5
99
330
1F
100
AcDbEntity
  8
외형선
  6
Continuous
370
    15
100
AcDbLine
 10
7.404536300900959
 20
3.315433791432793
 30
0.0
 11
2.000000000000004
 21
4.763574928723894
 31
0.0
  0
LINE
  5
9A
330
1F
100
AcDbEntity
  8
외형선
  6
Continuous
370
    15
100
AcDbLine
 10
-36.30286934298442
 20
4.763574928723888
 30
0.0
 11
-37.11286934298442
 21
3.953574928723889
 31
0.0
  0
LINE
  5
9B
330
1F
100
AcDbEntity
  8
외형선
  6
Continuous
370
    15
100
AcDbLine
 10
-37.11286934298442
 20
-3.951425071276107
 30
0.0
 11
-36.30286934298442
 21
-4.761425071276105
 31
0.0
  0
SPLINE
  5
9C
330
1F
100
AcDbEntity
  8
외형선
  6
Continuous
370
    15
100
AcDbSpline
210
0.0
220
0.0
230
1.0
 70
     8
 71
     3
 72
     9
 73
     5
 74
     0
 42
0.000000001
 43
0.00000001
 40
0.0
 40
0.0
 40
0.0
 40
0.0
 40
0.5248284408705094
 40
1.0
 40
1.0
 40
1.0
 40
1.0
 10
7.66771026980276
 20
-2.631141920365591
 30
0.0
 10
7.88774042385888
 20
-2.610939382524714
 30
0.0
 10
8.306982478826725
 20
-2.572445779153357
 30
0.0
 10
8.725678307367058
 20
-2.545460407695083
 30
0.0
 10
8.924630657015584
 20
-2.532637726665568
 30
0.0
  0
LINE
  5
9D
330
1F
100
AcDbEntity
  8
0
  6
Continuous
 62
     1
370
    15
100
AcDbLine
 10
13.39819742596206
 20
0.8146632224124764
 30
0.0
 11
12.5189053394312
 21
1.255184251755121
 31
0.0
1001
PE_URL
1000

  0
SPLINE
  5
9E
330
1F
100
AcDbEntity
  8
0
  6
Continuous
 62
     1
370
    15
100
AcDbSpline
210
0.0
220
0.0
230
1.0
 70
     8
 71
     3
 72
    19
 73
    15
 74
     0
 42
0.000000001
 43
0.00000001
 40
0.0
 40
0.0
 40
0.0
 40
0.0
 40
0.1354279249139746
 40
0.2379340024974001
 40
0.3203704636863149
 40
0.4197722239319065
 40
0.5326892624249135
 40
0.6413913129790499
 40
0.7189397609502545
 40
0.7907151991601916
 40
0.8578876750678425
 40
0.9222993868811297
 40
0.9848628309288026
 40
1.0
 40
1.0
 40
1.0
 40
1.0
 10
12.34960992206037
 20
2.524051931255316
 30
0.0
 10
12.23324218818863
 20
2.518204279196677
 30
0.0
 10
12.02879513120801
 20
2.507930509880577
 30
0.0
 10
11.75032836605289
 20
2.497543772827408
 30
0.0
 10
11.49991228867115
 20
2.49010578930226
 30
0.0
 10
11.24286463262814
 20
2.484497626765027
 30
0.0
 10
10.96333609874286
 20
2.480999291441433
 30
0.0
 10
10.69910520160899
 20
2.480230948304428
 30
0.0
 10
10.47072006555224
 20
2.480838149980643
 30
0.0
 10
10.28028369352354
 20
2.483000883894127
 30
0.0
 10
10.10974532237939
 20
2.486643162276113
 30
0.0
 10
9.951204407285488
 20
2.490741708048794
 30
0.0
 10
9.829455467645772
 20
2.494042534292559
 30
0.0
 10
9.761844054494816
 20
2.49640983975292
 30
0.0
 10
9.748672403063406
 20
2.496871024054539
 30
0.0
1001
PE_URL
1000

  0
SPLINE
  5
9F
330
1F
100
AcDbEntity
  8
0
  6
Continuous
 62
     1
370
    15
100
AcDbSpline
210
0.0
220
0.0
230
1.0
 70
     8
 71
     3
 72
    27
 73
    23
 74
     0
 42
0.000000001
 43
0.00000001
 40
0.0
 40
0.0
 40
0.0
 40
0.0
 40
0.0657610180922967
 40
0.1157027259429744
 40
0.1496655524993024
 40
0.1804788910949207
 40
0.2193737827605843
 40
0.2651596991281368
 40
0.3075316213517063
 40
0.371284971263866
 40
0.4254862050991485
 40
0.4793649904402668
 40
0.5329368343560047
 40
0.5926250716490324
 40
0.6564827048144871
 40
0.7103885412244383
 40
0.7403320335590079
 40
0.7679065073515047
 40
0.7957471555364583
 40
0.8417349721623497
 40
0.9097924999449383
 40
0.9999999999999999
 40
0.9999999999999999
 40
0.9999999999999999
 40
0.9999999999999999
 10
20.44405955540709
 20
2.172624483470504
 30
0.0
 10
20.3229904292457
 20
2.162713543033036
 30
0.0
 10
20.10997627084648
 20
2.14527581383511
 30
0.0
 10
19.83430066085552
 20
2.127882213659548
 30
0.0
 10
19.62131751769195
 20
2.116535866797658
 30
0.0
 10
19.42806325880196
 20
2.107871790589166
 30
0.0
 10
19.213973567388
 20
2.100148567879762
 30
0.0
 10
18.97901695226862
 20
2.094197799240102
 30
0.0
 10
18.69847872671287
 20
2.090241402385148
 30
0.0
 10
18.4022685786818
 20
2.090148331954037
 30
0.0
 10
18.08448512462882
 20
2.094849749540843
 30
0.0
 10
17.78540826241173
 20
2.103396492475215
 30
0.0
 10
17.47655724839871
 20
2.116441482534533
 30
0.0
 10
17.14795067525609
 20
2.135182190180883
 30
0.0
 10
16.81679767012481
 20
2.159030829515679
 30
0.0
 10
16.54377092884917
 20
2.182646076491575
 30
0.0
 10
16.34099705081562
 20
2.202220015001271
 30
0.0
 10
16.1851070727757
 20
2.218299469348294
 30
0.0
 10
15.99963292825839
 20
2.238619445191221
 30
0.0
 10
15.73773015613216
 20
2.269798728340868
 30
0.0
 10
15.35959863701464
 20
2.319007357199237
 30
0.0
 10
15.06542176911576
 20
2.363652555393866
 30
0.0
 10
14.89774758240656
 20
2.389099312479907
 30
0.0
1001
PE_URL
1000

  0
SPLINE
  5
A0
330
1F
100
AcDbEntity
  8
0
  6
Continuous
 62
     1
370
    15
100
AcDbSpline
210
0.0
220
0.0
230
1.0
 70
     8
 71
     3
 72
    16
 73
    12
 74
     0
 42
0.000000001
 43
0.00000001
 40
0.0
 40
0.0
 40
0.0
 40
0.0
 40
0.1707352164626346
 40
0.2959329690524346
 40
0.3824274012017644
 40
0.4818430654908492
 40
0.6045296942927867
 40
0.7211397479037172
 40
0.8643981200178626
 40
0.9876552989960202
 40
1.0
 40
1.0
 40
1.0
 40
1.0
 10
14.89774758240656
 20
-2.386949455032119
 30
0.0
 10
15.03134739668614
 20
-2.366527340214231
 30
0.0
 10
15.26291409114874
 20
-2.33112997347525
 30
0.0
 10
15.56274874767138
 20
-2.290399796650584
 30
0.0
 10
15.81001248324289
 20
-2.258995747078794
 30
0.0
 10
16.05394417017042
 20
-2.230131777456752
 30
0.0
 10
16.32065350882811
 20
-2.201728495193735
 30
0.0
 10
16.62154672425526
 20
-2.173231277271846
 30
0.0
 10
16.92330811981826
 20
-2.149125242278826
 30
0.0
 10
17.14163291591307
 20
-2.133478352327333
 30
0.0
 10
17.2480536448308
 20
-2.127762604131512
 30
0.0
 10
17.2577418001815
 20
-2.127242263244641
 30
0.0
1001
PE_URL
1000

  0
SPLINE
  5
A1
330
1F
100
AcDbEntity
  8
0
  6
Continuous
 62
     1
370
    15
100
AcDbSpline
210
0.0
220
0.0
230
1.0
 70
     8
 71
     3
 72
    21
 73
    17
 74
     0
 42
0.000000001
 43
0.00000001
 40
0.0
 40
0.0
 40
0.0
 40
0.0
 40
0.1141024058984552
 40
0.1975029766317989
 40
0.2514792547241361
 40
0.2990290599304352
 40
0.3479835955437924
 40
0.3990363819313159
 40
0.453587536482186
 40
0.5125263249585968
 40
0.5951426420116659
 40
0.6809624568659028
 40
0.756510317262455
 40
0.8191641198319345
 40
0.8970713401863578
 40
1.0
 40
1.0
 40
1.0
 40
1.0
 10
8.92463065701558
 20
-2.532637726665568
 30
0.0
 10
9.055295769131199
 20
-2.525335303028042
 30
0.0
 10
9.281467587170944
 20
-2.512695338132636
 30
0.0
 10
9.569106806641475
 20
-2.500757664498073
 30
0.0
 10
9.781279252601315
 20
-2.493400401577643
 30
0.0
 10
9.951283288733343
 20
-2.488537005739793
 30
0.0
 10
10.10972295802584
 20
-2.484508854363735
 30
0.0
 10
10.28029023687233
 20
-2.480846476972847
 30
0.0
 10
10.47071812275665
 20
-2.478689643323911
 30
0.0
 10
10.6991059824895
 20
-2.478080547924379
 30
0.0
 10
10.96333584934257
 20
-2.478849607397217
 30
0.0
 10
11.24286469191627
 20
-2.482347728095256
 30
0.0
 10
11.49991227659861
 20
-2.487955940248294
 30
0.0
 10
11.75032836980762
 20
-2.495393912769026
 30
0.0
 10
12.02879512979888
 20
-2.505780653412534
 30
0.0
 10
12.2332421876775
 20
-2.516054422104268
 30
0.0
 10
12.34960992206037
 20
-2.521902073807528
 30
0.0
1001
PE_URL
1000

  0
LINE
  5
A2
330
1F
100
AcDbEntity
  8
외형선
  6
Continuous
370
    15
100
AcDbLine
 10
2.000000000000004
 20
4.763574928723894
 30
0.0
 11
2.000000000000004
 21
-4.761425071276104
 31
0.0
  0
LINE
  5
A3
330
1F
100
AcDbEntity
  8
외형선
  6
Continuous
370
    15
100
AcDbLine
 10
-36.30286934298442
 20
4.763574928723888
 30
0.0
 11
-36.30286934298442
 21
-4.761425071276107
 31
0.0
  0
SPLINE
  5
A4
330
1F
100
AcDbEntity
  8
외형선
  6
Continuous
370
    15
100
AcDbSpline
210
0.0
220
0.0
230
1.0
 70
     8
 71
     3
 72
     8
 73
     4
 74
     0
 42
0.000000001
 43
0.00000001
 40
0.0
 40
0.0
 40
0.0
 40
0.0
 40
1.0
 40
1.0
 40
1.0
 40
1.0
 10
7.924630657015585
 20
3.005349678060389
 30
0.0
 10
7.750636755995113
 20
3.07538439442455
 30
0.0
 10
7.577241340910443
 20
3.143347196854748
 30
0.0
 10
7.404437617782066
 20
3.208991631164764
 30
0.0
  0
LINE
  5
A5
330
1F
100
AcDbEntity
  8
외형선
  6
Continuous
370
    15
100
AcDbLine
 10
7.924630657015585
 20
3.005349678060378
 30
0.0
 11
7.924630657015585
 21
2.604832058214682
 31
0.0
  0
SPLINE
  5
A6
330
1F
100
AcDbEntity
  8
외형선
  6
Continuous
370
    15
100
AcDbSpline
210
0.0
220
0.0
230
1.0
 70
     8
 71
     3
 72
     8
 73
     4
 74
     0
 42
0.000000001
 43
0.00000001
 40
0.0
 40
0.0
 40
0.0
 40
0.0
 40
1.0
 40
1.0
 40
1.0
 40
1.0
 10
7.404536300900959
 20
2.860593692830235
 30
0.0
 10
7.577981860678201
 20
2.777275408092849
 30
0.0
 10
7.751341710805934
 20
2.692024274496913
 30
0.0
 10
7.924630657016563
 20
2.604832058211374
 30
0.0
  0
LINE
  5
A7
330
1F
100
AcDbEntity
  8
외형선
  6
Continuous
370
    15
100
AcDbLine
 10
7.404536300900959
 20
-3.313283933985005
 30
0.0
 11
7.404536300900959
 21
2.860626546387681
 31
0.0
  0
SPLINE
  5
A8
330
1F
100
AcDbEntity
  8
외형선
  6
Continuous
370
    15
100
AcDbSpline
210
0.0
220
0.0
230
1.0
 70
     8
 71
     3
 72
     8
 73
     4
 74
     0
 42
0.000000001
 43
0.00000001
 40
0.0
 40
0.0
 40
0.0
 40
0.0
 40
1.0
 40
1.0
 40
1.0
 40
1.0
 10
7.924630657015585
 20
-3.003199820612601
 30
0.0
 10
7.750636755995113
 20
-3.073234536976762
 30
0.0
 10
7.577241340910443
 20
-3.14119733940696
 30
0.0
 10
7.404437617782066
 20
-3.206841773716976
 30
0.0
  0
LINE
  5
A9
330
1F
100
AcDbEntity
  8
외형선
  6
Continuous
370
    15
100
AcDbLine
 10
7.404536300900959
 20
3.208987764685321
 30
0.0
 11
7.404536300900959
 21
3.315433791432793
 31
0.0
  0
LINE
  5
AA
330
1F
100
AcDbEntity
  8
외형선
  6
Continuous
370
    15
100
AcDbLine
 10
-37.11286934298442
 20
3.95357492872389
 30
0.0
 11
-37.11286934298442
 21
-3.951425071276107
 31
0.0
  0
SPLINE
  5
AB
330
1F
100
AcDbEntity
  8
외형선
  6
Continuous
370
    15
100
AcDbSpline
210
0.0
220
0.0
230
1.0
 70
    24
 71
     3
 72
    14
 73
    10
 74
     0
 42
0.000000001
 43
0.00000001
 40
0.0
 40
0.0
 40
0.0
 40
0.0
 40
0.25
 40
0.25
 40
0.5
 40
0.5
 40
0.75
 40
0.75
 40
1.0
 40
1.0
 40
1.0
 40
1.0
 10
8.924630657015527
 20
1.497156090875842
 30
0.0
 10
8.924630657015527
 20
1.253627365724323
 30
0.0
 10
8.924630657015527
 20
0.9850311038153599
 30
0.0
 10
8.924630657015527
 20
0.4172825579026873
 30
0.0
 10
8.924630657015527
 20
0.1183468605854335
 30
0.0
 10
8.924630657015527
 20
-0.4813850077726168
 30
0.0
 10
8.924630657015527
 20
-0.7818616166002298
 30
0.0
 10
8.924630657015527
 20
-1.355481533245839
 30
0.0
 10
8.924630657015527
 20
-1.628400007720379
 30
0.0
 10
8.924630657015527
 20
-1.877264731070454
 30
0.0
  0
SPLINE
  5
AC
330
1F
100
AcDbEntity
  8
외형선
  6
Continuous
370
    15
100
AcDbSpline
210
0.0
220
0.0
230
1.0
 70
     8
 71
     3
 72
    10
 73
     6
 74
     0
 42
0.000000001
 43
0.00000001
 40
0.0
 40
0.0
 40
0.0
 40
0.0
 40
0.5
 40
0.5
 40
1.0
 40
1.0
 40
1.0
 40
1.0
 10
8.92463065701558
 20
-1.877264731070471
 30
0.0
 10
8.671503626707548
 20
-1.79851065875802
 30
0.0
 10
8.420671392196635
 20
-1.714035976069693
 30
0.0
 10
7.912333276883639
 20
-1.533960442847236
 30
0.0
 10
7.657119131457766
 20
-1.438590882891429
 30
0.0
 10
7.404500247762601
 20
-1.339279837137764
 30
0.0
  0
SPLINE
  5
AD
330
1F
100
AcDbEntity
  8
외형선
  6
Continuous
370
    15
100
AcDbSpline
210
0.0
220
0.0
230
1.0
 70
     8
 71
     3
 72
    10
 73
     6
 74
     0
 42
0.000000001
 43
0.00000001
 40
0.0
 40
0.0
 40
0.0
 40
0.0
 40
0.5
 40
0.5
 40
1.0
 40
1.0
 40
1.0
 40
1.0
 10
8.924630657015584
 20
1.497156090875824
 30
0.0
 10
8.671505674842127
 20
1.572857608471907
 30
0.0
 10
8.420675488362868
 20
1.643586397872384
 30
0.0
 10
7.912341520112794
 20
1.774754498342307
 30
0.0
 10
7.657129435275999
 20
1.834950516247871
 30
0.0
 10
7.404512511902603
 20
1.888934052969208
 30
0.0
  0
SPLINE
  5
AE
330
1F
100
AcDbEntity
  8
외형선
  6
Continuous
370
    15
100
AcDbSpline
210
0.0
220
0.0
230
1.0
 70
    24
 71
     3
 72
    10
 73
     6
 74
     0
 42
0.000000001
 43
0.00000001
 40
0.0
 40
0.0
 40
0.0
 40
0.0
 40
0.4999999999999999
 40
0.4999999999999999
 40
1.0
 40
1.0
 40
1.0
 40
1.0
 10
8.924630657015584
 20
2.233039768985801
 30
0.0
 10
8.924630657015584
 20
2.156090328251887
 30
0.0
 10
8.924630657015584
 20
2.048075205137081
 30
0.0
 10
8.924630657015584
 20
1.792293536952876
 30
0.0
 10
8.924630657015584
 20
1.645364906924661
 30
0.0
 10
8.924630657015584
 20
1.497156090875825
 30
0.0
  0
SPLINE
  5
AF
330
1F
100
AcDbEntity
  8
외형선
  6
Continuous
370
    15
100
AcDbSpline
210
0.0
220
0.0
230
1.0
 70
     8
 71
     3
 72
    10
 73
     6
 74
     0
 42
0.000000001
 43
0.00000001
 40
0.0
 40
0.0
 40
0.0
 40
0.0
 40
0.5
 40
0.5
 40
1.0
 40
1.0
 40
1.0
 40
1.0
 10
7.924630657015585
 20
2.604832058214682
 30
0.0
 10
8.092189975042675
 20
2.54963008525295
 30
0.0
 10
8.259795411450419
 20
2.49081056684785
 30
0.0
 10
8.593021449590104
 20
2.366705935620995
 30
0.0
 10
8.75795362208276
 20
2.301526096105433
 30
0.0
 10
8.92463065701558
 20
2.233039768985802
 30
0.0
  0
SPLINE
  5
B0
330
1F
100
AcDbEntity
  8
외형선
  6
Continuous
370
    15
100
AcDbSpline
210
0.0
220
0.0
230
1.0
 70
     8
 71
     3
 72
    10
 73
     6
 74
     0
 42
0.000000001
 43
0.00000001
 40
0.0
 40
0.0
 40
0.0
 40
0.0
 40
0.5
 40
0.5
 40
1.0
 40
1.0
 40
1.0
 40
1.0
 10
8.92463065701558
 20
2.769869356066201
 30
0.0
 10
8.75795362208276
 20
2.816996160193431
 30
0.0
 10
8.593021449590104
 20
2.86015308575454
 30
0.0
 10
8.259795411450419
 20
2.938765538228946
 30
0.0
 10
8.092189975042675
 20
2.974143210234152
 30
0.0
 10
7.924630657015585
 20
3.005349678060381
 30
0.0
  0
LINE
  5
B1
330
1F
100
AcDbEntity
  8
외형선
  6
Continuous
370
    15
100
AcDbLine
 10
8.92463065701558
 20
2.769869356066201
 30
0.0
 11
8.92463065701558
 21
2.233039768985802
 31
0.0
  0
LINE
  5
B2
330
1F
100
AcDbEntity
  8
외형선
  6
Continuous
370
    15
100
AcDbLine
 10
7.66947615127289
 20
-2.625305579017275
 30
0.0
 11
7.404437617782066
 21
-2.656627550095128
 31
0.0
  0
SPLINE
  5
B3
330
1F
100
AcDbEntity
  8
외형선
  6
Continuous
370
    15
100
AcDbSpline
210
0.0
220
0.0
230
1.0
 70
    24
 71
     3
 72
    12
 73
     8
 74
     0
 42
0.000000001
 43
0.00000001
 40
0.0
 40
0.0
 40
0.0
 40
0.0
 40
0.1818508385207798
 40
0.3660878607647501
 40
0.6327666996098195
 40
0.9071792428475036
 40
1.0
 40
1.0
 40
1.0
 40
1.0
 10
8.924630657015584
 20
-1.877264731070472
 30
0.0
 10
8.924630657015584
 20
-1.950630204092954
 30
0.0
 10
8.924630657015584
 20
-2.098323826466465
 30
0.0
 10
8.924630657015584
 20
-2.29755021221338
 30
0.0
 10
8.924630657015584
 20
-2.456097209565594
 30
0.0
 10
8.924630657015584
 20
-2.53508173335161
 30
0.0
 10
8.924630657015584
 20
-2.525727720779511
 30
0.0
 10
8.924630657015584
 20
-2.523363429391902
 30
0.0
  0
SPLINE
  5
B4
330
1F
100
AcDbEntity
  8
외형선
  6
Continuous
370
    15
100
AcDbSpline
210
0.0
220
0.0
230
1.0
 70
     8
 71
     3
 72
    10
 73
     6
 74
     0
 42
0.000000001
 43
0.00000001
 40
0.0
 40
0.0
 40
0.0
 40
0.0
 40
0.5
 40
0.5
 40
1.0
 40
1.0
 40
1.0
 40
1.0
 10
8.92463065701558
 20
-2.767719498618413
 30
0.0
 10
8.75795362208276
 20
-2.814846302745643
 30
0.0
 10
8.593021449590104
 20
-2.858003228306751
 30
0.0
 10
8.259795411450419
 20
-2.936615680781158
 30
0.0
 10
8.092189975042675
 20
-2.971993352786364
 30
0.0
 10
7.924630657015585
 20
-3.003199820612592
 30
0.0
  0
SPLINE
  5
B5
330
1F
100
AcDbEntity
  8
외형선
  6
Continuous
370
    15
100
AcDbSpline
210
0.0
220
0.0
230
1.0
 70
    24
 71
     3
 72
    10
 73
     6
 74
     0
 42
0.000000001
 43
0.00000001
 40
0.0
 40
0.0
 40
0.0
 40
0.0
 40
0.0726161385116413
 40
0.7659168957425291
 40
1.0
 40
1.0
 40
1.0
 40
1.0
 10
8.924630657015584
 20
-2.564540649308887
 30
0.0
 10
8.924630657015584
 20
-2.569892192916378
 30
0.0
 10
8.924630657015584
 20
-2.626337464605176
 30
0.0
 10
8.924630657015584
 20
-2.693026660796459
 30
0.0
 10
8.924630657015584
 20
-2.752665836420016
 30
0.0
 10
8.924630657015584
 20
-2.767719498603562
 30
0.0
  0
SPLINE
  5
B6
330
1F
100
AcDbEntity
  8
0
  6
Continuous
 62
     1
370
    15
100
AcDbSpline
210
0.0
220
0.0
230
1.0
 70
     8
 71
     3
 72
    38
 73
    34
 74
     0
 42
0.000000001
 43
0.00000001
 40
0.0
 40
0.0
 40
0.0
 40
0.0
 40
0.0625000000000001
 40
0.0625000000000001
 40
0.1250000000000001
 40
0.1250000000000001
 40
0.1875000000000002
 40
0.1875000000000002
 40
0.2500000000000002
 40
0.2500000000000002
 40
0.3125000000000003
 40
0.3125000000000003
 40
0.3750000000000003
 40
0.3750000000000003
 40
0.4375000000000004
 40
0.4375000000000004
 40
0.5000000000000004
 40
0.5000000000000004
 40
0.5625000000000003
 40
0.5625000000000003
 40
0.6250000000000003
 40
0.6250000000000003
 40
0.6875000000000002
 40
0.6875000000000002
 40
0.7500000000000002
 40
0.7500000000000002
 40
0.8125000000000001
 40
0.8125000000000001
 40
0.8750000000000001
 40
0.8750000000000001
 40
0.9375
 40
0.9375
 40
1.0
 40
1.0
 40
1.0
 40
1.0
 10
21.62463065701558
 20
-3.011812331087387
 30
0.0
 10
21.3623349504073
 20
-2.96376634999277
 30
0.0
 10
21.09629928300496
 20
-2.905038589592571
 30
0.0
 10
20.56498015455769
 20
-2.767785642158391
 30
0.0
 10
20.30172064693154
 20
-2.689494634912096
 30
0.0
 10
19.77463717086102
 20
-2.514833283998185
 30
0.0
 10
19.50810986351439
 20
-2.418112962777886
 30
0.0
 10
18.97736655187084
 20
-2.208784021622809
 30
0.0
 10
18.71561725371473
 20
-2.096574055920905
 30
0.0
 10
18.18660230754598
 20
-1.857643272693764
 30
0.0
 10
17.9198743807826
 20
-1.730943553977308
 30
0.0
 10
17.39028062436143
 20
-1.467006071997577
 30
0.0
 10
17.12877016854871
 20
-1.33004689740625
 30
0.0
 10
16.59839126877367
 20
-1.046580312492613
 30
0.0
 10
16.33175447759939
 20
-0.9004354922530875
 30
0.0
 10
15.80387987378412
 20
-0.6039025485237952
 30
0.0
 10
15.54133603573587
 20
-0.4532890219304188
 30
0.0
 10
15.01016560686708
 20
-0.148795906903856
 30
0.0
 10
14.74391137255074
 20
0.0046308527855391
 30
0.0
 10
14.21831934630552
 20
0.3090716158845534
 30
0.0
 10
13.95347360980272
 20
0.46114773689566
 30
0.0
 10
13.42208693165577
 20
0.7613675992181991
 30
0.0
 10
13.15793334455084
 20
0.9090565508880472
 30
0.0
 10
12.63171999997531
 20
1.196764947318149
 30
0.0
 10
12.36534319011028
 20
1.337555527487023
 30
0.0
 10
11.83431632348691
 20
1.608552892080575
 30
0.0
 10
11.57214900948048
 20
1.738372476741107
 30
0.0
 10
11.04379285334907
 20
1.985762289318275
 30
0.0
 10
10.77710604378016
 20
2.103358352607124
 30
0.0
 10
10.24701375023409
 20
2.322646364627628
 30
0.0
 10
9.985562842383185
 20
2.424139175473318
 30
0.0
 10
9.455629026144067
 20
2.61053337730468
 30
0.0
 10
9.188923821289169
 20
2.695142251700018
 30
0.0
 10
8.924630657011402
 20
2.769869356067384
 30
0.0
1001
PE_URL
1000

  0
SPLINE
  5
B7
330
1F
100
AcDbEntity
  8
0
  6
Continuous
 62
     1
370
    15
100
AcDbSpline
210
0.0
220
0.0
230
1.0
 70
     8
 71
     3
 72
    14
 73
    10
 74
     0
 42
0.000000001
 43
0.00000001
 40
0.0
 40
0.0
 40
0.0
 40
0.0
 40
0.1435603764052037
 40
0.2869628788213575
 40
0.4302936662292897
 40
0.573639631727628
 40
0.7170875128548949
 40
0.8606934515089866
 40
1.0
 40
1.0
 40
1.0
 40
1.0
 10
21.62463065701558
 20
-2.503912010645192
 30
0.0
 10
21.22925076211262
 20
-2.420548290298672
 30
0.0
 10
20.43892577334833
 20
-2.253912525062348
 30
0.0
 10
19.25412600256732
 20
-1.86844001542279
 30
0.0
 10
18.06998583522123
 20
-1.404951146672542
 30
0.0
 10
16.8856998969285
 20
-0.8739999206821554
 30
0.0
 10
15.70055839141878
 20
-0.3037760072091901
 30
0.0
 10
14.52620436997682
 20
0.2774309559298103
 30
0.0
 10
13.74714760138129
 20
0.6479603186527754
 30
0.0
 10
13.3635388373894
 20
0.8304095528890735
 30
0.0
1001
PE_URL
1000

  0
LINE
  5
B8
330
1F
100
AcDbEntity
  8
0
  6
Continuous
 62
     1
370
    15
100
AcDbLine
 10
21.62463065701551
 20
-3.011812331087389
 30
0.0
 11
21.62463065701558
 21
-2.503912010645192
 31
0.0
1001
PE_URL
1000

  0
SPLINE
  5
B9
330
1F
100
AcDbEntity
  8
0
  6
Continuous
 62
     1
370
    15
100
AcDbSpline
210
0.0
220
0.0
230
1.0
 70
     8
 71
     3
 72
    38
 73
    34
 74
     0
 42
0.000000001
 43
0.00000001
 40
0.0
 40
0.0
 40
0.0
 40
0.0
 40
0.0624999999999998
 40
0.0624999999999998
 40
0.1249999999999999
 40
0.1249999999999999
 40
0.1874999999999999
 40
0.1874999999999999
 40
0.2499999999999999
 40
0.2499999999999999
 40
0.3124999999999999
 40
0.3124999999999999
 40
0.375
 40
0.375
 40
0.4375
 40
0.4375
 40
0.5
 40
0.5
 40
0.5625
 40
0.5625
 40
0.625
 40
0.625
 40
0.6875
 40
0.6875
 40
0.7499999999999999
 40
0.7499999999999999
 40
0.8124999999999999
 40
0.8124999999999999
 40
0.875
 40
0.875
 40
0.9375
 40
0.9375
 40
1.0
 40
1.0
 40
1.0
 40
1.0
 10
8.924630657013402
 20
2.233039768986125
 30
0.0
 10
9.188923821291137
 20
2.124443716077652
 30
0.0
 10
9.455629026146
 20
2.007735625773116
 30
0.0
 10
9.985562842385018
 20
1.761691921396713
 30
0.0
 10
10.24701375023588
 20
1.632695287702156
 30
0.0
 10
10.77710604378188
 20
1.363122541594967
 30
0.0
 10
11.04379285335075
 20
1.222831307791248
 30
0.0
 10
11.57214900948206
 20
0.9356349365432735
 30
0.0
 10
11.83431632348846
 20
0.7886698534928807
 30
0.0
 10
12.36534319011175
 20
0.4890507388252067
 30
0.0
 10
12.63171999997674
 20
0.336852159395246
 30
0.0
 10
13.15793334455217
 20
0.0324346037442789
 30
0.0
 10
13.42208693165707
 20
-0.12061281323693
 30
0.0
 10
13.95347360980394
 20
-0.4253934102272353
 30
0.0
 10
14.21831934630666
 20
-0.5766604799084531
 30
0.0
 10
14.74391137255182
 20
-0.8733904934974475
 30
0.0
 10
15.01016560686814
 20
-1.019881175028736
 30
0.0
 10
15.54133603573684
 20
-1.304492689692577
 30
0.0
 10
15.80387987378504
 20
-1.442212231973325
 30
0.0
 10
16.33175447760024
 20
-1.707211385177859
 30
0.0
 10
16.59839126877447
 20
-1.834669877068798
 30
0.0
 10
17.12877016854941
 20
-2.075480426016528
 30
0.0
 10
17.39028062436211
 20
-2.188555057864114
 30
0.0
 10
17.91987438078318
 20
-2.399695874862718
 30
0.0
 10
18.18660230754652
 20
-2.497506339829917
 30
0.0
 10
18.71561725371518
 20
-2.674581027398759
 30
0.0
 10
18.97736655187127
 20
-2.753863987664964
 30
0.0
 10
19.50810986351473
 20
-2.893484304093486
 30
0.0
 10
19.77463717086131
 20
-2.953516508725569
 30
0.0
 10
20.30172064693175
 20
-3.052297069370751
 30
0.0
 10
20.56498015455786
 20
-3.091273788352644
 30
0.0
 10
21.09629928300505
 20
-3.147683205846883
 30
0.0
 10
21.36233495040734
 20
-3.164980950319354
 30
0.0
 10
21.62463065701558
 20
-3.171241609629039
 30
0.0
1001
PE_URL
1000

  0
SPLINE
  5
BA
330
1F
100
AcDbEntity
  8
0
  6
Continuous
 62
     1
370
    15
100
AcDbSpline
210
0.0
220
0.0
230
1.0
 70
     8
 71
     3
 72
    12
 73
     8
 74
     0
 42
0.000000001
 43
0.00000001
 40
0.0
 40
0.0
 40
0.0
 40
0.0
 40
0.0834307298539285
 40
0.329886615234335
 40
0.5762683841167564
 40
0.7878950309839293
 40
1.0
 40
1.0
 40
1.0
 40
1.0
 10
13.7299114953391
 20
-0.2969344258333234
 30
0.0
 10
13.5962643595253
 20
-0.2439678191294319
 30
0.0
 10
13.06782116663259
 20
-0.0345368979737992
 30
0.0
 10
12.14484507292507
 20
0.3432672602311941
 30
0.0
 10
11.01648732018209
 20
0.7849088371917222
 30
0.0
 10
9.943306801523665
 20
1.178482818034132
 30
0.0
 10
9.264444812412936
 20
1.390851756920205
 30
0.0
 10
8.924630657015584
 20
1.497156090875824
 30
0.0
1001
PE_URL
1000

  0
SPLINE
  5
BB
330
1F
100
AcDbEntity
  8
외형선
  6
Continuous
370
    15
100
AcDbSpline
210
0.0
220
0.0
230
1.0
 70
    24
 71
     3
 72
    10
 73
     6
 74
     0
 42
0.000000001
 43
0.00000001
 40
0.0
 40
0.0
 40
0.0
 40
0.0
 40
0.4999999999999998
 40
0.4999999999999998
 40
1.0
 40
1.0
 40
1.0
 40
1.0
 10
8.924630657015584
 20
2.233039768985801
 30
0.0
 10
8.924630657015584
 20
2.156090328251887
 30
0.0
 10
8.924630657015584
 20
2.04807520513708
 30
0.0
 10
8.924630657015584
 20
1.792293536952876
 30
0.0
 10
8.924630657015584
 20
1.645364906924661
 30
0.0
 10
8.924630657015584
 20
1.497156090875825
 30
0.0
  0
LINE
  5
BC
330
1F
100
AcDbEntity
  8
0
  6
Continuous
 62
     1
370
    15
100
AcDbLine
 10
21.62463065701558
 20
-3.171241609630224
 30
0.0
 11
21.62463065701557
 21
-3.011812331087383
 31
0.0
1001
PE_URL
1000

  0
SPLINE
  5
BD
330
1F
100
AcDbEntity
  8
0
  6
Continuous
 62
     1
370
    15
100
AcDbSpline
210
0.0
220
0.0
230
1.0
 70
     8
 71
     3
 72
     8
 73
     4
 74
     0
 42
0.000000001
 43
0.00000001
 40
0.0
 40
0.0
 40
0.0
 40
0.0
 40
1.0
 40
1.0
 40
1.0
 40
1.0
 10
19.65955539003676
 20
0.8897344252684225
 30
0.0
 10
19.54689964179091
 20
1.023226236836176
 30
0.0
 10
19.44639108618293
 20
1.151667531814784
 30
0.0
 10
19.36087530356128
 20
1.273875184918918
 30
0.0
1001
PE_URL
1000

  0
LINE
  5
BE
330
1F
100
AcDbEntity
  8
0
  6
Continuous
 62
     1
370
    15
100
AcDbLine
 10
19.40100821889225
 20
1.307550699371196
 30
0.0
 11
21.62463065701558
 21
0.0010749287238957
 31
0.0
1001
PE_URL
1000

  0
LINE
  5
BF
330
1F
100
AcDbEntity
  8
0
  6
Continuous
 62
     1
370
    15
100
AcDbLine
 10
21.62463065701558
 20
0.0010749287238957
 30
0.0
 11
21.62463065701558
 21
-0.847421424920227
 31
0.0
1001
PE_URL
1000

  0
SPLINE
  5
C0
330
1F
100
AcDbEntity
  8
0
  6
Continuous
 62
     1
370
    15
100
AcDbSpline
210
0.0
220
0.0
230
1.0
 70
     8
 71
     3
 72
    10
 73
     6
 74
     0
 42
0.000000001
 43
0.00000001
 40
0.0
 40
0.0
 40
0.0
 40
0.0
 40
0.5
 40
0.5
 40
1.0
 40
1.0
 40
1.0
 40
1.0
 10
21.62463065701558
 20
-0.8474214249202267
 30
0.0
 10
21.28446224274592
 20
-0.579990228841719
 30
0.0
 10
20.94997927132606
 20
-0.3015901517580516
 30
0.0
 10
20.29266781458888
 20
0.2776949124879406
 30
0.0
 10
19.9667792461619
 20
0.5816325553744919
 30
0.0
 10
19.65955539003676
 20
0.8897344252684186
 30
0.0
1001
PE_URL
1000

  0
SPLINE
  5
C1
330
1F
100
AcDbEntity
  8
0
  6
Continuous
 62
     1
370
    15
100
AcDbSpline
210
0.0
220
0.0
230
1.0
 70
     8
 71
     3
 72
    14
 73
    10
 74
     0
 42
0.000000001
 43
0.00000001
 40
0.0
 40
0.0
 40
0.0
 40
0.0
 40
0.1088646471881326
 40
0.2174244842097695
 40
0.3793779924044357
 40
0.5414482713345844
 40
0.7036996167534152
 40
0.8658244862470648
 40
1.0
 40
1.0
 40
1.0
 40
1.0
 10
19.65955539003343
 20
0.88973442526986
 30
0.0
 10
19.39418583584903
 20
1.002551340911476
 30
0.0
 10
18.86418973579455
 20
1.227869296070286
 30
0.0
 10
17.94003330197625
 20
1.586666709858949
 30
0.0
 10
16.88568147633218
 20
1.944029114486104
 30
0.0
 10
15.70058008270263
 20
2.256055023362484
 30
0.0
 10
14.51471242780518
 20
2.460434205518231
 30
0.0
 10
13.39706199371521
 20
2.557669467839743
 30
0.0
 10
12.67496993606888
 20
2.528745880705018
 30
0.0
 10
12.34798057564346
 20
2.515648235940415
 30
0.0
1001
PE_URL
1000

  0
SPLINE
  5
C2
330
1F
100
AcDbEntity
  8
0
  6
Continuous
 62
     1
370
    15
100
AcDbSpline
210
0.0
220
0.0
230
1.0
 70
    24
 71
     3
 72
    10
 73
     6
 74
     0
 42
0.000000001
 43
0.00000001
 40
0.0
 40
0.0
 40
0.0
 40
0.0
 40
0.5
 40
0.5
 40
1.0
 40
1.0
 40
1.0
 40
1.0
 10
21.62463065701558
 20
-2.503912010645191
 30
0.0
 10
21.62463065701558
 20
-2.311885231363186
 30
0.0
 10
21.62463065701558
 20
-2.069252032679143
 30
0.0
 10
21.62463065701558
 20
-1.505153196579514
 30
0.0
 10
21.62463065701558
 20
-1.184176202964014
 30
0.0
 10
21.62463065701558
 20
-0.8474214249203285
 30
0.0
1001
PE_URL
1000

  0
SPLINE
  5
C3
330
1F
100
AcDbEntity
  8
0
  6
Continuous
 62
     1
370
    15
100
AcDbSpline
210
0.0
220
0.0
230
1.0
 70
    24
 71
     3
 72
     8
 73
     4
 74
     0
 42
0.000000001
 43
0.00000001
 40
0.0
 40
0.0
 40
0.0
 40
0.0
 40
1.0
 40
1.0
 40
1.0
 40
1.0
 10
19.69228018698618
 20
1.551956900368791
 30
0.0
 10
19.587487016884
 20
1.464024989986159
 30
0.0
 10
19.47666844588161
 20
1.371037167932757
 30
0.0
 10
19.36087530356133
 20
1.273875184918955
 30
0.0
1001
PE_URL
1000

  0
LINE
  5
C4
330
1F
100
AcDbEntity
  8
0
  6
Continuous
 62
     1
370
    15
100
AcDbLine
 10
21.62463065701558
 20
2.223574928723894
 30
0.0
 11
20.44399973605534
 21
2.172385000548838
 31
0.0
1001
PE_URL
1000

  0
SPLINE
  5
C5
330
1F
100
AcDbEntity
  8
0
  6
Continuous
 62
     1
370
    15
100
AcDbSpline
210
0.0
220
0.0
230
1.0
 70
     8
 71
     3
 72
     8
 73
     4
 74
     0
 42
0.000000001
 43
0.00000001
 40
0.0
 40
0.0
 40
0.0
 40
0.0
 40
1.0
 40
1.0
 40
1.0
 40
1.0
 10
21.62463065701558
 20
2.223574928723895
 30
0.0
 10
20.97152547858715
 20
2.046323845229704
 30
0.0
 10
20.32464525387399
 20
1.828693399304014
 30
0.0
 10
19.69228018699114
 20
1.551956900372598
 30
0.0
1001
PE_URL
1000

  0
SPLINE
  5
C6
330
1F
100
AcDbEntity
  8
0
  6
Continuous
 62
     1
370
    15
100
AcDbSpline
210
0.0
220
0.0
230
1.0
 70
     8
 71
     3
 72
    13
 73
     9
 74
     0
 42
0.000000001
 43
0.00000001
 40
0.0
 40
0.0
 40
0.0
 40
0.0
 40
0.0651288075208059
 40
0.2633791435960094
 40
0.4614502579738678
 40
0.6594633571063029
 40
0.8295444670901493
 40
1.0
 40
1.0
 40
1.0
 40
1.0
 10
14.90393187398896
 20
-2.373957939834401
 30
0.0
 10
14.7741006806502
 20
-2.397782901300767
 30
0.0
 10
14.24906683134035
 20
-2.494130403828199
 30
0.0
 10
13.32929760962773
 20
-2.548782106408445
 30
0.0
 10
12.14482821020524
 20
-2.530311921674274
 30
0.0
 10
11.01647229607851
 20
-2.392367778739686
 30
0.0
 10
9.943338077519805
 20
-2.174893282578124
 30
0.0
 10
9.264448612091325
 20
-1.976546942733783
 30
0.0
 10
8.92463065701558
 20
-1.877264731070471
 30
0.0
1001
PE_URL
1000

  0
SPLINE
  5
C7
330
1F
100
AcDbEntity
  8
외형선
  6
Continuous
370
    15
100
AcDbSpline
210
0.0
220
0.0
230
1.0
 70
    24
 71
     3
 72
    14
 73
    10
 74
     0
 42
0.000000001
 43
0.00000001
 40
0.0
 40
0.0
 40
0.0
 40
0.0
 40
0.25
 40
0.25
 40
0.5
 40
0.5
 40
0.75
 40
0.75
 40
1.0
 40
1.0
 40
1.0
 40
1.0
 10
8.924630657015527
 20
1.497156090875842
 30
0.0
 10
8.924630657015527
 20
1.253627365724323
 30
0.0
 10
8.924630657015527
 20
0.9850311038153599
 30
0.0
 10
8.924630657015527
 20
0.4172825579026873
 30
0.0
 10
8.924630657015527
 20
0.1183468605854335
 30
0.0
 10
8.924630657015527
 20
-0.4813850077726168
 30
0.0
 10
8.924630657015527
 20
-0.7818616166002298
 30
0.0
 10
8.924630657015527
 20
-1.355481533245839
 30
0.0
 10
8.924630657015527
 20
-1.628400007720379
 30
0.0
 10
8.924630657015527
 20
-1.877264731070454
 30
0.0
  0
LINE
  5
C8
330
1F
100
AcDbEntity
  8
0
  6
Continuous
 62
     1
370
    15
100
AcDbLine
 10
21.62463065701558
 20
0.0010749287238957
 30
0.0
 11
21.62463065701558
 21
2.223574928723895
 31
0.0
1001
PE_URL
1000

  0
SPLINE
  5
C9
330
1F
100
AcDbEntity
  8
외형선
  6
Continuous
370
    15
100
AcDbSpline
210
0.0
220
0.0
230
1.0
 70
    24
 71
     3
 72
    12
 73
     8
 74
     0
 42
0.000000001
 43
0.00000001
 40
0.0
 40
0.0
 40
0.0
 40
0.0
 40
0.1820625755717987
 40
0.3665141132070412
 40
0.6335034581315186
 40
0.9082355121459491
 40
1.0
 40
1.0
 40
1.0
 40
1.0
 10
8.92463065701558
 20
-1.877264731070471
 30
0.0
 10
8.924630657015584
 20
-1.950629860363004
 30
0.0
 10
8.924630657015584
 20
-2.098322790766312
 30
0.0
 10
8.924630657015584
 20
-2.297555203794978
 30
0.0
 10
8.924630657015584
 20
-2.45606858010311
 30
0.0
 10
8.924630657015584
 20
-2.535014969706185
 30
0.0
 10
8.924630657015584
 20
-2.525732386058223
 30
0.0
 10
8.924630657015584
 20
-2.523408185316587
 30
0.0
  0
SPLINE
  5
CA
330
1F
100
AcDbEntity
  8
0
  6
Continuous
 62
     1
370
    15
100
AcDbSpline
210
0.0
220
0.0
230
1.0
 70
    24
 71
     3
 72
    10
 73
     6
 74
     0
 42
0.000000001
 43
0.00000001
 40
0.0
 40
0.0
 40
0.0
 40
0.0
 40
0.5
 40
0.5
 40
1.0
 40
1.0
 40
1.0
 40
1.0
 10
21.62463065701558
 20
2.223574928723894
 30
0.0
 10
21.62463065701558
 20
2.358297344087115
 30
0.0
 10
21.62463065701558
 20
2.51485726737699
 30
0.0
 10
21.62463065701558
 20
2.843319564774609
 30
0.0
 10
21.62463065701558
 20
3.014383087393568
 30
0.0
 10
21.62463065701558
 20
3.173391467078012
 30
0.0
1001
PE_URL
1000

  0
SPLINE
  5
CB
330
1F
100
AcDbEntity
  8
0
  6
Continuous
 62
     1
370
    15
100
AcDbSpline
210
0.0
220
0.0
230
1.0
 70
     8
 71
     3
 72
    14
 73
    10
 74
     0
 42
0.000000001
 43
0.00000001
 40
0.0
 40
0.0
 40
0.0
 40
0.0
 40
0.0194073964443358
 40
0.1242352252873914
 40
0.2294251215009224
 40
0.4195699586117679
 40
0.6102604658093688
 40
0.8048386946240075
 40
1.0
 40
1.0
 40
1.0
 40
1.0
 10
17.25617579526876
 20
2.129832698613117
 30
0.0
 10
17.28441830532374
 20
2.142291112904993
 30
0.0
 10
17.46521095360222
 20
2.222042866867163
 30
0.0
 10
17.79907478864364
 20
2.354983562244117
 30
0.0
 10
18.38240295989324
 20
2.570971957392715
 30
0.0
 10
19.08918049270912
 20
2.795475353459598
 30
0.0
 10
19.92815572044467
 20
2.994384229917798
 30
0.0
 10
20.77262503498797
 20
3.131272297389576
 30
0.0
 10
21.34034566692071
 20
3.159337747914536
 30
0.0
 10
21.62463065701536
 20
3.173391467078005
 30
0.0
1001
PE_URL
1000

  0
LINE
  5
CC
330
1F
100
AcDbEntity
  8
0
  6
Continuous
 62
     1
370
    15
100
AcDbLine
 10
9.748672403063406
 20
-2.49472116660675
 30
0.0
 11
8.924630657011402
 21
-2.767719498619596
 31
0.0
1001
PE_URL
1000

  0
SPLINE
  5
CD
330
1F
100
AcDbEntity
  8
외형선
  6
Continuous
370
    15
100
AcDbSpline
210
0.0
220
0.0
230
1.0
 70
    24
 71
     3
 72
    11
 73
     7
 74
     0
 42
0.000000001
 43
0.00000001
 40
0.0
 40
0.0
 40
0.0
 40
0.0
 40
0.0738048724466923
 40
0.4198205736773725
 40
0.7662425803014491
 40
1.0
 40
1.0
 40
1.0
 40
1.0
 10
8.924630657015584
 20
-2.564540649308887
 30
0.0
 10
8.924630657015584
 20
-2.569891375006279
 30
0.0
 10
8.924630657015584
 20
-2.600327641033185
 30
0.0
 10
8.924630657015584
 20
-2.65317485493959
 30
0.0
 10
8.924630657015584
 20
-2.715476627190738
 30
0.0
 10
8.924630657015584
 20
-2.752715682424448
 30
0.0
 10
8.924630657015584
 20
-2.767719498603554
 30
0.0
  0
LINE
  5
CE
330
1F
100
AcDbEntity
  8
중심선
 62
     1
100
AcDbLine
 10
-40.11286934298443
 20
0.0010749287238888
 30
0.0
 11
24.62463065701557
 21
0.0010749287238967
 31
0.0
  0
LINE
  5
CF
330
1F
100
AcDbEntity
  8
참조1
100
AcDbLine
 10
-7.744119342984424
 20
0.0010749287238892
 30
0.0
 11
-7.744119342984421
 21
-39.99892507127611
 31
0.0
  0
LINE
  5
D0
330
1F
100
AcDbEntity
  8
참조1
100
AcDbLine
 10
-7.744119342984421
 20
-39.99892507127611
 30
0.0
 11
-26.07543187828406
 21
-39.9989250712761
 31
0.0
  0
CIRCLE
  5
D1
330
1F
100
AcDbEntity
  8
해칭선
100
AcDbCircle
 10
0.0
 20
0.0
 30
0.0
 40
3.0
  0
INSERT
  5
D2
330
1F
100
AcDbEntity
  8
0
  6
Continuous
 62
     7
100
AcDbBlockReference
 66
     1
  2
블럭10
 10
-21.68439227510963
 20
-52.04609937292004
 30
0.0
  0
ATTRIB
  5
D3
330
D2
100
AcDbEntity
  8
FORMAT
 62
     2
100
AcDbText
 10
-30.86568756385091
 20
-49.97073246008785
 30
0.0
 40
4.233333333333333
  1
E1030016 [ 2 FLUTE ]
 41
0.75
  7
SLDTEXTSTYLE0
 11
-30.86568756385091
 21
-52.08739912675452
 31
0.0
100
AcDbAttribute
  2
AUTOATTR0
 70
     0
 74
     1
  0
SEQEND
  5
D4
330
D2
100
AcDbEntity
  8
0
  6
Continuous
 62
     7
  0
HATCH
  5
D5
330
1F
100
AcDbEntity
  8
중심선
100
AcDbHatch
 10
0.0
 20
0.0
 30
0.0
210
0.0
220
0.0
230
1.0
  2
SOLID
 70
     1
 71
     0
 91
        1
 92
        0
 93
        4
 72
     1
 10
-15.9694829707288
 20
-35.7989250712761
 11
-19.41575821456608
 21
-35.7989250712761
 72
     1
 10
-19.41575821456608
 20
-35.7989250712761
 11
-21.5439880737701
 21
-38.3352506518487
 72
     1
 10
-21.5439880737701
 20
-38.3352506518487
 11
-18.09767974481967
 21
-38.33521122254621
 72
     1
 10
-18.09767974481967
 20
-38.33521122254621
 11
-15.9694829707288
 21
-35.7989250712761
 97
        0
 75
     0
 76
     1
 98
        1
 10
-5.924630657015583
 20
0.0
  0
HATCH
  5
D6
330
1F
100
AcDbEntity
  8
중심선
100
AcDbHatch
 10
0.0
 20
0.0
 30
0.0
210
0.0
220
0.0
230
1.0
  2
SOLID
 70
     1
 71
     0
 91
        1
 92
        0
 93
        4
 72
     1
 10
-10.95671897969282
 20
-35.79892507127613
 11
-14.4029942235301
 21
-35.79892507127608
 72
     1
 10
-14.4029942235301
 20
-35.79892507127608
 11
-18.93413223188752
 21
-41.19892507127612
 72
     1
 10
-18.93413223188752
 20
-41.19892507127612
 11
-15.48785698805023
 21
-41.19892507127612
 72
     1
 10
-15.48785698805024
 20
-41.19892507127612
 11
-10.95671897969282
 21
-35.79892507127613
 97
        0
 75
     0
 76
     1
 98
        1
 10
-5.924630657015583
 20
0.0
  0
HATCH
  5
D7
330
1F
100
AcDbEntity
  8
중심선
100
AcDbHatch
 10
0.0
 20
0.0
 30
0.0
210
0.0
220
0.0
230
1.0
  2
SOLID
 70
     1
 71
     0
 91
        1
 92
        0
 93
        4
 72
     1
 10
-5.943954988656952
 20
-35.7989250712761
 11
-9.390230232494067
 21
-35.7989250712761
 72
     1
 10
-9.390230232494067
 20
-35.7989250712761
 11
-16.43866713438332
 21
-44.19892507127612
 72
     1
 10
-16.43866713438332
 20
-44.19892507127612
 11
-12.99239189054603
 21
-44.19892507127612
 72
     1
 10
-12.99239189054603
 20
-44.19892507127612
 11
-5.943954988656952
 21
-35.7989250712761
 97
        0
 75
     0
 76
     1
 98
        1
 10
-5.924630657015583
 20
0.0
  0
HATCH
  5
D8
330
1F
100
AcDbEntity
  8
중심선
100
AcDbHatch
 10
0.0
 20
0.0
 30
0.0
210
0.0
220
0.0
230
1.0
  2
SOLID
 70
     1
 71
     0
 91
        1
 92
        0
 93
        6
 72
     3
 10
-1.144064557644752
 20
-39.99892507132738
 11
3.960054785062284
 21
1.540882976769353E-10
 40
0.3939339440162627
 50
17.09539180608437
 51
320.0019657685081
 73
     0
 72
     1
 10
0.5389350980558438
 20
-38.58681907591441
 11
2.844236971756909
 21
-36.65249236586649
 72
     3
 10
-1.144064557697599
 20
-39.99892507127625
 11
6.600054785286829
 21
-1.278976924368180E-13
 40
0.6363583540795981
 50
39.99873849337384
 51
368.4976242363725
 73
     1
 72
     1
 10
5.281267934203011
 20
-39.03892507120613
 11
-2.463997250861648
 21
-39.03892507120613
 72
     1
 10
-2.463997250861648
 20
-39.03892507120613
 11
-2.46402229530761
 21
-40.95892507120602
 72
     1
 10
-2.46402229530761
 20
-40.95892507120602
 11
1.977357474164428
 21
-40.95892507120599
 97
        0
 75
     0
 76
     1
 98
        1
 10
-5.924630657015583
 20
0.0
  0
DIMENSION
  5
D9
330
1F
100
AcDbEntity
  8
치수문자_일반주서
100
AcDbDimension
  2
_D
 10
-47.11286934298438
 20
-4.76142507127615
 30
0.0
 11
-47.11286934298448
 21
24.49257492872386
 31
0.0
 70
   160
  1
%%c<>
 71
     2
 42
9.525000000000006
 52
-270.0
  3
SLDDIMSTYLE0
100
AcDbAlignedDimension
 13
-36.30286934298442
 23
4.763574928723897
 33
0.0
 14
-36.30286934298442
 24
-4.761425071276109
 34
0.0
 50
90.0000000000002
100
AcDbRotatedDimension
1001
PE_URL
1000

1001
ACAD
1000
DSTYLE
1002
{
1070
   171
1070
     8
1070
   273
1070
     7
1002
}
  0
DIMENSION
  5
EE
330
1F
100
AcDbEntity
  8
치수문자_일반주서
100
AcDbDimension
  2
_D_1
 10
8.92463065701558
 20
14.76357492872389
 30
0.0
 11
39.16613065701559
 21
14.76357492872389
 31
0.0
 70
   160
  1
<>
 71
     2
 42
12.7
  3
SLDDIMSTYLE0
100
AcDbAlignedDimension
 13
21.62463065701558
 23
3.173391467078012
 33
0.0
 14
8.92463065701558
 24
2.769869356066201
 34
0.0
 50
0.000000000000016
100
AcDbRotatedDimension
1001
PE_URL
1000

1001
ACAD
1000
DSTYLE
1002
{
1070
   171
1070
     8
1070
   273
1070
     7
1002
}
  0
DIMENSION
  5
103
330
1F
100
AcDbEntity
  8
치수문자_일반주서
100
AcDbDimension
  2
_D_2
 10
-37.11286934298442
 20
24.76357492872389
 30
0.0
 11
-7.744119342984464
 21
24.76357492872389
 31
0.0
 70
   160
  1
<>
 71
     2
 42
58.73750000000001
  3
SLDDIMSTYLE0
100
AcDbAlignedDimension
 13
21.62463065701558
 23
3.173391467078012
 33
0.0
 14
-37.11286934298442
 24
3.95357492872389
 34
0.0
100
AcDbRotatedDimension
1001
PE_URL
1000

1001
ACAD
1000
DSTYLE
1002
{
1070
   171
1070
     8
1070
   273
1070
     7
1002
}
  0
DIMENSION
  5
117
330
1F
100
AcDbEntity
  8
치수문자_일반주서
100
AcDbDimension
  2
_D_3
 10
57.08763729583585
 20
3.173391467078144
 30
0.0
 11
57.08763729583578
 21
22.46489146707814
 31
0.0
 70
   160
  1
%%c<>
 71
     2
 42
6.344633076708236
 52
-270.0
  3
SLDDIMSTYLE0
100
AcDbAlignedDimension
 13
21.62463065701558
 23
-3.171241609630224
 33
0.0
 14
21.62463065701558
 24
3.173391467078012
 34
0.0
 50
90.0000000000002
100
AcDbRotatedDimension
1001
PE_URL
1000

1001
ACAD
1000
DSTYLE
1002
{
1070
   171
1070
     8
1070
   273
1070
     7
1002
}
  0
LINE
  5
12B
330
1F
100
AcDbEntity
  8
참조1
100
AcDbLine
 10
71.8969087513702
 20
7.441074928723896
 30
0.0
 11
71.8969087513702
 21
-7.438925071276109
 31
0.0
  0
LINE
  5
12C
330
1F
100
AcDbEntity
  8
참조1
100
AcDbLine
 10
84.59690875137021
 20
5.441074928723896
 30
0.0
 11
71.8969087513702
 21
5.441074928723896
 31
0.0
  0
SOLID
  5
12D
330
1F
100
AcDbEntity
  8
참조1
100
AcDbTrace
 10
71.8969087513702
 20
5.441074928723896
 30
0.0
 11
78.2469087513702
 21
4.425074928723896
 31
0.0
 12
78.2469087513702
 22
6.457074928723896
 32
0.0
 13
78.2469087513702
 23
6.457074928723896
 33
0.0
  0
LINE
  5
12E
330
1F
100
AcDbEntity
  8
참조1
100
AcDbLine
 10
84.59690875137021
 20
-5.438925071276109
 30
0.0
 11
71.8969087513702
 21
-5.438925071276109
 31
0.0
  0
SOLID
  5
12F
330
1F
100
AcDbEntity
  8
참조1
100
AcDbTrace
 10
71.8969087513702
 20
-5.438925071276109
 30
0.0
 11
78.2469087513702
 21
-6.454925071276109
 31
0.0
 12
78.2469087513702
 22
-4.422925071276109
 32
0.0
 13
78.2469087513702
 23
-4.422925071276109
 33
0.0
  0
MTEXT
  5
130
330
1F
100
AcDbEntity
  8
참조1
100
AcDbMText
 10
81.2812588839962
 20
11.01136670591222
 30
0.0
 40
3.5
 41
0.0
 71
     1
 72
     1
  1
A
  7
SLDTEXTSTYLE0
 73
     1
 44
1.0
  0
MTEXT
  5
131
330
1F
100
AcDbEntity
  8
참조1
100
AcDbMText
 10
81.2812588839962
 20
0.1313667059122192
 30
0.0
 40
3.5
 41
0.0
 71
     1
 72
     1
  1
A
  7
SLDTEXTSTYLE0
 73
     1
 44
1.0
  0
INSERT
  5
138
330
1F
100
AcDbEntity
  8
해칭선
100
AcDbBlockReference
  2
SW_DOWELSYMBOL_0
 10
0.0
 20
0.0
 30
0.0
  0
LINE
  5
1EE
330
1F
100
AcDbEntity
  8
외형선
  6
Continuous
370
    15
100
AcDbLine
 10
-20.83781934298455
 20
3.493574928723898
 30
0.0
 11
-13.70041934298442
 21
3.493574928723898
 31
0.0
1001
PE_URL
1000

  0
LINE
  5
1EF
330
1F
100
AcDbEntity
  8
외형선
  6
Continuous
370
    15
100
AcDbLine
 10
-20.83781934298455
 20
3.493574928723898
 30
0.0
 11
-22.10781934298453
 21
4.76357492872388
 31
0.0
1001
PE_URL
1000

  0
LINE
  5
1F0
330
1F
100
AcDbEntity
  8
외형선
  6
Continuous
370
    15
100
AcDbLine
 10
-13.70041934298442
 20
3.493574928723898
 30
0.0
 11
-12.43041934298432
 21
4.76357492872388
 31
0.0
1001
PE_URL
1000

  0
LINE
  5
1F1
330
1F
100
AcDbEntity
  8
외형선
  6
Continuous
370
    15
100
AcDbLine
 10
-22.10781934298454
 20
4.763574928723891
 30
0.0
 11
-36.30286934298442
 21
4.76357492872389
 31
0.0
  0
ENDSEC
  0
SECTION
  2
OBJECTS
  0
DICTIONARY
  5
C
330
0
100
AcDbDictionary
281
     1
  3
ACAD_DETAILVIEWSTYLE
350
1EC
  3
ACAD_GROUP
350
D
  3
ACAD_LAYOUT
350
1A
  3
ACAD_MLINESTYLE
350
17
  3
ACAD_PLOTSETTINGS
350
19
  3
ACAD_PLOTSTYLENAME
350
E
  3
ACAD_SCALELIST
350
47
  3
ACAD_SECTIONVIEWSTYLE
350
1ED
  3
AcDbVariableDictionary
350
1E7
  3
APPDATA
350
15A
  3
DWGPROPS
350
1F8
  0
DICTIONARY
  5
193
330
2
100
AcDbDictionary
280
     1
281
     1
  3
ACAD_LAYERSTATES
360
194
  0
DICTIONARY
  5
1EC
102
{ACAD_REACTORS
330
C
102
}
330
C
100
AcDbDictionary
281
     1
  0
DICTIONARY
  5
D
102
{ACAD_REACTORS
330
C
102
}
330
C
100
AcDbDictionary
281
     1
  0
DICTIONARY
  5
1A
102
{ACAD_REACTORS
330
C
102
}
330
C
100
AcDbDictionary
281
     1
  3
Layout1
350
1E
  3
Layout2
350
26
  3
Model
350
22
  0
DICTIONARY
  5
17
102
{ACAD_REACTORS
330
C
102
}
330
C
100
AcDbDictionary
281
     1
  3
Standard
350
18
  0
DICTIONARY
  5
19
102
{ACAD_REACTORS
330
C
102
}
330
C
100
AcDbDictionary
281
     1
  0
ACDBDICTIONARYWDFLT
  5
E
102
{ACAD_REACTORS
330
C
102
}
330
C
100
AcDbDictionary
281
     1
  3
Normal
350
F
100
AcDbDictionaryWithDefault
340
F
  0
DICTIONARY
  5
47
102
{ACAD_REACTORS
330
C
102
}
330
C
100
AcDbDictionary
281
     1
  3
A0
350
48
  3
A1
350
49
  3
A2
350
4A
  3
A3
350
4B
  3
A4
350
4C
  3
A5
350
4D
  3
A6
350
4E
  3
A7
350
4F
  3
A8
350
50
  3
A9
350
51
  3
B0
350
52
  3
B1
350
53
  3
B2
350
54
  3
B3
350
55
  3
B4
350
56
  3
B5
350
57
  3
B6
350
58
  3
B7
350
59
  3
B8
350
5A
  3
B9
350
5B
  3
C0
350
5C
  3
C1
350
5D
  3
C2
350
5E
  3
C3
350
5F
  3
C4
350
60
  3
C5
350
61
  3
C6
350
62
  3
C7
350
63
  3
C8
350
64
  3
C9
350
65
  3
D0
350
66
  3
D1
350
67
  3
D2
350
68
  0
DICTIONARY
  5
1ED
102
{ACAD_REACTORS
330
C
102
}
330
C
100
AcDbDictionary
281
     1
  0
DICTIONARY
  5
1E7
102
{ACAD_REACTORS
330
C
102
}
330
C
100
AcDbDictionary
281
     1
  0
DICTIONARY
  5
15A
102
{ACAD_REACTORS
330
C
102
}
330
C
100
AcDbDictionary
281
     1
  0
XRECORD
  5
1F8
102
{ACAD_REACTORS
330
C
102
}
330
C
100
AcDbXrecord
280
     1
  1
DWGPROPS COOKIE
  2

  3

  4

  6

  7

  8
120170442
  9

300
=
301
=
302
=
303
=
304
=
305
=
306
=
307
=
308
=
309
=
 40
0.0
 41
2458311.081695868
 42
2458320.101101817
  1

 90
        0
  0
DICTIONARY
  5
194
102
{ACAD_REACTORS
330
193
102
}
330
193
100
AcDbDictionary
281
     1
  0
LAYOUT
  5
1E
102
{ACAD_REACTORS
330
1A
102
}
330
1A
100
AcDbPlotSettings
  1

  2
none_device
  4

  6

 40
0.0
 41
0.0
 42
0.0
 43
0.0
 44
0.0
 45
0.0
 46
0.0
 47
0.0
 48
0.0
 49
0.0
140
0.0
141
0.0
142
1.0
143
1.0
 70
   688
 72
     1
 73
     0
 74
     5
  7

 75
    16
147
1.0
148
0.0
149
0.0
100
AcDbLayout
  1
Layout1
 70
     1
 71
     1
 10
0.0
 20
0.0
 11
420.0
 21
297.0
 12
0.0
 22
0.0
 32
0.0
 14
1.000000000000000E+20
 24
1.000000000000000E+20
 34
1.000000000000000E+20
 15
-1.000000000000000E+20
 25
-1.000000000000000E+20
 35
-1.000000000000000E+20
146
0.0
 13
0.0
 23
0.0
 33
0.0
 16
1.0
 26
0.0
 36
0.0
 17
0.0
 27
1.0
 37
0.0
 76
     0
330
1B
  0
LAYOUT
  5
26
102
{ACAD_REACTORS
330
1A
102
}
330
1A
100
AcDbPlotSettings
  1

  2
none_device
  4

  6

 40
0.0
 41
0.0
 42
0.0
 43
0.0
 44
0.0
 45
0.0
 46
0.0
 47
0.0
 48
0.0
 49
0.0
140
0.0
141
0.0
142
1.0
143
1.0
 70
   688
 72
     1
 73
     0
 74
     5
  7

 75
    16
147
1.0
148
0.0
149
0.0
100
AcDbLayout
  1
Layout2
 70
     1
 71
     2
 10
0.0
 20
0.0
 11
0.0
 21
0.0
 12
0.0
 22
0.0
 32
0.0
 14
0.0
 24
0.0
 34
0.0
 15
0.0
 25
0.0
 35
0.0
146
0.0
 13
0.0
 23
0.0
 33
0.0
 16
1.0
 26
0.0
 36
0.0
 17
0.0
 27
1.0
 37
0.0
 76
     0
330
23
  0
LAYOUT
  5
22
102
{ACAD_REACTORS
330
1A
102
}
330
1A
100
AcDbPlotSettings
  1

  2
none_device
  4
ANSI_A_(11.00_x_8.50_Inches)
  6

 40
6.35
 41
19.05
 42
6.35000508
 43
19.05000254
 44
279.4
 45
215.9
 46
99.20074703430114
 47
94.97947036451137
 48
0.0
 49
0.0
140
0.0
141
0.0
142
0.0750037916119238
143
1.0
 70
  1696
 72
     0
 73
     0
 74
     0
  7

 75
     0
147
0.0235690232323232
148
0.0
149
0.0
100
AcDbLayout
  1
Model
 70
     1
 71
     0
 10
0.0
 20
0.0
 11
420.0
 21
297.0
 12
0.0
 22
0.0
 32
0.0
 14
-51.48786934298452
 24
-49.97073246008785
 34
0.0
 15
84.5969087513702
 25
37.61757492872385
 35
0.0
146
0.0
 13
0.0
 23
0.0
 33
0.0
 16
1.0
 26
0.0
 36
0.0
 17
0.0
 27
1.0
 37
0.0
 76
     0
330
1F
331
29
  0
MLINESTYLE
  5
18
102
{ACAD_REACTORS
330
17
102
}
330
17
100
AcDbMlineStyle
  2
Standard
 70
     0
  3

 62
   256
 51
90.0
 52
90.0
 71
     2
 49
0.5
 62
   256
  6
BYLAYER
 49
-0.5
 62
   256
  6
BYLAYER
  0
ACDBPLACEHOLDER
  5
F
102
{ACAD_REACTORS
330
E
102
}
330
E
  0
SCALE
  5
48
102
{ACAD_REACTORS
330
47
102
}
330
47
100
AcDbScale
 70
     0
300
1:1
140
1.0
141
1.0
290
     1
  0
SCALE
  5
49
102
{ACAD_REACTORS
330
47
102
}
330
47
100
AcDbScale
 70
     0
300
1:2
140
1.0
141
2.0
290
     0
  0
SCALE
  5
4A
102
{ACAD_REACTORS
330
47
102
}
330
47
100
AcDbScale
 70
     0
300
1:4
140
1.0
141
4.0
290
     0
  0
SCALE
  5
4B
102
{ACAD_REACTORS
330
47
102
}
330
47
100
AcDbScale
 70
     0
300
1:5
140
1.0
141
5.0
290
     0
  0
SCALE
  5
4C
102
{ACAD_REACTORS
330
47
102
}
330
47
100
AcDbScale
 70
     0
300
1:8
140
1.0
141
8.0
290
     0
  0
SCALE
  5
4D
102
{ACAD_REACTORS
330
47
102
}
330
47
100
AcDbScale
 70
     0
300
1:10
140
1.0
141
10.0
290
     0
  0
SCALE
  5
4E
102
{ACAD_REACTORS
330
47
102
}
330
47
100
AcDbScale
 70
     0
300
1:16
140
1.0
141
16.0
290
     0
  0
SCALE
  5
4F
102
{ACAD_REACTORS
330
47
102
}
330
47
100
AcDbScale
 70
     0
300
1:20
140
1.0
141
20.0
290
     0
  0
SCALE
  5
50
102
{ACAD_REACTORS
330
47
102
}
330
47
100
AcDbScale
 70
     0
300
1:30
140
1.0
141
30.0
290
     0
  0
SCALE
  5
51
102
{ACAD_REACTORS
330
47
102
}
330
47
100
AcDbScale
 70
     0
300
1:40
140
1.0
141
40.0
290
     0
  0
SCALE
  5
52
102
{ACAD_REACTORS
330
47
102
}
330
47
100
AcDbScale
 70
     0
300
1:50
140
1.0
141
50.0
290
     0
  0
SCALE
  5
53
102
{ACAD_REACTORS
330
47
102
}
330
47
100
AcDbScale
 70
     0
300
1:100
140
1.0
141
100.0
290
     0
  0
SCALE
  5
54
102
{ACAD_REACTORS
330
47
102
}
330
47
100
AcDbScale
 70
     0
300
2:1
140
2.0
141
1.0
290
     0
  0
SCALE
  5
55
102
{ACAD_REACTORS
330
47
102
}
330
47
100
AcDbScale
 70
     0
300
4:1
140
4.0
141
1.0
290
     0
  0
SCALE
  5
56
102
{ACAD_REACTORS
330
47
102
}
330
47
100
AcDbScale
 70
     0
300
8:1
140
8.0
141
1.0
290
     0
  0
SCALE
  5
57
102
{ACAD_REACTORS
330
47
102
}
330
47
100
AcDbScale
 70
     0
300
10:1
140
10.0
141
1.0
290
     0
  0
SCALE
  5
58
102
{ACAD_REACTORS
330
47
102
}
330
47
100
AcDbScale
 70
     0
300
100:1
140
100.0
141
1.0
290
     0
  0
SCALE
  5
59
102
{ACAD_REACTORS
330
47
102
}
330
47
100
AcDbScale
 70
     0
300
1/128" = 1'-0"
140
0.0078125
141
12.0
290
     0
  0
SCALE
  5
5A
102
{ACAD_REACTORS
330
47
102
}
330
47
100
AcDbScale
 70
     0
300
1/64" = 1'-0"
140
0.015625
141
12.0
290
     0
  0
SCALE
  5
5B
102
{ACAD_REACTORS
330
47
102
}
330
47
100
AcDbScale
 70
     0
300
1/32" = 1'-0"
140
0.03125
141
12.0
290
     0
  0
SCALE
  5
5C
102
{ACAD_REACTORS
330
47
102
}
330
47
100
AcDbScale
 70
     0
300
1/16" = 1'-0"
140
0.0625
141
12.0
290
     0
  0
SCALE
  5
5D
102
{ACAD_REACTORS
330
47
102
}
330
47
100
AcDbScale
 70
     0
300
3/32" = 1'-0"
140
0.09375
141
12.0
290
     0
  0
SCALE
  5
5E
102
{ACAD_REACTORS
330
47
102
}
330
47
100
AcDbScale
 70
     0
300
1/8" = 1'-0"
140
0.125
141
12.0
290
     0
  0
SCALE
  5
5F
102
{ACAD_REACTORS
330
47
102
}
330
47
100
AcDbScale
 70
     0
300
3/16" = 1'-0"
140
0.1875
141
12.0
290
     0
  0
SCALE
  5
60
102
{ACAD_REACTORS
330
47
102
}
330
47
100
AcDbScale
 70
     0
300
1/4" = 1'-0"
140
0.25
141
12.0
290
     0
  0
SCALE
  5
61
102
{ACAD_REACTORS
330
47
102
}
330
47
100
AcDbScale
 70
     0
300
3/8" = 1'-0"
140
0.375
141
12.0
290
     0
  0
SCALE
  5
62
102
{ACAD_REACTORS
330
47
102
}
330
47
100
AcDbScale
 70
     0
300
1/2" = 1'-0"
140
0.5
141
12.0
290
     0
  0
SCALE
  5
63
102
{ACAD_REACTORS
330
47
102
}
330
47
100
AcDbScale
 70
     0
300
3/4" = 1'-0"
140
0.75
141
12.0
290
     0
  0
SCALE
  5
64
102
{ACAD_REACTORS
330
47
102
}
330
47
100
AcDbScale
 70
     0
300
1" = 1'-0"
140
1.0
141
12.0
290
     0
  0
SCALE
  5
65
102
{ACAD_REACTORS
330
47
102
}
330
47
100
AcDbScale
 70
     0
300
1-1/2" = 1'-0"
140
1.5
141
12.0
290
     0
  0
SCALE
  5
66
102
{ACAD_REACTORS
330
47
102
}
330
47
100
AcDbScale
 70
     0
300
3" = 1'-0"
140
3.0
141
12.0
290
     0
  0
SCALE
  5
67
102
{ACAD_REACTORS
330
47
102
}
330
47
100
AcDbScale
 70
     0
300
6" = 1'-0"
140
6.0
141
12.0
290
     0
  0
SCALE
  5
68
102
{ACAD_REACTORS
330
47
102
}
330
47
100
AcDbScale
 70
     0
300
1'-0" = 1'-0"
140
12.0
141
12.0
290
     0
  0
ENDSEC
  0
EOF
