  0
SECTION
  2
HEADER
  9
$ACADVER
  1
AC1015
  9
$ACADMAINTVER
 70
     6
  9
$DWGCODEPAGE
  3
ANSI_949
  9
$INSBASE
 10
0.0
 20
0.0
 30
0.0
  9
$EXTMIN
 10
-54.3438423357462
 20
-49.97073246008785
 30
0.0
  9
$EXTMAX
 10
80.15343575860852
 20
40.71701016896096
 30
0.0
  9
$LIMMIN
 10
0.0
 20
0.0
  9
$LIMMAX
 10
420.0
 20
297.0
  9
$ORTHOMODE
 70
     1
  9
$REGENMODE
 70
     1
  9
$FILLMODE
 70
     1
  9
$QTEXTMODE
 70
     0
  9
$MIRRTEXT
 70
     1
  9
$LTSCALE
 40
1.0
  9
$ATTMODE
 70
     1
  9
$TEXTSIZE
 40
3.5
  9
$TRACEWID
 40
1.0
  9
$TEXTSTYLE
  7
Standard
  9
$CLAYER
  8
0
  9
$CELTYPE
  6
ByLayer
  9
$CECOLOR
 62
   256
  9
$CELTSCALE
 40
1.0
  9
$DISPSILH
 70
     0
  9
$DIMSCALE
 40
1.0
  9
$DIMASZ
 40
3.302
  9
$DIMEXO
 40
1.0
  9
$DIMDLI
 40
3.75
  9
$DIMRND
 40
0.0
  9
$DIMDLE
 40
0.0
  9
$DIMEXE
 40
1.0
  9
$DIMTP
 40
0.0
  9
$DIMTM
 40
0.0
  9
$DIMTXT
 40
3.5
  9
$DIMCEN
 40
2.5
  9
$DIMTSZ
 40
0.0
  9
$DIMTOL
 70
     0
  9
$DIMLIM
 70
     0
  9
$DIMTIH
 70
     1
  9
$DIMTOH
 70
     1
  9
$DIMSE1
 70
     0
  9
$DIMSE2
 70
     0
  9
$DIMTAD
 70
     1
  9
$DIMZIN
 70
     0
  9
$DIMBLK
  1

  9
$DIMASO
 70
     1
  9
$DIMSHO
 70
     1
  9
$DIMPOST
  1

  9
$DIMAPOST
  1

  9
$DIMALT
 70
     0
  9
$DIMALTD
 70
     3
  9
$DIMALTF
 40
0.0393700787401575
  9
$DIMLFAC
 40
1.0
  9
$DIMTOFL
 70
     1
  9
$DIMTVP
 40
0.0
  9
$DIMTIX
 70
     0
  9
$DIMSOXD
 70
     0
  9
$DIMSAH
 70
     0
  9
$DIMBLK1
  1

  9
$DIMBLK2
  1

  9
$DIMSTYLE
  2
ISO-25
  9
$DIMCLRD
 70
     0
  9
$DIMCLRE
 70
     0
  9
$DIMCLRT
 70
     0
  9
$DIMTFAC
 40
1.0
  9
$DIMGAP
 40
1.524
  9
$DIMJUST
 70
     0
  9
$DIMSD1
 70
     0
  9
$DIMSD2
 70
     0
  9
$DIMTOLJ
 70
     0
  9
$DIMTZIN
 70
     0
  9
$DIMALTZ
 70
     0
  9
$DIMALTTZ
 70
     0
  9
$DIMUPT
 70
     0
  9
$DIMDEC
 70
     2
  9
$DIMTDEC
 70
     2
  9
$DIMALTU
 70
     2
  9
$DIMALTTD
 70
     3
  9
$DIMTXSTY
  7
Standard
  9
$DIMAUNIT
 70
     0
  9
$DIMADEC
 70
     2
  9
$DIMALTRND
 40
0.0
  9
$DIMAZIN
 70
     0
  9
$DIMDSEP
 70
    44
  9
$DIMATFIT
 70
     3
  9
$DIMFRAC
 70
     0
  9
$DIMLDRBLK
  1

  9
$DIMLUNIT
 70
     2
  9
$DIMLWD
 70
    -2
  9
$DIMLWE
 70
    -2
  9
$DIMTMOVE
 70
     0
  9
$LUNITS
 70
     2
  9
$LUPREC
 70
     2
  9
$SKETCHINC
 40
1.0
  9
$FILLETRAD
 40
10.0
  9
$AUNITS
 70
     0
  9
$AUPREC
 70
     2
  9
$MENU
  1
.
  9
$ELEVATION
 40
0.0
  9
$PELEVATION
 40
0.0
  9
$THICKNESS
 40
0.0
  9
$LIMCHECK
 70
     0
  9
$CHAMFERA
 40
0.0
  9
$CHAMFERB
 40
0.0
  9
$CHAMFERC
 40
0.0
  9
$CHAMFERD
 40
0.0
  9
$SKPOLY
 70
     0
  9
$TDCREATE
 40
2458311.457966805
  9
$TDUCREATE
 40
2458311.082966805
  9
$TDUPDATE
 40
2458320.486211794
  9
$TDUUPDATE
 40
2458320.111211794
  9
$TDINDWG
 40
0.0017792245
  9
$TDUSRTIMER
 40
0.001779213
  9
$USRTIMER
 70
     1
  9
$ANGBASE
 50
0.0
  9
$ANGDIR
 70
     0
  9
$PDMODE
 70
     0
  9
$PDSIZE
 40
-1.0
  9
$PLINEWID
 40
0.0
  9
$SPLFRAME
 70
     0
  9
$SPLINETYPE
 70
     6
  9
$SPLINESEGS
 70
     8
  9
$HANDSEED
  5
1F7
  9
$SURFTAB1
 70
     6
  9
$SURFTAB2
 70
     6
  9
$SURFTYPE
 70
     6
  9
$SURFU
 70
     6
  9
$SURFV
 70
     6
  9
$UCSBASE
  2

  9
$UCSNAME
  2

  9
$UCSORG
 10
0.0
 20
0.0
 30
0.0
  9
$UCSXDIR
 10
1.0
 20
0.0
 30
0.0
  9
$UCSYDIR
 10
0.0
 20
1.0
 30
0.0
  9
$UCSORTHOREF
  2

  9
$UCSORTHOVIEW
 70
     0
  9
$UCSORGTOP
 10
0.0
 20
0.0
 30
0.0
  9
$UCSORGBOTTOM
 10
0.0
 20
0.0
 30
0.0
  9
$UCSORGLEFT
 10
0.0
 20
0.0
 30
0.0
  9
$UCSORGRIGHT
 10
0.0
 20
0.0
 30
0.0
  9
$UCSORGFRONT
 10
0.0
 20
0.0
 30
0.0
  9
$UCSORGBACK
 10
0.0
 20
0.0
 30
0.0
  9
$PUCSBASE
  2

  9
$PUCSNAME
  2

  9
$PUCSORG
 10
0.0
 20
0.0
 30
0.0
  9
$PUCSXDIR
 10
1.0
 20
0.0
 30
0.0
  9
$PUCSYDIR
 10
0.0
 20
1.0
 30
0.0
  9
$PUCSORTHOREF
  2

  9
$PUCSORTHOVIEW
 70
     0
  9
$PUCSORGTOP
 10
0.0
 20
0.0
 30
0.0
  9
$PUCSORGBOTTOM
 10
0.0
 20
0.0
 30
0.0
  9
$PUCSORGLEFT
 10
0.0
 20
0.0
 30
0.0
  9
$PUCSORGRIGHT
 10
0.0
 20
0.0
 30
0.0
  9
$PUCSORGFRONT
 10
0.0
 20
0.0
 30
0.0
  9
$PUCSORGBACK
 10
0.0
 20
0.0
 30
0.0
  9
$USERI1
 70
     0
  9
$USERI2
 70
     0
  9
$USERI3
 70
     0
  9
$USERI4
 70
     0
  9
$USERI5
 70
     0
  9
$USERR1
 40
0.0
  9
$USERR2
 40
0.0
  9
$USERR3
 40
0.0
  9
$USERR4
 40
0.0
  9
$USERR5
 40
0.0
  9
$WORLDVIEW
 70
     1
  9
$SHADEDGE
 70
     3
  9
$SHADEDIF
 70
    70
  9
$TILEMODE
 70
     1
  9
$MAXACTVP
 70
    64
  9
$PINSBASE
 10
0.0
 20
0.0
 30
0.0
  9
$PLIMCHECK
 70
     0
  9
$PEXTMIN
 10
1.000000000000000E+20
 20
1.000000000000000E+20
 30
1.000000000000000E+20
  9
$PEXTMAX
 10
-1.000000000000000E+20
 20
-1.000000000000000E+20
 30
-1.000000000000000E+20
  9
$PLIMMIN
 10
0.0
 20
0.0
  9
$PLIMMAX
 10
0.0
 20
0.0
  9
$UNITMODE
 70
     0
  9
$VISRETAIN
 70
     1
  9
$PLINEGEN
 70
     0
  9
$PSLTSCALE
 70
     1
  9
$TREEDEPTH
 70
  3020
  9
$CMLSTYLE
  2
Standard
  9
$CMLJUST
 70
     0
  9
$CMLSCALE
 40
20.0
  9
$PROXYGRAPHICS
 70
     1
  9
$MEASUREMENT
 70
     1
  9
$CELWEIGHT
370
    -1
  9
$ENDCAPS
280
     0
  9
$JOINSTYLE
280
     0
  9
$LWDISPLAY
290
     1
  9
$INSUNITS
 70
     4
  9
$HYPERLINKBASE
  1

  9
$STYLESHEET
  1

  9
$XEDIT
290
     1
  9
$CEPSNTYPE
380
     0
  9
$PSTYLEMODE
290
     1
  9
$FINGERPRINTGUID
  2
{D38403AD-4154-470C-996E-296EF0F93EF7}
  9
$VERSIONGUID
  2
{FAEB1C32-E019-11D5-929B-00C0DF256EC4}
  9
$EXTNAMES
290
     1
  9
$PSVPSCALE
 40
0.0
  9
$OLESTARTUP
290
     0
  0
ENDSEC
  0
SECTION
  2
CLASSES
  0
CLASS
  1
ACDBDICTIONARYWDFLT
  2
AcDbDictionaryWithDefault
  3
ObjectDBX Classes
 90
        0
280
     0
281
     0
  0
CLASS
  1
VISUALSTYLE
  2
AcDbVisualStyle
  3
ObjectDBX Classes
 90
     4095
280
     0
281
     0
  0
CLASS
  1
MATERIAL
  2
AcDbMaterial
  3
ObjectDBX Classes
 90
     1153
280
     0
281
     0
  0
CLASS
  1
SCALE
  2
AcDbScale
  3
ObjectDBX Classes
 90
     1153
280
     0
281
     0
  0
CLASS
  1
SUN
  2
AcDbSun
  3
SCENEOE
 90
     1153
280
     0
281
     0
  0
CLASS
  1
ACDBPLACEHOLDER
  2
AcDbPlaceHolder
  3
ObjectDBX Classes
 90
        0
280
     0
281
     0
  0
CLASS
  1
LAYOUT
  2
AcDbLayout
  3
ObjectDBX Classes
 90
        0
280
     0
281
     0
  0
CLASS
  1
TABLESTYLE
  2
AcDbTableStyle
  3
ObjectDBX Classes
 90
     4095
280
     0
281
     0
  0
CLASS
  1
MLEADERSTYLE
  2
AcDbMLeaderStyle
  3
ACDB_MLEADERSTYLE_CLASS
 90
     4095
280
     0
281
     0
  0
CLASS
  1
DICTIONARYVAR
  2
AcDbDictionaryVar
  3
ObjectDBX Classes
 90
        0
280
     0
281
     0
  0
ENDSEC
  0
SECTION
  2
TABLES
  0
TABLE
  2
VPORT
  5
8
330
0
100
AcDbSymbolTable
 70
     1
  0
VPORT
  5
29
330
8
100
AcDbSymbolTableRecord
100
AcDbViewportTableRecord
  2
*Active
 70
     0
 10
0.0
 20
0.0
 11
1.0
 21
1.0
 12
12.90479671143116
 22
-4.626861145563446
 13
0.0
 23
0.0
 14
10.0
 24
10.0
 15
10.0
 25
10.0
 16
0.0
 26
0.0
 36
1.0
 17
0.0
 27
0.0
 37
0.0
 40
92.5014974816298
 41
1.782762691853601
 42
50.0
 43
0.0
 44
0.0
 50
0.0
 51
0.0
 71
    16
 72
  2000
 73
     1
 74
     3
 75
     0
 76
     0
 77
     0
 78
     0
281
     0
 65
     1
110
0.0
120
0.0
130
0.0
111
1.0
121
0.0
131
0.0
112
0.0
122
1.0
132
0.0
 79
     0
146
0.0
  0
ENDTAB
  0
TABLE
  2
LTYPE
  5
5
330
0
100
AcDbSymbolTable
 70
     6
  0
LTYPE
  5
14
330
5
100
AcDbSymbolTableRecord
100
AcDbLinetypeTableRecord
  2
ByBlock
 70
     0
  3

 72
    65
 73
     0
 40
0.0
  0
LTYPE
  5
15
330
5
100
AcDbSymbolTableRecord
100
AcDbLinetypeTableRecord
  2
ByLayer
 70
     0
  3

 72
    65
 73
     0
 40
0.0
  0
LTYPE
  5
16
330
5
100
AcDbSymbolTableRecord
100
AcDbLinetypeTableRecord
  2
Continuous
 70
     0
  3
Solid line
 72
    65
 73
     0
 40
0.0
  0
LTYPE
  5
6A
330
5
100
AcDbSymbolTableRecord
100
AcDbLinetypeTableRecord
  2
HIDDEN
 70
     0
  3
Hidden __ __ __ __ __ __ __ __ __ __ __ __ __ __
 72
    65
 73
     2
 40
1.905
 49
1.27
 74
     0
 49
-0.635
 74
     0
  0
LTYPE
  5
6B
330
5
100
AcDbSymbolTableRecord
100
AcDbLinetypeTableRecord
  2
PHANTOM
 70
     0
  3
Phantom ______  __  __  ______  __  __  ______
 72
    65
 73
     6
 40
12.7
 49
6.35
 74
     0
 49
-1.27
 74
     0
 49
1.27
 74
     0
 49
-1.27
 74
     0
 49
1.27
 74
     0
 49
-1.27
 74
     0
  0
LTYPE
  5
6C
330
5
100
AcDbSymbolTableRecord
100
AcDbLinetypeTableRecord
  2
CENTER
 70
     0
  3
Center ____ _ ____ _ ____ _ ____ _ ____ _ ____
 72
    65
 73
     4
 40
10.16
 49
6.35
 74
     0
 49
-1.27
 74
     0
 49
1.27
 74
     0
 49
-1.27
 74
     0
  0
LTYPE
  5
6D
330
5
100
AcDbSymbolTableRecord
100
AcDbLinetypeTableRecord
  2
CENTERX2
 70
     0
  3
Center (2x) ________  __  ________  __  _____
 72
    65
 73
     4
 40
20.32
 49
12.7
 74
     0
 49
-2.54
 74
     0
 49
2.54
 74
     0
 49
-2.54
 74
     0
  0
LTYPE
  5
6E
330
5
100
AcDbSymbolTableRecord
100
AcDbLinetypeTableRecord
  2
DOT2
 70
     0
  3
Dot (.5x) ........................................
 72
    65
 73
     2
 40
0.635
 49
0.0
 74
     0
 49
-0.635
 74
     0
  0
ENDTAB
  0
TABLE
  2
LAYER
  5
2
102
{ACAD_XDICTIONARY
360
191
102
}
330
0
100
AcDbSymbolTable
 70
    18
  0
LAYER
  5
10
330
2
100
AcDbSymbolTableRecord
100
AcDbLayerTableRecord
  2
0
 70
     0
 62
     7
  6
Continuous
370
    -3
390
F
  0
LAYER
  5
6F
330
2
100
AcDbSymbolTableRecord
100
AcDbLayerTableRecord
  2
FORMAT
 70
     0
 62
     2
  6
Continuous
370
    -3
390
F
  0
LAYER
  5
70
330
2
100
AcDbSymbolTableRecord
100
AcDbLayerTableRecord
  2
외형선
 70
     0
 62
     4
  6
Continuous
370
    30
390
F
  0
LAYER
  5
71
330
2
100
AcDbSymbolTableRecord
100
AcDbLayerTableRecord
  2
숨은선
 70
     0
 62
     2
  6
HIDDEN
370
    15
390
F
  0
LAYER
  5
72
330
2
100
AcDbSymbolTableRecord
100
AcDbLayerTableRecord
  2
중심선
 70
     0
 62
     1
  6
CENTERX2
370
    -3
390
F
  0
LAYER
  5
73
330
2
100
AcDbSymbolTableRecord
100
AcDbLayerTableRecord
  2
파단선
 70
     0
 62
     4
  6
Continuous
370
    -3
390
F
  0
LAYER
  5
74
330
2
100
AcDbSymbolTableRecord
100
AcDbLayerTableRecord
  2
해칭선
 70
     0
 62
   100
  6
Continuous
370
    -3
390
F
  0
LAYER
  5
75
330
2
100
AcDbSymbolTableRecord
100
AcDbLayerTableRecord
  2
가는실선
 70
     0
 62
     4
  6
Continuous
370
    -3
390
F
  0
LAYER
  5
76
330
2
100
AcDbSymbolTableRecord
100
AcDbLayerTableRecord
  2
치수_보조선
 70
     0
 62
     4
  6
Continuous
370
    -3
390
F
  0
LAYER
  5
77
330
2
100
AcDbSymbolTableRecord
100
AcDbLayerTableRecord
  2
치수문자_일반주서
 70
     0
 62
     7
  6
Continuous
370
    15
390
F
  0
LAYER
  5
78
330
2
100
AcDbSymbolTableRecord
100
AcDbLayerTableRecord
  2
개별주서
 70
     0
 62
   100
  6
Continuous
370
    30
390
F
  0
LAYER
  5
79
330
2
100
AcDbSymbolTableRecord
100
AcDbLayerTableRecord
  2
중간선
 70
     0
 62
     2
  6
Continuous
370
    15
390
F
  0
LAYER
  5
7A
330
2
100
AcDbSymbolTableRecord
100
AcDbLayerTableRecord
  2
윤곽선
 70
     0
 62
     3
  6
Continuous
370
    40
390
F
  0
LAYER
  5
7B
330
2
100
AcDbSymbolTableRecord
100
AcDbLayerTableRecord
  2
중심마크
 70
     0
 62
   100
  6
Continuous
370
    30
390
F
  0
LAYER
  5
7C
330
2
100
AcDbSymbolTableRecord
100
AcDbLayerTableRecord
  2
가상선
 70
     0
 62
     4
  6
PHANTOM
370
    -3
390
F
  0
LAYER
  5
7D
330
2
100
AcDbSymbolTableRecord
100
AcDbLayerTableRecord
  2
특수지정선
 70
     0
 62
     5
  6
CENTERX2
370
    60
390
F
  0
LAYER
  5
7E
330
2
100
AcDbSymbolTableRecord
100
AcDbLayerTableRecord
  2
참조1
 70
     0
 62
    -4
  6
Continuous
370
    -3
390
F
  0
LAYER
  5
15A
330
2
100
AcDbSymbolTableRecord
100
AcDbLayerTableRecord
  2
Defpoints
 70
     0
 62
     7
  6
Continuous
290
     0
370
    -3
390
F
  0
ENDTAB
  0
TABLE
  2
STYLE
  5
3
330
0
100
AcDbSymbolTable
 70
     2
  0
STYLE
  5
11
330
3
100
AcDbSymbolTableRecord
100
AcDbTextStyleTableRecord
  2
Standard
 70
     0
 40
0.0
 41
1.0
 50
0.0
 71
     0
 42
3.5
  3
txt
  4

  0
STYLE
  5
94
330
3
100
AcDbSymbolTableRecord
100
AcDbTextStyleTableRecord
  2
SLDTEXTSTYLE0
 70
     0
 40
0.0
 41
0.75
 50
0.0
 71
     0
 42
3.5
  3
TXT
  4

  0
ENDTAB
  0
TABLE
  2
VIEW
  5
6
330
0
100
AcDbSymbolTable
 70
     0
  0
ENDTAB
  0
TABLE
  2
UCS
  5
7
330
0
100
AcDbSymbolTable
 70
     0
  0
ENDTAB
  0
TABLE
  2
APPID
  5
9
330
0
100
AcDbSymbolTable
 70
     2
  0
APPID
  5
12
330
9
100
AcDbSymbolTableRecord
100
AcDbRegAppTableRecord
  2
ACAD
 70
     0
  0
APPID
  5
161
330
9
100
AcDbSymbolTableRecord
100
AcDbRegAppTableRecord
  2
PE_URL
 70
     0
  0
ENDTAB
  0
TABLE
  2
DIMSTYLE
  5
A
330
0
100
AcDbSymbolTable
 70
     3
100
AcDbDimStyleTable
  0
DIMSTYLE
105
27
330
A
100
AcDbSymbolTableRecord
100
AcDbDimStyleTableRecord
  2
ISO-25
 70
     0
 41
2.5
 42
0.625
 43
3.75
 44
1.25
 73
     0
 74
     0
 77
     1
 78
     8
140
2.5
141
2.5
143
0.03937007874016
147
0.625
171
     3
172
     1
178
     0
271
     2
272
     2
274
     3
278
    44
283
     0
284
     8
340
11
  0
DIMSTYLE
105
DA
102
{ACAD_REACTORS
330
D9
330
180
330
EE
330
116
330
103
102
}
330
A
100
AcDbSymbolTableRecord
100
AcDbDimStyleTableRecord
  2
SLDDIMSTYLE0
 70
     0
 41
3.302
 44
0.0
 45
0.000000001
 73
     0
 74
     0
 77
     1
 78
    12
 79
     3
140
3.5
143
0.0393700787401575
147
0.875
148
0.000000001
170
     1
172
     1
173
     1
178
     0
271
     2
272
     2
276
     2
284
    12
289
     0
340
94
  0
DIMSTYLE
105
EF
330
A
100
AcDbSymbolTableRecord
100
AcDbDimStyleTableRecord
  2
SLDDIMSTYLE1
 70
     0
 41
3.302
 44
0.0
 45
0.000000001
 73
     0
 74
     0
 77
     1
 78
    12
 79
     3
140
3.5
143
0.0393700787401575
147
0.875
148
0.000000001
170
     1
173
     1
178
     0
271
     2
272
     2
276
     2
284
    12
340
94
  0
ENDTAB
  0
TABLE
  2
BLOCK_RECORD
  5
1
330
0
100
AcDbSymbolTable
 70
    11
  0
BLOCK_RECORD
  5
1F
330
1
100
AcDbSymbolTableRecord
100
AcDbBlockTableRecord
  2
*Model_Space
340
22
  0
BLOCK_RECORD
  5
1B
330
1
100
AcDbSymbolTableRecord
100
AcDbBlockTableRecord
  2
*Paper_Space
340
1E
  0
BLOCK_RECORD
  5
23
330
1
100
AcDbSymbolTableRecord
100
AcDbBlockTableRecord
  2
*Paper_Space0
340
26
  0
BLOCK_RECORD
  5
7F
330
1
100
AcDbSymbolTableRecord
100
AcDbBlockTableRecord
  2
블럭10
340
0
102
{BLKREFS
331
D2
102
}
  0
BLOCK_RECORD
  5
DB
330
1
100
AcDbSymbolTableRecord
100
AcDbBlockTableRecord
  2
_D
340
0
  0
BLOCK_RECORD
  5
F0
330
1
100
AcDbSymbolTableRecord
100
AcDbBlockTableRecord
  2
_D_1
340
0
  0
BLOCK_RECORD
  5
104
330
1
100
AcDbSymbolTableRecord
100
AcDbBlockTableRecord
  2
_D_2
340
0
  0
BLOCK_RECORD
  5
117
330
1
100
AcDbSymbolTableRecord
100
AcDbBlockTableRecord
  2
_D_3
340
0
  0
BLOCK_RECORD
  5
130
330
1
100
AcDbSymbolTableRecord
100
AcDbBlockTableRecord
  2
SW_DOWELSYMBOL_0
340
0
102
{BLKREFS
331
136
102
}
  0
BLOCK_RECORD
  5
195
330
1
100
AcDbSymbolTableRecord
100
AcDbBlockTableRecord
  2
*D8
340
0
  0
BLOCK_RECORD
  5
1A7
330
1
100
AcDbSymbolTableRecord
100
AcDbBlockTableRecord
  2
*D9
340
0
  0
ENDTAB
  0
ENDSEC
  0
SECTION
  2
BLOCKS
  0
BLOCK
  5
20
330
1F
100
AcDbEntity
  8
0
100
AcDbBlockBegin
  2
*Model_Space
 70
     0
 10
0.0
 20
0.0
 30
0.0
  3
*Model_Space
  1

  0
ENDBLK
  5
21
330
1F
100
AcDbEntity
  8
0
100
AcDbBlockEnd
  0
BLOCK
  5
1C
330
1B
100
AcDbEntity
 67
     1
  8
0
100
AcDbBlockBegin
  2
*Paper_Space
 70
     0
 10
0.0
 20
0.0
 30
0.0
  3
*Paper_Space
  1

  0
ENDBLK
  5
1D
330
1B
100
AcDbEntity
 67
     1
  8
0
100
AcDbBlockEnd
  0
BLOCK
  5
24
330
23
100
AcDbEntity
  8
0
100
AcDbBlockBegin
  2
*Paper_Space0
 70
     0
 10
0.0
 20
0.0
 30
0.0
  3
*Paper_Space0
  1

  0
ENDBLK
  5
25
330
23
100
AcDbEntity
  8
0
100
AcDbBlockEnd
  0
BLOCK
  5
80
330
7F
100
AcDbEntity
  8
0
100
AcDbBlockBegin
  2
블럭10
 70
     2
 10
0.0
 20
0.0
 30
0.0
  3
블럭10
  1

  0
ELLIPSE
  5
82
330
7F
100
AcDbEntity
  8
중심선
100
AcDbEllipse
 10
20.54032771741204
 20
12.0471743016438
 30
0.0
 11
6.600054785286829
 21
-1.261213355974178E-13
 31
0.0
210
0.0
220
0.0
230
1.0
 40
0.636358354079598
 41
0.9219305317359503
 42
6.513795318482858
  0
ELLIPSE
  5
83
330
7F
100
AcDbEntity
  8
중심선
100
AcDbEllipse
 10
20.54032771746488
 20
12.04717430159265
 30
0.0
 11
3.960054785062283
 21
1.540847449632565E-10
 31
0.0
210
0.0
220
0.0
230
1.0
 40
0.3939339440162632
 41
1.131841032648279
 42
5.62031148352944
  0
LINE
  5
84
330
7F
100
AcDbEntity
  8
중심선
100
AcDbLine
 10
2.268634060543552
 20
16.24717430164393
 30
0.0
 11
5.714909304380834
 21
16.24717430164393
 31
0.0
  0
LINE
  5
85
330
7F
100
AcDbEntity
  8
중심선
100
AcDbLine
 10
5.245725140726316
 20
7.84717430164391
 30
0.0
 11
8.692000384563599
 21
7.84717430164391
 31
0.0
  0
LINE
  5
86
330
7F
100
AcDbEntity
  8
중심선
100
AcDbLine
 10
15.74043728645272
 20
16.24717430164393
 30
0.0
 11
8.692000384563599
 21
7.84717430164391
 31
0.0
  0
LINE
  5
87
330
7F
100
AcDbEntity
  8
중심선
100
AcDbLine
 10
0.1404042013395286
 20
13.71084872107135
 30
0.0
 11
3.58671253028996
 21
13.71088815037384
 31
0.0
  0
LINE
  5
88
330
7F
100
AcDbEntity
  8
중심선
100
AcDbLine
 10
2.750260043222114
 20
10.84717430164391
 30
0.0
 11
6.196535287059397
 21
10.84717430164391
 31
0.0
  0
LINE
  5
89
330
7F
100
AcDbEntity
  8
중심선
100
AcDbLine
 10
12.29416204261559
 20
16.24717430164393
 30
0.0
 11
5.245725140726316
 21
7.84717430164391
 31
0.0
  0
LINE
  5
8A
330
7F
100
AcDbEntity
  8
중심선
100
AcDbLine
 10
10.72767329541681
 20
16.24717430164393
 30
0.0
 11
6.196535287059397
 21
10.84717430164391
 31
0.0
  0
LINE
  5
8B
330
7F
100
AcDbEntity
  8
중심선
100
AcDbLine
 10
7.28139805157953
 20
16.24717430164393
 30
0.0
 11
2.750260043222114
 21
10.84717430164391
 31
0.0
  0
LINE
  5
8C
330
7F
100
AcDbEntity
  8
중심선
100
AcDbLine
 10
5.714909304380834
 20
16.24717430164393
 30
0.0
 11
3.58671253028996
 21
13.71088815037384
 31
0.0
  0
LINE
  5
8D
330
7F
100
AcDbEntity
  8
중심선
100
AcDbLine
 10
2.268634060543552
 20
16.24717430164393
 30
0.0
 11
0.1404042013395286
 21
13.71084872107135
 31
0.0
  0
LINE
  5
8E
330
7F
100
AcDbEntity
  8
중심선
100
AcDbLine
 10
7.28139805157953
 20
16.24717430164393
 30
0.0
 11
10.72767329541681
 21
16.24717430164393
 31
0.0
  0
LINE
  5
8F
330
7F
100
AcDbEntity
  8
중심선
100
AcDbLine
 10
12.29416204261559
 20
16.24717430164393
 30
0.0
 11
15.74043728645272
 21
16.24717430164393
 31
0.0
  0
LINE
  5
90
330
7F
100
AcDbEntity
  8
중심선
100
AcDbLine
 10
19.22036997980202
 20
11.08717430171403
 30
0.0
 11
23.66174974927406
 21
11.08717430171406
 31
0.0
  0
LINE
  5
91
330
7F
100
AcDbEntity
  8
중심선
100
AcDbLine
 10
19.22039502424796
 20
13.00717430171391
 30
0.0
 11
19.22036997980202
 21
11.08717430171403
 31
0.0
  0
LINE
  5
92
330
7F
100
AcDbEntity
  8
중심선
100
AcDbLine
 10
19.22039502424796
 20
13.00717430171391
 30
0.0
 11
26.96566020931264
 21
13.00717430171391
 31
0.0
  0
LINE
  5
93
330
7F
100
AcDbEntity
  8
중심선
100
AcDbLine
 10
22.22332737316547
 20
13.45928029700563
 30
0.0
 11
24.52862924686651
 21
15.39360700705356
 31
0.0
  0
ATTDEF
  5
95
330
7F
100
AcDbEntity
  8
FORMAT
 62
     2
100
AcDbText
 10
4.408487351596664
 20
2.075366912832191
 30
0.0
 40
4.233333333333333
  1
E1030022
 41
0.75
  7
SLDTEXTSTYLE0
 11
4.408487351596664
 21
-0.0412997538344756
 31
0.0
100
AcDbAttributeDefinition
  3

  2
AUTOATTR0
 70
     0
 74
     1
  0
ENDBLK
  5
81
330
7F
100
AcDbEntity
  8
0
100
AcDbBlockEnd
  0
BLOCK
  5
DC
330
DB
100
AcDbEntity
  8
0
100
AcDbBlockBegin
  2
_D
 70
     0
 10
0.0
 20
0.0
 30
0.0
  3
_D
  1

  0
LINE
  5
DE
330
DB
100
AcDbEntity
  8
치수문자_일반주서
 62
     0
370
    -2
100
AcDbLine
 10
-39.03134233574609
 20
4.763574928723897
 30
0.0
 11
-49.96884233574609
 21
4.763574928723855
 31
0.0
  0
LINE
  5
DF
330
DB
100
AcDbEntity
  8
치수문자_일반주서
 62
     0
370
    -2
100
AcDbLine
 10
-39.03134233574609
 20
-4.761425071276109
 30
0.0
 11
-49.96884233574605
 21
-4.76142507127615
 31
0.0
  0
LINE
  5
E0
330
DB
100
AcDbEntity
  8
치수문자_일반주서
 62
     0
370
    -2
100
AcDbLine
 10
-49.96884233574609
 20
4.763574928723855
 30
0.0
 11
-49.96884233574621
 21
37.61757492872385
 31
0.0
  0
LINE
  5
E1
330
DB
100
AcDbEntity
  8
치수문자_일반주서
 62
     0
370
    -2
100
AcDbLine
 10
-49.96884233574609
 20
4.763574928723855
 30
0.0
 11
-49.96884233574605
 21
-4.76142507127615
 31
0.0
  0
LINE
  5
E2
330
DB
100
AcDbEntity
  8
치수문자_일반주서
 62
     0
370
    -2
100
AcDbLine
 10
-49.9688423357461
 20
8.065574928723855
 30
0.0
 11
-49.96884233574612
 21
11.36757492872385
 31
0.0
  0
LINE
  5
E3
330
DB
100
AcDbEntity
  8
치수문자_일반주서
 62
     0
370
    -2
100
AcDbLine
 10
-49.96884233574604
 20
-8.06342507127615
 30
0.0
 11
-49.96884233574603
 21
-11.36542507127615
 31
0.0
  0
SOLID
  5
E4
330
DB
100
AcDbEntity
  8
치수문자_일반주서
 62
     0
100
AcDbTrace
 10
-50.51917566907944
 20
8.065574928723853
 30
0.0
 11
-49.41850900241277
 21
8.065574928723857
 31
0.0
 12
-49.96884233574609
 22
4.763574928723855
 32
0.0
 13
-49.96884233574609
 23
4.763574928723855
 33
0.0
  0
SOLID
  5
E5
330
DB
100
AcDbEntity
  8
치수문자_일반주서
 62
     0
100
AcDbTrace
 10
-49.4185090024127
 20
-8.063425071276148
 30
0.0
 11
-50.51917566907937
 21
-8.063425071276152
 31
0.0
 12
-49.96884233574605
 22
-4.76142507127615
 32
0.0
 13
-49.96884233574605
 23
-4.76142507127615
 33
0.0
  0
MTEXT
  5
E6
330
DB
100
AcDbEntity
  8
치수문자_일반주서
 62
     0
100
AcDbMText
 10
-54.34384233574616
 20
24.49257492872384
 30
0.0
 40
3.5
 41
0.0
 71
     2
 72
     1
  1
\A1;%%c9.53 [3/8]
  7
SLDTEXTSTYLE0
 11
-3.729883127349605E-15
 21
1.0
 31
0.0
 73
     1
 44
1.0
  0
POINT
  5
1F3
330
DB
100
AcDbEntity
  8
Defpoints
 62
     0
100
AcDbPoint
 10
-38.96884233574609
 20
4.763574928723897
 30
0.0
  0
POINT
  5
1F4
330
DB
100
AcDbEntity
  8
Defpoints
 62
     0
100
AcDbPoint
 10
-38.96884233574609
 20
-4.761425071276109
 30
0.0
  0
POINT
  5
1F5
330
DB
100
AcDbEntity
  8
Defpoints
 62
     0
100
AcDbPoint
 10
-49.96884233574605
 20
-4.761425071276149
 30
0.0
  0
ENDBLK
  5
DD
330
DB
100
AcDbEntity
  8
0
100
AcDbBlockEnd
  0
BLOCK
  5
F1
330
F0
100
AcDbEntity
  8
0
100
AcDbBlockBegin
  2
_D_1
 70
     0
 10
0.0
 20
0.0
 30
0.0
  3
_D_1
  1

  0
LINE
  5
F3
330
F0
100
AcDbEntity
  8
치수문자_일반주서
 62
     0
370
    -2
100
AcDbLine
 10
18.7686576642539
 20
4.425510168960808
 30
0.0
 11
18.7686576642539
 21
14.76357492872389
 31
0.0
  0
LINE
  5
F4
330
F0
100
AcDbEntity
  8
치수문자_일반주서
 62
     0
370
    -2
100
AcDbLine
 10
4.481157664253903
 20
3.478694128424379
 30
0.0
 11
4.481157664253899
 21
14.76357492872389
 31
0.0
  0
LINE
  5
F5
330
F0
100
AcDbEntity
  8
치수문자_일반주서
 62
     0
370
    -2
100
AcDbLine
 10
18.7686576642539
 20
14.76357492872389
 30
0.0
 11
52.4976576642539
 21
14.76357492872389
 31
0.0
  0
LINE
  5
F6
330
F0
100
AcDbEntity
  8
치수문자_일반주서
 62
     0
370
    -2
100
AcDbLine
 10
18.7686576642539
 20
14.76357492872389
 30
0.0
 11
4.481157664253899
 21
14.76357492872389
 31
0.0
  0
LINE
  5
F7
330
F0
100
AcDbEntity
  8
치수문자_일반주서
 62
     0
370
    -2
100
AcDbLine
 10
22.0706576642539
 20
14.76357492872389
 30
0.0
 11
25.3726576642539
 21
14.76357492872389
 31
0.0
  0
LINE
  5
F8
330
F0
100
AcDbEntity
  8
치수문자_일반주서
 62
     0
370
    -2
100
AcDbLine
 10
1.1791576642539
 20
14.76357492872389
 30
0.0
 11
-2.1228423357461
 21
14.76357492872389
 31
0.0
  0
SOLID
  5
F9
330
F0
100
AcDbEntity
  8
치수문자_일반주서
 62
     0
100
AcDbTrace
 10
22.0706576642539
 20
15.31390826205722
 30
0.0
 11
22.0706576642539
 21
14.21324159539056
 31
0.0
 12
18.7686576642539
 22
14.76357492872389
 32
0.0
 13
18.7686576642539
 23
14.76357492872389
 33
0.0
  0
SOLID
  5
FA
330
F0
100
AcDbEntity
  8
치수문자_일반주서
 62
     0
100
AcDbTrace
 10
1.1791576642539
 20
14.21324159539056
 30
0.0
 11
1.1791576642539
 21
15.31390826205722
 31
0.0
 12
4.481157664253899
 22
14.76357492872389
 32
0.0
 13
4.481157664253899
 23
14.76357492872389
 33
0.0
  0
MTEXT
  5
FB
330
F0
100
AcDbEntity
  8
치수문자_일반주서
 62
     0
100
AcDbMText
 10
38.9351576642539
 20
19.13857492872389
 30
0.0
 40
3.5
 41
0.0
 71
     2
 72
     1
  1
\A1;14.29 [9/16]
  7
SLDTEXTSTYLE0
 73
     1
 44
1.0
  0
POINT
  5
FC
330
F0
100
AcDbEntity
  8
Defpoints
 62
     0
100
AcDbPoint
 10
18.7686576642539
 20
4.363010168960808
 30
0.0
  0
POINT
  5
FD
330
F0
100
AcDbEntity
  8
Defpoints
 62
     0
100
AcDbPoint
 10
4.481157664253903
 20
3.416194128424379
 30
0.0
  0
POINT
  5
FE
330
F0
100
AcDbEntity
  8
Defpoints
 62
     0
100
AcDbPoint
 10
4.481157664253903
 20
14.76357492872389
 30
0.0
  0
ENDBLK
  5
F2
330
F0
100
AcDbEntity
  8
0
100
AcDbBlockEnd
  0
BLOCK
  5
105
330
104
100
AcDbEntity
  8
0
100
AcDbBlockBegin
  2
_D_2
 70
     0
 10
0.0
 20
0.0
 30
0.0
  3
_D_2
  1

  0
LINE
  5
107
330
104
100
AcDbEntity
  8
치수문자_일반주서
 62
     0
370
    -2
100
AcDbLine
 10
18.7686576642539
 20
4.425510168960808
 30
0.0
 11
18.7686576642539
 21
24.76357492872389
 31
0.0
  0
LINE
  5
108
330
104
100
AcDbEntity
  8
치수문자_일반주서
 62
     0
370
    -2
100
AcDbLine
 10
-39.96884233574609
 20
3.826074928723889
 30
0.0
 11
-39.96884233574609
 21
24.76357492872389
 31
0.0
  0
LINE
  5
109
330
104
100
AcDbEntity
  8
치수문자_일반주서
 62
     0
370
    -2
100
AcDbLine
 10
15.4666576642539
 20
24.76357492872389
 30
0.0
 11
-36.66684233574609
 21
24.76357492872389
 31
0.0
  0
SOLID
  5
10A
330
104
100
AcDbEntity
  8
치수문자_일반주서
 62
     0
100
AcDbTrace
 10
15.4666576642539
 20
24.21324159539056
 30
0.0
 11
15.4666576642539
 21
25.31390826205723
 31
0.0
 12
18.7686576642539
 22
24.76357492872389
 32
0.0
 13
18.7686576642539
 23
24.76357492872389
 33
0.0
  0
SOLID
  5
10B
330
104
100
AcDbEntity
  8
치수문자_일반주서
 62
     0
100
AcDbTrace
 10
-36.66684233574609
 20
25.31390826205723
 30
0.0
 11
-36.66684233574609
 21
24.21324159539056
 31
0.0
 12
-39.96884233574609
 22
24.76357492872389
 32
0.0
 13
-39.96884233574609
 23
24.76357492872389
 33
0.0
  0
MTEXT
  5
10C
330
104
100
AcDbEntity
  8
치수문자_일반주서
 62
     0
100
AcDbMText
 10
-10.60009233574613
 20
29.13857492872389
 30
0.0
 40
3.5
 41
0.0
 71
     2
 72
     1
  1
\A1;58.74 [2 5/16]
  7
SLDTEXTSTYLE0
 73
     1
 44
1.0
  0
POINT
  5
10D
330
104
100
AcDbEntity
  8
Defpoints
 62
     0
100
AcDbPoint
 10
18.7686576642539
 20
4.363010168960808
 30
0.0
  0
POINT
  5
10E
330
104
100
AcDbEntity
  8
Defpoints
 62
     0
100
AcDbPoint
 10
-39.96884233574609
 20
3.763574928723889
 30
0.0
  0
POINT
  5
10F
330
104
100
AcDbEntity
  8
Defpoints
 62
     0
100
AcDbPoint
 10
-39.96884233574609
 20
24.76357492872389
 30
0.0
  0
ENDBLK
  5
106
330
104
100
AcDbEntity
  8
0
100
AcDbBlockEnd
  0
BLOCK
  5
118
330
117
100
AcDbEntity
  8
0
100
AcDbBlockBegin
  2
_D_3
 70
     0
 10
0.0
 20
0.0
 30
0.0
  3
_D_3
  1

  0
LINE
  5
11A
330
117
100
AcDbEntity
  8
치수문자_일반주서
 62
     0
370
    -2
100
AcDbLine
 10
18.8311576642539
 20
-4.36086031151302
 30
0.0
 11
59.67137839521641
 21
-4.360860311512866
 31
0.0
  0
LINE
  5
11B
330
117
100
AcDbEntity
  8
치수문자_일반주서
 62
     0
370
    -2
100
AcDbLine
 10
18.8311576642539
 20
4.363010168960808
 30
0.0
 11
59.67137839521638
 21
4.363010168960962
 31
0.0
  0
LINE
  5
11C
330
117
100
AcDbEntity
  8
치수문자_일반주서
 62
     0
370
    -2
100
AcDbLine
 10
59.67137839521638
 20
4.363010168960962
 30
0.0
 11
59.67137839521626
 21
40.71701016896096
 31
0.0
  0
LINE
  5
11D
330
117
100
AcDbEntity
  8
치수문자_일반주서
 62
     0
370
    -2
100
AcDbLine
 10
59.67137839521641
 20
-4.360860311512866
 30
0.0
 11
59.67137839521638
 21
4.363010168960962
 31
0.0
  0
LINE
  5
11E
330
117
100
AcDbEntity
  8
치수문자_일반주서
 62
     0
370
    -2
100
AcDbLine
 10
59.67137839521642
 20
-7.662860311512866
 30
0.0
 11
59.67137839521644
 21
-10.96486031151287
 31
0.0
  0
LINE
  5
11F
330
117
100
AcDbEntity
  8
치수문자_일반주서
 62
     0
370
    -2
100
AcDbLine
 10
59.67137839521637
 20
7.665010168960961
 30
0.0
 11
59.67137839521635
 21
10.96701016896096
 31
0.0
  0
SOLID
  5
120
330
117
100
AcDbEntity
  8
치수문자_일반주서
 62
     0
100
AcDbTrace
 10
60.22171172854976
 20
-7.662860311512864
 30
0.0
 11
59.12104506188309
 21
-7.662860311512867
 31
0.0
 12
59.67137839521641
 22
-4.360860311512866
 32
0.0
 13
59.67137839521641
 23
-4.360860311512866
 33
0.0
  0
SOLID
  5
121
330
117
100
AcDbEntity
  8
치수문자_일반주서
 62
     0
100
AcDbTrace
 10
59.12104506188303
 20
7.66501016896096
 30
0.0
 11
60.2217117285497
 21
7.665010168960963
 31
0.0
 12
59.67137839521638
 22
4.363010168960962
 32
0.0
 13
59.67137839521638
 23
4.363010168960962
 33
0.0
  0
MTEXT
  5
122
330
117
100
AcDbEntity
  8
치수문자_일반주서
 62
     0
100
AcDbMText
 10
55.29637839521631
 20
25.84201016896095
 30
0.0
 40
3.5
 41
0.0
 71
     2
 72
     1
  1
\A1;%%c8.72 [11/32]
  7
SLDTEXTSTYLE0
 11
-3.257924277305446E-15
 21
1.0
 31
0.0
 73
     1
 44
1.0
  0
POINT
  5
123
330
117
100
AcDbEntity
  8
Defpoints
 62
     0
100
AcDbPoint
 10
18.7686576642539
 20
-4.36086031151302
 30
0.0
  0
POINT
  5
124
330
117
100
AcDbEntity
  8
Defpoints
 62
     0
100
AcDbPoint
 10
18.7686576642539
 20
4.363010168960808
 30
0.0
  0
POINT
  5
125
330
117
100
AcDbEntity
  8
Defpoints
 62
     0
100
AcDbPoint
 10
59.67137839521638
 20
4.363010168960961
 30
0.0
  0
ENDBLK
  5
119
330
117
100
AcDbEntity
  8
0
100
AcDbBlockEnd
  0
BLOCK
  5
131
330
130
100
AcDbEntity
  8
0
100
AcDbBlockBegin
  2
SW_DOWELSYMBOL_0
 70
     0
 10
0.0
 20
0.0
 30
0.0
  3
SW_DOWELSYMBOL_0
  1

  0
CIRCLE
  5
133
330
130
100
AcDbEntity
  8
해칭선
 62
     0
100
AcDbCircle
 10
0.0
 20
0.0
 30
0.0
 40
2.999999999999996
  0
HATCH
  5
134
330
130
100
AcDbEntity
  8
0
  6
Continuous
 62
     0
370
     0
100
AcDbHatch
 10
0.0
 20
0.0
 30
0.0
210
0.0
220
0.0
230
1.0
  2
SOLID
 70
     1
 71
     0
 91
        1
 92
        0
 93
        3
 72
     2
 10
0.0
 20
0.0
 40
2.999999999999996
 50
0.0
 51
90.0
 73
     1
 72
     1
 10
0.0
 20
2.999999999999996
 11
0.0
 21
0.0
 72
     1
 10
0.0
 20
0.0
 11
2.999999999999996
 21
0.0
 97
        0
 75
     0
 76
     1
 98
        1
 10
0.0
 20
0.0
  0
HATCH
  5
135
330
130
100
AcDbEntity
  8
0
  6
Continuous
 62
     0
370
     0
100
AcDbHatch
 10
0.0
 20
0.0
 30
0.0
210
0.0
220
0.0
230
1.0
  2
SOLID
 70
     1
 71
     0
 91
        1
 92
        0
 93
        3
 72
     2
 10
0.0
 20
0.0
 40
2.999999999999996
 50
180.0
 51
270.0000000000008
 73
     1
 72
     1
 10
0.0
 20
-2.999999999999996
 11
0.0
 21
0.0
 72
     1
 10
0.0
 20
0.0
 11
-2.999999999999996
 21
0.0
 97
        0
 75
     0
 76
     1
 98
        1
 10
0.0
 20
0.0
  0
ENDBLK
  5
132
330
130
100
AcDbEntity
  8
0
100
AcDbBlockEnd
  0
BLOCK
  5
196
330
195
100
AcDbEntity
  8
0
100
AcDbBlockBegin
  2
*D8
 70
     1
 10
0.0
 20
0.0
 30
0.0
  3
*D8
  1

  0
LINE
  5
198
330
195
100
AcDbEntity
  8
치수문자_일반주서
 62
     0
370
    -2
100
AcDbLine
 10
16.129
 20
3.155101899082701
 30
0.0
 11
16.129
 21
16.26894362990564
 31
0.0
  0
LINE
  5
199
330
195
100
AcDbEntity
  8
치수문자_일반주서
 62
     0
370
    -2
100
AcDbLine
 10
6.603999999999996
 20
3.052606254210743
 30
0.0
 11
6.603999999999996
 21
16.26894362990564
 31
0.0
  0
LINE
  5
19A
330
195
100
AcDbEntity
  8
치수문자_일반주서
 62
     0
370
    -2
100
AcDbLine
 10
16.129
 20
16.26894362990564
 30
0.0
 11
46.57674999999999
 21
16.26894362990564
 31
0.0
  0
LINE
  5
19B
330
195
100
AcDbEntity
  8
치수문자_일반주서
 62
     0
370
    -2
100
AcDbLine
 10
16.129
 20
16.26894362990564
 30
0.0
 11
6.603999999999996
 21
16.26894362990564
 31
0.0
  0
LINE
  5
19C
330
195
100
AcDbEntity
  8
치수문자_일반주서
 62
     0
370
    -2
100
AcDbLine
 10
19.431
 20
16.26894362990564
 30
0.0
 11
22.733
 21
16.26894362990564
 31
0.0
  0
LINE
  5
19D
330
195
100
AcDbEntity
  8
치수문자_일반주서
 62
     0
370
    -2
100
AcDbLine
 10
3.301999999999996
 20
16.26894362990564
 30
0.0
 11
-0.0000000000000036
 21
16.26894362990564
 31
0.0
  0
SOLID
  5
19E
330
195
100
AcDbEntity
  8
치수문자_일반주서
 62
     0
100
AcDbTrace
 10
19.431
 20
16.81927696323897
 30
0.0
 11
19.431
 21
15.71861029657231
 31
0.0
 12
16.129
 22
16.26894362990564
 32
0.0
 13
16.129
 23
16.26894362990564
 33
0.0
  0
SOLID
  5
19F
330
195
100
AcDbEntity
  8
치수문자_일반주서
 62
     0
100
AcDbTrace
 10
3.301999999999996
 20
15.71861029657231
 30
0.0
 11
3.301999999999996
 21
16.81927696323897
 31
0.0
 12
6.603999999999996
 22
16.26894362990564
 32
0.0
 13
6.603999999999996
 23
16.26894362990564
 33
0.0
  0
MTEXT
  5
1A0
330
195
100
AcDbEntity
  8
치수문자_일반주서
 62
     0
100
AcDbMText
 10
34.76424999999999
 20
20.64394362990564
 30
0.0
 40
3.5
 41
0.0
 71
     2
 72
     1
  1
\A1;9.53 [3/8]
  7
SLDTEXTSTYLE0
 73
     1
 44
1.0
  0
POINT
  5
1A1
330
195
100
AcDbEntity
  8
Defpoints
 62
     0
100
AcDbPoint
 10
16.129
 20
3.092601899082701
 30
0.0
  0
POINT
  5
1A2
330
195
100
AcDbEntity
  8
Defpoints
 62
     0
100
AcDbPoint
 10
6.603999999999996
 20
2.990106254210743
 30
0.0
  0
POINT
  5
1A3
330
195
100
AcDbEntity
  8
Defpoints
 62
     0
100
AcDbPoint
 10
6.603999999999996
 20
16.26894362990564
 30
0.0
  0
ENDBLK
  5
197
330
195
100
AcDbEntity
  8
0
100
AcDbBlockEnd
  0
BLOCK
  5
1A8
330
1A7
100
AcDbEntity
  8
0
100
AcDbBlockBegin
  2
*D9
 70
     1
 10
0.0
 20
0.0
 30
0.0
  3
*D9
  1

  0
LINE
  5
1AA
330
1A7
100
AcDbEntity
  8
치수문자_일반주서
 62
     0
370
    -2
100
AcDbLine
 10
71.13661672838866
 20
-26.7235711360305
 30
0.0
 11
71.13661672838866
 21
-13.60972940520756
 31
0.0
  0
LINE
  5
1AB
330
1A7
100
AcDbEntity
  8
치수문자_일반주서
 62
     0
370
    -2
100
AcDbLine
 10
61.61161672838865
 20
-26.82606678090246
 30
0.0
 11
61.61161672838865
 21
-13.60972940520756
 31
0.0
  0
LINE
  5
1AC
330
1A7
100
AcDbEntity
  8
치수문자_일반주서
 62
     0
370
    -2
100
AcDbLine
 10
71.13661672838866
 20
-13.60972940520756
 30
0.0
 11
101.5843667283886
 21
-13.60972940520756
 31
0.0
  0
LINE
  5
1AD
330
1A7
100
AcDbEntity
  8
치수문자_일반주서
 62
     0
370
    -2
100
AcDbLine
 10
71.13661672838866
 20
-13.60972940520756
 30
0.0
 11
61.61161672838865
 21
-13.60972940520756
 31
0.0
  0
LINE
  5
1AE
330
1A7
100
AcDbEntity
  8
치수문자_일반주서
 62
     0
370
    -2
100
AcDbLine
 10
74.43861672838867
 20
-13.60972940520756
 30
0.0
 11
77.74061672838866
 21
-13.60972940520756
 31
0.0
  0
LINE
  5
1AF
330
1A7
100
AcDbEntity
  8
치수문자_일반주서
 62
     0
370
    -2
100
AcDbLine
 10
58.30961672838865
 20
-13.60972940520756
 30
0.0
 11
55.00761672838865
 21
-13.60972940520756
 31
0.0
  0
SOLID
  5
1B0
330
1A7
100
AcDbEntity
  8
치수문자_일반주서
 62
     0
100
AcDbTrace
 10
74.43861672838867
 20
-13.05939607187423
 30
0.0
 11
74.43861672838867
 21
-14.1600627385409
 31
0.0
 12
71.13661672838866
 22
-13.60972940520756
 32
0.0
 13
71.13661672838866
 23
-13.60972940520756
 33
0.0
  0
SOLID
  5
1B1
330
1A7
100
AcDbEntity
  8
치수문자_일반주서
 62
     0
100
AcDbTrace
 10
58.30961672838865
 20
-14.1600627385409
 30
0.0
 11
58.30961672838865
 21
-13.05939607187423
 31
0.0
 12
61.61161672838865
 22
-13.60972940520756
 32
0.0
 13
61.61161672838865
 23
-13.60972940520756
 33
0.0
  0
MTEXT
  5
1B2
330
1A7
100
AcDbEntity
  8
치수문자_일반주서
 62
     0
100
AcDbMText
 10
89.77186672838864
 20
-9.234729405207563
 30
0.0
 40
3.5
 41
0.0
 71
     2
 72
     1
  1
\A1;9.53 [3/8]
  7
SLDTEXTSTYLE0
 73
     1
 44
1.0
  0
POINT
  5
1B3
330
1A7
100
AcDbEntity
  8
Defpoints
 62
     0
100
AcDbPoint
 10
71.13661672838866
 20
-26.7860711360305
 30
0.0
  0
POINT
  5
1B4
330
1A7
100
AcDbEntity
  8
Defpoints
 62
     0
100
AcDbPoint
 10
61.61161672838865
 20
-26.88856678090246
 30
0.0
  0
POINT
  5
1B5
330
1A7
100
AcDbEntity
  8
Defpoints
 62
     0
100
AcDbPoint
 10
61.61161672838865
 20
-13.60972940520756
 30
0.0
  0
ENDBLK
  5
1A9
330
1A7
100
AcDbEntity
  8
0
100
AcDbBlockEnd
  0
ENDSEC
  0
SECTION
  2
ENTITIES
  0
LINE
  5
96
330
1F
100
AcDbEntity
  8
외형선
  6
Continuous
370
    15
100
AcDbLine
 10
2.000000000000007
 20
4.763574928723894
 30
0.0
 11
-15.28639233574597
 21
4.763574928723893
 31
0.0
  0
LINE
  5
97
330
1F
100
AcDbEntity
  8
외형선
  6
Continuous
370
    15
100
AcDbLine
 10
-38.9688423357461
 20
-4.761425071276108
 30
0.0
 11
2.000000000000007
 21
-4.761425071276105
 31
0.0
  0
LINE
  5
98
330
1F
100
AcDbEntity
  8
외형선
  6
Continuous
370
    15
100
AcDbLine
 10
2.000000000000007
 20
-4.761425071276106
 30
0.0
 11
2.961072265697481
 21
-4.503906533814517
 31
0.0
  0
LINE
  5
99
330
1F
100
AcDbEntity
  8
외형선
  6
Continuous
370
    15
100
AcDbLine
 10
2.961072265697481
 20
4.506056391262305
 30
0.0
 11
2.000000000000007
 21
4.763574928723894
 31
0.0
  0
LINE
  5
9A
330
1F
100
AcDbEntity
  8
외형선
  6
Continuous
370
    15
100
AcDbLine
 10
-38.9688423357461
 20
4.763574928723889
 30
0.0
 11
-39.96884233574609
 21
3.763574928723888
 31
0.0
  0
LINE
  5
9B
330
1F
100
AcDbEntity
  8
외형선
  6
Continuous
370
    15
100
AcDbLine
 10
-39.96884233574609
 20
-3.761425071276106
 30
0.0
 11
-38.9688423357461
 21
-4.761425071276106
 31
0.0
  0
SPLINE
  5
9C
330
1F
100
AcDbEntity
  8
외형선
  6
Continuous
370
    15
100
AcDbSpline
210
0.0
220
0.0
230
1.0
 70
     8
 71
     3
 72
    10
 73
     6
 74
     0
 42
0.000000001
 43
0.00000001
 40
0.0
 40
0.0
 40
0.0
 40
0.0
 40
0.4018604625469259
 40
0.751151555609777
 40
1.0
 40
1.0
 40
1.0
 40
1.0
 10
4.481157664253921
 20
3.416156043232256
 30
0.0
 10
4.341847738748509
 20
3.414214286066191
 30
0.0
 10
4.081451713242384
 20
3.410584782664284
 30
0.0
 10
3.736076001615544
 20
3.40971344620637
 30
0.0
 10
3.539142737761127
 20
3.411256084398271
 30
0.0
 10
3.457211126004555
 20
3.411897879648834
 30
0.0
  0
SPLINE
  5
9D
330
1F
100
AcDbEntity
  8
외형선
  6
Continuous
370
    15
100
AcDbSpline
210
0.0
220
0.0
230
1.0
 70
     8
 71
     3
 72
    16
 73
    12
 74
     0
 42
0.000000001
 43
0.00000001
 40
0.0
 40
0.0
 40
0.0
 40
0.0
 40
0.0342539519470765
 40
0.0716020987260457
 40
0.1679746681067475
 40
0.4948875362581559
 40
0.822717477451466
 40
0.877239822194567
 40
0.9227868161905288
 40
0.9627255083292227
 40
0.9999999999999999
 40
0.9999999999999999
 40
0.9999999999999999
 40
0.9999999999999999
 10
3.45698186235016
 20
3.41176568833142
 30
0.0
 10
3.454632822036899
 20
3.412167693729166
 30
0.0
 10
3.449722550174505
 20
3.413008018087135
 30
0.0
 10
3.428246918329181
 20
3.424622553796818
 30
0.0
 10
3.341944736939254
 20
3.489579277531801
 30
0.0
 10
3.186604838891343
 20
3.635927741637422
 30
0.0
 10
3.046480259284198
 20
3.781509062345072
 30
0.0
 10
2.985114485861507
 20
3.852954137595924
 30
0.0
 10
2.970194137418405
 20
3.871479600065097
 30
0.0
 10
2.962255360404805
 20
3.882455293484868
 30
0.0
 10
2.961457453479738
 20
3.884589099910023
 30
0.0
 10
2.961072265697485
 20
3.885619190186028
 30
0.0
  0
LINE
  5
9E
330
1F
100
AcDbEntity
  8
외형선
  6
Continuous
370
    15
100
AcDbLine
 10
2.951835292494083
 20
-3.41682870395637
 30
0.0
 11
4.481157664253924
 21
-3.414006185784468
 31
0.0
  0
LINE
  5
9F
330
1F
100
AcDbEntity
  8
0
  6
Continuous
 62
     1
370
    15
100
AcDbLine
 10
5.030498243576707
 20
1.237660273396352
 30
0.0
 11
4.977673429434191
 21
1.266740860315794
 31
0.0
1001
PE_URL
1000

  0
SPLINE
  5
A0
330
1F
100
AcDbEntity
  8
0
  6
Continuous
 62
     1
370
    15
100
AcDbSpline
210
0.0
220
0.0
230
1.0
 70
     8
 71
     3
 72
     9
 73
     5
 74
     0
 42
0.000000001
 43
0.00000001
 40
0.0
 40
0.0
 40
0.0
 40
0.0
 40
0.4997377003951675
 40
1.0
 40
1.0
 40
1.0
 40
1.0
 10
7.459236122973081
 20
1.119718580477579
 30
0.0
 10
7.257198378576049
 20
1.215884964530598
 30
0.0
 10
6.852910800838217
 20
1.408318683213369
 30
0.0
 10
6.448761872675881
 20
1.619735289901729
 30
0.0
 10
6.246581400490562
 20
1.725499047738299
 30
0.0
1001
PE_URL
1000

  0
LINE
  5
A1
330
1F
100
AcDbEntity
  8
0
  6
Continuous
 62
     1
370
    15
100
AcDbLine
 10
6.014963313540321
 20
3.470165802857647
 30
0.0
 11
4.481157664253887
 21
3.416156043232256
 31
0.0
1001
PE_URL
1000

  0
SPLINE
  5
A2
330
1F
100
AcDbEntity
  8
0
  6
Continuous
 62
     1
370
    15
100
AcDbSpline
210
0.0
220
0.0
230
1.0
 70
     8
 71
     3
 72
    22
 73
    18
 74
     0
 42
0.000000001
 43
0.00000001
 40
0.0
 40
0.0
 40
0.0
 40
0.0
 40
0.0884993810476812
 40
0.1664273549825896
 40
0.2331683131375381
 40
0.2893750668725011
 40
0.3421049087844438
 40
0.4405422199224505
 40
0.5321559562965912
 40
0.5983185813842321
 40
0.6689406759644023
 40
0.7426211699977694
 40
0.7791814879722783
 40
0.8159798926275226
 40
0.8544087066163095
 40
0.9207602751210504
 40
1.0
 40
1.0
 40
1.0
 40
1.0
 10
17.14562124123946
 20
2.986944048736069
 30
0.0
 10
16.92463672845588
 20
2.969121386759108
 30
0.0
 10
16.50906469259187
 20
2.93560501120416
 30
0.0
 10
15.91815750585026
 20
2.903463686166985
 30
0.0
 10
15.40177885557561
 20
2.884647397351046
 30
0.0
 10
14.94102771580004
 20
2.87567044142609
 30
0.0
 10
14.40027999354491
 20
2.872022703702043
 30
0.0
 10
13.77748929922398
 20
2.880696927540328
 30
0.0
 10
13.14017153383281
 20
2.90529722912161
 30
0.0
 10
12.55761269904264
 20
2.938781821678478
 30
0.0
 10
12.02065960057074
 20
2.97875697067354
 30
0.0
 10
11.55337971774915
 20
3.022079319214583
 30
0.0
 10
11.16794570867557
 20
3.062589597470621
 30
0.0
 10
10.87513998780001
 20
3.09452055960572
 30
0.0
 10
10.50273376232774
 20
3.13737193480575
 30
0.0
 10
10.03685642544169
 20
3.2026790839986
 30
0.0
 10
9.702484246142308
 20
3.255733518549898
 30
0.0
 10
9.52049836718572
 20
3.284609000728449
 30
0.0
1001
PE_URL
1000

  0
SPLINE
  5
A3
330
1F
100
AcDbEntity
  8
0
  6
Continuous
 62
     1
370
    15
100
AcDbSpline
210
0.0
220
0.0
230
1.0
 70
     8
 71
     3
 72
    14
 73
    10
 74
     0
 42
0.000000001
 43
0.00000001
 40
0.0
 40
0.0
 40
0.0
 40
0.0
 40
0.1846441899412144
 40
0.3392564331891895
 40
0.4973925275274024
 40
0.6507602634954498
 40
0.8053995714895086
 40
0.951583163339302
 40
1.0
 40
1.0
 40
1.0
 40
1.0
 10
9.52049836718572
 20
-3.282459143280662
 30
0.0
 10
9.702407068823135
 20
-3.253575232882514
 30
0.0
 10
10.03663744619505
 20
-3.200505312722278
 30
0.0
 10
10.5779724305151
 20
-3.124854373748268
 30
0.0
 10
11.10621696204788
 20
-3.066866970949453
 30
0.0
 10
11.63029537486529
 20
-3.011807462477319
 30
0.0
 10
12.13050664507789
 20
-2.968328673459018
 30
0.0
 10
12.51395087780269
 20
-2.93963589592014
 30
0.0
 10
12.72601430072134
 20
-2.92793663723937
 30
0.0
 10
12.77877595282945
 20
-2.925025846646905
 30
0.0
1001
PE_URL
1000

  0
LINE
  5
A4
330
1F
100
AcDbEntity
  8
0
  6
Continuous
 62
     1
370
    15
100
AcDbLine
 10
4.481157664253887
 20
-3.414006185784467
 30
0.0
 11
6.014963313540321
 21
-3.468015945409859
 31
0.0
1001
PE_URL
1000

  0
LINE
  5
A5
330
1F
100
AcDbEntity
  8
외형선
  6
Continuous
370
    15
100
AcDbLine
 10
2.000000000000007
 20
4.763574928723894
 30
0.0
 11
2.000000000000007
 21
-4.761425071276105
 31
0.0
  0
LINE
  5
A6
330
1F
100
AcDbEntity
  8
외형선
  6
Continuous
370
    15
100
AcDbLine
 10
-38.9688423357461
 20
4.763574928723889
 30
0.0
 11
-38.9688423357461
 21
-4.761425071276108
 31
0.0
  0
SPLINE
  5
A7
330
1F
100
AcDbEntity
  8
외형선
  6
Continuous
370
    15
100
AcDbSpline
210
0.0
220
0.0
230
1.0
 70
     8
 71
     3
 72
     8
 73
     4
 74
     0
 42
0.000000001
 43
0.00000001
 40
0.0
 40
0.0
 40
0.0
 40
0.0
 40
0.0005906899726241
 40
0.0005906899726241
 40
0.0005906899726241
 40
0.0005906899726241
 10
3.481157664253903
 20
3.046311576032069
 30
0.0
 10
3.307419131426332
 20
3.136179336148453
 30
0.0
 10
3.133983939852049
 20
3.225923261608715
 30
0.0
 10
2.960982756355666
 20
3.315425678629573
 30
0.0
  0
LINE
  5
A8
330
1F
100
AcDbEntity
  8
외형선
  6
Continuous
370
    15
100
AcDbLine
 10
3.481157664253903
 20
3.04631157603207
 30
0.0
 11
3.481157664253903
 21
2.063939081585088
 31
0.0
  0
SPLINE
  5
A9
330
1F
100
AcDbEntity
  8
외형선
  6
Continuous
370
    15
100
AcDbSpline
210
0.0
220
0.0
230
1.0
 70
     8
 71
     3
 72
     8
 73
     4
 74
     0
 42
0.000000001
 43
0.00000001
 40
0.0
 40
0.0
 40
0.0
 40
0.0
 40
0.0005965476276722
 40
0.0005965476276722
 40
0.0005965476276722
 40
0.0005965476276722
 10
2.961072265697481
 20
2.35605258683544
 30
0.0
 10
3.134535261091075
 20
2.258962649775301
 30
0.0
 10
3.307926048870062
 20
2.161569564735313
 30
0.0
 10
3.481157664253983
 20
2.063939081584907
 30
0.0
  0
LINE
  5
AA
330
1F
100
AcDbEntity
  8
외형선
  6
Continuous
370
    15
100
AcDbLine
 10
2.961072265697481
 20
-4.503906533814517
 30
0.0
 11
2.961072265697481
 21
2.356104339133686
 31
0.0
  0
LINE
  5
AB
330
1F
100
AcDbEntity
  8
외형선
  6
Continuous
370
    15
100
AcDbLine
 10
2.961072265697481
 20
3.315504056971993
 30
0.0
 11
2.961072265697481
 21
4.506056391262305
 31
0.0
  0
LINE
  5
AC
330
1F
100
AcDbEntity
  8
외형선
  6
Continuous
370
    15
100
AcDbLine
 10
-39.96884233574609
 20
3.763574928723889
 30
0.0
 11
-39.96884233574609
 21
-3.761425071276105
 31
0.0
  0
LINE
  5
AD
330
1F
100
AcDbEntity
  8
외형선
  6
Continuous
370
    15
100
AcDbLine
 10
4.481157664253899
 20
1.53782469817499
 30
0.0
 11
4.481157664253899
 21
1.532090425641775
 31
0.0
  0
SPLINE
  5
AE
330
1F
100
AcDbEntity
  8
외형선
  6
Continuous
370
    15
100
AcDbSpline
210
0.0
220
0.0
230
1.0
 70
    24
 71
     3
 72
    11
 73
     7
 74
     0
 42
0.000000001
 43
0.00000001
 40
0.0
 40
0.0
 40
0.0
 40
0.0
 40
0.2398518771305014
 40
0.5220264995860543
 40
0.7584970412615013
 40
1.0
 40
1.0
 40
1.0
 40
1.0
 10
4.481157664253899
 20
1.490947972474392
 30
0.0
 10
4.481157664253899
 20
1.468747013627088
 30
0.0
 10
4.481157664253899
 20
1.42042765514149
 30
0.0
 10
4.481157664253899
 20
1.295624154819534
 30
0.0
 10
4.481157664253899
 20
1.140727059016909
 30
0.0
 10
4.481157664253899
 20
1.019544273790634
 30
0.0
 10
4.481157664253899
 20
0.9583149354382523
 30
0.0
  0
SPLINE
  5
AF
330
1F
100
AcDbEntity
  8
외형선
  6
Continuous
370
    15
100
AcDbSpline
210
0.0
220
0.0
230
1.0
 70
     8
 71
     3
 72
    10
 73
     6
 74
     0
 42
0.000000001
 43
0.00000001
 40
0.0
 40
0.0
 40
0.0
 40
0.0
 40
0.5
 40
0.5
 40
1.0
 40
1.0
 40
1.0
 40
1.0
 10
4.481157664253907
 20
0.9583149354382492
 30
0.0
 10
4.227948447101118
 20
1.055549580780927
 30
0.0
 10
3.977015666883569
 20
1.150887104962064
 30
0.0
 10
3.469917387579013
 20
1.338029164324517
 30
0.0
 10
3.215135620115795
 20
1.429650620208033
 30
0.0
 10
2.961050706793948
 20
1.518623604734024
 30
0.0
  0
SPLINE
  5
B0
330
1F
100
AcDbEntity
  8
외형선
  6
Continuous
370
    15
100
AcDbSpline
210
0.0
220
0.0
230
1.0
 70
     8
 71
     3
 72
     8
 73
     4
 74
     0
 42
0.000000001
 43
0.00000001
 40
0.0
 40
0.0
 40
0.0
 40
0.0
 40
1.0
 40
1.0
 40
1.0
 40
1.0
 10
3.481157664253903
 20
2.063939081585089
 30
0.0
 10
3.816148652070003
 20
1.893811770740538
 30
0.0
 10
4.147390955744413
 20
1.718286679169172
 30
0.0
 10
4.481157664253928
 20
1.537824698174974
 30
0.0
  0
SPLINE
  5
B1
330
1F
100
AcDbEntity
  8
외형선
  6
Continuous
370
    15
100
AcDbSpline
210
0.0
220
0.0
230
1.0
 70
     8
 71
     3
 72
     8
 73
     4
 74
     0
 42
0.000000001
 43
0.00000001
 40
0.0
 40
0.0
 40
0.0
 40
0.0
 40
1.0
 40
1.0
 40
1.0
 40
1.0
 10
4.481157664254285
 20
2.606585520237079
 30
0.0
 10
4.147390955744649
 20
2.761284570445732
 30
0.0
 10
3.816148652070121
 20
2.90799304871661
 30
0.0
 10
3.481157664253903
 20
3.04631157603207
 30
0.0
  0
LINE
  5
B2
330
1F
100
AcDbEntity
  8
외형선
  6
Continuous
370
    15
100
AcDbLine
 10
4.481157664253899
 20
2.606585520237256
 30
0.0
 11
4.481157664253899
 21
1.537824698174991
 31
0.0
  0
SPLINE
  5
B3
330
1F
100
AcDbEntity
  8
외형선
  6
Continuous
370
    15
100
AcDbSpline
210
0.0
220
0.0
230
1.0
 70
     8
 71
     3
 72
    10
 73
     6
 74
     0
 42
0.000000001
 43
0.00000001
 40
0.0
 40
0.0
 40
0.0
 40
0.0
 40
0.5
 40
0.5
 40
1.0
 40
1.0
 40
1.0
 40
1.0
 10
4.481157664253907
 20
-3.315662208704111
 30
0.0
 10
4.227946600213679
 20
-3.279008503409446
 30
0.0
 10
3.977011986102811
 20
-3.236898830982453
 30
0.0
 10
3.469909972158558
 20
-3.141635270758636
 30
0.0
 10
3.215126333401793
 20
-3.088536044628529
 30
0.0
 10
2.961039587146235
 20
-3.030360526092958
 30
0.0
  0
SPLINE
  5
B4
330
1F
100
AcDbEntity
  8
외형선
  6
Continuous
370
    15
100
AcDbSpline
210
0.0
220
0.0
230
1.0
 70
    24
 71
     3
 72
    14
 73
    10
 74
     0
 42
0.000000001
 43
0.00000001
 40
0.0
 40
0.0
 40
0.0
 40
0.0
 40
0.25
 40
0.25
 40
0.5
 40
0.5
 40
0.75
 40
0.75
 40
1.0
 40
1.0
 40
1.0
 40
1.0
 10
4.481157664253852
 20
0.9583149354382716
 30
0.0
 10
4.481157664253852
 20
0.573680162802327
 30
0.0
 10
4.481157664253852
 20
0.1717698804344483
 30
0.0
 10
4.481157664253852
 20
-0.6311594452075291
 30
0.0
 10
4.481157664253852
 20
-1.031786420389217
 30
0.0
 10
4.481157664253852
 20
-1.791395382408865
 30
0.0
 10
4.481157664253852
 20
-2.14997261783396
 30
0.0
 10
4.481157664253852
 20
-2.792678848460683
 30
0.0
 10
4.481157664253852
 20
-3.076640817552085
 30
0.0
 10
4.481157664253852
 20
-3.315662208704105
 30
0.0
  0
SPLINE
  5
B5
330
1F
100
AcDbEntity
  8
외형선
  6
Continuous
370
    15
100
AcDbSpline
210
0.0
220
0.0
230
1.0
 70
    24
 71
     3
 72
    12
 73
     8
 74
     0
 42
0.000000001
 43
0.00000001
 40
0.0
 40
0.0
 40
0.0
 40
0.0
 40
0.037254079083567
 40
0.3313409617844667
 40
0.6339563840065526
 40
0.8990352089100513
 40
1.0
 40
1.0
 40
1.0
 40
1.0
 10
4.481157664253903
 20
3.411427604568055
 30
0.0
 10
4.481157664253903
 20
3.412738067248511
 30
0.0
 10
4.481157664253907
 20
3.424393434274251
 30
0.0
 10
4.481157664253907
 20
3.345155641462406
 30
0.0
 10
4.481157664253899
 20
3.132552658223788
 30
0.0
 10
4.481157664253899
 20
2.888709394686027
 30
0.0
 10
4.481157664253899
 20
2.699819066519297
 30
0.0
 10
4.481157664253899
 20
2.647717973400911
 30
0.0
  0
SPLINE
  5
B6
330
1F
100
AcDbEntity
  8
외형선
  6
Continuous
370
    15
100
AcDbSpline
210
0.0
220
0.0
230
1.0
 70
    24
 71
     3
 72
     9
 73
     5
 74
     0
 42
0.000000001
 43
0.00000001
 40
0.0
 40
0.0
 40
0.0
 40
0.0
 40
0.5473214571692224
 40
1.0
 40
1.0
 40
1.0
 40
1.0
 10
4.481157664253887
 20
-3.315662208704107
 30
0.0
 10
4.481157664253891
 20
-3.34765284148074
 30
0.0
 10
4.481157664253899
 20
-3.406102281672782
 30
0.0
 10
4.481157664253903
 20
-3.408288199190159
 30
0.0
 10
4.481157664253903
 20
-3.409277717146674
 30
0.0
  0
SPLINE
  5
B7
330
1F
100
AcDbEntity
  8
0
  6
Continuous
 62
     1
370
    15
100
AcDbSpline
210
0.0
220
0.0
230
1.0
 70
     8
 71
     3
 72
    32
 73
    28
 74
     0
 42
0.000000001
 43
0.00000001
 40
0.0
 40
0.0
 40
0.0
 40
0.0
 40
0.0625
 40
0.0625
 40
0.125
 40
0.125
 40
0.1875
 40
0.1875
 40
0.25
 40
0.25
 40
0.3125
 40
0.3125
 40
0.375
 40
0.375
 40
0.4375
 40
0.4375
 40
0.5
 40
0.5
 40
0.5625
 40
0.5625
 40
0.625
 40
0.625
 40
0.75
 40
0.75
 40
0.875
 40
0.875
 40
1.0
 40
1.0
 40
1.0
 40
1.0
 10
4.481157664253294
 20
1.537824698175337
 30
0.0
 10
4.77855223979989
 20
1.377028510683382
 30
0.0
 10
5.077980336703167
 20
1.212285141191059
 30
0.0
 10
5.674656323871876
 20
0.8783233629778986
 30
0.0
 10
5.969784352367547
 20
0.7095184465930283
 30
0.0
 10
6.564182620054805
 20
0.3686288705339688
 30
0.0
 10
6.863559490656527
 20
0.1965156246387133
 30
0.0
 10
7.460424990932246
 20
-0.1474616834891605
 30
0.0
 10
7.755847145420624
 20
-0.3189251133785039
 30
0.0
 10
8.349827881379277
 20
-0.6601770677651947
 30
0.0
 10
8.649139873316585
 20
-0.8301038137562459
 30
0.0
 10
9.24616786662115
 20
-1.164996063795371
 30
0.0
 10
9.541953293809424
 20
-1.329608721247244
 30
0.0
 10
10.13548991244293
 20
-1.652276653905396
 30
0.0
 10
10.43472338325111
 20
-1.8105833137019
 30
0.0
 10
11.03188682495627
 20
-2.117791365268882
 30
0.0
 10
11.32810461699572
 20
-2.266415129670779
 30
0.0
 10
11.92117059936844
 20
-2.552594077397022
 30
0.0
 10
12.22031191855876
 20
-2.69049412228434
 30
0.0
 10
12.81758374356594
 20
-2.952954311223587
 30
0.0
 10
13.11430292769622
 20
-3.077326712253434
 30
0.0
 10
14.00315627432278
 20
-3.428058297180351
 30
0.0
 10
14.60452731200391
 20
-3.633058261400973
 30
0.0
 10
15.78861819047357
 20
-3.970080731101027
 30
0.0
 10
16.39109988463663
 20
-4.103893367746376
 30
0.0
 10
17.57409125495425
 20
-4.291662810788258
 30
0.0
 10
18.17773794655242
 20
-4.346767822766221
 30
0.0
 10
18.7686576642539
 20
-4.360860311513283
 30
0.0
1001
PE_URL
1000

  0
SPLINE
  5
B8
330
1F
100
AcDbEntity
  8
0
  6
Continuous
 62
     1
370
    15
100
AcDbSpline
210
0.0
220
0.0
230
1.0
 70
     8
 71
     3
 72
    10
 73
     6
 74
     0
 42
0.000000001
 43
0.00000001
 40
0.0
 40
0.0
 40
0.0
 40
0.0
 40
0.2943261521950807
 40
0.6466920607481104
 40
0.9999999999999999
 40
0.9999999999999999
 40
0.9999999999999999
 40
0.9999999999999999
 10
7.928182063037674
 20
-0.4161355492697514
 30
0.0
 10
7.590021023791465
 20
-0.2803668477037763
 30
0.0
 10
6.847015151890876
 20
0.0179435156328837
 30
0.0
 10
5.698238649510401
 20
0.4851070235675232
 30
0.0
 10
4.887212215955619
 20
0.8004386487785939
 30
0.0
 10
4.481157664253903
 20
0.9583149354382511
 30
0.0
1001
PE_URL
1000

  0
SPLINE
  5
B9
330
1F
100
AcDbEntity
  8
외형선
  6
Continuous
370
    15
100
AcDbSpline
210
0.0
220
0.0
230
1.0
 70
    24
 71
     3
 72
    10
 73
     6
 74
     0
 42
0.000000001
 43
0.00000001
 40
0.0
 40
0.0
 40
0.0
 40
0.0
 40
0.5
 40
0.5
 40
1.0
 40
1.0
 40
1.0
 40
1.0
 10
4.481157664253903
 20
1.537824698174986
 30
0.0
 10
4.481157664253903
 20
1.5224669465252
 30
0.0
 10
4.481157664253903
 20
1.461391016154829
 30
0.0
 10
4.481157664253903
 20
1.258689835041614
 30
0.0
 10
4.481157664253903
 20
1.117908363517494
 30
0.0
 10
4.481157664253903
 20
0.9583149354382512
 30
0.0
  0
SPLINE
  5
BA
330
1F
100
AcDbEntity
  8
0
  6
Continuous
 62
     1
370
    15
100
AcDbSpline
210
0.0
220
0.0
230
1.0
 70
     8
 71
     3
 72
    32
 73
    28
 74
     0
 42
0.000000001
 43
0.00000001
 40
0.0
 40
0.0
 40
0.0
 40
0.0
 40
0.1249999999999998
 40
0.1249999999999998
 40
0.2499999999999995
 40
0.2499999999999995
 40
0.3749999999999992
 40
0.3749999999999992
 40
0.4374999999999993
 40
0.4374999999999993
 40
0.4999999999999993
 40
0.4999999999999993
 40
0.5624999999999993
 40
0.5624999999999993
 40
0.6249999999999994
 40
0.6249999999999994
 40
0.6874999999999996
 40
0.6874999999999996
 40
0.7499999999999996
 40
0.7499999999999996
 40
0.8124999999999997
 40
0.8124999999999997
 40
0.8749999999999998
 40
0.8749999999999998
 40
0.9374999999999999
 40
0.9374999999999999
 40
1.0
 40
1.0
 40
1.0
 40
1.0
 10
18.7686576642539
 20
-4.141645053516619
 30
0.0
 10
18.17773794655235
 20
-4.033495509766194
 30
0.0
 10
17.57409125495411
 20
-3.885727900000747
 30
0.0
 10
16.39109988463634
 20
-3.523066371138235
 30
0.0
 10
15.78861819047319
 20
-3.305902336541941
 30
0.0
 10
14.6045273120034
 20
-2.816934029262965
 30
0.0
 10
14.00315627432218
 20
-2.542504693344815
 30
0.0
 10
13.11430292769553
 20
-2.101364389948405
 30
0.0
 10
12.81758374356521
 20
-1.949032390034418
 30
0.0
 10
12.22031191855794
 20
-1.635338940380474
 30
0.0
 10
11.9211705993676
 20
-1.474214494170308
 30
0.0
 10
11.32810461699481
 20
-1.146820586991114
 30
0.0
 10
11.03188682495531
 20
-0.9801420742360978
 30
0.0
 10
10.43472338325008
 20
-0.6421090605154764
 30
0.0
 10
10.13548991244187
 20
-0.4710736289057841
 30
0.0
 10
9.541953293808294
 20
-0.1285479493503753
 30
0.0
 10
9.24616786661997
 20
0.0432243416774686
 30
0.0
 10
8.649139873315328
 20
0.3868244531276467
 30
0.0
 10
8.349827881377987
 20
0.5582755691326504
 30
0.0
 10
7.755847145419274
 20
0.8969141711031702
 30
0.0
 10
7.460424990930846
 20
1.064255014354208
 30
0.0
 10
6.863559490655049
 20
1.394343223326802
 30
0.0
 10
6.564182620053291
 20
1.556690022966125
 30
0.0
 10
5.969784352365973
 20
1.872629578534051
 30
0.0
 10
5.674656323870259
 20
2.026266527828986
 30
0.0
 10
5.077980336701467
 20
2.32451780788744
 30
0.0
 10
4.778552239798154
 20
2.468744755412858
 30
0.0
 10
4.481157664251533
 20
2.606585520238354
 30
0.0
1001
PE_URL
1000

  0
SPLINE
  5
BB
330
1F
100
AcDbEntity
  8
0
  6
Continuous
 62
     1
370
    15
100
AcDbSpline
210
0.0
220
0.0
230
1.0
 70
     8
 71
     3
 72
    16
 73
    12
 74
     0
 42
0.000000001
 43
0.00000001
 40
0.0
 40
0.0
 40
0.0
 40
0.0
 40
0.1163143851756874
 40
0.2324167649169697
 40
0.3485752150333681
 40
0.4649735512958197
 40
0.5811669579317046
 40
0.6972600924910799
 40
0.8135212285455775
 40
0.9298831002545351
 40
1.0
 40
1.0
 40
1.0
 40
1.0
 10
18.7686576642539
 20
-3.4432821129086
 30
0.0
 10
18.32915393270336
 20
-3.353035214227671
 30
0.0
 10
17.45094755004809
 20
-3.172705909270857
 30
0.0
 10
16.13438598710151
 20
-2.777715305552548
 30
0.0
 10
14.8174117697217
 20
-2.305952356904238
 30
0.0
 10
13.49934817312394
 20
-1.763452796140667
 30
0.0
 10
12.18218855857154
 20
-1.167190284130011
 30
0.0
 10
10.86573064821955
 20
-0.5348576891542469
 30
0.0
 10
9.548260887692901
 20
0.1117593714460265
 30
0.0
 10
8.404161328809451
 20
0.6742835363174295
 30
0.0
 10
7.699808978926715
 20
1.002993000306738
 30
0.0
 10
7.434969165166567
 20
1.126589312917351
 30
0.0
1001
PE_URL
1000

  0
LINE
  5
BC
330
1F
100
AcDbEntity
  8
0
  6
Continuous
 62
     1
370
    15
100
AcDbLine
 10
18.76865766425383
 20
-4.141645053516618
 30
0.0
 11
18.7686576642539
 21
-3.4432821129086
 31
0.0
1001
PE_URL
1000

  0
LINE
  5
BD
330
1F
100
AcDbEntity
  8
0
  6
Continuous
 62
     1
370
    15
100
AcDbLine
 10
18.7686576642539
 20
-4.36086031151302
 30
0.0
 11
18.76865766425367
 21
-4.141645053516613
 31
0.0
1001
PE_URL
1000

  0
SPLINE
  5
BE
330
1F
100
AcDbEntity
  8
0
  6
Continuous
 62
     1
370
    15
100
AcDbSpline
210
0.0
220
0.0
230
1.0
 70
     8
 71
     3
 72
     8
 73
     4
 74
     0
 42
0.000000001
 43
0.00000001
 40
0.0
 40
0.0
 40
0.0
 40
0.0
 40
1.0
 40
1.0
 40
1.0
 40
1.0
 10
16.06712002059704
 20
1.222526167184665
 30
0.0
 10
15.9119628096609
 20
1.406362091328486
 30
0.0
 10
15.77363437131062
 20
1.583127655126308
 30
0.0
 10
15.65601480366444
 20
1.751192692638623
 30
0.0
1001
PE_URL
1000

  0
LINE
  5
BF
330
1F
100
AcDbEntity
  8
0
  6
Continuous
 62
     1
370
    15
100
AcDbLine
 10
15.71117681183432
 20
1.797479113363933
 30
0.0
 11
18.7686576642539
 21
0.0010749287238959
 31
0.0
1001
PE_URL
1000

  0
LINE
  5
C0
330
1F
100
AcDbEntity
  8
0
  6
Continuous
 62
     1
370
    15
100
AcDbLine
 10
18.7686576642539
 20
0.0010749287238959
 30
0.0
 11
18.7686576642539
 21
-1.165607557536773
 31
0.0
1001
PE_URL
1000

  0
SPLINE
  5
C1
330
1F
100
AcDbEntity
  8
0
  6
Continuous
 62
     1
370
    15
100
AcDbSpline
210
0.0
220
0.0
230
1.0
 70
     8
 71
     3
 72
    12
 73
     8
 74
     0
 42
0.000000001
 43
0.00000001
 40
0.0
 40
0.0
 40
0.0
 40
0.0
 40
0.5
 40
0.5
 40
0.75
 40
0.75
 40
1.0
 40
1.0
 40
1.0
 40
1.0
 10
18.7686576642539
 20
-1.165607557536773
 30
0.0
 10
18.30100868343377
 20
-0.7979556801235846
 30
0.0
 10
17.84117312616268
 20
-0.4152273104746559
 30
0.0
 10
17.16343696729368
 20
0.1820531430247209
 30
0.0
 10
16.9395636876172
 20
0.3850805688155664
 30
0.0
 10
16.49639558837488
 20
0.7999698471855028
 30
0.0
 10
16.2783077626226
 20
1.010748397026501
 30
0.0
 10
16.06712002059704
 20
1.222526167184664
 30
0.0
1001
PE_URL
1000

  0
SPLINE
  5
C2
330
1F
100
AcDbEntity
  8
0
  6
Continuous
 62
     1
370
    15
100
AcDbSpline
210
0.0
220
0.0
230
1.0
 70
     8
 71
     3
 72
    15
 73
    11
 74
     0
 42
0.000000001
 43
0.00000001
 40
0.0
 40
0.0
 40
0.0
 40
0.0
 40
0.1242499471023812
 40
0.2554802254443259
 40
0.3864762220881751
 40
0.5173576011986243
 40
0.6484310567341577
 40
0.7796196301959051
 40
0.9105304664484527
 40
0.9999999999999999
 40
0.9999999999999999
 40
0.9999999999999999
 40
0.9999999999999999
 10
16.06712002059329
 20
1.222526167186279
 30
0.0
 10
15.6508571600325
 20
1.399607056939074
 30
0.0
 10
14.79494589455289
 20
1.763717196951026
 30
0.0
 10
13.49938163585593
 20
2.253050773144269
 30
0.0
 10
12.18222176410077
 20
2.686396724722037
 30
0.0
 10
10.86574528418698
 20
3.037470349985148
 30
0.0
 10
9.54827695751019
 20
3.297435746474781
 30
0.0
 10
8.230398781441728
 20
3.454112476057249
 30
0.0
 10
7.052573479059813
 20
3.512344400970652
 30
0.0
 10
6.314183859601805
 20
3.476158274841771
 30
0.0
 10
6.014414080238343
 20
3.461467511646
 30
0.0
1001
PE_URL
1000

  0
SPLINE
  5
C3
330
1F
100
AcDbEntity
  8
0
  6
Continuous
 62
     1
370
    15
100
AcDbSpline
210
0.0
220
0.0
230
1.0
 70
    24
 71
     3
 72
    10
 73
     6
 74
     0
 42
0.000000001
 43
0.00000001
 40
0.0
 40
0.0
 40
0.0
 40
0.0
 40
0.5
 40
0.5
 40
1.0
 40
1.0
 40
1.0
 40
1.0
 10
18.7686576642539
 20
-3.443282112908599
 30
0.0
 10
18.7686576642539
 20
-3.179245291395842
 30
0.0
 10
18.7686576642539
 20
-2.845624643205285
 30
0.0
 10
18.7686576642539
 20
-2.069988743568294
 30
0.0
 10
18.76865766425391
 20
-1.628645377346981
 30
0.0
 10
18.76865766425391
 20
-1.165607557536914
 30
0.0
1001
PE_URL
1000

  0
SPLINE
  5
C4
330
1F
100
AcDbEntity
  8
외형선
  6
Continuous
370
    15
100
AcDbSpline
210
0.0
220
0.0
230
1.0
 70
    24
 71
     3
 72
    12
 73
     8
 74
     0
 42
0.000000001
 43
0.00000001
 40
0.0
 40
0.0
 40
0.0
 40
0.0
 40
0.0386358339822197
 40
0.3323006364831694
 40
0.634481738150913
 40
0.8991801158804671
 40
1.0
 40
1.0
 40
1.0
 40
1.0
 10
4.481157664253903
 20
3.411301811965697
 30
0.0
 10
4.481157664253903
 20
3.412670612960082
 30
0.0
 10
4.481157664253903
 20
3.424443451663714
 30
0.0
 10
4.481157664253903
 20
3.345212589451821
 30
0.0
 10
4.481157664253903
 20
3.132538952157294
 30
0.0
 10
4.481157664253903
 20
2.888710437692922
 30
0.0
 10
4.481157664253903
 20
2.69981929201197
 30
0.0
 10
4.481157664253903
 20
2.647717973400911
 30
0.0
  0
SPLINE
  5
C5
330
1F
100
AcDbEntity
  8
0
  6
Continuous
 62
     1
370
    15
100
AcDbSpline
210
0.0
220
0.0
230
1.0
 70
    24
 71
     3
 72
     8
 73
     4
 74
     0
 42
0.000000001
 43
0.00000001
 40
0.0
 40
0.0
 40
0.0
 40
0.0
 40
1.0
 40
1.0
 40
1.0
 40
1.0
 10
16.11151017679785
 20
2.133398692252719
 30
0.0
 10
15.96807464584207
 20
2.013041991129998
 30
0.0
 10
15.81509484810401
 20
1.88467669927046
 30
0.0
 10
15.65601480365789
 20
1.751192692648051
 30
0.0
1001
PE_URL
1000

  0
SPLINE
  5
C6
330
1F
100
AcDbEntity
  8
0
  6
Continuous
 62
     1
370
    15
100
AcDbSpline
210
0.0
220
0.0
230
1.0
 70
     8
 71
     3
 72
     9
 73
     5
 74
     0
 42
0.000000001
 43
0.00000001
 40
0.0
 40
0.0
 40
0.0
 40
0.0
 40
0.8112988440847434
 40
1.0
 40
1.0
 40
1.0
 40
1.0
 10
18.7686576642539
 20
3.057012428723895
 30
0.0
 10
18.32915200304532
 20
3.053930093656099
 30
0.0
 10
17.78742109289665
 20
3.050130833876217
 30
0.0
 10
17.24584948161269
 20
2.99006993379297
 30
0.0
 10
17.14365429255252
 20
2.97873637252195
 30
0.0
1001
PE_URL
1000

  0
SPLINE
  5
C7
330
1F
100
AcDbEntity
  8
0
  6
Continuous
 62
     1
370
    15
100
AcDbSpline
210
0.0
220
0.0
230
1.0
 70
     8
 71
     3
 72
    10
 73
     6
 74
     0
 42
0.000000001
 43
0.00000001
 40
0.0
 40
0.0
 40
0.0
 40
0.0
 40
0.5
 40
0.5
 40
1.0
 40
1.0
 40
1.0
 40
1.0
 10
18.7686576642539
 20
3.057012428723896
 30
0.0
 10
18.31953007467055
 20
2.935154188094905
 30
0.0
 10
17.8731324299508
 20
2.798451724875917
 30
0.0
 10
16.98634420624887
 20
2.49238305415864
 30
0.0
 10
16.54620117430665
 20
2.323675948708771
 30
0.0
 10
16.11151017679691
 20
2.133398692253349
 30
0.0
1001
PE_URL
1000

  0
SPLINE
  5
C8
330
1F
100
AcDbEntity
  8
0
  6
Continuous
 62
     1
370
    15
100
AcDbSpline
210
0.0
220
0.0
230
1.0
 70
     8
 71
     3
 72
    11
 73
     7
 74
     0
 42
0.000000001
 43
0.00000001
 40
0.0
 40
0.0
 40
0.0
 40
0.0
 40
0.2561699450564014
 40
0.5173143345975977
 40
0.7583433695909386
 40
1.0
 40
1.0
 40
1.0
 40
1.0
 10
9.520745845764434
 20
-3.281351631531464
 30
0.0
 10
9.090328381893233
 20
-3.340330748806531
 30
0.0
 10
8.221135378503654
 20
-3.459434271280987
 30
0.0
 10
6.947482000492602
 20
-3.505465190698007
 30
0.0
 10
5.698279179467814
 20
-3.466940519224075
 30
0.0
 10
4.88721635482845
 20
-3.366132003144703
 30
0.0
 10
4.481157664253899
 20
-3.315662208704111
 30
0.0
1001
PE_URL
1000

  0
SPLINE
  5
C9
330
1F
100
AcDbEntity
  8
외형선
  6
Continuous
370
    15
100
AcDbSpline
210
0.0
220
0.0
230
1.0
 70
    24
 71
     3
 72
    14
 73
    10
 74
     0
 42
0.000000001
 43
0.00000001
 40
0.0
 40
0.0
 40
0.0
 40
0.0
 40
0.2500000000000001
 40
0.2500000000000001
 40
0.5000000000000001
 40
0.5000000000000001
 40
0.75
 40
0.75
 40
1.0
 40
1.0
 40
1.0
 40
1.0
 10
4.481157664253734
 20
0.9583149354383159
 30
0.0
 10
4.481157664253734
 20
0.5736801628023719
 30
0.0
 10
4.481157664253734
 20
0.1717698804344936
 30
0.0
 10
4.481157664253734
 20
-0.6311594452074858
 30
0.0
 10
4.481157664253734
 20
-1.031786420389176
 30
0.0
 10
4.481157664253734
 20
-1.791395382408828
 30
0.0
 10
4.481157664253734
 20
-2.149972617833927
 30
0.0
 10
4.481157664253734
 20
-2.792678848460656
 30
0.0
 10
4.481157664253734
 20
-3.076640817552064
 30
0.0
 10
4.481157664253734
 20
-3.315662208704088
 30
0.0
  0
LINE
  5
CA
330
1F
100
AcDbEntity
  8
0
  6
Continuous
 62
     1
370
    15
100
AcDbLine
 10
18.7686576642539
 20
0.0010749287238959
 30
0.0
 11
18.7686576642539
 21
3.057012428723895
 31
0.0
1001
PE_URL
1000

  0
SPLINE
  5
CB
330
1F
100
AcDbEntity
  8
외형선
  6
Continuous
370
    15
100
AcDbSpline
210
0.0
220
0.0
230
1.0
 70
    24
 71
     3
 72
     9
 73
     5
 74
     0
 42
0.000000001
 43
0.00000001
 40
0.0
 40
0.0
 40
0.0
 40
0.0
 40
0.5494791319260318
 40
1.0
 40
1.0
 40
1.0
 40
1.0
 10
4.481157664253887
 20
-3.315662208704107
 30
0.0
 10
4.481157664253892
 20
-3.34767498946063
 30
0.0
 10
4.481157664253907
 20
-3.405935219734181
 30
0.0
 10
4.481157664253903
 20
-3.408152860896419
 30
0.0
 10
4.481157664253903
 20
-3.409151954517909
 30
0.0
  0
SPLINE
  5
CC
330
1F
100
AcDbEntity
  8
0
  6
Continuous
 62
     1
370
    15
100
AcDbSpline
210
0.0
220
0.0
230
1.0
 70
    24
 71
     3
 72
    10
 73
     6
 74
     0
 42
0.000000001
 43
0.00000001
 40
0.0
 40
0.0
 40
0.0
 40
0.0
 40
0.5
 40
0.5
 40
1.0
 40
1.0
 40
1.0
 40
1.0
 10
18.7686576642539
 20
3.057012428723894
 30
0.0
 10
18.7686576642539
 20
3.242255749848323
 30
0.0
 10
18.7686576642539
 20
3.457525644371901
 30
0.0
 10
18.7686576642539
 20
3.909161303293628
 30
0.0
 10
18.7686576642539
 20
4.144373646894697
 30
0.0
 10
18.7686576642539
 20
4.363010168960808
 30
0.0
1001
PE_URL
1000

  0
SPLINE
  5
CD
330
1F
100
AcDbEntity
  8
0
  6
Continuous
 62
     1
370
    15
100
AcDbSpline
210
0.0
220
0.0
230
1.0
 70
     8
 71
     3
 72
    14
 73
    10
 74
     0
 42
0.000000001
 43
0.00000001
 40
0.0
 40
0.0
 40
0.0
 40
0.0
 40
0.0252222490675095
 40
0.2350247388345666
 40
0.3402223894046912
 40
0.5044352688678237
 40
0.6691168907707552
 40
0.8343206005480159
 40
1.0
 40
1.0
 40
1.0
 40
1.0
 10
12.76378942287881
 20
2.928284721653755
 30
0.0
 10
12.8142933674297
 20
2.950383277094036
 30
0.0
 10
13.28489677581009
 20
3.156300965364894
 30
0.0
 10
13.96547333794826
 20
3.414476295370207
 30
0.0
 10
14.92524667074875
 20
3.731132552439203
 30
0.0
 10
15.7933279761816
 20
3.972706832506215
 30
0.0
 10
16.78312605565535
 20
4.17768971475178
 30
0.0
 10
17.77454423163166
 20
4.31768660929618
 30
0.0
 10
18.43696907797399
 20
4.347887842939442
 30
0.0
 10
18.76865766425366
 20
4.363010168960798
 30
0.0
1001
PE_URL
1000

  0
LINE
  5
CE
330
1F
100
AcDbEntity
  8
중심선
 62
     1
100
AcDbLine
 10
-42.96884233574609
 20
0.0010749287238888
 30
0.0
 11
21.7686576642539
 21
0.0010749287238967
 31
0.0
  0
LINE
  5
CF
330
1F
100
AcDbEntity
  8
참조1
100
AcDbLine
 10
-10.6000923357461
 20
0.0010749287238892
 30
0.0
 11
-10.60009233574609
 21
-39.99892507127611
 31
0.0
  0
LINE
  5
D0
330
1F
100
AcDbEntity
  8
참조1
100
AcDbLine
 10
-10.60009233574609
 20
-39.99892507127611
 30
0.0
 11
-30.51890487104574
 21
-39.9989250712761
 31
0.0
  0
CIRCLE
  5
D1
330
1F
100
AcDbEntity
  8
해칭선
100
AcDbCircle
 10
0.0
 20
0.0
 30
0.0
 40
2.999999999999997
  0
INSERT
  5
D2
330
1F
100
AcDbEntity
  8
0
  6
Continuous
 62
     7
100
AcDbBlockReference
 66
     1
  2
블럭10
 10
-24.54036526787131
 20
-52.04609937292004
 30
0.0
  0
ATTRIB
  5
D3
330
D2
100
AcDbEntity
  8
FORMAT
 62
     2
100
AcDbText
 10
-33.72166055661258
 20
-49.97073246008785
 30
0.0
 40
4.233333333333333
  1
E1030022 [ 2 FLUTE ]
 41
0.75
  7
SLDTEXTSTYLE0
 11
-33.72166055661258
 21
-52.08739912675452
 31
0.0
100
AcDbAttribute
  2
AUTOATTR0
 70
     0
 74
     1
  0
SEQEND
  5
D4
330
D2
100
AcDbEntity
  8
0
  6
Continuous
 62
     7
  0
HATCH
  5
D5
330
1F
100
AcDbEntity
  8
중심선
100
AcDbHatch
 10
0.0
 20
0.0
 30
0.0
210
0.0
220
0.0
230
1.0
  2
SOLID
 70
     1
 71
     0
 91
        1
 92
        0
 93
        4
 72
     1
 10
-18.82545596349046
 20
-35.7989250712761
 11
-22.27173120732775
 21
-35.7989250712761
 72
     1
 10
-22.27173120732774
 20
-35.7989250712761
 11
-24.39996106653177
 21
-38.3352506518487
 72
     1
 10
-24.39996106653177
 20
-38.3352506518487
 11
-20.95365273758133
 21
-38.33521122254621
 72
     1
 10
-20.95365273758133
 20
-38.33521122254621
 11
-18.82545596349046
 21
-35.7989250712761
 97
        0
 75
     0
 76
     1
 98
        1
 10
-10.36810364977726
 20
0.0
  0
HATCH
  5
D6
330
1F
100
AcDbEntity
  8
중심선
100
AcDbHatch
 10
0.0
 20
0.0
 30
0.0
210
0.0
220
0.0
230
1.0
  2
SOLID
 70
     1
 71
     0
 91
        1
 92
        0
 93
        4
 72
     1
 10
-13.81269197245448
 20
-35.7989250712761
 11
-17.25896721629176
 21
-35.7989250712761
 72
     1
 10
-17.25896721629177
 20
-35.7989250712761
 11
-21.79010522464918
 21
-41.19892507127612
 72
     1
 10
-21.79010522464918
 20
-41.19892507127612
 11
-18.3438299808119
 21
-41.19892507127612
 72
     1
 10
-18.3438299808119
 20
-41.19892507127612
 11
-13.81269197245448
 21
-35.7989250712761
 97
        0
 75
     0
 76
     1
 98
        1
 10
-10.36810364977726
 20
0.0
  0
HATCH
  5
D7
330
1F
100
AcDbEntity
  8
중심선
100
AcDbHatch
 10
0.0
 20
0.0
 30
0.0
210
0.0
220
0.0
230
1.0
  2
SOLID
 70
     1
 71
     0
 91
        1
 92
        0
 93
        4
 72
     1
 10
-8.799927981418612
 20
-35.7989250712761
 11
-12.2462032252557
 21
-35.7989250712761
 72
     1
 10
-12.2462032252557
 20
-35.7989250712761
 11
-19.29464012714498
 21
-44.19892507127612
 72
     1
 10
-19.29464012714498
 20
-44.19892507127612
 11
-15.8483648833077
 21
-44.19892507127612
 72
     1
 10
-15.8483648833077
 20
-44.19892507127612
 11
-8.799927981418612
 21
-35.7989250712761
 97
        0
 75
     0
 76
     1
 98
        1
 10
-10.36810364977726
 20
0.0
  0
HATCH
  5
D8
330
1F
100
AcDbEntity
  8
중심선
100
AcDbHatch
 10
0.0
 20
0.0
 30
0.0
210
0.0
220
0.0
230
1.0
  2
SOLID
 70
     1
 71
     0
 91
        1
 92
        0
 93
        6
 72
     3
 10
-4.000037550406415
 20
-39.99892507132738
 11
3.960054785062283
 21
1.540882976769353E-10
 40
0.3939339440162628
 50
17.09539180608437
 51
320.0019657685087
 73
     0
 72
     1
 10
-2.317037894705818
 20
-38.58681907591443
 11
-0.011736021004781
 21
-36.65249236586651
 72
     3
 10
-4.000037550459261
 20
-39.99892507127625
 11
6.600054785286829
 21
-1.278976924368180E-13
 40
0.636358354079598
 50
39.99873849337382
 51
368.4976242363725
 73
     1
 72
     1
 10
2.425294941441349
 20
-39.03892507120613
 11
-5.319970243623338
 21
-39.03892507120613
 72
     1
 10
-5.319970243623338
 20
-39.03892507120613
 11
-5.319995288069272
 21
-40.95892507120602
 72
     1
 10
-5.319995288069272
 20
-40.95892507120602
 11
-0.8786155185972344
 21
-40.95892507120599
 97
        0
 75
     0
 76
     1
 98
        1
 10
-10.36810364977726
 20
0.0
  0
DIMENSION
  5
D9
330
1F
100
AcDbEntity
  8
치수문자_일반주서
100
AcDbDimension
  2
_D
 10
-49.96884233574605
 20
-4.76142507127615
 30
0.0
 11
-49.96884233574616
 21
24.49257492872386
 31
0.0
 70
   160
  1
%%c<>
 71
     2
 42
9.525000000000006
 52
-270.0
  3
SLDDIMSTYLE0
100
AcDbAlignedDimension
 13
-38.96884233574609
 23
4.763574928723897
 33
0.0
 14
-38.96884233574609
 24
-4.761425071276109
 34
0.0
 50
90.0000000000002
100
AcDbRotatedDimension
1001
PE_URL
1000

1001
ACAD
1000
DSTYLE
1002
{
1070
   171
1070
     8
1070
   273
1070
     7
1002
}
  0
DIMENSION
  5
EE
330
1F
100
AcDbEntity
  8
치수문자_일반주서
100
AcDbDimension
  2
_D_1
 10
4.481157664253899
 20
14.76357492872389
 30
0.0
 11
38.9351576642539
 21
14.76357492872389
 31
0.0
 70
   160
  1
<>
 71
     2
 42
14.2875
  3
SLDDIMSTYLE0
100
AcDbAlignedDimension
 13
18.7686576642539
 23
4.363010168960808
 33
0.0
 14
4.481157664253903
 24
3.416194128424379
 34
0.0
100
AcDbRotatedDimension
1001
PE_URL
1000

1001
ACAD
1000
DSTYLE
1002
{
1070
   171
1070
     8
1070
   273
1070
     7
1002
}
  0
DIMENSION
  5
103
330
1F
100
AcDbEntity
  8
치수문자_일반주서
100
AcDbDimension
  2
_D_2
 10
-39.96884233574609
 20
24.76357492872389
 30
0.0
 11
-10.60009233574613
 21
24.76357492872389
 31
0.0
 70
   160
  1
<>
 71
     2
 42
58.73749999999999
  3
SLDDIMSTYLE0
100
AcDbAlignedDimension
 13
18.7686576642539
 23
4.363010168960808
 33
0.0
 14
-39.96884233574609
 24
3.763574928723889
 34
0.0
 50
0.0000000000000139
100
AcDbRotatedDimension
1001
PE_URL
1000

1001
ACAD
1000
DSTYLE
1002
{
1070
   171
1070
     8
1070
   273
1070
     7
1002
}
  0
DIMENSION
  5
116
330
1F
100
AcDbEntity
  8
치수문자_일반주서
100
AcDbDimension
  2
_D_3
 10
59.67137839521638
 20
4.363010168960962
 30
0.0
 11
59.67137839521631
 21
25.84201016896096
 31
0.0
 70
   160
  1
%%c<>
 71
     2
 42
8.723870480473828
 52
-270.0
  3
SLDDIMSTYLE0
100
AcDbAlignedDimension
 13
18.7686576642539
 23
-4.36086031151302
 33
0.0
 14
18.7686576642539
 24
4.363010168960808
 34
0.0
 50
90.0000000000002
100
AcDbRotatedDimension
1001
PE_URL
1000

1001
ACAD
1000
DSTYLE
1002
{
1070
   171
1070
     8
1070
   273
1070
     7
1002
}
  0
LINE
  5
129
330
1F
100
AcDbEntity
  8
참조1
100
AcDbLine
 10
67.45343575860852
 20
7.441074928723896
 30
0.0
 11
67.45343575860852
 21
-7.438925071276109
 31
0.0
  0
LINE
  5
12A
330
1F
100
AcDbEntity
  8
참조1
100
AcDbLine
 10
80.15343575860852
 20
5.441074928723896
 30
0.0
 11
67.45343575860852
 21
5.441074928723896
 31
0.0
  0
SOLID
  5
12B
330
1F
100
AcDbEntity
  8
참조1
100
AcDbTrace
 10
67.45343575860852
 20
5.441074928723896
 30
0.0
 11
73.80343575860852
 21
4.425074928723896
 31
0.0
 12
73.80343575860852
 22
6.457074928723896
 32
0.0
 13
73.80343575860852
 23
6.457074928723896
 33
0.0
  0
LINE
  5
12C
330
1F
100
AcDbEntity
  8
참조1
100
AcDbLine
 10
80.15343575860852
 20
-5.438925071276109
 30
0.0
 11
67.45343575860852
 21
-5.438925071276109
 31
0.0
  0
SOLID
  5
12D
330
1F
100
AcDbEntity
  8
참조1
100
AcDbTrace
 10
67.45343575860852
 20
-5.438925071276109
 30
0.0
 11
73.80343575860852
 21
-6.454925071276109
 31
0.0
 12
73.80343575860852
 22
-4.422925071276109
 32
0.0
 13
73.80343575860852
 23
-4.422925071276109
 33
0.0
  0
MTEXT
  5
12E
330
1F
100
AcDbEntity
  8
참조1
100
AcDbMText
 10
76.83778589123452
 20
11.01136670591222
 30
0.0
 40
3.5
 41
0.0
 71
     1
 72
     1
  1
A
  7
SLDTEXTSTYLE0
 73
     1
 44
1.0
  0
MTEXT
  5
12F
330
1F
100
AcDbEntity
  8
참조1
100
AcDbMText
 10
76.83778589123452
 20
0.1313667059122192
 30
0.0
 40
3.5
 41
0.0
 71
     1
 72
     1
  1
A
  7
SLDTEXTSTYLE0
 73
     1
 44
1.0
  0
INSERT
  5
136
330
1F
100
AcDbEntity
  8
해칭선
100
AcDbBlockReference
  2
SW_DOWELSYMBOL_0
 10
0.0
 20
0.0
 30
0.0
  0
LINE
  5
1EC
330
1F
100
AcDbEntity
  8
외형선
  6
Continuous
370
    15
100
AcDbLine
 10
-23.69379233574621
 20
3.493574928723898
 30
0.0
 11
-16.55639233574609
 21
3.493574928723898
 31
0.0
1001
PE_URL
1000

  0
LINE
  5
1ED
330
1F
100
AcDbEntity
  8
외형선
  6
Continuous
370
    15
100
AcDbLine
 10
-23.69379233574621
 20
3.493574928723898
 30
0.0
 11
-24.9637923357462
 21
4.76357492872388
 31
0.0
1001
PE_URL
1000

  0
LINE
  5
1EE
330
1F
100
AcDbEntity
  8
외형선
  6
Continuous
370
    15
100
AcDbLine
 10
-16.55639233574609
 20
3.493574928723898
 30
0.0
 11
-15.28639233574599
 21
4.76357492872388
 31
0.0
1001
PE_URL
1000

  0
LINE
  5
1EF
330
1F
100
AcDbEntity
  8
외형선
  6
Continuous
370
    15
100
AcDbLine
 10
-24.96379233574621
 20
4.763574928723892
 30
0.0
 11
-38.9688423357461
 21
4.763574928723891
 31
0.0
  0
ENDSEC
  0
SECTION
  2
OBJECTS
  0
DICTIONARY
  5
C
330
0
100
AcDbDictionary
281
     1
  3
ACAD_DETAILVIEWSTYLE
350
1EA
  3
ACAD_GROUP
350
D
  3
ACAD_LAYOUT
350
1A
  3
ACAD_MLINESTYLE
350
17
  3
ACAD_PLOTSETTINGS
350
19
  3
ACAD_PLOTSTYLENAME
350
E
  3
ACAD_SCALELIST
350
47
  3
ACAD_SECTIONVIEWSTYLE
350
1EB
  3
AcDbVariableDictionary
350
1E5
  3
APPDATA
350
158
  3
DWGPROPS
350
1F6
  0
DICTIONARY
  5
191
330
2
100
AcDbDictionary
280
     1
281
     1
  3
ACAD_LAYERSTATES
360
192
  0
DICTIONARY
  5
1EA
102
{ACAD_REACTORS
330
C
102
}
330
C
100
AcDbDictionary
281
     1
  0
DICTIONARY
  5
D
102
{ACAD_REACTORS
330
C
102
}
330
C
100
AcDbDictionary
281
     1
  0
DICTIONARY
  5
1A
102
{ACAD_REACTORS
330
C
102
}
330
C
100
AcDbDictionary
281
     1
  3
Layout1
350
1E
  3
Layout2
350
26
  3
Model
350
22
  0
DICTIONARY
  5
17
102
{ACAD_REACTORS
330
C
102
}
330
C
100
AcDbDictionary
281
     1
  3
Standard
350
18
  0
DICTIONARY
  5
19
102
{ACAD_REACTORS
330
C
102
}
330
C
100
AcDbDictionary
281
     1
  0
ACDBDICTIONARYWDFLT
  5
E
102
{ACAD_REACTORS
330
C
102
}
330
C
100
AcDbDictionary
281
     1
  3
Normal
350
F
100
AcDbDictionaryWithDefault
340
F
  0
DICTIONARY
  5
47
102
{ACAD_REACTORS
330
C
102
}
330
C
100
AcDbDictionary
281
     1
  3
A0
350
48
  3
A1
350
49
  3
A2
350
4A
  3
A3
350
4B
  3
A4
350
4C
  3
A5
350
4D
  3
A6
350
4E
  3
A7
350
4F
  3
A8
350
50
  3
A9
350
51
  3
B0
350
52
  3
B1
350
53
  3
B2
350
54
  3
B3
350
55
  3
B4
350
56
  3
B5
350
57
  3
B6
350
58
  3
B7
350
59
  3
B8
350
5A
  3
B9
350
5B
  3
C0
350
5C
  3
C1
350
5D
  3
C2
350
5E
  3
C3
350
5F
  3
C4
350
60
  3
C5
350
61
  3
C6
350
62
  3
C7
350
63
  3
C8
350
64
  3
C9
350
65
  3
D0
350
66
  3
D1
350
67
  3
D2
350
68
  0
DICTIONARY
  5
1EB
102
{ACAD_REACTORS
330
C
102
}
330
C
100
AcDbDictionary
281
     1
  0
DICTIONARY
  5
1E5
102
{ACAD_REACTORS
330
C
102
}
330
C
100
AcDbDictionary
281
     1
  0
DICTIONARY
  5
158
102
{ACAD_REACTORS
330
C
102
}
330
C
100
AcDbDictionary
281
     1
  0
XRECORD
  5
1F6
102
{ACAD_REACTORS
330
C
102
}
330
C
100
AcDbXrecord
280
     1
  1
DWGPROPS COOKIE
  2

  3

  4

  6

  7

  8
120170442
  9

300
=
301
=
302
=
303
=
304
=
305
=
306
=
307
=
308
=
309
=
 40
0.0
 41
2458311.082966805
 42
2458320.111211794
  1

 90
        0
  0
DICTIONARY
  5
192
102
{ACAD_REACTORS
330
191
102
}
330
191
100
AcDbDictionary
281
     1
  0
LAYOUT
  5
1E
102
{ACAD_REACTORS
330
1A
102
}
330
1A
100
AcDbPlotSettings
  1

  2
none_device
  4

  6

 40
0.0
 41
0.0
 42
0.0
 43
0.0
 44
0.0
 45
0.0
 46
0.0
 47
0.0
 48
0.0
 49
0.0
140
0.0
141
0.0
142
1.0
143
1.0
 70
   688
 72
     1
 73
     0
 74
     5
  7

 75
    16
147
1.0
148
0.0
149
0.0
100
AcDbLayout
  1
Layout1
 70
     1
 71
     1
 10
0.0
 20
0.0
 11
420.0
 21
297.0
 12
0.0
 22
0.0
 32
0.0
 14
1.000000000000000E+20
 24
1.000000000000000E+20
 34
1.000000000000000E+20
 15
-1.000000000000000E+20
 25
-1.000000000000000E+20
 35
-1.000000000000000E+20
146
0.0
 13
0.0
 23
0.0
 33
0.0
 16
1.0
 26
0.0
 36
0.0
 17
0.0
 27
1.0
 37
0.0
 76
     0
330
1B
  0
LAYOUT
  5
26
102
{ACAD_REACTORS
330
1A
102
}
330
1A
100
AcDbPlotSettings
  1

  2
none_device
  4

  6

 40
0.0
 41
0.0
 42
0.0
 43
0.0
 44
0.0
 45
0.0
 46
0.0
 47
0.0
 48
0.0
 49
0.0
140
0.0
141
0.0
142
1.0
143
1.0
 70
   688
 72
     1
 73
     0
 74
     5
  7

 75
    16
147
1.0
148
0.0
149
0.0
100
AcDbLayout
  1
Layout2
 70
     1
 71
     2
 10
0.0
 20
0.0
 11
0.0
 21
0.0
 12
0.0
 22
0.0
 32
0.0
 14
0.0
 24
0.0
 34
0.0
 15
0.0
 25
0.0
 35
0.0
146
0.0
 13
0.0
 23
0.0
 33
0.0
 16
1.0
 26
0.0
 36
0.0
 17
0.0
 27
1.0
 37
0.0
 76
     0
330
23
  0
LAYOUT
  5
22
102
{ACAD_REACTORS
330
1A
102
}
330
1A
100
AcDbPlotSettings
  1

  2
none_device
  4
ANSI_A_(11.00_x_8.50_Inches)
  6

 40
6.35
 41
19.05
 42
6.35000508
 43
19.05000254
 44
279.4
 45
215.9
 46
97.06335880047051
 47
91.74661255812184
 48
0.0
 49
0.0
140
0.0
141
0.0
142
0.0759333951473273
143
1.0
 70
  1696
 72
     0
 73
     0
 74
     0
  7

 75
     0
147
0.0235690232323232
148
0.0
149
0.0
100
AcDbLayout
  1
Model
 70
     1
 71
     0
 10
0.0
 20
0.0
 11
420.0
 21
297.0
 12
0.0
 22
0.0
 32
0.0
 14
-54.3438423357462
 24
-49.97073246008785
 34
0.0
 15
80.15343575860852
 25
40.71701016896096
 35
0.0
146
0.0
 13
0.0
 23
0.0
 33
0.0
 16
1.0
 26
0.0
 36
0.0
 17
0.0
 27
1.0
 37
0.0
 76
     0
330
1F
331
29
  0
MLINESTYLE
  5
18
102
{ACAD_REACTORS
330
17
102
}
330
17
100
AcDbMlineStyle
  2
Standard
 70
     0
  3

 62
   256
 51
90.0
 52
90.0
 71
     2
 49
0.5
 62
   256
  6
BYLAYER
 49
-0.5
 62
   256
  6
BYLAYER
  0
ACDBPLACEHOLDER
  5
F
102
{ACAD_REACTORS
330
E
102
}
330
E
  0
SCALE
  5
48
102
{ACAD_REACTORS
330
47
102
}
330
47
100
AcDbScale
 70
     0
300
1:1
140
1.0
141
1.0
290
     1
  0
SCALE
  5
49
102
{ACAD_REACTORS
330
47
102
}
330
47
100
AcDbScale
 70
     0
300
1:2
140
1.0
141
2.0
290
     0
  0
SCALE
  5
4A
102
{ACAD_REACTORS
330
47
102
}
330
47
100
AcDbScale
 70
     0
300
1:4
140
1.0
141
4.0
290
     0
  0
SCALE
  5
4B
102
{ACAD_REACTORS
330
47
102
}
330
47
100
AcDbScale
 70
     0
300
1:5
140
1.0
141
5.0
290
     0
  0
SCALE
  5
4C
102
{ACAD_REACTORS
330
47
102
}
330
47
100
AcDbScale
 70
     0
300
1:8
140
1.0
141
8.0
290
     0
  0
SCALE
  5
4D
102
{ACAD_REACTORS
330
47
102
}
330
47
100
AcDbScale
 70
     0
300
1:10
140
1.0
141
10.0
290
     0
  0
SCALE
  5
4E
102
{ACAD_REACTORS
330
47
102
}
330
47
100
AcDbScale
 70
     0
300
1:16
140
1.0
141
16.0
290
     0
  0
SCALE
  5
4F
102
{ACAD_REACTORS
330
47
102
}
330
47
100
AcDbScale
 70
     0
300
1:20
140
1.0
141
20.0
290
     0
  0
SCALE
  5
50
102
{ACAD_REACTORS
330
47
102
}
330
47
100
AcDbScale
 70
     0
300
1:30
140
1.0
141
30.0
290
     0
  0
SCALE
  5
51
102
{ACAD_REACTORS
330
47
102
}
330
47
100
AcDbScale
 70
     0
300
1:40
140
1.0
141
40.0
290
     0
  0
SCALE
  5
52
102
{ACAD_REACTORS
330
47
102
}
330
47
100
AcDbScale
 70
     0
300
1:50
140
1.0
141
50.0
290
     0
  0
SCALE
  5
53
102
{ACAD_REACTORS
330
47
102
}
330
47
100
AcDbScale
 70
     0
300
1:100
140
1.0
141
100.0
290
     0
  0
SCALE
  5
54
102
{ACAD_REACTORS
330
47
102
}
330
47
100
AcDbScale
 70
     0
300
2:1
140
2.0
141
1.0
290
     0
  0
SCALE
  5
55
102
{ACAD_REACTORS
330
47
102
}
330
47
100
AcDbScale
 70
     0
300
4:1
140
4.0
141
1.0
290
     0
  0
SCALE
  5
56
102
{ACAD_REACTORS
330
47
102
}
330
47
100
AcDbScale
 70
     0
300
8:1
140
8.0
141
1.0
290
     0
  0
SCALE
  5
57
102
{ACAD_REACTORS
330
47
102
}
330
47
100
AcDbScale
 70
     0
300
10:1
140
10.0
141
1.0
290
     0
  0
SCALE
  5
58
102
{ACAD_REACTORS
330
47
102
}
330
47
100
AcDbScale
 70
     0
300
100:1
140
100.0
141
1.0
290
     0
  0
SCALE
  5
59
102
{ACAD_REACTORS
330
47
102
}
330
47
100
AcDbScale
 70
     0
300
1/128" = 1'-0"
140
0.0078125
141
12.0
290
     0
  0
SCALE
  5
5A
102
{ACAD_REACTORS
330
47
102
}
330
47
100
AcDbScale
 70
     0
300
1/64" = 1'-0"
140
0.015625
141
12.0
290
     0
  0
SCALE
  5
5B
102
{ACAD_REACTORS
330
47
102
}
330
47
100
AcDbScale
 70
     0
300
1/32" = 1'-0"
140
0.03125
141
12.0
290
     0
  0
SCALE
  5
5C
102
{ACAD_REACTORS
330
47
102
}
330
47
100
AcDbScale
 70
     0
300
1/16" = 1'-0"
140
0.0625
141
12.0
290
     0
  0
SCALE
  5
5D
102
{ACAD_REACTORS
330
47
102
}
330
47
100
AcDbScale
 70
     0
300
3/32" = 1'-0"
140
0.09375
141
12.0
290
     0
  0
SCALE
  5
5E
102
{ACAD_REACTORS
330
47
102
}
330
47
100
AcDbScale
 70
     0
300
1/8" = 1'-0"
140
0.125
141
12.0
290
     0
  0
SCALE
  5
5F
102
{ACAD_REACTORS
330
47
102
}
330
47
100
AcDbScale
 70
     0
300
3/16" = 1'-0"
140
0.1875
141
12.0
290
     0
  0
SCALE
  5
60
102
{ACAD_REACTORS
330
47
102
}
330
47
100
AcDbScale
 70
     0
300
1/4" = 1'-0"
140
0.25
141
12.0
290
     0
  0
SCALE
  5
61
102
{ACAD_REACTORS
330
47
102
}
330
47
100
AcDbScale
 70
     0
300
3/8" = 1'-0"
140
0.375
141
12.0
290
     0
  0
SCALE
  5
62
102
{ACAD_REACTORS
330
47
102
}
330
47
100
AcDbScale
 70
     0
300
1/2" = 1'-0"
140
0.5
141
12.0
290
     0
  0
SCALE
  5
63
102
{ACAD_REACTORS
330
47
102
}
330
47
100
AcDbScale
 70
     0
300
3/4" = 1'-0"
140
0.75
141
12.0
290
     0
  0
SCALE
  5
64
102
{ACAD_REACTORS
330
47
102
}
330
47
100
AcDbScale
 70
     0
300
1" = 1'-0"
140
1.0
141
12.0
290
     0
  0
SCALE
  5
65
102
{ACAD_REACTORS
330
47
102
}
330
47
100
AcDbScale
 70
     0
300
1-1/2" = 1'-0"
140
1.5
141
12.0
290
     0
  0
SCALE
  5
66
102
{ACAD_REACTORS
330
47
102
}
330
47
100
AcDbScale
 70
     0
300
3" = 1'-0"
140
3.0
141
12.0
290
     0
  0
SCALE
  5
67
102
{ACAD_REACTORS
330
47
102
}
330
47
100
AcDbScale
 70
     0
300
6" = 1'-0"
140
6.0
141
12.0
290
     0
  0
SCALE
  5
68
102
{ACAD_REACTORS
330
47
102
}
330
47
100
AcDbScale
 70
     0
300
1'-0" = 1'-0"
140
12.0
141
12.0
290
     0
  0
ENDSEC
  0
EOF
