  0
SECTION
  2
HEADER
  9
$ACADVER
  1
AC1015
  9
$ACADMAINTVER
 70
     6
  9
$DWGCODEPAGE
  3
ANSI_949
  9
$INSBASE
 10
0.0
 20
0.0
 30
0.0
  9
$EXTMIN
 10
-53.49692116787318
 20
-49.97073246008785
 30
0.0
  9
$EXTMAX
 10
88.14158764747253
 20
41.42816843813794
 30
0.0
  9
$LIMMIN
 10
0.0
 20
0.0
  9
$LIMMAX
 10
420.0
 20
297.0
  9
$ORTHOMODE
 70
     0
  9
$REGENMODE
 70
     1
  9
$FILLMODE
 70
     1
  9
$QTEXTMODE
 70
     0
  9
$MIRRTEXT
 70
     1
  9
$LTSCALE
 40
1.0
  9
$ATTMODE
 70
     1
  9
$TEXTSIZE
 40
3.5
  9
$TRACEWID
 40
1.0
  9
$TEXTSTYLE
  7
Standard
  9
$CLAYER
  8
0
  9
$CELTYPE
  6
ByLayer
  9
$CECOLOR
 62
   256
  9
$CELTSCALE
 40
1.0
  9
$DISPSILH
 70
     0
  9
$DIMSCALE
 40
1.0
  9
$DIMASZ
 40
3.302
  9
$DIMEXO
 40
1.0
  9
$DIMDLI
 40
3.75
  9
$DIMRND
 40
0.0
  9
$DIMDLE
 40
0.0
  9
$DIMEXE
 40
1.0
  9
$DIMTP
 40
0.0
  9
$DIMTM
 40
0.0
  9
$DIMTXT
 40
3.5
  9
$DIMCEN
 40
2.5
  9
$DIMTSZ
 40
0.0
  9
$DIMTOL
 70
     0
  9
$DIMLIM
 70
     0
  9
$DIMTIH
 70
     1
  9
$DIMTOH
 70
     1
  9
$DIMSE1
 70
     0
  9
$DIMSE2
 70
     0
  9
$DIMTAD
 70
     1
  9
$DIMZIN
 70
     0
  9
$DIMBLK
  1

  9
$DIMASO
 70
     1
  9
$DIMSHO
 70
     1
  9
$DIMPOST
  1

  9
$DIMAPOST
  1

  9
$DIMALT
 70
     0
  9
$DIMALTD
 70
     3
  9
$DIMALTF
 40
0.0393700787401575
  9
$DIMLFAC
 40
1.0
  9
$DIMTOFL
 70
     1
  9
$DIMTVP
 40
0.0
  9
$DIMTIX
 70
     0
  9
$DIMSOXD
 70
     0
  9
$DIMSAH
 70
     0
  9
$DIMBLK1
  1

  9
$DIMBLK2
  1

  9
$DIMSTYLE
  2
ISO-25
  9
$DIMCLRD
 70
     0
  9
$DIMCLRE
 70
     0
  9
$DIMCLRT
 70
     0
  9
$DIMTFAC
 40
1.0
  9
$DIMGAP
 40
1.524
  9
$DIMJUST
 70
     0
  9
$DIMSD1
 70
     0
  9
$DIMSD2
 70
     0
  9
$DIMTOLJ
 70
     0
  9
$DIMTZIN
 70
     0
  9
$DIMALTZ
 70
     0
  9
$DIMALTTZ
 70
     0
  9
$DIMUPT
 70
     0
  9
$DIMDEC
 70
     2
  9
$DIMTDEC
 70
     2
  9
$DIMALTU
 70
     2
  9
$DIMALTTD
 70
     3
  9
$DIMTXSTY
  7
Standard
  9
$DIMAUNIT
 70
     0
  9
$DIMADEC
 70
     2
  9
$DIMALTRND
 40
0.0
  9
$DIMAZIN
 70
     0
  9
$DIMDSEP
 70
    44
  9
$DIMATFIT
 70
     3
  9
$DIMFRAC
 70
     0
  9
$DIMLDRBLK
  1

  9
$DIMLUNIT
 70
     2
  9
$DIMLWD
 70
    -2
  9
$DIMLWE
 70
    -2
  9
$DIMTMOVE
 70
     0
  9
$LUNITS
 70
     2
  9
$LUPREC
 70
     2
  9
$SKETCHINC
 40
1.0
  9
$FILLETRAD
 40
10.0
  9
$AUNITS
 70
     0
  9
$AUPREC
 70
     2
  9
$MENU
  1
.
  9
$ELEVATION
 40
0.0
  9
$PELEVATION
 40
0.0
  9
$THICKNESS
 40
0.0
  9
$LIMCHECK
 70
     0
  9
$CHAMFERA
 40
0.0
  9
$CHAMFERB
 40
0.0
  9
$CHAMFERC
 40
0.0
  9
$CHAMFERD
 40
0.0
  9
$SKPOLY
 70
     0
  9
$TDCREATE
 40
2458311.559706736
  9
$TDUCREATE
 40
2458311.184706736
  9
$TDUPDATE
 40
2458320.57264118
  9
$TDUUPDATE
 40
2458320.19764118
  9
$TDINDWG
 40
0.0017024421
  9
$TDUSRTIMER
 40
0.0037368981
  9
$USRTIMER
 70
     1
  9
$ANGBASE
 50
0.0
  9
$ANGDIR
 70
     0
  9
$PDMODE
 70
     0
  9
$PDSIZE
 40
-1.0
  9
$PLINEWID
 40
0.0
  9
$SPLFRAME
 70
     0
  9
$SPLINETYPE
 70
     6
  9
$SPLINESEGS
 70
     8
  9
$HANDSEED
  5
249
  9
$SURFTAB1
 70
     6
  9
$SURFTAB2
 70
     6
  9
$SURFTYPE
 70
     6
  9
$SURFU
 70
     6
  9
$SURFV
 70
     6
  9
$UCSBASE
  2

  9
$UCSNAME
  2

  9
$UCSORG
 10
0.0
 20
0.0
 30
0.0
  9
$UCSXDIR
 10
1.0
 20
0.0
 30
0.0
  9
$UCSYDIR
 10
0.0
 20
1.0
 30
0.0
  9
$UCSORTHOREF
  2

  9
$UCSORTHOVIEW
 70
     0
  9
$UCSORGTOP
 10
0.0
 20
0.0
 30
0.0
  9
$UCSORGBOTTOM
 10
0.0
 20
0.0
 30
0.0
  9
$UCSORGLEFT
 10
0.0
 20
0.0
 30
0.0
  9
$UCSORGRIGHT
 10
0.0
 20
0.0
 30
0.0
  9
$UCSORGFRONT
 10
0.0
 20
0.0
 30
0.0
  9
$UCSORGBACK
 10
0.0
 20
0.0
 30
0.0
  9
$PUCSBASE
  2

  9
$PUCSNAME
  2

  9
$PUCSORG
 10
0.0
 20
0.0
 30
0.0
  9
$PUCSXDIR
 10
1.0
 20
0.0
 30
0.0
  9
$PUCSYDIR
 10
0.0
 20
1.0
 30
0.0
  9
$PUCSORTHOREF
  2

  9
$PUCSORTHOVIEW
 70
     0
  9
$PUCSORGTOP
 10
0.0
 20
0.0
 30
0.0
  9
$PUCSORGBOTTOM
 10
0.0
 20
0.0
 30
0.0
  9
$PUCSORGLEFT
 10
0.0
 20
0.0
 30
0.0
  9
$PUCSORGRIGHT
 10
0.0
 20
0.0
 30
0.0
  9
$PUCSORGFRONT
 10
0.0
 20
0.0
 30
0.0
  9
$PUCSORGBACK
 10
0.0
 20
0.0
 30
0.0
  9
$USERI1
 70
     0
  9
$USERI2
 70
     0
  9
$USERI3
 70
     0
  9
$USERI4
 70
     0
  9
$USERI5
 70
     0
  9
$USERR1
 40
0.0
  9
$USERR2
 40
0.0
  9
$USERR3
 40
0.0
  9
$USERR4
 40
0.0
  9
$USERR5
 40
0.0
  9
$WORLDVIEW
 70
     1
  9
$SHADEDGE
 70
     3
  9
$SHADEDIF
 70
    70
  9
$TILEMODE
 70
     1
  9
$MAXACTVP
 70
    64
  9
$PINSBASE
 10
0.0
 20
0.0
 30
0.0
  9
$PLIMCHECK
 70
     0
  9
$PEXTMIN
 10
1.000000000000000E+20
 20
1.000000000000000E+20
 30
1.000000000000000E+20
  9
$PEXTMAX
 10
-1.000000000000000E+20
 20
-1.000000000000000E+20
 30
-1.000000000000000E+20
  9
$PLIMMIN
 10
0.0
 20
0.0
  9
$PLIMMAX
 10
0.0
 20
0.0
  9
$UNITMODE
 70
     0
  9
$VISRETAIN
 70
     1
  9
$PLINEGEN
 70
     0
  9
$PSLTSCALE
 70
     1
  9
$TREEDEPTH
 70
  3020
  9
$CMLSTYLE
  2
Standard
  9
$CMLJUST
 70
     0
  9
$CMLSCALE
 40
20.0
  9
$PROXYGRAPHICS
 70
     1
  9
$MEASUREMENT
 70
     1
  9
$CELWEIGHT
370
    -1
  9
$ENDCAPS
280
     0
  9
$JOINSTYLE
280
     0
  9
$LWDISPLAY
290
     1
  9
$INSUNITS
 70
     4
  9
$HYPERLINKBASE
  1

  9
$STYLESHEET
  1

  9
$XEDIT
290
     1
  9
$CEPSNTYPE
380
     0
  9
$PSTYLEMODE
290
     1
  9
$FINGERPRINTGUID
  2
{CAB2B735-B837-4183-977D-E3CCFC59857E}
  9
$VERSIONGUID
  2
{FAEB1C32-E019-11D5-929B-00C0DF256EC4}
  9
$EXTNAMES
290
     1
  9
$PSVPSCALE
 40
0.0
  9
$OLESTARTUP
290
     0
  0
ENDSEC
  0
SECTION
  2
CLASSES
  0
CLASS
  1
ACDBDICTIONARYWDFLT
  2
AcDbDictionaryWithDefault
  3
ObjectDBX Classes
 90
        0
280
     0
281
     0
  0
CLASS
  1
VISUALSTYLE
  2
AcDbVisualStyle
  3
ObjectDBX Classes
 90
     4095
280
     0
281
     0
  0
CLASS
  1
MATERIAL
  2
AcDbMaterial
  3
ObjectDBX Classes
 90
     1153
280
     0
281
     0
  0
CLASS
  1
SCALE
  2
AcDbScale
  3
ObjectDBX Classes
 90
     1153
280
     0
281
     0
  0
CLASS
  1
SUN
  2
AcDbSun
  3
SCENEOE
 90
     1153
280
     0
281
     0
  0
CLASS
  1
ACDBPLACEHOLDER
  2
AcDbPlaceHolder
  3
ObjectDBX Classes
 90
        0
280
     0
281
     0
  0
CLASS
  1
LAYOUT
  2
AcDbLayout
  3
ObjectDBX Classes
 90
        0
280
     0
281
     0
  0
CLASS
  1
TABLESTYLE
  2
AcDbTableStyle
  3
ObjectDBX Classes
 90
     4095
280
     0
281
     0
  0
CLASS
  1
MLEADERSTYLE
  2
AcDbMLeaderStyle
  3
ACDB_MLEADERSTYLE_CLASS
 90
     4095
280
     0
281
     0
  0
CLASS
  1
DICTIONARYVAR
  2
AcDbDictionaryVar
  3
ObjectDBX Classes
 90
        0
280
     0
281
     0
  0
ENDSEC
  0
SECTION
  2
TABLES
  0
TABLE
  2
VPORT
  5
8
330
0
100
AcDbSymbolTable
 70
     1
  0
VPORT
  5
29
330
8
100
AcDbSymbolTableRecord
100
AcDbViewportTableRecord
  2
*Active
 70
     0
 10
0.0
 20
0.0
 11
1.0
 21
1.0
 12
17.32233323979968
 22
-4.271282010974915
 13
0.0
 23
0.0
 14
10.0
 24
10.0
 15
10.0
 25
10.0
 16
0.0
 26
0.0
 36
1.0
 17
0.0
 27
0.0
 37
0.0
 40
93.22687891619039
 41
1.782762691853601
 42
50.0
 43
0.0
 44
0.0
 50
0.0
 51
0.0
 71
    16
 72
  2000
 73
     1
 74
     3
 75
     0
 76
     0
 77
     0
 78
     0
281
     0
 65
     1
110
0.0
120
0.0
130
0.0
111
1.0
121
0.0
131
0.0
112
0.0
122
1.0
132
0.0
 79
     0
146
0.0
  0
ENDTAB
  0
TABLE
  2
LTYPE
  5
5
330
0
100
AcDbSymbolTable
 70
     6
  0
LTYPE
  5
14
330
5
100
AcDbSymbolTableRecord
100
AcDbLinetypeTableRecord
  2
ByBlock
 70
     0
  3

 72
    65
 73
     0
 40
0.0
  0
LTYPE
  5
15
330
5
100
AcDbSymbolTableRecord
100
AcDbLinetypeTableRecord
  2
ByLayer
 70
     0
  3

 72
    65
 73
     0
 40
0.0
  0
LTYPE
  5
16
330
5
100
AcDbSymbolTableRecord
100
AcDbLinetypeTableRecord
  2
Continuous
 70
     0
  3
Solid line
 72
    65
 73
     0
 40
0.0
  0
LTYPE
  5
6A
330
5
100
AcDbSymbolTableRecord
100
AcDbLinetypeTableRecord
  2
HIDDEN
 70
     0
  3
Hidden __ __ __ __ __ __ __ __ __ __ __ __ __ __
 72
    65
 73
     2
 40
1.905
 49
1.27
 74
     0
 49
-0.635
 74
     0
  0
LTYPE
  5
6B
330
5
100
AcDbSymbolTableRecord
100
AcDbLinetypeTableRecord
  2
PHANTOM
 70
     0
  3
Phantom ______  __  __  ______  __  __  ______
 72
    65
 73
     6
 40
12.7
 49
6.35
 74
     0
 49
-1.27
 74
     0
 49
1.27
 74
     0
 49
-1.27
 74
     0
 49
1.27
 74
     0
 49
-1.27
 74
     0
  0
LTYPE
  5
6C
330
5
100
AcDbSymbolTableRecord
100
AcDbLinetypeTableRecord
  2
CENTER
 70
     0
  3
Center ____ _ ____ _ ____ _ ____ _ ____ _ ____
 72
    65
 73
     4
 40
10.16
 49
6.35
 74
     0
 49
-1.27
 74
     0
 49
1.27
 74
     0
 49
-1.27
 74
     0
  0
LTYPE
  5
6D
330
5
100
AcDbSymbolTableRecord
100
AcDbLinetypeTableRecord
  2
CENTERX2
 70
     0
  3
Center (2x) ________  __  ________  __  _____
 72
    65
 73
     4
 40
20.32
 49
12.7
 74
     0
 49
-2.54
 74
     0
 49
2.54
 74
     0
 49
-2.54
 74
     0
  0
LTYPE
  5
6E
330
5
100
AcDbSymbolTableRecord
100
AcDbLinetypeTableRecord
  2
DOT2
 70
     0
  3
Dot (.5x) ........................................
 72
    65
 73
     2
 40
0.635
 49
0.0
 74
     0
 49
-0.635
 74
     0
  0
ENDTAB
  0
TABLE
  2
LAYER
  5
2
102
{ACAD_XDICTIONARY
360
18D
102
}
330
0
100
AcDbSymbolTable
 70
    18
  0
LAYER
  5
10
330
2
100
AcDbSymbolTableRecord
100
AcDbLayerTableRecord
  2
0
 70
     0
 62
     7
  6
Continuous
370
    -3
390
F
  0
LAYER
  5
6F
330
2
100
AcDbSymbolTableRecord
100
AcDbLayerTableRecord
  2
FORMAT
 70
     0
 62
     2
  6
Continuous
370
    -3
390
F
  0
LAYER
  5
70
330
2
100
AcDbSymbolTableRecord
100
AcDbLayerTableRecord
  2
외형선
 70
     0
 62
     4
  6
Continuous
370
    30
390
F
  0
LAYER
  5
71
330
2
100
AcDbSymbolTableRecord
100
AcDbLayerTableRecord
  2
숨은선
 70
     0
 62
     2
  6
HIDDEN
370
    15
390
F
  0
LAYER
  5
72
330
2
100
AcDbSymbolTableRecord
100
AcDbLayerTableRecord
  2
중심선
 70
     0
 62
     1
  6
CENTERX2
370
    -3
390
F
  0
LAYER
  5
73
330
2
100
AcDbSymbolTableRecord
100
AcDbLayerTableRecord
  2
파단선
 70
     0
 62
     4
  6
Continuous
370
    -3
390
F
  0
LAYER
  5
74
330
2
100
AcDbSymbolTableRecord
100
AcDbLayerTableRecord
  2
해칭선
 70
     0
 62
   100
  6
Continuous
370
    -3
390
F
  0
LAYER
  5
75
330
2
100
AcDbSymbolTableRecord
100
AcDbLayerTableRecord
  2
가는실선
 70
     0
 62
     4
  6
Continuous
370
    -3
390
F
  0
LAYER
  5
76
330
2
100
AcDbSymbolTableRecord
100
AcDbLayerTableRecord
  2
치수_보조선
 70
     0
 62
     4
  6
Continuous
370
    -3
390
F
  0
LAYER
  5
77
330
2
100
AcDbSymbolTableRecord
100
AcDbLayerTableRecord
  2
치수문자_일반주서
 70
     0
 62
     7
  6
Continuous
370
    15
390
F
  0
LAYER
  5
78
330
2
100
AcDbSymbolTableRecord
100
AcDbLayerTableRecord
  2
개별주서
 70
     0
 62
   100
  6
Continuous
370
    30
390
F
  0
LAYER
  5
79
330
2
100
AcDbSymbolTableRecord
100
AcDbLayerTableRecord
  2
중간선
 70
     0
 62
     2
  6
Continuous
370
    15
390
F
  0
LAYER
  5
7A
330
2
100
AcDbSymbolTableRecord
100
AcDbLayerTableRecord
  2
윤곽선
 70
     0
 62
     3
  6
Continuous
370
    40
390
F
  0
LAYER
  5
7B
330
2
100
AcDbSymbolTableRecord
100
AcDbLayerTableRecord
  2
중심마크
 70
     0
 62
   100
  6
Continuous
370
    30
390
F
  0
LAYER
  5
7C
330
2
100
AcDbSymbolTableRecord
100
AcDbLayerTableRecord
  2
가상선
 70
     0
 62
     4
  6
PHANTOM
370
    -3
390
F
  0
LAYER
  5
7D
330
2
100
AcDbSymbolTableRecord
100
AcDbLayerTableRecord
  2
특수지정선
 70
     0
 62
     5
  6
CENTERX2
370
    60
390
F
  0
LAYER
  5
7E
330
2
100
AcDbSymbolTableRecord
100
AcDbLayerTableRecord
  2
참조1
 70
     0
 62
    -4
  6
Continuous
370
    -3
390
F
  0
LAYER
  5
1DC
330
2
100
AcDbSymbolTableRecord
100
AcDbLayerTableRecord
  2
Defpoints
 70
     0
 62
     7
  6
Continuous
290
     0
370
    -3
390
F
  0
ENDTAB
  0
TABLE
  2
STYLE
  5
3
330
0
100
AcDbSymbolTable
 70
     2
  0
STYLE
  5
11
330
3
100
AcDbSymbolTableRecord
100
AcDbTextStyleTableRecord
  2
Standard
 70
     0
 40
0.0
 41
1.0
 50
0.0
 71
     0
 42
3.5
  3
txt
  4

  0
STYLE
  5
94
330
3
100
AcDbSymbolTableRecord
100
AcDbTextStyleTableRecord
  2
SLDTEXTSTYLE0
 70
     0
 40
0.0
 41
0.75
 50
0.0
 71
     0
 42
3.5
  3
TXT
  4

  0
ENDTAB
  0
TABLE
  2
VIEW
  5
6
330
0
100
AcDbSymbolTable
 70
     0
  0
ENDTAB
  0
TABLE
  2
UCS
  5
7
330
0
100
AcDbSymbolTable
 70
     0
  0
ENDTAB
  0
TABLE
  2
APPID
  5
9
330
0
100
AcDbSymbolTable
 70
     2
  0
APPID
  5
12
330
9
100
AcDbSymbolTableRecord
100
AcDbRegAppTableRecord
  2
ACAD
 70
     0
  0
APPID
  5
142
330
9
100
AcDbSymbolTableRecord
100
AcDbRegAppTableRecord
  2
PE_URL
 70
     0
  0
ENDTAB
  0
TABLE
  2
DIMSTYLE
  5
A
330
0
100
AcDbSymbolTable
 70
     4
100
AcDbDimStyleTable
  0
DIMSTYLE
105
27
330
A
100
AcDbSymbolTableRecord
100
AcDbDimStyleTableRecord
  2
ISO-25
 70
     0
 41
2.5
 42
0.625
 43
3.75
 44
1.25
 73
     0
 74
     0
 77
     1
 78
     8
140
2.5
141
2.5
143
0.03937007874016
147
0.625
171
     3
172
     1
178
     0
271
     2
272
     2
274
     3
278
    44
283
     0
284
     8
340
11
  0
DIMSTYLE
105
C0
330
A
100
AcDbSymbolTableRecord
100
AcDbDimStyleTableRecord
  2
SLDDIMSTYLE0
 70
     0
 41
3.302
 44
0.0
 45
0.000000001
 73
     0
 74
     0
 77
     1
 78
    12
 79
     3
140
3.5
147
0.875
172
     1
173
     1
178
     0
271
     2
272
     2
276
     2
284
    12
289
     0
340
94
  0
DIMSTYLE
105
CE
102
{ACAD_REACTORS
330
CD
330
203
330
E3
330
F7
330
BF
102
}
330
A
100
AcDbSymbolTableRecord
100
AcDbDimStyleTableRecord
  2
SLDDIMSTYLE1
 70
     0
 41
3.302
 44
0.0
 45
0.000000001
 73
     0
 74
     0
 77
     1
 78
    12
 79
     3
140
3.5
143
0.0393700787401575
147
0.875
148
0.000000001
170
     1
172
     1
173
     1
178
     0
271
     2
272
     2
276
     2
284
    12
289
     0
340
94
  0
DIMSTYLE
105
E4
330
A
100
AcDbSymbolTableRecord
100
AcDbDimStyleTableRecord
  2
SLDDIMSTYLE2
 70
     0
 41
3.302
 44
0.0
 45
0.000000001
 73
     0
 74
     0
 77
     1
 78
     4
 79
     1
140
3.5
143
0.0393700787401575
147
0.875
148
0.000000001
170
     1
173
     1
178
     0
271
     2
272
     2
276
     2
284
    12
340
94
  0
ENDTAB
  0
TABLE
  2
BLOCK_RECORD
  5
1
330
0
100
AcDbSymbolTable
 70
    11
  0
BLOCK_RECORD
  5
1F
330
1
100
AcDbSymbolTableRecord
100
AcDbBlockTableRecord
  2
*Model_Space
340
22
  0
BLOCK_RECORD
  5
1B
330
1
100
AcDbSymbolTableRecord
100
AcDbBlockTableRecord
  2
*Paper_Space
340
1E
  0
BLOCK_RECORD
  5
23
330
1
100
AcDbSymbolTableRecord
100
AcDbBlockTableRecord
  2
*Paper_Space0
340
26
  0
BLOCK_RECORD
  5
7F
330
1
100
AcDbSymbolTableRecord
100
AcDbBlockTableRecord
  2
블럭10
340
0
102
{BLKREFS
331
B8
102
}
  0
BLOCK_RECORD
  5
C1
330
1
100
AcDbSymbolTableRecord
100
AcDbBlockTableRecord
  2
_D
340
0
  0
BLOCK_RECORD
  5
CF
330
1
100
AcDbSymbolTableRecord
100
AcDbBlockTableRecord
  2
_D_1
340
0
  0
BLOCK_RECORD
  5
E5
330
1
100
AcDbSymbolTableRecord
100
AcDbBlockTableRecord
  2
_D_2
340
0
  0
BLOCK_RECORD
  5
F8
330
1
100
AcDbSymbolTableRecord
100
AcDbBlockTableRecord
  2
_D_3
340
0
  0
BLOCK_RECORD
  5
111
330
1
100
AcDbSymbolTableRecord
100
AcDbBlockTableRecord
  2
SW_DOWELSYMBOL_0
340
0
102
{BLKREFS
331
117
331
182
331
0
102
}
  0
BLOCK_RECORD
  5
215
330
1
100
AcDbSymbolTableRecord
100
AcDbBlockTableRecord
  2
*D9
340
0
  0
BLOCK_RECORD
  5
227
330
1
100
AcDbSymbolTableRecord
100
AcDbBlockTableRecord
  2
*D10
340
0
  0
ENDTAB
  0
ENDSEC
  0
SECTION
  2
BLOCKS
  0
BLOCK
  5
20
330
1F
100
AcDbEntity
  8
0
100
AcDbBlockBegin
  2
*Model_Space
 70
     0
 10
0.0
 20
0.0
 30
0.0
  3
*Model_Space
  1

  0
ENDBLK
  5
21
330
1F
100
AcDbEntity
  8
0
100
AcDbBlockEnd
  0
BLOCK
  5
1C
330
1B
100
AcDbEntity
 67
     1
  8
0
100
AcDbBlockBegin
  2
*Paper_Space
 70
     0
 10
0.0
 20
0.0
 30
0.0
  3
*Paper_Space
  1

  0
ENDBLK
  5
1D
330
1B
100
AcDbEntity
 67
     1
  8
0
100
AcDbBlockEnd
  0
BLOCK
  5
24
330
23
100
AcDbEntity
  8
0
100
AcDbBlockBegin
  2
*Paper_Space0
 70
     0
 10
0.0
 20
0.0
 30
0.0
  3
*Paper_Space0
  1

  0
ENDBLK
  5
25
330
23
100
AcDbEntity
  8
0
100
AcDbBlockEnd
  0
BLOCK
  5
80
330
7F
100
AcDbEntity
  8
0
100
AcDbBlockBegin
  2
블럭10
 70
     2
 10
0.0
 20
0.0
 30
0.0
  3
블럭10
  1

  0
ELLIPSE
  5
82
330
7F
100
AcDbEntity
  8
중심선
100
AcDbEllipse
 10
20.54032771741204
 20
12.0471743016438
 30
0.0
 11
6.600054785286829
 21
-1.261213355974178E-13
 31
0.0
210
0.0
220
0.0
230
1.0
 40
0.636358354079598
 41
0.9219305317359503
 42
6.513795318482858
  0
ELLIPSE
  5
83
330
7F
100
AcDbEntity
  8
중심선
100
AcDbEllipse
 10
20.54032771746488
 20
12.04717430159265
 30
0.0
 11
3.960054785062283
 21
1.540847449632565E-10
 31
0.0
210
0.0
220
0.0
230
1.0
 40
0.3939339440162632
 41
1.131841032648279
 42
5.62031148352944
  0
LINE
  5
84
330
7F
100
AcDbEntity
  8
중심선
100
AcDbLine
 10
2.268634060543552
 20
16.24717430164393
 30
0.0
 11
5.714909304380834
 21
16.24717430164393
 31
0.0
  0
LINE
  5
85
330
7F
100
AcDbEntity
  8
중심선
100
AcDbLine
 10
5.245725140726316
 20
7.84717430164391
 30
0.0
 11
8.692000384563599
 21
7.84717430164391
 31
0.0
  0
LINE
  5
86
330
7F
100
AcDbEntity
  8
중심선
100
AcDbLine
 10
15.74043728645272
 20
16.24717430164393
 30
0.0
 11
8.692000384563599
 21
7.84717430164391
 31
0.0
  0
LINE
  5
87
330
7F
100
AcDbEntity
  8
중심선
100
AcDbLine
 10
0.1404042013395286
 20
13.71084872107135
 30
0.0
 11
3.58671253028996
 21
13.71088815037384
 31
0.0
  0
LINE
  5
88
330
7F
100
AcDbEntity
  8
중심선
100
AcDbLine
 10
2.750260043222114
 20
10.84717430164391
 30
0.0
 11
6.196535287059397
 21
10.84717430164391
 31
0.0
  0
LINE
  5
89
330
7F
100
AcDbEntity
  8
중심선
100
AcDbLine
 10
12.29416204261559
 20
16.24717430164393
 30
0.0
 11
5.245725140726316
 21
7.84717430164391
 31
0.0
  0
LINE
  5
8A
330
7F
100
AcDbEntity
  8
중심선
100
AcDbLine
 10
10.72767329541681
 20
16.24717430164393
 30
0.0
 11
6.196535287059397
 21
10.84717430164391
 31
0.0
  0
LINE
  5
8B
330
7F
100
AcDbEntity
  8
중심선
100
AcDbLine
 10
7.28139805157953
 20
16.24717430164393
 30
0.0
 11
2.750260043222114
 21
10.84717430164391
 31
0.0
  0
LINE
  5
8C
330
7F
100
AcDbEntity
  8
중심선
100
AcDbLine
 10
5.714909304380834
 20
16.24717430164393
 30
0.0
 11
3.58671253028996
 21
13.71088815037384
 31
0.0
  0
LINE
  5
8D
330
7F
100
AcDbEntity
  8
중심선
100
AcDbLine
 10
2.268634060543552
 20
16.24717430164393
 30
0.0
 11
0.1404042013395286
 21
13.71084872107135
 31
0.0
  0
LINE
  5
8E
330
7F
100
AcDbEntity
  8
중심선
100
AcDbLine
 10
7.28139805157953
 20
16.24717430164393
 30
0.0
 11
10.72767329541681
 21
16.24717430164393
 31
0.0
  0
LINE
  5
8F
330
7F
100
AcDbEntity
  8
중심선
100
AcDbLine
 10
12.29416204261559
 20
16.24717430164393
 30
0.0
 11
15.74043728645272
 21
16.24717430164393
 31
0.0
  0
LINE
  5
90
330
7F
100
AcDbEntity
  8
중심선
100
AcDbLine
 10
19.22036997980202
 20
11.08717430171403
 30
0.0
 11
23.66174974927406
 21
11.08717430171406
 31
0.0
  0
LINE
  5
91
330
7F
100
AcDbEntity
  8
중심선
100
AcDbLine
 10
19.22039502424796
 20
13.00717430171391
 30
0.0
 11
19.22036997980202
 21
11.08717430171403
 31
0.0
  0
LINE
  5
92
330
7F
100
AcDbEntity
  8
중심선
100
AcDbLine
 10
19.22039502424796
 20
13.00717430171391
 30
0.0
 11
26.96566020931264
 21
13.00717430171391
 31
0.0
  0
LINE
  5
93
330
7F
100
AcDbEntity
  8
중심선
100
AcDbLine
 10
22.22332737316547
 20
13.45928029700563
 30
0.0
 11
24.52862924686651
 21
15.39360700705356
 31
0.0
  0
ATTDEF
  5
95
330
7F
100
AcDbEntity
  8
FORMAT
 62
     2
100
AcDbText
 10
4.408487351596664
 20
2.075366912832191
 30
0.0
 40
4.233333333333333
  1
E1030030
 41
0.75
  7
SLDTEXTSTYLE0
 11
4.408487351596664
 21
-0.0412997538344756
 31
0.0
100
AcDbAttributeDefinition
  3

  2
AUTOATTR0
 70
     0
 74
     1
  0
ENDBLK
  5
81
330
7F
100
AcDbEntity
  8
0
100
AcDbBlockEnd
  0
BLOCK
  5
C2
330
C1
100
AcDbEntity
  8
0
100
AcDbBlockBegin
  2
_D
 70
     0
 10
0.0
 20
0.0
 30
0.0
  3
_D
  1

  0
LINE
  5
C4
330
C1
100
AcDbEntity
  8
치수문자_일반주서
 62
     0
370
    -2
100
AcDbLine
 10
-38.18442116787305
 20
4.763574928723896
 30
0.0
 11
-49.12192116787307
 21
4.763574928723859
 31
0.0
  0
LINE
  5
C5
330
C1
100
AcDbEntity
  8
치수문자_일반주서
 62
     0
370
    -2
100
AcDbLine
 10
-38.18442116787305
 20
-4.761425071276109
 30
0.0
 11
-49.12192116787303
 21
-4.761425071276147
 31
0.0
  0
LINE
  5
C6
330
C1
100
AcDbEntity
  8
치수문자_일반주서
 62
     0
370
    -2
100
AcDbLine
 10
-49.12192116787307
 20
4.763574928723859
 30
0.0
 11
-49.12192116787319
 21
37.61757492872385
 31
0.0
  0
LINE
  5
C7
330
C1
100
AcDbEntity
  8
치수문자_일반주서
 62
     0
370
    -2
100
AcDbLine
 10
-49.12192116787307
 20
4.763574928723859
 30
0.0
 11
-49.12192116787303
 21
-4.761425071276147
 31
0.0
  0
LINE
  5
C8
330
C1
100
AcDbEntity
  8
치수문자_일반주서
 62
     0
370
    -2
100
AcDbLine
 10
-49.12192116787308
 20
8.065574928723859
 30
0.0
 11
-49.1219211678731
 21
11.36757492872386
 31
0.0
  0
LINE
  5
C9
330
C1
100
AcDbEntity
  8
치수문자_일반주서
 62
     0
370
    -2
100
AcDbLine
 10
-49.12192116787302
 20
-8.063425071276146
 30
0.0
 11
-49.121921167873
 21
-11.36542507127615
 31
0.0
  0
SOLID
  5
CA
330
C1
100
AcDbEntity
  8
치수문자_일반주서
 62
     0
100
AcDbTrace
 10
-49.67225450120642
 20
8.065574928723857
 30
0.0
 11
-48.57158783453975
 21
8.06557492872386
 31
0.0
 12
-49.12192116787307
 22
4.763574928723859
 32
0.0
 13
-49.12192116787307
 23
4.763574928723859
 33
0.0
  0
SOLID
  5
CB
330
C1
100
AcDbEntity
  8
치수문자_일반주서
 62
     0
100
AcDbTrace
 10
-48.57158783453968
 20
-8.063425071276145
 30
0.0
 11
-49.67225450120635
 21
-8.063425071276148
 31
0.0
 12
-49.12192116787303
 22
-4.761425071276147
 32
0.0
 13
-49.12192116787303
 23
-4.761425071276147
 33
0.0
  0
MTEXT
  5
CC
330
C1
100
AcDbEntity
  8
치수문자_일반주서
 62
     0
100
AcDbMText
 10
-53.49692116787314
 20
24.49257492872384
 30
0.0
 40
3.5
 41
0.0
 71
     2
 72
     1
  1
\A1;%%c9.53 [3/8]
  7
SLDTEXTSTYLE0
 11
-3.729883127349605E-15
 21
1.0
 31
0.0
 73
     1
 44
1.0
  0
POINT
  5
239
330
C1
100
AcDbEntity
  8
Defpoints
 62
     0
100
AcDbPoint
 10
-38.12192116787305
 20
4.763574928723896
 30
0.0
  0
POINT
  5
23A
330
C1
100
AcDbEntity
  8
Defpoints
 62
     0
100
AcDbPoint
 10
-38.12192116787305
 20
-4.761425071276109
 30
0.0
  0
POINT
  5
23B
330
C1
100
AcDbEntity
  8
Defpoints
 62
     0
100
AcDbPoint
 10
-49.12192116787303
 20
-4.761425071276148
 30
0.0
  0
ENDBLK
  5
C3
330
C1
100
AcDbEntity
  8
0
100
AcDbBlockEnd
  0
BLOCK
  5
D0
330
CF
100
AcDbEntity
  8
0
100
AcDbBlockBegin
  2
_D_1
 70
     0
 10
0.0
 20
0.0
 30
0.0
  3
_D_1
  1

  0
LINE
  5
D2
330
CF
100
AcDbEntity
  8
치수문자_일반주서
 62
     0
370
    -2
100
AcDbLine
 10
24.37807883212694
 20
6.011668438137864
 30
0.0
 11
24.37807883212694
 21
14.95781951990221
 31
0.0
  0
LINE
  5
D3
330
CF
100
AcDbEntity
  8
치수문자_일반주서
 62
     0
370
    -2
100
AcDbLine
 10
3.740578832126938
 20
4.595452693665671
 30
0.0
 11
3.740578832126936
 21
14.95781951990221
 31
0.0
  0
LINE
  5
D4
330
CF
100
AcDbEntity
  8
치수문자_일반주서
 62
     0
370
    -2
100
AcDbLine
 10
24.37807883212694
 20
14.95781951990221
 30
0.0
 11
60.29457883212694
 21
14.95781951990221
 31
0.0
  0
LINE
  5
D5
330
CF
100
AcDbEntity
  8
치수문자_일반주서
 62
     0
370
    -2
100
AcDbLine
 10
24.37807883212694
 20
14.95781951990221
 30
0.0
 11
3.740578832126936
 21
14.95781951990221
 31
0.0
  0
LINE
  5
D6
330
CF
100
AcDbEntity
  8
치수문자_일반주서
 62
     0
370
    -2
100
AcDbLine
 10
27.68007883212694
 20
14.95781951990221
 30
0.0
 11
30.98207883212694
 21
14.95781951990221
 31
0.0
  0
LINE
  5
D7
330
CF
100
AcDbEntity
  8
치수문자_일반주서
 62
     0
370
    -2
100
AcDbLine
 10
0.4385788321269359
 20
14.95781951990221
 30
0.0
 11
-2.863421167873064
 21
14.95781951990221
 31
0.0
  0
SOLID
  5
D8
330
CF
100
AcDbEntity
  8
치수문자_일반주서
 62
     0
100
AcDbTrace
 10
27.68007883212694
 20
15.50815285323555
 30
0.0
 11
27.68007883212694
 21
14.40748618656888
 31
0.0
 12
24.37807883212694
 22
14.95781951990221
 32
0.0
 13
24.37807883212694
 23
14.95781951990221
 33
0.0
  0
SOLID
  5
D9
330
CF
100
AcDbEntity
  8
치수문자_일반주서
 62
     0
100
AcDbTrace
 10
0.4385788321269359
 20
14.40748618656888
 30
0.0
 11
0.4385788321269359
 21
15.50815285323555
 31
0.0
 12
3.740578832126936
 22
14.95781951990221
 32
0.0
 13
3.740578832126936
 23
14.95781951990221
 33
0.0
  0
MTEXT
  5
DA
330
CF
100
AcDbEntity
  8
치수문자_일반주서
 62
     0
100
AcDbMText
 10
45.63832883212694
 20
19.33281951990221
 30
0.0
 40
3.5
 41
0.0
 71
     2
 72
     1
  1
\A1;20.64 [13/16]
  7
SLDTEXTSTYLE0
 73
     1
 44
1.0
  0
POINT
  5
23C
330
CF
100
AcDbEntity
  8
Defpoints
 62
     0
100
AcDbPoint
 10
24.37807883212694
 20
5.949168438137864
 30
0.0
  0
POINT
  5
23D
330
CF
100
AcDbEntity
  8
Defpoints
 62
     0
100
AcDbPoint
 10
3.740578832126938
 20
4.532952693665671
 30
0.0
  0
POINT
  5
23E
330
CF
100
AcDbEntity
  8
Defpoints
 62
     0
100
AcDbPoint
 10
3.740578832126938
 20
14.95781951990221
 30
0.0
  0
ENDBLK
  5
D1
330
CF
100
AcDbEntity
  8
0
100
AcDbBlockEnd
  0
BLOCK
  5
E6
330
E5
100
AcDbEntity
  8
0
100
AcDbBlockBegin
  2
_D_2
 70
     0
 10
0.0
 20
0.0
 30
0.0
  3
_D_2
  1

  0
LINE
  5
E8
330
E5
100
AcDbEntity
  8
치수문자_일반주서
 62
     0
370
    -2
100
AcDbLine
 10
24.37807883212694
 20
6.011668438137864
 30
0.0
 11
24.37807883212695
 21
24.74314381752739
 31
0.0
  0
LINE
  5
E9
330
E5
100
AcDbEntity
  8
치수문자_일반주서
 62
     0
370
    -2
100
AcDbLine
 10
-39.12192116787307
 20
3.826074928723889
 30
0.0
 11
-39.12192116787307
 21
24.74314381752739
 31
0.0
  0
LINE
  5
EA
330
E5
100
AcDbEntity
  8
치수문자_일반주서
 62
     0
370
    -2
100
AcDbLine
 10
21.07607883212695
 20
24.74314381752739
 30
0.0
 11
-35.81992116787307
 21
24.74314381752739
 31
0.0
  0
SOLID
  5
EB
330
E5
100
AcDbEntity
  8
치수문자_일반주서
 62
     0
100
AcDbTrace
 10
21.07607883212695
 20
24.19281048419405
 30
0.0
 11
21.07607883212695
 21
25.29347715086072
 31
0.0
 12
24.37807883212695
 22
24.74314381752739
 32
0.0
 13
24.37807883212695
 23
24.74314381752739
 33
0.0
  0
SOLID
  5
EC
330
E5
100
AcDbEntity
  8
치수문자_일반주서
 62
     0
100
AcDbTrace
 10
-35.81992116787307
 20
25.29347715086072
 30
0.0
 11
-35.81992116787307
 21
24.19281048419405
 31
0.0
 12
-39.12192116787307
 22
24.74314381752739
 32
0.0
 13
-39.12192116787307
 23
24.74314381752739
 33
0.0
  0
MTEXT
  5
ED
330
E5
100
AcDbEntity
  8
치수문자_일반주서
 62
     0
100
AcDbMText
 10
-7.371921167873058
 20
29.11814381752739
 30
0.0
 40
3.5
 41
0.0
 71
     2
 72
     1
  1
\A1;63.5 [2 1/2]
  7
SLDTEXTSTYLE0
 73
     1
 44
1.0
  0
POINT
  5
EE
330
E5
100
AcDbEntity
  8
Defpoints
 62
     0
100
AcDbPoint
 10
24.37807883212694
 20
5.949168438137864
 30
0.0
  0
POINT
  5
EF
330
E5
100
AcDbEntity
  8
Defpoints
 62
     0
100
AcDbPoint
 10
-39.12192116787307
 20
3.763574928723889
 30
0.0
  0
POINT
  5
F0
330
E5
100
AcDbEntity
  8
Defpoints
 62
     0
100
AcDbPoint
 10
-39.12192116787307
 20
24.74314381752739
 30
0.0
  0
ENDBLK
  5
E7
330
E5
100
AcDbEntity
  8
0
100
AcDbBlockEnd
  0
BLOCK
  5
F9
330
F8
100
AcDbEntity
  8
0
100
AcDbBlockBegin
  2
_D_3
 70
     0
 10
0.0
 20
0.0
 30
0.0
  3
_D_3
  1

  0
LINE
  5
FB
330
F8
100
AcDbEntity
  8
치수문자_일반주서
 62
     0
370
    -2
100
AcDbLine
 10
24.44057883212693
 20
-5.947018580690078
 30
0.0
 11
66.94634917785405
 21
-5.947018580689932
 31
0.0
  0
LINE
  5
FC
330
F8
100
AcDbEntity
  8
치수문자_일반주서
 62
     0
370
    -2
100
AcDbLine
 10
24.44057883212693
 20
5.949168438137865
 30
0.0
 11
66.946349177854
 21
5.949168438138013
 31
0.0
  0
LINE
  5
FD
330
F8
100
AcDbEntity
  8
치수문자_일반주서
 62
     0
370
    -2
100
AcDbLine
 10
66.946349177854
 20
5.949168438138013
 30
0.0
 11
66.94634917785388
 21
41.42816843813802
 31
0.0
  0
LINE
  5
FE
330
F8
100
AcDbEntity
  8
치수문자_일반주서
 62
     0
370
    -2
100
AcDbLine
 10
66.94634917785405
 20
-5.947018580689932
 30
0.0
 11
66.946349177854
 21
5.949168438138013
 31
0.0
  0
LINE
  5
FF
330
F8
100
AcDbEntity
  8
치수문자_일반주서
 62
     0
370
    -2
100
AcDbLine
 10
66.94634917785406
 20
-9.249018580689931
 30
0.0
 11
66.94634917785407
 21
-12.55101858068993
 31
0.0
  0
LINE
  5
100
330
F8
100
AcDbEntity
  8
치수문자_일반주서
 62
     0
370
    -2
100
AcDbLine
 10
66.94634917785399
 20
9.251168438138013
 30
0.0
 11
66.94634917785397
 21
12.55316843813801
 31
0.0
  0
SOLID
  5
101
330
F8
100
AcDbEntity
  8
치수문자_일반주서
 62
     0
100
AcDbTrace
 10
67.49668251118739
 20
-9.24901858068993
 30
0.0
 11
66.39601584452073
 21
-9.249018580689933
 31
0.0
 12
66.94634917785405
 22
-5.947018580689932
 32
0.0
 13
66.94634917785405
 23
-5.947018580689932
 33
0.0
  0
SOLID
  5
102
330
F8
100
AcDbEntity
  8
치수문자_일반주서
 62
     0
100
AcDbTrace
 10
66.39601584452066
 20
9.251168438138011
 30
0.0
 11
67.49668251118732
 21
9.251168438138015
 31
0.0
 12
66.946349177854
 22
5.949168438138013
 32
0.0
 13
66.946349177854
 23
5.949168438138013
 33
0.0
  0
MTEXT
  5
103
330
F8
100
AcDbEntity
  8
치수문자_일반주서
 62
     0
100
AcDbMText
 10
62.57134917785393
 20
26.99066843813799
 30
0.0
 40
3.5
 41
0.0
 71
     2
 72
     1
  1
\A1;%%c11.9 [15/32]
  7
SLDTEXTSTYLE0
 11
-3.583716705035992E-15
 21
1.0
 31
0.0
 73
     1
 44
1.0
  0
POINT
  5
104
330
F8
100
AcDbEntity
  8
Defpoints
 62
     0
100
AcDbPoint
 10
24.37807883212693
 20
-5.947018580690078
 30
0.0
  0
POINT
  5
105
330
F8
100
AcDbEntity
  8
Defpoints
 62
     0
100
AcDbPoint
 10
24.37807883212693
 20
5.949168438137865
 30
0.0
  0
POINT
  5
106
330
F8
100
AcDbEntity
  8
Defpoints
 62
     0
100
AcDbPoint
 10
66.946349177854
 20
5.949168438138013
 30
0.0
  0
ENDBLK
  5
FA
330
F8
100
AcDbEntity
  8
0
100
AcDbBlockEnd
  0
BLOCK
  5
112
330
111
100
AcDbEntity
  8
0
100
AcDbBlockBegin
  2
SW_DOWELSYMBOL_0
 70
     0
 10
0.0
 20
0.0
 30
0.0
  3
SW_DOWELSYMBOL_0
  1

  0
CIRCLE
  5
114
330
111
100
AcDbEntity
  8
해칭선
 62
     0
100
AcDbCircle
 10
0.0
 20
0.0
 30
0.0
 40
3.000000000000001
  0
HATCH
  5
115
330
111
100
AcDbEntity
  8
0
  6
Continuous
 62
     0
370
     0
100
AcDbHatch
 10
0.0
 20
0.0
 30
0.0
210
0.0
220
0.0
230
1.0
  2
SOLID
 70
     1
 71
     0
 91
        1
 92
        0
 93
        3
 72
     2
 10
-0.0000000000000017
 20
0.0
 40
3.000000000000001
 50
0.0
 51
90.0
 73
     1
 72
     1
 10
-0.0000000000000017
 20
3.000000000000001
 11
-0.0000000000000017
 21
0.0
 72
     1
 10
-0.0000000000000017
 20
0.0
 11
3.0
 21
0.0
 97
        0
 75
     0
 76
     1
 98
        1
 10
0.0
 20
0.0
  0
HATCH
  5
116
330
111
100
AcDbEntity
  8
0
  6
Continuous
 62
     0
370
     0
100
AcDbHatch
 10
0.0
 20
0.0
 30
0.0
210
0.0
220
0.0
230
1.0
  2
SOLID
 70
     1
 71
     0
 91
        1
 92
        0
 93
        3
 72
     2
 10
-0.0000000000000017
 20
0.0
 40
3.000000000000001
 50
180.0
 51
270.0000000000008
 73
     1
 72
     1
 10
-0.0000000000000017
 20
-3.000000000000001
 11
-0.0000000000000017
 21
0.0
 72
     1
 10
-0.0000000000000017
 20
0.0
 11
-3.000000000000003
 21
0.0
 97
        0
 75
     0
 76
     1
 98
        1
 10
0.0
 20
0.0
  0
ENDBLK
  5
113
330
111
100
AcDbEntity
  8
0
100
AcDbBlockEnd
  0
BLOCK
  5
216
330
215
100
AcDbEntity
  8
0
100
AcDbBlockBegin
  2
*D9
 70
     1
 10
0.0
 20
0.0
 30
0.0
  3
*D9
  1

  0
LINE
  5
218
330
215
100
AcDbEntity
  8
치수문자_일반주서
 62
     0
370
    -2
100
AcDbLine
 10
27.24149999999999
 20
3.631580296889929
 30
0.0
 11
27.24149999999999
 21
13.37483570571161
 31
0.0
  0
LINE
  5
219
330
215
100
AcDbEntity
  8
치수문자_일반주서
 62
     0
370
    -2
100
AcDbLine
 10
6.604000000000002
 20
3.206713470653397
 30
0.0
 11
6.603999999999999
 21
13.37483570571161
 31
0.0
  0
LINE
  5
21A
330
215
100
AcDbEntity
  8
치수문자_일반주서
 62
     0
370
    -2
100
AcDbLine
 10
27.24149999999999
 20
13.37483570571161
 30
0.0
 11
63.15799999999999
 21
13.37483570571161
 31
0.0
  0
LINE
  5
21B
330
215
100
AcDbEntity
  8
치수문자_일반주서
 62
     0
370
    -2
100
AcDbLine
 10
27.24149999999999
 20
13.37483570571161
 30
0.0
 11
6.603999999999999
 21
13.37483570571161
 31
0.0
  0
LINE
  5
21C
330
215
100
AcDbEntity
  8
치수문자_일반주서
 62
     0
370
    -2
100
AcDbLine
 10
30.54349999999999
 20
13.37483570571161
 30
0.0
 11
33.84549999999999
 21
13.37483570571161
 31
0.0
  0
LINE
  5
21D
330
215
100
AcDbEntity
  8
치수문자_일반주서
 62
     0
370
    -2
100
AcDbLine
 10
3.302
 20
13.37483570571161
 30
0.0
 11
0.0
 21
13.37483570571161
 31
0.0
  0
SOLID
  5
21E
330
215
100
AcDbEntity
  8
치수문자_일반주서
 62
     0
100
AcDbTrace
 10
30.54349999999999
 20
13.92516903904494
 30
0.0
 11
30.54349999999999
 21
12.82450237237827
 31
0.0
 12
27.24149999999999
 22
13.37483570571161
 32
0.0
 13
27.24149999999999
 23
13.37483570571161
 33
0.0
  0
SOLID
  5
21F
330
215
100
AcDbEntity
  8
치수문자_일반주서
 62
     0
100
AcDbTrace
 10
3.302
 20
12.82450237237827
 30
0.0
 11
3.302
 21
13.92516903904494
 31
0.0
 12
6.603999999999999
 22
13.37483570571161
 32
0.0
 13
6.603999999999999
 23
13.37483570571161
 33
0.0
  0
MTEXT
  5
220
330
215
100
AcDbEntity
  8
치수문자_일반주서
 62
     0
100
AcDbMText
 10
48.50174999999999
 20
17.7498357057116
 30
0.0
 40
3.5
 41
0.0
 71
     2
 72
     1
  1
\A1;20.64 [13/16]
  7
SLDTEXTSTYLE0
 73
     1
 44
1.0
  0
POINT
  5
221
330
215
100
AcDbEntity
  8
Defpoints
 62
     0
100
AcDbPoint
 10
27.24149999999999
 20
3.569080296889929
 30
0.0
  0
POINT
  5
222
330
215
100
AcDbEntity
  8
Defpoints
 62
     0
100
AcDbPoint
 10
6.604000000000002
 20
3.144213470653397
 30
0.0
  0
POINT
  5
223
330
215
100
AcDbEntity
  8
Defpoints
 62
     0
100
AcDbPoint
 10
6.604000000000002
 20
13.37483570571161
 30
0.0
  0
ENDBLK
  5
217
330
215
100
AcDbEntity
  8
0
100
AcDbBlockEnd
  0
BLOCK
  5
228
330
227
100
AcDbEntity
  8
0
100
AcDbBlockBegin
  2
*D10
 70
     1
 10
0.0
 20
0.0
 30
0.0
  3
*D10
  1

  0
LINE
  5
22A
330
227
100
AcDbEntity
  8
치수문자_일반주서
 62
     0
370
    -2
100
AcDbLine
 10
49.03984081568795
 20
-26.13518314507498
 30
0.0
 11
49.03984081568795
 21
-16.3919277362533
 31
0.0
  0
LINE
  5
22B
330
227
100
AcDbEntity
  8
치수문자_일반주서
 62
     0
370
    -2
100
AcDbLine
 10
28.40234081568796
 20
-26.56004997131151
 30
0.0
 11
28.40234081568796
 21
-16.3919277362533
 31
0.0
  0
LINE
  5
22C
330
227
100
AcDbEntity
  8
치수문자_일반주서
 62
     0
370
    -2
100
AcDbLine
 10
49.03984081568795
 20
-16.3919277362533
 30
0.0
 11
84.95634081568795
 21
-16.3919277362533
 31
0.0
  0
LINE
  5
22D
330
227
100
AcDbEntity
  8
치수문자_일반주서
 62
     0
370
    -2
100
AcDbLine
 10
49.03984081568795
 20
-16.3919277362533
 30
0.0
 11
28.40234081568796
 21
-16.3919277362533
 31
0.0
  0
LINE
  5
22E
330
227
100
AcDbEntity
  8
치수문자_일반주서
 62
     0
370
    -2
100
AcDbLine
 10
52.34184081568795
 20
-16.3919277362533
 30
0.0
 11
55.64384081568795
 21
-16.3919277362533
 31
0.0
  0
LINE
  5
22F
330
227
100
AcDbEntity
  8
치수문자_일반주서
 62
     0
370
    -2
100
AcDbLine
 10
25.10034081568796
 20
-16.3919277362533
 30
0.0
 11
21.79834081568796
 21
-16.3919277362533
 31
0.0
  0
SOLID
  5
230
330
227
100
AcDbEntity
  8
치수문자_일반주서
 62
     0
100
AcDbTrace
 10
52.34184081568795
 20
-15.84159440291997
 30
0.0
 11
52.34184081568795
 21
-16.94226106958664
 31
0.0
 12
49.03984081568795
 22
-16.3919277362533
 32
0.0
 13
49.03984081568795
 23
-16.3919277362533
 33
0.0
  0
SOLID
  5
231
330
227
100
AcDbEntity
  8
치수문자_일반주서
 62
     0
100
AcDbTrace
 10
25.10034081568796
 20
-16.94226106958664
 30
0.0
 11
25.10034081568796
 21
-15.84159440291997
 31
0.0
 12
28.40234081568796
 22
-16.3919277362533
 32
0.0
 13
28.40234081568796
 23
-16.3919277362533
 33
0.0
  0
MTEXT
  5
232
330
227
100
AcDbEntity
  8
치수문자_일반주서
 62
     0
100
AcDbMText
 10
70.30009081568795
 20
-12.0169277362533
 30
0.0
 40
3.5
 41
0.0
 71
     2
 72
     1
  1
\A1;20.64 [13/16]
  7
SLDTEXTSTYLE0
 73
     1
 44
1.0
  0
POINT
  5
233
330
227
100
AcDbEntity
  8
Defpoints
 62
     0
100
AcDbPoint
 10
49.03984081568795
 20
-26.19768314507498
 30
0.0
  0
POINT
  5
234
330
227
100
AcDbEntity
  8
Defpoints
 62
     0
100
AcDbPoint
 10
28.40234081568796
 20
-26.62254997131151
 30
0.0
  0
POINT
  5
235
330
227
100
AcDbEntity
  8
Defpoints
 62
     0
100
AcDbPoint
 10
28.40234081568796
 20
-16.3919277362533
 30
0.0
  0
ENDBLK
  5
229
330
227
100
AcDbEntity
  8
0
100
AcDbBlockEnd
  0
ENDSEC
  0
SECTION
  2
ENTITIES
  0
LINE
  5
96
330
1F
100
AcDbEntity
  8
0
  6
Continuous
 62
     1
370
    15
100
AcDbLine
 10
5.619856250407188
 20
1.700472343745146
 30
0.0
 11
5.597829152103517
 21
1.71260531972874
 31
0.0
1001
PE_URL
1000

  0
SPLINE
  5
97
330
1F
100
AcDbEntity
  8
0
  6
Continuous
 62
     1
370
    15
100
AcDbSpline
210
0.0
220
0.0
230
1.0
 70
     8
 71
     3
 72
    22
 73
    18
 74
     0
 42
0.000000001
 43
0.00000001
 40
0.0
 40
0.0
 40
0.0
 40
0.0
 40
0.1363774704017875
 40
0.2382630200188035
 40
0.2980241037408092
 40
0.3327459532430084
 40
0.3639164115720553
 40
0.4033679744295273
 40
0.4511083910790704
 40
0.5041230411836819
 40
0.5507165454180167
 40
0.6081242081503191
 40
0.6566969669244481
 40
0.7191754270152189
 40
0.7969264136669523
 40
0.8898434922140446
 40
1.0
 40
1.0
 40
1.0
 40
1.0
 10
8.955543845498266
 20
1.526557606142628
 30
0.0
 10
8.879894849573764
 20
1.562175309512071
 30
0.0
 10
8.747729630661436
 20
1.624402461445123
 30
0.0
 10
8.582791438642191
 20
1.703691303402529
 30
0.0
 10
8.474215354059018
 20
1.756383292616408
 30
0.0
 10
8.405512830401515
 20
1.789937047929371
 30
0.0
 10
8.348008205430343
 20
1.818137363335771
 30
0.0
 10
8.282884595618878
 20
1.850217171233613
 30
0.0
 10
8.205562576615641
 20
1.888517705419564
 30
0.0
 10
8.124135811062223
 20
1.929109640041758
 30
0.0
 10
8.037680962058849
 20
1.972479728260199
 30
0.0
 10
7.95477552259978
 20
2.014336641985831
 30
0.0
 10
7.862887599929684
 20
2.061021076097756
 30
0.0
 10
7.754537722202689
 20
2.116486744148001
 30
0.0
 10
7.619642246455681
 20
2.186011982827872
 30
0.0
 10
7.46431830938783
 20
2.26707009010392
 30
0.0
 10
7.359768260019394
 20
2.322495611615792
 30
0.0
 10
7.303055476563708
 20
2.352560978570755
 30
0.0
1001
PE_URL
1000

  0
SPLINE
  5
98
330
1F
100
AcDbEntity
  8
0
  6
Continuous
 62
     1
370
    15
100
AcDbSpline
210
0.0
220
0.0
230
1.0
 70
     8
 71
     3
 72
    27
 73
    23
 74
     0
 42
0.000000001
 43
0.00000001
 40
0.0
 40
0.0
 40
0.0
 40
0.0
 40
0.0764511046057944
 40
0.1433583822033224
 40
0.2006183894574713
 40
0.2534470922680331
 40
0.2940307719605132
 40
0.322552397706353
 40
0.3459083512782782
 40
0.3700396611151887
 40
0.3950274568561806
 40
0.420945333470561
 40
0.4478597781290367
 40
0.4851867814787701
 40
0.5240108860416026
 40
0.5643267247135204
 40
0.6093620654306775
 40
0.6594149111356947
 40
0.7234453355412737
 40
0.8015452357904398
 40
0.8937448667809159
 40
1.0
 40
1.0
 40
1.0
 40
1.0
 10
6.98738690240497
 20
4.731659771365067
 30
0.0
 10
6.905749307680866
 20
4.727386402216688
 30
0.0
 10
6.752665404355144
 20
4.719373132940489
 30
0.0
 10
6.537688804257263
 20
4.709201103896543
 30
0.0
 10
6.34729507684768
 20
4.700807805137271
 30
0.0
 10
6.184274200402564
 20
4.694164523003358
 30
0.0
 10
6.051333129021737
 20
4.689128674295271
 30
0.0
 10
5.949394464109748
 20
4.685520245893927
 30
0.0
 10
5.865703059147423
 20
4.682654112491847
 30
0.0
 10
5.785915421443813
 20
4.67999570606097
 30
0.0
 10
5.703715823732379
 20
4.677371744447365
 30
0.0
 10
5.619025090923409
 20
4.674798766403033
 30
0.0
 10
5.522029646034272
 20
4.672012026139174
 30
0.0
 10
5.411510294856061
 20
4.669034273174096
 30
0.0
 10
5.285939742170594
 20
4.665913507601654
 30
0.0
 10
5.151752166111232
 20
4.662879496707238
 30
0.0
 10
5.005025953161015
 20
4.659919400516122
 30
0.0
 10
4.832637159402735
 20
4.656914531473299
 30
0.0
 10
4.62436827094113
 20
4.653977821301017
 30
0.0
 10
4.370423791995816
 20
4.651475134460365
 30
0.0
 10
4.070726315935894
 20
4.64988096861093
 30
0.0
 10
3.855704284795507
 20
4.650326504955214
 30
0.0
 10
3.740578832126936
 20
4.650565050619787
 30
0.0
1001
PE_URL
1000

  0
SPLINE
  5
99
330
1F
100
AcDbEntity
  8
0
  6
Continuous
 62
     1
370
    15
100
AcDbSpline
210
0.0
220
0.0
230
1.0
 70
     8
 71
     3
 72
    52
 73
    48
 74
     0
 42
0.000000001
 43
0.00000001
 40
0.0
 40
0.0
 40
0.0
 40
0.0
 40
0.0289785461873585
 40
0.0538981671652952
 40
0.0747795972119209
 40
0.0917617232273666
 40
0.1056523985433039
 40
0.1200344868809917
 40
0.14516990452179
 40
0.1715838409261316
 40
0.1946468775797034
 40
0.2205861543281303
 40
0.2438098422249623
 40
0.266092659233341
 40
0.2903238164237986
 40
0.3081871807986833
 40
0.3283527257331134
 40
0.3508768152515321
 40
0.3760096654973408
 40
0.4036673687557982
 40
0.4287122770632844
 40
0.4478923151676029
 40
0.4630805849222595
 40
0.4772585648408223
 40
0.4911153771517616
 40
0.5048828511639865
 40
0.5246309085098443
 40
0.5459743009446099
 40
0.5714308638648684
 40
0.6018189342814944
 40
0.632202978568834
 40
0.6584643860395235
 40
0.6945932970051885
 40
0.7263965125399112
 40
0.7559862942600298
 40
0.771067958415475
 40
0.7870293590449666
 40
0.8043088317143402
 40
0.824446389702951
 40
0.8476132661705618
 40
0.8712227871839079
 40
0.8879502839634865
 40
0.90323945071113
 40
0.9204631466452063
 40
0.9421781800460691
 40
0.9686672021444132
 40
1.0
 40
1.0
 40
1.0
 40
1.0
 10
22.16614164683231
 20
4.072729945619973
 30
0.0
 10
22.07152280134593
 20
4.064690906320498
 30
0.0
 10
21.89553804634684
 20
4.049738828282829
 30
0.0
 10
21.64518163194436
 20
4.0302306909552
 30
0.0
 10
21.42988814006559
 20
4.014766333703217
 30
0.0
 10
21.24693374921645
 20
4.002838345143778
 30
0.0
 10
21.08438594525256
 20
3.993233576748168
 30
0.0
 10
20.89334902494554
 20
3.982194799169375
 30
0.0
 10
20.66015228095809
 20
3.969735282269385
 30
0.0
 10
20.40125774533208
 20
3.957583936660825
 30
0.0
 10
20.13883476410821
 20
3.946890020027876
 30
0.0
 10
19.88815080383986
 20
3.938235756640366
 30
0.0
 10
19.64004018956306
 20
3.931259422117486
 30
0.0
 10
19.3971180785688
 20
3.92585642569878
 30
0.0
 10
19.1697702424647
 20
3.922150633325095
 30
0.0
 10
18.95037306844522
 20
3.919746425051447
 30
0.0
 10
18.7403088845159
 20
3.918553436642432
 30
0.0
 10
18.50901500852812
 20
3.918531342277856
 30
0.0
 10
18.25014135225732
 20
3.920001851753611
 30
0.0
 10
17.97965698806413
 20
3.923374503818012
 30
0.0
 10
17.72983121397008
 20
3.928208813122182
 30
0.0
 10
17.523305196516
 20
3.93337078611988
 30
0.0
 10
17.3545143089823
 20
3.938329695310596
 30
0.0
 10
17.20424617855916
 20
3.943305291598799
 30
0.0
 10
17.05893568895241
 20
3.948633592712135
 30
0.0
 10
16.89428548473541
 20
3.95524722569701
 30
0.0
 10
16.7035961923956
 20
3.963715899399475
 30
0.0
 10
16.47227572970232
 20
3.975192224050995
 30
0.0
 10
16.20392345389747
 20
3.990099021116442
 30
0.0
 10
15.90410430883831
 20
4.008879808742846
 30
0.0
 10
15.60156425268191
 20
4.030203729186467
 30
0.0
 10
15.27884983803456
 20
4.055147225831076
 30
0.0
 10
14.95121864495416
 20
4.082926234523406
 30
0.0
 10
14.61242341149599
 20
4.114395830651521
 30
0.0
 10
14.34657906525911
 20
4.141033346571439
 30
0.0
 10
14.13588134325462
 20
4.163268839746916
 30
0.0
 10
13.96803280125404
 20
4.181606132698486
 30
0.0
 10
13.78267166539054
 20
4.202591408562659
 30
0.0
 10
13.57191901708338
 20
4.227416630095613
 30
0.0
 10
13.33936222676311
 20
4.255964850974033
 30
0.0
 10
13.11676943725158
 20
4.284385082450711
 30
0.0
 10
12.91901305285398
 20
4.310480026571976
 30
0.0
 10
12.74402128860501
 20
4.333769091021487
 30
0.0
 10
12.55084735224848
 20
4.36021106865839
 30
0.0
 10
12.32487926157514
 20
4.392805857886741
 30
0.0
 10
12.05735183833712
 20
4.432980793051251
 30
0.0
 10
11.86812915816039
 20
4.462583869757289
 30
0.0
 10
11.76559215755415
 20
4.47862534370385
 30
0.0
1001
PE_URL
1000

  0
SPLINE
  5
9A
330
1F
100
AcDbEntity
  8
0
  6
Continuous
 62
     1
370
    15
100
AcDbSpline
210
0.0
220
0.0
230
1.0
 70
     8
 71
     3
 72
    27
 73
    23
 74
     0
 42
0.000000001
 43
0.00000001
 40
0.0
 40
0.0
 40
0.0
 40
0.0
 40
0.0673338304253581
 40
0.1252923492460331
 40
0.1739577038714164
 40
0.2137163469527733
 40
0.2465190300408426
 40
0.2805606257390379
 40
0.3245127409698664
 40
0.3723366291186713
 40
0.4171201082908061
 40
0.4568966413537294
 40
0.5170765887347573
 40
0.5713076285004433
 40
0.623047686688974
 40
0.6771628617167716
 40
0.7232745671286529
 40
0.7733518385196139
 40
0.8275696378062869
 40
0.8892621389868772
 40
0.9589624798242257
 40
1.0
 40
1.0
 40
1.0
 40
1.0
 10
11.76559215755415
 20
-4.476475486256064
 30
0.0
 10
11.85923699749629
 20
-4.461818164811056
 30
0.0
 10
12.03348791886821
 20
-4.434544352733262
 30
0.0
 10
12.28143153161557
 20
-4.397115907386198
 30
0.0
 10
12.4949403592448
 20
-4.366037785539349
 30
0.0
 10
12.67702852810817
 20
-4.340648352192455
 30
0.0
 10
12.83832881712123
 20
-4.319094078760608
 30
0.0
 10
13.00593404281467
 20
-4.296783580461771
 30
0.0
 10
13.1952997866951
 20
-4.272126800171856
 30
0.0
 10
13.39767970654572
 20
-4.246605261007971
 30
0.0
 10
13.59351717904533
 20
-4.22272767985955
 30
0.0
 10
13.80750286045539
 20
-4.197535089538916
 30
0.0
 10
14.03511587001267
 20
-4.171913182441076
 30
0.0
 10
14.2805473607643
 20
-4.145710260736311
 30
0.0
 10
14.51714433320251
 20
-4.121724432352473
 30
0.0
 10
14.74163067983263
 20
-4.100170618297954
 30
0.0
 10
14.96369438330694
 20
-4.079975644406079
 30
0.0
 10
15.18605721845677
 20
-4.060842067215201
 30
0.0
 10
15.43155501583574
 20
-4.041006295318194
 30
0.0
 10
15.70596227628562
 20
-4.020526810816256
 30
0.0
 10
15.96080485061884
 20
-4.002984731261917
 30
0.0
 10
16.12449298243591
 20
-3.993241403396053
 30
0.0
 10
16.18515294959188
 20
-3.989630695999174
 30
0.0
1001
PE_URL
1000

  0
SPLINE
  5
9B
330
1F
100
AcDbEntity
  8
0
  6
Continuous
 62
     1
370
    15
100
AcDbSpline
210
0.0
220
0.0
230
1.0
 70
     8
 71
     3
 72
    11
 73
     7
 74
     0
 42
0.000000001
 43
0.00000001
 40
0.0
 40
0.0
 40
0.0
 40
0.0
 40
0.2068720577048462
 40
0.4590073366959992
 40
0.6208993557666357
 40
1.0
 40
1.0
 40
1.0
 40
1.0
 10
3.740578832126936
 20
-4.648415193172001
 30
0.0
 10
3.964631060878364
 20
-4.648332231428303
 30
0.0
 10
4.461757729124322
 20
-4.648148156065758
 30
0.0
 10
5.130964400837405
 20
-4.659190127895804
 30
0.0
 10
5.992305883973559
 20
-4.682081526224691
 30
0.0
 10
6.577389511856163
 20
-4.709968273757616
 30
0.0
 10
6.98738690240497
 20
-4.729509913917281
 30
0.0
1001
PE_URL
1000

  0
SPLINE
  5
9C
330
1F
100
AcDbEntity
  8
0
  6
Continuous
 62
     1
370
    15
100
AcDbSpline
210
0.0
220
0.0
230
1.0
 70
     8
 71
     3
 72
    38
 73
    34
 74
     0
 42
0.000000001
 43
0.00000001
 40
0.0
 40
0.0
 40
0.0
 40
0.0
 40
0.0625
 40
0.0625
 40
0.125
 40
0.125
 40
0.1875
 40
0.1875
 40
0.25
 40
0.25
 40
0.3125
 40
0.3125
 40
0.375
 40
0.375
 40
0.4375
 40
0.4375
 40
0.5
 40
0.5
 40
0.5625
 40
0.5625
 40
0.625
 40
0.625
 40
0.6875
 40
0.6875
 40
0.75
 40
0.75
 40
0.8125
 40
0.8125
 40
0.875
 40
0.875
 40
0.9375
 40
0.9375
 40
1.0
 40
1.0
 40
1.0
 40
1.0
 10
24.37807883212694
 20
-5.947018580690077
 30
0.0
 10
23.95049303603748
 20
-5.936833762368821
 30
0.0
 10
23.51868816375891
 20
-5.911099264240184
 30
0.0
 10
22.65671311491329
 20
-5.828888992856728
 30
0.0
 10
22.22936516567918
 20
-5.772591787829037
 30
0.0
 10
21.36976864314746
 20
-5.630045614989226
 30
0.0
 10
20.93738308474624
 20
-5.543703870297905
 30
0.0
 10
20.07755507612765
 20
-5.342895635386418
 30
0.0
 10
19.65035877268967
 20
-5.228533369781908
 30
0.0
 10
18.78846465304618
 20
-4.972468468295451
 30
0.0
 10
18.35658350923635
 20
-4.830968404663102
 30
0.0
 10
17.50103178911622
 20
-4.524527990751507
 30
0.0
 10
17.06968059975525
 20
-4.358680212331143
 30
0.0
 10
16.20763525160609
 20
-4.005141921722591
 30
0.0
 10
15.78011434139396
 20
-3.817942969173727
 30
0.0
 10
14.92075983720563
 20
-3.424034602520428
 30
0.0
 10
14.48837965113199
 20
-3.217190355723612
 30
0.0
 10
13.62833069817141
 20
-2.788547863512565
 30
0.0
 10
13.20126471913215
 20
-2.566899088489095
 30
0.0
 10
12.3394621552617
 20
-2.11005060653347
 30
0.0
 10
11.90751009129451
 20
-1.875310099581911
 30
0.0
 10
11.05158861020206
 20
-1.398754768678836
 30
0.0
 10
10.62066995241768
 20
-1.155658295445936
 30
0.0
 10
9.758564937754478
 20
-0.6646328627250055
 30
0.0
 10
9.330849758470764
 20
-0.4173781908211778
 30
0.0
 10
8.471747794965626
 20
0.0787217599132156
 30
0.0
 10
8.039378353323846
 20
0.3277574407710702
 30
0.0
 10
7.179119006825326
 20
0.8219716375215499
 30
0.0
 10
6.752162025445259
 20
1.066979040804882
 30
0.0
 10
5.89046164015458
 20
1.551637597789821
 30
0.0
 10
5.45844401034818
 20
1.790752001145963
 30
0.0
 10
4.602163150322622
 20
2.257015153691747
 30
0.0
 10
4.171655855093865
 20
2.485303482552238
 30
0.0
 10
3.74057883212694
 20
2.706608544742131
 30
0.0
1001
PE_URL
1000

  0
SPLINE
  5
9D
330
1F
100
AcDbEntity
  8
0
  6
Continuous
 62
     1
370
    15
100
AcDbSpline
210
0.0
220
0.0
230
1.0
 70
     8
 71
     3
 72
    12
 73
     8
 74
     0
 42
0.000000001
 43
0.00000001
 40
0.0
 40
0.0
 40
0.0
 40
0.0
 40
0.112326920495601
 40
0.3345296861167594
 40
0.5560984649990545
 40
0.7781558343058635
 40
1.0
 40
1.0
 40
1.0
 40
1.0
 10
9.587436085267344
 20
-0.5641884268514069
 30
0.0
 10
9.368554741665827
 20
-0.4766567376433203
 30
0.0
 10
8.716686900468343
 20
-0.2159716909345244
 30
0.0
 10
7.63243657564972
 20
0.2230137492315161
 30
0.0
 10
6.335263887559136
 20
0.7453470273670255
 30
0.0
 10
5.037993692365796
 20
1.256143820990609
 30
0.0
 10
4.17291195411084
 20
1.579276915999416
 30
0.0
 10
3.74057883212694
 20
1.740765863926214
 30
0.0
1001
PE_URL
1000

  0
SPLINE
  5
9E
330
1F
100
AcDbEntity
  8
외형선
  6
Continuous
370
    15
100
AcDbSpline
210
0.0
220
0.0
230
1.0
 70
    24
 71
     3
 72
    10
 73
     6
 74
     0
 42
0.000000001
 43
0.00000001
 40
0.0
 40
0.0
 40
0.0
 40
0.0
 40
0.5
 40
0.5
 40
1.0
 40
1.0
 40
1.0
 40
1.0
 10
3.74057883212694
 20
2.70660854474213
 30
0.0
 10
3.74057883212694
 20
2.65146308128108
 30
0.0
 10
3.74057883212694
 20
2.534003575812857
 30
0.0
 10
3.74057883212694
 20
2.197001945816232
 30
0.0
 10
3.74057883212694
 20
1.978745979428998
 30
0.0
 10
3.74057883212694
 20
1.740765863926213
 30
0.0
  0
SPLINE
  5
9F
330
1F
100
AcDbEntity
  8
0
  6
Continuous
 62
     1
370
    15
100
AcDbSpline
210
0.0
220
0.0
230
1.0
 70
     8
 71
     3
 72
    38
 73
    34
 74
     0
 42
0.000000001
 43
0.00000001
 40
0.0
 40
0.0
 40
0.0
 40
0.0
 40
0.0625
 40
0.0625
 40
0.1250000000000001
 40
0.1250000000000001
 40
0.1875000000000001
 40
0.1875000000000001
 40
0.2500000000000001
 40
0.2500000000000001
 40
0.3125000000000002
 40
0.3125000000000002
 40
0.3750000000000003
 40
0.3750000000000003
 40
0.4375000000000004
 40
0.4375000000000004
 40
0.5000000000000004
 40
0.5000000000000004
 40
0.5625000000000004
 40
0.5625000000000004
 40
0.6250000000000006
 40
0.6250000000000006
 40
0.6875000000000006
 40
0.6875000000000006
 40
0.7500000000000004
 40
0.7500000000000004
 40
0.8125000000000003
 40
0.8125000000000003
 40
0.8750000000000002
 40
0.8750000000000002
 40
0.9375000000000002
 40
0.9375000000000002
 40
1.0
 40
1.0
 40
1.0
 40
1.0
 10
24.37807883212693
 20
-5.648088683422259
 30
0.0
 10
23.95049303603739
 20
-5.56992765208178
 30
0.0
 10
23.51868816375875
 20
-5.476773791713414
 30
0.0
 10
22.65671311491296
 20
-5.262430457757016
 30
0.0
 10
22.22936516567878
 20
-5.141557727353884
 30
0.0
 10
21.3697686431469
 20
-4.873234218928991
 30
0.0
 10
20.93738308474558
 20
-4.725694724500209
 30
0.0
 10
20.07755507612685
 20
-4.407305939540104
 30
0.0
 10
19.65035877268877
 20
-4.236558831107635
 30
0.0
 10
18.78846465304512
 20
-3.872863637176182
 30
0.0
 10
18.35658350923521
 20
-3.680252688816359
 30
0.0
 10
17.50103178911494
 20
-3.278150566046258
 30
0.0
 10
17.06968059975386
 20
-3.067464624790579
 30
0.0
 10
16.20763525160454
 20
-2.631254775796388
 30
0.0
 10
15.78011434139234
 20
-2.406307632921104
 30
0.0
 10
14.92075983720384
 20
-1.944314644465104
 30
0.0
 10
14.48837965113011
 20
-1.707140547577991
 30
0.0
 10
13.62833069816939
 20
-1.2259792444174
 30
0.0
 10
13.20126471913003
 20
-0.9821294397824193
 30
0.0
 10
12.33946215525942
 20
-0.4891257624798385
 30
0.0
 10
11.90751009129215
 20
-0.2404959189378408
 30
0.0
 10
11.05158861019956
 20
0.2551946572397019
 30
0.0
 10
10.62066995241507
 20
0.5035936094090999
 30
0.0
 10
9.758564937751714
 20
0.9965260205122948
 30
0.0
 10
9.330849758467926
 20
1.240400482126306
 30
0.0
 10
8.471747794962605
 20
1.721128471940128
 30
0.0
 10
8.039378353320737
 20
1.958143849013892
 30
0.0
 10
7.179119006822075
 20
2.419918624209252
 30
0.0
 10
6.752162025441925
 20
2.644545098694234
 30
0.0
 10
5.890461640151071
 20
3.080201085176525
 30
0.0
 10
5.458444010344593
 20
3.290720641341626
 30
0.0
 10
4.602163150318916
 20
3.692325056515146
 30
0.0
 10
4.17165585509003
 20
3.884399109092994
 30
0.0
 10
3.740578832123033
 20
4.065912674034296
 30
0.0
1001
PE_URL
1000

  0
SPLINE
  5
A0
330
1F
100
AcDbEntity
  8
0
  6
Continuous
 62
     1
370
    15
100
AcDbSpline
210
0.0
220
0.0
230
1.0
 70
     8
 71
     3
 72
    22
 73
    18
 74
     0
 42
0.000000001
 43
0.00000001
 40
0.0
 40
0.0
 40
0.0
 40
0.0
 40
0.0698962920845732
 40
0.1397936411266286
 40
0.2096888762599395
 40
0.2795872778070989
 40
0.3494814604539392
 40
0.4193809100535566
 40
0.4852711023670709
 40
0.5512186032843892
 40
0.6170586617963171
 40
0.6830444440983711
 40
0.7488486877944243
 40
0.822499399436251
 40
0.8959648090221347
 40
0.9695853152077007
 40
1.0
 40
1.0
 40
1.0
 40
1.0
 10
24.37807883212694
 20
-4.695775582593142
 30
0.0
 10
24.01853491717729
 20
-4.625173744097367
 30
0.0
 10
23.29944165032819
 20
-4.483968999479206
 30
0.0
 10
22.22080242183266
 20
-4.209377314958095
 30
0.0
 10
21.14216773634895
 20
-3.892416959346215
 30
0.0
 10
20.06352432718247
 20
-3.531940787309368
 30
0.0
 10
18.98490033070821
 20
-3.133032215272054
 30
0.0
 10
17.92681419012845
 20
-2.708196499926324
 30
0.0
 10
16.88922856364433
 20
-2.263611511844593
 30
0.0
 10
15.87209769824624
 20
-1.806739849853884
 30
0.0
 10
14.85519363257431
 20
-1.330701267385683
 30
0.0
 10
13.83805463346715
 20
-0.8439480022751922
 30
0.0
 10
12.78192616179689
 20
-0.3271054450278913
 30
0.0
 10
11.68599532014394
 20
0.210071559177486
 30
0.0
 10
10.55111542882675
 20
0.7658439052265767
 30
0.0
 10
9.637640843852582
 20
1.206981790530334
 30
0.0
 10
9.102571670320923
 20
1.455576942646802
 30
0.0
 10
8.946144214360334
 20
1.528253727506309
 30
0.0
1001
PE_URL
1000

  0
LINE
  5
A1
330
1F
100
AcDbEntity
  8
0
  6
Continuous
 62
     1
370
    15
100
AcDbLine
 10
24.37807883212665
 20
-5.648088683422261
 30
0.0
 11
24.37807883212693
 21
-4.695775582593141
 31
0.0
1001
PE_URL
1000

  0
LINE
  5
A2
330
1F
100
AcDbEntity
  8
외형선
  6
Continuous
370
    15
100
AcDbLine
 10
3.74057883212694
 20
2.70660854474213
 30
0.0
 11
3.74057883212694
 21
4.065912674024887
 31
0.0
  0
LINE
  5
A3
330
1F
100
AcDbEntity
  8
0
  6
Continuous
 62
     1
370
    15
100
AcDbLine
 10
24.37807883212693
 20
-5.947018580690078
 30
0.0
 11
24.37807883212665
 21
-5.648088683422261
 31
0.0
1001
PE_URL
1000

  0
SPLINE
  5
A4
330
1F
100
AcDbEntity
  8
0
  6
Continuous
 62
     1
370
    15
100
AcDbSpline
210
0.0
220
0.0
230
1.0
 70
     8
 71
     3
 72
     8
 73
     4
 74
     0
 42
0.000000001
 43
0.00000001
 40
0.0
 40
0.0
 40
0.0
 40
0.0
 40
1.0
 40
1.0
 40
1.0
 40
1.0
 10
20.694743853639
 20
1.666090936023031
 30
0.0
 10
20.48344004085403
 20
1.916388610588231
 30
0.0
 10
20.29449723133946
 20
2.157634751281309
 30
0.0
 10
20.13351999098164
 20
2.387560680022588
 30
0.0
1001
PE_URL
1000

  0
LINE
  5
A5
330
1F
100
AcDbEntity
  8
0
  6
Continuous
 62
     1
370
    15
100
AcDbLine
 10
20.20878676064569
 20
2.450716998687583
 30
0.0
 11
24.37807883212693
 21
0.0010749287238958
 31
0.0
1001
PE_URL
1000

  0
LINE
  5
A6
330
1F
100
AcDbEntity
  8
0
  6
Continuous
 62
     1
370
    15
100
AcDbLine
 10
24.37807883212693
 20
0.0010749287238958
 30
0.0
 11
24.37807883212693
 21
-1.589855734358835
 31
0.0
1001
PE_URL
1000

  0
SPLINE
  5
A7
330
1F
100
AcDbEntity
  8
0
  6
Continuous
 62
     1
370
    15
100
AcDbSpline
210
0.0
220
0.0
230
1.0
 70
     8
 71
     3
 72
    12
 73
     8
 74
     0
 42
0.000000001
 43
0.00000001
 40
0.0
 40
0.0
 40
0.0
 40
0.0
 40
0.5
 40
0.5
 40
0.75
 40
0.75
 40
1.0
 40
1.0
 40
1.0
 40
1.0
 10
24.37807883212693
 20
-1.589855734358831
 30
0.0
 10
23.74048252523906
 20
-1.088598388064465
 30
0.0
 10
23.1135361364425
 20
-0.5667908502702603
 30
0.0
 10
22.18950684833756
 20
0.2475473384259806
 30
0.0
 10
21.8842727819661
 20
0.5243494135157631
 30
0.0
 10
21.28003885749273
 20
1.089983156100747
 30
0.0
 10
20.98268209211242
 20
1.377355307887361
 30
0.0
 10
20.69474385363901
 20
1.666090936023026
 30
0.0
1001
PE_URL
1000

  0
SPLINE
  5
A8
330
1F
100
AcDbEntity
  8
0
  6
Continuous
 62
     1
370
    15
100
AcDbSpline
210
0.0
220
0.0
230
1.0
 70
     8
 71
     3
 72
    20
 73
    16
 74
     0
 42
0.000000001
 43
0.00000001
 40
0.0
 40
0.0
 40
0.0
 40
0.0
 40
0.0774322743468494
 40
0.1551380992879262
 40
0.232574341035984
 40
0.3102757966076887
 40
0.3877170748981832
 40
0.4640257601272424
 40
0.5400940950576391
 40
0.6163871943671874
 40
0.6924746963841962
 40
0.783283736548398
 40
0.8738475666852782
 40
0.9646842929878143
 40
1.0
 40
1.0
 40
1.0
 40
1.0
 10
20.69474385363901
 20
1.666090936023025
 30
0.0
 10
20.34105069412169
 20
1.817785320757257
 30
0.0
 10
19.63241485768908
 20
2.121709991946742
 30
0.0
 10
18.56898033718176
 20
2.548034515083639
 30
0.0
 10
17.50567802663706
 20
2.951489010721628
 30
0.0
 10
16.44216712996623
 20
3.320432195304424
 30
0.0
 10
15.38521568443151
 20
3.654755037454815
 30
0.0
 10
14.33436588697075
 20
3.946793182117862
 30
0.0
 10
13.29006224341216
 20
4.19846904386879
 30
0.0
 10
12.24554906259476
 20
4.40569988285434
 30
0.0
 10
11.13484194683752
 20
4.578997540783593
 30
0.0
 10
9.957650620994379
 20
4.705050712318564
 30
0.0
 10
8.714435068182743
 20
4.766102360165687
 30
0.0
 10
7.723489779155885
 20
4.77236368826587
 30
0.0
 10
7.147137641883981
 20
4.734146400675892
 30
0.0
 10
6.985790906978262
 20
4.723447672986977
 30
0.0
1001
PE_URL
1000

  0
LINE
  5
A9
330
1F
100
AcDbEntity
  8
0
  6
Continuous
 62
     1
370
    15
100
AcDbLine
 10
24.37807883212693
 20
-4.695775582593141
 30
0.0
 11
24.37807883212694
 21
-1.589855734358831
 31
0.0
1001
PE_URL
1000

  0
SPLINE
  5
AA
330
1F
100
AcDbEntity
  8
외형선
  6
Continuous
370
    15
100
AcDbSpline
210
0.0
220
0.0
230
1.0
 70
    24
 71
     3
 72
    13
 73
     9
 74
     0
 42
0.000000001
 43
0.00000001
 40
0.0
 40
0.0
 40
0.0
 40
0.0
 40
0.188704635595819
 40
0.3934446911359002
 40
0.5981847466759814
 40
0.7777346481181643
 40
0.9572845495603473
 40
1.0
 40
1.0
 40
1.0
 40
1.0
 10
3.740578832126938
 20
4.649422285554273
 30
0.0
 10
3.740578832126938
 20
4.64597965603217
 30
0.0
 10
3.740578832126938
 20
4.638801855101404
 30
0.0
 10
3.74057883212694
 20
4.569298493145266
 30
0.0
 10
3.740578832126938
 20
4.46029814871539
 30
0.0
 10
3.74057883212694
 20
4.311847934936714
 30
0.0
 10
3.740578832126938
 20
4.188115369475494
 30
0.0
 10
3.740578832126938
 20
4.100880060536591
 30
0.0
 10
3.740578832126938
 20
4.084114984540633
 30
0.0
  0
SPLINE
  5
AB
330
1F
100
AcDbEntity
  8
0
  6
Continuous
 62
     1
370
    15
100
AcDbSpline
210
0.0
220
0.0
230
1.0
 70
    24
 71
     3
 72
     8
 73
     4
 74
     0
 42
0.000000001
 43
0.00000001
 40
0.0
 40
0.0
 40
0.0
 40
0.0
 40
1.0
 40
1.0
 40
1.0
 40
1.0
 10
20.75445091116082
 20
2.908583586131495
 30
0.0
 10
20.55895110087395
 20
2.744539767424555
 30
0.0
 10
20.3506180050571
 20
2.569727543562612
 30
0.0
 10
20.13351999098164
 20
2.387560680022577
 30
0.0
1001
PE_URL
1000

  0
SPLINE
  5
AC
330
1F
100
AcDbEntity
  8
0
  6
Continuous
 62
     1
370
    15
100
AcDbSpline
210
0.0
220
0.0
230
1.0
 70
     8
 71
     3
 72
     9
 73
     5
 74
     0
 42
0.000000001
 43
0.00000001
 40
0.0
 40
0.0
 40
0.0
 40
0.0
 40
0.5850510445565604
 40
1.0
 40
1.0
 40
1.0
 40
1.0
 10
24.37807883212693
 20
4.168262428723892
 30
0.0
 10
23.94641496657529
 20
4.163683116252334
 30
0.0
 10
23.20859239610398
 20
4.15585591465315
 30
0.0
 10
22.47095156467832
 20
4.092338860457893
 30
0.0
 10
22.16486827218581
 20
4.065982525166727
 30
0.0
1001
PE_URL
1000

  0
SPLINE
  5
AD
330
1F
100
AcDbEntity
  8
0
  6
Continuous
 62
     1
370
    15
100
AcDbSpline
210
0.0
220
0.0
230
1.0
 70
     8
 71
     3
 72
    10
 73
     6
 74
     0
 42
0.000000001
 43
0.00000001
 40
0.0
 40
0.0
 40
0.0
 40
0.0
 40
0.5
 40
0.5
 40
1.0
 40
1.0
 40
1.0
 40
1.0
 10
24.37807883212693
 20
4.168262428723895
 30
0.0
 10
23.76557364514093
 20
4.002142240168834
 30
0.0
 10
23.15681728165151
 20
3.815637058681992
 30
0.0
 10
21.94746323018634
 20
3.398262232342774
 30
0.0
 10
21.3472631496894
 20
3.16803804548312
 30
0.0
 10
20.75445091115972
 20
2.908583586132255
 30
0.0
1001
PE_URL
1000

  0
SPLINE
  5
AE
330
1F
100
AcDbEntity
  8
0
  6
Continuous
 62
     1
370
    15
100
AcDbSpline
210
0.0
220
0.0
230
1.0
 70
     8
 71
     3
 72
    14
 73
    10
 74
     0
 42
0.000000001
 43
0.00000001
 40
0.0
 40
0.0
 40
0.0
 40
0.0
 40
0.0705335176130117
 40
0.2256187164242967
 40
0.3802851414464418
 40
0.5354176231082018
 40
0.6901254333328057
 40
0.8450985056492435
 40
1.0
 40
1.0
 40
1.0
 40
1.0
 10
11.76798781928217
 20
-4.470516650914736
 30
0.0
 10
11.57930919080844
 20
-4.501112537235619
 30
0.0
 10
10.97577442586873
 20
-4.598980966787868
 30
0.0
 10
9.957657256247979
 20
-4.700427905791832
 30
0.0
 10
8.714421901528379
 20
-4.767075917825096
 30
0.0
 10
7.470800470277354
 20
-4.761770484673567
 30
0.0
 10
6.227588914149447
 20
-4.686730913923598
 30
0.0
 10
4.984184428210411
 20
-4.548162396600373
 30
0.0
 10
4.15505019021363
 20
-4.400413818431407
 30
0.0
 10
3.74057883212694
 20
-4.326556593578384
 30
0.0
1001
PE_URL
1000

  0
SPLINE
  5
AF
330
1F
100
AcDbEntity
  8
외형선
  6
Continuous
370
    15
100
AcDbSpline
210
0.0
220
0.0
230
1.0
 70
    24
 71
     3
 72
    14
 73
    10
 74
     0
 42
0.000000001
 43
0.00000001
 40
0.0
 40
0.0
 40
0.0
 40
0.0
 40
0.25
 40
0.25
 40
0.4999999999999999
 40
0.4999999999999999
 40
0.75
 40
0.75
 40
1.0
 40
1.0
 40
1.0
 40
1.0
 10
3.74057883212694
 20
1.740765863926214
 30
0.0
 10
3.74057883212694
 20
1.225679617108348
 30
0.0
 10
3.74057883212694
 20
0.6801908550168869
 30
0.0
 10
3.74057883212694
 20
-0.4256005556539578
 30
0.0
 10
3.74057883212694
 20
-0.9853944426348176
 30
0.0
 10
3.74057883212694
 20
-2.063732570975082
 30
0.0
 10
3.74057883212694
 20
-2.58170222869631
 30
0.0
 10
3.74057883212694
 20
-3.528129812209221
 30
0.0
 10
3.74057883212694
 20
-3.956302811496496
 30
0.0
 10
3.74057883212694
 20
-4.326556593578382
 30
0.0
  0
LINE
  5
B0
330
1F
100
AcDbEntity
  8
0
  6
Continuous
 62
     1
370
    15
100
AcDbLine
 10
24.37807883212693
 20
0.0010749287238958
 30
0.0
 11
24.37807883212693
 21
4.168262428723895
 31
0.0
1001
PE_URL
1000

  0
SPLINE
  5
B1
330
1F
100
AcDbEntity
  8
외형선
  6
Continuous
370
    15
100
AcDbSpline
210
0.0
220
0.0
230
1.0
 70
    24
 71
     3
 72
    13
 73
     9
 74
     0
 42
0.000000001
 43
0.00000001
 40
0.0
 40
0.0
 40
0.0
 40
0.0
 40
0.1794148194141552
 40
0.3588296388283104
 40
0.5405856469710543
 40
0.7223416551137982
 40
0.9863895817279978
 40
1.0
 40
1.0
 40
1.0
 40
1.0
 10
3.74057883212694
 20
-4.326556593578385
 30
0.0
 10
3.74057883212694
 20
-4.362825454868724
 30
0.0
 10
3.74057883212694
 20
-4.435363177449402
 30
0.0
 10
3.74057883212694
 20
-4.518855942055829
 30
0.0
 10
3.74057883212694
 20
-4.584088497159805
 30
0.0
 10
3.740578832126938
 20
-4.631345533036935
 30
0.0
 10
3.74057883212694
 20
-4.65508666527366
 30
0.0
 10
3.740578832126938
 20
-4.647637549777935
 30
0.0
 10
3.740578832126938
 20
-4.647272404701186
 30
0.0
  0
SPLINE
  5
B2
330
1F
100
AcDbEntity
  8
0
  6
Continuous
 62
     1
370
    15
100
AcDbSpline
210
0.0
220
0.0
230
1.0
 70
     8
 71
     3
 72
    16
 73
    12
 74
     0
 42
0.000000001
 43
0.00000001
 40
0.0
 40
0.0
 40
0.0
 40
0.0
 40
0.0157118556826757
 40
0.140063158904821
 40
0.2639667204032107
 40
0.3883071490681374
 40
0.512235859562778
 40
0.6343219367383072
 40
0.7561007159853919
 40
0.8781083353901207
 40
1.0
 40
1.0
 40
1.0
 40
1.0
 10
16.18496031530938
 20
3.991695282271488
 30
0.0
 10
16.22785104880602
 20
4.010767178402419
 30
0.0
 10
16.61020000507286
 20
4.180783379693554
 30
0.0
 10
17.33198947700156
 20
4.463114020649178
 30
0.0
 10
18.34841330986619
 20
4.834935825673102
 30
0.0
 10
19.36585835659143
 20
5.153454674864555
 30
0.0
 10
20.37633736510863
 20
5.423289448731918
 30
0.0
 10
21.38159845223058
 20
5.638354664056568
 30
0.0
 10
22.38015033893968
 20
5.799306564891946
 30
0.0
 10
23.37923598179037
 20
5.90928772270791
 30
0.0
 10
24.04523675889077
 20
5.935879080356132
 30
0.0
 10
24.37807883212694
 20
5.949168438137864
 30
0.0
1001
PE_URL
1000

  0
LINE
  5
B3
330
1F
100
AcDbEntity
  8
0
  6
Continuous
 62
     1
370
    15
100
AcDbLine
 10
24.37807883212693
 20
4.168262428723895
 30
0.0
 11
24.37807883212693
 21
5.949168438137865
 31
0.0
1001
PE_URL
1000

  0
LINE
  5
B4
330
1F
100
AcDbEntity
  8
중심선
 62
     1
100
AcDbLine
 10
-42.12192116787307
 20
0.0010749287238892
 30
0.0
 11
27.37807883212695
 21
0.0010749287238931
 31
0.0
  0
LINE
  5
B5
330
1F
100
AcDbEntity
  8
참조1
100
AcDbLine
 10
-7.371921167873059
 20
0.0010749287238931
 30
0.0
 11
-7.371921167873054
 21
-39.9989250712761
 31
0.0
  0
LINE
  5
B6
330
1F
100
AcDbEntity
  8
참조1
100
AcDbLine
 10
-7.371921167873054
 20
-39.9989250712761
 30
0.0
 11
-22.53075298218174
 21
-39.9989250712761
 31
0.0
  0
CIRCLE
  5
B7
330
1F
100
AcDbEntity
  8
해칭선
100
AcDbCircle
 10
-0.0000000000000017
 20
0.0
 30
0.0
 40
3.000000000000001
  0
INSERT
  5
B8
330
1F
100
AcDbEntity
  8
0
  6
Continuous
 62
     7
100
AcDbBlockReference
 66
     1
  2
블럭10
 10
-21.31219409999827
 20
-52.04609937292004
 30
0.0
  0
ATTRIB
  5
B9
330
B8
100
AcDbEntity
  8
FORMAT
 62
     2
100
AcDbText
 10
-30.49348938873955
 20
-49.97073246008785
 30
0.0
 40
4.233333333333333
  1
E1030030 [ 2 FLUTE ]
 41
0.75
  7
SLDTEXTSTYLE0
 11
-30.49348938873955
 21
-52.08739912675452
 31
0.0
100
AcDbAttribute
  2
AUTOATTR0
 70
     0
 74
     1
  0
SEQEND
  5
BA
330
B8
100
AcDbEntity
  8
0
  6
Continuous
 62
     7
  0
HATCH
  5
BB
330
1F
100
AcDbEntity
  8
중심선
100
AcDbHatch
 10
0.0
 20
0.0
 30
0.0
210
0.0
220
0.0
230
1.0
  2
SOLID
 70
     1
 71
     0
 91
        1
 92
        0
 93
        4
 72
     1
 10
-15.59728479561742
 20
-35.7989250712761
 11
-19.0435600394547
 21
-35.7989250712761
 72
     1
 10
-19.0435600394547
 20
-35.7989250712761
 11
-21.17178989865875
 21
-38.3352506518487
 72
     1
 10
-21.17178989865875
 20
-38.3352506518487
 11
-17.7254815697083
 21
-38.33521122254621
 72
     1
 10
-17.7254815697083
 20
-38.33521122254621
 11
-15.59728479561742
 21
-35.7989250712761
 97
        0
 75
     0
 76
     1
 98
        1
 10
0.0
 20
0.0
  0
HATCH
  5
BC
330
1F
100
AcDbEntity
  8
중심선
100
AcDbHatch
 10
0.0
 20
0.0
 30
0.0
210
0.0
220
0.0
230
1.0
  2
SOLID
 70
     1
 71
     0
 91
        1
 92
        0
 93
        4
 72
     1
 10
-10.58452080458144
 20
-35.7989250712761
 11
-14.03079604841873
 21
-35.7989250712761
 72
     1
 10
-14.03079604841873
 20
-35.7989250712761
 11
-18.56193405677614
 21
-41.19892507127612
 72
     1
 10
-18.56193405677614
 20
-41.19892507127612
 11
-15.11565881293886
 21
-41.19892507127612
 72
     1
 10
-15.11565881293886
 20
-41.19892507127612
 11
-10.58452080458144
 21
-35.7989250712761
 97
        0
 75
     0
 76
     1
 98
        1
 10
0.0
 20
0.0
  0
HATCH
  5
BD
330
1F
100
AcDbEntity
  8
중심선
100
AcDbHatch
 10
0.0
 20
0.0
 30
0.0
210
0.0
220
0.0
230
1.0
  2
SOLID
 70
     1
 71
     0
 91
        1
 92
        0
 93
        4
 72
     1
 10
-5.571756813545548
 20
-35.79892507127608
 11
-9.01803205738269
 21
-35.7989250712761
 72
     1
 10
-9.01803205738269
 20
-35.7989250712761
 11
-16.06646895927194
 21
-44.19892507127612
 72
     1
 10
-16.06646895927194
 20
-44.19892507127612
 11
-12.62019371543466
 21
-44.19892507127612
 72
     1
 10
-12.62019371543466
 20
-44.19892507127612
 11
-5.571756813545548
 21
-35.79892507127608
 97
        0
 75
     0
 76
     1
 98
        1
 10
0.0
 20
0.0
  0
HATCH
  5
BE
330
1F
100
AcDbEntity
  8
중심선
100
AcDbHatch
 10
0.0
 20
0.0
 30
0.0
210
0.0
220
0.0
230
1.0
  2
SOLID
 70
     1
 71
     0
 91
        1
 92
        0
 93
        6
 72
     3
 10
-0.771866382533376
 20
-39.99892507132738
 11
3.960054785062284
 21
1.540850780301639E-10
 40
0.3939339440162633
 50
17.09539180608433
 51
320.0019657685079
 73
     0
 72
     1
 10
0.9111332731672195
 20
-38.58681907591441
 11
3.216435146868285
 21
-36.65249236586646
 72
     3
 10
-0.7718663825862226
 20
-39.99892507127625
 11
6.600054785286829
 21
-1.249000902703301E-13
 40
0.6363583540795982
 50
39.99873849337412
 51
368.4976242363725
 73
     1
 72
     1
 10
5.653466109314387
 20
-39.03892507120613
 11
-2.0917990757503
 21
-39.0389250712061
 72
     1
 10
-2.0917990757503
 20
-39.0389250712061
 11
-2.091824120196234
 21
-40.95892507120602
 72
     1
 10
-2.091824120196234
 20
-40.95892507120602
 11
2.349555649275803
 21
-40.95892507120599
 97
        0
 75
     0
 76
     1
 98
        1
 10
0.0
 20
0.0
  0
DIMENSION
  5
BF
330
1F
100
AcDbEntity
  8
치수문자_일반주서
100
AcDbDimension
  2
_D
 10
-49.12192116787303
 20
-4.761425071276147
 30
0.0
 11
-49.12192116787314
 21
24.49257492872386
 31
0.0
 70
   160
  1
%%c<>
 71
     2
 42
9.525000000000006
  3
SLDDIMSTYLE1
100
AcDbAlignedDimension
 13
-38.12192116787305
 23
4.763574928723896
 33
0.0
 14
-38.12192116787305
 24
-4.761425071276109
 34
0.0
 50
90.0000000000002
100
AcDbRotatedDimension
1001
PE_URL
1000

1001
ACAD
1000
DSTYLE
1002
{
1070
   171
1070
     8
1070
   273
1070
     7
1002
}
  0
DIMENSION
  5
CD
330
1F
100
AcDbEntity
  8
치수문자_일반주서
100
AcDbDimension
  2
_D_1
 10
3.740578832126936
 20
14.95781951990221
 30
0.0
 11
45.63832883212694
 21
14.95781951990221
 31
0.0
 70
   160
  1
<>
 71
     2
 42
20.6375
  3
SLDDIMSTYLE1
100
AcDbAlignedDimension
 13
24.37807883212694
 23
5.949168438137864
 33
0.0
 14
3.740578832126938
 24
4.532952693665671
 34
0.0
100
AcDbRotatedDimension
1001
PE_URL
1000

1001
ACAD
1000
DSTYLE
1002
{
1070
   171
1070
     8
1070
   273
1070
     7
1002
}
  0
DIMENSION
  5
E3
330
1F
100
AcDbEntity
  8
치수문자_일반주서
100
AcDbDimension
  2
_D_2
 10
-39.12192116787307
 20
24.74314381752739
 30
0.0
 11
-7.371921167873058
 21
24.74314381752739
 31
0.0
 70
   160
  1
<>
 71
     2
 42
63.50000000000001
  3
SLDDIMSTYLE1
100
AcDbAlignedDimension
 13
24.37807883212694
 23
5.949168438137864
 33
0.0
 14
-39.12192116787307
 24
3.763574928723889
 34
0.0
 50
0.0000000000000128
100
AcDbRotatedDimension
1001
PE_URL
1000

1001
ACAD
1000
DSTYLE
1002
{
1070
   171
1070
     8
1070
   273
1070
     7
1002
}
  0
DIMENSION
  5
F7
330
1F
100
AcDbEntity
  8
치수문자_일반주서
100
AcDbDimension
  2
_D_3
 10
66.946349177854
 20
5.949168438138013
 30
0.0
 11
66.94634917785393
 21
26.99066843813801
 31
0.0
 70
   160
  1
%%c<>
 71
     2
 42
11.89618701882794
  3
SLDDIMSTYLE1
100
AcDbAlignedDimension
 13
24.37807883212693
 23
-5.947018580690078
 33
0.0
 14
24.37807883212693
 24
5.949168438137865
 34
0.0
 50
90.0000000000002
100
AcDbRotatedDimension
1001
PE_URL
1000

1001
ACAD
1000
DSTYLE
1002
{
1070
   171
1070
     8
1070
   273
1070
     7
1002
}
  0
LINE
  5
10A
330
1F
100
AcDbEntity
  8
참조1
100
AcDbLine
 10
75.44158764747253
 20
7.441074928723896
 30
0.0
 11
75.44158764747253
 21
-7.438925071276109
 31
0.0
  0
LINE
  5
10B
330
1F
100
AcDbEntity
  8
참조1
100
AcDbLine
 10
88.14158764747253
 20
5.441074928723896
 30
0.0
 11
75.44158764747253
 21
5.441074928723896
 31
0.0
  0
SOLID
  5
10C
330
1F
100
AcDbEntity
  8
참조1
100
AcDbTrace
 10
75.44158764747253
 20
5.441074928723896
 30
0.0
 11
81.79158764747253
 21
4.425074928723896
 31
0.0
 12
81.79158764747253
 22
6.457074928723896
 32
0.0
 13
81.79158764747253
 23
6.457074928723896
 33
0.0
  0
LINE
  5
10D
330
1F
100
AcDbEntity
  8
참조1
100
AcDbLine
 10
88.14158764747253
 20
-5.438925071276109
 30
0.0
 11
75.44158764747253
 21
-5.438925071276109
 31
0.0
  0
SOLID
  5
10E
330
1F
100
AcDbEntity
  8
참조1
100
AcDbTrace
 10
75.44158764747253
 20
-5.438925071276109
 30
0.0
 11
81.79158764747253
 21
-6.454925071276109
 31
0.0
 12
81.79158764747253
 22
-4.422925071276109
 32
0.0
 13
81.79158764747253
 23
-4.422925071276109
 33
0.0
  0
MTEXT
  5
10F
330
1F
100
AcDbEntity
  8
참조1
100
AcDbMText
 10
84.82593778009851
 20
11.01136670591222
 30
0.0
 40
3.5
 41
0.0
 71
     1
 72
     1
  1
A
  7
SLDTEXTSTYLE0
 73
     1
 44
1.0
  0
MTEXT
  5
110
330
1F
100
AcDbEntity
  8
참조1
100
AcDbMText
 10
84.82593778009851
 20
0.1313667059122201
 30
0.0
 40
3.5
 41
0.0
 71
     1
 72
     1
  1
A
  7
SLDTEXTSTYLE0
 73
     1
 44
1.0
  0
INSERT
  5
117
330
1F
100
AcDbEntity
  8
해칭선
100
AcDbBlockReference
  2
SW_DOWELSYMBOL_0
 10
-0.0000000000000017
 20
0.0
 30
0.0
  0
LINE
  5
1B8
330
1F
100
AcDbEntity
  8
외형선
  6
Continuous
370
    15
100
AcDbLine
 10
2.220583680994441
 20
4.802249036713334
 30
0.0
 11
1.999999999999996
 21
4.74314381752739
 31
0.0
  0
LINE
  5
1B9
330
1F
100
AcDbEntity
  8
외형선
  6
Continuous
370
    15
100
AcDbLine
 10
1.999999999999996
 20
-4.781856182472612
 30
0.0
 11
2.220583680994441
 21
-4.840961401658557
 31
0.0
  0
LINE
  5
1BA
330
1F
100
AcDbEntity
  8
외형선
  6
Continuous
370
    15
100
AcDbLine
 10
1.999999999999996
 20
4.743143817527386
 30
0.0
 11
-14.43947116787296
 21
4.743143817527386
 31
0.0
  0
LINE
  5
1BB
330
1F
100
AcDbEntity
  8
외형선
  6
Continuous
370
    15
100
AcDbLine
 10
-38.12192116787307
 20
-4.781856182472612
 30
0.0
 11
1.999999999999996
 21
-4.781856182472609
 31
0.0
  0
LINE
  5
1BC
330
1F
100
AcDbEntity
  8
외형선
  6
Continuous
370
    15
100
AcDbLine
 10
-38.12192116787307
 20
4.743143817527383
 30
0.0
 11
-39.12192116787307
 21
3.743143817527384
 31
0.0
  0
LINE
  5
1BD
330
1F
100
AcDbEntity
  8
외형선
  6
Continuous
370
    15
100
AcDbLine
 10
-39.12192116787307
 20
-3.781856182472612
 30
0.0
 11
-38.12192116787307
 21
-4.781856182472612
 31
0.0
  0
SPLINE
  5
1BE
330
1F
100
AcDbEntity
  8
외형선
  6
Continuous
370
    15
100
AcDbSpline
210
0.0
220
0.0
230
1.0
 70
     8
 71
     3
 72
     9
 73
     5
 74
     0
 42
0.000000001
 43
0.00000001
 40
0.0
 40
0.0
 40
0.0
 40
0.0
 40
0.499860150242014
 40
1.0
 40
1.0
 40
1.0
 40
1.0
 10
2.50134464383132
 20
-4.409209372058667
 30
0.0
 10
2.70809572991649
 20
-4.389394210024358
 30
0.0
 10
3.121713590802312
 20
-4.349752798272069
 30
0.0
 10
3.534251956091705
 20
-4.317436671888375
 30
0.0
 10
3.740578832126939
 20
-4.301274089294074
 30
0.0
  0
SPLINE
  5
1BF
330
1F
100
AcDbEntity
  8
외형선
  6
Continuous
370
    15
100
AcDbSpline
210
0.0
220
0.0
230
1.0
 70
     8
 71
     3
 72
     8
 73
     4
 74
     0
 42
0.000000001
 43
0.00000001
 40
0.0
 40
0.0
 40
0.0
 40
0.0
 40
1.0
 40
1.0
 40
1.0
 40
1.0
 10
2.740578832126946
 20
4.716460459634224
 30
0.0
 10
2.568112440889823
 20
4.707913541130857
 30
0.0
 10
2.394832684289984
 20
4.694095970484899
 30
0.0
 10
2.220588764500437
 20
4.675230955584079
 30
0.0
  0
LINE
  5
1C0
330
1F
100
AcDbEntity
  8
외형선
  6
Continuous
370
    15
100
AcDbLine
 10
2.740578832126946
 20
4.716460459634241
 30
0.0
 11
2.740578832126946
 21
4.411246459386001
 31
0.0
  0
SPLINE
  5
1C1
330
1F
100
AcDbEntity
  8
외형선
  6
Continuous
370
    15
100
AcDbSpline
210
0.0
220
0.0
230
1.0
 70
     8
 71
     3
 72
     8
 73
     4
 74
     0
 42
0.000000001
 43
0.00000001
 40
0.0
 40
0.0
 40
0.0
 40
0.0
 40
1.0
 40
1.0
 40
1.0
 40
1.0
 10
2.220583680990535
 20
4.465666572699282
 30
0.0
 10
2.395289973746854
 20
4.452997648208513
 30
0.0
 10
2.568564841679509
 20
4.434959401130627
 30
0.0
 10
2.74057883212304
 20
4.411246459386001
 30
0.0
  0
SPLINE
  5
1C2
330
1F
100
AcDbEntity
  8
외형선
  6
Continuous
370
    15
100
AcDbSpline
210
0.0
220
0.0
230
1.0
 70
     8
 71
     3
 72
     8
 73
     4
 74
     0
 42
0.000000001
 43
0.00000001
 40
0.0
 40
0.0
 40
0.0
 40
0.0
 40
1.0
 40
1.0
 40
1.0
 40
1.0
 10
2.740578832126946
 20
-4.755172824579446
 30
0.0
 10
2.568112440889823
 20
-4.74662590607608
 30
0.0
 10
2.394832684289984
 20
-4.732808335430121
 30
0.0
 10
2.220588764500437
 20
-4.7139433205293
 30
0.0
  0
LINE
  5
1C3
330
1F
100
AcDbEntity
  8
외형선
  6
Continuous
370
    15
100
AcDbLine
 10
2.220583680994441
 20
4.675281099648757
 30
0.0
 11
2.220583680994441
 21
4.802249036713334
 31
0.0
  0
LINE
  5
1C4
330
1F
100
AcDbEntity
  8
외형선
  6
Continuous
370
    15
100
AcDbLine
 10
1.999999999999996
 20
4.74314381752739
 30
0.0
 11
1.999999999999996
 21
-4.781856182472612
 31
0.0
  0
LINE
  5
1C5
330
1F
100
AcDbEntity
  8
외형선
  6
Continuous
370
    15
100
AcDbLine
 10
2.220583680994441
 20
-5.113742162814775
 30
0.0
 11
2.220583680994441
 21
4.465666572699282
 31
0.0
  0
LINE
  5
1C6
330
1F
100
AcDbEntity
  8
외형선
  6
Continuous
370
    15
100
AcDbLine
 10
-38.12192116787307
 20
4.743143817527383
 30
0.0
 11
-38.12192116787307
 21
-4.781856182472612
 31
0.0
  0
LINE
  5
1C7
330
1F
100
AcDbEntity
  8
외형선
  6
Continuous
370
    15
100
AcDbLine
 10
-39.12192116787307
 20
3.743143817527384
 30
0.0
 11
-39.12192116787307
 21
-3.781856182472612
 31
0.0
  0
SPLINE
  5
1C8
330
1F
100
AcDbEntity
  8
외형선
  6
Continuous
370
    15
100
AcDbSpline
210
0.0
220
0.0
230
1.0
 70
    24
 71
     3
 72
    14
 73
    10
 74
     0
 42
0.000000001
 43
0.00000001
 40
0.0
 40
0.0
 40
0.0
 40
0.0
 40
0.25
 40
0.25
 40
0.5
 40
0.5
 40
0.75
 40
0.75
 40
1.0
 40
1.0
 40
1.0
 40
1.0
 10
3.740578832126939
 20
2.545336161289011
 30
0.0
 10
3.740578832126939
 20
2.186741055803314
 30
0.0
 10
3.740578832126946
 20
1.785491515996554
 30
0.0
 10
3.740578832126939
 20
0.9253508941412072
 30
0.0
 10
3.740578832126939
 20
0.4667658726069739
 30
0.0
 10
3.740578832126939
 20
-0.4646160151591943
 30
0.0
 10
3.740578832126946
 20
-0.9369166021819026
 30
0.0
 10
3.740578832126939
 20
-1.849317960136172
 30
0.0
 10
3.740578832126939
 20
-2.289039267529674
 30
0.0
 10
3.740578832126939
 20
-2.695129788713579
 30
0.0
  0
SPLINE
  5
1C9
330
1F
100
AcDbEntity
  8
외형선
  6
Continuous
370
    15
100
AcDbSpline
210
0.0
220
0.0
230
1.0
 70
     8
 71
     3
 72
    10
 73
     6
 74
     0
 42
0.000000001
 43
0.00000001
 40
0.0
 40
0.0
 40
0.0
 40
0.0
 40
0.5
 40
0.5
 40
1.0
 40
1.0
 40
1.0
 40
1.0
 10
3.74057883212694
 20
1.740765863926214
 30
0.0
 10
3.48666161494597
 20
1.827289180590736
 30
0.0
 10
3.234682274308388
 20
1.917083441816917
 30
0.0
 10
2.729173534715533
 20
2.103121805903395
 30
0.0
 10
2.474896763442179
 20
2.199469466224276
 30
0.0
 10
2.220585536914645
 20
2.298598713182809
 30
0.0
  0
SPLINE
  5
1CA
330
1F
100
AcDbEntity
  8
외형선
  6
Continuous
370
    15
100
AcDbSpline
210
0.0
220
0.0
230
1.0
 70
     8
 71
     3
 72
    10
 73
     6
 74
     0
 42
0.000000001
 43
0.00000001
 40
0.0
 40
0.0
 40
0.0
 40
0.0
 40
0.5
 40
0.5
 40
1.0
 40
1.0
 40
1.0
 40
1.0
 10
3.74057883212694
 20
2.70660854474213
 30
0.0
 10
3.486661509866747
 20
2.775722147855907
 30
0.0
 10
3.234682066369932
 20
2.841313157886978
 30
0.0
 10
2.729173115065994
 20
2.965436851241888
 30
0.0
 10
2.474896237284423
 20
3.024017637662242
 30
0.0
 10
2.220584905460986
 20
3.078751027785094
 30
0.0
  0
LINE
  5
1CB
330
1F
100
AcDbEntity
  8
외형선
  6
Continuous
370
    15
100
AcDbLine
 10
2.502017969337562
 20
-4.409349875695545
 30
0.0
 11
2.220588764500437
 21
-4.439537423055993
 31
0.0
  0
SPLINE
  5
1CC
330
1F
100
AcDbEntity
  8
외형선
  6
Continuous
370
    15
100
AcDbSpline
210
0.0
220
0.0
230
1.0
 70
    24
 71
     3
 72
    13
 73
     9
 74
     0
 42
0.000000001
 43
0.00000001
 40
0.0
 40
0.0
 40
0.0
 40
0.0
 40
0.1570783618121704
 40
0.316208208231654
 40
0.5470874379448776
 40
0.7846621809606552
 40
0.9929246111127845
 40
1.0
 40
1.0
 40
1.0
 40
1.0
 10
3.740578832126939
 20
-2.695129788713579
 30
0.0
 10
3.740578832126939
 20
-2.824910152773509
 30
0.0
 10
3.740578832126939
 20
-3.086165846489699
 30
0.0
 10
3.740578832126939
 20
-3.453963915565943
 30
0.0
 10
3.740578832126939
 20
-3.783325801318931
 30
0.0
 10
3.740578832126939
 20
-3.977280210535682
 30
0.0
 10
3.740578832126946
 20
-4.052619503879964
 30
0.0
 10
3.740578832126939
 20
-4.030434088191299
 30
0.0
 10
3.740578832126939
 20
-4.029705138467921
 30
0.0
  0
SPLINE
  5
1CD
330
1F
100
AcDbEntity
  8
외형선
  6
Continuous
370
    15
100
AcDbSpline
210
0.0
220
0.0
230
1.0
 70
     8
 71
     3
 72
     8
 73
     4
 74
     0
 42
0.000000001
 43
0.00000001
 40
0.0
 40
0.0
 40
0.0
 40
0.0
 40
1.0
 40
1.0
 40
1.0
 40
1.0
 10
3.740578832123048
 20
4.065912674034294
 30
0.0
 10
3.405980100015994
 20
4.190050412577316
 30
0.0
 10
3.074721647806845
 20
4.305180052319274
 30
0.0
 10
2.74057883212304
 20
4.411246459386001
 30
0.0
  0
SPLINE
  5
1CE
330
1F
100
AcDbEntity
  8
외형선
  6
Continuous
370
    15
100
AcDbSpline
210
0.0
220
0.0
230
1.0
 70
    24
 71
     3
 72
    10
 73
     6
 74
     0
 42
0.000000001
 43
0.00000001
 40
0.0
 40
0.0
 40
0.0
 40
0.0
 40
0.5
 40
0.5
 40
1.0
 40
1.0
 40
1.0
 40
1.0
 10
3.740578832126939
 20
3.778879379036303
 30
0.0
 10
3.740578832126939
 20
3.63824971029821
 30
0.0
 10
3.740578832126939
 20
3.451014517441706
 30
0.0
 10
3.740578832126939
 20
3.022581648190481
 30
0.0
 10
3.740578832126939
 20
2.782741221064388
 30
0.0
 10
3.740578832126939
 20
2.545336161289011
 30
0.0
  0
LINE
  5
1D0
330
1F
100
AcDbEntity
  8
외형선
  6
Continuous
370
    15
100
AcDbLine
 10
3.740578832126939
 20
4.512521582469166
 30
0.0
 11
3.740578832126939
 21
3.778879379036304
 31
0.0
  0
SPLINE
  5
1D2
330
1F
100
AcDbEntity
  8
외형선
  6
Continuous
370
    15
100
AcDbSpline
210
0.0
220
0.0
230
1.0
 70
    24
 71
     3
 72
    10
 73
     6
 74
     0
 42
0.000000001
 43
0.00000001
 40
0.0
 40
0.0
 40
0.0
 40
0.0
 40
0.3594513896827398
 40
0.8364083631556398
 40
1.0
 40
1.0
 40
1.0
 40
1.0
 10
3.740578832126939
 20
-4.031773962449169
 30
0.0
 10
3.740578832126939
 20
-4.097651409362488
 30
0.0
 10
3.740578832126939
 20
-4.250941810020752
 30
0.0
 10
3.740578832126939
 20
-4.420856136927409
 30
0.0
 10
3.740578832126939
 20
-4.524710316118689
 30
0.0
 10
3.740578832126939
 20
-4.551233947414392
 30
0.0
  0
SPLINE
  5
1D3
330
1F
100
AcDbEntity
  8
외형선
  6
Continuous
370
    15
100
AcDbSpline
210
0.0
220
0.0
230
1.0
 70
    24
 71
     3
 72
    10
 73
     6
 74
     0
 42
0.000000001
 43
0.00000001
 40
0.0
 40
0.0
 40
0.0
 40
0.0
 40
0.5
 40
0.5
 40
1.0
 40
1.0
 40
1.0
 40
1.0
 10
3.740578832126939
 20
3.778879379036304
 30
0.0
 10
3.740578832126939
 20
3.638249710298213
 30
0.0
 10
3.740578832126939
 20
3.45101451744171
 30
0.0
 10
3.740578832126939
 20
3.022581648190483
 30
0.0
 10
3.740578832126939
 20
2.782741221064388
 30
0.0
 10
3.740578832126939
 20
2.545336161289011
 30
0.0
  0
SPLINE
  5
1D4
330
1F
100
AcDbEntity
  8
외형선
  6
Continuous
370
    15
100
AcDbSpline
210
0.0
220
0.0
230
1.0
 70
    24
 71
     3
 72
    14
 73
    10
 74
     0
 42
0.000000001
 43
0.00000001
 40
0.0
 40
0.0
 40
0.0
 40
0.0
 40
0.25
 40
0.25
 40
0.5
 40
0.5
 40
0.75
 40
0.75
 40
1.0
 40
1.0
 40
1.0
 40
1.0
 10
3.740578832126939
 20
2.545336161289011
 30
0.0
 10
3.740578832126939
 20
2.186741055803314
 30
0.0
 10
3.740578832126946
 20
1.785491515996554
 30
0.0
 10
3.740578832126939
 20
0.9253508941412072
 30
0.0
 10
3.740578832126939
 20
0.4667658726069739
 30
0.0
 10
3.740578832126939
 20
-0.4646160151591943
 30
0.0
 10
3.740578832126946
 20
-0.9369166021819026
 30
0.0
 10
3.740578832126939
 20
-1.849317960136172
 30
0.0
 10
3.740578832126939
 20
-2.289039267529674
 30
0.0
 10
3.740578832126939
 20
-2.695129788713579
 30
0.0
  0
SPLINE
  5
1D5
330
1F
100
AcDbEntity
  8
외형선
  6
Continuous
370
    15
100
AcDbSpline
210
0.0
220
0.0
230
1.0
 70
    24
 71
     3
 72
    13
 73
     9
 74
     0
 42
0.000000001
 43
0.00000001
 40
0.0
 40
0.0
 40
0.0
 40
0.0
 40
0.1571719763677811
 40
0.3163966599735271
 40
0.5474134876107424
 40
0.7851298188996289
 40
0.993516367960462
 40
1.0
 40
1.0
 40
1.0
 40
1.0
 10
3.740578832126939
 20
-2.695129788713579
 30
0.0
 10
3.740578832126939
 20
-2.824910329447757
 30
0.0
 10
3.740578832126939
 20
-3.086166378819858
 30
0.0
 10
3.740578832126939
 20
-3.453961347097401
 30
0.0
 10
3.740578832126939
 20
-3.78334057164664
 30
0.0
 10
3.740578832126939
 20
-3.977226936850105
 30
0.0
 10
3.740578832126939
 20
-4.052622543143553
 30
0.0
 10
3.740578832126939
 20
-4.030549991079713
 30
0.0
 10
3.740578832126939
 20
-4.029883959594923
 30
0.0
  0
SPLINE
  5
1D6
330
1F
100
AcDbEntity
  8
외형선
  6
Continuous
370
    15
100
AcDbSpline
210
0.0
220
0.0
230
1.0
 70
    24
 71
     3
 72
    10
 73
     6
 74
     0
 42
0.000000001
 43
0.00000001
 40
0.0
 40
0.0
 40
0.0
 40
0.0
 40
0.3594513896922377
 40
0.8364083631777426
 40
1.0
 40
1.0
 40
1.0
 40
1.0
 10
3.740578832126939
 20
-4.031773962449172
 30
0.0
 10
3.740578832126939
 20
-4.097651409362488
 30
0.0
 10
3.740578832126939
 20
-4.250941810020763
 30
0.0
 10
3.740578832126939
 20
-4.420856136922875
 30
0.0
 10
3.740578832126946
 20
-4.524710316110152
 30
0.0
 10
3.740578832126946
 20
-4.551233947401641
 30
0.0
  0
LINE
  5
1D7
330
1F
100
AcDbEntity
  8
외형선
  6
Continuous
370
    15
100
AcDbLine
 10
-22.84687116787319
 20
3.473143817527394
 30
0.0
 11
-15.70947116787306
 21
3.473143817527394
 31
0.0
1001
PE_URL
1000

  0
LINE
  5
1D8
330
1F
100
AcDbEntity
  8
외형선
  6
Continuous
370
    15
100
AcDbLine
 10
-22.84687116787319
 20
3.473143817527394
 30
0.0
 11
-24.11687116787317
 21
4.743143817527375
 31
0.0
1001
PE_URL
1000

  0
LINE
  5
1D9
330
1F
100
AcDbEntity
  8
외형선
  6
Continuous
370
    15
100
AcDbLine
 10
-15.70947116787306
 20
3.473143817527394
 30
0.0
 11
-14.43947116787297
 21
4.743143817527375
 31
0.0
1001
PE_URL
1000

  0
LINE
  5
1DA
330
1F
100
AcDbEntity
  8
외형선
  6
Continuous
370
    15
100
AcDbLine
 10
-24.11687116787319
 20
4.743143817527386
 30
0.0
 11
-38.12192116787307
 21
4.743143817527384
 31
0.0
  0
SPLINE
  5
23F
330
1F
100
AcDbEntity
  8
외형선
  6
Continuous
370
    15
100
AcDbSpline
210
0.0
220
0.0
230
1.0
 70
  1064
 71
     3
 72
     9
 73
     5
 74
     3
 42
0.000000001
 43
0.0000000001
 44
0.0
 40
0.0
 40
0.0
 40
0.0
 40
0.0
 40
0.4619472624702419
 40
1.002207127856808
 40
1.002207127856808
 40
1.002207127856808
 40
1.002207127856808
 10
3.740578832126936
 20
4.650565050619787
 30
0.0
 10
3.586800159503173
 20
4.658613539055017
 30
0.0
 10
3.253173154135169
 20
4.676074953232749
 30
0.0
 10
2.920118582811508
 20
4.702315153220808
 30
0.0
 10
2.740578832126946
 20
4.716460459634245
 30
0.0
 11
3.740578832126936
 21
4.650565050619787
 31
0.0
 11
3.279364431532779
 21
4.676575625167903
 31
0.0
 11
2.740578832126946
 21
4.716460459634245
 31
0.0
1001
PE_URL
1000

  0
SPLINE
  5
247
330
1F
100
AcDbEntity
  8
외형선
  6
Continuous
370
    15
100
AcDbSpline
210
0.0
220
0.0
230
1.0
 70
  1064
 71
     3
 72
    10
 73
     6
 74
     4
 42
0.000000001
 43
0.0000000001
 44
0.0
 40
0.0
 40
0.0
 40
0.0
 40
0.0
 40
0.4145835824179114
 40
0.8749082285918282
 40
1.006910361154228
 40
1.006910361154228
 40
1.006910361154228
 40
1.006910361154228
 10
2.740578832126946
 20
-4.755172824579446
 30
0.0
 10
2.878512970292814
 20
-4.747921307368192
 30
0.0
 10
3.169599539088468
 20
-4.732618212052889
 30
0.0
 10
3.504915453365883
 20
-4.701296084390165
 30
0.0
 10
3.697631397504255
 20
-4.658052238309523
 30
0.0
 10
3.740578832126936
 20
-4.648415193172001
 30
0.0
 11
2.740578832126946
 21
-4.755172824579446
 31
0.0
 11
3.154442030331783
 21
-4.730743334569763
 31
0.0
 11
3.611511176279555
 21
-4.67609376277166
 31
0.0
 11
3.740578832126936
 21
-4.648415193172001
 31
0.0
1001
PE_URL
1000

  0
ENDSEC
  0
SECTION
  2
OBJECTS
  0
DICTIONARY
  5
C
330
0
100
AcDbDictionary
281
     1
  3
ACAD_DETAILVIEWSTYLE
350
245
  3
ACAD_GROUP
350
D
  3
ACAD_LAYOUT
350
1A
  3
ACAD_MLINESTYLE
350
17
  3
ACAD_PLOTSETTINGS
350
19
  3
ACAD_PLOTSTYLENAME
350
E
  3
ACAD_SCALELIST
350
47
  3
ACAD_SECTIONVIEWSTYLE
350
246
  3
AcDbVariableDictionary
350
240
  3
APPDATA
350
139
  3
DWGPROPS
350
248
  0
DICTIONARY
  5
18D
330
2
100
AcDbDictionary
280
     1
281
     1
  3
ACAD_LAYERSTATES
360
18E
  0
DICTIONARY
  5
245
102
{ACAD_REACTORS
330
C
102
}
330
C
100
AcDbDictionary
281
     1
  0
DICTIONARY
  5
D
102
{ACAD_REACTORS
330
C
102
}
330
C
100
AcDbDictionary
281
     1
  0
DICTIONARY
  5
1A
102
{ACAD_REACTORS
330
C
102
}
330
C
100
AcDbDictionary
281
     1
  3
Layout1
350
1E
  3
Layout2
350
26
  3
Model
350
22
  0
DICTIONARY
  5
17
102
{ACAD_REACTORS
330
C
102
}
330
C
100
AcDbDictionary
281
     1
  3
Standard
350
18
  0
DICTIONARY
  5
19
102
{ACAD_REACTORS
330
C
102
}
330
C
100
AcDbDictionary
281
     1
  0
ACDBDICTIONARYWDFLT
  5
E
102
{ACAD_REACTORS
330
C
102
}
330
C
100
AcDbDictionary
281
     1
  3
Normal
350
F
100
AcDbDictionaryWithDefault
340
F
  0
DICTIONARY
  5
47
102
{ACAD_REACTORS
330
C
102
}
330
C
100
AcDbDictionary
281
     1
  3
A0
350
48
  3
A1
350
49
  3
A2
350
4A
  3
A3
350
4B
  3
A4
350
4C
  3
A5
350
4D
  3
A6
350
4E
  3
A7
350
4F
  3
A8
350
50
  3
A9
350
51
  3
B0
350
52
  3
B1
350
53
  3
B2
350
54
  3
B3
350
55
  3
B4
350
56
  3
B5
350
57
  3
B6
350
58
  3
B7
350
59
  3
B8
350
5A
  3
B9
350
5B
  3
C0
350
5C
  3
C1
350
5D
  3
C2
350
5E
  3
C3
350
5F
  3
C4
350
60
  3
C5
350
61
  3
C6
350
62
  3
C7
350
63
  3
C8
350
64
  3
C9
350
65
  3
D0
350
66
  3
D1
350
67
  3
D2
350
68
  0
DICTIONARY
  5
246
102
{ACAD_REACTORS
330
C
102
}
330
C
100
AcDbDictionary
281
     1
  0
DICTIONARY
  5
240
102
{ACAD_REACTORS
330
C
102
}
330
C
100
AcDbDictionary
281
     1
  0
DICTIONARY
  5
139
102
{ACAD_REACTORS
330
C
102
}
330
C
100
AcDbDictionary
281
     1
  0
XRECORD
  5
248
102
{ACAD_REACTORS
330
C
102
}
330
C
100
AcDbXrecord
280
     1
  1
DWGPROPS COOKIE
  2

  3

  4

  6

  7

  8
120170442
  9

300
=
301
=
302
=
303
=
304
=
305
=
306
=
307
=
308
=
309
=
 40
0.0
 41
2458311.184706736
 42
2458320.19764118
  1

 90
        0
  0
DICTIONARY
  5
18E
102
{ACAD_REACTORS
330
18D
102
}
330
18D
100
AcDbDictionary
281
     1
  0
LAYOUT
  5
1E
102
{ACAD_REACTORS
330
1A
102
}
330
1A
100
AcDbPlotSettings
  1

  2
none_device
  4

  6

 40
0.0
 41
0.0
 42
0.0
 43
0.0
 44
0.0
 45
0.0
 46
0.0
 47
0.0
 48
0.0
 49
0.0
140
0.0
141
0.0
142
1.0
143
1.0
 70
   688
 72
     1
 73
     0
 74
     5
  7

 75
    16
147
1.0
148
0.0
149
0.0
100
AcDbLayout
  1
Layout1
 70
     1
 71
     1
 10
0.0
 20
0.0
 11
420.0
 21
297.0
 12
0.0
 22
0.0
 32
0.0
 14
1.000000000000000E+20
 24
1.000000000000000E+20
 34
1.000000000000000E+20
 15
-1.000000000000000E+20
 25
-1.000000000000000E+20
 35
-1.000000000000000E+20
146
0.0
 13
0.0
 23
0.0
 33
0.0
 16
1.0
 26
0.0
 36
0.0
 17
0.0
 27
1.0
 37
0.0
 76
     0
330
1B
  0
LAYOUT
  5
26
102
{ACAD_REACTORS
330
1A
102
}
330
1A
100
AcDbPlotSettings
  1

  2
none_device
  4

  6

 40
0.0
 41
0.0
 42
0.0
 43
0.0
 44
0.0
 45
0.0
 46
0.0
 47
0.0
 48
0.0
 49
0.0
140
0.0
141
0.0
142
1.0
143
1.0
 70
   688
 72
     1
 73
     0
 74
     5
  7

 75
    16
147
1.0
148
0.0
149
0.0
100
AcDbLayout
  1
Layout2
 70
     1
 71
     2
 10
0.0
 20
0.0
 11
0.0
 21
0.0
 12
0.0
 22
0.0
 32
0.0
 14
0.0
 24
0.0
 34
0.0
 15
0.0
 25
0.0
 35
0.0
146
0.0
 13
0.0
 23
0.0
 33
0.0
 16
1.0
 26
0.0
 36
0.0
 17
0.0
 27
1.0
 37
0.0
 76
     0
330
23
  0
LAYOUT
  5
22
102
{ACAD_REACTORS
330
1A
102
}
330
1A
100
AcDbPlotSettings
  1

  2
none_device
  4
ANSI_A_(11.00_x_8.50_Inches)
  6

 40
6.35
 41
19.05
 42
6.35000508
 43
19.05000254
 44
279.4
 45
215.9
 46
102.7296375289642
 47
99.62994852068644
 48
0.0
 49
0.0
140
0.0
141
0.0
142
0.0754527591236048
143
1.0
 70
  1696
 72
     0
 73
     0
 74
     0
  7

 75
     0
147
0.0235690232323232
148
0.0
149
0.0
100
AcDbLayout
  1
Model
 70
     1
 71
     0
 10
0.0
 20
0.0
 11
420.0
 21
297.0
 12
0.0
 22
0.0
 32
0.0
 14
-53.49692116787318
 24
-49.97073246008785
 34
0.0
 15
88.14158764747253
 25
41.42816843813794
 35
0.0
146
0.0
 13
0.0
 23
0.0
 33
0.0
 16
1.0
 26
0.0
 36
0.0
 17
0.0
 27
1.0
 37
0.0
 76
     0
330
1F
331
29
  0
MLINESTYLE
  5
18
102
{ACAD_REACTORS
330
17
102
}
330
17
100
AcDbMlineStyle
  2
Standard
 70
     0
  3

 62
   256
 51
90.0
 52
90.0
 71
     2
 49
0.5
 62
   256
  6
BYLAYER
 49
-0.5
 62
   256
  6
BYLAYER
  0
ACDBPLACEHOLDER
  5
F
102
{ACAD_REACTORS
330
E
102
}
330
E
  0
SCALE
  5
48
102
{ACAD_REACTORS
330
47
102
}
330
47
100
AcDbScale
 70
     0
300
1:1
140
1.0
141
1.0
290
     1
  0
SCALE
  5
49
102
{ACAD_REACTORS
330
47
102
}
330
47
100
AcDbScale
 70
     0
300
1:2
140
1.0
141
2.0
290
     0
  0
SCALE
  5
4A
102
{ACAD_REACTORS
330
47
102
}
330
47
100
AcDbScale
 70
     0
300
1:4
140
1.0
141
4.0
290
     0
  0
SCALE
  5
4B
102
{ACAD_REACTORS
330
47
102
}
330
47
100
AcDbScale
 70
     0
300
1:5
140
1.0
141
5.0
290
     0
  0
SCALE
  5
4C
102
{ACAD_REACTORS
330
47
102
}
330
47
100
AcDbScale
 70
     0
300
1:8
140
1.0
141
8.0
290
     0
  0
SCALE
  5
4D
102
{ACAD_REACTORS
330
47
102
}
330
47
100
AcDbScale
 70
     0
300
1:10
140
1.0
141
10.0
290
     0
  0
SCALE
  5
4E
102
{ACAD_REACTORS
330
47
102
}
330
47
100
AcDbScale
 70
     0
300
1:16
140
1.0
141
16.0
290
     0
  0
SCALE
  5
4F
102
{ACAD_REACTORS
330
47
102
}
330
47
100
AcDbScale
 70
     0
300
1:20
140
1.0
141
20.0
290
     0
  0
SCALE
  5
50
102
{ACAD_REACTORS
330
47
102
}
330
47
100
AcDbScale
 70
     0
300
1:30
140
1.0
141
30.0
290
     0
  0
SCALE
  5
51
102
{ACAD_REACTORS
330
47
102
}
330
47
100
AcDbScale
 70
     0
300
1:40
140
1.0
141
40.0
290
     0
  0
SCALE
  5
52
102
{ACAD_REACTORS
330
47
102
}
330
47
100
AcDbScale
 70
     0
300
1:50
140
1.0
141
50.0
290
     0
  0
SCALE
  5
53
102
{ACAD_REACTORS
330
47
102
}
330
47
100
AcDbScale
 70
     0
300
1:100
140
1.0
141
100.0
290
     0
  0
SCALE
  5
54
102
{ACAD_REACTORS
330
47
102
}
330
47
100
AcDbScale
 70
     0
300
2:1
140
2.0
141
1.0
290
     0
  0
SCALE
  5
55
102
{ACAD_REACTORS
330
47
102
}
330
47
100
AcDbScale
 70
     0
300
4:1
140
4.0
141
1.0
290
     0
  0
SCALE
  5
56
102
{ACAD_REACTORS
330
47
102
}
330
47
100
AcDbScale
 70
     0
300
8:1
140
8.0
141
1.0
290
     0
  0
SCALE
  5
57
102
{ACAD_REACTORS
330
47
102
}
330
47
100
AcDbScale
 70
     0
300
10:1
140
10.0
141
1.0
290
     0
  0
SCALE
  5
58
102
{ACAD_REACTORS
330
47
102
}
330
47
100
AcDbScale
 70
     0
300
100:1
140
100.0
141
1.0
290
     0
  0
SCALE
  5
59
102
{ACAD_REACTORS
330
47
102
}
330
47
100
AcDbScale
 70
     0
300
1/128" = 1'-0"
140
0.0078125
141
12.0
290
     0
  0
SCALE
  5
5A
102
{ACAD_REACTORS
330
47
102
}
330
47
100
AcDbScale
 70
     0
300
1/64" = 1'-0"
140
0.015625
141
12.0
290
     0
  0
SCALE
  5
5B
102
{ACAD_REACTORS
330
47
102
}
330
47
100
AcDbScale
 70
     0
300
1/32" = 1'-0"
140
0.03125
141
12.0
290
     0
  0
SCALE
  5
5C
102
{ACAD_REACTORS
330
47
102
}
330
47
100
AcDbScale
 70
     0
300
1/16" = 1'-0"
140
0.0625
141
12.0
290
     0
  0
SCALE
  5
5D
102
{ACAD_REACTORS
330
47
102
}
330
47
100
AcDbScale
 70
     0
300
3/32" = 1'-0"
140
0.09375
141
12.0
290
     0
  0
SCALE
  5
5E
102
{ACAD_REACTORS
330
47
102
}
330
47
100
AcDbScale
 70
     0
300
1/8" = 1'-0"
140
0.125
141
12.0
290
     0
  0
SCALE
  5
5F
102
{ACAD_REACTORS
330
47
102
}
330
47
100
AcDbScale
 70
     0
300
3/16" = 1'-0"
140
0.1875
141
12.0
290
     0
  0
SCALE
  5
60
102
{ACAD_REACTORS
330
47
102
}
330
47
100
AcDbScale
 70
     0
300
1/4" = 1'-0"
140
0.25
141
12.0
290
     0
  0
SCALE
  5
61
102
{ACAD_REACTORS
330
47
102
}
330
47
100
AcDbScale
 70
     0
300
3/8" = 1'-0"
140
0.375
141
12.0
290
     0
  0
SCALE
  5
62
102
{ACAD_REACTORS
330
47
102
}
330
47
100
AcDbScale
 70
     0
300
1/2" = 1'-0"
140
0.5
141
12.0
290
     0
  0
SCALE
  5
63
102
{ACAD_REACTORS
330
47
102
}
330
47
100
AcDbScale
 70
     0
300
3/4" = 1'-0"
140
0.75
141
12.0
290
     0
  0
SCALE
  5
64
102
{ACAD_REACTORS
330
47
102
}
330
47
100
AcDbScale
 70
     0
300
1" = 1'-0"
140
1.0
141
12.0
290
     0
  0
SCALE
  5
65
102
{ACAD_REACTORS
330
47
102
}
330
47
100
AcDbScale
 70
     0
300
1-1/2" = 1'-0"
140
1.5
141
12.0
290
     0
  0
SCALE
  5
66
102
{ACAD_REACTORS
330
47
102
}
330
47
100
AcDbScale
 70
     0
300
3" = 1'-0"
140
3.0
141
12.0
290
     0
  0
SCALE
  5
67
102
{ACAD_REACTORS
330
47
102
}
330
47
100
AcDbScale
 70
     0
300
6" = 1'-0"
140
6.0
141
12.0
290
     0
  0
SCALE
  5
68
102
{ACAD_REACTORS
330
47
102
}
330
47
100
AcDbScale
 70
     0
300
1'-0" = 1'-0"
140
12.0
141
12.0
290
     0
  0
ENDSEC
  0
EOF
