  0
SECTION
  2
HEADER
  9
$ACADVER
  1
AC1015
  9
$ACADMAINTVER
 70
     6
  9
$DWGCODEPAGE
  3
ANSI_949
  9
$INSBASE
 10
0.0
 20
0.0
 30
0.0
  9
$EXTMIN
 10
-68.80001236127868
 20
-49.97180738881175
 30
0.0
  9
$EXTMAX
 10
89.45099645406704
 20
47.47387048047401
 30
0.0
  9
$LIMMIN
 10
0.0
 20
0.0
  9
$LIMMAX
 10
420.0
 20
297.0
  9
$ORTHOMODE
 70
     1
  9
$REGENMODE
 70
     1
  9
$FILLMODE
 70
     1
  9
$QTEXTMODE
 70
     0
  9
$MIRRTEXT
 70
     1
  9
$LTSCALE
 40
1.0
  9
$ATTMODE
 70
     1
  9
$TEXTSIZE
 40
3.5
  9
$TRACEWID
 40
1.0
  9
$TEXTSTYLE
  7
Standard
  9
$CLAYER
  8
0
  9
$CELTYPE
  6
ByLayer
  9
$CECOLOR
 62
   256
  9
$CELTSCALE
 40
1.0
  9
$DISPSILH
 70
     0
  9
$DIMSCALE
 40
1.0
  9
$DIMASZ
 40
3.302
  9
$DIMEXO
 40
1.0
  9
$DIMDLI
 40
3.75
  9
$DIMRND
 40
0.0
  9
$DIMDLE
 40
0.0
  9
$DIMEXE
 40
1.0
  9
$DIMTP
 40
0.0
  9
$DIMTM
 40
0.0
  9
$DIMTXT
 40
3.5
  9
$DIMCEN
 40
2.5
  9
$DIMTSZ
 40
0.0
  9
$DIMTOL
 70
     0
  9
$DIMLIM
 70
     0
  9
$DIMTIH
 70
     1
  9
$DIMTOH
 70
     1
  9
$DIMSE1
 70
     0
  9
$DIMSE2
 70
     0
  9
$DIMTAD
 70
     1
  9
$DIMZIN
 70
     0
  9
$DIMBLK
  1

  9
$DIMASO
 70
     1
  9
$DIMSHO
 70
     1
  9
$DIMPOST
  1

  9
$DIMAPOST
  1

  9
$DIMALT
 70
     0
  9
$DIMALTD
 70
     3
  9
$DIMALTF
 40
0.0393700787401575
  9
$DIMLFAC
 40
1.0
  9
$DIMTOFL
 70
     1
  9
$DIMTVP
 40
0.0
  9
$DIMTIX
 70
     0
  9
$DIMSOXD
 70
     0
  9
$DIMSAH
 70
     0
  9
$DIMBLK1
  1

  9
$DIMBLK2
  1

  9
$DIMSTYLE
  2
ISO-25
  9
$DIMCLRD
 70
     0
  9
$DIMCLRE
 70
     0
  9
$DIMCLRT
 70
     0
  9
$DIMTFAC
 40
1.0
  9
$DIMGAP
 40
1.524
  9
$DIMJUST
 70
     0
  9
$DIMSD1
 70
     0
  9
$DIMSD2
 70
     0
  9
$DIMTOLJ
 70
     0
  9
$DIMTZIN
 70
     0
  9
$DIMALTZ
 70
     0
  9
$DIMALTTZ
 70
     0
  9
$DIMUPT
 70
     0
  9
$DIMDEC
 70
     2
  9
$DIMTDEC
 70
     2
  9
$DIMALTU
 70
     2
  9
$DIMALTTD
 70
     3
  9
$DIMTXSTY
  7
Standard
  9
$DIMAUNIT
 70
     0
  9
$DIMADEC
 70
     2
  9
$DIMALTRND
 40
0.0
  9
$DIMAZIN
 70
     0
  9
$DIMDSEP
 70
    44
  9
$DIMATFIT
 70
     3
  9
$DIMFRAC
 70
     0
  9
$DIMLDRBLK
  1

  9
$DIMLUNIT
 70
     2
  9
$DIMLWD
 70
    -2
  9
$DIMLWE
 70
    -2
  9
$DIMTMOVE
 70
     0
  9
$LUNITS
 70
     2
  9
$LUPREC
 70
     2
  9
$SKETCHINC
 40
1.0
  9
$FILLETRAD
 40
10.0
  9
$AUNITS
 70
     0
  9
$AUPREC
 70
     2
  9
$MENU
  1
.
  9
$ELEVATION
 40
0.0
  9
$PELEVATION
 40
0.0
  9
$THICKNESS
 40
0.0
  9
$LIMCHECK
 70
     0
  9
$CHAMFERA
 40
0.0
  9
$CHAMFERB
 40
0.0
  9
$CHAMFERC
 40
0.0
  9
$CHAMFERD
 40
0.0
  9
$SKPOLY
 70
     0
  9
$TDCREATE
 40
2458311.561613403
  9
$TDUCREATE
 40
2458311.186613403
  9
$TDUPDATE
 40
2458320.73660265
  9
$TDUUPDATE
 40
2458320.36160265
  9
$TDINDWG
 40
0.0018245602
  9
$TDUSRTIMER
 40
0.0018245486
  9
$USRTIMER
 70
     1
  9
$ANGBASE
 50
0.0
  9
$ANGDIR
 70
     0
  9
$PDMODE
 70
     0
  9
$PDSIZE
 40
-1.0
  9
$PLINEWID
 40
0.0
  9
$SPLFRAME
 70
     0
  9
$SPLINETYPE
 70
     6
  9
$SPLINESEGS
 70
     8
  9
$HANDSEED
  5
2B1
  9
$SURFTAB1
 70
     6
  9
$SURFTAB2
 70
     6
  9
$SURFTYPE
 70
     6
  9
$SURFU
 70
     6
  9
$SURFV
 70
     6
  9
$UCSBASE
  2

  9
$UCSNAME
  2

  9
$UCSORG
 10
0.0
 20
0.0
 30
0.0
  9
$UCSXDIR
 10
1.0
 20
0.0
 30
0.0
  9
$UCSYDIR
 10
0.0
 20
1.0
 30
0.0
  9
$UCSORTHOREF
  2

  9
$UCSORTHOVIEW
 70
     0
  9
$UCSORGTOP
 10
0.0
 20
0.0
 30
0.0
  9
$UCSORGBOTTOM
 10
0.0
 20
0.0
 30
0.0
  9
$UCSORGLEFT
 10
0.0
 20
0.0
 30
0.0
  9
$UCSORGRIGHT
 10
0.0
 20
0.0
 30
0.0
  9
$UCSORGFRONT
 10
0.0
 20
0.0
 30
0.0
  9
$UCSORGBACK
 10
0.0
 20
0.0
 30
0.0
  9
$PUCSBASE
  2

  9
$PUCSNAME
  2

  9
$PUCSORG
 10
0.0
 20
0.0
 30
0.0
  9
$PUCSXDIR
 10
1.0
 20
0.0
 30
0.0
  9
$PUCSYDIR
 10
0.0
 20
1.0
 30
0.0
  9
$PUCSORTHOREF
  2

  9
$PUCSORTHOVIEW
 70
     0
  9
$PUCSORGTOP
 10
0.0
 20
0.0
 30
0.0
  9
$PUCSORGBOTTOM
 10
0.0
 20
0.0
 30
0.0
  9
$PUCSORGLEFT
 10
0.0
 20
0.0
 30
0.0
  9
$PUCSORGRIGHT
 10
0.0
 20
0.0
 30
0.0
  9
$PUCSORGFRONT
 10
0.0
 20
0.0
 30
0.0
  9
$PUCSORGBACK
 10
0.0
 20
0.0
 30
0.0
  9
$USERI1
 70
     0
  9
$USERI2
 70
     0
  9
$USERI3
 70
     0
  9
$USERI4
 70
     0
  9
$USERI5
 70
     0
  9
$USERR1
 40
0.0
  9
$USERR2
 40
0.0
  9
$USERR3
 40
0.0
  9
$USERR4
 40
0.0
  9
$USERR5
 40
0.0
  9
$WORLDVIEW
 70
     1
  9
$SHADEDGE
 70
     3
  9
$SHADEDIF
 70
    70
  9
$TILEMODE
 70
     1
  9
$MAXACTVP
 70
    64
  9
$PINSBASE
 10
0.0
 20
0.0
 30
0.0
  9
$PLIMCHECK
 70
     0
  9
$PEXTMIN
 10
1.000000000000000E+20
 20
1.000000000000000E+20
 30
1.000000000000000E+20
  9
$PEXTMAX
 10
-1.000000000000000E+20
 20
-1.000000000000000E+20
 30
-1.000000000000000E+20
  9
$PLIMMIN
 10
0.0
 20
0.0
  9
$PLIMMAX
 10
0.0
 20
0.0
  9
$UNITMODE
 70
     0
  9
$VISRETAIN
 70
     1
  9
$PLINEGEN
 70
     0
  9
$PSLTSCALE
 70
     1
  9
$TREEDEPTH
 70
  3020
  9
$CMLSTYLE
  2
Standard
  9
$CMLJUST
 70
     0
  9
$CMLSCALE
 40
20.0
  9
$PROXYGRAPHICS
 70
     1
  9
$MEASUREMENT
 70
     1
  9
$CELWEIGHT
370
    -1
  9
$ENDCAPS
280
     0
  9
$JOINSTYLE
280
     0
  9
$LWDISPLAY
290
     1
  9
$INSUNITS
 70
     4
  9
$HYPERLINKBASE
  1

  9
$STYLESHEET
  1

  9
$XEDIT
290
     1
  9
$CEPSNTYPE
380
     0
  9
$PSTYLEMODE
290
     1
  9
$FINGERPRINTGUID
  2
{BA8CA7D3-F50E-462A-AA18-4C9477DE1A60}
  9
$VERSIONGUID
  2
{FAEB1C32-E019-11D5-929B-00C0DF256EC4}
  9
$EXTNAMES
290
     1
  9
$PSVPSCALE
 40
0.0
  9
$OLESTARTUP
290
     0
  0
ENDSEC
  0
SECTION
  2
CLASSES
  0
CLASS
  1
ACDBDICTIONARYWDFLT
  2
AcDbDictionaryWithDefault
  3
ObjectDBX Classes
 90
        0
280
     0
281
     0
  0
CLASS
  1
VISUALSTYLE
  2
AcDbVisualStyle
  3
ObjectDBX Classes
 90
     4095
280
     0
281
     0
  0
CLASS
  1
MATERIAL
  2
AcDbMaterial
  3
ObjectDBX Classes
 90
     1153
280
     0
281
     0
  0
CLASS
  1
SCALE
  2
AcDbScale
  3
ObjectDBX Classes
 90
     1153
280
     0
281
     0
  0
CLASS
  1
SUN
  2
AcDbSun
  3
SCENEOE
 90
     1153
280
     0
281
     0
  0
CLASS
  1
ACDBPLACEHOLDER
  2
AcDbPlaceHolder
  3
ObjectDBX Classes
 90
        0
280
     0
281
     0
  0
CLASS
  1
LAYOUT
  2
AcDbLayout
  3
ObjectDBX Classes
 90
        0
280
     0
281
     0
  0
CLASS
  1
TABLESTYLE
  2
AcDbTableStyle
  3
ObjectDBX Classes
 90
     4095
280
     0
281
     0
  0
CLASS
  1
MLEADERSTYLE
  2
AcDbMLeaderStyle
  3
ACDB_MLEADERSTYLE_CLASS
 90
     4095
280
     0
281
     0
  0
CLASS
  1
DICTIONARYVAR
  2
AcDbDictionaryVar
  3
ObjectDBX Classes
 90
        0
280
     0
281
     0
  0
ENDSEC
  0
SECTION
  2
TABLES
  0
TABLE
  2
VPORT
  5
8
330
0
100
AcDbSymbolTable
 70
     1
  0
VPORT
  5
29
330
8
100
AcDbSymbolTableRecord
100
AcDbViewportTableRecord
  2
*Active
 70
     0
 10
0.0
 20
0.0
 11
1.0
 21
1.0
 12
10.32549204639417
 22
-1.248968454168867
 13
0.0
 23
0.0
 14
10.0
 24
10.0
 15
10.0
 25
10.0
 16
0.0
 26
0.0
 36
1.0
 17
0.0
 27
0.0
 37
0.0
 40
99.39459142667147
 41
1.782762691853601
 42
50.0
 43
0.0
 44
0.0
 50
0.0
 51
0.0
 71
    16
 72
  2000
 73
     1
 74
     3
 75
     0
 76
     0
 77
     0
 78
     0
281
     0
 65
     1
110
0.0
120
0.0
130
0.0
111
1.0
121
0.0
131
0.0
112
0.0
122
1.0
132
0.0
 79
     0
146
0.0
  0
ENDTAB
  0
TABLE
  2
LTYPE
  5
5
330
0
100
AcDbSymbolTable
 70
     6
  0
LTYPE
  5
14
330
5
100
AcDbSymbolTableRecord
100
AcDbLinetypeTableRecord
  2
ByBlock
 70
     0
  3

 72
    65
 73
     0
 40
0.0
  0
LTYPE
  5
15
330
5
100
AcDbSymbolTableRecord
100
AcDbLinetypeTableRecord
  2
ByLayer
 70
     0
  3

 72
    65
 73
     0
 40
0.0
  0
LTYPE
  5
16
330
5
100
AcDbSymbolTableRecord
100
AcDbLinetypeTableRecord
  2
Continuous
 70
     0
  3
Solid line
 72
    65
 73
     0
 40
0.0
  0
LTYPE
  5
6A
330
5
100
AcDbSymbolTableRecord
100
AcDbLinetypeTableRecord
  2
HIDDEN
 70
     0
  3
Hidden __ __ __ __ __ __ __ __ __ __ __ __ __ __
 72
    65
 73
     2
 40
1.905
 49
1.27
 74
     0
 49
-0.635
 74
     0
  0
LTYPE
  5
6B
330
5
100
AcDbSymbolTableRecord
100
AcDbLinetypeTableRecord
  2
PHANTOM
 70
     0
  3
Phantom ______  __  __  ______  __  __  ______
 72
    65
 73
     6
 40
12.7
 49
6.35
 74
     0
 49
-1.27
 74
     0
 49
1.27
 74
     0
 49
-1.27
 74
     0
 49
1.27
 74
     0
 49
-1.27
 74
     0
  0
LTYPE
  5
6C
330
5
100
AcDbSymbolTableRecord
100
AcDbLinetypeTableRecord
  2
CENTER
 70
     0
  3
Center ____ _ ____ _ ____ _ ____ _ ____ _ ____
 72
    65
 73
     4
 40
10.16
 49
6.35
 74
     0
 49
-1.27
 74
     0
 49
1.27
 74
     0
 49
-1.27
 74
     0
  0
LTYPE
  5
6D
330
5
100
AcDbSymbolTableRecord
100
AcDbLinetypeTableRecord
  2
CENTERX2
 70
     0
  3
Center (2x) ________  __  ________  __  _____
 72
    65
 73
     4
 40
20.32
 49
12.7
 74
     0
 49
-2.54
 74
     0
 49
2.54
 74
     0
 49
-2.54
 74
     0
  0
LTYPE
  5
6E
330
5
100
AcDbSymbolTableRecord
100
AcDbLinetypeTableRecord
  2
DOT2
 70
     0
  3
Dot (.5x) ........................................
 72
    65
 73
     2
 40
0.635
 49
0.0
 74
     0
 49
-0.635
 74
     0
  0
ENDTAB
  0
TABLE
  2
LAYER
  5
2
102
{ACAD_XDICTIONARY
360
190
102
}
330
0
100
AcDbSymbolTable
 70
    18
  0
LAYER
  5
10
330
2
100
AcDbSymbolTableRecord
100
AcDbLayerTableRecord
  2
0
 70
     0
 62
     7
  6
Continuous
370
    -3
390
F
  0
LAYER
  5
6F
330
2
100
AcDbSymbolTableRecord
100
AcDbLayerTableRecord
  2
FORMAT
 70
     0
 62
     2
  6
Continuous
370
    -3
390
F
  0
LAYER
  5
70
330
2
100
AcDbSymbolTableRecord
100
AcDbLayerTableRecord
  2
외형선
 70
     0
 62
     4
  6
Continuous
370
    30
390
F
  0
LAYER
  5
71
330
2
100
AcDbSymbolTableRecord
100
AcDbLayerTableRecord
  2
숨은선
 70
     0
 62
     2
  6
HIDDEN
370
    15
390
F
  0
LAYER
  5
72
330
2
100
AcDbSymbolTableRecord
100
AcDbLayerTableRecord
  2
중심선
 70
     0
 62
     1
  6
CENTERX2
370
    -3
390
F
  0
LAYER
  5
73
330
2
100
AcDbSymbolTableRecord
100
AcDbLayerTableRecord
  2
파단선
 70
     0
 62
     4
  6
Continuous
370
    -3
390
F
  0
LAYER
  5
74
330
2
100
AcDbSymbolTableRecord
100
AcDbLayerTableRecord
  2
해칭선
 70
     0
 62
   100
  6
Continuous
370
    -3
390
F
  0
LAYER
  5
75
330
2
100
AcDbSymbolTableRecord
100
AcDbLayerTableRecord
  2
가는실선
 70
     0
 62
     4
  6
Continuous
370
    -3
390
F
  0
LAYER
  5
76
330
2
100
AcDbSymbolTableRecord
100
AcDbLayerTableRecord
  2
치수_보조선
 70
     0
 62
     4
  6
Continuous
370
    -3
390
F
  0
LAYER
  5
77
330
2
100
AcDbSymbolTableRecord
100
AcDbLayerTableRecord
  2
치수문자_일반주서
 70
     0
 62
     7
  6
Continuous
370
    15
390
F
  0
LAYER
  5
78
330
2
100
AcDbSymbolTableRecord
100
AcDbLayerTableRecord
  2
개별주서
 70
     0
 62
   100
  6
Continuous
370
    30
390
F
  0
LAYER
  5
79
330
2
100
AcDbSymbolTableRecord
100
AcDbLayerTableRecord
  2
중간선
 70
     0
 62
     2
  6
Continuous
370
    15
390
F
  0
LAYER
  5
7A
330
2
100
AcDbSymbolTableRecord
100
AcDbLayerTableRecord
  2
윤곽선
 70
     0
 62
     3
  6
Continuous
370
    40
390
F
  0
LAYER
  5
7B
330
2
100
AcDbSymbolTableRecord
100
AcDbLayerTableRecord
  2
중심마크
 70
     0
 62
   100
  6
Continuous
370
    30
390
F
  0
LAYER
  5
7C
330
2
100
AcDbSymbolTableRecord
100
AcDbLayerTableRecord
  2
가상선
 70
     0
 62
     4
  6
PHANTOM
370
    -3
390
F
  0
LAYER
  5
7D
330
2
100
AcDbSymbolTableRecord
100
AcDbLayerTableRecord
  2
특수지정선
 70
     0
 62
     5
  6
CENTERX2
370
    60
390
F
  0
LAYER
  5
7E
330
2
100
AcDbSymbolTableRecord
100
AcDbLayerTableRecord
  2
참조1
 70
     0
 62
    -4
  6
Continuous
370
    -3
390
F
  0
LAYER
  5
1C0
330
2
100
AcDbSymbolTableRecord
100
AcDbLayerTableRecord
  2
Defpoints
 70
     0
 62
     7
  6
Continuous
290
     0
370
    -3
390
F
  0
ENDTAB
  0
TABLE
  2
STYLE
  5
3
330
0
100
AcDbSymbolTable
 70
     2
  0
STYLE
  5
11
330
3
100
AcDbSymbolTableRecord
100
AcDbTextStyleTableRecord
  2
Standard
 70
     0
 40
0.0
 41
1.0
 50
0.0
 71
     0
 42
3.5
  3
txt
  4

  0
STYLE
  5
94
330
3
100
AcDbSymbolTableRecord
100
AcDbTextStyleTableRecord
  2
SLDTEXTSTYLE0
 70
     0
 40
0.0
 41
0.75
 50
0.0
 71
     0
 42
3.5
  3
TXT
  4

  0
ENDTAB
  0
TABLE
  2
VIEW
  5
6
330
0
100
AcDbSymbolTable
 70
     0
  0
ENDTAB
  0
TABLE
  2
UCS
  5
7
330
0
100
AcDbSymbolTable
 70
     0
  0
ENDTAB
  0
TABLE
  2
APPID
  5
9
330
0
100
AcDbSymbolTable
 70
     4
  0
APPID
  5
12
330
9
100
AcDbSymbolTableRecord
100
AcDbRegAppTableRecord
  2
ACAD
 70
     0
  0
APPID
  5
141
330
9
100
AcDbSymbolTableRecord
100
AcDbRegAppTableRecord
  2
PE_URL
 70
     0
  0
APPID
  5
2AF
330
9
100
AcDbSymbolTableRecord
100
AcDbRegAppTableRecord
  2
ACAD_DSTYLE_DIMFLIPARROW_SYMBOL
 70
     0
  0
APPID
  5
2B0
330
9
100
AcDbSymbolTableRecord
100
AcDbRegAppTableRecord
  2
ACAD_DSTYLE_DIMFLIPARROW_WHICH_SYMBOL
 70
     0
  0
ENDTAB
  0
TABLE
  2
DIMSTYLE
  5
A
330
0
100
AcDbSymbolTable
 70
     5
100
AcDbDimStyleTable
  0
DIMSTYLE
105
27
330
A
100
AcDbSymbolTableRecord
100
AcDbDimStyleTableRecord
  2
ISO-25
 70
     0
 41
2.5
 42
0.625
 43
3.75
 44
1.25
 73
     0
 74
     0
 77
     1
 78
     8
140
2.5
141
2.5
143
0.03937007874016
147
0.625
171
     3
172
     1
178
     0
271
     2
272
     2
274
     3
278
    44
283
     0
284
     8
340
11
  0
DIMSTYLE
105
C0
330
A
100
AcDbSymbolTableRecord
100
AcDbDimStyleTableRecord
  2
SLDDIMSTYLE0
 70
     0
 41
3.302
 44
0.0
 45
0.000000001
 73
     0
 74
     0
 77
     1
 78
     4
 79
     1
140
3.5
147
0.875
172
     1
173
     1
178
     0
271
     2
272
     2
276
     2
284
    12
289
     0
340
94
  0
DIMSTYLE
105
CE
330
A
100
AcDbSymbolTableRecord
100
AcDbDimStyleTableRecord
  2
SLDDIMSTYLE1
 70
     0
 41
3.302
 44
0.0
 45
0.000000001
 73
     0
 74
     0
 77
     1
 78
     4
 79
     1
140
3.5
143
0.0393700787401575
147
0.875
148
0.000000001
170
     1
172
     1
173
     1
178
     0
271
     2
272
     2
276
     2
284
    12
289
     0
340
94
  0
DIMSTYLE
105
E4
102
{ACAD_REACTORS
330
E3
330
1E6
330
CD
330
F7
330
BF
102
}
330
A
100
AcDbSymbolTableRecord
100
AcDbDimStyleTableRecord
  2
SLDDIMSTYLE2
 70
     0
 41
3.302
 44
0.0
 45
0.000000001
 73
     0
 74
     0
 77
     1
 78
     4
 79
     1
140
3.5
143
0.0393700787401575
147
0.875
148
0.000000001
170
     1
173
     1
178
     0
271
     2
272
     2
276
     2
284
    12
340
94
  0
DIMSTYLE
105
F8
330
A
100
AcDbSymbolTableRecord
100
AcDbDimStyleTableRecord
  2
SLDDIMSTYLE3
 70
     0
 41
3.302
 44
0.0
 45
0.000000001
 73
     0
 74
     0
 77
     1
 78
    12
 79
     3
140
3.5
143
0.0393700787401575
147
0.875
148
0.000000001
170
     1
173
     1
178
     0
271
     2
272
     2
276
     2
284
    12
340
94
  0
ENDTAB
  0
TABLE
  2
BLOCK_RECORD
  5
1
330
0
100
AcDbSymbolTable
 70
    12
  0
BLOCK_RECORD
  5
1F
330
1
100
AcDbSymbolTableRecord
100
AcDbBlockTableRecord
  2
*Model_Space
340
22
  0
BLOCK_RECORD
  5
1B
330
1
100
AcDbSymbolTableRecord
100
AcDbBlockTableRecord
  2
*Paper_Space
340
1E
  0
BLOCK_RECORD
  5
23
330
1
100
AcDbSymbolTableRecord
100
AcDbBlockTableRecord
  2
*Paper_Space0
340
26
  0
BLOCK_RECORD
  5
7F
330
1
100
AcDbSymbolTableRecord
100
AcDbBlockTableRecord
  2
블럭10
340
0
102
{BLKREFS
331
B8
102
}
  0
BLOCK_RECORD
  5
C1
330
1
100
AcDbSymbolTableRecord
100
AcDbBlockTableRecord
  2
_D
340
0
  0
BLOCK_RECORD
  5
CF
330
1
100
AcDbSymbolTableRecord
100
AcDbBlockTableRecord
  2
_D_1
340
0
  0
BLOCK_RECORD
  5
E5
330
1
100
AcDbSymbolTableRecord
100
AcDbBlockTableRecord
  2
_D_2
340
0
  0
BLOCK_RECORD
  5
F9
330
1
100
AcDbSymbolTableRecord
100
AcDbBlockTableRecord
  2
_D_3
340
0
  0
BLOCK_RECORD
  5
112
330
1
100
AcDbSymbolTableRecord
100
AcDbBlockTableRecord
  2
SW_DOWELSYMBOL_0
340
0
102
{BLKREFS
331
0
331
16B
331
0
331
264
331
0
331
2A9
102
}
  0
BLOCK_RECORD
  5
1F7
330
1
100
AcDbSymbolTableRecord
100
AcDbBlockTableRecord
  2
*D9
340
0
  0
BLOCK_RECORD
  5
207
330
1
100
AcDbSymbolTableRecord
100
AcDbBlockTableRecord
  2
*D10
340
0
  0
ENDTAB
  0
ENDSEC
  0
SECTION
  2
BLOCKS
  0
BLOCK
  5
20
330
1F
100
AcDbEntity
  8
0
100
AcDbBlockBegin
  2
*Model_Space
 70
     0
 10
0.0
 20
0.0
 30
0.0
  3
*Model_Space
  1

  0
ENDBLK
  5
21
330
1F
100
AcDbEntity
  8
0
100
AcDbBlockEnd
  0
BLOCK
  5
1C
330
1B
100
AcDbEntity
 67
     1
  8
0
100
AcDbBlockBegin
  2
*Paper_Space
 70
     0
 10
0.0
 20
0.0
 30
0.0
  3
*Paper_Space
  1

  0
ENDBLK
  5
1D
330
1B
100
AcDbEntity
 67
     1
  8
0
100
AcDbBlockEnd
  0
BLOCK
  5
24
330
23
100
AcDbEntity
  8
0
100
AcDbBlockBegin
  2
*Paper_Space0
 70
     0
 10
0.0
 20
0.0
 30
0.0
  3
*Paper_Space0
  1

  0
ENDBLK
  5
25
330
23
100
AcDbEntity
  8
0
100
AcDbBlockEnd
  0
BLOCK
  5
80
330
7F
100
AcDbEntity
  8
0
100
AcDbBlockBegin
  2
블럭10
 70
     2
 10
0.0
 20
0.0
 30
0.0
  3
블럭10
  1

  0
ELLIPSE
  5
82
330
7F
100
AcDbEntity
  8
중심선
100
AcDbEllipse
 10
20.54032771741204
 20
12.0471743016438
 30
0.0
 11
6.600054785286829
 21
-1.261213355974178E-13
 31
0.0
210
0.0
220
0.0
230
1.0
 40
0.636358354079598
 41
0.9219305317359503
 42
6.513795318482858
  0
ELLIPSE
  5
83
330
7F
100
AcDbEntity
  8
중심선
100
AcDbEllipse
 10
20.54032771746488
 20
12.04717430159265
 30
0.0
 11
3.960054785062283
 21
1.540847449632565E-10
 31
0.0
210
0.0
220
0.0
230
1.0
 40
0.3939339440162632
 41
1.131841032648279
 42
5.62031148352944
  0
LINE
  5
84
330
7F
100
AcDbEntity
  8
중심선
100
AcDbLine
 10
2.268634060543552
 20
16.24717430164393
 30
0.0
 11
5.714909304380834
 21
16.24717430164393
 31
0.0
  0
LINE
  5
85
330
7F
100
AcDbEntity
  8
중심선
100
AcDbLine
 10
5.245725140726316
 20
7.84717430164391
 30
0.0
 11
8.692000384563599
 21
7.84717430164391
 31
0.0
  0
LINE
  5
86
330
7F
100
AcDbEntity
  8
중심선
100
AcDbLine
 10
15.74043728645272
 20
16.24717430164393
 30
0.0
 11
8.692000384563599
 21
7.84717430164391
 31
0.0
  0
LINE
  5
87
330
7F
100
AcDbEntity
  8
중심선
100
AcDbLine
 10
0.1404042013395286
 20
13.71084872107135
 30
0.0
 11
3.58671253028996
 21
13.71088815037384
 31
0.0
  0
LINE
  5
88
330
7F
100
AcDbEntity
  8
중심선
100
AcDbLine
 10
2.750260043222114
 20
10.84717430164391
 30
0.0
 11
6.196535287059397
 21
10.84717430164391
 31
0.0
  0
LINE
  5
89
330
7F
100
AcDbEntity
  8
중심선
100
AcDbLine
 10
12.29416204261559
 20
16.24717430164393
 30
0.0
 11
5.245725140726316
 21
7.84717430164391
 31
0.0
  0
LINE
  5
8A
330
7F
100
AcDbEntity
  8
중심선
100
AcDbLine
 10
10.72767329541681
 20
16.24717430164393
 30
0.0
 11
6.196535287059397
 21
10.84717430164391
 31
0.0
  0
LINE
  5
8B
330
7F
100
AcDbEntity
  8
중심선
100
AcDbLine
 10
7.28139805157953
 20
16.24717430164393
 30
0.0
 11
2.750260043222114
 21
10.84717430164391
 31
0.0
  0
LINE
  5
8C
330
7F
100
AcDbEntity
  8
중심선
100
AcDbLine
 10
5.714909304380834
 20
16.24717430164393
 30
0.0
 11
3.58671253028996
 21
13.71088815037384
 31
0.0
  0
LINE
  5
8D
330
7F
100
AcDbEntity
  8
중심선
100
AcDbLine
 10
2.268634060543552
 20
16.24717430164393
 30
0.0
 11
0.1404042013395286
 21
13.71084872107135
 31
0.0
  0
LINE
  5
8E
330
7F
100
AcDbEntity
  8
중심선
100
AcDbLine
 10
7.28139805157953
 20
16.24717430164393
 30
0.0
 11
10.72767329541681
 21
16.24717430164393
 31
0.0
  0
LINE
  5
8F
330
7F
100
AcDbEntity
  8
중심선
100
AcDbLine
 10
12.29416204261559
 20
16.24717430164393
 30
0.0
 11
15.74043728645272
 21
16.24717430164393
 31
0.0
  0
LINE
  5
90
330
7F
100
AcDbEntity
  8
중심선
100
AcDbLine
 10
19.22036997980202
 20
11.08717430171403
 30
0.0
 11
23.66174974927406
 21
11.08717430171406
 31
0.0
  0
LINE
  5
91
330
7F
100
AcDbEntity
  8
중심선
100
AcDbLine
 10
19.22039502424796
 20
13.00717430171391
 30
0.0
 11
19.22036997980202
 21
11.08717430171403
 31
0.0
  0
LINE
  5
92
330
7F
100
AcDbEntity
  8
중심선
100
AcDbLine
 10
19.22039502424796
 20
13.00717430171391
 30
0.0
 11
26.96566020931264
 21
13.00717430171391
 31
0.0
  0
LINE
  5
93
330
7F
100
AcDbEntity
  8
중심선
100
AcDbLine
 10
22.22332737316547
 20
13.45928029700563
 30
0.0
 11
24.52862924686651
 21
15.39360700705356
 31
0.0
  0
ATTDEF
  5
95
330
7F
100
AcDbEntity
  8
FORMAT
 62
     2
100
AcDbText
 10
4.408487351596664
 20
2.075366912832191
 30
0.0
 40
4.233333333333333
  1
E1030044
 41
0.75
  7
SLDTEXTSTYLE0
 11
4.408487351596664
 21
-0.0412997538344756
 31
0.0
100
AcDbAttributeDefinition
  3

  2
AUTOATTR0
 70
     0
 74
     1
  0
ENDBLK
  5
81
330
7F
100
AcDbEntity
  8
0
100
AcDbBlockEnd
  0
BLOCK
  5
C2
330
C1
100
AcDbEntity
  8
0
100
AcDbBlockBegin
  2
_D
 70
     0
 10
0.0
 20
0.0
 30
0.0
  3
_D
  1

  0
LINE
  5
C4
330
C1
100
AcDbEntity
  8
치수문자_일반주서
 62
     0
370
    -2
100
AcDbLine
 10
-47.98751236127855
 20
7.93749999999998
 30
0.0
 11
-63.92501236127854
 21
7.937499999999922
 31
0.0
  0
LINE
  5
C5
330
C1
100
AcDbEntity
  8
치수문자_일반주서
 62
     0
370
    -2
100
AcDbLine
 10
-47.98751236127855
 20
-7.937500000000016
 30
0.0
 11
-63.92501236127848
 21
-7.937500000000075
 31
0.0
  0
LINE
  5
C6
330
C1
100
AcDbEntity
  8
치수문자_일반주서
 62
     0
370
    -2
100
AcDbLine
 10
-63.92501236127854
 20
7.937499999999922
 30
0.0
 11
-63.92501236127868
 21
44.68749999999991
 31
0.0
  0
LINE
  5
C7
330
C1
100
AcDbEntity
  8
치수문자_일반주서
 62
     0
370
    -2
100
AcDbLine
 10
-63.92501236127854
 20
7.937499999999922
 30
0.0
 11
-63.92501236127848
 21
-7.937500000000075
 31
0.0
  0
LINE
  5
C8
330
C1
100
AcDbEntity
  8
치수문자_일반주서
 62
     0
370
    -2
100
AcDbLine
 10
-63.92501236127855
 20
11.93749999999992
 30
0.0
 11
-63.92501236127857
 21
15.93749999999992
 31
0.0
  0
LINE
  5
C9
330
C1
100
AcDbEntity
  8
치수문자_일반주서
 62
     0
370
    -2
100
AcDbLine
 10
-63.92501236127847
 20
-11.93750000000007
 30
0.0
 11
-63.92501236127845
 21
-15.93750000000007
 31
0.0
  0
SOLID
  5
CA
330
C1
100
AcDbEntity
  8
치수문자_일반주서
 62
     0
100
AcDbTrace
 10
-64.59167902794522
 20
11.93749999999992
 30
0.0
 11
-63.25834569461189
 21
11.93749999999992
 31
0.0
 12
-63.92501236127854
 22
7.937499999999922
 32
0.0
 13
-63.92501236127854
 23
7.937499999999922
 33
0.0
  0
SOLID
  5
CB
330
C1
100
AcDbEntity
  8
치수문자_일반주서
 62
     0
100
AcDbTrace
 10
-63.2583456946118
 20
-11.93750000000007
 30
0.0
 11
-64.59167902794513
 21
-11.93750000000008
 31
0.0
 12
-63.92501236127848
 22
-7.937500000000075
 32
0.0
 13
-63.92501236127848
 23
-7.937500000000075
 33
0.0
  0
MTEXT
  5
CC
330
C1
100
AcDbEntity
  8
치수문자_일반주서
 62
     0
100
AcDbMText
 10
-68.80001236127862
 20
28.8124999999999
 30
0.0
 40
4.0
 41
0.0
 71
     2
 72
     1
  1
\A1;%%c15.88 [5/8]
  7
SLDTEXTSTYLE0
 11
-3.580687802255624E-15
 21
1.0
 31
0.0
 73
     1
 44
1.0
  0
POINT
  5
21F
330
C1
100
AcDbEntity
  8
Defpoints
 62
     0
100
AcDbPoint
 10
-47.92501236127855
 20
7.93749999999998
 30
0.0
  0
POINT
  5
220
330
C1
100
AcDbEntity
  8
Defpoints
 62
     0
100
AcDbPoint
 10
-47.92501236127855
 20
-7.937500000000016
 30
0.0
  0
POINT
  5
221
330
C1
100
AcDbEntity
  8
Defpoints
 62
     0
100
AcDbPoint
 10
-63.92501236127848
 20
-7.937500000000075
 30
0.0
  0
ENDBLK
  5
C3
330
C1
100
AcDbEntity
  8
0
100
AcDbBlockEnd
  0
BLOCK
  5
D0
330
CF
100
AcDbEntity
  8
0
100
AcDbBlockBegin
  2
_D_1
 70
     0
 10
0.0
 20
0.0
 30
0.0
  3
_D_1
  1

  0
LINE
  5
D2
330
CF
100
AcDbEntity
  8
치수문자_일반주서
 62
     0
370
    -2
100
AcDbLine
 10
38.38748763872145
 20
8.786370480473819
 30
0.0
 11
38.38748763872145
 21
21.35
 31
0.0
  0
LINE
  5
D3
330
CF
100
AcDbEntity
  8
치수문자_일반주서
 62
     0
370
    -2
100
AcDbLine
 10
5.049987638721446
 20
5.535349324069392
 30
0.0
 11
5.049987638721447
 21
21.35
 31
0.0
  0
LINE
  5
D4
330
CF
100
AcDbEntity
  8
치수문자_일반주서
 62
     0
370
    -2
100
AcDbLine
 10
38.38748763872145
 20
21.35
 30
0.0
 11
79.13748763872145
 21
21.35
 31
0.0
  0
LINE
  5
D5
330
CF
100
AcDbEntity
  8
치수문자_일반주서
 62
     0
370
    -2
100
AcDbLine
 10
34.38748763872145
 20
21.35
 30
0.0
 11
9.049987638721447
 21
21.35
 31
0.0
  0
SOLID
  5
D6
330
CF
100
AcDbEntity
  8
치수문자_일반주서
 62
     0
100
AcDbTrace
 10
34.38748763872145
 20
20.68333333333333
 30
0.0
 11
34.38748763872145
 21
22.01666666666667
 31
0.0
 12
38.38748763872145
 22
21.35
 32
0.0
 13
38.38748763872145
 23
21.35
 33
0.0
  0
SOLID
  5
D7
330
CF
100
AcDbEntity
  8
치수문자_일반주서
 62
     0
100
AcDbTrace
 10
9.049987638721447
 20
22.01666666666667
 30
0.0
 11
9.049987638721447
 21
20.68333333333333
 31
0.0
 12
5.049987638721447
 22
21.35
 32
0.0
 13
5.049987638721447
 23
21.35
 33
0.0
  0
MTEXT
  5
D8
330
CF
100
AcDbEntity
  8
치수문자_일반주서
 62
     0
100
AcDbMText
 10
60.76248763872145
 20
26.225
 30
0.0
 40
4.0
 41
0.0
 71
     2
 72
     1
  1
\A1;33.34 [1 5/16]
  7
SLDTEXTSTYLE0
 73
     1
 44
1.0
  0
POINT
  5
D9
330
CF
100
AcDbEntity
  8
Defpoints
 62
     0
100
AcDbPoint
 10
38.38748763872145
 20
8.723870480473819
 30
0.0
  0
POINT
  5
DA
330
CF
100
AcDbEntity
  8
Defpoints
 62
     0
100
AcDbPoint
 10
5.049987638721446
 20
5.472849324069392
 30
0.0
  0
POINT
  5
214
330
CF
100
AcDbEntity
  8
Defpoints
 62
     0
100
AcDbPoint
 10
5.049987638721446
 20
21.35
 30
0.0
  0
ENDBLK
  5
D1
330
CF
100
AcDbEntity
  8
0
100
AcDbBlockEnd
  0
BLOCK
  5
E6
330
E5
100
AcDbEntity
  8
0
100
AcDbBlockBegin
  2
_D_2
 70
     0
 10
0.0
 20
0.0
 30
0.0
  3
_D_2
  1

  0
LINE
  5
E8
330
E5
100
AcDbEntity
  8
치수문자_일반주서
 62
     0
370
    -2
100
AcDbLine
 10
38.38748763872145
 20
8.786370480473819
 30
0.0
 11
38.38748763872145
 21
36.34999999999999
 31
0.0
  0
LINE
  5
E9
330
E5
100
AcDbEntity
  8
치수문자_일반주서
 62
     0
370
    -2
100
AcDbLine
 10
-48.92501236127856
 20
6.999999999999977
 30
0.0
 11
-48.92501236127856
 21
36.34999999999999
 31
0.0
  0
LINE
  5
EA
330
E5
100
AcDbEntity
  8
치수문자_일반주서
 62
     0
370
    -2
100
AcDbLine
 10
34.38748763872145
 20
36.34999999999999
 30
0.0
 11
-44.92501236127856
 21
36.34999999999999
 31
0.0
  0
SOLID
  5
EB
330
E5
100
AcDbEntity
  8
치수문자_일반주서
 62
     0
100
AcDbTrace
 10
34.38748763872145
 20
35.68333333333333
 30
0.0
 11
34.38748763872145
 21
37.01666666666666
 31
0.0
 12
38.38748763872145
 22
36.34999999999999
 32
0.0
 13
38.38748763872145
 23
36.34999999999999
 33
0.0
  0
SOLID
  5
EC
330
E5
100
AcDbEntity
  8
치수문자_일반주서
 62
     0
100
AcDbTrace
 10
-44.92501236127856
 20
37.01666666666666
 30
0.0
 11
-44.92501236127856
 21
35.68333333333333
 31
0.0
 12
-48.92501236127856
 22
36.34999999999999
 32
0.0
 13
-48.92501236127856
 23
36.34999999999999
 33
0.0
  0
MTEXT
  5
ED
330
E5
100
AcDbEntity
  8
치수문자_일반주서
 62
     0
100
AcDbMText
 10
-3.681262361278552
 20
41.22499999999999
 30
0.0
 40
4.0
 41
0.0
 71
     2
 72
     1
  1
\A1;87.31 [3 7/16]
  7
SLDTEXTSTYLE0
 73
     1
 44
1.0
  0
POINT
  5
EE
330
E5
100
AcDbEntity
  8
Defpoints
 62
     0
100
AcDbPoint
 10
38.38748763872145
 20
8.723870480473819
 30
0.0
  0
POINT
  5
EF
330
E5
100
AcDbEntity
  8
Defpoints
 62
     0
100
AcDbPoint
 10
-48.92501236127856
 20
6.937499999999977
 30
0.0
  0
POINT
  5
F0
330
E5
100
AcDbEntity
  8
Defpoints
 62
     0
100
AcDbPoint
 10
-48.92501236127856
 20
36.34999999999999
 30
0.0
  0
ENDBLK
  5
E7
330
E5
100
AcDbEntity
  8
0
100
AcDbBlockEnd
  0
BLOCK
  5
FA
330
F9
100
AcDbEntity
  8
0
100
AcDbBlockBegin
  2
_D_3
 70
     0
 10
0.0
 20
0.0
 30
0.0
  3
_D_3
  1

  0
LINE
  5
FC
330
F9
100
AcDbEntity
  8
치수문자_일반주서
 62
     0
370
    -2
100
AcDbLine
 10
38.44998763872145
 20
-8.723870480473831
 30
0.0
 11
86.60266704982338
 21
-8.723870480473654
 31
0.0
  0
LINE
  5
FD
330
F9
100
AcDbEntity
  8
치수문자_일반주서
 62
     0
370
    -2
100
AcDbLine
 10
38.44998763872145
 20
8.723870480473828
 30
0.0
 11
86.60266704982332
 21
8.723870480474005
 31
0.0
  0
LINE
  5
FE
330
F9
100
AcDbEntity
  8
치수문자_일반주서
 62
     0
370
    -2
100
AcDbLine
 10
86.60266704982332
 20
8.723870480474005
 30
0.0
 11
86.6026670498232
 21
47.47387048047401
 31
0.0
  0
LINE
  5
FF
330
F9
100
AcDbEntity
  8
치수문자_일반주서
 62
     0
370
    -2
100
AcDbLine
 10
86.60266704982337
 20
-4.723870480473654
 30
0.0
 11
86.60266704982334
 21
4.723870480474005
 31
0.0
  0
SOLID
  5
100
330
F9
100
AcDbEntity
  8
치수문자_일반주서
 62
     0
100
AcDbTrace
 10
85.9360003831567
 20
-4.723870480473655
 30
0.0
 11
87.26933371649004
 21
-4.723870480473652
 31
0.0
 12
86.60266704982338
 22
-8.723870480473654
 32
0.0
 13
86.60266704982338
 23
-8.723870480473654
 33
0.0
  0
SOLID
  5
101
330
F9
100
AcDbEntity
  8
치수문자_일반주서
 62
     0
100
AcDbTrace
 10
87.26933371649001
 20
4.723870480474007
 30
0.0
 11
85.93600038315667
 21
4.723870480474003
 31
0.0
 12
86.60266704982332
 22
8.723870480474005
 32
0.0
 13
86.60266704982332
 23
8.723870480474005
 33
0.0
  0
MTEXT
  5
102
330
F9
100
AcDbEntity
  8
치수문자_일반주서
 62
     0
100
AcDbMText
 10
81.72766704982325
 20
30.09887048047399
 30
0.0
 40
4.0
 41
0.0
 71
     2
 72
     1
  1
\A1;%%c17.45 [11/16]
  7
SLDTEXTSTYLE0
 11
-3.257924277305445E-15
 21
1.0
 31
0.0
 73
     1
 44
1.0
  0
POINT
  5
103
330
F9
100
AcDbEntity
  8
Defpoints
 62
     0
100
AcDbPoint
 10
38.38748763872145
 20
-8.723870480473831
 30
0.0
  0
POINT
  5
104
330
F9
100
AcDbEntity
  8
Defpoints
 62
     0
100
AcDbPoint
 10
38.38748763872145
 20
8.723870480473828
 30
0.0
  0
POINT
  5
105
330
F9
100
AcDbEntity
  8
Defpoints
 62
     0
100
AcDbPoint
 10
86.60266704982332
 20
8.723870480474007
 30
0.0
  0
ENDBLK
  5
FB
330
F9
100
AcDbEntity
  8
0
100
AcDbBlockEnd
  0
BLOCK
  5
113
330
112
100
AcDbEntity
  8
0
100
AcDbBlockBegin
  2
SW_DOWELSYMBOL_0
 70
     0
 10
0.0
 20
0.0
 30
0.0
  3
SW_DOWELSYMBOL_0
  1

  0
CIRCLE
  5
115
330
112
100
AcDbEntity
  8
해칭선
 62
     0
100
AcDbCircle
 10
0.0
 20
0.0
 30
0.0
 40
3.000000000000001
  0
HATCH
  5
116
330
112
100
AcDbEntity
  8
0
  6
Continuous
 62
     0
370
     0
100
AcDbHatch
 10
0.0
 20
0.0
 30
0.0
210
0.0
220
0.0
230
1.0
  2
SOLID
 70
     1
 71
     0
 91
        1
 92
        0
 93
        3
 72
     2
 10
0.0
 20
0.0
 40
3.000000000000001
 50
0.0
 51
90.0
 73
     1
 72
     1
 10
0.0
 20
3.000000000000001
 11
0.0
 21
0.0
 72
     1
 10
0.0
 20
0.0
 11
3.000000000000001
 21
0.0
 97
        0
 75
     0
 76
     1
 98
        1
 10
0.0
 20
0.0
  0
HATCH
  5
117
330
112
100
AcDbEntity
  8
0
  6
Continuous
 62
     0
370
     0
100
AcDbHatch
 10
0.0
 20
0.0
 30
0.0
210
0.0
220
0.0
230
1.0
  2
SOLID
 70
     1
 71
     0
 91
        1
 92
        0
 93
        3
 72
     2
 10
0.0
 20
0.0
 40
3.000000000000001
 50
180.0
 51
270.0000000000008
 73
     1
 72
     1
 10
0.0
 20
-3.000000000000001
 11
0.0
 21
0.0
 72
     1
 10
0.0
 20
0.0
 11
-3.000000000000001
 21
0.0
 97
        0
 75
     0
 76
     1
 98
        1
 10
0.0
 20
0.0
  0
ENDBLK
  5
114
330
112
100
AcDbEntity
  8
0
100
AcDbBlockEnd
  0
BLOCK
  5
1F8
330
1F7
100
AcDbEntity
  8
0
100
AcDbBlockBegin
  2
*D9
 70
     1
 10
0.0
 20
0.0
 30
0.0
  3
*D9
  1

  0
LINE
  5
1FA
330
1F7
100
AcDbEntity
  8
치수문자_일반주서
 62
     0
370
    -2
100
AcDbLine
 10
33.33749999999951
 20
6.126707037181449
 30
0.0
 11
33.33749999999951
 21
19.08687612400189
 31
0.0
  0
LINE
  5
1FB
330
1F7
100
AcDbEntity
  8
치수문자_일반주서
 62
     0
370
    -2
100
AcDbLine
 10
0.0
 20
3.2722254480713
 30
0.0
 11
0.0
 21
19.08687612400189
 31
0.0
  0
LINE
  5
1FC
330
1F7
100
AcDbEntity
  8
치수문자_일반주서
 62
     0
370
    -2
100
AcDbLine
 10
33.33749999999951
 20
19.08687612400189
 30
0.0
 11
74.08749999999951
 21
19.08687612400189
 31
0.0
  0
LINE
  5
1FD
330
1F7
100
AcDbEntity
  8
치수문자_일반주서
 62
     0
370
    -2
100
AcDbLine
 10
29.33749999999951
 20
19.08687612400189
 30
0.0
 11
4.0
 21
19.08687612400189
 31
0.0
  0
SOLID
  5
1FE
330
1F7
100
AcDbEntity
  8
치수문자_일반주서
 62
     0
100
AcDbTrace
 10
29.33749999999951
 20
18.42020945733522
 30
0.0
 11
29.33749999999951
 21
19.75354279066855
 31
0.0
 12
33.33749999999951
 22
19.08687612400189
 32
0.0
 13
33.33749999999951
 23
19.08687612400189
 33
0.0
  0
SOLID
  5
1FF
330
1F7
100
AcDbEntity
  8
치수문자_일반주서
 62
     0
100
AcDbTrace
 10
4.0
 20
19.75354279066855
 30
0.0
 11
4.0
 21
18.42020945733522
 31
0.0
 12
0.0
 22
19.08687612400189
 32
0.0
 13
0.0
 23
19.08687612400189
 33
0.0
  0
MTEXT
  5
200
330
1F7
100
AcDbEntity
  8
치수문자_일반주서
 62
     0
100
AcDbMText
 10
55.71249999999951
 20
23.96187612400189
 30
0.0
 40
4.0
 41
0.0
 71
     2
 72
     1
  1
\A1;33.34 [1 5/16]
  7
SLDTEXTSTYLE0
 73
     1
 44
1.0
  0
POINT
  5
201
330
1F7
100
AcDbEntity
  8
Defpoints
 62
     0
100
AcDbPoint
 10
33.33749999999951
 20
6.064207037181449
 30
0.0
  0
POINT
  5
202
330
1F7
100
AcDbEntity
  8
Defpoints
 62
     0
100
AcDbPoint
 10
0.0
 20
3.2097254480713
 30
0.0
  0
POINT
  5
203
330
1F7
100
AcDbEntity
  8
Defpoints
 62
     0
100
AcDbPoint
 10
0.0
 20
19.08687612400189
 30
0.0
  0
ENDBLK
  5
1F9
330
1F7
100
AcDbEntity
  8
0
100
AcDbBlockEnd
  0
BLOCK
  5
208
330
207
100
AcDbEntity
  8
0
100
AcDbBlockBegin
  2
*D10
 70
     1
 10
0.0
 20
0.0
 30
0.0
  3
*D10
  1

  0
LINE
  5
20A
330
207
100
AcDbEntity
  8
치수문자_일반주서
 62
     0
370
    -2
100
AcDbLine
 10
76.83768450284512
 20
-31.69463313892312
 30
0.0
 11
76.83768450284512
 21
-18.73446405210268
 31
0.0
  0
LINE
  5
20B
330
207
100
AcDbEntity
  8
치수문자_일반주서
 62
     0
370
    -2
100
AcDbLine
 10
43.50018450284561
 20
-34.54911472803326
 30
0.0
 11
43.50018450284561
 21
-18.73446405210268
 31
0.0
  0
LINE
  5
20C
330
207
100
AcDbEntity
  8
치수문자_일반주서
 62
     0
370
    -2
100
AcDbLine
 10
76.83768450284512
 20
-18.73446405210268
 30
0.0
 11
117.5876845028451
 21
-18.73446405210268
 31
0.0
  0
LINE
  5
20D
330
207
100
AcDbEntity
  8
치수문자_일반주서
 62
     0
370
    -2
100
AcDbLine
 10
72.83768450284512
 20
-18.73446405210268
 30
0.0
 11
47.50018450284561
 21
-18.73446405210268
 31
0.0
  0
SOLID
  5
20E
330
207
100
AcDbEntity
  8
치수문자_일반주서
 62
     0
100
AcDbTrace
 10
72.83768450284512
 20
-19.40113071876934
 30
0.0
 11
72.83768450284512
 21
-18.06779738543601
 31
0.0
 12
76.83768450284512
 22
-18.73446405210268
 32
0.0
 13
76.83768450284512
 23
-18.73446405210268
 33
0.0
  0
SOLID
  5
20F
330
207
100
AcDbEntity
  8
치수문자_일반주서
 62
     0
100
AcDbTrace
 10
47.50018450284561
 20
-18.06779738543601
 30
0.0
 11
47.50018450284561
 21
-19.40113071876934
 31
0.0
 12
43.50018450284561
 22
-18.73446405210268
 32
0.0
 13
43.50018450284561
 23
-18.73446405210268
 33
0.0
  0
MTEXT
  5
210
330
207
100
AcDbEntity
  8
치수문자_일반주서
 62
     0
100
AcDbMText
 10
99.21268450284512
 20
-13.85946405210268
 30
0.0
 40
4.0
 41
0.0
 71
     2
 72
     1
  1
\A1;33.34 [1 5/16]
  7
SLDTEXTSTYLE0
 73
     1
 44
1.0
  0
POINT
  5
211
330
207
100
AcDbEntity
  8
Defpoints
 62
     0
100
AcDbPoint
 10
76.83768450284512
 20
-31.75713313892312
 30
0.0
  0
POINT
  5
212
330
207
100
AcDbEntity
  8
Defpoints
 62
     0
100
AcDbPoint
 10
43.50018450284561
 20
-34.61161472803326
 30
0.0
  0
POINT
  5
213
330
207
100
AcDbEntity
  8
Defpoints
 62
     0
100
AcDbPoint
 10
43.50018450284561
 20
-18.73446405210268
 30
0.0
  0
ENDBLK
  5
209
330
207
100
AcDbEntity
  8
0
100
AcDbBlockEnd
  0
ENDSEC
  0
SECTION
  2
ENTITIES
  0
SPLINE
  5
96
330
1F
100
AcDbEntity
  8
0
  6
Continuous
 62
     1
370
    15
100
AcDbSpline
210
0.0
220
0.0
230
1.0
 70
     8
 71
     3
 72
    19
 73
    15
 74
     0
 42
0.000000001
 43
0.00000001
 40
0.0
 40
0.0
 40
0.0
 40
0.0
 40
0.1414190710148604
 40
0.2523023104616591
 40
0.3370100464059962
 40
0.4078612487289775
 40
0.4666943937554729
 40
0.4999098977258814
 40
0.5307684784455445
 40
0.5609476811279696
 40
0.6074320074019774
 40
0.7016228630545133
 40
0.8325461311900577
 40
1.0
 40
1.0
 40
1.0
 40
1.0
 10
15.76729779711866
 20
2.237380266330743
 30
0.0
 10
15.65615040536588
 20
2.289720300870597
 30
0.0
 10
15.45785505849526
 20
2.383098878097007
 30
0.0
 10
15.186289908045
 20
2.513739497629062
 30
0.0
 10
14.96542275597822
 20
2.621325990820947
 30
0.0
 10
14.78976631716229
 20
2.70775507791024
 30
0.0
 10
14.65807699995969
 20
2.773085440306581
 30
0.0
 10
14.55871835661595
 20
2.822663848706969
 30
0.0
 10
14.4825471082004
 20
2.860825470468153
 30
0.0
 10
14.39568531995303
 20
2.904510041455144
 30
0.0
 10
14.25759864314415
 20
2.974285754186699
 30
0.0
 10
14.03808862928483
 20
3.086208882719461
 30
0.0
 10
13.72084788169759
 20
3.249997435011506
 30
0.0
 10
13.47988267941948
 20
3.377362780473492
 30
0.0
 10
13.34464927721208
 20
3.448842184251739
 30
0.0
1001
PE_URL
1000

  0
SPLINE
  5
97
330
1F
100
AcDbEntity
  8
0
  6
Continuous
 62
     1
370
    15
100
AcDbSpline
210
0.0
220
0.0
230
1.0
 70
     8
 71
     3
 72
    29
 73
    25
 74
     0
 42
0.000000001
 43
0.00000001
 40
0.0
 40
0.0
 40
0.0
 40
0.0
 40
0.0587666239590043
 40
0.1140052480222879
 40
0.1663000795139942
 40
0.2040687909460818
 40
0.2410196279909867
 40
0.3019385458365362
 40
0.3605302144908276
 40
0.4105966081758775
 40
0.4520841084173174
 40
0.4862491350068781
 40
0.5219822337812249
 40
0.5700363413056041
 40
0.6267033193126983
 40
0.6912705542008164
 40
0.7522784708491683
 40
0.7805072300337805
 40
0.807646290099478
 40
0.8338055260765594
 40
0.8607607887379809
 40
0.8998867338792529
 40
0.953198793718991
 40
0.9999999999999999
 40
0.9999999999999999
 40
0.9999999999999999
 40
0.9999999999999999
 10
12.88127422848155
 20
6.938190965618363
 30
0.0
 10
12.76538998157971
 20
6.931716698639734
 30
0.0
 10
12.5405784913172
 20
6.919156841310244
 30
0.0
 10
12.18373645433731
 20
6.898307397064597
 30
0.0
 10
11.85416798186275
 20
6.881198463098498
 30
0.0
 10
11.55401275021095
 20
6.868215603970013
 30
0.0
 10
11.22590645782416
 20
6.856705499448827
 30
0.0
 10
10.84094692913642
 20
6.847622726264742
 30
0.0
 10
10.43131897908245
 20
6.840716107972229
 30
0.0
 10
10.06552862206523
 20
6.834149340418643
 30
0.0
 10
9.758578340511313
 20
6.829164665239814
 30
0.0
 10
9.485901193185722
 20
6.82524207584934
 30
0.0
 10
9.199432581014424
 20
6.82198323330387
 30
0.0
 10
8.865581459061296
 20
6.81950343732456
 30
0.0
 10
8.459892122468467
 20
6.81826381897319
 30
0.0
 10
8.02180413624674
 20
6.819263425411108
 30
0.0
 10
7.652111614148819
 20
6.822153206307142
 30
0.0
 10
7.372277863300124
 20
6.825441039862021
 30
0.0
 10
7.176234764121318
 20
6.828217759966781
 30
0.0
 10
6.98326182513001
 20
6.831401348864832
 30
0.0
 10
6.761475809974316
 20
6.835564750678779
 30
0.0
 10
6.474391679847901
 20
6.841825025670042
 30
0.0
 10
6.139580225951236
 20
6.850222653120873
 30
0.0
 10
5.898851555285314
 20
6.857924256985577
 30
0.0
 10
5.786315099227628
 20
6.861524622502886
 30
0.0
1001
PE_URL
1000

  0
SPLINE
  5
98
330
1F
100
AcDbEntity
  8
0
  6
Continuous
 62
     1
370
    15
100
AcDbSpline
210
0.0
220
0.0
230
1.0
 70
     8
 71
     3
 72
    53
 73
    49
 74
     0
 42
0.000000001
 43
0.00000001
 40
0.0
 40
0.0
 40
0.0
 40
0.0
 40
0.011236289693468
 40
0.021271160360931
 40
0.0302839002155865
 40
0.0385362512142752
 40
0.0463795897950195
 40
0.0542304872409579
 40
0.0662263086570988
 40
0.0783492653875198
 40
0.089652762725977
 40
0.1001525347096004
 40
0.1153248463680203
 40
0.1317107150097305
 40
0.1539960116429525
 40
0.1785491053036701
 40
0.2026080049222098
 40
0.2339189121325315
 40
0.26649246580513
 40
0.2992574150104403
 40
0.3271043184285726
 40
0.3514490166321383
 40
0.3744152540331447
 40
0.4023406866954889
 40
0.4328516876780502
 40
0.4583923948738106
 40
0.4804397466174842
 40
0.5030519467253551
 40
0.5323589516958425
 40
0.5641651225996319
 40
0.5994093827751057
 40
0.6377393181592271
 40
0.6689734209869844
 40
0.7005011187201579
 40
0.731867217595903
 40
0.7596527578944173
 40
0.7858964042442008
 40
0.8090641765645672
 40
0.8310269086319321
 40
0.8542801791981337
 40
0.8683664551889689
 40
0.8847913547499999
 40
0.9036324026446331
 40
0.9241314495208093
 40
0.9435929226552565
 40
0.9623180119691845
 40
0.9809197172667659
 40
1.0
 40
1.0
 40
1.0
 40
1.0
 10
35.14379444806588
 20
5.971761916909649
 30
0.0
 10
35.11881706975598
 20
5.969397106883454
 30
0.0
 10
35.07153297207608
 20
5.964920339670913
 30
0.0
 10
34.98316559610822
 20
5.954877459077389
 30
0.0
 10
34.88611928666506
 20
5.94412348024192
 30
0.0
 10
34.77876194432072
 20
5.933220150400816
 30
0.0
 10
34.66132795518055
 20
5.922870648144334
 30
0.0
 10
34.51451054999498
 20
5.911901297614675
 30
0.0
 10
34.34380930981706
 20
5.901878833142796
 30
0.0
 10
34.15889392199995
 20
5.891195530390277
 30
0.0
 10
33.97936102925961
 20
5.880478114716606
 30
0.0
 10
33.78312609115552
 20
5.868714330163932
 30
0.0
 10
33.55855241846319
 20
5.855292217893611
 30
0.0
 10
33.27191670975292
 20
5.838729993652743
 30
0.0
 10
32.93958514198248
 20
5.820986923416482
 30
0.0
 10
32.57296887621554
 20
5.803599631037729
 30
0.0
 10
32.15894686859956
 20
5.786609996581197
 30
0.0
 10
31.70367311883125
 20
5.771221985454325
 30
0.0
 10
31.20802033498476
 20
5.758599934055816
 30
0.0
 10
30.73463924031308
 20
5.750322990271055
 30
0.0
 10
30.29010155820738
 20
5.746273140605025
 30
0.0
 10
29.8915646406293
 20
5.745385303283106
 30
0.0
 10
29.5053596173791
 20
5.746927422730289
 30
0.0
 10
29.08465260887712
 20
5.751372283336417
 30
0.0
 10
28.64973154848209
 20
5.759287362824765
 30
0.0
 10
28.24546776051219
 20
5.769591834044199
 30
0.0
 10
27.88216203503049
 20
5.781104990859854
 30
0.0
 10
27.49914373094222
 20
5.795468001432132
 30
0.0
 10
27.06742668016855
 20
5.814642911535241
 30
0.0
 10
26.57707940060398
 20
5.840093372470546
 30
0.0
 10
26.02915576815458
 20
5.873225251567829
 30
0.0
 10
25.48057989510606
 20
5.911576756630433
 30
0.0
 10
24.9575535568609
 20
5.952686276131006
 30
0.0
 10
24.47062222001702
 20
5.994835149271426
 30
0.0
 10
24.00095378381416
 20
6.039175171492767
 30
0.0
 10
23.55907748827627
 20
6.083924406098534
 30
0.0
 10
23.15864982894641
 20
6.127045408191721
 30
0.0
 10
22.79642854674006
 20
6.168105386880356
 30
0.0
 10
22.45000368143555
 20
6.209001269814205
 30
0.0
 10
22.13893503926097
 20
6.24761785843315
 30
0.0
 10
21.85437645650031
 20
6.284250857238444
 30
0.0
 10
21.59285195010882
 20
6.318642669324344
 30
0.0
 10
21.2979594146113
 20
6.358060268783575
 30
0.0
 10
20.98700889938648
 20
6.399862825148579
 30
0.0
 10
20.67638589478556
 20
6.443915442453282
 30
0.0
 10
20.38762363114404
 20
6.487533495336191
 30
0.0
 10
20.11994003035963
 20
6.530297315314986
 30
0.0
 10
19.96715557523878
 20
6.554711111185927
 30
0.0
 10
19.8897931335713
 20
6.567073041969094
 30
0.0
1001
PE_URL
1000

  0
SPLINE
  5
99
330
1F
100
AcDbEntity
  8
0
  6
Continuous
 62
     1
370
    15
100
AcDbSpline
210
0.0
220
0.0
230
1.0
 70
     8
 71
     3
 72
    24
 73
    20
 74
     0
 42
0.000000001
 43
0.00000001
 40
0.0
 40
0.0
 40
0.0
 40
0.0
 40
0.0451815666680865
 40
0.0892298755843311
 40
0.133570354340944
 40
0.1796545690340331
 40
0.2496015455852854
 40
0.3090446107377124
 40
0.3565851975144971
 40
0.3962465572899334
 40
0.4345805085742262
 40
0.4728305673719551
 40
0.5218713204037623
 40
0.577131126312201
 40
0.642940048940364
 40
0.7160144386564661
 40
0.8204410796177941
 40
0.9218793400488323
 40
1.0
 40
1.0
 40
1.0
 40
1.0
 10
19.8897931335713
 20
-6.567073041969097
 30
0.0
 10
19.96715543523091
 20
-6.554710910297283
 30
0.0
 10
20.11993961384774
 20
-6.530296717687792
 30
0.0
 10
20.38762525301473
 20
-6.487535822458328
 30
0.0
 10
20.67637966062104
 20
-6.443906497435519
 30
0.0
 10
21.03488581462369
 20
-6.393119624352579
 30
0.0
 10
21.42647811408787
 20
-6.340827425790897
 30
0.0
 10
21.82225068145143
 20
-6.288286640481189
 30
0.0
 10
22.15043564674078
 20
-6.246169064967752
 30
0.0
 10
22.42699099525085
 20
-6.211961776087344
 30
0.0
 10
22.6790103144511
 20
-6.181894191033006
 30
0.0
 10
22.94491671528881
 20
-6.151176459616572
 30
0.0
 10
23.25422511749231
 20
-6.116617395266122
 30
0.0
 10
23.62631288263032
 20
-6.076985983537648
 30
0.0
 10
24.05072358999663
 20
-6.0343403288594
 30
0.0
 10
24.58303033106425
 20
-5.984457428876828
 30
0.0
 10
25.1909683342676
 20
-5.933391535695559
 30
0.0
 10
25.81677268468144
 20
-5.886997368912322
 30
0.0
 10
26.21103368257894
 20
-5.862981964783451
 30
0.0
 10
26.38256472811652
 20
-5.852533588197382
 30
0.0
1001
PE_URL
1000

  0
SPLINE
  5
9A
330
1F
100
AcDbEntity
  8
0
  6
Continuous
 62
     1
370
    15
100
AcDbSpline
210
0.0
220
0.0
230
1.0
 70
     8
 71
     3
 72
    29
 73
    25
 74
     0
 42
0.000000001
 43
0.00000001
 40
0.0
 40
0.0
 40
0.0
 40
0.0
 40
0.0618999622603089
 40
0.1133398567936914
 40
0.1542205732397603
 40
0.1845026425019036
 40
0.2197744633737548
 40
0.2520542240366673
 40
0.2829982653200407
 40
0.3159661063924649
 40
0.3514011139999894
 40
0.3893782978053889
 40
0.429895442813685
 40
0.4668920567562288
 40
0.5049506213925169
 40
0.5438515851618873
 40
0.5818420683415079
 40
0.6187384278403778
 40
0.6577551729881396
 40
0.7044994894239498
 40
0.7619804332137124
 40
0.8304355955906823
 40
0.9098476981332181
 40
1.0
 40
1.0
 40
1.0
 40
1.0
 10
5.049987638721446
 20
-6.888091293871602
 30
0.0
 10
5.211918512067763
 20
-6.88173279707571
 30
0.0
 10
5.508416624915841
 20
-6.870090284060291
 30
0.0
 10
5.911876289291124
 20
-6.857048709897171
 30
0.0
 10
6.232615069064395
 20
-6.847955034638288
 30
0.0
 10
6.511046895718924
 20
-6.841020330380051
 30
0.0
 10
6.766954403451654
 20
-6.835432732832134
 30
0.0
 10
7.024630932233827
 20
-6.830630330361009
 30
0.0
 10
7.276312957466306
 20
-6.826692885426706
 30
0.0
 10
7.536188356866778
 20
-6.823415995619433
 30
0.0
 10
7.814418516078138
 20
-6.820815280937563
 30
0.0
 10
8.112383277429945
 20
-6.819083883419484
 30
0.0
 10
8.414443164358453
 20
-6.818463569093064
 30
0.0
 10
8.716658813979148
 20
-6.818960329768426
 30
0.0
 10
9.014748227414328
 20
-6.820518066389054
 30
0.0
 10
9.314804511157122
 20
-6.82317870042044
 30
0.0
 10
9.616090292714777
 20
-6.826966939018845
 30
0.0
 10
9.9192095243021
 20
-6.83171239958414
 30
0.0
 10
10.24574351150702
 20
-6.837385506560897
 30
0.0
 10
10.62473985530112
 20
-6.8461434740007
 30
0.0
 10
11.07605127215416
 20
-6.859273657350425
 30
0.0
 10
11.60753332959368
 20
-6.878316688318261
 30
0.0
 10
12.21883433105113
 20
-6.904151002914809
 30
0.0
 10
12.65132952273644
 20
-6.926375087320869
 30
0.0
 10
12.88127422848155
 20
-6.938190965618366
 30
0.0
1001
PE_URL
1000

  0
SPLINE
  5
9B
330
1F
100
AcDbEntity
  8
0
  6
Continuous
 62
     1
370
    15
100
AcDbSpline
210
0.0
220
0.0
230
1.0
 70
     8
 71
     3
 72
    48
 73
    44
 74
     0
 42
0.000000001
 43
0.00000001
 40
0.0
 40
0.0
 40
0.0
 40
0.0
 40
0.0624999999999998
 40
0.0624999999999998
 40
0.0937499999999997
 40
0.0937499999999997
 40
0.1249999999999996
 40
0.1249999999999996
 40
0.1562499999999995
 40
0.1562499999999995
 40
0.1874999999999994
 40
0.1874999999999994
 40
0.2499999999999992
 40
0.2499999999999992
 40
0.3124999999999991
 40
0.3124999999999991
 40
0.3749999999999989
 40
0.3749999999999989
 40
0.406249999999999
 40
0.406249999999999
 40
0.4374999999999991
 40
0.4374999999999991
 40
0.4999999999999992
 40
0.4999999999999992
 40
0.5624999999999993
 40
0.5624999999999993
 40
0.6249999999999996
 40
0.6249999999999996
 40
0.6562499999999997
 40
0.6562499999999997
 40
0.6874999999999998
 40
0.6874999999999998
 40
0.7499999999999998
 40
0.7499999999999998
 40
0.8125
 40
0.8125
 40
0.875
 40
0.875
 40
0.90625
 40
0.90625
 40
0.9375
 40
0.9375
 40
1.0
 40
1.0
 40
1.0
 40
1.0
 10
38.38748763872145
 20
-8.723870480473822
 30
0.0
 10
37.69593321370306
 20
-8.70741148931458
 30
0.0
 10
36.99775015833058
 20
-8.663248817927583
 30
0.0
 10
35.95536069200014
 20
-8.556188790991957
 30
0.0
 10
35.6098137616365
 20
-8.51378042247879
 30
0.0
 10
34.91640775263134
 20
-8.415500560481899
 30
0.0
 10
34.56843842677904
 20
-8.359605331672569
 30
0.0
 10
33.87243822971544
 20
-8.234652271726816
 30
0.0
 10
33.52440931855779
 20
-8.165594788936065
 30
0.0
 10
32.83076637665371
 20
-8.014852992904057
 30
0.0
 10
32.48535186103095
 20
-7.933201909695018
 30
0.0
 10
31.44320552077978
 20
-7.669164105399938
 30
0.0
 10
30.74494611542745
 20
-7.467904704038801
 30
0.0
 10
29.36121483046046
 20
-7.020819110906688
 30
0.0
 10
28.6637304626326
 20
-6.773718687993831
 30
0.0
 10
27.27357636535721
 20
-6.238766305056467
 30
0.0
 10
26.58232808934347
 20
-5.95121022709727
 30
0.0
 10
25.53834490110333
 20
-5.492036778097603
 30
0.0
 10
25.19026210861067
 20
-5.33448994601804
 30
0.0
 10
24.496393510222
 20
-5.01156498003856
 30
0.0
 10
24.15107140325061
 20
-4.846271242944026
 30
0.0
 10
23.10918519527886
 20
-4.338351301289594
 30
0.0
 10
22.41086096769144
 20
-3.984270688422629
 30
0.0
 10
21.02652960757377
 20
-3.255300401526211
 30
0.0
 10
20.32970984503847
 20
-2.878534862921711
 30
0.0
 10
18.93927698130367
 20
-2.109733465445548
 30
0.0
 10
18.24820501877178
 20
-1.718210476485993
 30
0.0
 10
17.20425604430773
 20
-1.123257653463592
 30
0.0
 10
16.85612507740035
 20
-0.9238643320400336
 30
0.0
 10
16.16204211121842
 20
-0.5243491348586056
 30
0.0
 10
15.81677240178597
 20
-0.3243598620060575
 30
0.0
 10
14.77516331811819
 20
0.2770171591730936
 30
0.0
 10
14.07678579962498
 20
0.6790856809389857
 30
0.0
 10
12.69187675668357
 20
1.474137251681137
 30
0.0
 10
11.99568748106565
 20
1.868965386134877
 30
0.0
 10
10.60499857511727
 20
2.643988238556751
 30
0.0
 10
9.914068494700345
 20
3.023546123283696
 30
0.0
 10
8.870170838564508
 20
3.578111601494017
 30
0.0
 10
8.521997406800706
 20
3.7603126584164
 30
0.0
 10
7.827711373184179
 20
4.118123950759548
 30
0.0
 10
7.482454047330174
 20
4.293597188123126
 30
0.0
 10
6.441139064893986
 20
4.810361305615874
 30
0.0
 10
5.742719789771568
 20
5.141369652475811
 30
0.0
 10
5.04998763872702
 20
5.454219442160362
 30
0.0
1001
PE_URL
1000

  0
SPLINE
  5
9C
330
1F
100
AcDbEntity
  8
0
  6
Continuous
 62
     1
370
    15
100
AcDbSpline
210
0.0
220
0.0
230
1.0
 70
     8
 71
     3
 72
    15
 73
    11
 74
     0
 42
0.000000001
 43
0.00000001
 40
0.0
 40
0.0
 40
0.0
 40
0.0
 40
0.0125624959634704
 40
0.1686233216880087
 40
0.3247342803908691
 40
0.4810615782576018
 40
0.6106400199089821
 40
0.7405436830943278
 40
0.8701540983304683
 40
1.0
 40
1.0
 40
1.0
 40
1.0
 10
16.70010451469606
 20
-0.8327590666643364
 30
0.0
 10
16.65131293959305
 20
-0.8134255915464752
 30
0.0
 10
15.99639551807241
 20
-0.553917066837217
 30
0.0
 10
14.73553652742638
 20
-0.0406455622426086
 30
0.0
 10
12.91630138866891
 20
0.6940264893607874
 30
0.0
 10
11.1992624980064
 20
1.377701024438416
 30
0.0
 10
9.58509818554416
 20
2.006332285883209
 30
0.0
 10
8.073594740791489
 20
2.571556169025548
 30
0.0
 10
6.562011340929995
 20
3.116204548843454
 30
0.0
 10
5.554300410627851
 20
3.450996708870432
 30
0.0
 10
5.049987638721452
 20
3.618544720069548
 30
0.0
1001
PE_URL
1000

  0
SPLINE
  5
9D
330
1F
100
AcDbEntity
  8
외형선
  6
Continuous
370
    15
100
AcDbSpline
210
0.0
220
0.0
230
1.0
 70
    24
 71
     3
 72
    10
 73
     6
 74
     0
 42
0.000000001
 43
0.00000001
 40
0.0
 40
0.0
 40
0.0
 40
0.0
 40
0.5
 40
0.5
 40
1.0
 40
1.0
 40
1.0
 40
1.0
 10
5.049987638721446
 20
5.454219442162879
 30
0.0
 10
5.049987638721446
 20
5.285500558857168
 30
0.0
 10
5.049987638721446
 20
5.028372940876094
 30
0.0
 10
5.049987638721446
 20
4.389667530212654
 30
0.0
 10
5.049987638721446
 20
4.010274382368706
 30
0.0
 10
5.049987638721446
 20
3.618544720069549
 30
0.0
  0
SPLINE
  5
9E
330
1F
100
AcDbEntity
  8
0
  6
Continuous
 62
     1
370
    15
100
AcDbSpline
210
0.0
220
0.0
230
1.0
 70
     8
 71
     3
 72
    48
 73
    44
 74
     0
 42
0.000000001
 43
0.00000001
 40
0.0
 40
0.0
 40
0.0
 40
0.0
 40
0.0625000000000002
 40
0.0625000000000002
 40
0.0937500000000001
 40
0.0937500000000001
 40
0.125
 40
0.125
 40
0.1562499999999998
 40
0.1562499999999998
 40
0.1874999999999997
 40
0.1874999999999997
 40
0.2499999999999995
 40
0.2499999999999995
 40
0.3124999999999993
 40
0.3124999999999993
 40
0.3749999999999991
 40
0.3749999999999991
 40
0.4062499999999991
 40
0.4062499999999991
 40
0.4374999999999991
 40
0.4374999999999991
 40
0.4999999999999991
 40
0.4999999999999991
 40
0.562499999999999
 40
0.562499999999999
 40
0.6249999999999991
 40
0.6249999999999991
 40
0.6562499999999991
 40
0.6562499999999991
 40
0.6874999999999991
 40
0.6874999999999991
 40
0.7499999999999992
 40
0.7499999999999992
 40
0.8124999999999994
 40
0.8124999999999994
 40
0.8749999999999996
 40
0.8749999999999996
 40
0.9062499999999997
 40
0.9062499999999997
 40
0.9374999999999998
 40
0.9374999999999998
 40
1.0
 40
1.0
 40
1.0
 40
1.0
 10
38.38748763872145
 20
-8.285439964481029
 30
0.0
 10
37.69593321370301
 20
-8.159129245600042
 30
0.0
 10
36.99775015833045
 20
-8.006155112407484
 30
0.0
 10
35.95536069199997
 20
-7.739764315949552
 30
0.0
 10
35.6098137616363
 20
-7.644946371431114
 30
0.0
 10
34.91640775263107
 20
-7.443184927602903
 30
0.0
 10
34.56843842677874
 20
-7.336214137354267
 30
0.0
 10
33.8724382297151
 20
-7.110809483703756
 30
0.0
 10
33.5244093185574
 20
-6.992376251996401
 30
0.0
 10
32.8307663766533
 20
-6.744928058032341
 30
0.0
 10
32.48535186103049
 20
-6.615952683381805
 30
0.0
 10
31.44320552077924
 20
-6.212909942849006
 30
0.0
 10
30.74494611542687
 20
-5.923162346132459
 30
0.0
 10
29.36121483045978
 20
-5.309931900798691
 30
0.0
 10
28.66373046263185
 20
-4.984693161579823
 30
0.0
 10
27.27357636535636
 20
-4.305459062588463
 30
0.0
 10
26.58232808934259
 20
-3.951778798369996
 30
0.0
 10
25.53834490110236
 20
-3.402989366068342
 30
0.0
 10
25.19026210860967
 20
-3.217200901892204
 30
0.0
 10
24.49639351022095
 20
-2.841244144390235
 30
0.0
 10
24.15107140324952
 20
-2.651166802574651
 30
0.0
 10
23.10918519527769
 20
-2.074018410476445
 30
0.0
 10
22.41086096769022
 20
-1.680754908705631
 30
0.0
 10
21.02652960757246
 20
-0.8884178900415376
 30
0.0
 10
20.32970984503708
 20
-0.4872957141974797
 30
0.0
 10
18.93927698130219
 20
0.314893668924655
 30
0.0
 10
18.24820501877024
 20
0.7154645889952924
 30
0.0
 10
17.20425604430612
 20
1.312437930232685
 30
0.0
 10
16.85612507739871
 20
1.510574023150897
 30
0.0
 10
16.16204211121673
 20
1.903732661145057
 30
0.0
 10
15.81677240178425
 20
2.098630765942582
 30
0.0
 10
14.77516331811638
 20
2.67897477392794
 30
0.0
 10
14.07678579962313
 20
3.059316196119404
 30
0.0
 10
12.69187675668164
 20
3.796161413627426
 30
0.0
 10
11.99568748106364
 20
4.154388264022925
 30
0.0
 10
10.60499857511516
 20
4.842004344903236
 30
0.0
 10
9.914068494698173
 20
5.170863829634214
 30
0.0
 10
8.870170838562254
 20
5.639258479847511
 30
0.0
 10
8.521997406798423
 20
5.791073171189746
 30
0.0
 10
7.827711373181852
 20
6.085010069746877
 30
0.0
 10
7.482454047327821
 20
6.227026533729481
 30
0.0
 10
6.441139064891534
 20
6.638739978518741
 30
0.0
 10
5.742719789769068
 20
6.893541749015473
 30
0.0
 10
5.04998763872448
 20
7.125104089957484
 30
0.0
1001
PE_URL
1000

  0
SPLINE
  5
9F
330
1F
100
AcDbEntity
  8
0
  6
Continuous
 62
     1
370
    15
100
AcDbSpline
210
0.0
220
0.0
230
1.0
 70
     8
 71
     3
 72
    20
 73
    16
 74
     0
 42
0.000000001
 43
0.00000001
 40
0.0
 40
0.0
 40
0.0
 40
0.0
 40
0.0804234680863474
 40
0.1607455258953054
 40
0.2411944268149097
 40
0.321590622344349
 40
0.401916932156677
 40
0.482383360468699
 40
0.5627565094341529
 40
0.6430913217600777
 40
0.7235673651565491
 40
0.8039217016311473
 40
0.8842692639956331
 40
0.96474700640062
 40
0.9999999999999999
 40
0.9999999999999999
 40
0.9999999999999999
 40
0.9999999999999999
 10
38.38748763872145
 20
-6.88871408326499
 30
0.0
 10
37.78071184526203
 20
-6.768400670971173
 30
0.0
 10
36.56792537458341
 20
-6.527925556037509
 30
0.0
 10
34.74891225019671
 20
-6.045259947863242
 30
0.0
 10
32.92918786499297
 20
-5.483434647696264
 30
0.0
 10
31.10979877546892
 20
-4.840056768358689
 30
0.0
 10
29.29078754246896
 20
-4.126269450682285
 30
0.0
 10
27.4709535598155
 20
-3.354454924103594
 30
0.0
 10
25.65170493648462
 20
-2.533067961348428
 30
0.0
 10
23.8326631619584
 20
-1.674375378556347
 30
0.0
 10
22.01277048382657
 20
-0.7936655526747692
 30
0.0
 10
20.19362481248607
 20
0.100764533715714
 30
0.0
 10
18.37454068227335
 20
0.9919779903986483
 30
0.0
 10
16.89481475245188
 20
1.709054783476402
 30
0.0
 10
16.02189462943754
 20
2.114641698493117
 30
0.0
 10
15.75599251413229
 20
2.23818841920642
 30
0.0
1001
PE_URL
1000

  0
LINE
  5
A0
330
1F
100
AcDbEntity
  8
0
  6
Continuous
 62
     1
370
    15
100
AcDbLine
 10
38.38748763872145
 20
-8.28543996448103
 30
0.0
 11
38.38748763872145
 21
-6.88871408326499
 31
0.0
1001
PE_URL
1000

  0
LINE
  5
A1
330
1F
100
AcDbEntity
  8
외형선
  6
Continuous
370
    15
100
AcDbLine
 10
5.049987638721446
 20
5.454219442162879
 30
0.0
 11
5.049987638721446
 21
7.125104089950767
 31
0.0
  0
LINE
  5
A2
330
1F
100
AcDbEntity
  8
0
  6
Continuous
 62
     1
370
    15
100
AcDbLine
 10
38.38748763872145
 20
-8.723870480473831
 30
0.0
 11
38.38748763872145
 21
-8.28543996448103
 31
0.0
1001
PE_URL
1000

  0
SPLINE
  5
A3
330
1F
100
AcDbEntity
  8
0
  6
Continuous
 62
     1
370
    15
100
AcDbSpline
210
0.0
220
0.0
230
1.0
 70
     8
 71
     3
 72
    12
 73
     8
 74
     0
 42
0.000000001
 43
0.00000001
 40
0.0
 40
0.0
 40
0.0
 40
0.0
 40
0.5
 40
0.5
 40
0.75
 40
0.75
 40
1.0
 40
1.0
 40
1.0
 40
1.0
 10
38.38748763872144
 20
-2.333364972521329
 30
0.0
 10
37.52589991157086
 20
-1.656014814730523
 30
0.0
 10
36.67762347715188
 20
-0.9529895420475769
 30
0.0
 10
35.42545054536114
 20
0.1405910424649146
 30
0.0
 10
35.01147736777568
 20
0.5117102313397041
 30
0.0
 10
34.19103978310049
 20
1.26843169116596
 30
0.0
 10
33.78352507911725
 20
1.655143439575833
 30
0.0
 10
33.38748763872144
 20
2.043313044166086
 30
0.0
1001
PE_URL
1000

  0
LINE
  5
A4
330
1F
100
AcDbEntity
  8
0
  6
Continuous
 62
     1
370
    15
100
AcDbLine
 10
33.38748763872145
 20
2.93771943529659
 30
0.0
 11
38.38748763872145
 21
0.0000000000000027
 31
0.0
1001
PE_URL
1000

  0
LINE
  5
A5
330
1F
100
AcDbEntity
  8
0
  6
Continuous
 62
     1
370
    15
100
AcDbLine
 10
38.38748763872145
 20
0.0000000000000027
 30
0.0
 11
38.38748763872145
 21
-2.333364972521334
 31
0.0
1001
PE_URL
1000

  0
SPLINE
  5
A6
330
1F
100
AcDbEntity
  8
0
  6
Continuous
 62
     1
370
    15
100
AcDbSpline
210
0.0
220
0.0
230
1.0
 70
     8
 71
     3
 72
    19
 73
    15
 74
     0
 42
0.000000001
 43
0.00000001
 40
0.0
 40
0.0
 40
0.0
 40
0.0
 40
0.086600564667428
 40
0.1732627583270637
 40
0.2600001315346477
 40
0.346588143047217
 40
0.4333099790908444
 40
0.5184400326192691
 40
0.6034890941617709
 40
0.688706830605295
 40
0.7737732607082873
 40
0.8606021527000096
 40
0.9475461709367244
 40
1.0
 40
1.0
 40
1.0
 40
1.0
 10
33.38748763872145
 20
2.267221784018563
 30
0.0
 10
32.79557156203518
 20
2.52297010318027
 30
0.0
 10
31.61131817363469
 20
3.034648743910127
 30
0.0
 10
29.83409002256858
 20
3.751944719206821
 30
0.0
 10
28.05643391130519
 20
4.418840858571397
 30
0.0
 10
26.27932158353124
 20
5.025869466185844
 30
0.0
 10
24.51234630949483
 20
5.559051649162075
 30
0.0
 10
22.75615849569321
 20
6.014338374670938
 30
0.0
 10
21.0107813790088
 20
6.387421994436815
 30
0.0
 10
19.26478696327472
 20
6.674239336071704
 30
0.0
 10
17.50755395923893
 20
6.875443535971517
 30
0.0
 10
15.73833844790821
 20
6.979855751883868
 30
0.0
 10
14.19144325777782
 20
7.000812392610714
 30
0.0
 10
13.23871370705861
 20
6.946936781259195
 30
0.0
 10
12.88021238178771
 20
6.926663999697295
 30
0.0
1001
PE_URL
1000

  0
SPLINE
  5
A7
330
1F
100
AcDbEntity
  8
0
  6
Continuous
 62
     1
370
    15
100
AcDbSpline
210
0.0
220
0.0
230
1.0
 70
    24
 71
     3
 72
     8
 73
     4
 74
     0
 42
0.000000001
 43
0.00000001
 40
0.0
 40
0.0
 40
0.0
 40
0.0
 40
1.0
 40
1.0
 40
1.0
 40
1.0
 10
33.38748763872145
 20
2.0433130441661
 30
0.0
 10
33.38748763872145
 20
2.118317755926375
 30
0.0
 10
33.38748763872145
 20
2.192963155671229
 30
0.0
 10
33.38748763872145
 20
2.267221784018566
 30
0.0
1001
PE_URL
1000

  0
SPLINE
  5
A8
330
1F
100
AcDbEntity
  8
0
  6
Continuous
 62
     1
370
    15
100
AcDbSpline
210
0.0
220
0.0
230
1.0
 70
    24
 71
     3
 72
    10
 73
     6
 74
     0
 42
0.000000001
 43
0.00000001
 40
0.0
 40
0.0
 40
0.0
 40
0.0
 40
0.5
 40
0.5
 40
1.0
 40
1.0
 40
1.0
 40
1.0
 10
38.38748763872145
 20
-6.888714083264988
 30
0.0
 10
38.38748763872145
 20
-6.360640440239473
 30
0.0
 10
38.38748763872145
 20
-5.693399143858356
 30
0.0
 10
38.38748763872144
 20
-4.142127344584372
 30
0.0
 10
38.38748763872145
 20
-3.259440612141744
 30
0.0
 10
38.38748763872145
 20
-2.333364972521609
 30
0.0
1001
PE_URL
1000

  0
SPLINE
  5
A9
330
1F
100
AcDbEntity
  8
0
  6
Continuous
 62
     1
370
    15
100
AcDbSpline
210
0.0
220
0.0
230
1.0
 70
    24
 71
     3
 72
    10
 73
     6
 74
     0
 42
0.000000001
 43
0.00000001
 40
0.0
 40
0.0
 40
0.0
 40
0.0
 40
0.5
 40
0.5
 40
1.0
 40
1.0
 40
1.0
 40
1.0
 10
33.38748763872145
 20
2.267221784018568
 30
0.0
 10
33.38748763872145
 20
2.673213831087892
 30
0.0
 10
33.38748763872147
 20
3.061056462287582
 30
0.0
 10
33.38748763872145
 20
3.778834532892279
 30
0.0
 10
33.38748763872145
 20
4.108657260640911
 30
0.0
 10
33.38748763872145
 20
4.399952607361767
 30
0.0
1001
PE_URL
1000

  0
SPLINE
  5
AA
330
1F
100
AcDbEntity
  8
0
  6
Continuous
 62
     1
370
    15
100
AcDbSpline
210
0.0
220
0.0
230
1.0
 70
     8
 71
     3
 72
     9
 73
     5
 74
     0
 42
0.000000001
 43
0.00000001
 40
0.0
 40
0.0
 40
0.0
 40
0.0
 40
0.5610834085273488
 40
1.0
 40
1.0
 40
1.0
 40
1.0
 10
38.38748763872145
 20
6.111874999999996
 30
0.0
 10
37.78072967601531
 20
6.105358271058211
 30
0.0
 10
36.69932546144643
 20
6.093743725265655
 30
0.0
 10
35.61814132139354
 20
6.003860869091634
 30
0.0
 10
35.14359166388724
 20
5.964409792227906
 30
0.0
1001
PE_URL
1000

  0
SPLINE
  5
AB
330
1F
100
AcDbEntity
  8
0
  6
Continuous
 62
     1
370
    15
100
AcDbSpline
210
0.0
220
0.0
230
1.0
 70
     8
 71
     3
 72
    10
 73
     6
 74
     0
 42
0.000000001
 43
0.00000001
 40
0.0
 40
0.0
 40
0.0
 40
0.0
 40
0.4999999999999994
 40
0.4999999999999994
 40
1.0
 40
1.0
 40
1.0
 40
1.0
 10
38.38748763872145
 20
6.111875000000001
 30
0.0
 10
37.54337365786391
 20
5.882999830100323
 30
0.0
 10
36.70401747254748
 20
5.627531774560778
 30
0.0
 10
35.03552351451269
 20
5.059603747683957
 30
0.0
 10
34.20744700498403
 20
4.747974644908712
 30
0.0
 10
33.38748763872145
 20
4.399952607361746
 30
0.0
1001
PE_URL
1000

  0
SPLINE
  5
AC
330
1F
100
AcDbEntity
  8
0
  6
Continuous
 62
     1
370
    15
100
AcDbSpline
210
0.0
220
0.0
230
1.0
 70
     8
 71
     3
 72
    16
 73
    12
 74
     0
 42
0.000000001
 43
0.00000001
 40
0.0
 40
0.0
 40
0.0
 40
0.0
 40
0.0423076754238592
 40
0.1598461700766381
 40
0.27981990407158
 40
0.3999527109877092
 40
0.5198610231263802
 40
0.639904929086212
 40
0.7599800148629654
 40
0.8798838562631813
 40
1.0
 40
1.0
 40
1.0
 40
1.0
 10
19.89192470018881
 20
-6.556741673326275
 30
0.0
 10
19.68257838245673
 20
-6.592336538539026
 30
0.0
 10
18.89162953514075
 20
-6.726820478430545
 30
0.0
 10
17.50755711679975
 20
-6.871057945220269
 30
0.0
 10
15.73833530182814
 20
-6.983471997433371
 30
0.0
 10
13.95672629140783
 20
-6.993967330098886
 30
0.0
 10
12.17575353650853
 20
-6.908947039344277
 30
0.0
 10
10.39445033429218
 20
-6.728238484692389
 30
0.0
 10
8.6130461454844
 20
-6.453180846674238
 30
0.0
 10
6.832024729081957
 20
-6.093481302075384
 30
0.0
 10
5.644350175915528
 20
-5.78405996425221
 30
0.0
 10
5.049987638732416
 20
-5.629212450750416
 30
0.0
1001
PE_URL
1000

  0
SPLINE
  5
AD
330
1F
100
AcDbEntity
  8
외형선
  6
Continuous
370
    15
100
AcDbSpline
210
0.0
220
0.0
230
1.0
 70
    24
 71
     3
 72
    14
 73
    10
 74
     0
 42
0.000000001
 43
0.00000001
 40
0.0
 40
0.0
 40
0.0
 40
0.0
 40
0.25
 40
0.25
 40
0.5
 40
0.5
 40
0.75
 40
0.75
 40
1.0
 40
1.0
 40
1.0
 40
1.0
 10
5.049987638721446
 20
3.618544720069549
 30
0.0
 10
5.049987638721446
 20
2.912017973097543
 30
0.0
 10
5.049987638721446
 20
2.144225820731696
 30
0.0
 10
5.049987638721446
 20
0.54523408577287
 30
0.0
 10
5.049987638721446
 20
-0.2853114642618944
 30
0.0
 10
5.049987638721446
 20
-1.928904536621107
 30
0.0
 10
5.049987638721446
 20
-2.7410762838409
 30
0.0
 10
5.049987638721446
 20
-4.270057893380264
 30
0.0
 10
5.049987638721446
 20
-4.986312056140344
 30
0.0
 10
5.049987638721446
 20
-5.629212450747412
 30
0.0
  0
LINE
  5
AE
330
1F
100
AcDbEntity
  8
0
  6
Continuous
 62
     1
370
    15
100
AcDbLine
 10
38.38748763872145
 20
0.0000000000000027
 30
0.0
 11
38.38748763872145
 21
6.111875000000001
 31
0.0
1001
PE_URL
1000

  0
SPLINE
  5
AF
330
1F
100
AcDbEntity
  8
외형선
  6
Continuous
370
    15
100
AcDbSpline
210
0.0
220
0.0
230
1.0
 70
    24
 71
     3
 72
    14
 73
    10
 74
     0
 42
0.000000001
 43
0.00000001
 40
0.0
 40
0.0
 40
0.0
 40
0.0
 40
0.1461495929193778
 40
0.2925093988605964
 40
0.4386589917799744
 40
0.5992255792014315
 40
0.7597921666228885
 40
0.925023560810306
 40
1.0
 40
1.0
 40
1.0
 40
1.0
 10
5.049987638721446
 20
-5.629212450747412
 30
0.0
 10
5.049987638721446
 20
-5.744449164837727
 30
0.0
 10
5.049987638721446
 20
-5.975088342764296
 30
0.0
 10
5.049987638721446
 20
-6.258560766638306
 30
0.0
 10
5.049987638721446
 20
-6.501832077393766
 30
0.0
 10
5.049987638721446
 20
-6.69332295632098
 30
0.0
 10
5.049987638721446
 20
-6.823806438996472
 30
0.0
 10
5.049987638721446
 20
-6.887401992799486
 30
0.0
 10
5.049987638721446
 20
-6.881262395010125
 30
0.0
 10
5.049987638721446
 20
-6.879346032942196
 30
0.0
  0
SPLINE
  5
B0
330
1F
100
AcDbEntity
  8
0
  6
Continuous
 62
     1
370
    15
100
AcDbSpline
210
0.0
220
0.0
230
1.0
 70
     8
 71
     3
 72
    15
 73
    11
 74
     0
 42
0.000000001
 43
0.00000001
 40
0.0
 40
0.0
 40
0.0
 40
0.0
 40
0.0518719400412184
 40
0.1886801291703104
 40
0.3254630233154834
 40
0.4624410395442182
 40
0.5967046661520234
 40
0.7312615760059245
 40
0.865562078685711
 40
1.0
 40
1.0
 40
1.0
 40
1.0
 10
26.38284771932844
 20
5.852655993823031
 30
0.0
 10
26.59045465871988
 20
5.943515144716594
 30
0.0
 10
27.34560868052633
 20
6.274008207310358
 30
0.0
 10
28.64782629028257
 20
6.771322649719828
 30
0.0
 10
30.29034606896796
 20
7.335478939219094
 30
0.0
 10
31.92388483028008
 20
7.80467713793349
 30
0.0
 10
33.54675190304451
 20
8.184112310715305
 30
0.0
 10
35.16080539412521
 20
8.464622580846681
 30
0.0
 10
36.77393435046079
 20
8.656972294461728
 30
0.0
 10
37.84945322145502
 20
8.701563484610054
 30
0.0
 10
38.38748763872145
 20
8.723870480473819
 30
0.0
1001
PE_URL
1000

  0
SPLINE
  5
B1
330
1F
100
AcDbEntity
  8
0
  6
Continuous
 62
     1
370
    15
100
AcDbSpline
210
0.0
220
0.0
230
1.0
 70
    24
 71
     3
 72
    10
 73
     6
 74
     0
 42
0.000000001
 43
0.00000001
 40
0.0
 40
0.0
 40
0.0
 40
0.0
 40
0.5
 40
0.5
 40
1.0
 40
1.0
 40
1.0
 40
1.0
 10
38.38748763872145
 20
6.111874999999998
 30
0.0
 10
38.38748763872145
 20
6.482361642248856
 30
0.0
 10
38.38748763872145
 20
6.912901431296014
 30
0.0
 10
38.38748763872144
 20
7.816172749139465
 30
0.0
 10
38.38748763872145
 20
8.286597436341609
 30
0.0
 10
38.38748763872145
 20
8.72387048047383
 30
0.0
1001
PE_URL
1000

  0
LINE
  5
B2
330
1F
100
AcDbEntity
  8
0
  6
Continuous
 62
     1
370
    15
100
AcDbLine
 10
5.786534950272213
 20
-6.861445923521309
 30
0.0
 11
5.049987638724487
 21
-7.125104089957484
 31
0.0
1001
PE_URL
1000

  0
SPLINE
  5
B3
330
1F
100
AcDbEntity
  8
외형선
  6
Continuous
370
    15
100
AcDbSpline
210
0.0
220
0.0
230
1.0
 70
    24
 71
     3
 72
     9
 73
     5
 74
     0
 42
0.000000001
 43
0.00000001
 40
0.0
 40
0.0
 40
0.0
 40
0.0
 40
0.4792692733920489
 40
1.0
 40
1.0
 40
1.0
 40
1.0
 10
5.049987638721446
 20
-6.909128772254737
 30
0.0
 10
5.049987638721446
 20
-6.944804783757144
 30
0.0
 10
5.049987638721446
 20
-7.019243128719069
 30
0.0
 10
5.049987638721446
 20
-7.088855032640961
 30
0.0
 10
5.049987638721446
 20
-7.125104089950771
 30
0.0
  0
LINE
  5
B4
330
1F
100
AcDbEntity
  8
중심선
 62
     1
100
AcDbLine
 10
-55.92501236127855
 20
-0.0000000000000067
 30
0.0
 11
45.38748763872145
 21
0.000000000000006
 31
0.0
  0
LINE
  5
B5
330
1F
100
AcDbEntity
  8
참조1
100
AcDbLine
 10
-3.68126236127855
 20
-0.0000000000000055
 30
0.0
 11
-3.681262361278545
 21
-40.00000000000001
 31
0.0
  0
LINE
  5
B6
330
1F
100
AcDbEntity
  8
참조1
100
AcDbLine
 10
-3.681262361278545
 20
-40.00000000000001
 30
0.0
 11
-21.22134417558723
 21
-40.0
 31
0.0
  0
INSERT
  5
B8
330
1F
100
AcDbEntity
  8
0
  6
Continuous
 62
     7
100
AcDbBlockReference
 66
     1
  2
블럭10
 10
-17.62153529340376
 20
-52.04717430164393
 30
0.0
  0
ATTRIB
  5
B9
330
B8
100
AcDbEntity
  8
FORMAT
 62
     2
100
AcDbText
 10
-26.80283058214504
 20
-49.97180738881175
 30
0.0
 40
4.233333333333333
  1
E1030044 [ 2 FLUTE ]
 41
0.75
  7
SLDTEXTSTYLE0
 11
-26.80283058214504
 21
-52.08847405547841
 31
0.0
100
AcDbAttribute
  2
AUTOATTR0
 70
     0
 74
     1
  0
SEQEND
  5
BA
330
B8
100
AcDbEntity
  8
0
  6
Continuous
 62
     7
  0
HATCH
  5
BB
330
1F
100
AcDbEntity
  8
중심선
100
AcDbHatch
 10
0.0
 20
0.0
 30
0.0
210
0.0
220
0.0
230
1.0
  2
SOLID
 70
     1
 71
     0
 91
        1
 92
        0
 93
        4
 72
     1
 10
-11.90662598902291
 20
-35.8
 11
-15.35290123286019
 21
-35.8
 72
     1
 10
-15.35290123286019
 20
-35.8
 11
-17.48113109206422
 21
-38.3363255805726
 72
     1
 10
-17.48113109206422
 20
-38.3363255805726
 11
-14.03482276311379
 21
-38.33628615127011
 72
     1
 10
-14.03482276311379
 20
-38.33628615127011
 11
-11.90662598902291
 21
-35.8
 97
        0
 75
     0
 76
     1
 98
        1
 10
1.309408806594508
 20
-0.0010749287238947
  0
HATCH
  5
BC
330
1F
100
AcDbEntity
  8
중심선
100
AcDbHatch
 10
0.0
 20
0.0
 30
0.0
210
0.0
220
0.0
230
1.0
  2
SOLID
 70
     1
 71
     0
 91
        1
 92
        0
 93
        4
 72
     1
 10
-6.893861997986907
 20
-35.8
 11
-10.34013724182419
 21
-35.8
 72
     1
 10
-10.34013724182419
 20
-35.8
 11
-14.87127525018163
 21
-41.20000000000002
 72
     1
 10
-14.87127525018163
 20
-41.20000000000002
 11
-11.42500000634435
 21
-41.20000000000002
 72
     1
 10
-11.42500000634435
 20
-41.20000000000002
 11
-6.893861997986907
 21
-35.8
 97
        0
 75
     0
 76
     1
 98
        1
 10
1.309408806594508
 20
-0.0010749287238947
  0
HATCH
  5
BD
330
1F
100
AcDbEntity
  8
중심선
100
AcDbHatch
 10
0.0
 20
0.0
 30
0.0
210
0.0
220
0.0
230
1.0
  2
SOLID
 70
     1
 71
     0
 91
        1
 92
        0
 93
        4
 72
     1
 10
-1.881098006951038
 20
-35.8
 11
-5.327373250788182
 21
-35.80000000000003
 72
     1
 10
-5.327373250788182
 20
-35.80000000000003
 11
-12.37581015267743
 21
-44.20000000000002
 72
     1
 10
-12.37581015267743
 20
-44.20000000000002
 11
-8.929534908840148
 21
-44.20000000000002
 72
     1
 10
-8.929534908840148
 20
-44.20000000000002
 11
-1.881098006951039
 21
-35.8
 97
        0
 75
     0
 76
     1
 98
        1
 10
1.309408806594508
 20
-0.0010749287238947
  0
HATCH
  5
BE
330
1F
100
AcDbEntity
  8
중심선
100
AcDbHatch
 10
0.0
 20
0.0
 30
0.0
210
0.0
220
0.0
230
1.0
  2
SOLID
 70
     1
 71
     0
 91
        1
 92
        0
 93
        6
 72
     3
 10
2.918792424061134
 20
-40.00000000005127
 11
3.960054785062283
 21
1.540882976769353E-10
 40
0.3939339440162628
 50
17.0953918060844
 51
320.0019657685081
 73
     0
 72
     1
 10
4.601792079761729
 20
-38.5878940046383
 11
6.907093953462795
 21
-36.65356729459038
 72
     3
 10
2.918792424008287
 20
-40.00000000000015
 11
6.600054785286829
 21
-1.278976924368180E-13
 40
0.6363583540795981
 50
39.99873849337385
 51
368.4976242363725
 73
     1
 72
     1
 10
9.344124915908896
 20
-39.03999999993002
 11
1.598859730844209
 21
-39.03999999993002
 72
     1
 10
1.598859730844209
 20
-39.03999999993002
 11
1.598834686398275
 21
-40.95999999992991
 72
     1
 10
1.598834686398275
 20
-40.95999999992991
 11
6.040214455870313
 21
-40.95999999992988
 97
        0
 75
     0
 76
     1
 98
        1
 10
1.309408806594508
 20
-0.0010749287238947
  0
DIMENSION
  5
BF
330
1F
100
AcDbEntity
  8
치수문자_일반주서
100
AcDbDimension
  2
_D
 10
-63.92501236127848
 20
-7.937500000000075
 30
0.0
 11
-63.92501236127862
 21
28.81249999999992
 31
0.0
 70
   160
  1
%%c<>
 71
     2
 42
15.875
 52
-270.0
  3
SLDDIMSTYLE2
100
AcDbAlignedDimension
 13
-47.92501236127855
 23
7.93749999999998
 33
0.0
 14
-47.92501236127855
 24
-7.937500000000016
 34
0.0
 50
90.0000000000002
100
AcDbRotatedDimension
1001
PE_URL
1000

1001
ACAD
1000
DSTYLE
1002
{
1070
   171
1070
     8
1070
   273
1070
     7
1070
    41
1040
4.0
1070
   140
1040
4.0
1002
}
1001
ACAD_DSTYLE_DIMFLIPARROW_SYMBOL
1070
   385
1070
     0
1001
ACAD_DSTYLE_DIMFLIPARROW_WHICH_SYMBOL
1070
   386
1070
     3
  0
DIMENSION
  5
CD
330
1F
100
AcDbEntity
  8
치수문자_일반주서
100
AcDbDimension
  2
_D_1
 10
5.049987638721447
 20
21.35
 30
0.0
 11
60.76248763872145
 21
21.35
 31
0.0
 70
   160
  1
<>
 71
     2
 42
33.33750000000001
  3
SLDDIMSTYLE2
100
AcDbAlignedDimension
 13
38.38748763872145
 23
8.723870480473819
 33
0.0
 14
5.049987638721446
 24
5.472849324069392
 34
0.0
100
AcDbRotatedDimension
1001
PE_URL
1000

1001
ACAD
1000
DSTYLE
1002
{
1070
   171
1070
     8
1070
   273
1070
     7
1070
    41
1040
4.0
1070
   140
1040
4.0
1002
}
  0
DIMENSION
  5
E3
330
1F
100
AcDbEntity
  8
치수문자_일반주서
100
AcDbDimension
  2
_D_2
 10
-48.92501236127856
 20
36.34999999999999
 30
0.0
 11
-3.681262361278552
 21
36.34999999999999
 31
0.0
 70
   160
  1
<>
 71
     2
 42
87.31250000000001
  3
SLDDIMSTYLE2
100
AcDbAlignedDimension
 13
38.38748763872145
 23
8.723870480473819
 33
0.0
 14
-48.92501236127856
 24
6.937499999999977
 34
0.0
 50
0.000000000000008
100
AcDbRotatedDimension
1001
PE_URL
1000

1001
ACAD
1000
DSTYLE
1002
{
1070
   171
1070
     8
1070
   273
1070
     7
1070
    41
1040
4.0
1070
   140
1040
4.0
1002
}
  0
DIMENSION
  5
F7
330
1F
100
AcDbEntity
  8
치수문자_일반주서
100
AcDbDimension
  2
_D_3
 10
86.60266704982332
 20
8.723870480474005
 30
0.0
 11
86.60266704982325
 21
30.09887048047401
 31
0.0
 70
   160
  1
%%c<>
 71
     2
 42
17.44774096094766
 52
-270.0
  3
SLDDIMSTYLE2
100
AcDbAlignedDimension
 13
38.38748763872145
 23
-8.723870480473831
 33
0.0
 14
38.38748763872145
 24
8.723870480473828
 34
0.0
 50
90.0000000000002
100
AcDbRotatedDimension
1001
PE_URL
1000

1001
ACAD
1000
DSTYLE
1002
{
1070
   171
1070
     8
1070
   273
1070
     7
1070
    41
1040
4.0
1070
   140
1040
4.0
1002
}
  0
LINE
  5
10B
330
1F
100
AcDbEntity
  8
참조1
100
AcDbLine
 10
76.75099645406704
 20
7.440000000000001
 30
0.0
 11
76.75099645406704
 21
-7.440000000000003
 31
0.0
  0
LINE
  5
10C
330
1F
100
AcDbEntity
  8
참조1
100
AcDbLine
 10
89.45099645406704
 20
5.440000000000001
 30
0.0
 11
76.75099645406704
 21
5.440000000000001
 31
0.0
  0
SOLID
  5
10D
330
1F
100
AcDbEntity
  8
참조1
100
AcDbTrace
 10
76.75099645406704
 20
5.440000000000001
 30
0.0
 11
83.10099645406703
 21
4.424000000000001
 31
0.0
 12
83.10099645406703
 22
6.456000000000001
 32
0.0
 13
83.10099645406703
 23
6.456000000000001
 33
0.0
  0
LINE
  5
10E
330
1F
100
AcDbEntity
  8
참조1
100
AcDbLine
 10
89.45099645406704
 20
-5.440000000000003
 30
0.0
 11
76.75099645406704
 21
-5.440000000000003
 31
0.0
  0
SOLID
  5
10F
330
1F
100
AcDbEntity
  8
참조1
100
AcDbTrace
 10
76.75099645406704
 20
-5.440000000000003
 30
0.0
 11
83.10099645406703
 21
-6.456000000000003
 31
0.0
 12
83.10099645406703
 22
-4.424000000000003
 32
0.0
 13
83.10099645406703
 23
-4.424000000000003
 33
0.0
  0
MTEXT
  5
110
330
1F
100
AcDbEntity
  8
참조1
100
AcDbMText
 10
86.13534658669302
 20
11.01029177718833
 30
0.0
 40
3.5
 41
0.0
 71
     1
 72
     1
  1
A
  7
SLDTEXTSTYLE0
 73
     1
 44
1.0
  0
MTEXT
  5
111
330
1F
100
AcDbEntity
  8
참조1
100
AcDbMText
 10
86.13534658669302
 20
0.1302917771883254
 30
0.0
 40
3.5
 41
0.0
 71
     1
 72
     1
  1
A
  7
SLDTEXTSTYLE0
 73
     1
 44
1.0
  0
SPLINE
  5
195
330
1F
100
AcDbEntity
  8
외형선
  6
Continuous
370
    15
100
AcDbSpline
210
0.0
220
0.0
230
1.0
 70
    24
 71
     3
 72
    10
 73
     6
 74
     0
 42
0.000000001
 43
0.00000001
 40
0.0
 40
0.0
 40
0.0
 40
0.0
 40
0.5
 40
0.5
 40
1.0
 40
1.0
 40
1.0
 40
1.0
 10
5.049987638721453
 20
5.859390102354197
 30
0.0
 10
5.049987638721453
 20
5.657366848712151
 30
0.0
 10
5.049987638721453
 20
5.373798737777765
 30
0.0
 10
5.049987638721453
 20
4.702326711790828
 30
0.0
 10
5.049987638721453
 20
4.316622403104567
 30
0.0
 10
5.049987638721453
 20
3.927564163839677
 30
0.0
  0
LINE
  5
196
330
1F
100
AcDbEntity
  8
외형선
  6
Continuous
370
    15
100
AcDbLine
 10
5.049987638721453
 20
5.859390102354197
 30
0.0
 11
5.049987638721453
 21
7.125104089957484
 31
0.0
  0
SPLINE
  5
197
330
1F
100
AcDbEntity
  8
외형선
  6
Continuous
370
    15
100
AcDbSpline
210
0.0
220
0.0
230
1.0
 70
    24
 71
     3
 72
    14
 73
    10
 74
     0
 42
0.000000001
 43
0.00000001
 40
0.0
 40
0.0
 40
0.0
 40
0.0
 40
0.25
 40
0.25
 40
0.5
 40
0.5
 40
0.75
 40
0.75
 40
1.0
 40
1.0
 40
1.0
 40
1.0
 10
5.049987638721453
 20
3.927564163839673
 30
0.0
 10
5.049987638721453
 20
3.288331323127917
 30
0.0
 10
5.049987638721453
 20
2.583290786671022
 30
0.0
 10
5.049987638721453
 20
1.092985192939093
 30
0.0
 10
5.049987638721453
 20
0.3082886299263241
 30
0.0
 10
5.049987638721453
 20
-1.266005003423181
 30
0.0
 10
5.049987638721453
 20
-2.054763224293655
 30
0.0
 10
5.049987638721453
 20
-3.560545046811324
 30
0.0
 10
5.049987638721453
 20
-4.276978416997871
 30
0.0
 10
5.049987638721453
 20
-4.930276308730491
 30
0.0
  0
SPLINE
  5
198
330
1F
100
AcDbEntity
  8
외형선
  6
Continuous
370
    15
100
AcDbSpline
210
0.0
220
0.0
230
1.0
 70
    24
 71
     3
 72
    16
 73
    12
 74
     0
 42
0.000000001
 43
0.00000001
 40
0.0
 40
0.0
 40
0.0
 40
0.0
 40
0.0906435982542484
 40
0.1812871965084968
 40
0.2731119876108422
 40
0.3649367787131876
 40
0.4984278130021174
 40
0.6319188472910472
 40
0.7692880849468553
 40
0.9066573226026634
 40
1.0
 40
1.0
 40
1.0
 40
1.0
 10
5.049987638721453
 20
-4.930276308730491
 30
0.0
 10
5.049987638721453
 20
-5.028584076884577
 30
0.0
 10
5.049987638721453
 20
-5.225199613192743
 30
0.0
 10
5.049987638721453
 20
-5.490306610867361
 30
0.0
 10
5.049987638721453
 20
-5.732326963704118
 30
0.0
 10
5.049987638721453
 20
-5.980688214300944
 30
0.0
 10
5.049987638721453
 20
-6.21738145665379
 30
0.0
 10
5.049987638721453
 20
-6.423936250450282
 30
0.0
 10
5.049987638721453
 20
-6.566354070319186
 30
0.0
 10
5.049987638721453
 20
-6.642328843883277
 30
0.0
 10
5.049987638721453
 20
-6.645318213620758
 30
0.0
 10
5.049987638721453
 20
-6.646527669036022
 30
0.0
  0
SPLINE
  5
199
330
1F
100
AcDbEntity
  8
외형선
  6
Continuous
370
    15
100
AcDbSpline
210
0.0
220
0.0
230
1.0
 70
    24
 71
     3
 72
    10
 73
     6
 74
     0
 42
0.000000001
 43
0.00000001
 40
0.0
 40
0.0
 40
0.0
 40
0.0
 40
0.1562794290569869
 40
0.4694175403416607
 40
0.7448144377855187
 40
0.7448144377855187
 40
0.7448144377855187
 40
0.7448144377855187
 10
5.049987638721453
 20
-6.677615797321081
 30
0.0
 10
5.049987638721453
 20
-6.710444188540599
 30
0.0
 10
5.049987638721453
 20
-6.809051041359467
 30
0.0
 10
5.049987638721454
 20
-6.958119059352041
 30
0.0
 10
5.049987638721454
 20
-7.072679961218528
 30
0.0
 10
5.049987638721452
 20
-7.125104089950771
 30
0.0
  0
SPLINE
  5
19A
330
1F
100
AcDbEntity
  8
외형선
  6
Continuous
370
    15
100
AcDbSpline
210
0.0
220
0.0
230
1.0
 70
    24
 71
     3
 72
    10
 73
     6
 74
     0
 42
0.000000001
 43
0.00000001
 40
0.0
 40
0.0
 40
0.0
 40
0.0
 40
0.5
 40
0.5
 40
1.0
 40
1.0
 40
1.0
 40
1.0
 10
5.049987638721453
 20
5.022334373446448
 30
0.0
 10
5.049987638721453
 20
4.849171584610406
 30
0.0
 10
5.049987638721453
 20
4.606113203809507
 30
0.0
 10
5.049987638721453
 20
4.030565752963565
 30
0.0
 10
5.049987638721446
 20
3.699962059803913
 30
0.0
 10
5.049987638721446
 20
3.366483569005432
 30
0.0
  0
LINE
  5
19B
330
1F
100
AcDbEntity
  8
외형선
  6
Continuous
370
    15
100
AcDbLine
 10
5.049987638721453
 20
5.022334373446444
 30
0.0
 11
5.049987638721446
 21
6.230071978095383
 31
0.0
  0
SPLINE
  5
19C
330
1F
100
AcDbEntity
  8
외형선
  6
Continuous
370
    15
100
AcDbSpline
210
0.0
220
0.0
230
1.0
 70
    24
 71
     3
 72
    14
 73
    10
 74
     0
 42
0.000000001
 43
0.00000001
 40
0.0
 40
0.0
 40
0.0
 40
0.0
 40
0.25
 40
0.25
 40
0.5
 40
0.5
 40
0.75
 40
0.75
 40
1.0
 40
1.0
 40
1.0
 40
1.0
 10
5.049987638721453
 20
3.366483569005429
 30
0.0
 10
5.049987638721453
 20
2.818569705538206
 30
0.0
 10
5.049987638721453
 20
2.214249245718012
 30
0.0
 10
5.049987638721453
 20
0.9368444510906433
 30
0.0
 10
5.049987638721453
 20
0.2642473970796968
 30
0.0
 10
5.049987638721453
 20
-1.08514714579131
 30
0.0
 10
5.049987638721453
 20
-1.76122562082314
 30
0.0
 10
5.049987638721453
 20
-3.051895754409713
 30
0.0
 10
5.049987638721453
 20
-3.665981500283894
 30
0.0
 10
5.049987638721453
 20
-4.225951121769
 30
0.0
  0
SPLINE
  5
19D
330
1F
100
AcDbEntity
  8
외형선
  6
Continuous
370
    15
100
AcDbSpline
210
0.0
220
0.0
230
1.0
 70
    24
 71
     3
 72
    15
 73
    11
 74
     0
 42
0.000000001
 43
0.00000001
 40
0.0
 40
0.0
 40
0.0
 40
0.0
 40
0.1215783636977281
 40
0.2433317959080221
 40
0.3649101596057501
 40
0.4984067892622983
 40
0.6319034189188463
 40
0.769278414499808
 40
0.9066534100807697
 40
0.9999999999999999
 40
0.9999999999999999
 40
0.9999999999999999
 40
0.9999999999999999
 10
5.049987638721453
 20
-4.225951121769
 30
0.0
 10
5.049987638721453
 20
-4.338047811223362
 30
0.0
 10
5.049987638721453
 20
-4.562402605371513
 30
0.0
 10
5.049987638721446
 20
-4.850605569063891
 30
0.0
 10
5.049987638721446
 20
-5.10968476191394
 30
0.0
 10
5.049987638721446
 20
-5.32912812088567
 30
0.0
 10
5.049987638721453
 20
-5.506246567590821
 30
0.0
 10
5.049987638721446
 20
-5.628299252759085
 30
0.0
 10
5.049987638721446
 20
-5.693425397161775
 30
0.0
 10
5.049987638721446
 20
-5.695987234341437
 30
0.0
 10
5.049987638721446
 20
-5.697023716316593
 30
0.0
  0
SPLINE
  5
19E
330
1F
100
AcDbEntity
  8
외형선
  6
Continuous
370
    15
100
AcDbSpline
210
0.0
220
0.0
230
1.0
 70
    24
 71
     3
 72
    11
 73
     7
 74
     0
 42
0.000000001
 43
0.00000001
 40
0.0
 40
0.0
 40
0.0
 40
0.0
 40
0.1605611477121782
 40
0.4721101436753487
 40
0.7840222220455074
 40
1.0
 40
1.0
 40
1.0
 40
1.0
 10
5.049987638721453
 20
-5.720929935379807
 30
0.0
 10
5.049987638721453
 20
-5.749990067509884
 30
0.0
 10
5.049987638721453
 20
-5.835437782294214
 30
0.0
 10
5.049987638721453
 20
-5.970644808858907
 30
0.0
 10
5.049987638721453
 20
-6.111153204017249
 30
0.0
 10
5.049987638721453
 20
-6.195544581823665
 30
0.0
 10
5.049987638721446
 20
-6.230071978095392
 30
0.0
  0
LINE
  5
1A7
330
1F
100
AcDbEntity
  8
외형선
  6
Continuous
370
    15
100
AcDbLine
 10
5.049987638721453
 20
5.538086587305223
 30
0.0
 11
5.049987638721453
 21
4.464653049026651
 31
0.0
  0
SPLINE
  5
1AE
330
1F
100
AcDbEntity
  8
외형선
  6
Continuous
370
    15
100
AcDbSpline
210
0.0
220
0.0
230
1.0
 70
    24
 71
     3
 72
    14
 73
    10
 74
     0
 42
0.000000001
 43
0.00000001
 40
0.0
 40
0.0
 40
0.0
 40
0.0
 40
0.2499999999999999
 40
0.2499999999999999
 40
0.4999999999999999
 40
0.4999999999999999
 40
0.7499999999999999
 40
0.7499999999999999
 40
1.0
 40
1.0
 40
1.0
 40
1.0
 10
5.049987638721453
 20
2.992688830855063
 30
0.0
 10
5.049987638721453
 20
2.505676465482911
 30
0.0
 10
5.049987638721453
 20
1.968520911501916
 30
0.0
 10
5.049987638721453
 20
0.8330753216585411
 30
0.0
 10
5.049987638721453
 20
0.2352183905006382
 30
0.0
 10
5.049987638721453
 20
-0.9642415580462713
 30
0.0
 10
5.049987638721453
 20
-1.565205453027413
 30
0.0
 10
5.049987638721453
 20
-2.71248957891742
 30
0.0
 10
5.049987638721453
 20
-3.258360077259151
 30
0.0
 10
5.049987638721453
 20
-3.756131498717476
 30
0.0
  0
SPLINE
  5
1B1
330
1F
100
AcDbEntity
  8
외형선
  6
Continuous
370
    15
100
AcDbSpline
210
0.0
220
0.0
230
1.0
 70
    24
 71
     3
 72
    10
 73
     6
 74
     0
 42
0.000000001
 43
0.00000001
 40
0.0
 40
0.0
 40
0.0
 40
0.0
 40
0.5
 40
0.5
 40
1.0
 40
1.0
 40
1.0
 40
1.0
 10
5.049987638721453
 20
4.464653049026388
 30
0.0
 10
5.049987638721453
 20
4.310707723689767
 30
0.0
 10
5.049987638721453
 20
4.094634871367692
 30
0.0
 10
5.049987638721453
 20
3.583003836283773
 30
0.0
 10
5.049987638721453
 20
3.289121602635856
 30
0.0
 10
5.049987638721453
 20
2.992688830855063
 30
0.0
  0
SPLINE
  5
1B2
330
1F
100
AcDbEntity
  8
외형선
  6
Continuous
370
    15
100
AcDbSpline
210
0.0
220
0.0
230
1.0
 70
    24
 71
     3
 72
    12
 73
     8
 74
     0
 42
0.000000001
 43
0.00000001
 40
0.0
 40
0.0
 40
0.0
 40
0.0
 40
0.1813025155515216
 40
0.3649689338549434
 40
0.6316714970557004
 40
0.9061084526569942
 40
1.0
 40
1.0
 40
1.0
 40
1.0
 10
5.049987638721467
 20
-3.756131498717479
 30
0.0
 10
5.049987638721467
 20
-3.902463849745139
 30
0.0
 10
5.049987638721467
 20
-4.19703649800978
 30
0.0
 10
5.049987638721467
 20
-4.595340297291028
 30
0.0
 10
5.049987638721467
 20
-4.913088960495376
 30
0.0
 10
5.049987638721467
 20
-5.072018981179145
 30
0.0
 10
5.049987638721467
 20
-5.053543967675004
 30
0.0
 10
5.049987638721467
 20
-5.048834455402076
 30
0.0
  0
SPLINE
  5
1B3
330
1F
100
AcDbEntity
  8
외형선
  6
Continuous
370
    15
100
AcDbSpline
210
0.0
220
0.0
230
1.0
 70
    24
 71
     3
 72
    10
 73
     6
 74
     0
 42
0.000000001
 43
0.00000001
 40
0.0
 40
0.0
 40
0.0
 40
0.0
 40
0.12846606693943
 40
0.7764936588857835
 40
1.0
 40
1.0
 40
1.0
 40
1.0
 10
5.049987638721467
 20
-5.102336767672075
 30
0.0
 10
5.049987638721467
 20
-5.122580348431228
 30
0.0
 10
5.049987638721467
 20
-5.24493960225686
 30
0.0
 10
5.049987638721453
 20
-5.387870867762842
 30
0.0
 10
5.049987638721453
 20
-5.507426376299726
 30
0.0
 10
5.049987638721467
 20
-5.538086587290355
 30
0.0
  0
SPLINE
  5
1B4
330
1F
100
AcDbEntity
  8
외형선
  6
Continuous
370
    15
100
AcDbSpline
210
0.0
220
0.0
230
1.0
 70
    24
 71
     3
 72
    10
 73
     6
 74
     0
 42
0.000000001
 43
0.00000001
 40
0.0
 40
0.0
 40
0.0
 40
0.0
 40
0.5000000000000002
 40
0.5000000000000002
 40
1.0
 40
1.0
 40
1.0
 40
1.0
 10
5.049987638721467
 20
4.464653049026385
 30
0.0
 10
5.049987638721467
 20
4.310707723689763
 30
0.0
 10
5.049987638721467
 20
4.094634871367692
 30
0.0
 10
5.049987638721467
 20
3.583003836283766
 30
0.0
 10
5.049987638721467
 20
3.289121602635853
 30
0.0
 10
5.049987638721467
 20
2.992688830855063
 30
0.0
  0
SPLINE
  5
1B5
330
1F
100
AcDbEntity
  8
외형선
  6
Continuous
370
    15
100
AcDbSpline
210
0.0
220
0.0
230
1.0
 70
    24
 71
     3
 72
    14
 73
    10
 74
     0
 42
0.000000001
 43
0.00000001
 40
0.0
 40
0.0
 40
0.0
 40
0.0
 40
0.25
 40
0.25
 40
0.5
 40
0.5
 40
0.75
 40
0.75
 40
1.0
 40
1.0
 40
1.0
 40
1.0
 10
5.049987638721453
 20
2.992688830855063
 30
0.0
 10
5.049987638721453
 20
2.505676465482911
 30
0.0
 10
5.049987638721453
 20
1.96852091150192
 30
0.0
 10
5.049987638721453
 20
0.8330753216585411
 30
0.0
 10
5.049987638721453
 20
0.2352183905006417
 30
0.0
 10
5.049987638721453
 20
-0.9642415580462713
 30
0.0
 10
5.049987638721453
 20
-1.56520545302741
 30
0.0
 10
5.049987638721453
 20
-2.712489578917416
 30
0.0
 10
5.049987638721453
 20
-3.258360077259151
 30
0.0
 10
5.049987638721453
 20
-3.756131498717476
 30
0.0
  0
SPLINE
  5
1B6
330
1F
100
AcDbEntity
  8
외형선
  6
Continuous
370
    15
100
AcDbSpline
210
0.0
220
0.0
230
1.0
 70
    24
 71
     3
 72
    12
 73
     8
 74
     0
 42
0.000000001
 43
0.00000001
 40
0.0
 40
0.0
 40
0.0
 40
0.0
 40
0.1814510693155813
 40
0.365267978293042
 40
0.6321890694581092
 40
0.906850890349482
 40
1.0
 40
1.0
 40
1.0
 40
1.0
 10
5.049987638721467
 20
-3.756131498717479
 30
0.0
 10
5.049987638721467
 20
-3.902463371165385
 30
0.0
 10
5.049987638721467
 20
-4.197035056030579
 30
0.0
 10
5.049987638721467
 20
-4.595347257570978
 30
0.0
 10
5.049987638721467
 20
-4.913048896955505
 30
0.0
 10
5.049987638721467
 20
-5.071923756608516
 30
0.0
 10
5.049987638721467
 20
-5.053548528238185
 30
0.0
 10
5.049987638721467
 20
-5.04889495212015
 30
0.0
  0
SPLINE
  5
1B7
330
1F
100
AcDbEntity
  8
외형선
  6
Continuous
370
    15
100
AcDbSpline
210
0.0
220
0.0
230
1.0
 70
    24
 71
     3
 72
    11
 73
     7
 74
     0
 42
0.000000001
 43
0.00000001
 40
0.0
 40
0.0
 40
0.0
 40
0.0
 40
0.1304332605396754
 40
0.4535392619829384
 40
0.7770223177559418
 40
1.0
 40
1.0
 40
1.0
 40
1.0
 10
5.049987638721467
 20
-5.102336767672078
 30
0.0
 10
5.049987638721467
 20
-5.122568908600158
 30
0.0
 10
5.049987638721467
 20
-5.192919601566746
 30
0.0
 10
5.049987638721467
 20
-5.307709317163535
 30
0.0
 10
5.049987638721467
 20
-5.432586613692134
 30
0.0
 10
5.049987638721467
 20
-5.507513458927779
 30
0.0
 10
5.049987638721467
 20
-5.538086587290351
 30
0.0
  0
LINE
  5
290
330
1F
100
AcDbEntity
  8
외형선
  6
Continuous
370
    15
100
AcDbLine
 10
2.0
 20
7.937499999999984
 30
0.0
 11
-17.97193736127863
 21
7.937499999999982
 31
0.0
  0
LINE
  5
291
330
1F
100
AcDbEntity
  8
외형선
  6
Continuous
370
    15
100
AcDbLine
 10
-47.92501236127855
 20
-7.93750000000002
 30
0.0
 11
2.0
 21
-7.937500000000016
 31
0.0
  0
LINE
  5
292
330
1F
100
AcDbEntity
  8
외형선
  6
Continuous
370
    15
100
AcDbLine
 10
-47.92501236127855
 20
7.937499999999977
 30
0.0
 11
-48.92501236127856
 21
6.937499999999977
 31
0.0
  0
LINE
  5
293
330
1F
100
AcDbEntity
  8
외형선
  6
Continuous
370
    15
100
AcDbLine
 10
-48.92501236127856
 20
-6.937500000000016
 30
0.0
 11
-47.92501236127855
 21
-7.937500000000016
 31
0.0
  0
SPLINE
  5
294
330
1F
100
AcDbEntity
  8
외형선
  6
Continuous
370
    15
100
AcDbSpline
210
0.0
220
0.0
230
1.0
 70
     8
 71
     3
 72
     9
 73
     5
 74
     0
 42
0.000000001
 43
0.00000001
 40
0.0
 40
0.0
 40
0.0
 40
0.0
 40
0.4989829524466181
 40
1.0
 40
1.0
 40
1.0
 40
1.0
 10
3.261371354566904
 20
-7.00043218971277
 30
0.0
 10
3.559003380319076
 20
-6.971336760085146
 30
0.0
 10
4.155480723468408
 20
-6.913027293829911
 30
0.0
 10
4.751414604906365
 20
-6.8642423045416
 30
0.0
 10
5.049987638721433
 20
-6.839800193243446
 30
0.0
  0
SPLINE
  5
295
330
1F
100
AcDbEntity
  8
외형선
  6
Continuous
370
    15
100
AcDbSpline
210
0.0
220
0.0
230
1.0
 70
     8
 71
     3
 72
    10
 73
     6
 74
     0
 42
0.000000001
 43
0.00000001
 40
0.0
 40
0.0
 40
0.0
 40
0.0
 40
0.5
 40
0.5
 40
1.0
 40
1.0
 40
1.0
 40
1.0
 10
5.04998763872448
 20
7.125104089957487
 30
0.0
 10
4.540889484703789
 20
7.238278780776122
 30
0.0
 10
4.030546367070307
 20
7.336469361039246
 30
0.0
 10
3.016752269481635
 20
7.501208336060847
 30
0.0
 10
2.509436424188045
 20
7.568009370580612
 30
0.0
 10
2.000012955001963
 20
7.61882721347982
 30
0.0
  0
LINE
  5
296
330
1F
100
AcDbEntity
  8
외형선
  6
Continuous
370
    15
100
AcDbLine
 10
5.049987638721447
 20
7.125104089957485
 30
0.0
 11
5.049987638721447
 21
6.194075739295043
 31
0.0
  0
SPLINE
  5
297
330
1F
100
AcDbEntity
  8
외형선
  6
Continuous
370
    15
100
AcDbSpline
210
0.0
220
0.0
230
1.0
 70
     8
 71
     3
 72
    10
 73
     6
 74
     0
 42
0.000000001
 43
0.00000001
 40
0.0
 40
0.0
 40
0.0
 40
0.0
 40
0.5
 40
0.5
 40
1.0
 40
1.0
 40
1.0
 40
1.0
 10
5.049987638721446
 20
5.472849324069392
 30
0.0
 10
4.540887326913107
 20
5.656438212538665
 30
0.0
 10
4.030542041006696
 20
5.827425413633739
 30
0.0
 10
3.016743704789319
 20
6.141165175256159
 30
0.0
 10
2.509425631224338
 20
6.284354320489429
 30
0.0
 10
1.999999999999992
 20
6.413071625107511
 30
0.0
  0
SPLINE
  5
298
330
1F
100
AcDbEntity
  8
외형선
  6
Continuous
370
    15
100
AcDbSpline
210
0.0
220
0.0
230
1.0
 70
     8
 71
     3
 72
    10
 73
     6
 74
     0
 42
0.000000001
 43
0.00000001
 40
0.0
 40
0.0
 40
0.0
 40
0.0
 40
0.5
 40
0.5
 40
1.0
 40
1.0
 40
1.0
 40
1.0
 10
5.049987638724487
 20
-7.125104089957484
 30
0.0
 10
4.540889484703796
 20
-7.238278780776122
 30
0.0
 10
4.030546367070314
 20
-7.336469361039244
 30
0.0
 10
3.016752269481642
 20
-7.501208336060843
 30
0.0
 10
2.509436424188052
 20
-7.56800937058061
 30
0.0
 10
2.00001295500197
 20
-7.61882721347982
 30
0.0
  0
LINE
  5
299
330
1F
100
AcDbEntity
  8
외형선
  6
Continuous
370
    15
100
AcDbLine
 10
2.000012955001963
 20
7.61882721347982
 30
0.0
 11
2.0
 21
7.937499999999984
 31
0.0
  0
LINE
  5
29A
330
1F
100
AcDbEntity
  8
외형선
  6
Continuous
370
    15
100
AcDbLine
 10
-47.92501236127855
 20
7.937499999999977
 30
0.0
 11
-47.92501236127855
 21
-7.93750000000002
 31
0.0
  0
LINE
  5
29B
330
1F
100
AcDbEntity
  8
외형선
  6
Continuous
370
    15
100
AcDbLine
 10
2.0
 20
-7.937500000000016
 30
0.0
 11
2.0
 21
6.413071625107511
 31
0.0
  0
LINE
  5
29C
330
1F
100
AcDbEntity
  8
외형선
  6
Continuous
370
    15
100
AcDbLine
 10
-48.92501236127856
 20
6.937499999999977
 30
0.0
 11
-48.92501236127856
 21
-6.937500000000016
 31
0.0
  0
SPLINE
  5
29D
330
1F
100
AcDbEntity
  8
외형선
  6
Continuous
370
    15
100
AcDbSpline
210
0.0
220
0.0
230
1.0
 70
    24
 71
     3
 72
    14
 73
    10
 74
     0
 42
0.000000001
 43
0.00000001
 40
0.0
 40
0.0
 40
0.0
 40
0.0
 40
0.2500000000000001
 40
0.2500000000000001
 40
0.5000000000000002
 40
0.5000000000000002
 40
0.7500000000000001
 40
0.7500000000000001
 40
1.0
 40
1.0
 40
1.0
 40
1.0
 10
5.049987638721447
 20
4.189366811097335
 30
0.0
 10
5.049987638721447
 20
3.625205325294485
 30
0.0
 10
5.049987638721447
 20
2.991485487838124
 30
0.0
 10
5.049987638721447
 20
1.627960375546313
 30
0.0
 10
5.049987638721447
 20
0.8986311196507706
 30
0.0
 10
5.049987638721447
 20
-0.5872848660725283
 30
0.0
 10
5.049987638721447
 20
-1.34307983773959
 30
0.0
 10
5.049987638721447
 20
-2.807447878364658
 30
0.0
 10
5.049987638721447
 20
-3.51540328904869
 30
0.0
 10
5.049987638721447
 20
-4.171212485139181
 30
0.0
  0
SPLINE
  5
29E
330
1F
100
AcDbEntity
  8
외형선
  6
Continuous
370
    15
100
AcDbSpline
210
0.0
220
0.0
230
1.0
 70
     8
 71
     3
 72
    10
 73
     6
 74
     0
 42
0.000000001
 43
0.00000001
 40
0.0
 40
0.0
 40
0.0
 40
0.0
 40
0.5
 40
0.5
 40
1.0
 40
1.0
 40
1.0
 40
1.0
 10
5.04998763872145
 20
-5.56443439550414
 30
0.0
 10
4.540888114701541
 20
-5.387346361145305
 30
0.0
 10
4.030543620411637
 20
-5.201529817679155
 30
0.0
 10
3.01674683167852
 20
-4.815927045452078
 30
0.0
 10
2.509429571635105
 20
-4.615671974030377
 30
0.0
 10
2.000004729750972
 20
-4.408937377601649
 30
0.0
  0
SPLINE
  5
29F
330
1F
100
AcDbEntity
  8
외형선
  6
Continuous
370
    15
100
AcDbSpline
210
0.0
220
0.0
230
1.0
 70
     8
 71
     3
 72
    10
 73
     6
 74
     0
 42
0.000000001
 43
0.00000001
 40
0.0
 40
0.0
 40
0.0
 40
0.0
 40
0.5
 40
0.5
 40
1.0
 40
1.0
 40
1.0
 40
1.0
 10
5.049987638721452
 20
3.618544720069548
 30
0.0
 10
4.540887846711382
 20
3.753540277943779
 30
0.0
 10
4.030543083129094
 20
3.880021417175617
 30
0.0
 10
3.016745767972201
 20
4.1137056474775
 30
0.0
 10
2.50942823118474
 20
4.221231481081615
 30
0.0
 10
2.000003120782556
 20
4.318851728273041
 30
0.0
  0
LINE
  5
2A0
330
1F
100
AcDbEntity
  8
외형선
  6
Continuous
370
    15
100
AcDbLine
 10
3.261371354566904
 20
-7.00043218971277
 30
0.0
 11
1.998617671274246
 21
-7.104691061881718
 31
0.0
  0
SPLINE
  5
2A1
330
1F
100
AcDbEntity
  8
외형선
  6
Continuous
370
    15
100
AcDbSpline
210
0.0
220
0.0
230
1.0
 70
    24
 71
     3
 72
    14
 73
    10
 74
     0
 42
0.000000001
 43
0.00000001
 40
0.0
 40
0.0
 40
0.0
 40
0.0
 40
0.15266884771503
 40
0.3053376954300597
 40
0.5286179486179072
 40
0.6436004399011238
 40
0.7585829311843406
 40
0.9602124568226299
 40
1.0
 40
1.0
 40
1.0
 40
1.0
 10
5.049987638721447
 20
-4.171212485139181
 30
0.0
 10
5.049987638721447
 20
-4.385636162098221
 30
0.0
 10
5.049987638721447
 20
-4.814483516016297
 30
0.0
 10
5.049987638721447
 20
-5.426462652250231
 30
0.0
 10
5.049987638721447
 20
-5.870685787494919
 30
0.0
 10
5.049987638721447
 20
-6.164238698891092
 30
0.0
 10
5.049987638721447
 20
-6.358071935670958
 30
0.0
 10
5.049987638721447
 20
-6.46774735341493
 30
0.0
 10
5.049987638721447
 20
-6.433994082628056
 30
0.0
 10
5.049987638721447
 20
-6.428431262544956
 30
0.0
  0
SPLINE
  5
2A2
330
1F
100
AcDbEntity
  8
외형선
  6
Continuous
370
    15
100
AcDbSpline
210
0.0
220
0.0
230
1.0
 70
    24
 71
     3
 72
    10
 73
     6
 74
     0
 42
0.000000001
 43
0.00000001
 40
0.0
 40
0.0
 40
0.0
 40
0.0
 40
0.5000000000000002
 40
0.5000000000000002
 40
1.0
 40
1.0
 40
1.0
 40
1.0
 10
5.049987638721447
 20
6.194075739295039
 30
0.0
 10
5.049987638721447
 20
5.961163101808017
 30
0.0
 10
5.049987638721447
 20
5.654560272547064
 30
0.0
 10
5.049987638721447
 20
4.958409812769878
 30
0.0
 10
5.049987638721447
 20
4.571050182116567
 30
0.0
 10
5.049987638721447
 20
4.189366811097338
 30
0.0
  0
SPLINE
  5
2A3
330
1F
100
AcDbEntity
  8
외형선
  6
Continuous
370
    15
100
AcDbSpline
210
0.0
220
0.0
230
1.0
 70
    24
 71
     3
 72
     9
 73
     5
 74
     0
 42
0.000000001
 43
0.00000001
 40
0.0
 40
0.0
 40
0.0
 40
0.0
 40
0.3801611154143867
 40
0.7609319880998894
 40
0.7609319880998894
 40
0.7609319880998894
 40
0.7609319880998894
 10
5.049987638721447
 20
-6.444458990414995
 30
0.0
 10
5.049987638721447
 20
-6.562009617694985
 30
0.0
 10
5.049987638721435
 20
-6.797299416918795
 30
0.0
 10
5.049987638721433
 20
-7.017866174434443
 30
0.0
 10
5.049987638721437
 20
-7.125104089957484
 30
0.0
  0
SPLINE
  5
2A4
330
1F
100
AcDbEntity
  8
외형선
  6
Continuous
370
    15
100
AcDbSpline
210
0.0
220
0.0
230
1.0
 70
    24
 71
     3
 72
    10
 73
     6
 74
     0
 42
0.000000001
 43
0.00000001
 40
0.0
 40
0.0
 40
0.0
 40
0.0
 40
0.5
 40
0.5
 40
1.0
 40
1.0
 40
1.0
 40
1.0
 10
5.049987638721447
 20
6.194075739295039
 30
0.0
 10
5.049987638721447
 20
5.961163101808017
 30
0.0
 10
5.049987638721447
 20
5.654560272547064
 30
0.0
 10
5.049987638721447
 20
4.958409812769871
 30
0.0
 10
5.049987638721447
 20
4.571050182116563
 30
0.0
 10
5.049987638721447
 20
4.189366811097335
 30
0.0
  0
SPLINE
  5
2A5
330
1F
100
AcDbEntity
  8
외형선
  6
Continuous
370
    15
100
AcDbSpline
210
0.0
220
0.0
230
1.0
 70
    24
 71
     3
 72
    14
 73
    10
 74
     0
 42
0.000000001
 43
0.00000001
 40
0.0
 40
0.0
 40
0.0
 40
0.0
 40
0.25
 40
0.25
 40
0.5
 40
0.5
 40
0.75
 40
0.75
 40
1.0
 40
1.0
 40
1.0
 40
1.0
 10
5.049987638721447
 20
4.189366811097335
 30
0.0
 10
5.049987638721447
 20
3.625205325294482
 30
0.0
 10
5.049987638721447
 20
2.991485487838121
 30
0.0
 10
5.049987638721447
 20
1.627960375546313
 30
0.0
 10
5.049987638721447
 20
0.8986311196507706
 30
0.0
 10
5.049987638721447
 20
-0.5872848660725318
 30
0.0
 10
5.049987638721447
 20
-1.34307983773959
 30
0.0
 10
5.049987638721447
 20
-2.807447878364658
 30
0.0
 10
5.049987638721447
 20
-3.515403289048694
 30
0.0
 10
5.049987638721447
 20
-4.171212485139185
 30
0.0
  0
SPLINE
  5
2A6
330
1F
100
AcDbEntity
  8
외형선
  6
Continuous
370
    15
100
AcDbSpline
210
0.0
220
0.0
230
1.0
 70
    24
 71
     3
 72
    14
 73
    10
 74
     0
 42
0.000000001
 43
0.00000001
 40
0.0
 40
0.0
 40
0.0
 40
0.0
 40
0.152720611185259
 40
0.3054412223705178
 40
0.528797180333187
 40
0.6438186572565883
 40
0.7588401341799896
 40
0.9605380237582963
 40
1.0
 40
1.0
 40
1.0
 40
1.0
 10
5.049987638721447
 20
-4.171212485139185
 30
0.0
 10
5.049987638721447
 20
-4.385636131479957
 30
0.0
 10
5.049987638721447
 20
-4.814483424161503
 30
0.0
 10
5.049987638721433
 20
-5.426463090476217
 30
0.0
 10
5.049987638721433
 20
-5.87068380856036
 30
0.0
 10
5.049987638721433
 20
-6.164242213956483
 30
0.0
 10
5.049987638721433
 20
-6.358054294229246
 30
0.0
 10
5.049987638721447
 20
-6.467722163749274
 30
0.0
 10
5.049987638721433
 20
-6.434057169096301
 30
0.0
 10
5.049987638721433
 20
-6.428548428184309
 30
0.0
  0
SPLINE
  5
2A7
330
1F
100
AcDbEntity
  8
외형선
  6
Continuous
370
    15
100
AcDbSpline
210
0.0
220
0.0
230
1.0
 70
    24
 71
     3
 72
    11
 73
     7
 74
     0
 42
0.000000001
 43
0.00000001
 40
0.0
 40
0.0
 40
0.0
 40
0.0
 40
0.1507779048362684
 40
0.3808403659354424
 40
0.6106350219769504
 40
0.761410946558715
 40
0.761410946558715
 40
0.761410946558715
 40
0.761410946558715
 10
5.049987638721447
 20
-6.444458990414995
 30
0.0
 10
5.049987638721447
 20
-6.491488629208371
 30
0.0
 10
5.049987638721433
 20
-6.610277816969868
 30
0.0
 10
5.049987638721447
 20
-6.794238930993638
 30
0.0
 10
5.049987638721434
 20
-6.973511655902326
 30
0.0
 10
5.049987638721433
 20
-7.082461637500007
 30
0.0
 10
5.049987638721435
 20
-7.125104089957484
 30
0.0
  0
CIRCLE
  5
2A8
330
1F
100
AcDbEntity
  8
해칭선
100
AcDbCircle
 10
0.0
 20
0.0
 30
0.0
 40
2.999999999999993
  0
INSERT
  5
2A9
330
1F
100
AcDbEntity
  8
해칭선
100
AcDbBlockReference
  2
SW_DOWELSYMBOL_0
 10
0.0
 20
0.0
 30
0.0
  0
LINE
  5
2AA
330
1F
100
AcDbEntity
  8
외형선
  6
Continuous
370
    15
100
AcDbLine
 10
-29.80833736127857
 20
6.286499999999942
 30
0.0
 11
-19.62293736127856
 21
6.286499999999942
 31
0.0
1001
PE_URL
1000

  0
LINE
  5
2AB
330
1F
100
AcDbEntity
  8
외형선
  6
Continuous
370
    15
100
AcDbLine
 10
-29.80833736127857
 20
6.286500000000041
 30
0.0
 11
-31.45933736127853
 21
7.937499999999952
 31
0.0
1001
PE_URL
1000

  0
LINE
  5
2AC
330
1F
100
AcDbEntity
  8
외형선
  6
Continuous
370
    15
100
AcDbLine
 10
-19.62293736127867
 20
6.286500000000041
 30
0.0
 11
-17.97193736127866
 21
7.937499999999952
 31
0.0
1001
PE_URL
1000

  0
LINE
  5
2AD
330
1F
100
AcDbEntity
  8
외형선
  6
Continuous
370
    15
100
AcDbLine
 10
-31.45933736127856
 20
7.93749999999998
 30
0.0
 11
-47.92501236127855
 21
7.93749999999998
 31
0.0
  0
ENDSEC
  0
SECTION
  2
OBJECTS
  0
DICTIONARY
  5
C
330
0
100
AcDbDictionary
281
     1
  3
ACAD_DETAILVIEWSTYLE
350
21A
  3
ACAD_GROUP
350
D
  3
ACAD_LAYOUT
350
1A
  3
ACAD_MLINESTYLE
350
17
  3
ACAD_PLOTSETTINGS
350
19
  3
ACAD_PLOTSTYLENAME
350
E
  3
ACAD_SCALELIST
350
47
  3
ACAD_SECTIONVIEWSTYLE
350
21B
  3
AcDbVariableDictionary
350
215
  3
APPDATA
350
13A
  3
DWGPROPS
350
2AE
  0
DICTIONARY
  5
190
330
2
100
AcDbDictionary
280
     1
281
     1
  3
ACAD_LAYERSTATES
360
191
  0
DICTIONARY
  5
21A
102
{ACAD_REACTORS
330
C
102
}
330
C
100
AcDbDictionary
281
     1
  0
DICTIONARY
  5
D
102
{ACAD_REACTORS
330
C
102
}
330
C
100
AcDbDictionary
281
     1
  0
DICTIONARY
  5
1A
102
{ACAD_REACTORS
330
C
102
}
330
C
100
AcDbDictionary
281
     1
  3
Layout1
350
1E
  3
Layout2
350
26
  3
Model
350
22
  0
DICTIONARY
  5
17
102
{ACAD_REACTORS
330
C
102
}
330
C
100
AcDbDictionary
281
     1
  3
Standard
350
18
  0
DICTIONARY
  5
19
102
{ACAD_REACTORS
330
C
102
}
330
C
100
AcDbDictionary
281
     1
  0
ACDBDICTIONARYWDFLT
  5
E
102
{ACAD_REACTORS
330
C
102
}
330
C
100
AcDbDictionary
281
     1
  3
Normal
350
F
100
AcDbDictionaryWithDefault
340
F
  0
DICTIONARY
  5
47
102
{ACAD_REACTORS
330
C
102
}
330
C
100
AcDbDictionary
281
     1
  3
A0
350
48
  3
A1
350
49
  3
A2
350
4A
  3
A3
350
4B
  3
A4
350
4C
  3
A5
350
4D
  3
A6
350
4E
  3
A7
350
4F
  3
A8
350
50
  3
A9
350
51
  3
B0
350
52
  3
B1
350
53
  3
B2
350
54
  3
B3
350
55
  3
B4
350
56
  3
B5
350
57
  3
B6
350
58
  3
B7
350
59
  3
B8
350
5A
  3
B9
350
5B
  3
C0
350
5C
  3
C1
350
5D
  3
C2
350
5E
  3
C3
350
5F
  3
C4
350
60
  3
C5
350
61
  3
C6
350
62
  3
C7
350
63
  3
C8
350
64
  3
C9
350
65
  3
D0
350
66
  3
D1
350
67
  3
D2
350
68
  0
DICTIONARY
  5
21B
102
{ACAD_REACTORS
330
C
102
}
330
C
100
AcDbDictionary
281
     1
  0
DICTIONARY
  5
215
102
{ACAD_REACTORS
330
C
102
}
330
C
100
AcDbDictionary
281
     1
  0
DICTIONARY
  5
13A
102
{ACAD_REACTORS
330
C
102
}
330
C
100
AcDbDictionary
281
     1
  0
XRECORD
  5
2AE
102
{ACAD_REACTORS
330
C
102
}
330
C
100
AcDbXrecord
280
     1
  1
DWGPROPS COOKIE
  2

  3

  4

  6

  7

  8
120170442
  9

300
=
301
=
302
=
303
=
304
=
305
=
306
=
307
=
308
=
309
=
 40
0.0
 41
2458311.186613403
 42
2458320.36160265
  1

 90
        0
  0
DICTIONARY
  5
191
102
{ACAD_REACTORS
330
190
102
}
330
190
100
AcDbDictionary
281
     1
  0
LAYOUT
  5
1E
102
{ACAD_REACTORS
330
1A
102
}
330
1A
100
AcDbPlotSettings
  1

  2
none_device
  4

  6

 40
0.0
 41
0.0
 42
0.0
 43
0.0
 44
0.0
 45
0.0
 46
0.0
 47
0.0
 48
0.0
 49
0.0
140
0.0
141
0.0
142
1.0
143
1.0
 70
   688
 72
     1
 73
     0
 74
     5
  7

 75
    16
147
1.0
148
0.0
149
0.0
100
AcDbLayout
  1
Layout1
 70
     1
 71
     1
 10
0.0
 20
0.0
 11
420.0
 21
297.0
 12
0.0
 22
0.0
 32
0.0
 14
1.000000000000000E+20
 24
1.000000000000000E+20
 34
1.000000000000000E+20
 15
-1.000000000000000E+20
 25
-1.000000000000000E+20
 35
-1.000000000000000E+20
146
0.0
 13
0.0
 23
0.0
 33
0.0
 16
1.0
 26
0.0
 36
0.0
 17
0.0
 27
1.0
 37
0.0
 76
     0
330
1B
  0
LAYOUT
  5
26
102
{ACAD_REACTORS
330
1A
102
}
330
1A
100
AcDbPlotSettings
  1

  2
none_device
  4

  6

 40
0.0
 41
0.0
 42
0.0
 43
0.0
 44
0.0
 45
0.0
 46
0.0
 47
0.0
 48
0.0
 49
0.0
140
0.0
141
0.0
142
1.0
143
1.0
 70
   688
 72
     1
 73
     0
 74
     5
  7

 75
    16
147
1.0
148
0.0
149
0.0
100
AcDbLayout
  1
Layout2
 70
     1
 71
     2
 10
0.0
 20
0.0
 11
0.0
 21
0.0
 12
0.0
 22
0.0
 32
0.0
 14
0.0
 24
0.0
 34
0.0
 15
0.0
 25
0.0
 35
0.0
146
0.0
 13
0.0
 23
0.0
 33
0.0
 16
1.0
 26
0.0
 36
0.0
 17
0.0
 27
1.0
 37
0.0
 76
     0
330
23
  0
LAYOUT
  5
22
102
{ACAD_REACTORS
330
1A
102
}
330
1A
100
AcDbPlotSettings
  1

  2
none_device
  4
ANSI_A_(11.00_x_8.50_Inches)
  6

 40
6.35
 41
19.05
 42
6.35000508
 43
19.05000254
 44
279.4
 45
215.9
 46
111.5354592427306
 47
97.62990263130112
 48
0.0
 49
0.0
140
0.0
141
0.0
142
0.0715194751484015
143
1.0
 70
  1696
 72
     0
 73
     0
 74
     0
  7

 75
     0
147
0.0235690232323232
148
0.0
149
0.0
100
AcDbLayout
  1
Model
 70
     1
 71
     0
 10
0.0
 20
0.0
 11
420.0
 21
297.0
 12
0.0
 22
0.0
 32
0.0
 14
-68.80001236127868
 24
-49.97180738881175
 34
0.0
 15
89.45099645406704
 25
47.47387048047401
 35
0.0
146
0.0
 13
0.0
 23
0.0
 33
0.0
 16
1.0
 26
0.0
 36
0.0
 17
0.0
 27
1.0
 37
0.0
 76
     0
330
1F
331
29
  0
MLINESTYLE
  5
18
102
{ACAD_REACTORS
330
17
102
}
330
17
100
AcDbMlineStyle
  2
Standard
 70
     0
  3

 62
   256
 51
90.0
 52
90.0
 71
     2
 49
0.5
 62
   256
  6
BYLAYER
 49
-0.5
 62
   256
  6
BYLAYER
  0
ACDBPLACEHOLDER
  5
F
102
{ACAD_REACTORS
330
E
102
}
330
E
  0
SCALE
  5
48
102
{ACAD_REACTORS
330
47
102
}
330
47
100
AcDbScale
 70
     0
300
1:1
140
1.0
141
1.0
290
     1
  0
SCALE
  5
49
102
{ACAD_REACTORS
330
47
102
}
330
47
100
AcDbScale
 70
     0
300
1:2
140
1.0
141
2.0
290
     0
  0
SCALE
  5
4A
102
{ACAD_REACTORS
330
47
102
}
330
47
100
AcDbScale
 70
     0
300
1:4
140
1.0
141
4.0
290
     0
  0
SCALE
  5
4B
102
{ACAD_REACTORS
330
47
102
}
330
47
100
AcDbScale
 70
     0
300
1:5
140
1.0
141
5.0
290
     0
  0
SCALE
  5
4C
102
{ACAD_REACTORS
330
47
102
}
330
47
100
AcDbScale
 70
     0
300
1:8
140
1.0
141
8.0
290
     0
  0
SCALE
  5
4D
102
{ACAD_REACTORS
330
47
102
}
330
47
100
AcDbScale
 70
     0
300
1:10
140
1.0
141
10.0
290
     0
  0
SCALE
  5
4E
102
{ACAD_REACTORS
330
47
102
}
330
47
100
AcDbScale
 70
     0
300
1:16
140
1.0
141
16.0
290
     0
  0
SCALE
  5
4F
102
{ACAD_REACTORS
330
47
102
}
330
47
100
AcDbScale
 70
     0
300
1:20
140
1.0
141
20.0
290
     0
  0
SCALE
  5
50
102
{ACAD_REACTORS
330
47
102
}
330
47
100
AcDbScale
 70
     0
300
1:30
140
1.0
141
30.0
290
     0
  0
SCALE
  5
51
102
{ACAD_REACTORS
330
47
102
}
330
47
100
AcDbScale
 70
     0
300
1:40
140
1.0
141
40.0
290
     0
  0
SCALE
  5
52
102
{ACAD_REACTORS
330
47
102
}
330
47
100
AcDbScale
 70
     0
300
1:50
140
1.0
141
50.0
290
     0
  0
SCALE
  5
53
102
{ACAD_REACTORS
330
47
102
}
330
47
100
AcDbScale
 70
     0
300
1:100
140
1.0
141
100.0
290
     0
  0
SCALE
  5
54
102
{ACAD_REACTORS
330
47
102
}
330
47
100
AcDbScale
 70
     0
300
2:1
140
2.0
141
1.0
290
     0
  0
SCALE
  5
55
102
{ACAD_REACTORS
330
47
102
}
330
47
100
AcDbScale
 70
     0
300
4:1
140
4.0
141
1.0
290
     0
  0
SCALE
  5
56
102
{ACAD_REACTORS
330
47
102
}
330
47
100
AcDbScale
 70
     0
300
8:1
140
8.0
141
1.0
290
     0
  0
SCALE
  5
57
102
{ACAD_REACTORS
330
47
102
}
330
47
100
AcDbScale
 70
     0
300
10:1
140
10.0
141
1.0
290
     0
  0
SCALE
  5
58
102
{ACAD_REACTORS
330
47
102
}
330
47
100
AcDbScale
 70
     0
300
100:1
140
100.0
141
1.0
290
     0
  0
SCALE
  5
59
102
{ACAD_REACTORS
330
47
102
}
330
47
100
AcDbScale
 70
     0
300
1/128" = 1'-0"
140
0.0078125
141
12.0
290
     0
  0
SCALE
  5
5A
102
{ACAD_REACTORS
330
47
102
}
330
47
100
AcDbScale
 70
     0
300
1/64" = 1'-0"
140
0.015625
141
12.0
290
     0
  0
SCALE
  5
5B
102
{ACAD_REACTORS
330
47
102
}
330
47
100
AcDbScale
 70
     0
300
1/32" = 1'-0"
140
0.03125
141
12.0
290
     0
  0
SCALE
  5
5C
102
{ACAD_REACTORS
330
47
102
}
330
47
100
AcDbScale
 70
     0
300
1/16" = 1'-0"
140
0.0625
141
12.0
290
     0
  0
SCALE
  5
5D
102
{ACAD_REACTORS
330
47
102
}
330
47
100
AcDbScale
 70
     0
300
3/32" = 1'-0"
140
0.09375
141
12.0
290
     0
  0
SCALE
  5
5E
102
{ACAD_REACTORS
330
47
102
}
330
47
100
AcDbScale
 70
     0
300
1/8" = 1'-0"
140
0.125
141
12.0
290
     0
  0
SCALE
  5
5F
102
{ACAD_REACTORS
330
47
102
}
330
47
100
AcDbScale
 70
     0
300
3/16" = 1'-0"
140
0.1875
141
12.0
290
     0
  0
SCALE
  5
60
102
{ACAD_REACTORS
330
47
102
}
330
47
100
AcDbScale
 70
     0
300
1/4" = 1'-0"
140
0.25
141
12.0
290
     0
  0
SCALE
  5
61
102
{ACAD_REACTORS
330
47
102
}
330
47
100
AcDbScale
 70
     0
300
3/8" = 1'-0"
140
0.375
141
12.0
290
     0
  0
SCALE
  5
62
102
{ACAD_REACTORS
330
47
102
}
330
47
100
AcDbScale
 70
     0
300
1/2" = 1'-0"
140
0.5
141
12.0
290
     0
  0
SCALE
  5
63
102
{ACAD_REACTORS
330
47
102
}
330
47
100
AcDbScale
 70
     0
300
3/4" = 1'-0"
140
0.75
141
12.0
290
     0
  0
SCALE
  5
64
102
{ACAD_REACTORS
330
47
102
}
330
47
100
AcDbScale
 70
     0
300
1" = 1'-0"
140
1.0
141
12.0
290
     0
  0
SCALE
  5
65
102
{ACAD_REACTORS
330
47
102
}
330
47
100
AcDbScale
 70
     0
300
1-1/2" = 1'-0"
140
1.5
141
12.0
290
     0
  0
SCALE
  5
66
102
{ACAD_REACTORS
330
47
102
}
330
47
100
AcDbScale
 70
     0
300
3" = 1'-0"
140
3.0
141
12.0
290
     0
  0
SCALE
  5
67
102
{ACAD_REACTORS
330
47
102
}
330
47
100
AcDbScale
 70
     0
300
6" = 1'-0"
140
6.0
141
12.0
290
     0
  0
SCALE
  5
68
102
{ACAD_REACTORS
330
47
102
}
330
47
100
AcDbScale
 70
     0
300
1'-0" = 1'-0"
140
12.0
141
12.0
290
     0
  0
ENDSEC
  0
EOF
