  0
SECTION
  2
HEADER
  9
$ACADVER
  1
AC1015
  9
$ACADMAINTVER
 70
     6
  9
$DWGCODEPAGE
  3
ANSI_949
  9
$INSBASE
 10
0.0
 20
0.0
 30
0.0
  9
$EXTMIN
 10
-65.02500000000012
 20
-49.97180738881175
 30
0.0
  9
$EXTMAX
 10
92.86769720972484
 20
47.86249999999994
 30
0.0
  9
$LIMMIN
 10
0.0
 20
0.0
  9
$LIMMAX
 10
420.0
 20
297.0
  9
$ORTHOMODE
 70
     1
  9
$REGENMODE
 70
     1
  9
$FILLMODE
 70
     1
  9
$QTEXTMODE
 70
     0
  9
$MIRRTEXT
 70
     1
  9
$LTSCALE
 40
1.0
  9
$ATTMODE
 70
     1
  9
$TEXTSIZE
 40
3.5
  9
$TRACEWID
 40
1.0
  9
$TEXTSTYLE
  7
Standard
  9
$CLAYER
  8
0
  9
$CELTYPE
  6
ByLayer
  9
$CECOLOR
 62
   256
  9
$CELTSCALE
 40
1.0
  9
$DISPSILH
 70
     0
  9
$DIMSCALE
 40
1.0
  9
$DIMASZ
 40
3.302
  9
$DIMEXO
 40
1.0
  9
$DIMDLI
 40
3.75
  9
$DIMRND
 40
0.0
  9
$DIMDLE
 40
0.0
  9
$DIMEXE
 40
1.0
  9
$DIMTP
 40
0.0
  9
$DIMTM
 40
0.0
  9
$DIMTXT
 40
3.5
  9
$DIMCEN
 40
2.5
  9
$DIMTSZ
 40
0.0
  9
$DIMTOL
 70
     0
  9
$DIMLIM
 70
     0
  9
$DIMTIH
 70
     1
  9
$DIMTOH
 70
     1
  9
$DIMSE1
 70
     0
  9
$DIMSE2
 70
     0
  9
$DIMTAD
 70
     1
  9
$DIMZIN
 70
     0
  9
$DIMBLK
  1

  9
$DIMASO
 70
     1
  9
$DIMSHO
 70
     1
  9
$DIMPOST
  1

  9
$DIMAPOST
  1

  9
$DIMALT
 70
     0
  9
$DIMALTD
 70
     3
  9
$DIMALTF
 40
0.0393700787401575
  9
$DIMLFAC
 40
1.0
  9
$DIMTOFL
 70
     1
  9
$DIMTVP
 40
0.0
  9
$DIMTIX
 70
     0
  9
$DIMSOXD
 70
     0
  9
$DIMSAH
 70
     0
  9
$DIMBLK1
  1

  9
$DIMBLK2
  1

  9
$DIMSTYLE
  2
ISO-25
  9
$DIMCLRD
 70
     0
  9
$DIMCLRE
 70
     0
  9
$DIMCLRT
 70
     0
  9
$DIMTFAC
 40
1.0
  9
$DIMGAP
 40
1.524
  9
$DIMJUST
 70
     0
  9
$DIMSD1
 70
     0
  9
$DIMSD2
 70
     0
  9
$DIMTOLJ
 70
     0
  9
$DIMTZIN
 70
     0
  9
$DIMALTZ
 70
     0
  9
$DIMALTTZ
 70
     0
  9
$DIMUPT
 70
     0
  9
$DIMDEC
 70
     2
  9
$DIMTDEC
 70
     2
  9
$DIMALTU
 70
     2
  9
$DIMALTTD
 70
     3
  9
$DIMTXSTY
  7
Standard
  9
$DIMAUNIT
 70
     0
  9
$DIMADEC
 70
     2
  9
$DIMALTRND
 40
0.0
  9
$DIMAZIN
 70
     0
  9
$DIMDSEP
 70
    44
  9
$DIMATFIT
 70
     3
  9
$DIMFRAC
 70
     0
  9
$DIMLDRBLK
  1

  9
$DIMLUNIT
 70
     2
  9
$DIMLWD
 70
    -2
  9
$DIMLWE
 70
    -2
  9
$DIMTMOVE
 70
     0
  9
$LUNITS
 70
     2
  9
$LUPREC
 70
     2
  9
$SKETCHINC
 40
1.0
  9
$FILLETRAD
 40
10.0
  9
$AUNITS
 70
     0
  9
$AUPREC
 70
     2
  9
$MENU
  1
.
  9
$ELEVATION
 40
0.0
  9
$PELEVATION
 40
0.0
  9
$THICKNESS
 40
0.0
  9
$LIMCHECK
 70
     0
  9
$CHAMFERA
 40
0.0
  9
$CHAMFERB
 40
0.0
  9
$CHAMFERC
 40
0.0
  9
$CHAMFERD
 40
0.0
  9
$SKPOLY
 70
     0
  9
$TDCREATE
 40
2458311.459237373
  9
$TDUCREATE
 40
2458311.084237373
  9
$TDUPDATE
 40
2458321.640808125
  9
$TDUUPDATE
 40
2458321.265808125
  9
$TDINDWG
 40
0.0012785532
  9
$TDUSRTIMER
 40
0.0004093981
  9
$USRTIMER
 70
     1
  9
$ANGBASE
 50
0.0
  9
$ANGDIR
 70
     0
  9
$PDMODE
 70
     0
  9
$PDSIZE
 40
-1.0
  9
$PLINEWID
 40
0.0
  9
$SPLFRAME
 70
     0
  9
$SPLINETYPE
 70
     6
  9
$SPLINESEGS
 70
     8
  9
$HANDSEED
  5
20D
  9
$SURFTAB1
 70
     6
  9
$SURFTAB2
 70
     6
  9
$SURFTYPE
 70
     6
  9
$SURFU
 70
     6
  9
$SURFV
 70
     6
  9
$UCSBASE
  2

  9
$UCSNAME
  2

  9
$UCSORG
 10
0.0
 20
0.0
 30
0.0
  9
$UCSXDIR
 10
1.0
 20
0.0
 30
0.0
  9
$UCSYDIR
 10
0.0
 20
1.0
 30
0.0
  9
$UCSORTHOREF
  2

  9
$UCSORTHOVIEW
 70
     0
  9
$UCSORGTOP
 10
0.0
 20
0.0
 30
0.0
  9
$UCSORGBOTTOM
 10
0.0
 20
0.0
 30
0.0
  9
$UCSORGLEFT
 10
0.0
 20
0.0
 30
0.0
  9
$UCSORGRIGHT
 10
0.0
 20
0.0
 30
0.0
  9
$UCSORGFRONT
 10
0.0
 20
0.0
 30
0.0
  9
$UCSORGBACK
 10
0.0
 20
0.0
 30
0.0
  9
$PUCSBASE
  2

  9
$PUCSNAME
  2

  9
$PUCSORG
 10
0.0
 20
0.0
 30
0.0
  9
$PUCSXDIR
 10
1.0
 20
0.0
 30
0.0
  9
$PUCSYDIR
 10
0.0
 20
1.0
 30
0.0
  9
$PUCSORTHOREF
  2

  9
$PUCSORTHOVIEW
 70
     0
  9
$PUCSORGTOP
 10
0.0
 20
0.0
 30
0.0
  9
$PUCSORGBOTTOM
 10
0.0
 20
0.0
 30
0.0
  9
$PUCSORGLEFT
 10
0.0
 20
0.0
 30
0.0
  9
$PUCSORGRIGHT
 10
0.0
 20
0.0
 30
0.0
  9
$PUCSORGFRONT
 10
0.0
 20
0.0
 30
0.0
  9
$PUCSORGBACK
 10
0.0
 20
0.0
 30
0.0
  9
$USERI1
 70
     0
  9
$USERI2
 70
     0
  9
$USERI3
 70
     0
  9
$USERI4
 70
     0
  9
$USERI5
 70
     0
  9
$USERR1
 40
0.0
  9
$USERR2
 40
0.0
  9
$USERR3
 40
0.0
  9
$USERR4
 40
0.0
  9
$USERR5
 40
0.0
  9
$WORLDVIEW
 70
     1
  9
$SHADEDGE
 70
     3
  9
$SHADEDIF
 70
    70
  9
$TILEMODE
 70
     1
  9
$MAXACTVP
 70
    64
  9
$PINSBASE
 10
0.0
 20
0.0
 30
0.0
  9
$PLIMCHECK
 70
     0
  9
$PEXTMIN
 10
1.000000000000000E+20
 20
1.000000000000000E+20
 30
1.000000000000000E+20
  9
$PEXTMAX
 10
-1.000000000000000E+20
 20
-1.000000000000000E+20
 30
-1.000000000000000E+20
  9
$PLIMMIN
 10
0.0
 20
0.0
  9
$PLIMMAX
 10
0.0
 20
0.0
  9
$UNITMODE
 70
     0
  9
$VISRETAIN
 70
     1
  9
$PLINEGEN
 70
     0
  9
$PSLTSCALE
 70
     1
  9
$TREEDEPTH
 70
  3020
  9
$CMLSTYLE
  2
Standard
  9
$CMLJUST
 70
     0
  9
$CMLSCALE
 40
20.0
  9
$PROXYGRAPHICS
 70
     1
  9
$MEASUREMENT
 70
     1
  9
$CELWEIGHT
370
    -1
  9
$ENDCAPS
280
     0
  9
$JOINSTYLE
280
     0
  9
$LWDISPLAY
290
     1
  9
$INSUNITS
 70
     4
  9
$HYPERLINKBASE
  1

  9
$STYLESHEET
  1

  9
$XEDIT
290
     1
  9
$CEPSNTYPE
380
     0
  9
$PSTYLEMODE
290
     1
  9
$FINGERPRINTGUID
  2
{FFDBEDAA-2E58-4A14-9A5A-67D705BBCA52}
  9
$VERSIONGUID
  2
{FAEB1C32-E019-11D5-929B-00C0DF256EC4}
  9
$EXTNAMES
290
     1
  9
$PSVPSCALE
 40
0.0
  9
$OLESTARTUP
290
     0
  0
ENDSEC
  0
SECTION
  2
CLASSES
  0
CLASS
  1
ACDBDICTIONARYWDFLT
  2
AcDbDictionaryWithDefault
  3
ObjectDBX Classes
 90
        0
280
     0
281
     0
  0
CLASS
  1
VISUALSTYLE
  2
AcDbVisualStyle
  3
ObjectDBX Classes
 90
     4095
280
     0
281
     0
  0
CLASS
  1
MATERIAL
  2
AcDbMaterial
  3
ObjectDBX Classes
 90
     1153
280
     0
281
     0
  0
CLASS
  1
SCALE
  2
AcDbScale
  3
ObjectDBX Classes
 90
     1153
280
     0
281
     0
  0
CLASS
  1
SUN
  2
AcDbSun
  3
SCENEOE
 90
     1153
280
     0
281
     0
  0
CLASS
  1
ACDBPLACEHOLDER
  2
AcDbPlaceHolder
  3
ObjectDBX Classes
 90
        0
280
     0
281
     0
  0
CLASS
  1
LAYOUT
  2
AcDbLayout
  3
ObjectDBX Classes
 90
        0
280
     0
281
     0
  0
CLASS
  1
TABLESTYLE
  2
AcDbTableStyle
  3
ObjectDBX Classes
 90
     4095
280
     0
281
     0
  0
CLASS
  1
MLEADERSTYLE
  2
AcDbMLeaderStyle
  3
ACDB_MLEADERSTYLE_CLASS
 90
     4095
280
     0
281
     0
  0
CLASS
  1
DICTIONARYVAR
  2
AcDbDictionaryVar
  3
ObjectDBX Classes
 90
        0
280
     0
281
     0
  0
ENDSEC
  0
SECTION
  2
TABLES
  0
TABLE
  2
VPORT
  5
8
330
0
100
AcDbSymbolTable
 70
     1
  0
VPORT
  5
29
330
8
100
AcDbSymbolTableRecord
100
AcDbViewportTableRecord
  2
*Active
 70
     0
 10
0.0
 20
0.0
 11
1.0
 21
1.0
 12
13.92134860486236
 22
-1.054653694405907
 13
0.0
 23
0.0
 14
10.0
 24
10.0
 15
10.0
 25
10.0
 16
0.0
 26
0.0
 36
1.0
 17
0.0
 27
0.0
 37
0.0
 40
99.79099353658793
 41
1.782762691853601
 42
50.0
 43
0.0
 44
0.0
 50
0.0
 51
0.0
 71
    16
 72
  2000
 73
     1
 74
     3
 75
     0
 76
     0
 77
     0
 78
     0
281
     0
 65
     1
110
0.0
120
0.0
130
0.0
111
1.0
121
0.0
131
0.0
112
0.0
122
1.0
132
0.0
 79
     0
146
0.0
  0
ENDTAB
  0
TABLE
  2
LTYPE
  5
5
330
0
100
AcDbSymbolTable
 70
     6
  0
LTYPE
  5
14
330
5
100
AcDbSymbolTableRecord
100
AcDbLinetypeTableRecord
  2
ByBlock
 70
     0
  3

 72
    65
 73
     0
 40
0.0
  0
LTYPE
  5
15
330
5
100
AcDbSymbolTableRecord
100
AcDbLinetypeTableRecord
  2
ByLayer
 70
     0
  3

 72
    65
 73
     0
 40
0.0
  0
LTYPE
  5
16
330
5
100
AcDbSymbolTableRecord
100
AcDbLinetypeTableRecord
  2
Continuous
 70
     0
  3
Solid line
 72
    65
 73
     0
 40
0.0
  0
LTYPE
  5
6A
330
5
100
AcDbSymbolTableRecord
100
AcDbLinetypeTableRecord
  2
HIDDEN
 70
     0
  3
Hidden __ __ __ __ __ __ __ __ __ __ __ __ __ __
 72
    65
 73
     2
 40
1.905
 49
1.27
 74
     0
 49
-0.635
 74
     0
  0
LTYPE
  5
6B
330
5
100
AcDbSymbolTableRecord
100
AcDbLinetypeTableRecord
  2
PHANTOM
 70
     0
  3
Phantom ______  __  __  ______  __  __  ______
 72
    65
 73
     6
 40
12.7
 49
6.35
 74
     0
 49
-1.27
 74
     0
 49
1.27
 74
     0
 49
-1.27
 74
     0
 49
1.27
 74
     0
 49
-1.27
 74
     0
  0
LTYPE
  5
6C
330
5
100
AcDbSymbolTableRecord
100
AcDbLinetypeTableRecord
  2
CENTER
 70
     0
  3
Center ____ _ ____ _ ____ _ ____ _ ____ _ ____
 72
    65
 73
     4
 40
10.16
 49
6.35
 74
     0
 49
-1.27
 74
     0
 49
1.27
 74
     0
 49
-1.27
 74
     0
  0
LTYPE
  5
6D
330
5
100
AcDbSymbolTableRecord
100
AcDbLinetypeTableRecord
  2
CENTERX2
 70
     0
  3
Center (2x) ________  __  ________  __  _____
 72
    65
 73
     4
 40
20.32
 49
12.7
 74
     0
 49
-2.54
 74
     0
 49
2.54
 74
     0
 49
-2.54
 74
     0
  0
LTYPE
  5
6E
330
5
100
AcDbSymbolTableRecord
100
AcDbLinetypeTableRecord
  2
DOT2
 70
     0
  3
Dot (.5x) ........................................
 72
    65
 73
     2
 40
0.635
 49
0.0
 74
     0
 49
-0.635
 74
     0
  0
ENDTAB
  0
TABLE
  2
LAYER
  5
2
102
{ACAD_XDICTIONARY
360
188
102
}
330
0
100
AcDbSymbolTable
 70
    18
  0
LAYER
  5
10
330
2
100
AcDbSymbolTableRecord
100
AcDbLayerTableRecord
  2
0
 70
     0
 62
     7
  6
Continuous
370
    -3
390
F
  0
LAYER
  5
6F
330
2
100
AcDbSymbolTableRecord
100
AcDbLayerTableRecord
  2
FORMAT
 70
     0
 62
     2
  6
Continuous
370
    -3
390
F
  0
LAYER
  5
70
330
2
100
AcDbSymbolTableRecord
100
AcDbLayerTableRecord
  2
외형선
 70
     0
 62
     4
  6
Continuous
370
    30
390
F
  0
LAYER
  5
71
330
2
100
AcDbSymbolTableRecord
100
AcDbLayerTableRecord
  2
숨은선
 70
     0
 62
     2
  6
HIDDEN
370
    15
390
F
  0
LAYER
  5
72
330
2
100
AcDbSymbolTableRecord
100
AcDbLayerTableRecord
  2
중심선
 70
     0
 62
     1
  6
CENTERX2
370
    -3
390
F
  0
LAYER
  5
73
330
2
100
AcDbSymbolTableRecord
100
AcDbLayerTableRecord
  2
파단선
 70
     0
 62
     4
  6
Continuous
370
    -3
390
F
  0
LAYER
  5
74
330
2
100
AcDbSymbolTableRecord
100
AcDbLayerTableRecord
  2
해칭선
 70
     0
 62
   100
  6
Continuous
370
    -3
390
F
  0
LAYER
  5
75
330
2
100
AcDbSymbolTableRecord
100
AcDbLayerTableRecord
  2
가는실선
 70
     0
 62
     4
  6
Continuous
370
    -3
390
F
  0
LAYER
  5
76
330
2
100
AcDbSymbolTableRecord
100
AcDbLayerTableRecord
  2
치수_보조선
 70
     0
 62
     4
  6
Continuous
370
    -3
390
F
  0
LAYER
  5
77
330
2
100
AcDbSymbolTableRecord
100
AcDbLayerTableRecord
  2
치수문자_일반주서
 70
     0
 62
     7
  6
Continuous
370
    15
390
F
  0
LAYER
  5
78
330
2
100
AcDbSymbolTableRecord
100
AcDbLayerTableRecord
  2
개별주서
 70
     0
 62
   100
  6
Continuous
370
    30
390
F
  0
LAYER
  5
79
330
2
100
AcDbSymbolTableRecord
100
AcDbLayerTableRecord
  2
중간선
 70
     0
 62
     2
  6
Continuous
370
    15
390
F
  0
LAYER
  5
7A
330
2
100
AcDbSymbolTableRecord
100
AcDbLayerTableRecord
  2
윤곽선
 70
     0
 62
     3
  6
Continuous
370
    40
390
F
  0
LAYER
  5
7B
330
2
100
AcDbSymbolTableRecord
100
AcDbLayerTableRecord
  2
중심마크
 70
     0
 62
   100
  6
Continuous
370
    30
390
F
  0
LAYER
  5
7C
330
2
100
AcDbSymbolTableRecord
100
AcDbLayerTableRecord
  2
가상선
 70
     0
 62
     4
  6
PHANTOM
370
    -3
390
F
  0
LAYER
  5
7D
330
2
100
AcDbSymbolTableRecord
100
AcDbLayerTableRecord
  2
특수지정선
 70
     0
 62
     5
  6
CENTERX2
370
    60
390
F
  0
LAYER
  5
7E
330
2
100
AcDbSymbolTableRecord
100
AcDbLayerTableRecord
  2
참조1
 70
     0
 62
    -4
  6
Continuous
370
    -3
390
F
  0
LAYER
  5
153
330
2
100
AcDbSymbolTableRecord
100
AcDbLayerTableRecord
  2
Defpoints
 70
     0
 62
     7
  6
Continuous
290
     0
370
    -3
390
F
  0
ENDTAB
  0
TABLE
  2
STYLE
  5
3
330
0
100
AcDbSymbolTable
 70
     2
  0
STYLE
  5
11
330
3
100
AcDbSymbolTableRecord
100
AcDbTextStyleTableRecord
  2
Standard
 70
     0
 40
0.0
 41
1.0
 50
0.0
 71
     0
 42
3.5
  3
txt
  4

  0
STYLE
  5
94
330
3
100
AcDbSymbolTableRecord
100
AcDbTextStyleTableRecord
  2
SLDTEXTSTYLE0
 70
     0
 40
0.0
 41
0.75
 50
0.0
 71
     0
 42
3.5
  3
TXT
  4

  0
ENDTAB
  0
TABLE
  2
VIEW
  5
6
330
0
100
AcDbSymbolTable
 70
     0
  0
ENDTAB
  0
TABLE
  2
UCS
  5
7
330
0
100
AcDbSymbolTable
 70
     0
  0
ENDTAB
  0
TABLE
  2
APPID
  5
9
330
0
100
AcDbSymbolTable
 70
     4
  0
APPID
  5
12
330
9
100
AcDbSymbolTableRecord
100
AcDbRegAppTableRecord
  2
ACAD
 70
     0
  0
APPID
  5
15A
330
9
100
AcDbSymbolTableRecord
100
AcDbRegAppTableRecord
  2
PE_URL
 70
     0
  0
APPID
  5
1B2
330
9
100
AcDbSymbolTableRecord
100
AcDbRegAppTableRecord
  2
ACAD_DSTYLE_DIMFLIPARROW_SYMBOL
 70
     0
  0
APPID
  5
1B3
330
9
100
AcDbSymbolTableRecord
100
AcDbRegAppTableRecord
  2
ACAD_DSTYLE_DIMFLIPARROW_WHICH_SYMBOL
 70
     0
  0
ENDTAB
  0
TABLE
  2
DIMSTYLE
  5
A
330
0
100
AcDbSymbolTable
 70
     4
100
AcDbDimStyleTable
  0
DIMSTYLE
105
27
330
A
100
AcDbSymbolTableRecord
100
AcDbDimStyleTableRecord
  2
ISO-25
 70
     0
 41
2.5
 42
0.625
 43
3.75
 44
1.25
 73
     0
 74
     0
 77
     1
 78
     8
140
2.5
141
2.5
143
0.03937007874016
147
0.625
171
     3
172
     1
178
     0
271
     2
272
     2
274
     3
278
    44
283
     0
284
     8
340
11
  0
DIMSTYLE
105
D2
330
A
100
AcDbSymbolTableRecord
100
AcDbDimStyleTableRecord
  2
SLDDIMSTYLE0
 70
     0
 41
3.302
 44
0.0
 45
0.000000001
 73
     0
 74
     0
 77
     1
 78
    12
 79
     3
140
3.5
143
0.0393700787401575
147
0.875
148
0.000000001
170
     1
172
     1
173
     1
178
     0
271
     2
272
     2
276
     2
284
    12
289
     0
340
94
  0
DIMSTYLE
105
E7
330
A
100
AcDbSymbolTableRecord
100
AcDbDimStyleTableRecord
  2
SLDDIMSTYLE1
 70
     0
 41
3.302
 44
0.0
 45
0.000000001
 73
     0
 74
     0
 77
     1
 78
     4
 79
     1
140
3.5
143
0.0393700787401575
147
0.875
148
0.000000001
170
     1
173
     1
178
     0
271
     2
272
     2
276
     2
284
    12
340
94
  0
DIMSTYLE
105
FC
102
{ACAD_REACTORS
330
FB
330
10F
330
E6
330
D1
102
}
330
A
100
AcDbSymbolTableRecord
100
AcDbDimStyleTableRecord
  2
SLDDIMSTYLE2
 70
     0
 41
3.302
 44
0.0
 45
0.000000001
 73
     0
 74
     0
 77
     1
 78
    12
 79
     3
140
3.5
143
0.0393700787401575
147
0.875
148
0.000000001
170
     1
173
     1
178
     0
271
     2
272
     2
276
     2
284
    12
340
94
  0
ENDTAB
  0
TABLE
  2
BLOCK_RECORD
  5
1
330
0
100
AcDbSymbolTable
 70
    10
  0
BLOCK_RECORD
  5
1F
330
1
100
AcDbSymbolTableRecord
100
AcDbBlockTableRecord
  2
*Model_Space
340
22
  0
BLOCK_RECORD
  5
1B
330
1
100
AcDbSymbolTableRecord
100
AcDbBlockTableRecord
  2
*Paper_Space
340
1E
  0
BLOCK_RECORD
  5
23
330
1
100
AcDbSymbolTableRecord
100
AcDbBlockTableRecord
  2
*Paper_Space0
340
26
  0
BLOCK_RECORD
  5
7F
330
1
100
AcDbSymbolTableRecord
100
AcDbBlockTableRecord
  2
블럭10
340
0
102
{BLKREFS
331
CA
102
}
  0
BLOCK_RECORD
  5
D3
330
1
100
AcDbSymbolTableRecord
100
AcDbBlockTableRecord
  2
_D
340
0
  0
BLOCK_RECORD
  5
E8
330
1
100
AcDbSymbolTableRecord
100
AcDbBlockTableRecord
  2
_D_1
340
0
  0
BLOCK_RECORD
  5
FD
330
1
100
AcDbSymbolTableRecord
100
AcDbBlockTableRecord
  2
_D_2
340
0
  0
BLOCK_RECORD
  5
110
330
1
100
AcDbSymbolTableRecord
100
AcDbBlockTableRecord
  2
_D_3
340
0
  0
BLOCK_RECORD
  5
129
330
1
100
AcDbSymbolTableRecord
100
AcDbBlockTableRecord
  2
SW_DOWELSYMBOL_0
340
0
102
{BLKREFS
331
12F
102
}
  0
BLOCK_RECORD
  5
18C
330
1
100
AcDbSymbolTableRecord
100
AcDbBlockTableRecord
  2
*D7
340
0
  0
BLOCK_RECORD
  5
19C
330
1
100
AcDbSymbolTableRecord
100
AcDbBlockTableRecord
  2
*D8
340
0
  0
ENDTAB
  0
ENDSEC
  0
SECTION
  2
BLOCKS
  0
BLOCK
  5
20
330
1F
100
AcDbEntity
  8
0
100
AcDbBlockBegin
  2
*Model_Space
 70
     0
 10
0.0
 20
0.0
 30
0.0
  3
*Model_Space
  1

  0
ENDBLK
  5
21
330
1F
100
AcDbEntity
  8
0
100
AcDbBlockEnd
  0
BLOCK
  5
1C
330
1B
100
AcDbEntity
 67
     1
  8
0
100
AcDbBlockBegin
  2
*Paper_Space
 70
     0
 10
0.0
 20
0.0
 30
0.0
  3
*Paper_Space
  1

  0
ENDBLK
  5
1D
330
1B
100
AcDbEntity
 67
     1
  8
0
100
AcDbBlockEnd
  0
BLOCK
  5
24
330
23
100
AcDbEntity
  8
0
100
AcDbBlockBegin
  2
*Paper_Space0
 70
     0
 10
0.0
 20
0.0
 30
0.0
  3
*Paper_Space0
  1

  0
ENDBLK
  5
25
330
23
100
AcDbEntity
  8
0
100
AcDbBlockEnd
  0
BLOCK
  5
80
330
7F
100
AcDbEntity
  8
0
100
AcDbBlockBegin
  2
블럭10
 70
     2
 10
0.0
 20
0.0
 30
0.0
  3
블럭10
  1

  0
ELLIPSE
  5
82
330
7F
100
AcDbEntity
  8
중심선
100
AcDbEllipse
 10
20.54032771741204
 20
12.0471743016438
 30
0.0
 11
6.600054785286829
 21
-1.261213355974178E-13
 31
0.0
210
0.0
220
0.0
230
1.0
 40
0.636358354079598
 41
0.9219305317359503
 42
6.513795318482858
  0
ELLIPSE
  5
83
330
7F
100
AcDbEntity
  8
중심선
100
AcDbEllipse
 10
20.54032771746488
 20
12.04717430159265
 30
0.0
 11
3.960054785062283
 21
1.540847449632565E-10
 31
0.0
210
0.0
220
0.0
230
1.0
 40
0.3939339440162632
 41
1.131841032648279
 42
5.62031148352944
  0
LINE
  5
84
330
7F
100
AcDbEntity
  8
중심선
100
AcDbLine
 10
2.268634060543552
 20
16.24717430164393
 30
0.0
 11
5.714909304380834
 21
16.24717430164393
 31
0.0
  0
LINE
  5
85
330
7F
100
AcDbEntity
  8
중심선
100
AcDbLine
 10
5.245725140726316
 20
7.84717430164391
 30
0.0
 11
8.692000384563599
 21
7.84717430164391
 31
0.0
  0
LINE
  5
86
330
7F
100
AcDbEntity
  8
중심선
100
AcDbLine
 10
15.74043728645272
 20
16.24717430164393
 30
0.0
 11
8.692000384563599
 21
7.84717430164391
 31
0.0
  0
LINE
  5
87
330
7F
100
AcDbEntity
  8
중심선
100
AcDbLine
 10
0.1404042013395286
 20
13.71084872107135
 30
0.0
 11
3.58671253028996
 21
13.71088815037384
 31
0.0
  0
LINE
  5
88
330
7F
100
AcDbEntity
  8
중심선
100
AcDbLine
 10
2.750260043222114
 20
10.84717430164391
 30
0.0
 11
6.196535287059397
 21
10.84717430164391
 31
0.0
  0
LINE
  5
89
330
7F
100
AcDbEntity
  8
중심선
100
AcDbLine
 10
12.29416204261559
 20
16.24717430164393
 30
0.0
 11
5.245725140726316
 21
7.84717430164391
 31
0.0
  0
LINE
  5
8A
330
7F
100
AcDbEntity
  8
중심선
100
AcDbLine
 10
10.72767329541681
 20
16.24717430164393
 30
0.0
 11
6.196535287059397
 21
10.84717430164391
 31
0.0
  0
LINE
  5
8B
330
7F
100
AcDbEntity
  8
중심선
100
AcDbLine
 10
7.28139805157953
 20
16.24717430164393
 30
0.0
 11
2.750260043222114
 21
10.84717430164391
 31
0.0
  0
LINE
  5
8C
330
7F
100
AcDbEntity
  8
중심선
100
AcDbLine
 10
5.714909304380834
 20
16.24717430164393
 30
0.0
 11
3.58671253028996
 21
13.71088815037384
 31
0.0
  0
LINE
  5
8D
330
7F
100
AcDbEntity
  8
중심선
100
AcDbLine
 10
2.268634060543552
 20
16.24717430164393
 30
0.0
 11
0.1404042013395286
 21
13.71084872107135
 31
0.0
  0
LINE
  5
8E
330
7F
100
AcDbEntity
  8
중심선
100
AcDbLine
 10
7.28139805157953
 20
16.24717430164393
 30
0.0
 11
10.72767329541681
 21
16.24717430164393
 31
0.0
  0
LINE
  5
8F
330
7F
100
AcDbEntity
  8
중심선
100
AcDbLine
 10
12.29416204261559
 20
16.24717430164393
 30
0.0
 11
15.74043728645272
 21
16.24717430164393
 31
0.0
  0
LINE
  5
90
330
7F
100
AcDbEntity
  8
중심선
100
AcDbLine
 10
19.22036997980202
 20
11.08717430171403
 30
0.0
 11
23.66174974927406
 21
11.08717430171406
 31
0.0
  0
LINE
  5
91
330
7F
100
AcDbEntity
  8
중심선
100
AcDbLine
 10
19.22039502424796
 20
13.00717430171391
 30
0.0
 11
19.22036997980202
 21
11.08717430171403
 31
0.0
  0
LINE
  5
92
330
7F
100
AcDbEntity
  8
중심선
100
AcDbLine
 10
19.22039502424796
 20
13.00717430171391
 30
0.0
 11
26.96566020931264
 21
13.00717430171391
 31
0.0
  0
LINE
  5
93
330
7F
100
AcDbEntity
  8
중심선
100
AcDbLine
 10
22.22332737316547
 20
13.45928029700563
 30
0.0
 11
24.52862924686651
 21
15.39360700705356
 31
0.0
  0
ATTDEF
  5
95
330
7F
100
AcDbEntity
  8
FORMAT
 62
     2
100
AcDbText
 10
4.408487351596664
 20
2.075366912832191
 30
0.0
 40
4.233333333333333
  1
E1030056
 41
0.75
  7
SLDTEXTSTYLE0
 11
4.408487351596664
 21
-0.0412997538344756
 31
0.0
100
AcDbAttributeDefinition
  3

  2
AUTOATTR0
 70
     0
 74
     1
  0
ENDBLK
  5
81
330
7F
100
AcDbEntity
  8
0
100
AcDbBlockEnd
  0
BLOCK
  5
D4
330
D3
100
AcDbEntity
  8
0
100
AcDbBlockBegin
  2
_D
 70
     0
 10
0.0
 20
0.0
 30
0.0
  3
_D
  1

  0
LINE
  5
D6
330
D3
100
AcDbEntity
  8
치수문자_일반주서
 62
     0
370
    -2
100
AcDbLine
 10
-44.21249999999998
 20
11.11249999999999
 30
0.0
 11
-60.14999999999999
 21
11.11249999999993
 31
0.0
  0
LINE
  5
D7
330
D3
100
AcDbEntity
  8
치수문자_일반주서
 62
     0
370
    -2
100
AcDbLine
 10
-44.21249999999998
 20
-11.1125
 30
0.0
 11
-60.14999999999991
 21
-11.11250000000007
 31
0.0
  0
LINE
  5
D8
330
D3
100
AcDbEntity
  8
치수문자_일반주서
 62
     0
370
    -2
100
AcDbLine
 10
-60.14999999999999
 20
11.11249999999993
 30
0.0
 11
-60.15000000000012
 21
47.86249999999994
 31
0.0
  0
LINE
  5
D9
330
D3
100
AcDbEntity
  8
치수문자_일반주서
 62
     0
370
    -2
100
AcDbLine
 10
-60.14999999999999
 20
11.11249999999993
 30
0.0
 11
-60.14999999999991
 21
-11.11250000000007
 31
0.0
  0
LINE
  5
DA
330
D3
100
AcDbEntity
  8
치수문자_일반주서
 62
     0
370
    -2
100
AcDbLine
 10
-60.15000000000001
 20
15.11249999999993
 30
0.0
 11
-60.15000000000002
 21
19.11249999999993
 31
0.0
  0
LINE
  5
DB
330
D3
100
AcDbEntity
  8
치수문자_일반주서
 62
     0
370
    -2
100
AcDbLine
 10
-60.1499999999999
 20
-15.11250000000007
 30
0.0
 11
-60.14999999999988
 21
-19.11250000000007
 31
0.0
  0
SOLID
  5
DC
330
D3
100
AcDbEntity
  8
치수문자_일반주서
 62
     0
100
AcDbTrace
 10
-60.81666666666667
 20
15.11249999999993
 30
0.0
 11
-59.48333333333334
 21
15.11249999999993
 31
0.0
 12
-60.14999999999999
 22
11.11249999999993
 32
0.0
 13
-60.14999999999999
 23
11.11249999999993
 33
0.0
  0
SOLID
  5
DD
330
D3
100
AcDbEntity
  8
치수문자_일반주서
 62
     0
100
AcDbTrace
 10
-59.48333333333323
 20
-15.11250000000007
 30
0.0
 11
-60.81666666666656
 21
-15.11250000000007
 31
0.0
 12
-60.14999999999991
 22
-11.11250000000007
 32
0.0
 13
-60.14999999999991
 23
-11.11250000000007
 33
0.0
  0
MTEXT
  5
DE
330
D3
100
AcDbEntity
  8
치수문자_일반주서
 62
     0
100
AcDbMText
 10
-65.02500000000006
 20
31.48749999999992
 30
0.0
 40
4.0
 41
0.0
 71
     2
 72
     1
  1
\A1;%%c22.23 [7/8]
  7
SLDTEXTSTYLE0
 11
-3.516746948643917E-15
 21
1.0
 31
0.0
 73
     1
 44
1.0
  0
POINT
  5
1AC
330
D3
100
AcDbEntity
  8
Defpoints
 62
     0
100
AcDbPoint
 10
-44.14999999999998
 20
11.11249999999999
 30
0.0
  0
POINT
  5
1AD
330
D3
100
AcDbEntity
  8
Defpoints
 62
     0
100
AcDbPoint
 10
-44.14999999999998
 20
-11.1125
 30
0.0
  0
POINT
  5
1AE
330
D3
100
AcDbEntity
  8
Defpoints
 62
     0
100
AcDbPoint
 10
-60.14999999999992
 20
-11.11250000000006
 30
0.0
  0
ENDBLK
  5
D5
330
D3
100
AcDbEntity
  8
0
100
AcDbBlockEnd
  0
BLOCK
  5
E9
330
E8
100
AcDbEntity
  8
0
100
AcDbBlockBegin
  2
_D_1
 70
     0
 10
0.0
 20
0.0
 30
0.0
  3
_D_1
  1

  0
LINE
  5
EB
330
E8
100
AcDbEntity
  8
치수문자_일반주서
 62
     0
370
    -2
100
AcDbLine
 10
50.10000000000001
 20
11.16560788423941
 30
0.0
 11
50.10000000000001
 21
26.14890781833292
 31
0.0
  0
LINE
  5
EC
330
E8
100
AcDbEntity
  8
치수문자_일반주서
 62
     0
370
    -2
100
AcDbLine
 10
12.0
 20
8.740782678455904
 30
0.0
 11
12.0
 21
26.14890781833292
 31
0.0
  0
LINE
  5
ED
330
E8
100
AcDbEntity
  8
치수문자_일반주서
 62
     0
370
    -2
100
AcDbLine
 10
50.10000000000001
 20
26.14890781833292
 30
0.0
 11
83.85000000000001
 21
26.14890781833292
 31
0.0
  0
LINE
  5
EE
330
E8
100
AcDbEntity
  8
치수문자_일반주서
 62
     0
370
    -2
100
AcDbLine
 10
50.10000000000001
 20
26.14890781833292
 30
0.0
 11
12.0
 21
26.14890781833292
 31
0.0
  0
LINE
  5
EF
330
E8
100
AcDbEntity
  8
치수문자_일반주서
 62
     0
370
    -2
100
AcDbLine
 10
54.10000000000001
 20
26.14890781833292
 30
0.0
 11
58.10000000000001
 21
26.14890781833292
 31
0.0
  0
LINE
  5
F0
330
E8
100
AcDbEntity
  8
치수문자_일반주서
 62
     0
370
    -2
100
AcDbLine
 10
8.0
 20
26.14890781833292
 30
0.0
 11
4.0
 21
26.14890781833292
 31
0.0
  0
SOLID
  5
F1
330
E8
100
AcDbEntity
  8
치수문자_일반주서
 62
     0
100
AcDbTrace
 10
54.10000000000001
 20
26.81557448499959
 30
0.0
 11
54.10000000000001
 21
25.48224115166625
 31
0.0
 12
50.10000000000001
 22
26.14890781833292
 32
0.0
 13
50.10000000000001
 23
26.14890781833292
 33
0.0
  0
SOLID
  5
F2
330
E8
100
AcDbEntity
  8
치수문자_일반주서
 62
     0
100
AcDbTrace
 10
8.0
 20
25.48224115166625
 30
0.0
 11
8.0
 21
26.81557448499959
 31
0.0
 12
12.0
 22
26.14890781833292
 32
0.0
 13
12.0
 23
26.14890781833292
 33
0.0
  0
MTEXT
  5
F3
330
E8
100
AcDbEntity
  8
치수문자_일반주서
 62
     0
100
AcDbMText
 10
68.97500000000001
 20
31.02390781833292
 30
0.0
 40
4.0
 41
0.0
 71
     2
 72
     1
  1
\A1;38.1 [1 1/2]
  7
SLDTEXTSTYLE0
 73
     1
 44
1.0
  0
POINT
  5
F4
330
E8
100
AcDbEntity
  8
Defpoints
 62
     0
100
AcDbPoint
 10
50.10000000000001
 20
11.10310788423941
 30
0.0
  0
POINT
  5
1AF
330
E8
100
AcDbEntity
  8
Defpoints
 62
     0
100
AcDbPoint
 10
12.0
 20
8.678282678455904
 30
0.0
  0
POINT
  5
1B0
330
E8
100
AcDbEntity
  8
Defpoints
 62
     0
100
AcDbPoint
 10
12.0
 20
26.14890781833292
 30
0.0
  0
ENDBLK
  5
EA
330
E8
100
AcDbEntity
  8
0
100
AcDbBlockEnd
  0
BLOCK
  5
FE
330
FD
100
AcDbEntity
  8
0
100
AcDbBlockBegin
  2
_D_2
 70
     0
 10
0.0
 20
0.0
 30
0.0
  3
_D_2
  1

  0
LINE
  5
100
330
FD
100
AcDbEntity
  8
치수문자_일반주서
 62
     0
370
    -2
100
AcDbLine
 10
50.09999999999972
 20
11.18531563666584
 30
0.0
 11
50.09999999999972
 21
41.1125
 31
0.0
  0
LINE
  5
101
330
FD
100
AcDbEntity
  8
치수문자_일반주서
 62
     0
370
    -2
100
AcDbLine
 10
-45.14999999999999
 20
10.17499999999999
 30
0.0
 11
-45.14999999999999
 21
41.1125
 31
0.0
  0
LINE
  5
102
330
FD
100
AcDbEntity
  8
치수문자_일반주서
 62
     0
370
    -2
100
AcDbLine
 10
46.09999999999972
 20
41.1125
 30
0.0
 11
-41.14999999999999
 21
41.1125
 31
0.0
  0
SOLID
  5
103
330
FD
100
AcDbEntity
  8
치수문자_일반주서
 62
     0
100
AcDbTrace
 10
46.09999999999972
 20
40.44583333333333
 30
0.0
 11
46.09999999999972
 21
41.77916666666666
 31
0.0
 12
50.09999999999972
 22
41.1125
 32
0.0
 13
50.09999999999972
 23
41.1125
 33
0.0
  0
SOLID
  5
104
330
FD
100
AcDbEntity
  8
치수문자_일반주서
 62
     0
100
AcDbTrace
 10
-41.14999999999999
 20
41.77916666666666
 30
0.0
 11
-41.14999999999999
 21
40.44583333333333
 31
0.0
 12
-45.14999999999999
 22
41.1125
 32
0.0
 13
-45.14999999999999
 23
41.1125
 33
0.0
  0
MTEXT
  5
105
330
FD
100
AcDbEntity
  8
치수문자_일반주서
 62
     0
100
AcDbMText
 10
2.474999999999863
 20
45.9875
 30
0.0
 40
4.0
 41
0.0
 71
     2
 72
     1
  1
\A1;95.25 [3 3/4]
  7
SLDTEXTSTYLE0
 73
     1
 44
1.0
  0
POINT
  5
106
330
FD
100
AcDbEntity
  8
Defpoints
 62
     0
100
AcDbPoint
 10
50.09999999999972
 20
11.12281563666584
 30
0.0
  0
POINT
  5
107
330
FD
100
AcDbEntity
  8
Defpoints
 62
     0
100
AcDbPoint
 10
-45.14999999999999
 20
10.11249999999999
 30
0.0
  0
POINT
  5
108
330
FD
100
AcDbEntity
  8
Defpoints
 62
     0
100
AcDbPoint
 10
-45.14999999999999
 20
41.1125
 30
0.0
  0
ENDBLK
  5
FF
330
FD
100
AcDbEntity
  8
0
100
AcDbBlockEnd
  0
BLOCK
  5
111
330
110
100
AcDbEntity
  8
0
100
AcDbBlockBegin
  2
_D_3
 70
     0
 10
0.0
 20
0.0
 30
0.0
  3
_D_3
  1

  0
LINE
  5
113
330
110
100
AcDbEntity
  8
치수문자_일반주서
 62
     0
370
    -2
100
AcDbLine
 10
50.16250000000001
 20
-11.10310788423941
 30
0.0
 11
92.20103054305818
 21
-11.10310788423926
 31
0.0
  0
LINE
  5
114
330
110
100
AcDbEntity
  8
치수문자_일반주서
 62
     0
370
    -2
100
AcDbLine
 10
50.16250000000001
 20
11.10310788423941
 30
0.0
 11
92.20103054305811
 21
11.10310788423956
 31
0.0
  0
LINE
  5
115
330
110
100
AcDbEntity
  8
치수문자_일반주서
 62
     0
370
    -2
100
AcDbLine
 10
92.20103054305811
 20
11.10310788423956
 30
0.0
 11
92.201030543058
 21
46.85310788423956
 31
0.0
  0
LINE
  5
116
330
110
100
AcDbEntity
  8
치수문자_일반주서
 62
     0
370
    -2
100
AcDbLine
 10
92.20103054305817
 20
-7.103107884239257
 30
0.0
 11
92.20103054305812
 21
7.103107884239563
 31
0.0
  0
SOLID
  5
117
330
110
100
AcDbEntity
  8
치수문자_일반주서
 62
     0
100
AcDbTrace
 10
91.5343638763915
 20
-7.103107884239259
 30
0.0
 11
92.86769720972484
 21
-7.103107884239256
 31
0.0
 12
92.20103054305818
 22
-11.10310788423926
 32
0.0
 13
92.20103054305818
 23
-11.10310788423926
 33
0.0
  0
SOLID
  5
118
330
110
100
AcDbEntity
  8
치수문자_일반주서
 62
     0
100
AcDbTrace
 10
92.8676972097248
 20
7.103107884239565
 30
0.0
 11
91.53436387639145
 21
7.103107884239561
 31
0.0
 12
92.20103054305811
 22
11.10310788423956
 32
0.0
 13
92.20103054305811
 23
11.10310788423956
 33
0.0
  0
MTEXT
  5
119
330
110
100
AcDbEntity
  8
치수문자_일반주서
 62
     0
100
AcDbMText
 10
87.32603054305805
 20
30.97810788423955
 30
0.0
 40
4.0
 41
0.0
 71
     2
 72
     1
  1
\A1;%%c22.21 [7/8]
  7
SLDTEXTSTYLE0
 11
-3.199747058067851E-15
 21
1.0
 31
0.0
 73
     1
 44
1.0
  0
POINT
  5
11A
330
110
100
AcDbEntity
  8
Defpoints
 62
     0
100
AcDbPoint
 10
50.10000000000001
 20
-11.10310788423941
 30
0.0
  0
POINT
  5
11B
330
110
100
AcDbEntity
  8
Defpoints
 62
     0
100
AcDbPoint
 10
50.10000000000001
 20
11.10310788423941
 30
0.0
  0
POINT
  5
11C
330
110
100
AcDbEntity
  8
Defpoints
 62
     0
100
AcDbPoint
 10
92.20103054305811
 20
11.10310788423956
 30
0.0
  0
ENDBLK
  5
112
330
110
100
AcDbEntity
  8
0
100
AcDbBlockEnd
  0
BLOCK
  5
12A
330
129
100
AcDbEntity
  8
0
100
AcDbBlockBegin
  2
SW_DOWELSYMBOL_0
 70
     0
 10
0.0
 20
0.0
 30
0.0
  3
SW_DOWELSYMBOL_0
  1

  0
CIRCLE
  5
12C
330
129
100
AcDbEntity
  8
해칭선
 62
     0
100
AcDbCircle
 10
0.0
 20
0.0
 30
0.0
 40
2.999999999999994
  0
HATCH
  5
12D
330
129
100
AcDbEntity
  8
0
  6
Continuous
 62
     0
370
     0
100
AcDbHatch
 10
0.0
 20
0.0
 30
0.0
210
0.0
220
0.0
230
1.0
  2
SOLID
 70
     1
 71
     0
 91
        1
 92
        0
 93
        3
 72
     2
 10
0.0
 20
0.0
 40
2.999999999999994
 50
0.0
 51
90.0
 73
     1
 72
     1
 10
0.0
 20
2.999999999999994
 11
0.0
 21
0.0
 72
     1
 10
0.0
 20
0.0
 11
2.999999999999994
 21
0.0
 97
        0
 75
     0
 76
     1
 98
        1
 10
0.0
 20
0.0
  0
HATCH
  5
12E
330
129
100
AcDbEntity
  8
0
  6
Continuous
 62
     0
370
     0
100
AcDbHatch
 10
0.0
 20
0.0
 30
0.0
210
0.0
220
0.0
230
1.0
  2
SOLID
 70
     1
 71
     0
 91
        1
 92
        0
 93
        3
 72
     2
 10
0.0
 20
0.0
 40
2.999999999999994
 50
180.0
 51
270.0000000000007
 73
     1
 72
     1
 10
0.0
 20
-2.999999999999994
 11
0.0
 21
0.0
 72
     1
 10
0.0
 20
0.0
 11
-2.999999999999994
 21
0.0
 97
        0
 75
     0
 76
     1
 98
        1
 10
0.0
 20
0.0
  0
ENDBLK
  5
12B
330
129
100
AcDbEntity
  8
0
100
AcDbBlockEnd
  0
BLOCK
  5
18D
330
18C
100
AcDbEntity
  8
0
100
AcDbBlockBegin
  2
*D7
 70
     1
 10
0.0
 20
0.0
 30
0.0
  3
*D7
  1

  0
LINE
  5
18F
330
18C
100
AcDbEntity
  8
치수문자_일반주서
 62
     0
370
    -2
100
AcDbLine
 10
38.09999999999937
 20
7.699178019206265
 30
0.0
 11
38.09999999999937
 21
20.66068883684966
 31
0.0
  0
LINE
  5
190
330
18C
100
AcDbEntity
  8
치수문자_일반주서
 62
     0
370
    -2
100
AcDbLine
 10
0.0000000000000027
 20
3.258538160919052
 30
0.0
 11
0.0
 21
20.66068883684966
 31
0.0
  0
LINE
  5
191
330
18C
100
AcDbEntity
  8
치수문자_일반주서
 62
     0
370
    -2
100
AcDbLine
 10
38.09999999999937
 20
20.66068883684966
 30
0.0
 11
73.09999999999937
 21
20.66068883684966
 31
0.0
  0
LINE
  5
192
330
18C
100
AcDbEntity
  8
치수문자_일반주서
 62
     0
370
    -2
100
AcDbLine
 10
34.09999999999937
 20
20.66068883684966
 30
0.0
 11
4.0
 21
20.66068883684966
 31
0.0
  0
SOLID
  5
193
330
18C
100
AcDbEntity
  8
치수문자_일반주서
 62
     0
100
AcDbTrace
 10
34.09999999999937
 20
19.99402217018299
 30
0.0
 11
34.09999999999937
 21
21.32735550351633
 31
0.0
 12
38.09999999999937
 22
20.66068883684966
 32
0.0
 13
38.09999999999937
 23
20.66068883684966
 33
0.0
  0
SOLID
  5
194
330
18C
100
AcDbEntity
  8
치수문자_일반주서
 62
     0
100
AcDbTrace
 10
4.0
 20
21.32735550351633
 30
0.0
 11
4.0
 21
19.99402217018299
 31
0.0
 12
0.0
 22
20.66068883684966
 32
0.0
 13
0.0
 23
20.66068883684966
 33
0.0
  0
MTEXT
  5
195
330
18C
100
AcDbEntity
  8
치수문자_일반주서
 62
     0
100
AcDbMText
 10
58.22499999999937
 20
25.53568883684966
 30
0.0
 40
4.0
 41
0.0
 71
     2
 72
     1
  1
\A1;38.1 [1 1/2]
  7
SLDTEXTSTYLE0
 73
     1
 44
1.0
  0
POINT
  5
196
330
18C
100
AcDbEntity
  8
Defpoints
 62
     0
100
AcDbPoint
 10
38.09999999999937
 20
7.636678019206265
 30
0.0
  0
POINT
  5
197
330
18C
100
AcDbEntity
  8
Defpoints
 62
     0
100
AcDbPoint
 10
0.0000000000000027
 20
3.196038160919052
 30
0.0
  0
POINT
  5
198
330
18C
100
AcDbEntity
  8
Defpoints
 62
     0
100
AcDbPoint
 10
0.0000000000000027
 20
20.66068883684966
 30
0.0
  0
ENDBLK
  5
18E
330
18C
100
AcDbEntity
  8
0
100
AcDbBlockEnd
  0
BLOCK
  5
19D
330
19C
100
AcDbEntity
  8
0
100
AcDbBlockBegin
  2
*D8
 70
     1
 10
0.0
 20
0.0
 30
0.0
  3
*D8
  1

  0
LINE
  5
19F
330
19C
100
AcDbEntity
  8
치수문자_일반주서
 62
     0
370
    -2
100
AcDbLine
 10
134.6203495965733
 20
-66.43812117581078
 30
0.0
 11
134.6203495965733
 21
-53.47661035816738
 31
0.0
  0
LINE
  5
1A0
330
19C
100
AcDbEntity
  8
치수문자_일반주서
 62
     0
370
    -2
100
AcDbLine
 10
96.52034959657396
 20
-70.87876103409798
 30
0.0
 11
96.52034959657396
 21
-53.47661035816738
 31
0.0
  0
LINE
  5
1A1
330
19C
100
AcDbEntity
  8
치수문자_일반주서
 62
     0
370
    -2
100
AcDbLine
 10
134.6203495965733
 20
-53.47661035816738
 30
0.0
 11
169.6203495965733
 21
-53.47661035816738
 31
0.0
  0
LINE
  5
1A2
330
19C
100
AcDbEntity
  8
치수문자_일반주서
 62
     0
370
    -2
100
AcDbLine
 10
130.6203495965733
 20
-53.47661035816738
 30
0.0
 11
100.520349596574
 21
-53.47661035816738
 31
0.0
  0
SOLID
  5
1A3
330
19C
100
AcDbEntity
  8
치수문자_일반주서
 62
     0
100
AcDbTrace
 10
130.6203495965733
 20
-54.14327702483404
 30
0.0
 11
130.6203495965733
 21
-52.80994369150071
 31
0.0
 12
134.6203495965733
 22
-53.47661035816738
 32
0.0
 13
134.6203495965733
 23
-53.47661035816738
 33
0.0
  0
SOLID
  5
1A4
330
19C
100
AcDbEntity
  8
치수문자_일반주서
 62
     0
100
AcDbTrace
 10
100.520349596574
 20
-52.80994369150071
 30
0.0
 11
100.520349596574
 21
-54.14327702483404
 31
0.0
 12
96.52034959657396
 22
-53.47661035816738
 32
0.0
 13
96.52034959657396
 23
-53.47661035816738
 33
0.0
  0
MTEXT
  5
1A5
330
19C
100
AcDbEntity
  8
치수문자_일반주서
 62
     0
100
AcDbMText
 10
154.7453495965733
 20
-48.60161035816738
 30
0.0
 40
4.0
 41
0.0
 71
     2
 72
     1
  1
\A1;38.1 [1 1/2]
  7
SLDTEXTSTYLE0
 73
     1
 44
1.0
  0
POINT
  5
1A6
330
19C
100
AcDbEntity
  8
Defpoints
 62
     0
100
AcDbPoint
 10
134.6203495965733
 20
-66.50062117581078
 30
0.0
  0
POINT
  5
1A7
330
19C
100
AcDbEntity
  8
Defpoints
 62
     0
100
AcDbPoint
 10
96.52034959657396
 20
-70.94126103409798
 30
0.0
  0
POINT
  5
1A8
330
19C
100
AcDbEntity
  8
Defpoints
 62
     0
100
AcDbPoint
 10
96.52034959657396
 20
-53.47661035816738
 30
0.0
  0
ENDBLK
  5
19E
330
19C
100
AcDbEntity
  8
0
100
AcDbBlockEnd
  0
ENDSEC
  0
SECTION
  2
ENTITIES
  0
LINE
  5
96
330
1F
100
AcDbEntity
  8
외형선
  6
Continuous
370
    15
100
AcDbLine
 10
8.950112339999734
 20
11.11249999999999
 30
0.0
 11
-11.65692499999999
 21
11.11249999999999
 31
0.0
  0
LINE
  5
97
330
1F
100
AcDbEntity
  8
외형선
  6
Continuous
370
    15
100
AcDbLine
 10
-44.14999999999999
 20
-11.11250000000001
 30
0.0
 11
8.950112339999734
 21
-11.11250000000001
 31
0.0
  0
LINE
  5
98
330
1F
100
AcDbEntity
  8
외형선
  6
Continuous
370
    15
100
AcDbLine
 10
-44.14999999999999
 20
11.11249999999999
 30
0.0
 11
-45.14999999999999
 21
10.11249999999999
 31
0.0
  0
LINE
  5
99
330
1F
100
AcDbEntity
  8
외형선
  6
Continuous
370
    15
100
AcDbLine
 10
-45.14999999999999
 20
-10.11250000000001
 30
0.0
 11
-44.14999999999999
 21
-11.11250000000001
 31
0.0
  0
SPLINE
  5
9A
330
1F
100
AcDbEntity
  8
외형선
  6
Continuous
370
    15
100
AcDbSpline
210
0.0
220
0.0
230
1.0
 70
     8
 71
     3
 72
     9
 73
     5
 74
     0
 42
0.000000001
 43
0.00000001
 40
0.0
 40
0.0
 40
0.0
 40
0.0
 40
0.4532296105446606
 40
1.0
 40
1.0
 40
1.0
 40
1.0
 10
12.00000000000001
 20
8.677353441369213
 30
0.0
 10
11.62013603036361
 20
8.678617727553828
 30
0.0
 10
10.78200903954344
 20
8.681407232376987
 30
0.0
 10
9.911718284627321
 20
8.699577432222565
 30
0.0
 10
9.435869069622457
 20
8.709512359468611
 30
0.0
  0
SPLINE
  5
9B
330
1F
100
AcDbEntity
  8
외형선
  6
Continuous
370
    15
100
AcDbSpline
210
0.0
220
0.0
230
1.0
 70
     8
 71
     3
 72
    17
 73
    13
 74
     0
 42
0.000000001
 43
0.00000001
 40
0.0
 40
0.0
 40
0.0
 40
0.0
 40
0.0070801997622609
 40
0.0156204795691281
 40
0.0394629476657554
 40
0.128173538411997
 40
0.499846899053988
 40
0.8714155085394594
 40
0.9601566875853113
 40
0.9841234724266871
 40
0.9927736443398496
 40
1.0
 40
1.0
 40
1.0
 40
1.0
 10
9.437977331209998
 20
8.70911520807067
 30
0.0
 10
9.436990498375636
 20
8.709248915340421
 30
0.0
 10
9.434813327865639
 20
8.709543903016684
 30
0.0
 10
9.42795639385818
 20
8.712470053590238
 30
0.0
 10
9.405387378976862
 20
8.726454634764206
 30
0.0
 10
9.316377368076154
 20
8.800012640173609
 30
0.0
 10
9.174224841609899
 20
8.939756795051888
 30
0.0
 10
9.037968361788902
 20
9.085217631091396
 30
0.0
 10
8.96659632018285
 20
9.175749129264506
 30
0.0
 10
8.95320314726854
 20
9.198393077278212
 30
0.0
 10
8.95046047297338
 20
9.205185019126613
 30
0.0
 10
8.950221232585099
 20
9.207295502774276
 30
0.0
 10
8.950112339999738
 20
9.208256109895864
 30
0.0
  0
SPLINE
  5
9C
330
1F
100
AcDbEntity
  8
외형선
  6
Continuous
370
    15
100
AcDbSpline
210
0.0
220
0.0
230
1.0
 70
     8
 71
     3
 72
     9
 73
     5
 74
     0
 42
0.000000001
 43
0.00000001
 40
0.0
 40
0.0
 40
0.0
 40
0.0
 40
0.5557258566730712
 40
1.0
 40
1.0
 40
1.0
 40
1.0
 10
8.950155303721026
 20
-8.722072887632773
 30
0.0
 10
9.525106504483613
 20
-8.7079971394408
 30
0.0
 10
10.5597015190194
 20
-8.682668556969872
 30
0.0
 10
11.55694881284883
 20
-8.678988427663949
 30
0.0
 10
12.0
 20
-8.67735344136922
 30
0.0
  0
SPLINE
  5
9D
330
1F
100
AcDbEntity
  8
0
  6
Continuous
 62
     1
370
    15
100
AcDbSpline
210
0.0
220
0.0
230
1.0
 70
     8
 71
     3
 72
    10
 73
     6
 74
     0
 42
0.000000001
 43
0.00000001
 40
0.0
 40
0.0
 40
0.0
 40
0.0
 40
0.4445681398274284
 40
0.6329316365054466
 40
1.0
 40
1.0
 40
1.0
 40
1.0
 10
21.30957293890913
 20
2.847621486428866
 30
0.0
 10
20.85298693124675
 20
3.065035994683057
 30
0.0
 10
20.20294545695798
 20
3.374569018265826
 30
0.0
 10
19.17586732650286
 20
3.892873898908245
 30
0.0
 10
18.60499153938978
 20
4.191845755314371
 30
0.0
 10
18.22771674483775
 20
4.389427345300636
 30
0.0
1001
PE_URL
1000

  0
SPLINE
  5
9E
330
1F
100
AcDbEntity
  8
0
  6
Continuous
 62
     1
370
    15
100
AcDbSpline
210
0.0
220
0.0
230
1.0
 70
     8
 71
     3
 72
    11
 73
     7
 74
     0
 42
0.000000001
 43
0.00000001
 40
0.0
 40
0.0
 40
0.0
 40
0.0
 40
0.207978010234194
 40
0.4421152572616898
 40
0.7057429624271575
 40
1.0
 40
1.0
 40
1.0
 40
1.0
 10
17.63605829202672
 20
8.830423404703723
 30
0.0
 10
17.26377638010755
 20
8.811062879354843
 30
0.0
 10
16.47238736221727
 20
8.769906683871955
 30
0.0
 10
15.14181276524758
 20
8.720310945216156
 30
0.0
 10
13.63274474338207
 20
8.686368380987613
 30
0.0
 10
12.56381067376465
 20
8.68046643205609
 30
0.0
 10
12.0
 20
8.67735344136921
 30
0.0
1001
PE_URL
1000

  0
SPLINE
  5
9F
330
1F
100
AcDbEntity
  8
0
  6
Continuous
 62
     1
370
    15
100
AcDbSpline
210
0.0
220
0.0
230
1.0
 70
     8
 71
     3
 72
    32
 73
    28
 74
     0
 42
0.000000001
 43
0.00000001
 40
0.0
 40
0.0
 40
0.0
 40
0.0
 40
0.049700691582551
 40
0.090303175986702
 40
0.1234814475420963
 40
0.1384787196109482
 40
0.1532334887429685
 40
0.2092107076729124
 40
0.2597159595456517
 40
0.2903278114869579
 40
0.322351466101969
 40
0.3687891846562804
 40
0.4124229742939707
 40
0.4484154276664455
 40
0.4871550393084442
 40
0.5464233307097035
 40
0.611528736580307
 40
0.6710074531500759
 40
0.725596725157269
 40
0.7790389395219639
 40
0.8050385925332261
 40
0.8268157198277921
 40
0.8487224255935049
 40
0.8743742800737987
 40
0.9057309478538681
 40
0.9474057635960819
 40
1.0
 40
1.0
 40
1.0
 40
1.0
 10
45.97153672060328
 20
7.600422930998307
 30
0.0
 10
45.74489742744755
 20
7.578440037273659
 30
0.0
 10
45.33310742365354
 20
7.538498437720323
 30
0.0
 10
44.6576523901668
 20
7.464765329110306
 30
0.0
 10
44.08411155558014
 20
7.421046215694879
 30
0.0
 10
43.65177163468876
 20
7.402110447359188
 30
0.0
 10
43.07952997531747
 20
7.389314656294214
 30
0.0
 10
42.26984589656132
 20
7.365805464428361
 30
0.0
 10
41.32924105958428
 20
7.337238875138996
 30
0.0
 10
40.56750726050794
 20
7.321715034398912
 30
0.0
 10
39.85802401490491
 20
7.313170613364749
 30
0.0
 10
39.05115818434349
 20
7.311602798225484
 30
0.0
 10
38.22021060353548
 20
7.319870567965177
 30
0.0
 10
37.43891638593314
 20
7.335738219924975
 30
0.0
 10
36.55525754866677
 20
7.362378628426381
 30
0.0
 10
35.47871621308359
 20
7.4085793731507
 30
0.0
 10
34.26383163061232
 20
7.479904057234465
 30
0.0
 10
33.08251487567571
 20
7.568281287047466
 30
0.0
 10
31.9789989093089
 20
7.666296023135291
 30
0.0
 10
31.08548139030179
 20
7.757110259002114
 30
0.0
 10
30.41544894589886
 20
7.831905302582088
 30
0.0
 10
29.97626317742149
 20
7.883471802664633
 30
0.0
 10
29.52366687692052
 20
7.938597402070401
 30
0.0
 10
28.98986232851529
 20
8.00683898594355
 30
0.0
 10
28.32290446941351
 20
8.095181813525432
 30
0.0
 10
27.49675191141635
 20
8.212484524281447
 30
0.0
 10
26.89426500407438
 20
8.305946655664847
 30
0.0
 10
26.5581277658863
 20
8.358090697859872
 30
0.0
1001
PE_URL
1000

  0
SPLINE
  5
A0
330
1F
100
AcDbEntity
  8
0
  6
Continuous
 62
     1
370
    15
100
AcDbSpline
210
0.0
220
0.0
230
1.0
 70
     8
 71
     3
 72
    19
 73
    15
 74
     0
 42
0.000000001
 43
0.00000001
 40
0.0
 40
0.0
 40
0.0
 40
0.0
 40
0.0812880142025597
 40
0.1640726016301637
 40
0.2433300113712321
 40
0.316128233733405
 40
0.3814454017110201
 40
0.4447637786950936
 40
0.5087135530643767
 40
0.6282090804902705
 40
0.7392456080330959
 40
0.8369985797045781
 40
0.9365362344442099
 40
1.0
 40
1.0
 40
1.0
 40
1.0
 10
26.5581277658863
 20
-8.358090697859883
 30
0.0
 10
26.74092254742791
 20
-8.32827705408636
 30
0.0
 10
27.10987749935001
 20
-8.26810087502745
 30
0.0
 10
27.81869741334292
 20
-8.162616646341533
 30
0.0
 10
28.48791975388645
 20
-8.073542979115583
 30
0.0
 10
29.11411298908372
 20
-7.990502544053586
 30
0.0
 10
29.6832319083751
 20
-7.918816199671236
 30
0.0
 10
30.22115078651566
 20
-7.854255631883244
 30
0.0
 10
30.91258221101582
 20
-7.775844555445507
 30
0.0
 10
31.73791128606301
 20
-7.690009413288821
 30
0.0
 10
32.65753913863878
 20
-7.605188142262847
 30
0.0
 10
33.4976915041117
 20
-7.536804598446588
 30
0.0
 10
34.19790923689676
 20
-7.484125792969396
 30
0.0
 10
34.65926811981728
 20
-7.457398534539723
 30
0.0
 10
34.8388958306046
 20
-7.446992413784113
 30
0.0
1001
PE_URL
1000

  0
SPLINE
  5
A1
330
1F
100
AcDbEntity
  8
0
  6
Continuous
 62
     1
370
    15
100
AcDbSpline
210
0.0
220
0.0
230
1.0
 70
     8
 71
     3
 72
    11
 73
     7
 74
     0
 42
0.000000001
 43
0.00000001
 40
0.0
 40
0.0
 40
0.0
 40
0.0
 40
0.1991278213294126
 40
0.4319982054963127
 40
0.6993453011589921
 40
1.0
 40
1.0
 40
1.0
 40
1.0
 10
11.99999999999999
 20
-8.677353441369224
 30
0.0
 10
12.3780853283435
 20
-8.678977300943444
 30
0.0
 10
13.19832321513623
 20
-8.682500185979599
 30
0.0
 10
14.5156899067663
 20
-8.706304090577746
 30
0.0
 10
16.01661424804687
 20
-8.750914767419765
 30
0.0
 10
17.07554505686067
 20
-8.802904304137492
 30
0.0
 10
17.6360582920267
 20
-8.830423404703733
 30
0.0
1001
PE_URL
1000

  0
SPLINE
  5
A2
330
1F
100
AcDbEntity
  8
외형선
  6
Continuous
370
    15
100
AcDbSpline
210
0.0
220
0.0
230
1.0
 70
     8
 71
     3
 72
    10
 73
     6
 74
     0
 42
0.000000001
 43
0.00000001
 40
0.0
 40
0.0
 40
0.0
 40
0.0
 40
0.5000000000000002
 40
0.5000000000000002
 40
1.0
 40
1.0
 40
1.0
 40
1.0
 10
11.99999999999999
 20
7.407747411205945
 30
0.0
 10
11.49097887779417
 20
7.626614568170749
 30
0.0
 10
10.98112237716318
 20
7.83783110308153
 30
0.0
 10
9.964535296220916
 20
8.242998643685745
 30
0.0
 10
9.458813718985583
 20
8.436844371813407
 30
0.0
 10
8.950229989860562
 20
8.622029980079358
 30
0.0
  0
LINE
  5
A3
330
1F
100
AcDbEntity
  8
외형선
  6
Continuous
370
    15
100
AcDbLine
 10
12.0
 20
7.407747411205943
 30
0.0
 11
12.0
 21
4.83194216973582
 31
0.0
  0
SPLINE
  5
A4
330
1F
100
AcDbEntity
  8
외형선
  6
Continuous
370
    15
100
AcDbSpline
210
0.0
220
0.0
230
1.0
 70
     8
 71
     3
 72
    10
 73
     6
 74
     0
 42
0.000000001
 43
0.00000001
 40
0.0
 40
0.0
 40
0.0
 40
0.0
 40
0.5
 40
0.5
 40
1.0
 40
1.0
 40
1.0
 40
1.0
 10
11.99999999999999
 20
4.831942169735822
 30
0.0
 10
11.49095925262439
 20
5.096364493470368
 30
0.0
 10
10.98108306252866
 20
5.355862350573908
 30
0.0
 10
9.964457028160977
 20
5.862582882343799
 30
0.0
 10
9.458715881152306
 20
6.10965802597463
 30
0.0
 10
8.95011233999975
 20
6.35055006274721
 30
0.0
  0
LINE
  5
A5
330
1F
100
AcDbEntity
  8
외형선
  6
Continuous
370
    15
100
AcDbLine
 10
8.950112339999743
 20
8.622330425969302
 30
0.0
 11
8.950112339999734
 21
11.11249999999999
 31
0.0
  0
LINE
  5
A6
330
1F
100
AcDbEntity
  8
외형선
  6
Continuous
370
    15
100
AcDbLine
 10
-44.14999999999999
 20
11.11249999999999
 30
0.0
 11
-44.14999999999999
 21
-11.11250000000001
 31
0.0
  0
LINE
  5
A7
330
1F
100
AcDbEntity
  8
외형선
  6
Continuous
370
    15
100
AcDbLine
 10
8.950112339999734
 20
-11.11250000000001
 30
0.0
 11
8.95011233999975
 21
6.350551453890632
 31
0.0
  0
LINE
  5
A8
330
1F
100
AcDbEntity
  8
외형선
  6
Continuous
370
    15
100
AcDbLine
 10
-45.14999999999999
 20
10.11249999999999
 30
0.0
 11
-45.14999999999999
 21
-10.11250000000001
 31
0.0
  0
SPLINE
  5
A9
330
1F
100
AcDbEntity
  8
외형선
  6
Continuous
370
    15
100
AcDbSpline
210
0.0
220
0.0
230
1.0
 70
    24
 71
     3
 72
    10
 73
     6
 74
     0
 42
0.000000001
 43
0.00000001
 40
0.0
 40
0.0
 40
0.0
 40
0.0
 40
0.5
 40
0.5
 40
1.0
 40
1.0
 40
1.0
 40
1.0
 10
12.0
 20
4.831942169735818
 30
0.0
 10
12.0
 20
4.741428194083579
 30
0.0
 10
12.0
 20
4.534468936711312
 30
0.0
 10
12.0
 20
3.926966611916774
 30
0.0
 10
12.0
 20
3.528777107320647
 30
0.0
 10
12.0
 20
3.091561556538157
 30
0.0
  0
SPLINE
  5
AA
330
1F
100
AcDbEntity
  8
외형선
  6
Continuous
370
    15
100
AcDbSpline
210
0.0
220
0.0
230
1.0
 70
     8
 71
     3
 72
    10
 73
     6
 74
     0
 42
0.000000001
 43
0.00000001
 40
0.0
 40
0.0
 40
0.0
 40
0.0
 40
0.5
 40
0.5
 40
1.0
 40
1.0
 40
1.0
 40
1.0
 10
11.99999999999999
 20
3.091561556538162
 30
0.0
 10
11.49096398109223
 20
3.280172771215804
 30
0.0
 10
10.98109253495574
 20
3.465643871076433
 30
0.0
 10
9.964475885982576
 20
3.828570674967214
 30
0.0
 10
9.45873945410284
 20
4.005919376506165
 30
0.0
 10
8.950140686438287
 20
4.179226842907919
 30
0.0
  0
SPLINE
  5
AB
330
1F
100
AcDbEntity
  8
외형선
  6
Continuous
370
    15
100
AcDbSpline
210
0.0
220
0.0
230
1.0
 70
     8
 71
     3
 72
    10
 73
     6
 74
     0
 42
0.000000001
 43
0.00000001
 40
0.0
 40
0.0
 40
0.0
 40
0.0
 40
0.5
 40
0.5
 40
1.0
 40
1.0
 40
1.0
 40
1.0
 10
11.99999999999999
 20
-8.157726670497375
 30
0.0
 10
11.49096641940054
 20
-8.06436726576737
 30
0.0
 10
10.98109741956067
 20
-7.962400064550001
 30
0.0
 10
9.964485610313542
 20
-7.742233500574974
 30
0.0
 10
9.458751609861645
 20
-7.624135103264084
 30
0.0
 10
8.950155303721026
 20
-7.497966521888841
 30
0.0
  0
SPLINE
  5
AC
330
1F
100
AcDbEntity
  8
외형선
  6
Continuous
370
    15
100
AcDbSpline
210
0.0
220
0.0
230
1.0
 70
    24
 71
     3
 72
    14
 73
    10
 74
     0
 42
0.000000001
 43
0.00000001
 40
0.0
 40
0.0
 40
0.0
 40
0.0
 40
0.25
 40
0.25
 40
0.5
 40
0.5
 40
0.75
 40
0.75
 40
1.0
 40
1.0
 40
1.0
 40
1.0
 10
12.0
 20
3.091561556538156
 30
0.0
 10
12.0
 20
2.12566717052933
 30
0.0
 10
12.0
 20
1.105472076254885
 30
0.0
 10
12.0
 20
-0.9567277288386202
 30
0.0
 10
12.0
 20
-1.997772334493888
 30
0.0
 10
12.0
 20
-3.997095181905363
 30
0.0
 10
12.0
 20
-4.954308100860336
 30
0.0
 10
12.0
 20
-6.697082093066042
 30
0.0
 10
12.0
 20
-7.482131711942594
 30
0.0
 10
12.0
 20
-8.157726670497372
 30
0.0
  0
SPLINE
  5
AD
330
1F
100
AcDbEntity
  8
외형선
  6
Continuous
370
    15
100
AcDbSpline
210
0.0
220
0.0
230
1.0
 70
    24
 71
     3
 72
    14
 73
    10
 74
     0
 42
0.000000001
 43
0.00000001
 40
0.0
 40
0.0
 40
0.0
 40
0.0
 40
0.0645453061697868
 40
0.2459794996461765
 40
0.4326847489935098
 40
0.6193899983408431
 40
0.7833284972982645
 40
0.9472669962556859
 40
1.0
 40
1.0
 40
1.0
 40
1.0
 10
12.0
 20
8.667629223472233
 30
0.0
 10
12.0
 20
8.671695037469142
 30
0.0
 10
12.0
 20
8.687189686917122
 30
0.0
 10
12.0
 20
8.626688815006862
 30
0.0
 10
12.0
 20
8.48284906168045
 30
0.0
 10
12.0
 20
8.255292891322519
 30
0.0
 10
12.0
 20
7.959356144952436
 30
0.0
 10
12.0
 20
7.703262200006989
 30
0.0
 10
12.0
 20
7.520666175398086
 30
0.0
 10
12.0
 20
7.476226381842709
 30
0.0
  0
SPLINE
  5
AE
330
1F
100
AcDbEntity
  8
외형선
  6
Continuous
370
    15
100
AcDbSpline
210
0.0
220
0.0
230
1.0
 70
    24
 71
     3
 72
    10
 73
     6
 74
     0
 42
0.000000001
 43
0.00000001
 40
0.0
 40
0.0
 40
0.0
 40
0.0
 40
0.4045304211907553
 40
0.8090608423815105
 40
1.0
 40
1.0
 40
1.0
 40
1.0
 10
12.0
 20
-8.157726670497375
 30
0.0
 10
12.0
 20
-8.275613865264354
 30
0.0
 10
12.0
 20
-8.511388254798305
 30
0.0
 10
12.0
 20
-8.65693489424006
 30
0.0
 10
12.0
 20
-8.66503259911201
 30
0.0
 10
12.0
 20
-8.667629153162654
 30
0.0
  0
SPLINE
  5
AF
330
1F
100
AcDbEntity
  8
0
  6
Continuous
 62
     1
370
    15
100
AcDbSpline
210
0.0
220
0.0
230
1.0
 70
     8
 71
     3
 72
    50
 73
    46
 74
     0
 42
0.000000001
 43
0.00000001
 40
0.0
 40
0.0
 40
0.0
 40
0.0
 40
0.0625000000000001
 40
0.0625000000000001
 40
0.1250000000000003
 40
0.1250000000000003
 40
0.1562500000000003
 40
0.1562500000000003
 40
0.1875000000000004
 40
0.1875000000000004
 40
0.2500000000000003
 40
0.2500000000000003
 40
0.2812500000000003
 40
0.2812500000000003
 40
0.3125000000000002
 40
0.3125000000000002
 40
0.3437500000000002
 40
0.3437500000000002
 40
0.3750000000000002
 40
0.3750000000000002
 40
0.4374999999999998
 40
0.4374999999999998
 40
0.4999999999999996
 40
0.4999999999999996
 40
0.5624999999999992
 40
0.5624999999999992
 40
0.5937499999999992
 40
0.5937499999999992
 40
0.6249999999999991
 40
0.6249999999999991
 40
0.6874999999999993
 40
0.6874999999999993
 40
0.7187499999999993
 40
0.7187499999999993
 40
0.7499999999999994
 40
0.7499999999999994
 40
0.7812499999999996
 40
0.7812499999999996
 40
0.8124999999999996
 40
0.8124999999999996
 40
0.8749999999999997
 40
0.8749999999999997
 40
0.9374999999999999
 40
0.9374999999999999
 40
1.0
 40
1.0
 40
1.0
 40
1.0
 10
50.10000000000001
 20
-11.10310788423941
 30
0.0
 10
49.30925155013441
 20
-11.08429388261009
 30
0.0
 10
48.51207819221349
 20
-11.03706699982466
 30
0.0
 10
46.92310038164948
 20
-10.88660281274129
 30
0.0
 10
46.1330576493957
 20
-10.78356795277192
 30
0.0
 10
44.9403191142536
 20
-10.58783879780454
 30
0.0
 10
44.54247473793089
 20
-10.51577249942561
 30
0.0
 10
43.74853898049227
 20
-10.35842772816313
 30
0.0
 10
43.3535107484644
 20
-10.27323606688021
 30
0.0
 10
42.16438549621027
 20
-9.99791522255234
 30
0.0
 10
41.3668296865231
 20
-9.787947541289167
 30
0.0
 10
40.1769732302466
 20
-9.436945199454293
 30
0.0
 10
39.78210731565305
 20
-9.314036526409936
 30
0.0
 10
38.98857238048691
 20
-9.05611359314463
 30
0.0
 10
38.59080675239726
 20
-8.92118148360688
 30
0.0
 10
37.79556039665091
 20
-8.640125562449079
 30
0.0
 10
37.39808112518384
 20
-8.494002275805492
 30
0.0
 10
36.60568615419399
 20
-8.191442124870061
 30
0.0
 10
36.21044065456923
 20
-8.034974820464118
 30
0.0
 10
35.01917819293438
 20
-7.549771551095544
 30
0.0
 10
34.22182855973159
 20
-7.205706581487702
 30
0.0
 10
32.63901201811046
 20
-6.484385074352459
 30
0.0
 10
31.8433286281625
 20
-6.105600899476181
 30
0.0
 10
30.25382725041117
 20
-5.319081494050319
 30
0.0
 10
29.46398201120485
 20
-4.912068050358657
 30
0.0
 10
28.2714529157114
 20
-4.28299917171126
 30
0.0
 10
27.87355599621111
 20
-4.070370506027486
 30
0.0
 10
27.07927144266283
 20
-3.640460521848169
 30
0.0
 10
26.68388645596202
 20
-3.423365451507852
 30
0.0
 10
25.49557005814865
 20
-2.765566623269238
 30
0.0
 10
24.69806706693003
 20
-2.317867331104512
 30
0.0
 10
23.50755721683404
 20
-1.64023236266805
 30
0.0
 10
23.11265914700135
 20
-1.413533713620007
 30
0.0
 10
22.31957697258174
 20
-0.9579987654934571
 30
0.0
 10
21.92191628047284
 20
-0.7292605139518447
 30
0.0
 10
21.1266349056715
 20
-0.2711516747475612
 30
0.0
 10
20.72901567961699
 20
-0.0417819262441834
 30
0.0
 10
19.93609857839867
 20
0.416271953533023
 30
0.0
 10
19.54114554252886
 20
0.6448902013739886
 30
0.0
 10
18.35043209496613
 20
1.330199787873587
 30
0.0
 10
17.55295895927793
 20
1.785533609430818
 30
0.0
 10
15.96892572401648
 20
2.682723812997769
 30
0.0
 10
15.17456468387276
 20
3.126059436761442
 30
0.0
 10
13.58464414816233
 20
3.994741182931426
 30
0.0
 10
12.7948275070591
 20
4.419067291902852
 30
0.0
 10
11.99999999999998
 20
4.831942169735828
 30
0.0
1001
PE_URL
1000

  0
SPLINE
  5
B0
330
1F
100
AcDbEntity
  8
0
  6
Continuous
 62
     1
370
    15
100
AcDbSpline
210
0.0
220
0.0
230
1.0
 70
     8
 71
     3
 72
    11
 73
     7
 74
     0
 42
0.000000001
 43
0.00000001
 40
0.0
 40
0.0
 40
0.0
 40
0.0
 40
0.3102784338586806
 40
0.5403586627826317
 40
0.7702445952605136
 40
1.0
 40
1.0
 40
1.0
 40
1.0
 10
22.49426820188883
 20
-1.058004266236034
 30
0.0
 10
21.40882273008686
 20
-0.6205885571702622
 30
0.0
 10
19.51848876013547
 20
0.1411832640016536
 30
0.0
 10
16.82391103045633
 20
1.226898531509507
 30
0.0
 10
14.41131710989481
 20
2.182747354584945
 30
0.0
 10
12.80362018678325
 20
2.788680846353685
 30
0.0
 10
12.0
 20
3.091561556538157
 30
0.0
1001
PE_URL
1000

  0
SPLINE
  5
B1
330
1F
100
AcDbEntity
  8
외형선
  6
Continuous
370
    15
100
AcDbSpline
210
0.0
220
0.0
230
1.0
 70
    24
 71
     3
 72
    10
 73
     6
 74
     0
 42
0.000000001
 43
0.00000001
 40
0.0
 40
0.0
 40
0.0
 40
0.0
 40
0.5
 40
0.5
 40
1.0
 40
1.0
 40
1.0
 40
1.0
 10
12.0
 20
4.831942169735818
 30
0.0
 10
12.0
 20
4.741428194083579
 30
0.0
 10
12.0
 20
4.534468936711312
 30
0.0
 10
12.0
 20
3.926966611916774
 30
0.0
 10
12.0
 20
3.528777107320647
 30
0.0
 10
12.0
 20
3.091561556538157
 30
0.0
  0
SPLINE
  5
B2
330
1F
100
AcDbEntity
  8
0
  6
Continuous
 62
     1
370
    15
100
AcDbSpline
210
0.0
220
0.0
230
1.0
 70
     8
 71
     3
 72
    50
 73
    46
 74
     0
 42
0.000000001
 43
0.00000001
 40
0.0
 40
0.0
 40
0.0
 40
0.0
 40
0.0625000000000004
 40
0.0625000000000004
 40
0.1250000000000009
 40
0.1250000000000009
 40
0.1562500000000011
 40
0.1562500000000011
 40
0.1875000000000013
 40
0.1875000000000013
 40
0.2500000000000016
 40
0.2500000000000016
 40
0.2812500000000016
 40
0.2812500000000016
 40
0.3125000000000016
 40
0.3125000000000016
 40
0.3437500000000016
 40
0.3437500000000016
 40
0.3750000000000015
 40
0.3750000000000015
 40
0.4375000000000015
 40
0.4375000000000015
 40
0.5000000000000014
 40
0.5000000000000014
 40
0.5625000000000016
 40
0.5625000000000016
 40
0.5937500000000014
 40
0.5937500000000014
 40
0.6250000000000013
 40
0.6250000000000013
 40
0.687500000000001
 40
0.687500000000001
 40
0.7187500000000009
 40
0.7187500000000009
 40
0.7500000000000007
 40
0.7500000000000007
 40
0.7812500000000006
 40
0.7812500000000006
 40
0.8125000000000004
 40
0.8125000000000004
 40
0.8750000000000003
 40
0.8750000000000003
 40
0.9375000000000002
 40
0.9375000000000002
 40
1.0
 40
1.0
 40
1.0
 40
1.0
 10
50.10000000000001
 20
-10.54510540933949
 30
0.0
 10
49.30925155013433
 20
-10.40072170757811
 30
0.0
 10
48.51207819221337
 20
-10.2290115703148
 30
0.0
 10
46.92310038164922
 20
-9.834618404595279
 30
0.0
 10
46.13305764939538
 20
-9.612217098153781
 30
0.0
 10
44.94031911425317
 20
-9.241990179065063
 30
0.0
 10
44.54247473793041
 20
-9.112568108443138
 30
0.0
 10
43.7485389804917
 20
-8.842458575899428
 30
0.0
 10
43.35351074846383
 20
-8.701906001882751
 30
0.0
 10
42.16438549620959
 20
-8.263421082356583
 30
0.0
 10
41.36682968652235
 20
-7.948618473060897
 30
0.0
 10
40.17697323024576
 20
-7.448078544378065
 30
0.0
 10
39.78210731565217
 20
-7.27663138060706
 30
0.0
 10
38.98857238048596
 20
-6.924134490137115
 30
0.0
 10
38.59080675239626
 20
-6.743206374348992
 30
0.0
 10
37.79556039664986
 20
-6.37301023564274
 30
0.0
 10
37.39808112518277
 20
-6.18374289834776
 30
0.0
 10
36.60568615419285
 20
-5.797983682122829
 30
0.0
 10
36.21044065456805
 20
-5.601446470012419
 30
0.0
 10
35.0191781929331
 20
-5.000580227630672
 30
0.0
 10
34.22182855973023
 20
-4.585637760450289
 30
0.0
 10
32.63901201810899
 20
-3.736599053985753
 30
0.0
 10
31.84332862816096
 20
-3.300693833376528
 30
0.0
 10
30.25382725040949
 20
-2.414587340957707
 30
0.0
 10
29.4639820112031
 20
-1.965160262798513
 30
0.0
 10
28.27145291570954
 20
-1.283762208337951
 30
0.0
 10
27.87355599620921
 20
-1.055590398997802
 30
0.0
 10
27.07927144266087
 20
-0.5984796310294463
 30
0.0
 10
26.68388645596004
 20
-0.369734472559349
 30
0.0
 10
25.49557005814655
 20
0.3171848860374611
 30
0.0
 10
24.69806706692784
 20
0.7765062060515772
 30
0.0
 10
23.50755721683178
 20
1.459665639544778
 30
0.0
 10
23.11265914699906
 20
1.686230373420592
 30
0.0
 10
22.31957697257937
 20
2.137549331574237
 30
0.0
 10
21.92191628047043
 20
2.36220121192428
 30
0.0
 10
21.12663490566904
 20
2.808193083266595
 30
0.0
 10
20.72901567961448
 20
3.02953225781558
 30
0.0
 10
19.93609857839611
 20
3.467638539311326
 30
0.0
 10
19.54114554252625
 20
3.684347669641761
 30
0.0
 10
18.35043209496342
 20
4.328081877304138
 30
0.0
 10
17.55295895927514
 20
4.747907969360861
 30
0.0
 10
15.96892572401358
 20
5.55934758733859
 30
0.0
 10
15.17456468386978
 20
5.952315454212582
 30
0.0
 10
13.58464414815921
 20
6.706065556462296
 30
0.0
 10
12.79482750705592
 20
7.065990204760626
 30
0.0
 10
11.99999999999674
 20
7.407747411207346
 30
0.0
1001
PE_URL
1000

  0
SPLINE
  5
B3
330
1F
100
AcDbEntity
  8
0
  6
Continuous
 62
     1
370
    15
100
AcDbSpline
210
0.0
220
0.0
230
1.0
 70
     8
 71
     3
 72
    19
 73
    15
 74
     0
 42
0.000000001
 43
0.00000001
 40
0.0
 40
0.0
 40
0.0
 40
0.0
 40
0.0892310466557505
 40
0.1783944186271907
 40
0.267549820412925
 40
0.3567570196985802
 40
0.4460071052826446
 40
0.5351826897946261
 40
0.6243343682422248
 40
0.7135219378374861
 40
0.8027772299181408
 40
0.8919692624446359
 40
0.9811214665010629
 40
1.0
 40
1.0
 40
1.0
 40
1.0
 10
50.10000000000001
 20
-8.767454287791807
 30
0.0
 10
49.24225724419645
 20
-8.595825739332124
 30
0.0
 10
47.52742226256065
 20
-8.252698809078634
 30
0.0
 10
44.95600536740488
 20
-7.548682249212797
 30
0.0
 10
42.38482203381493
 20
-6.721304039501931
 30
0.0
 10
39.8125593171801
 20
-5.771127411387297
 30
0.0
 10
37.23974973833792
 20
-4.719394868870692
 30
0.0
 10
34.6680299782721
 20
-3.582597366920654
 30
0.0
 10
32.09695321053198
 20
-2.382056142652603
 30
0.0
 10
29.52500114894876
 20
-1.139211213277836
 30
0.0
 10
26.95213214702808
 20
0.1243218652935218
 30
0.0
 10
24.38008916954407
 20
1.381753358807768
 30
0.0
 10
22.48462934334377
 20
2.30356895230184
 30
0.0
 10
21.44629934830539
 20
2.780857083313848
 30
0.0
 10
21.2648496235524
 20
2.864263900427704
 30
0.0
1001
PE_URL
1000

  0
LINE
  5
B4
330
1F
100
AcDbEntity
  8
0
  6
Continuous
 62
     1
370
    15
100
AcDbLine
 10
50.09999999999972
 20
-10.5451054093395
 30
0.0
 11
50.10000000000001
 21
-8.767454287791807
 31
0.0
1001
PE_URL
1000

  0
LINE
  5
B5
330
1F
100
AcDbEntity
  8
0
  6
Continuous
 62
     1
370
    15
100
AcDbLine
 10
50.10000000000001
 20
-11.10310788423941
 30
0.0
 11
50.09999999999967
 21
-10.54510540933947
 31
0.0
1001
PE_URL
1000

  0
SPLINE
  5
B6
330
1F
100
AcDbEntity
  8
0
  6
Continuous
 62
     1
370
    15
100
AcDbSpline
210
0.0
220
0.0
230
1.0
 70
     8
 71
     3
 72
    10
 73
     6
 74
     0
 42
0.000000001
 43
0.00000001
 40
0.0
 40
0.0
 40
0.0
 40
0.0
 40
0.5
 40
0.5
 40
1.0
 40
1.0
 40
1.0
 40
1.0
 10
50.10000000000001
 20
-2.969737237754435
 30
0.0
 10
49.24442494795397
 20
-2.297114754807905
 30
0.0
 10
48.3999476495667
 20
-1.604994341207406
 30
0.0
 10
46.73286042874513
 20
-0.1823341551859033
 30
0.0
 10
45.91023187812836
 20
0.5481728888990787
 30
0.0
 10
45.10000000000154
 20
1.300459967753439
 30
0.0
1001
PE_URL
1000

  0
LINE
  5
B7
330
1F
100
AcDbEntity
  8
0
  6
Continuous
 62
     1
370
    15
100
AcDbLine
 10
45.10000000000001
 20
2.937719435296585
 30
0.0
 11
50.10000000000001
 21
-0.0000000000000008
 31
0.0
1001
PE_URL
1000

  0
LINE
  5
B8
330
1F
100
AcDbEntity
  8
0
  6
Continuous
 62
     1
370
    15
100
AcDbLine
 10
50.10000000000001
 20
-0.0000000000000008
 30
0.0
 11
50.10000000000001
 21
-2.96973723775443
 31
0.0
1001
PE_URL
1000

  0
SPLINE
  5
B9
330
1F
100
AcDbEntity
  8
0
  6
Continuous
 62
     1
370
    15
100
AcDbSpline
210
0.0
220
0.0
230
1.0
 70
     8
 71
     3
 72
    18
 73
    14
 74
     0
 42
0.000000001
 43
0.00000001
 40
0.0
 40
0.0
 40
0.0
 40
0.0
 40
0.0962256819453547
 40
0.1925016842610978
 40
0.2862041159987418
 40
0.3798272381749722
 40
0.4734249087982543
 40
0.567060784785304
 40
0.6607687574643943
 40
0.754409391764833
 40
0.8480076228366605
 40
0.9416271031282032
 40
1.0
 40
1.0
 40
1.0
 40
1.0
 10
45.09999999999955
 20
2.283536363151322
 30
0.0
 10
44.21908774452606
 20
2.672741792268163
 30
0.0
 10
42.45680256829638
 20
3.451356182043057
 30
0.0
 10
39.83650589789853
 20
4.532694162438663
 30
0.0
 10
37.23974676719598
 20
5.52378133498758
 30
0.0
 10
34.66800545469064
 20
6.407122333882336
 30
0.0
 10
32.09691387634894
 20
7.176234102297047
 30
0.0
 10
29.52494727448997
 20
7.817494892054845
 30
0.0
 10
26.95210312755011
 20
8.3186034024347
 30
0.0
 10
24.38006300772268
 20
8.673343129716649
 30
0.0
 10
21.80895129186691
 20
8.867430832179341
 30
0.0
 10
19.56069385157829
 20
8.918240857266927
 30
0.0
 10
18.16903137309232
 20
8.843513233861664
 30
0.0
 10
17.63456134339004
 20
8.814813979754845
 30
0.0
1001
PE_URL
1000

  0
SPLINE
  5
BA
330
1F
100
AcDbEntity
  8
0
  6
Continuous
 62
     1
370
    15
100
AcDbSpline
210
0.0
220
0.0
230
1.0
 70
    24
 71
     3
 72
     8
 73
     4
 74
     0
 42
0.000000001
 43
0.00000001
 40
0.0
 40
0.0
 40
0.0
 40
0.0
 40
1.0
 40
1.0
 40
1.0
 40
1.0
 10
45.10000000000002
 20
1.300459967734661
 30
0.0
 10
45.10000000000002
 20
1.631923426792381
 30
0.0
 10
45.10000000000001
 20
1.960107858705637
 30
0.0
 10
45.10000000000001
 20
2.283536363151121
 30
0.0
1001
PE_URL
1000

  0
SPLINE
  5
BB
330
1F
100
AcDbEntity
  8
0
  6
Continuous
 62
     1
370
    15
100
AcDbSpline
210
0.0
220
0.0
230
1.0
 70
    24
 71
     3
 72
    10
 73
     6
 74
     0
 42
0.000000001
 43
0.00000001
 40
0.0
 40
0.0
 40
0.0
 40
0.0
 40
0.5
 40
0.5
 40
1.0
 40
1.0
 40
1.0
 40
1.0
 10
50.10000000000001
 20
-8.767454287791804
 30
0.0
 10
50.10000000000001
 20
-8.095360560304783
 30
0.0
 10
50.10000000000001
 20
-7.246144364910639
 30
0.0
 10
50.10000000000001
 20
-5.271798438561937
 30
0.0
 10
50.10000000000001
 20
-4.148378960907688
 30
0.0
 10
50.10000000000001
 20
-2.96973723775479
 30
0.0
1001
PE_URL
1000

  0
SPLINE
  5
BC
330
1F
100
AcDbEntity
  8
외형선
  6
Continuous
370
    15
100
AcDbSpline
210
0.0
220
0.0
230
1.0
 70
    24
 71
     3
 72
    14
 73
    10
 74
     0
 42
0.000000001
 43
0.00000001
 40
0.0
 40
0.0
 40
0.0
 40
0.0
 40
0.064673047972051
 40
0.2460824655495974
 40
0.4327622192046207
 40
0.6194419728596441
 40
0.7833580850574977
 40
0.9472741972553513
 40
1.0
 40
1.0
 40
1.0
 40
1.0
 10
12.0
 20
8.667610682784733
 30
0.0
 10
12.0
 20
8.671686820767242
 30
0.0
 10
12.0
 20
8.68719662146643
 30
0.0
 10
12.0
 20
8.6266934330175
 30
0.0
 10
12.0
 20
8.482847803717508
 30
0.0
 10
12.0
 20
8.255293183657553
 30
0.0
 10
12.0
 20
7.959356068736841
 30
0.0
 10
12.0
 20
7.703262205087385
 30
0.0
 10
12.0
 20
7.520666176392517
 30
0.0
 10
12.0
 20
7.476226381842709
 30
0.0
  0
SPLINE
  5
BD
330
1F
100
AcDbEntity
  8
0
  6
Continuous
 62
     1
370
    15
100
AcDbSpline
210
0.0
220
0.0
230
1.0
 70
    24
 71
     3
 72
    10
 73
     6
 74
     0
 42
0.000000001
 43
0.00000001
 40
0.0
 40
0.0
 40
0.0
 40
0.0
 40
0.5
 40
0.5
 40
1.0
 40
1.0
 40
1.0
 40
1.0
 10
45.10000000000001
 20
2.283536363151122
 30
0.0
 10
45.09999999999999
 20
3.059531527112041
 30
0.0
 10
45.10000000000002
 20
3.796003738630709
 30
0.0
 10
45.10000000000001
 20
5.109618802043816
 30
0.0
 10
45.10000000000001
 20
5.685937379830186
 30
0.0
 10
45.10000000000001
 20
6.150941962892345
 30
0.0
1001
PE_URL
1000

  0
SPLINE
  5
BE
330
1F
100
AcDbEntity
  8
0
  6
Continuous
 62
     1
370
    15
100
AcDbSpline
210
0.0
220
0.0
230
1.0
 70
     8
 71
     3
 72
     9
 73
     5
 74
     0
 42
0.000000001
 43
0.00000001
 40
0.0
 40
0.0
 40
0.0
 40
0.0
 40
0.8301481652002786
 40
1.0
 40
1.0
 40
1.0
 40
1.0
 10
50.10000000000001
 20
7.778749999999991
 30
0.0
 10
48.95699869187575
 20
7.771239159712299
 30
0.0
 10
47.58013446927222
 20
7.76219156965242
 30
0.0
 10
46.20326845618121
 20
7.607169647030361
 30
0.0
 10
45.9694052375843
 20
7.580838889038823
 30
0.0
1001
PE_URL
1000

  0
SPLINE
  5
BF
330
1F
100
AcDbEntity
  8
0
  6
Continuous
 62
     1
370
    15
100
AcDbSpline
210
0.0
220
0.0
230
1.0
 70
     8
 71
     3
 72
     8
 73
     4
 74
     0
 42
0.000000001
 43
0.00000001
 40
0.0
 40
0.0
 40
0.0
 40
0.0
 40
1.0
 40
1.0
 40
1.0
 40
1.0
 10
50.10000000000001
 20
7.778749999999996
 30
0.0
 10
48.41749199506563
 20
7.322596428023165
 30
0.0
 10
46.74835003005506
 20
6.785187056975842
 30
0.0
 10
45.10000000000002
 20
6.150941962891933
 30
0.0
1001
PE_URL
1000

  0
SPLINE
  5
C0
330
1F
100
AcDbEntity
  8
0
  6
Continuous
 62
     1
370
    15
100
AcDbSpline
210
0.0
220
0.0
230
1.0
 70
     8
 71
     3
 72
    13
 73
     9
 74
     0
 42
0.000000001
 43
0.00000001
 40
0.0
 40
0.0
 40
0.0
 40
0.0
 40
0.1497432754111842
 40
0.3262991586687312
 40
0.5028951246790436
 40
0.6687182178052195
 40
0.8344049200433643
 40
1.0
 40
1.0
 40
1.0
 40
1.0
 10
26.55999933575499
 20
-8.347954830036855
 30
0.0
 10
25.83322070896046
 20
-8.455966466679339
 30
0.0
 10
24.24952852772372
 20
-8.691329998471321
 30
0.0
 10
21.80895565928552
 20
-8.868473252499221
 30
0.0
 10
19.29031714986168
 20
-8.911942455427344
 30
0.0
 10
16.82386640885234
 20
-8.800561332019765
 30
0.0
 10
14.41130847969531
 20
-8.563593114334058
 30
0.0
 10
12.80362128106818
 20
-8.29299053834552
 30
0.0
 10
12.0
 20
-8.157726670497375
 30
0.0
1001
PE_URL
1000

  0
SPLINE
  5
C1
330
1F
100
AcDbEntity
  8
외형선
  6
Continuous
370
    15
100
AcDbSpline
210
0.0
220
0.0
230
1.0
 70
    24
 71
     3
 72
    14
 73
    10
 74
     0
 42
0.000000001
 43
0.00000001
 40
0.0
 40
0.0
 40
0.0
 40
0.0
 40
0.25
 40
0.25
 40
0.5
 40
0.5
 40
0.75
 40
0.75
 40
1.0
 40
1.0
 40
1.0
 40
1.0
 10
12.0
 20
3.091561556538156
 30
0.0
 10
12.0
 20
2.12566717052933
 30
0.0
 10
12.0
 20
1.105472076254885
 30
0.0
 10
12.0
 20
-0.9567277288386202
 30
0.0
 10
12.0
 20
-1.997772334493888
 30
0.0
 10
12.0
 20
-3.997095181905363
 30
0.0
 10
12.0
 20
-4.954308100860336
 30
0.0
 10
12.0
 20
-6.697082093066042
 30
0.0
 10
12.0
 20
-7.482131711942594
 30
0.0
 10
12.0
 20
-8.157726670497372
 30
0.0
  0
LINE
  5
C2
330
1F
100
AcDbEntity
  8
0
  6
Continuous
 62
     1
370
    15
100
AcDbLine
 10
50.10000000000001
 20
-0.0000000000000008
 30
0.0
 11
50.10000000000001
 21
7.778749999999997
 31
0.0
1001
PE_URL
1000

  0
SPLINE
  5
C3
330
1F
100
AcDbEntity
  8
외형선
  6
Continuous
370
    15
100
AcDbSpline
210
0.0
220
0.0
230
1.0
 70
    24
 71
     3
 72
    10
 73
     6
 74
     0
 42
0.000000001
 43
0.00000001
 40
0.0
 40
0.0
 40
0.0
 40
0.0
 40
0.4048732201621056
 40
0.8097464403242113
 40
1.0
 40
1.0
 40
1.0
 40
1.0
 10
12.0
 20
-8.157726670497379
 30
0.0
 10
12.0
 20
-8.275609162642823
 30
0.0
 10
12.0
 20
-8.511374146933719
 30
0.0
 10
12.0
 20
-8.656855629854071
 30
0.0
 10
12.0
 20
-8.66496601430579
 30
0.0
 10
12.0
 20
-8.667558788760832
 30
0.0
  0
SPLINE
  5
C4
330
1F
100
AcDbEntity
  8
0
  6
Continuous
 62
     1
370
    15
100
AcDbSpline
210
0.0
220
0.0
230
1.0
 70
     8
 71
     3
 72
    13
 73
     9
 74
     0
 42
0.000000001
 43
0.00000001
 40
0.0
 40
0.0
 40
0.0
 40
0.0
 40
0.0843123351369832
 40
0.2674521732028575
 40
0.4505508493193843
 40
0.633648386826133
 40
0.8167848136880488
 40
1.0
 40
1.0
 40
1.0
 40
1.0
 10
34.84449860240129
 20
7.449397268765413
 30
0.0
 10
35.27328213126346
 20
7.636872722178181
 30
0.0
 10
36.63345186729856
 20
8.231574759026895
 30
0.0
 10
38.92450935984668
 20
9.058834569593628
 30
0.0
 10
41.71782665450542
 20
9.911001183846931
 30
0.0
 10
44.51111310332708
 20
10.54143167397296
 30
0.0
 10
47.30508951737485
 20
10.96925141072045
 30
0.0
 10
49.16822965783506
 20
11.05848266532556
 30
0.0
 10
50.10000000000001
 20
11.10310788423941
 30
0.0
1001
PE_URL
1000

  0
SPLINE
  5
C5
330
1F
100
AcDbEntity
  8
0
  6
Continuous
 62
     1
370
    15
100
AcDbSpline
210
0.0
220
0.0
230
1.0
 70
    24
 71
     3
 72
    10
 73
     6
 74
     0
 42
0.000000001
 43
0.00000001
 40
0.0
 40
0.0
 40
0.0
 40
0.0
 40
0.5
 40
0.5
 40
1.0
 40
1.0
 40
1.0
 40
1.0
 10
50.10000000000001
 20
7.778749999999993
 30
0.0
 10
50.10000000000001
 20
8.250278453771266
 30
0.0
 10
50.10000000000001
 20
8.798238185285832
 30
0.0
 10
50.09999999999999
 20
9.947856226177496
 30
0.0
 10
50.09999999999999
 20
10.54657855534385
 30
0.0
 10
50.10000000000001
 20
11.10310788423941
 30
0.0
1001
PE_URL
1000

  0
LINE
  5
C6
330
1F
100
AcDbEntity
  8
중심선
 62
     1
100
AcDbLine
 10
-52.14999999999999
 20
-0.0000000000000085
 30
0.0
 11
57.10000000000001
 21
0.0000000000000044
 31
0.0
  0
LINE
  5
C7
330
1F
100
AcDbEntity
  8
참조1
100
AcDbLine
 10
2.475000000000009
 20
-0.0000000000000104
 30
0.0
 11
2.475000000000014
 21
-40.00000000000001
 31
0.0
  0
LINE
  5
C8
330
1F
100
AcDbEntity
  8
참조1
100
AcDbLine
 10
2.475000000000014
 20
-40.00000000000001
 30
0.0
 11
-23.00006253529964
 21
-40.00000000000001
 31
0.0
  0
CIRCLE
  5
C9
330
1F
100
AcDbEntity
  8
해칭선
100
AcDbCircle
 10
0.0
 20
0.0
 30
0.0
 40
2.999999999999993
  0
INSERT
  5
CA
330
1F
100
AcDbEntity
  8
0
  6
Continuous
 62
     7
100
AcDbBlockReference
 66
     1
  2
블럭10
 10
-11.4652729321252
 20
-52.04717430164394
 30
0.0
  0
ATTRIB
  5
CB
330
CA
100
AcDbEntity
  8
FORMAT
 62
     2
100
AcDbText
 10
-20.64656822086648
 20
-49.97180738881175
 30
0.0
 40
4.233333333333333
  1
E1030056 [ 2 FLUTE ]
 41
0.75
  7
SLDTEXTSTYLE0
 11
-20.64656822086648
 21
-52.08847405547842
 31
0.0
100
AcDbAttribute
  2
AUTOATTR0
 70
     0
 74
     1
  0
SEQEND
  5
CC
330
CA
100
AcDbEntity
  8
0
  6
Continuous
 62
     7
  0
HATCH
  5
CD
330
1F
100
AcDbEntity
  8
중심선
100
AcDbHatch
 10
0.0
 20
0.0
 30
0.0
210
0.0
220
0.0
230
1.0
  2
SOLID
 70
     1
 71
     0
 91
        1
 92
        0
 93
        4
 72
     1
 10
-5.750363627744347
 20
-35.8
 11
-9.19663887158163
 21
-35.8
 72
     1
 10
-9.19663887158163
 20
-35.8
 11
-11.32486873078568
 21
-38.33632558057261
 72
     1
 10
-11.32486873078568
 20
-38.33632558057261
 11
-7.87856040183522
 21
-38.33628615127012
 72
     1
 10
-7.87856040183522
 20
-38.33628615127012
 11
-5.750363627744347
 21
-35.8
 97
        0
 75
     0
 76
     1
 98
        1
 10
-2.849261314031164
 20
-0.0010749287238996
  0
HATCH
  5
CE
330
1F
100
AcDbEntity
  8
중심선
100
AcDbHatch
 10
0.0
 20
0.0
 30
0.0
210
0.0
220
0.0
230
1.0
  2
SOLID
 70
     1
 71
     0
 91
        1
 92
        0
 93
        4
 72
     1
 10
-0.7375996367083957
 20
-35.80000000000003
 11
-4.183874880545678
 21
-35.8
 72
     1
 10
-4.183874880545678
 20
-35.8
 11
-8.715012888903066
 21
-41.20000000000002
 72
     1
 10
-8.715012888903066
 20
-41.20000000000002
 11
-5.268737645065784
 21
-41.20000000000002
 72
     1
 10
-5.268737645065784
 20
-41.20000000000002
 11
-0.7375996367083957
 21
-35.80000000000003
 97
        0
 75
     0
 76
     1
 98
        1
 10
-2.849261314031164
 20
-0.0010749287238996
  0
HATCH
  5
CF
330
1F
100
AcDbEntity
  8
중심선
100
AcDbHatch
 10
0.0
 20
0.0
 30
0.0
210
0.0
220
0.0
230
1.0
  2
SOLID
 70
     1
 71
     0
 91
        1
 92
        0
 93
        4
 72
     1
 10
4.275164354327528
 20
-35.8
 11
0.8288891104903842
 21
-35.8
 72
     1
 10
0.8288891104903842
 20
-35.8
 11
-6.219547791398865
 21
-44.20000000000002
 72
     1
 10
-6.219547791398865
 20
-44.20000000000002
 11
-2.773272547561583
 21
-44.20000000000002
 72
     1
 10
-2.773272547561583
 20
-44.20000000000002
 11
4.275164354327528
 21
-35.8
 97
        0
 75
     0
 76
     1
 98
        1
 10
-2.849261314031164
 20
-0.0010749287238996
  0
HATCH
  5
D0
330
1F
100
AcDbEntity
  8
중심선
100
AcDbHatch
 10
0.0
 20
0.0
 30
0.0
210
0.0
220
0.0
230
1.0
  2
SOLID
 70
     1
 71
     0
 91
        1
 92
        0
 93
        6
 72
     3
 10
9.075054785339699
 20
-40.00000000005128
 11
3.960054785062283
 21
1.540882976769353E-10
 40
0.3939339440162628
 50
17.09539180608436
 51
320.0019657685078
 73
     0
 72
     1
 10
10.75805444104032
 20
-38.58789400463828
 11
13.06335631474136
 21
-36.65356729459039
 72
     3
 10
9.075054785286852
 20
-40.00000000000016
 11
6.600054785286829
 21
-1.278976924368180E-13
 40
0.636358354079598
 50
39.99873849337385
 51
368.4976242363724
 73
     1
 72
     1
 10
15.50038727718746
 20
-39.03999999993003
 11
7.755122092122802
 21
-39.03999999993003
 72
     1
 10
7.755122092122802
 20
-39.03999999993003
 11
7.755097047676841
 21
-40.95999999992992
 72
     1
 10
7.755097047676841
 20
-40.95999999992992
 11
12.19647681714888
 21
-40.95999999992989
 97
        0
 75
     0
 76
     1
 98
        1
 10
-2.849261314031164
 20
-0.0010749287238996
  0
DIMENSION
  5
D1
330
1F
100
AcDbEntity
  8
치수문자_일반주서
100
AcDbDimension
  2
_D
 10
-60.14999999999991
 20
-11.11250000000007
 30
0.0
 11
-60.15000000000006
 21
31.48749999999994
 31
0.0
 70
   160
  1
%%c<>
 71
     2
 42
22.22499999999999
 52
-270.0
  3
SLDDIMSTYLE2
100
AcDbAlignedDimension
 13
-44.14999999999998
 23
11.11249999999999
 33
0.0
 14
-44.14999999999998
 24
-11.1125
 34
0.0
 50
90.0000000000002
100
AcDbRotatedDimension
1001
PE_URL
1000

1001
ACAD
1000
DSTYLE
1002
{
1070
   171
1070
     8
1070
   273
1070
     7
1070
    41
1040
4.0
1070
   140
1040
4.0
1002
}
1001
ACAD_DSTYLE_DIMFLIPARROW_SYMBOL
1070
   385
1070
     0
1001
ACAD_DSTYLE_DIMFLIPARROW_WHICH_SYMBOL
1070
   386
1070
     3
  0
DIMENSION
  5
E6
330
1F
100
AcDbEntity
  8
치수문자_일반주서
100
AcDbDimension
  2
_D_1
 10
12.0
 20
26.14890781833292
 30
0.0
 11
68.97500000000001
 21
26.14890781833292
 31
0.0
 70
   160
  1
<>
 71
     2
 42
38.10000000000001
  3
SLDDIMSTYLE2
100
AcDbAlignedDimension
 13
50.10000000000001
 23
11.10310788423941
 33
0.0
 14
12.0
 24
8.678282678455904
 34
0.0
100
AcDbRotatedDimension
1001
PE_URL
1000

1001
ACAD
1000
DSTYLE
1002
{
1070
   171
1070
     8
1070
   273
1070
     7
1070
    41
1040
4.0
1070
   140
1040
4.0
1002
}
1001
ACAD_DSTYLE_DIMFLIPARROW_SYMBOL
1070
   385
1070
     0
1001
ACAD_DSTYLE_DIMFLIPARROW_WHICH_SYMBOL
1070
   386
1070
     3
  0
DIMENSION
  5
FB
330
1F
100
AcDbEntity
  8
치수문자_일반주서
100
AcDbDimension
  2
_D_2
 10
-45.14999999999999
 20
41.1125
 30
0.0
 11
2.474999999999863
 21
41.1125
 31
0.0
 70
   160
  1
<>
 71
     2
 42
95.24999999999972
  3
SLDDIMSTYLE2
100
AcDbAlignedDimension
 13
50.09999999999972
 23
11.12281563666584
 33
0.0
 14
-45.14999999999999
 24
10.11249999999999
 34
0.0
 50
0.0000000000000043
100
AcDbRotatedDimension
1001
PE_URL
1000

1001
ACAD
1000
DSTYLE
1002
{
1070
   171
1070
     8
1070
   273
1070
     7
1070
    41
1040
4.0
1070
   140
1040
4.0
1002
}
  0
DIMENSION
  5
10F
330
1F
100
AcDbEntity
  8
치수문자_일반주서
100
AcDbDimension
  2
_D_3
 10
92.20103054305811
 20
11.10310788423956
 30
0.0
 11
92.20103054305805
 21
30.97810788423956
 31
0.0
 70
   160
  1
%%c<>
 71
     2
 42
22.20621576847882
 52
-270.0
  3
SLDDIMSTYLE2
100
AcDbAlignedDimension
 13
50.10000000000001
 23
-11.10310788423941
 33
0.0
 14
50.10000000000001
 24
11.10310788423941
 34
0.0
 50
90.0000000000002
100
AcDbRotatedDimension
1001
PE_URL
1000

1001
ACAD
1000
DSTYLE
1002
{
1070
   171
1070
     8
1070
   273
1070
     7
1070
    41
1040
4.0
1070
   140
1040
4.0
1002
}
  0
LINE
  5
122
330
1F
100
AcDbEntity
  8
참조1
100
AcDbLine
 10
74.97227809435462
 20
7.439999999999996
 30
0.0
 11
74.97227809435462
 21
-7.440000000000008
 31
0.0
  0
LINE
  5
123
330
1F
100
AcDbEntity
  8
참조1
100
AcDbLine
 10
87.67227809435462
 20
5.439999999999996
 30
0.0
 11
74.97227809435462
 21
5.439999999999996
 31
0.0
  0
SOLID
  5
124
330
1F
100
AcDbEntity
  8
참조1
100
AcDbTrace
 10
74.97227809435462
 20
5.439999999999996
 30
0.0
 11
81.32227809435462
 21
4.423999999999996
 31
0.0
 12
81.32227809435462
 22
6.455999999999996
 32
0.0
 13
81.32227809435462
 23
6.455999999999996
 33
0.0
  0
LINE
  5
125
330
1F
100
AcDbEntity
  8
참조1
100
AcDbLine
 10
87.67227809435462
 20
-5.440000000000008
 30
0.0
 11
74.97227809435462
 21
-5.440000000000008
 31
0.0
  0
SOLID
  5
126
330
1F
100
AcDbEntity
  8
참조1
100
AcDbTrace
 10
74.97227809435462
 20
-5.440000000000008
 30
0.0
 11
81.32227809435462
 21
-6.456000000000008
 31
0.0
 12
81.32227809435462
 22
-4.424000000000008
 32
0.0
 13
81.32227809435462
 23
-4.424000000000008
 33
0.0
  0
MTEXT
  5
127
330
1F
100
AcDbEntity
  8
참조1
100
AcDbMText
 10
84.35662822698062
 20
11.01029177718832
 30
0.0
 40
3.5
 41
0.0
 71
     1
 72
     1
  1
A
  7
SLDTEXTSTYLE0
 73
     1
 44
1.0
  0
MTEXT
  5
128
330
1F
100
AcDbEntity
  8
참조1
100
AcDbMText
 10
84.35662822698062
 20
0.1302917771883197
 30
0.0
 40
3.5
 41
0.0
 71
     1
 72
     1
  1
A
  7
SLDTEXTSTYLE0
 73
     1
 44
1.0
  0
INSERT
  5
12F
330
1F
100
AcDbEntity
  8
해칭선
100
AcDbBlockReference
  2
SW_DOWELSYMBOL_0
 10
0.0
 20
0.0
 30
0.0
  0
LINE
  5
1FF
330
1F
100
AcDbEntity
  8
외형선
  6
Continuous
370
    15
100
AcDbLine
 10
-25.14432499999997
 20
9.207499999999975
 30
0.0
 11
-13.56192499999996
 21
9.207499999999975
 31
0.0
1001
PE_URL
1000

  0
LINE
  5
200
330
1F
100
AcDbEntity
  8
외형선
  6
Continuous
370
    15
100
AcDbLine
 10
-25.14432499999997
 20
9.20749999999996
 30
0.0
 11
-27.04932500000011
 21
11.11249999999999
 31
0.0
1001
PE_URL
1000

  0
LINE
  5
201
330
1F
100
AcDbEntity
  8
외형선
  6
Continuous
370
    15
100
AcDbLine
 10
-13.56192499999996
 20
9.20749999999996
 30
0.0
 11
-11.65692499999999
 21
11.11249999999999
 31
0.0
1001
PE_URL
1000

  0
LINE
  5
204
330
1F
100
AcDbEntity
  8
외형선
  6
Continuous
370
    15
100
AcDbLine
 10
-27.04932500000012
 20
11.11249999999999
 30
0.0
 11
-44.14999999999999
 21
11.11249999999999
 31
0.0
  0
ENDSEC
  0
SECTION
  2
OBJECTS
  0
DICTIONARY
  5
C
330
0
100
AcDbDictionary
281
     1
  3
ACAD_DETAILVIEWSTYLE
350
20A
  3
ACAD_GROUP
350
D
  3
ACAD_LAYOUT
350
1A
  3
ACAD_MLINESTYLE
350
17
  3
ACAD_PLOTSETTINGS
350
19
  3
ACAD_PLOTSTYLENAME
350
E
  3
ACAD_SCALELIST
350
47
  3
ACAD_SECTIONVIEWSTYLE
350
20B
  3
AcDbVariableDictionary
350
205
  3
APPDATA
350
151
  3
DWGPROPS
350
20C
  0
DICTIONARY
  5
188
330
2
100
AcDbDictionary
280
     1
281
     1
  3
ACAD_LAYERSTATES
360
189
  0
DICTIONARY
  5
20A
102
{ACAD_REACTORS
330
C
102
}
330
C
100
AcDbDictionary
281
     1
  0
DICTIONARY
  5
D
102
{ACAD_REACTORS
330
C
102
}
330
C
100
AcDbDictionary
281
     1
  0
DICTIONARY
  5
1A
102
{ACAD_REACTORS
330
C
102
}
330
C
100
AcDbDictionary
281
     1
  3
Layout1
350
1E
  3
Layout2
350
26
  3
Model
350
22
  0
DICTIONARY
  5
17
102
{ACAD_REACTORS
330
C
102
}
330
C
100
AcDbDictionary
281
     1
  3
Standard
350
18
  0
DICTIONARY
  5
19
102
{ACAD_REACTORS
330
C
102
}
330
C
100
AcDbDictionary
281
     1
  0
ACDBDICTIONARYWDFLT
  5
E
102
{ACAD_REACTORS
330
C
102
}
330
C
100
AcDbDictionary
281
     1
  3
Normal
350
F
100
AcDbDictionaryWithDefault
340
F
  0
DICTIONARY
  5
47
102
{ACAD_REACTORS
330
C
102
}
330
C
100
AcDbDictionary
281
     1
  3
A0
350
48
  3
A1
350
49
  3
A2
350
4A
  3
A3
350
4B
  3
A4
350
4C
  3
A5
350
4D
  3
A6
350
4E
  3
A7
350
4F
  3
A8
350
50
  3
A9
350
51
  3
B0
350
52
  3
B1
350
53
  3
B2
350
54
  3
B3
350
55
  3
B4
350
56
  3
B5
350
57
  3
B6
350
58
  3
B7
350
59
  3
B8
350
5A
  3
B9
350
5B
  3
C0
350
5C
  3
C1
350
5D
  3
C2
350
5E
  3
C3
350
5F
  3
C4
350
60
  3
C5
350
61
  3
C6
350
62
  3
C7
350
63
  3
C8
350
64
  3
C9
350
65
  3
D0
350
66
  3
D1
350
67
  3
D2
350
68
  0
DICTIONARY
  5
20B
102
{ACAD_REACTORS
330
C
102
}
330
C
100
AcDbDictionary
281
     1
  0
DICTIONARY
  5
205
102
{ACAD_REACTORS
330
C
102
}
330
C
100
AcDbDictionary
281
     1
  0
DICTIONARY
  5
151
102
{ACAD_REACTORS
330
C
102
}
330
C
100
AcDbDictionary
281
     1
  0
XRECORD
  5
20C
102
{ACAD_REACTORS
330
C
102
}
330
C
100
AcDbXrecord
280
     1
  1
DWGPROPS COOKIE
  2

  3

  4

  6

  7

  8
120170442
  9

300
=
301
=
302
=
303
=
304
=
305
=
306
=
307
=
308
=
309
=
 40
0.0
 41
2458311.084237373
 42
2458321.265808125
  1

 90
        0
  0
DICTIONARY
  5
189
102
{ACAD_REACTORS
330
188
102
}
330
188
100
AcDbDictionary
281
     1
  0
LAYOUT
  5
1E
102
{ACAD_REACTORS
330
1A
102
}
330
1A
100
AcDbPlotSettings
  1

  2
none_device
  4

  6

 40
0.0
 41
0.0
 42
0.0
 43
0.0
 44
0.0
 45
0.0
 46
0.0
 47
0.0
 48
0.0
 49
0.0
140
0.0
141
0.0
142
1.0
143
1.0
 70
   688
 72
     1
 73
     0
 74
     5
  7

 75
    16
147
1.0
148
0.0
149
0.0
100
AcDbLayout
  1
Layout1
 70
     1
 71
     1
 10
0.0
 20
0.0
 11
420.0
 21
297.0
 12
0.0
 22
0.0
 32
0.0
 14
1.000000000000000E+20
 24
1.000000000000000E+20
 34
1.000000000000000E+20
 15
-1.000000000000000E+20
 25
-1.000000000000000E+20
 35
-1.000000000000000E+20
146
0.0
 13
0.0
 23
0.0
 33
0.0
 16
1.0
 26
0.0
 36
0.0
 17
0.0
 27
1.0
 37
0.0
 76
     0
330
1B
  0
LAYOUT
  5
26
102
{ACAD_REACTORS
330
1A
102
}
330
1A
100
AcDbPlotSettings
  1

  2
none_device
  4

  6

 40
0.0
 41
0.0
 42
0.0
 43
0.0
 44
0.0
 45
0.0
 46
0.0
 47
0.0
 48
0.0
 49
0.0
140
0.0
141
0.0
142
1.0
143
1.0
 70
   688
 72
     1
 73
     0
 74
     5
  7

 75
    16
147
1.0
148
0.0
149
0.0
100
AcDbLayout
  1
Layout2
 70
     1
 71
     2
 10
0.0
 20
0.0
 11
0.0
 21
0.0
 12
0.0
 22
0.0
 32
0.0
 14
0.0
 24
0.0
 34
0.0
 15
0.0
 25
0.0
 35
0.0
146
0.0
 13
0.0
 23
0.0
 33
0.0
 16
1.0
 26
0.0
 36
0.0
 17
0.0
 27
1.0
 37
0.0
 76
     0
330
23
  0
LAYOUT
  5
22
102
{ACAD_REACTORS
330
1A
102
}
330
1A
100
AcDbPlotSettings
  1

  2
none_device
  4
ANSI_A_(11.00_x_8.50_Inches)
  6

 40
6.35
 41
19.05
 42
6.35000508
 43
19.05000254
 44
279.4
 45
215.9
 46
110.1179202265218
 47
48.7314091301085
 48
0.0
 49
0.0
140
0.0
141
0.0
142
0.0517810330709359
143
1.0
 70
  1696
 72
     0
 73
     0
 74
     0
  7

 75
     0
147
0.0235690232323232
148
0.0
149
0.0
100
AcDbLayout
  1
Model
 70
     1
 71
     0
 10
0.0
 20
0.0
 11
420.0
 21
297.0
 12
0.0
 22
0.0
 32
0.0
 14
-65.02500000000012
 24
-49.97180738881175
 34
0.0
 15
92.86769720972484
 25
47.86249999999994
 35
0.0
146
0.0
 13
0.0
 23
0.0
 33
0.0
 16
1.0
 26
0.0
 36
0.0
 17
0.0
 27
1.0
 37
0.0
 76
     0
330
1F
331
29
  0
MLINESTYLE
  5
18
102
{ACAD_REACTORS
330
17
102
}
330
17
100
AcDbMlineStyle
  2
Standard
 70
     0
  3

 62
   256
 51
90.0
 52
90.0
 71
     2
 49
0.5
 62
   256
  6
BYLAYER
 49
-0.5
 62
   256
  6
BYLAYER
  0
ACDBPLACEHOLDER
  5
F
102
{ACAD_REACTORS
330
E
102
}
330
E
  0
SCALE
  5
48
102
{ACAD_REACTORS
330
47
102
}
330
47
100
AcDbScale
 70
     0
300
1:1
140
1.0
141
1.0
290
     1
  0
SCALE
  5
49
102
{ACAD_REACTORS
330
47
102
}
330
47
100
AcDbScale
 70
     0
300
1:2
140
1.0
141
2.0
290
     0
  0
SCALE
  5
4A
102
{ACAD_REACTORS
330
47
102
}
330
47
100
AcDbScale
 70
     0
300
1:4
140
1.0
141
4.0
290
     0
  0
SCALE
  5
4B
102
{ACAD_REACTORS
330
47
102
}
330
47
100
AcDbScale
 70
     0
300
1:5
140
1.0
141
5.0
290
     0
  0
SCALE
  5
4C
102
{ACAD_REACTORS
330
47
102
}
330
47
100
AcDbScale
 70
     0
300
1:8
140
1.0
141
8.0
290
     0
  0
SCALE
  5
4D
102
{ACAD_REACTORS
330
47
102
}
330
47
100
AcDbScale
 70
     0
300
1:10
140
1.0
141
10.0
290
     0
  0
SCALE
  5
4E
102
{ACAD_REACTORS
330
47
102
}
330
47
100
AcDbScale
 70
     0
300
1:16
140
1.0
141
16.0
290
     0
  0
SCALE
  5
4F
102
{ACAD_REACTORS
330
47
102
}
330
47
100
AcDbScale
 70
     0
300
1:20
140
1.0
141
20.0
290
     0
  0
SCALE
  5
50
102
{ACAD_REACTORS
330
47
102
}
330
47
100
AcDbScale
 70
     0
300
1:30
140
1.0
141
30.0
290
     0
  0
SCALE
  5
51
102
{ACAD_REACTORS
330
47
102
}
330
47
100
AcDbScale
 70
     0
300
1:40
140
1.0
141
40.0
290
     0
  0
SCALE
  5
52
102
{ACAD_REACTORS
330
47
102
}
330
47
100
AcDbScale
 70
     0
300
1:50
140
1.0
141
50.0
290
     0
  0
SCALE
  5
53
102
{ACAD_REACTORS
330
47
102
}
330
47
100
AcDbScale
 70
     0
300
1:100
140
1.0
141
100.0
290
     0
  0
SCALE
  5
54
102
{ACAD_REACTORS
330
47
102
}
330
47
100
AcDbScale
 70
     0
300
2:1
140
2.0
141
1.0
290
     0
  0
SCALE
  5
55
102
{ACAD_REACTORS
330
47
102
}
330
47
100
AcDbScale
 70
     0
300
4:1
140
4.0
141
1.0
290
     0
  0
SCALE
  5
56
102
{ACAD_REACTORS
330
47
102
}
330
47
100
AcDbScale
 70
     0
300
8:1
140
8.0
141
1.0
290
     0
  0
SCALE
  5
57
102
{ACAD_REACTORS
330
47
102
}
330
47
100
AcDbScale
 70
     0
300
10:1
140
10.0
141
1.0
290
     0
  0
SCALE
  5
58
102
{ACAD_REACTORS
330
47
102
}
330
47
100
AcDbScale
 70
     0
300
100:1
140
100.0
141
1.0
290
     0
  0
SCALE
  5
59
102
{ACAD_REACTORS
330
47
102
}
330
47
100
AcDbScale
 70
     0
300
1/128" = 1'-0"
140
0.0078125
141
12.0
290
     0
  0
SCALE
  5
5A
102
{ACAD_REACTORS
330
47
102
}
330
47
100
AcDbScale
 70
     0
300
1/64" = 1'-0"
140
0.015625
141
12.0
290
     0
  0
SCALE
  5
5B
102
{ACAD_REACTORS
330
47
102
}
330
47
100
AcDbScale
 70
     0
300
1/32" = 1'-0"
140
0.03125
141
12.0
290
     0
  0
SCALE
  5
5C
102
{ACAD_REACTORS
330
47
102
}
330
47
100
AcDbScale
 70
     0
300
1/16" = 1'-0"
140
0.0625
141
12.0
290
     0
  0
SCALE
  5
5D
102
{ACAD_REACTORS
330
47
102
}
330
47
100
AcDbScale
 70
     0
300
3/32" = 1'-0"
140
0.09375
141
12.0
290
     0
  0
SCALE
  5
5E
102
{ACAD_REACTORS
330
47
102
}
330
47
100
AcDbScale
 70
     0
300
1/8" = 1'-0"
140
0.125
141
12.0
290
     0
  0
SCALE
  5
5F
102
{ACAD_REACTORS
330
47
102
}
330
47
100
AcDbScale
 70
     0
300
3/16" = 1'-0"
140
0.1875
141
12.0
290
     0
  0
SCALE
  5
60
102
{ACAD_REACTORS
330
47
102
}
330
47
100
AcDbScale
 70
     0
300
1/4" = 1'-0"
140
0.25
141
12.0
290
     0
  0
SCALE
  5
61
102
{ACAD_REACTORS
330
47
102
}
330
47
100
AcDbScale
 70
     0
300
3/8" = 1'-0"
140
0.375
141
12.0
290
     0
  0
SCALE
  5
62
102
{ACAD_REACTORS
330
47
102
}
330
47
100
AcDbScale
 70
     0
300
1/2" = 1'-0"
140
0.5
141
12.0
290
     0
  0
SCALE
  5
63
102
{ACAD_REACTORS
330
47
102
}
330
47
100
AcDbScale
 70
     0
300
3/4" = 1'-0"
140
0.75
141
12.0
290
     0
  0
SCALE
  5
64
102
{ACAD_REACTORS
330
47
102
}
330
47
100
AcDbScale
 70
     0
300
1" = 1'-0"
140
1.0
141
12.0
290
     0
  0
SCALE
  5
65
102
{ACAD_REACTORS
330
47
102
}
330
47
100
AcDbScale
 70
     0
300
1-1/2" = 1'-0"
140
1.5
141
12.0
290
     0
  0
SCALE
  5
66
102
{ACAD_REACTORS
330
47
102
}
330
47
100
AcDbScale
 70
     0
300
3" = 1'-0"
140
3.0
141
12.0
290
     0
  0
SCALE
  5
67
102
{ACAD_REACTORS
330
47
102
}
330
47
100
AcDbScale
 70
     0
300
6" = 1'-0"
140
6.0
141
12.0
290
     0
  0
SCALE
  5
68
102
{ACAD_REACTORS
330
47
102
}
330
47
100
AcDbScale
 70
     0
300
1'-0" = 1'-0"
140
12.0
141
12.0
290
     0
  0
ENDSEC
  0
EOF
