  0
SECTION
  2
HEADER
  9
$ACADVER
  1
AC1015
  9
$ACADMAINTVER
 70
     6
  9
$DWGCODEPAGE
  3
ANSI_949
  9
$INSBASE
 10
0.0
 20
0.0
 30
0.0
  9
$EXTMIN
 10
-78.32511081259624
 20
-49.97180738881175
 30
0.0
  9
$EXTMAX
 10
89.45089800274947
 20
55.02542442259359
 30
0.0
  9
$LIMMIN
 10
0.0
 20
0.0
  9
$LIMMAX
 10
420.0
 20
297.0
  9
$ORTHOMODE
 70
     1
  9
$REGENMODE
 70
     1
  9
$FILLMODE
 70
     1
  9
$QTEXTMODE
 70
     0
  9
$MIRRTEXT
 70
     1
  9
$LTSCALE
 40
1.0
  9
$ATTMODE
 70
     1
  9
$TEXTSIZE
 40
3.5
  9
$TRACEWID
 40
1.0
  9
$TEXTSTYLE
  7
Standard
  9
$CLAYER
  8
0
  9
$CELTYPE
  6
ByLayer
  9
$CECOLOR
 62
   256
  9
$CELTSCALE
 40
1.0
  9
$DISPSILH
 70
     0
  9
$DIMSCALE
 40
1.0
  9
$DIMASZ
 40
3.302
  9
$DIMEXO
 40
1.0
  9
$DIMDLI
 40
3.75
  9
$DIMRND
 40
0.0
  9
$DIMDLE
 40
0.0
  9
$DIMEXE
 40
1.0
  9
$DIMTP
 40
0.0
  9
$DIMTM
 40
0.0
  9
$DIMTXT
 40
3.5
  9
$DIMCEN
 40
2.5
  9
$DIMTSZ
 40
0.0
  9
$DIMTOL
 70
     0
  9
$DIMLIM
 70
     0
  9
$DIMTIH
 70
     1
  9
$DIMTOH
 70
     1
  9
$DIMSE1
 70
     0
  9
$DIMSE2
 70
     0
  9
$DIMTAD
 70
     1
  9
$DIMZIN
 70
     0
  9
$DIMBLK
  1

  9
$DIMASO
 70
     1
  9
$DIMSHO
 70
     1
  9
$DIMPOST
  1

  9
$DIMAPOST
  1

  9
$DIMALT
 70
     0
  9
$DIMALTD
 70
     3
  9
$DIMALTF
 40
0.0393700787401575
  9
$DIMLFAC
 40
1.0
  9
$DIMTOFL
 70
     1
  9
$DIMTVP
 40
0.0
  9
$DIMTIX
 70
     0
  9
$DIMSOXD
 70
     0
  9
$DIMSAH
 70
     0
  9
$DIMBLK1
  1

  9
$DIMBLK2
  1

  9
$DIMSTYLE
  2
ISO-25
  9
$DIMCLRD
 70
     0
  9
$DIMCLRE
 70
     0
  9
$DIMCLRT
 70
     0
  9
$DIMTFAC
 40
1.0
  9
$DIMGAP
 40
1.524
  9
$DIMJUST
 70
     0
  9
$DIMSD1
 70
     0
  9
$DIMSD2
 70
     0
  9
$DIMTOLJ
 70
     0
  9
$DIMTZIN
 70
     0
  9
$DIMALTZ
 70
     0
  9
$DIMALTTZ
 70
     0
  9
$DIMUPT
 70
     0
  9
$DIMDEC
 70
     2
  9
$DIMTDEC
 70
     2
  9
$DIMALTU
 70
     2
  9
$DIMALTTD
 70
     3
  9
$DIMTXSTY
  7
Standard
  9
$DIMAUNIT
 70
     0
  9
$DIMADEC
 70
     2
  9
$DIMALTRND
 40
0.0
  9
$DIMAZIN
 70
     0
  9
$DIMDSEP
 70
    44
  9
$DIMATFIT
 70
     3
  9
$DIMFRAC
 70
     0
  9
$DIMLDRBLK
  1

  9
$DIMLUNIT
 70
     2
  9
$DIMLWD
 70
    -2
  9
$DIMLWE
 70
    -2
  9
$DIMTMOVE
 70
     0
  9
$LUNITS
 70
     2
  9
$LUPREC
 70
     2
  9
$SKETCHINC
 40
1.0
  9
$FILLETRAD
 40
10.0
  9
$AUNITS
 70
     0
  9
$AUPREC
 70
     2
  9
$MENU
  1
.
  9
$ELEVATION
 40
0.0
  9
$PELEVATION
 40
0.0
  9
$THICKNESS
 40
0.0
  9
$LIMCHECK
 70
     0
  9
$CHAMFERA
 40
0.0
  9
$CHAMFERB
 40
0.0
  9
$CHAMFERC
 40
0.0
  9
$CHAMFERD
 40
0.0
  9
$SKPOLY
 70
     0
  9
$TDCREATE
 40
2458311.56309559
  9
$TDUCREATE
 40
2458311.18809559
  9
$TDUPDATE
 40
2458321.368850938
  9
$TDUUPDATE
 40
2458320.993850938
  9
$TDINDWG
 40
0.0031728819
  9
$TDUSRTIMER
 40
0.0031728704
  9
$USRTIMER
 70
     1
  9
$ANGBASE
 50
0.0
  9
$ANGDIR
 70
     0
  9
$PDMODE
 70
     0
  9
$PDSIZE
 40
-1.0
  9
$PLINEWID
 40
0.0
  9
$SPLFRAME
 70
     0
  9
$SPLINETYPE
 70
     6
  9
$SPLINESEGS
 70
     8
  9
$HANDSEED
  5
246
  9
$SURFTAB1
 70
     6
  9
$SURFTAB2
 70
     6
  9
$SURFTYPE
 70
     6
  9
$SURFU
 70
     6
  9
$SURFV
 70
     6
  9
$UCSBASE
  2

  9
$UCSNAME
  2

  9
$UCSORG
 10
0.0
 20
0.0
 30
0.0
  9
$UCSXDIR
 10
1.0
 20
0.0
 30
0.0
  9
$UCSYDIR
 10
0.0
 20
1.0
 30
0.0
  9
$UCSORTHOREF
  2

  9
$UCSORTHOVIEW
 70
     0
  9
$UCSORGTOP
 10
0.0
 20
0.0
 30
0.0
  9
$UCSORGBOTTOM
 10
0.0
 20
0.0
 30
0.0
  9
$UCSORGLEFT
 10
0.0
 20
0.0
 30
0.0
  9
$UCSORGRIGHT
 10
0.0
 20
0.0
 30
0.0
  9
$UCSORGFRONT
 10
0.0
 20
0.0
 30
0.0
  9
$UCSORGBACK
 10
0.0
 20
0.0
 30
0.0
  9
$PUCSBASE
  2

  9
$PUCSNAME
  2

  9
$PUCSORG
 10
0.0
 20
0.0
 30
0.0
  9
$PUCSXDIR
 10
1.0
 20
0.0
 30
0.0
  9
$PUCSYDIR
 10
0.0
 20
1.0
 30
0.0
  9
$PUCSORTHOREF
  2

  9
$PUCSORTHOVIEW
 70
     0
  9
$PUCSORGTOP
 10
0.0
 20
0.0
 30
0.0
  9
$PUCSORGBOTTOM
 10
0.0
 20
0.0
 30
0.0
  9
$PUCSORGLEFT
 10
0.0
 20
0.0
 30
0.0
  9
$PUCSORGRIGHT
 10
0.0
 20
0.0
 30
0.0
  9
$PUCSORGFRONT
 10
0.0
 20
0.0
 30
0.0
  9
$PUCSORGBACK
 10
0.0
 20
0.0
 30
0.0
  9
$USERI1
 70
     0
  9
$USERI2
 70
     0
  9
$USERI3
 70
     0
  9
$USERI4
 70
     0
  9
$USERI5
 70
     0
  9
$USERR1
 40
0.0
  9
$USERR2
 40
0.0
  9
$USERR3
 40
0.0
  9
$USERR4
 40
0.0
  9
$USERR5
 40
0.0
  9
$WORLDVIEW
 70
     1
  9
$SHADEDGE
 70
     3
  9
$SHADEDIF
 70
    70
  9
$TILEMODE
 70
     1
  9
$MAXACTVP
 70
    64
  9
$PINSBASE
 10
0.0
 20
0.0
 30
0.0
  9
$PLIMCHECK
 70
     0
  9
$PEXTMIN
 10
1.000000000000000E+20
 20
1.000000000000000E+20
 30
1.000000000000000E+20
  9
$PEXTMAX
 10
-1.000000000000000E+20
 20
-1.000000000000000E+20
 30
-1.000000000000000E+20
  9
$PLIMMIN
 10
0.0
 20
0.0
  9
$PLIMMAX
 10
0.0
 20
0.0
  9
$UNITMODE
 70
     0
  9
$VISRETAIN
 70
     1
  9
$PLINEGEN
 70
     0
  9
$PSLTSCALE
 70
     1
  9
$TREEDEPTH
 70
  3020
  9
$CMLSTYLE
  2
Standard
  9
$CMLJUST
 70
     0
  9
$CMLSCALE
 40
20.0
  9
$PROXYGRAPHICS
 70
     1
  9
$MEASUREMENT
 70
     1
  9
$CELWEIGHT
370
    -1
  9
$ENDCAPS
280
     0
  9
$JOINSTYLE
280
     0
  9
$LWDISPLAY
290
     1
  9
$INSUNITS
 70
     4
  9
$HYPERLINKBASE
  1

  9
$STYLESHEET
  1

  9
$XEDIT
290
     1
  9
$CEPSNTYPE
380
     0
  9
$PSTYLEMODE
290
     1
  9
$FINGERPRINTGUID
  2
{62ECCBF9-EFA7-4C50-A72B-B453819E0D09}
  9
$VERSIONGUID
  2
{FAEB1C32-E019-11D5-929B-00C0DF256EC4}
  9
$EXTNAMES
290
     1
  9
$PSVPSCALE
 40
0.0
  9
$OLESTARTUP
290
     0
  0
ENDSEC
  0
SECTION
  2
CLASSES
  0
CLASS
  1
ACDBDICTIONARYWDFLT
  2
AcDbDictionaryWithDefault
  3
ObjectDBX Classes
 90
        0
280
     0
281
     0
  0
CLASS
  1
VISUALSTYLE
  2
AcDbVisualStyle
  3
ObjectDBX Classes
 90
     4095
280
     0
281
     0
  0
CLASS
  1
MATERIAL
  2
AcDbMaterial
  3
ObjectDBX Classes
 90
     1153
280
     0
281
     0
  0
CLASS
  1
SCALE
  2
AcDbScale
  3
ObjectDBX Classes
 90
     1153
280
     0
281
     0
  0
CLASS
  1
SUN
  2
AcDbSun
  3
SCENEOE
 90
     1153
280
     0
281
     0
  0
CLASS
  1
ACDBPLACEHOLDER
  2
AcDbPlaceHolder
  3
ObjectDBX Classes
 90
        0
280
     0
281
     0
  0
CLASS
  1
LAYOUT
  2
AcDbLayout
  3
ObjectDBX Classes
 90
        0
280
     0
281
     0
  0
CLASS
  1
TABLESTYLE
  2
AcDbTableStyle
  3
ObjectDBX Classes
 90
     4095
280
     0
281
     0
  0
CLASS
  1
MLEADERSTYLE
  2
AcDbMLeaderStyle
  3
ACDB_MLEADERSTYLE_CLASS
 90
     4095
280
     0
281
     0
  0
CLASS
  1
DICTIONARYVAR
  2
AcDbDictionaryVar
  3
ObjectDBX Classes
 90
        0
280
     0
281
     0
  0
ENDSEC
  0
SECTION
  2
TABLES
  0
TABLE
  2
VPORT
  5
8
330
0
100
AcDbSymbolTable
 70
     1
  0
VPORT
  5
29
330
8
100
AcDbSymbolTableRecord
100
AcDbViewportTableRecord
  2
*Active
 70
     0
 10
0.0
 20
0.0
 11
1.0
 21
1.0
 12
5.562893595076616
 22
2.526808516890917
 13
0.0
 23
0.0
 14
10.0
 24
10.0
 15
10.0
 25
10.0
 16
0.0
 26
0.0
 36
1.0
 17
0.0
 27
0.0
 37
0.0
 40
107.0971764476334
 41
1.782762691853601
 42
50.0
 43
0.0
 44
0.0
 50
0.0
 51
0.0
 71
    16
 72
  2000
 73
     1
 74
     3
 75
     0
 76
     0
 77
     0
 78
     0
281
     0
 65
     1
110
0.0
120
0.0
130
0.0
111
1.0
121
0.0
131
0.0
112
0.0
122
1.0
132
0.0
 79
     0
146
0.0
  0
ENDTAB
  0
TABLE
  2
LTYPE
  5
5
330
0
100
AcDbSymbolTable
 70
     6
  0
LTYPE
  5
14
330
5
100
AcDbSymbolTableRecord
100
AcDbLinetypeTableRecord
  2
ByBlock
 70
     0
  3

 72
    65
 73
     0
 40
0.0
  0
LTYPE
  5
15
330
5
100
AcDbSymbolTableRecord
100
AcDbLinetypeTableRecord
  2
ByLayer
 70
     0
  3

 72
    65
 73
     0
 40
0.0
  0
LTYPE
  5
16
330
5
100
AcDbSymbolTableRecord
100
AcDbLinetypeTableRecord
  2
Continuous
 70
     0
  3
Solid line
 72
    65
 73
     0
 40
0.0
  0
LTYPE
  5
6A
330
5
100
AcDbSymbolTableRecord
100
AcDbLinetypeTableRecord
  2
HIDDEN
 70
     0
  3
Hidden __ __ __ __ __ __ __ __ __ __ __ __ __ __
 72
    65
 73
     2
 40
1.905
 49
1.27
 74
     0
 49
-0.635
 74
     0
  0
LTYPE
  5
6B
330
5
100
AcDbSymbolTableRecord
100
AcDbLinetypeTableRecord
  2
PHANTOM
 70
     0
  3
Phantom ______  __  __  ______  __  __  ______
 72
    65
 73
     6
 40
12.7
 49
6.35
 74
     0
 49
-1.27
 74
     0
 49
1.27
 74
     0
 49
-1.27
 74
     0
 49
1.27
 74
     0
 49
-1.27
 74
     0
  0
LTYPE
  5
6C
330
5
100
AcDbSymbolTableRecord
100
AcDbLinetypeTableRecord
  2
CENTER
 70
     0
  3
Center ____ _ ____ _ ____ _ ____ _ ____ _ ____
 72
    65
 73
     4
 40
10.16
 49
6.35
 74
     0
 49
-1.27
 74
     0
 49
1.27
 74
     0
 49
-1.27
 74
     0
  0
LTYPE
  5
6D
330
5
100
AcDbSymbolTableRecord
100
AcDbLinetypeTableRecord
  2
CENTERX2
 70
     0
  3
Center (2x) ________  __  ________  __  _____
 72
    65
 73
     4
 40
20.32
 49
12.7
 74
     0
 49
-2.54
 74
     0
 49
2.54
 74
     0
 49
-2.54
 74
     0
  0
LTYPE
  5
6E
330
5
100
AcDbSymbolTableRecord
100
AcDbLinetypeTableRecord
  2
DOT2
 70
     0
  3
Dot (.5x) ........................................
 72
    65
 73
     2
 40
0.635
 49
0.0
 74
     0
 49
-0.635
 74
     0
  0
ENDTAB
  0
TABLE
  2
LAYER
  5
2
102
{ACAD_XDICTIONARY
360
16E
102
}
330
0
100
AcDbSymbolTable
 70
    18
  0
LAYER
  5
10
330
2
100
AcDbSymbolTableRecord
100
AcDbLayerTableRecord
  2
0
 70
     0
 62
     7
  6
Continuous
370
    -3
390
F
  0
LAYER
  5
6F
330
2
100
AcDbSymbolTableRecord
100
AcDbLayerTableRecord
  2
FORMAT
 70
     0
 62
     2
  6
Continuous
370
    -3
390
F
  0
LAYER
  5
70
330
2
100
AcDbSymbolTableRecord
100
AcDbLayerTableRecord
  2
외형선
 70
     0
 62
     4
  6
Continuous
370
    30
390
F
  0
LAYER
  5
71
330
2
100
AcDbSymbolTableRecord
100
AcDbLayerTableRecord
  2
숨은선
 70
     0
 62
     2
  6
HIDDEN
370
    15
390
F
  0
LAYER
  5
72
330
2
100
AcDbSymbolTableRecord
100
AcDbLayerTableRecord
  2
중심선
 70
     0
 62
     1
  6
CENTERX2
370
    -3
390
F
  0
LAYER
  5
73
330
2
100
AcDbSymbolTableRecord
100
AcDbLayerTableRecord
  2
파단선
 70
     0
 62
     4
  6
Continuous
370
    -3
390
F
  0
LAYER
  5
74
330
2
100
AcDbSymbolTableRecord
100
AcDbLayerTableRecord
  2
해칭선
 70
     0
 62
   100
  6
Continuous
370
    -3
390
F
  0
LAYER
  5
75
330
2
100
AcDbSymbolTableRecord
100
AcDbLayerTableRecord
  2
가는실선
 70
     0
 62
     4
  6
Continuous
370
    -3
390
F
  0
LAYER
  5
76
330
2
100
AcDbSymbolTableRecord
100
AcDbLayerTableRecord
  2
치수_보조선
 70
     0
 62
     4
  6
Continuous
370
    -3
390
F
  0
LAYER
  5
77
330
2
100
AcDbSymbolTableRecord
100
AcDbLayerTableRecord
  2
치수문자_일반주서
 70
     0
 62
     7
  6
Continuous
370
    15
390
F
  0
LAYER
  5
78
330
2
100
AcDbSymbolTableRecord
100
AcDbLayerTableRecord
  2
개별주서
 70
     0
 62
   100
  6
Continuous
370
    30
390
F
  0
LAYER
  5
79
330
2
100
AcDbSymbolTableRecord
100
AcDbLayerTableRecord
  2
중간선
 70
     0
 62
     2
  6
Continuous
370
    15
390
F
  0
LAYER
  5
7A
330
2
100
AcDbSymbolTableRecord
100
AcDbLayerTableRecord
  2
윤곽선
 70
     0
 62
     3
  6
Continuous
370
    40
390
F
  0
LAYER
  5
7B
330
2
100
AcDbSymbolTableRecord
100
AcDbLayerTableRecord
  2
중심마크
 70
     0
 62
   100
  6
Continuous
370
    30
390
F
  0
LAYER
  5
7C
330
2
100
AcDbSymbolTableRecord
100
AcDbLayerTableRecord
  2
가상선
 70
     0
 62
     4
  6
PHANTOM
370
    -3
390
F
  0
LAYER
  5
7D
330
2
100
AcDbSymbolTableRecord
100
AcDbLayerTableRecord
  2
특수지정선
 70
     0
 62
     5
  6
CENTERX2
370
    60
390
F
  0
LAYER
  5
7E
330
2
100
AcDbSymbolTableRecord
100
AcDbLayerTableRecord
  2
참조1
 70
     0
 62
    -4
  6
Continuous
370
    -3
390
F
  0
LAYER
  5
138
330
2
100
AcDbSymbolTableRecord
100
AcDbLayerTableRecord
  2
Defpoints
 70
     0
 62
     7
  6
Continuous
290
     0
370
    -3
390
F
  0
ENDTAB
  0
TABLE
  2
STYLE
  5
3
330
0
100
AcDbSymbolTable
 70
     2
  0
STYLE
  5
11
330
3
100
AcDbSymbolTableRecord
100
AcDbTextStyleTableRecord
  2
Standard
 70
     0
 40
0.0
 41
1.0
 50
0.0
 71
     0
 42
3.5
  3
txt
  4

  0
STYLE
  5
94
330
3
100
AcDbSymbolTableRecord
100
AcDbTextStyleTableRecord
  2
SLDTEXTSTYLE0
 70
     0
 40
0.0
 41
0.75
 50
0.0
 71
     0
 42
3.5
  3
TXT
  4

  0
ENDTAB
  0
TABLE
  2
VIEW
  5
6
330
0
100
AcDbSymbolTable
 70
     0
  0
ENDTAB
  0
TABLE
  2
UCS
  5
7
330
0
100
AcDbSymbolTable
 70
     0
  0
ENDTAB
  0
TABLE
  2
APPID
  5
9
330
0
100
AcDbSymbolTable
 70
     4
  0
APPID
  5
12
330
9
100
AcDbSymbolTableRecord
100
AcDbRegAppTableRecord
  2
ACAD
 70
     0
  0
APPID
  5
140
330
9
100
AcDbSymbolTableRecord
100
AcDbRegAppTableRecord
  2
PE_URL
 70
     0
  0
APPID
  5
244
330
9
100
AcDbSymbolTableRecord
100
AcDbRegAppTableRecord
  2
ACAD_DSTYLE_DIMFLIPARROW_SYMBOL
 70
     0
  0
APPID
  5
245
330
9
100
AcDbSymbolTableRecord
100
AcDbRegAppTableRecord
  2
ACAD_DSTYLE_DIMFLIPARROW_WHICH_SYMBOL
 70
     0
  0
ENDTAB
  0
TABLE
  2
DIMSTYLE
  5
A
330
0
100
AcDbSymbolTable
 70
     5
100
AcDbDimStyleTable
  0
DIMSTYLE
105
27
330
A
100
AcDbSymbolTableRecord
100
AcDbDimStyleTableRecord
  2
ISO-25
 70
     0
 41
2.5
 42
0.625
 43
3.75
 44
1.25
 73
     0
 74
     0
 77
     1
 78
     8
140
2.5
141
2.5
143
0.03937007874016
147
0.625
171
     3
172
     1
178
     0
271
     2
272
     2
274
     3
278
    44
283
     0
284
     8
340
11
  0
DIMSTYLE
105
BD
330
A
100
AcDbSymbolTableRecord
100
AcDbDimStyleTableRecord
  2
SLDDIMSTYLE0
 70
     0
 41
3.302
 44
0.0
 45
0.000000001
 73
     0
 74
     0
 77
     1
 78
     4
 79
     1
140
3.5
147
0.875
172
     1
173
     1
178
     0
271
     2
272
     2
276
     2
284
    12
289
     0
340
94
  0
DIMSTYLE
105
CB
330
A
100
AcDbSymbolTableRecord
100
AcDbDimStyleTableRecord
  2
SLDDIMSTYLE1
 70
     0
 41
3.302
 44
0.0
 45
0.000000001
 73
     0
 74
     0
 77
     1
 78
     4
 79
     1
140
3.5
143
0.0393700787401575
147
0.875
148
0.000000001
170
     1
172
     1
173
     1
178
     0
271
     2
272
     2
276
     2
284
    12
289
     0
340
94
  0
DIMSTYLE
105
E1
102
{ACAD_REACTORS
330
E0
330
160
330
F4
330
CA
330
BC
102
}
330
A
100
AcDbSymbolTableRecord
100
AcDbDimStyleTableRecord
  2
SLDDIMSTYLE2
 70
     0
 41
3.302
 44
0.0
 45
0.000000001
 73
     0
 74
     0
 77
     1
 78
     4
 79
     1
140
3.5
143
0.0393700787401575
147
0.875
148
0.000000001
170
     1
173
     1
178
     0
271
     2
272
     2
276
     2
284
    12
340
94
  0
DIMSTYLE
105
F5
330
A
100
AcDbSymbolTableRecord
100
AcDbDimStyleTableRecord
  2
SLDDIMSTYLE3
 70
     0
 41
3.302
 44
0.0
 45
0.000000001
 73
     0
 74
     0
 77
     1
 78
    12
 79
     3
140
3.5
143
0.0393700787401575
147
0.875
148
0.000000001
170
     1
173
     1
178
     0
271
     2
272
     2
276
     2
284
    12
340
94
  0
ENDTAB
  0
TABLE
  2
BLOCK_RECORD
  5
1
330
0
100
AcDbSymbolTable
 70
    12
  0
BLOCK_RECORD
  5
1F
330
1
100
AcDbSymbolTableRecord
100
AcDbBlockTableRecord
  2
*Model_Space
340
22
  0
BLOCK_RECORD
  5
1B
330
1
100
AcDbSymbolTableRecord
100
AcDbBlockTableRecord
  2
*Paper_Space
340
1E
  0
BLOCK_RECORD
  5
23
330
1
100
AcDbSymbolTableRecord
100
AcDbBlockTableRecord
  2
*Paper_Space0
340
26
  0
BLOCK_RECORD
  5
7F
330
1
100
AcDbSymbolTableRecord
100
AcDbBlockTableRecord
  2
블럭10
340
0
102
{BLKREFS
331
B5
102
}
  0
BLOCK_RECORD
  5
BE
330
1
100
AcDbSymbolTableRecord
100
AcDbBlockTableRecord
  2
_D
340
0
  0
BLOCK_RECORD
  5
CC
330
1
100
AcDbSymbolTableRecord
100
AcDbBlockTableRecord
  2
_D_1
340
0
  0
BLOCK_RECORD
  5
E2
330
1
100
AcDbSymbolTableRecord
100
AcDbBlockTableRecord
  2
_D_2
340
0
  0
BLOCK_RECORD
  5
F6
330
1
100
AcDbSymbolTableRecord
100
AcDbBlockTableRecord
  2
_D_3
340
0
  0
BLOCK_RECORD
  5
10F
330
1
100
AcDbSymbolTableRecord
100
AcDbBlockTableRecord
  2
SW_DOWELSYMBOL_0
340
0
102
{BLKREFS
331
0
331
1D1
331
1F5
102
}
  0
BLOCK_RECORD
  5
172
330
1
100
AcDbSymbolTableRecord
100
AcDbBlockTableRecord
  2
*D8
340
0
  0
BLOCK_RECORD
  5
182
330
1
100
AcDbSymbolTableRecord
100
AcDbBlockTableRecord
  2
*D9
340
0
  0
ENDTAB
  0
ENDSEC
  0
SECTION
  2
BLOCKS
  0
BLOCK
  5
20
330
1F
100
AcDbEntity
  8
0
100
AcDbBlockBegin
  2
*Model_Space
 70
     0
 10
0.0
 20
0.0
 30
0.0
  3
*Model_Space
  1

  0
ENDBLK
  5
21
330
1F
100
AcDbEntity
  8
0
100
AcDbBlockEnd
  0
BLOCK
  5
1C
330
1B
100
AcDbEntity
 67
     1
  8
0
100
AcDbBlockBegin
  2
*Paper_Space
 70
     0
 10
0.0
 20
0.0
 30
0.0
  3
*Paper_Space
  1

  0
ENDBLK
  5
1D
330
1B
100
AcDbEntity
 67
     1
  8
0
100
AcDbBlockEnd
  0
BLOCK
  5
24
330
23
100
AcDbEntity
  8
0
100
AcDbBlockBegin
  2
*Paper_Space0
 70
     0
 10
0.0
 20
0.0
 30
0.0
  3
*Paper_Space0
  1

  0
ENDBLK
  5
25
330
23
100
AcDbEntity
  8
0
100
AcDbBlockEnd
  0
BLOCK
  5
80
330
7F
100
AcDbEntity
  8
0
100
AcDbBlockBegin
  2
블럭10
 70
     2
 10
0.0
 20
0.0
 30
0.0
  3
블럭10
  1

  0
ELLIPSE
  5
82
330
7F
100
AcDbEntity
  8
중심선
100
AcDbEllipse
 10
20.54032771741204
 20
12.0471743016438
 30
0.0
 11
6.600054785286829
 21
-1.261213355974178E-13
 31
0.0
210
0.0
220
0.0
230
1.0
 40
0.636358354079598
 41
0.9219305317359503
 42
6.513795318482858
  0
ELLIPSE
  5
83
330
7F
100
AcDbEntity
  8
중심선
100
AcDbEllipse
 10
20.54032771746488
 20
12.04717430159265
 30
0.0
 11
3.960054785062283
 21
1.540847449632565E-10
 31
0.0
210
0.0
220
0.0
230
1.0
 40
0.3939339440162632
 41
1.131841032648279
 42
5.62031148352944
  0
LINE
  5
84
330
7F
100
AcDbEntity
  8
중심선
100
AcDbLine
 10
2.268634060543552
 20
16.24717430164393
 30
0.0
 11
5.714909304380834
 21
16.24717430164393
 31
0.0
  0
LINE
  5
85
330
7F
100
AcDbEntity
  8
중심선
100
AcDbLine
 10
5.245725140726316
 20
7.84717430164391
 30
0.0
 11
8.692000384563599
 21
7.84717430164391
 31
0.0
  0
LINE
  5
86
330
7F
100
AcDbEntity
  8
중심선
100
AcDbLine
 10
15.74043728645272
 20
16.24717430164393
 30
0.0
 11
8.692000384563599
 21
7.84717430164391
 31
0.0
  0
LINE
  5
87
330
7F
100
AcDbEntity
  8
중심선
100
AcDbLine
 10
0.1404042013395286
 20
13.71084872107135
 30
0.0
 11
3.58671253028996
 21
13.71088815037384
 31
0.0
  0
LINE
  5
88
330
7F
100
AcDbEntity
  8
중심선
100
AcDbLine
 10
2.750260043222114
 20
10.84717430164391
 30
0.0
 11
6.196535287059397
 21
10.84717430164391
 31
0.0
  0
LINE
  5
89
330
7F
100
AcDbEntity
  8
중심선
100
AcDbLine
 10
12.29416204261559
 20
16.24717430164393
 30
0.0
 11
5.245725140726316
 21
7.84717430164391
 31
0.0
  0
LINE
  5
8A
330
7F
100
AcDbEntity
  8
중심선
100
AcDbLine
 10
10.72767329541681
 20
16.24717430164393
 30
0.0
 11
6.196535287059397
 21
10.84717430164391
 31
0.0
  0
LINE
  5
8B
330
7F
100
AcDbEntity
  8
중심선
100
AcDbLine
 10
7.28139805157953
 20
16.24717430164393
 30
0.0
 11
2.750260043222114
 21
10.84717430164391
 31
0.0
  0
LINE
  5
8C
330
7F
100
AcDbEntity
  8
중심선
100
AcDbLine
 10
5.714909304380834
 20
16.24717430164393
 30
0.0
 11
3.58671253028996
 21
13.71088815037384
 31
0.0
  0
LINE
  5
8D
330
7F
100
AcDbEntity
  8
중심선
100
AcDbLine
 10
2.268634060543552
 20
16.24717430164393
 30
0.0
 11
0.1404042013395286
 21
13.71084872107135
 31
0.0
  0
LINE
  5
8E
330
7F
100
AcDbEntity
  8
중심선
100
AcDbLine
 10
7.28139805157953
 20
16.24717430164393
 30
0.0
 11
10.72767329541681
 21
16.24717430164393
 31
0.0
  0
LINE
  5
8F
330
7F
100
AcDbEntity
  8
중심선
100
AcDbLine
 10
12.29416204261559
 20
16.24717430164393
 30
0.0
 11
15.74043728645272
 21
16.24717430164393
 31
0.0
  0
LINE
  5
90
330
7F
100
AcDbEntity
  8
중심선
100
AcDbLine
 10
19.22036997980202
 20
11.08717430171403
 30
0.0
 11
23.66174974927406
 21
11.08717430171406
 31
0.0
  0
LINE
  5
91
330
7F
100
AcDbEntity
  8
중심선
100
AcDbLine
 10
19.22039502424796
 20
13.00717430171391
 30
0.0
 11
19.22036997980202
 21
11.08717430171403
 31
0.0
  0
LINE
  5
92
330
7F
100
AcDbEntity
  8
중심선
100
AcDbLine
 10
19.22039502424796
 20
13.00717430171391
 30
0.0
 11
26.96566020931264
 21
13.00717430171391
 31
0.0
  0
LINE
  5
93
330
7F
100
AcDbEntity
  8
중심선
100
AcDbLine
 10
22.22332737316547
 20
13.45928029700563
 30
0.0
 11
24.52862924686651
 21
15.39360700705356
 31
0.0
  0
ATTDEF
  5
95
330
7F
100
AcDbEntity
  8
FORMAT
 62
     2
100
AcDbText
 10
4.408487351596664
 20
2.075366912832191
 30
0.0
 40
4.233333333333333
  1
E1030108
 41
0.75
  7
SLDTEXTSTYLE0
 11
4.408487351596664
 21
-0.0412997538344756
 31
0.0
100
AcDbAttributeDefinition
  3

  2
AUTOATTR0
 70
     0
 74
     1
  0
ENDBLK
  5
81
330
7F
100
AcDbEntity
  8
0
100
AcDbBlockEnd
  0
BLOCK
  5
BF
330
BE
100
AcDbEntity
  8
0
100
AcDbBlockBegin
  2
_D
 70
     0
 10
0.0
 20
0.0
 30
0.0
  3
_D
  1

  0
LINE
  5
C1
330
BE
100
AcDbEntity
  8
치수문자_일반주서
 62
     0
370
    -2
100
AcDbLine
 10
-43.90761081259615
 20
12.69999999999998
 30
0.0
 11
-73.45011081259614
 21
12.69999999999987
 31
0.0
  0
LINE
  5
C2
330
BE
100
AcDbEntity
  8
치수문자_일반주서
 62
     0
370
    -2
100
AcDbLine
 10
-57.51261081259614
 20
-12.70000000000002
 30
0.0
 11
-73.45011081259605
 21
-12.70000000000008
 31
0.0
  0
LINE
  5
C3
330
BE
100
AcDbEntity
  8
치수문자_일반주서
 62
     0
370
    -2
100
AcDbLine
 10
-73.45011081259614
 20
12.69999999999987
 30
0.0
 11
-73.45011081259624
 21
41.94999999999987
 31
0.0
  0
LINE
  5
C4
330
BE
100
AcDbEntity
  8
치수문자_일반주서
 62
     0
370
    -2
100
AcDbLine
 10
-73.45011081259614
 20
12.69999999999987
 30
0.0
 11
-73.45011081259605
 21
-12.70000000000008
 31
0.0
  0
LINE
  5
C5
330
BE
100
AcDbEntity
  8
치수문자_일반주서
 62
     0
370
    -2
100
AcDbLine
 10
-73.45011081259615
 20
16.69999999999987
 30
0.0
 11
-73.45011081259617
 21
20.69999999999987
 31
0.0
  0
LINE
  5
C6
330
BE
100
AcDbEntity
  8
치수문자_일반주서
 62
     0
370
    -2
100
AcDbLine
 10
-73.45011081259604
 20
-16.70000000000008
 30
0.0
 11
-73.45011081259602
 21
-20.70000000000008
 31
0.0
  0
SOLID
  5
C7
330
BE
100
AcDbEntity
  8
치수문자_일반주서
 62
     0
100
AcDbTrace
 10
-74.11677747926282
 20
16.69999999999987
 30
0.0
 11
-72.78344414592948
 21
16.69999999999987
 31
0.0
 12
-73.45011081259614
 22
12.69999999999987
 32
0.0
 13
-73.45011081259614
 23
12.69999999999987
 33
0.0
  0
SOLID
  5
C8
330
BE
100
AcDbEntity
  8
치수문자_일반주서
 62
     0
100
AcDbTrace
 10
-72.78344414592937
 20
-16.70000000000007
 30
0.0
 11
-74.11677747926271
 21
-16.70000000000008
 31
0.0
 12
-73.45011081259605
 22
-12.70000000000008
 32
0.0
 13
-73.45011081259605
 23
-12.70000000000008
 33
0.0
  0
MTEXT
  5
C9
330
BE
100
AcDbEntity
  8
치수문자_일반주서
 62
     0
100
AcDbMText
 10
-78.3251108125962
 20
29.32499999999985
 30
0.0
 40
4.0
 41
0.0
 71
     2
 72
     1
  1
\A1;%%c25.40 [1]
  7
SLDTEXTSTYLE0
 11
-3.356894814614653E-15
 21
1.0
 31
0.0
 73
     1
 44
1.0
  0
POINT
  5
23C
330
BE
100
AcDbEntity
  8
Defpoints
 62
     0
100
AcDbPoint
 10
-43.84511081259615
 20
12.69999999999998
 30
0.0
  0
POINT
  5
240
330
BE
100
AcDbEntity
  8
Defpoints
 62
     0
100
AcDbPoint
 10
-57.45011081259614
 20
-12.70000000000002
 30
0.0
  0
POINT
  5
241
330
BE
100
AcDbEntity
  8
Defpoints
 62
     0
100
AcDbPoint
 10
-73.45011081259605
 20
-12.70000000000008
 30
0.0
  0
ENDBLK
  5
C0
330
BE
100
AcDbEntity
  8
0
100
AcDbBlockEnd
  0
BLOCK
  5
CD
330
CC
100
AcDbEntity
  8
0
100
AcDbBlockBegin
  2
_D_1
 70
     0
 10
0.0
 20
0.0
 30
0.0
  3
_D_1
  1

  0
LINE
  5
CF
330
CC
100
AcDbEntity
  8
치수문자_일반주서
 62
     0
370
    -2
100
AcDbLine
 10
46.32488918740387
 20
14.33792442259353
 30
0.0
 11
46.32488918740387
 21
27.69999999999998
 31
0.0
  0
LINE
  5
D0
330
CC
100
AcDbEntity
  8
치수문자_일반주서
 62
     0
370
    -2
100
AcDbLine
 10
5.049889187403873
 20
5.53534932406939
 30
0.0
 11
5.049889187403874
 21
27.69999999999998
 31
0.0
  0
LINE
  5
D1
330
CC
100
AcDbEntity
  8
치수문자_일반주서
 62
     0
370
    -2
100
AcDbLine
 10
42.32488918740387
 20
27.69999999999998
 30
0.0
 11
9.049889187403874
 21
27.69999999999998
 31
0.0
  0
SOLID
  5
D2
330
CC
100
AcDbEntity
  8
치수문자_일반주서
 62
     0
100
AcDbTrace
 10
42.32488918740387
 20
27.03333333333331
 30
0.0
 11
42.32488918740387
 21
28.36666666666665
 31
0.0
 12
46.32488918740387
 22
27.69999999999998
 32
0.0
 13
46.32488918740387
 23
27.69999999999998
 33
0.0
  0
SOLID
  5
D3
330
CC
100
AcDbEntity
  8
치수문자_일반주서
 62
     0
100
AcDbTrace
 10
9.049889187403874
 20
28.36666666666665
 30
0.0
 11
9.049889187403874
 21
27.03333333333331
 31
0.0
 12
5.049889187403874
 22
27.69999999999998
 32
0.0
 13
5.049889187403874
 23
27.69999999999998
 33
0.0
  0
MTEXT
  5
D4
330
CC
100
AcDbEntity
  8
치수문자_일반주서
 62
     0
100
AcDbMText
 10
25.68738918740387
 20
32.57499999999998
 30
0.0
 40
4.0
 41
0.0
 71
     2
 72
     1
  1
\A1;41.28 [1 5/8]
  7
SLDTEXTSTYLE0
 73
     1
 44
1.0
  0
POINT
  5
D5
330
CC
100
AcDbEntity
  8
Defpoints
 62
     0
100
AcDbPoint
 10
46.32488918740387
 20
14.27542442259353
 30
0.0
  0
POINT
  5
D6
330
CC
100
AcDbEntity
  8
Defpoints
 62
     0
100
AcDbPoint
 10
5.049889187403873
 20
5.47284932406939
 30
0.0
  0
POINT
  5
D7
330
CC
100
AcDbEntity
  8
Defpoints
 62
     0
100
AcDbPoint
 10
5.049889187403873
 20
27.69999999999998
 30
0.0
  0
ENDBLK
  5
CE
330
CC
100
AcDbEntity
  8
0
100
AcDbBlockEnd
  0
BLOCK
  5
E3
330
E2
100
AcDbEntity
  8
0
100
AcDbBlockBegin
  2
_D_2
 70
     0
 10
0.0
 20
0.0
 30
0.0
  3
_D_2
  1

  0
LINE
  5
E5
330
E2
100
AcDbEntity
  8
치수문자_일반주서
 62
     0
370
    -2
100
AcDbLine
 10
46.32488918740387
 20
14.33792442259353
 30
0.0
 11
46.32488918740387
 21
42.69999999999998
 31
0.0
  0
LINE
  5
E6
330
E2
100
AcDbEntity
  8
치수문자_일반주서
 62
     0
370
    -2
100
AcDbLine
 10
-58.45011081259614
 20
10.85749999999999
 30
0.0
 11
-58.45011081259614
 21
42.69999999999998
 31
0.0
  0
LINE
  5
E7
330
E2
100
AcDbEntity
  8
치수문자_일반주서
 62
     0
370
    -2
100
AcDbLine
 10
42.32488918740387
 20
42.69999999999998
 30
0.0
 11
-54.45011081259614
 21
42.69999999999998
 31
0.0
  0
SOLID
  5
E8
330
E2
100
AcDbEntity
  8
치수문자_일반주서
 62
     0
100
AcDbTrace
 10
42.32488918740387
 20
42.03333333333332
 30
0.0
 11
42.32488918740387
 21
43.36666666666665
 31
0.0
 12
46.32488918740387
 22
42.69999999999998
 32
0.0
 13
46.32488918740387
 23
42.69999999999998
 33
0.0
  0
SOLID
  5
E9
330
E2
100
AcDbEntity
  8
치수문자_일반주서
 62
     0
100
AcDbTrace
 10
-54.45011081259614
 20
43.36666666666665
 30
0.0
 11
-54.45011081259614
 21
42.03333333333332
 31
0.0
 12
-58.45011081259614
 22
42.69999999999998
 32
0.0
 13
-58.45011081259614
 23
42.69999999999998
 33
0.0
  0
MTEXT
  5
EA
330
E2
100
AcDbEntity
  8
치수문자_일반주서
 62
     0
100
AcDbMText
 10
-7.650110812596147
 20
47.57499999999998
 30
0.0
 40
4.0
 41
0.0
 71
     2
 72
     1
  1
\A1;104.78 [4 1/8]
  7
SLDTEXTSTYLE0
 73
     1
 44
1.0
  0
POINT
  5
EB
330
E2
100
AcDbEntity
  8
Defpoints
 62
     0
100
AcDbPoint
 10
46.32488918740387
 20
14.27542442259353
 30
0.0
  0
POINT
  5
EC
330
E2
100
AcDbEntity
  8
Defpoints
 62
     0
100
AcDbPoint
 10
-58.45011081259614
 20
10.79499999999999
 30
0.0
  0
POINT
  5
ED
330
E2
100
AcDbEntity
  8
Defpoints
 62
     0
100
AcDbPoint
 10
-58.45011081259614
 20
42.69999999999998
 30
0.0
  0
ENDBLK
  5
E4
330
E2
100
AcDbEntity
  8
0
100
AcDbBlockEnd
  0
BLOCK
  5
F7
330
F6
100
AcDbEntity
  8
0
100
AcDbBlockBegin
  2
_D_3
 70
     0
 10
0.0
 20
0.0
 30
0.0
  3
_D_3
  1

  0
LINE
  5
F9
330
F6
100
AcDbEntity
  8
치수문자_일반주서
 62
     0
370
    -2
100
AcDbLine
 10
46.38738918740387
 20
-14.27542442259353
 30
0.0
 11
61.32488918740391
 21
-14.27542442259347
 31
0.0
  0
LINE
  5
FA
330
F6
100
AcDbEntity
  8
치수문자_일반주서
 62
     0
370
    -2
100
AcDbLine
 10
46.38738918740387
 20
14.27542442259353
 30
0.0
 11
61.32488918740381
 21
14.27542442259359
 31
0.0
  0
LINE
  5
FB
330
F6
100
AcDbEntity
  8
치수문자_일반주서
 62
     0
370
    -2
100
AcDbLine
 10
61.32488918740381
 20
14.27542442259359
 30
0.0
 11
61.32488918740367
 21
55.02542442259359
 31
0.0
  0
LINE
  5
FC
330
F6
100
AcDbEntity
  8
치수문자_일반주서
 62
     0
370
    -2
100
AcDbLine
 10
61.32488918740391
 20
-14.27542442259347
 30
0.0
 11
61.32488918740381
 21
14.27542442259359
 31
0.0
  0
LINE
  5
FD
330
F6
100
AcDbEntity
  8
치수문자_일반주서
 62
     0
370
    -2
100
AcDbLine
 10
61.32488918740393
 20
-18.27542442259347
 30
0.0
 11
61.32488918740394
 21
-22.27542442259347
 31
0.0
  0
LINE
  5
FE
330
F6
100
AcDbEntity
  8
치수문자_일반주서
 62
     0
370
    -2
100
AcDbLine
 10
61.3248891874038
 20
18.27542442259359
 30
0.0
 11
61.32488918740378
 21
22.27542442259359
 31
0.0
  0
SOLID
  5
FF
330
F6
100
AcDbEntity
  8
치수문자_일반주서
 62
     0
100
AcDbTrace
 10
61.99155585407059
 20
-18.27542442259347
 30
0.0
 11
60.65822252073726
 21
-18.27542442259348
 31
0.0
 12
61.32488918740391
 22
-14.27542442259347
 32
0.0
 13
61.32488918740391
 23
-14.27542442259347
 33
0.0
  0
SOLID
  5
100
330
F6
100
AcDbEntity
  8
치수문자_일반주서
 62
     0
100
AcDbTrace
 10
60.65822252073713
 20
18.27542442259358
 30
0.0
 11
61.99155585407046
 21
18.27542442259359
 31
0.0
 12
61.32488918740381
 22
14.27542442259359
 32
0.0
 13
61.32488918740381
 23
14.27542442259359
 33
0.0
  0
MTEXT
  5
101
330
F6
100
AcDbEntity
  8
치수문자_일반주서
 62
     0
100
AcDbMText
 10
56.44988918740373
 20
36.65042442259357
 30
0.0
 40
4.0
 41
0.0
 71
     2
 72
     1
  1
\A1;%%c28.55 [1 1/8]
  7
SLDTEXTSTYLE0
 11
-3.484169018784991E-15
 21
1.0
 31
0.0
 73
     1
 44
1.0
  0
POINT
  5
102
330
F6
100
AcDbEntity
  8
Defpoints
 62
     0
100
AcDbPoint
 10
46.32488918740387
 20
-14.27542442259353
 30
0.0
  0
POINT
  5
23E
330
F6
100
AcDbEntity
  8
Defpoints
 62
     0
100
AcDbPoint
 10
46.32488918740387
 20
14.27542442259353
 30
0.0
  0
POINT
  5
23F
330
F6
100
AcDbEntity
  8
Defpoints
 62
     0
100
AcDbPoint
 10
61.32488918740381
 20
14.27542442259359
 30
0.0
  0
ENDBLK
  5
F8
330
F6
100
AcDbEntity
  8
0
100
AcDbBlockEnd
  0
BLOCK
  5
110
330
10F
100
AcDbEntity
  8
0
100
AcDbBlockBegin
  2
SW_DOWELSYMBOL_0
 70
     0
 10
0.0
 20
0.0
 30
0.0
  3
SW_DOWELSYMBOL_0
  1

  0
CIRCLE
  5
112
330
10F
100
AcDbEntity
  8
해칭선
 62
     0
100
AcDbCircle
 10
0.0
 20
0.0
 30
0.0
 40
3.000000000000001
  0
HATCH
  5
113
330
10F
100
AcDbEntity
  8
0
  6
Continuous
 62
     0
370
     0
100
AcDbHatch
 10
0.0
 20
0.0
 30
0.0
210
0.0
220
0.0
230
1.0
  2
SOLID
 70
     1
 71
     0
 91
        1
 92
        0
 93
        3
 72
     2
 10
0.0
 20
0.0
 40
3.000000000000001
 50
0.0
 51
90.0
 73
     1
 72
     1
 10
0.0
 20
3.000000000000001
 11
0.0
 21
0.0
 72
     1
 10
0.0
 20
0.0
 11
3.000000000000001
 21
0.0
 97
        0
 75
     0
 76
     1
 98
        1
 10
0.0
 20
0.0
  0
HATCH
  5
114
330
10F
100
AcDbEntity
  8
0
  6
Continuous
 62
     0
370
     0
100
AcDbHatch
 10
0.0
 20
0.0
 30
0.0
210
0.0
220
0.0
230
1.0
  2
SOLID
 70
     1
 71
     0
 91
        1
 92
        0
 93
        3
 72
     2
 10
0.0
 20
0.0
 40
3.000000000000001
 50
180.0
 51
270.0000000000008
 73
     1
 72
     1
 10
0.0
 20
-3.000000000000001
 11
0.0
 21
0.0
 72
     1
 10
0.0
 20
0.0
 11
-3.000000000000001
 21
0.0
 97
        0
 75
     0
 76
     1
 98
        1
 10
0.0
 20
0.0
  0
ENDBLK
  5
111
330
10F
100
AcDbEntity
  8
0
100
AcDbBlockEnd
  0
BLOCK
  5
173
330
172
100
AcDbEntity
  8
0
100
AcDbBlockBegin
  2
*D8
 70
     1
 10
0.0
 20
0.0
 30
0.0
  3
*D8
  1

  0
LINE
  5
175
330
172
100
AcDbEntity
  8
치수문자_일반주서
 62
     0
370
    -2
100
AcDbLine
 10
41.27500000000001
 20
10.46198140916584
 30
0.0
 11
41.27500000000001
 21
25.41021525574937
 31
0.0
  0
LINE
  5
176
330
172
100
AcDbEntity
  8
치수문자_일반주서
 62
     0
370
    -2
100
AcDbLine
 10
0.0
 20
7.712741558615068
 30
0.0
 11
0.0
 21
25.41021525574937
 31
0.0
  0
LINE
  5
177
330
172
100
AcDbEntity
  8
치수문자_일반주서
 62
     0
370
    -2
100
AcDbLine
 10
41.27500000000001
 20
25.41021525574937
 30
0.0
 11
79.025
 21
25.41021525574937
 31
0.0
  0
LINE
  5
178
330
172
100
AcDbEntity
  8
치수문자_일반주서
 62
     0
370
    -2
100
AcDbLine
 10
37.27500000000001
 20
25.41021525574937
 30
0.0
 11
4.0
 21
25.41021525574937
 31
0.0
  0
SOLID
  5
179
330
172
100
AcDbEntity
  8
치수문자_일반주서
 62
     0
100
AcDbTrace
 10
37.27500000000001
 20
24.7435485890827
 30
0.0
 11
37.27500000000001
 21
26.07688192241604
 31
0.0
 12
41.27500000000001
 22
25.41021525574937
 32
0.0
 13
41.27500000000001
 23
25.41021525574937
 33
0.0
  0
SOLID
  5
17A
330
172
100
AcDbEntity
  8
치수문자_일반주서
 62
     0
100
AcDbTrace
 10
4.0
 20
26.07688192241604
 30
0.0
 11
4.0
 21
24.7435485890827
 31
0.0
 12
0.0
 22
25.41021525574937
 32
0.0
 13
0.0
 23
25.41021525574937
 33
0.0
  0
MTEXT
  5
17B
330
172
100
AcDbEntity
  8
치수문자_일반주서
 62
     0
100
AcDbMText
 10
62.15000000000001
 20
30.28521525574937
 30
0.0
 40
4.0
 41
0.0
 71
     2
 72
     1
  1
\A1;41.28 [1 5/8]
  7
SLDTEXTSTYLE0
 73
     1
 44
1.0
  0
POINT
  5
17C
330
172
100
AcDbEntity
  8
Defpoints
 62
     0
100
AcDbPoint
 10
41.27500000000001
 20
10.39948140916584
 30
0.0
  0
POINT
  5
17D
330
172
100
AcDbEntity
  8
Defpoints
 62
     0
100
AcDbPoint
 10
0.0
 20
7.650241558615068
 30
0.0
  0
POINT
  5
17E
330
172
100
AcDbEntity
  8
Defpoints
 62
     0
100
AcDbPoint
 10
0.0
 20
25.41021525574937
 30
0.0
  0
ENDBLK
  5
174
330
172
100
AcDbEntity
  8
0
100
AcDbBlockEnd
  0
BLOCK
  5
183
330
182
100
AcDbEntity
  8
0
100
AcDbBlockBegin
  2
*D9
 70
     1
 10
0.0
 20
0.0
 30
0.0
  3
*D9
  1

  0
LINE
  5
185
330
182
100
AcDbEntity
  8
치수문자_일반주서
 62
     0
370
    -2
100
AcDbLine
 10
123.1722649606379
 20
-1.419643798813834
 30
0.0
 11
123.1722649606379
 21
13.5285900477697
 31
0.0
  0
LINE
  5
186
330
182
100
AcDbEntity
  8
치수문자_일반주서
 62
     0
370
    -2
100
AcDbLine
 10
81.89726496063787
 20
-4.168883649364606
 30
0.0
 11
81.89726496063787
 21
13.5285900477697
 31
0.0
  0
LINE
  5
187
330
182
100
AcDbEntity
  8
치수문자_일반주서
 62
     0
370
    -2
100
AcDbLine
 10
123.1722649606379
 20
13.5285900477697
 30
0.0
 11
160.9222649606379
 21
13.5285900477697
 31
0.0
  0
LINE
  5
188
330
182
100
AcDbEntity
  8
치수문자_일반주서
 62
     0
370
    -2
100
AcDbLine
 10
119.1722649606379
 20
13.5285900477697
 30
0.0
 11
85.89726496063787
 21
13.5285900477697
 31
0.0
  0
SOLID
  5
189
330
182
100
AcDbEntity
  8
치수문자_일반주서
 62
     0
100
AcDbTrace
 10
119.1722649606379
 20
12.86192338110303
 30
0.0
 11
119.1722649606379
 21
14.19525671443636
 31
0.0
 12
123.1722649606379
 22
13.5285900477697
 32
0.0
 13
123.1722649606379
 23
13.5285900477697
 33
0.0
  0
SOLID
  5
18A
330
182
100
AcDbEntity
  8
치수문자_일반주서
 62
     0
100
AcDbTrace
 10
85.89726496063787
 20
14.19525671443636
 30
0.0
 11
85.89726496063787
 21
12.86192338110303
 31
0.0
 12
81.89726496063787
 22
13.5285900477697
 32
0.0
 13
81.89726496063787
 23
13.5285900477697
 33
0.0
  0
MTEXT
  5
18B
330
182
100
AcDbEntity
  8
치수문자_일반주서
 62
     0
100
AcDbMText
 10
144.0472649606379
 20
18.4035900477697
 30
0.0
 40
4.0
 41
0.0
 71
     2
 72
     1
  1
\A1;41.28 [1 5/8]
  7
SLDTEXTSTYLE0
 73
     1
 44
1.0
  0
POINT
  5
18C
330
182
100
AcDbEntity
  8
Defpoints
 62
     0
100
AcDbPoint
 10
123.1722649606379
 20
-1.482143798813834
 30
0.0
  0
POINT
  5
18D
330
182
100
AcDbEntity
  8
Defpoints
 62
     0
100
AcDbPoint
 10
81.89726496063787
 20
-4.231383649364606
 30
0.0
  0
POINT
  5
18E
330
182
100
AcDbEntity
  8
Defpoints
 62
     0
100
AcDbPoint
 10
81.89726496063787
 20
13.5285900477697
 30
0.0
  0
ENDBLK
  5
184
330
182
100
AcDbEntity
  8
0
100
AcDbBlockEnd
  0
ENDSEC
  0
SECTION
  2
ENTITIES
  0
SPLINE
  5
96
330
1F
100
AcDbEntity
  8
0
  6
Continuous
 62
     1
370
    15
100
AcDbSpline
210
0.0
220
0.0
230
1.0
 70
     8
 71
     3
 72
    19
 73
    15
 74
     0
 42
0.000000001
 43
0.00000001
 40
0.0
 40
0.0
 40
0.0
 40
0.0
 40
0.1118727653107095
 40
0.2063582436117034
 40
0.2858520920784738
 40
0.3551919514039394
 40
0.4153610231040471
 40
0.4774904544831654
 40
0.5495952805668607
 40
0.6222940578800196
 40
0.6895313702798447
 40
0.7644311384897124
 40
0.8678276465443434
 40
1.0
 40
1.0
 40
1.0
 40
1.0
 10
9.309035094452156
 20
3.661170959859444
 30
0.0
 10
9.169472388910007
 20
3.72664380133847
 30
0.0
 10
8.912037840748194
 20
3.847413682500834
 30
0.0
 10
8.53426097850208
 20
4.028040069353983
 30
0.0
 10
8.197908235416289
 20
4.191041461889188
 30
0.0
 10
7.91397757718954
 20
4.329995264910053
 30
0.0
 10
7.662764232513439
 20
4.454111743512169
 30
0.0
 10
7.410678495050276
 20
4.579733590778903
 30
0.0
 10
7.137774119364241
 20
4.716813401198008
 30
0.0
 10
6.85723934086436
 20
4.858867888732162
 30
0.0
 10
6.570347065591288
 20
5.005275668507025
 30
0.0
 10
6.243329569756608
 20
5.17351601855819
 30
0.0
 10
5.83572842000607
 20
5.385123689221721
 30
0.0
 10
5.528125449985238
 20
5.547431644474303
 30
0.0
 10
5.355536389542596
 20
5.638498962509341
 30
0.0
1001
PE_URL
1000

  0
SPLINE
  5
97
330
1F
100
AcDbEntity
  8
0
  6
Continuous
 62
     1
370
    15
100
AcDbSpline
210
0.0
220
0.0
230
1.0
 70
     8
 71
     3
 72
    60
 73
    56
 74
     0
 42
0.000000001
 43
0.00000001
 40
0.0
 40
0.0
 40
0.0
 40
0.0
 40
0.0095103403074618
 40
0.0181321241641112
 40
0.026046538485312
 40
0.0334947748392865
 40
0.0407714375132962
 40
0.0481969337259785
 40
0.0596139640935203
 40
0.071367855030846
 40
0.0827072887839762
 40
0.0936325081712187
 40
0.1100480916397485
 40
0.1269019502187734
 40
0.1483027645410008
 40
0.1698284242567805
 40
0.1889381714367991
 40
0.2039509361753364
 40
0.217864876015367
 40
0.2316604335291929
 40
0.2459285660158608
 40
0.2647327339439391
 40
0.2885973885172543
 40
0.3127086031223397
 40
0.3353520173510909
 40
0.356266144579501
 40
0.3741696402588661
 40
0.3891718831874571
 40
0.4045386224031389
 40
0.4243261653514906
 40
0.4477537512141843
 40
0.4756321197232558
 40
0.5051558394809977
 40
0.5380070585828578
 40
0.567775391393211
 40
0.5943592526437974
 40
0.6171633831378955
 40
0.6356356207049272
 40
0.6510668054785995
 40
0.6679427819492288
 40
0.6872381039945237
 40
0.7102561584568147
 40
0.7364064582040636
 40
0.7637682681198219
 40
0.7890074426284978
 40
0.8153032393102607
 40
0.8418419034991929
 40
0.8667322738300857
 40
0.8805199939318438
 40
0.8952739852181979
 40
0.9110676265084783
 40
0.9282595131492681
 40
0.9483558540224638
 40
0.9721492192117395
 40
0.9999999999999999
 40
0.9999999999999999
 40
0.9999999999999999
 40
0.9999999999999999
 10
41.01694654465535
 20
9.772026788788423
 30
0.0
 10
40.98549541473754
 20
9.769051942384511
 30
0.0
 10
40.9255316516823
 20
9.763380191151528
 30
0.0
 10
40.80633360163307
 20
9.750017572703268
 30
0.0
 10
40.67003932334023
 20
9.735134786599602
 30
0.0
 10
40.51440604778923
 20
9.719401706469831
 30
0.0
 10
40.34013870364029
 20
9.703749833768093
 30
0.0
 10
40.11786020825025
 20
9.686247543563034
 30
0.0
 10
39.84957690764602
 20
9.668724467647538
 30
0.0
 10
39.55128529087961
 20
9.650102020656776
 30
0.0
 10
39.25574561611266
 20
9.631664451655618
 30
0.0
 10
38.91979651932282
 20
9.611043435022165
 30
0.0
 10
38.53548198773005
 20
9.58792556848333
 30
0.0
 10
38.05950016341877
 20
9.56013647090059
 30
0.0
 10
37.542523402161
 20
9.532008230602926
 30
0.0
 10
37.01199658258828
 20
9.506045149294085
 30
0.0
 10
36.53940432456276
 20
9.485457149520052
 30
0.0
 10
36.13890895436842
 20
9.469876211436175
 30
0.0
 10
35.78624142785213
 20
9.457415760910317
 30
0.0
 10
35.43472502882227
 20
9.446174270398796
 30
0.0
 10
35.03906316077295
 20
9.434954168074423
 30
0.0
 10
34.55817557862233
 20
9.423368049101066
 30
0.0
 10
33.9938864008768
 20
9.412929041823215
 30
0.0
 10
33.39732212673164
 20
9.405643044764318
 30
0.0
 10
32.82588260223322
 20
9.402149207014606
 30
0.0
 10
32.30707857073688
 20
9.40192155894248
 30
0.0
 10
31.85277249798561
 20
9.40401994010144
 30
0.0
 10
31.44522050851817
 20
9.407653172105338
 30
0.0
 10
31.0216697610105
 20
9.413110585132832
 30
0.0
 10
30.52685090200588
 20
9.421774621378828
 30
0.0
 10
29.92659646108728
 20
9.435653055048688
 30
0.0
 10
29.24291121224222
 20
9.455991844372663
 30
0.0
 10
28.48532150723988
 20
9.484194638146779
 30
0.0
 10
27.72528462801559
 20
9.518230812298794
 30
0.0
 10
26.97556329120192
 20
9.557835274082766
 30
0.0
 10
26.29893835644453
 20
9.598873343535328
 30
0.0
 10
25.71708627942048
 20
9.637698255129411
 30
0.0
 10
25.23378089436081
 20
9.672386019746861
 30
0.0
 10
24.80545067369851
 20
9.704935639957663
 30
0.0
 10
24.36987971163751
 20
9.739779212072323
 30
0.0
 10
23.87042638719407
 20
9.781980896611264
 30
0.0
 10
23.2921290272802
 20
9.833886603178769
 30
0.0
 10
22.64533760020144
 20
9.895947677958889
 30
0.0
 10
21.9800843267697
 20
9.963931328015416
 30
0.0
 10
21.31442384903231
 20
10.03607165947863
 30
0.0
 10
20.66542704448583
 20
10.11023715206837
 30
0.0
 10
20.01992359016364
 20
10.18764931045925
 30
0.0
 10
19.45859980210838
 20
10.25885587772205
 30
0.0
 10
18.99700486153469
 20
10.31938586921247
 30
0.0
 10
18.61360137448094
 20
10.3704399560625
 30
0.0
 10
18.20283468506936
 20
10.42562787391739
 30
0.0
 10
17.74179215131796
 20
10.48827159180346
 30
0.0
 10
17.2256834301619
 20
10.56372280864477
 30
0.0
 10
16.65202631809005
 20
10.65208605882081
 30
0.0
 10
16.26474793470738
 20
10.71317509496706
 30
0.0
 10
16.05589550515391
 20
10.74611933912234
 30
0.0
1001
PE_URL
1000

  0
SPLINE
  5
98
330
1F
100
AcDbEntity
  8
0
  6
Continuous
 62
     1
370
    15
100
AcDbSpline
210
0.0
220
0.0
230
1.0
 70
     8
 71
     3
 72
    28
 73
    24
 74
     0
 42
0.000000001
 43
0.00000001
 40
0.0
 40
0.0
 40
0.0
 40
0.0
 40
0.0400673614573256
 40
0.0768117843879441
 40
0.1141209633276896
 40
0.156653599274407
 40
0.199760337947962
 40
0.2361670823512964
 40
0.2658985923255772
 40
0.296153098843648
 40
0.334824222800075
 40
0.3819249639688052
 40
0.4291488437719011
 40
0.4742337318277987
 40
0.5481033261175117
 40
0.6059526409379286
 40
0.658221311786009
 40
0.7160990066156313
 40
0.770077935081569
 40
0.8303736055668713
 40
0.8914219078372602
 40
0.9523503904272675
 40
1.0
 40
1.0
 40
1.0
 40
1.0
 10
16.05589550515391
 20
-10.74611933912235
 30
0.0
 10
16.13241050003571
 20
-10.73329194635052
 30
0.0
 10
16.27909481054528
 20
-10.70870098522874
 30
0.0
 10
16.62148189148715
 20
-10.64955134869519
 30
0.0
 10
17.03762853641917
 20
-10.58497662941589
 30
0.0
 10
17.49578009250019
 20
-10.52124712456612
 30
0.0
 10
17.9412706753076
 20
-10.46120740323929
 30
0.0
 10
18.34336837353433
 20
-10.40682223894027
 30
0.0
 10
18.69830394255678
 20
-10.35922493132134
 30
0.0
 10
19.06297950609484
 20
-10.31061476993916
 30
0.0
 10
19.48695108659562
 20
-10.25528755062773
 30
0.0
 10
19.96727966750763
 20
-10.19470605205042
 30
0.0
 10
20.47055951482572
 20
-10.13358957411219
 30
0.0
 10
21.0700750890116
 20
-10.06355342935837
 30
0.0
 10
21.70713107903114
 20
-9.992902619359315
 30
0.0
 10
22.37037920916775
 20
-9.92370431816712
 30
0.0
 10
22.97656601577091
 20
-9.8637770001677
 30
0.0
 10
23.56915632446466
 20
-9.808561129331782
 30
0.0
 10
24.19017635844849
 20
-9.754452979047796
 30
0.0
 10
24.82216050685087
 20
-9.703172928190588
 30
0.0
 10
25.48523987750586
 20
-9.65379041024848
 30
0.0
 10
26.10915985137326
 20
-9.6107543222014
 30
0.0
 10
26.50393662681666
 20
-9.586811664858953
 30
0.0
 10
26.67718482858158
 20
-9.576304404584095
 30
0.0
1001
PE_URL
1000

  0
SPLINE
  5
99
330
1F
100
AcDbEntity
  8
0
  6
Continuous
 62
     1
370
    15
100
AcDbSpline
210
0.0
220
0.0
230
1.0
 70
     8
 71
     3
 72
    38
 73
    34
 74
     0
 42
0.000000001
 43
0.00000001
 40
0.0
 40
0.0
 40
0.0
 40
0.0
 40
0.0625
 40
0.0625
 40
0.125
 40
0.125
 40
0.1875
 40
0.1875
 40
0.25
 40
0.25
 40
0.3125
 40
0.3125
 40
0.375
 40
0.375
 40
0.4375
 40
0.4375
 40
0.5
 40
0.5
 40
0.5625
 40
0.5625
 40
0.625
 40
0.625
 40
0.6875
 40
0.6875
 40
0.75
 40
0.75
 40
0.8125
 40
0.8125
 40
0.875
 40
0.875
 40
0.9375
 40
0.9375
 40
1.0
 40
1.0
 40
1.0
 40
1.0
 10
46.32488918740387
 20
-14.27542442259353
 30
0.0
 10
45.46765801342744
 20
-14.25503848719621
 30
0.0
 10
44.6051492040226
 20
-14.2087399391086
 30
0.0
 10
42.88358460259261
 20
-14.06485792301202
 30
0.0
 10
42.0272438523093
 20
-13.96745527603468
 30
0.0
 10
40.30577710132267
 20
-13.72212092206059
 30
0.0
 10
39.44322036971227
 20
-13.57420960362381
 30
0.0
 10
37.72847106241629
 20
-13.23049520833524
 30
0.0
 10
36.86629644668707
 20
-13.03403201293743
 30
0.0
 10
35.14463929647015
 20
-12.59476625146866
 30
0.0
 10
34.28828920981623
 20
-12.35232123347235
 30
0.0
 10
32.56692560992438
 20
-11.82279319023962
 30
0.0
 10
31.70432362511026
 20
-11.53586982742312
 30
0.0
 10
29.98929259029817
 20
-10.92252342734133
 30
0.0
 10
29.1274428916766
 20
-10.59498865067694
 30
0.0
 10
27.40569849527976
 20
-9.902940148506088
 30
0.0
 10
26.54932973598042
 20
-9.538968672270217
 30
0.0
 10
24.82807458677549
 20
-8.776623857193078
 30
0.0
 10
23.96543001822772
 20
-8.378516400285836
 30
0.0
 10
22.25012249060635
 20
-7.555009780832989
 30
0.0
 10
21.38858842919753
 20
-7.128203290497861
 30
0.0
 10
19.66676209012392
 20
-6.250496326636965
 30
0.0
 10
18.81036532209603
 20
-5.8003020362475
 30
0.0
 10
17.08922392205643
 20
-4.879099383638584
 30
0.0
 10
16.2265394396858
 20
-4.408422192814972
 30
0.0
 10
14.5109606567889
 20
-3.454621596731408
 30
0.0
 10
13.64973294946545
 20
-2.969963100962165
 30
0.0
 10
11.92782997206001
 20
-1.991734328870694
 30
0.0
 10
11.07139585950786
 20
-1.49898479969281
 30
0.0
 10
9.350373505944019
 20
-0.5082898421599907
 30
0.0
 10
8.48765178007431
 20
-0.010698137057153
 30
0.0
 10
6.77180698220954
 20
0.9808817453398287
 30
0.0
 10
5.910876342706377
 20
1.476371722070906
 30
0.0
 10
5.049889187403871
 20
1.968301753060351
 30
0.0
1001
PE_URL
1000

  0
SPLINE
  5
9A
330
1F
100
AcDbEntity
  8
0
  6
Continuous
 62
     1
370
    15
100
AcDbSpline
210
0.0
220
0.0
230
1.0
 70
     8
 71
     3
 72
    10
 73
     6
 74
     0
 42
0.000000001
 43
0.00000001
 40
0.0
 40
0.0
 40
0.0
 40
0.0
 40
0.0558264112882651
 40
0.5280718508798441
 40
1.0
 40
1.0
 40
1.0
 40
1.0
 10
10.83511044209996
 20
-1.361341642007066
 30
0.0
 10
10.7274626212011
 20
-1.318570353670264
 30
0.0
 10
9.709202935266493
 20
-0.9139892087368383
 30
0.0
 10
7.780535952525099
 20
-0.1314409451857856
 30
0.0
 10
5.95990083369816
 20
0.6025759303374169
 30
0.0
 10
5.049889187403871
 20
0.9694610345493131
 30
0.0
1001
PE_URL
1000

  0
SPLINE
  5
9B
330
1F
100
AcDbEntity
  8
외형선
  6
Continuous
370
    15
100
AcDbSpline
210
0.0
220
0.0
230
1.0
 70
    24
 71
     3
 72
    12
 73
     8
 74
     0
 42
0.000000001
 43
0.00000001
 40
0.0
 40
0.0
 40
0.0
 40
0.0
 40
0.1332036124846731
 40
0.3102127261491993
 40
0.4910713260055342
 40
0.6732600897324099
 40
1.0
 40
1.0
 40
1.0
 40
1.0
 10
5.049889187403868
 20
1.968301753060353
 30
0.0
 10
5.049889187403868
 20
1.949778070199498
 30
0.0
 10
5.049889187403868
 20
1.906638983718265
 30
0.0
 10
5.04988918740387
 20
1.792532403084933
 30
0.0
 10
5.049889187403868
 20
1.631925439115778
 30
0.0
 10
5.049889187403868
 20
1.379933637256686
 30
0.0
 10
5.049889187403868
 20
1.129952626433606
 30
0.0
 10
5.04988918740387
 20
0.9694610345493115
 30
0.0
  0
SPLINE
  5
9C
330
1F
100
AcDbEntity
  8
0
  6
Continuous
 62
     1
370
    15
100
AcDbSpline
210
0.0
220
0.0
230
1.0
 70
     8
 71
     3
 72
    38
 73
    34
 74
     0
 42
0.000000001
 43
0.00000001
 40
0.0
 40
0.0
 40
0.0
 40
0.0
 40
0.0624999999999999
 40
0.0624999999999999
 40
0.1249999999999997
 40
0.1249999999999997
 40
0.1874999999999996
 40
0.1874999999999996
 40
0.2499999999999994
 40
0.2499999999999994
 40
0.3124999999999995
 40
0.3124999999999995
 40
0.3749999999999996
 40
0.3749999999999996
 40
0.4374999999999997
 40
0.4374999999999997
 40
0.4999999999999998
 40
0.4999999999999998
 40
0.5624999999999997
 40
0.5624999999999997
 40
0.6249999999999994
 40
0.6249999999999994
 40
0.6874999999999996
 40
0.6874999999999996
 40
0.7499999999999997
 40
0.7499999999999997
 40
0.8124999999999998
 40
0.8124999999999998
 40
0.8749999999999998
 40
0.8749999999999998
 40
0.9374999999999999
 40
0.9374999999999999
 40
1.0
 40
1.0
 40
1.0
 40
1.0
 10
46.32488918740387
 20
-13.55799266915077
 30
0.0
 10
45.46765801342737
 20
-13.40154552544774
 30
0.0
 10
44.60514920402247
 20
-13.22020733960651
 30
0.0
 10
42.88358460259238
 20
-12.81049767164752
 30
0.0
 10
42.02724385230896
 20
-12.58243940830432
 30
0.0
 10
40.30577710132222
 20
-12.08083490738097
 30
0.0
 10
39.44322036971175
 20
-11.80744864161039
 30
0.0
 10
37.72847106241566
 20
-11.22011998962301
 30
0.0
 10
36.86629644668636
 20
-10.90504503584842
 30
0.0
 10
35.14463929646931
 20
-10.23682578000246
 30
0.0
 10
34.28828920981532
 20
-9.884163007834943
 30
0.0
 10
32.56692560992335
 20
-9.143160823664145
 30
0.0
 10
31.70432362510916
 20
-8.755099560698767
 30
0.0
 10
29.98929259029696
 20
-7.95028334533258
 30
0.0
 10
29.12744289167532
 20
-7.532064540315877
 30
0.0
 10
27.40569849527834
 20
-6.670147765905376
 30
0.0
 10
26.54932973597895
 20
-6.227087887178729
 30
0.0
 10
24.82807458677388
 20
-5.318576528898916
 30
0.0
 10
23.96543001822605
 20
-4.853479807602403
 30
0.0
 10
22.25012249060457
 20
-3.909228007703802
 30
0.0
 10
21.38858842919566
 20
-3.428453682160908
 30
0.0
 10
19.66676209012193
 20
-2.45644376295086
 30
0.0
 10
18.81036532209398
 20
-1.965962692175085
 30
0.0
 10
17.08922392205423
 20
-0.9780767315134263
 30
0.0
 10
16.22653943968355
 20
-0.4810582068897017
 30
0.0
 10
14.51096065678653
 20
0.5110419154013152
 30
0.0
 10
13.649732949463
 20
1.007726567756527
 30
0.0
 10
11.92782997205744
 20
1.995542765117659
 30
0.0
 10
11.07139585950523
 20
2.485868570678986
 30
0.0
 10
9.350373505941251
 20
3.457298769914491
 30
0.0
 10
8.487651780071483
 20
3.938027463400191
 30
0.0
 10
6.771806982206598
 20
4.88173719819489
 30
0.0
 10
5.910876342703355
 20
5.346155029788419
 30
0.0
 10
5.049889187400785
 20
5.80005478217848
 30
0.0
1001
PE_URL
1000

  0
SPLINE
  5
9D
330
1F
100
AcDbEntity
  8
0
  6
Continuous
 62
     1
370
    15
100
AcDbSpline
210
0.0
220
0.0
230
1.0
 70
     8
 71
     3
 72
    21
 73
    17
 74
     0
 42
0.000000001
 43
0.00000001
 40
0.0
 40
0.0
 40
0.0
 40
0.0
 40
0.0748371585181835
 40
0.1496148826151427
 40
0.224413479197542
 40
0.2992754708082631
 40
0.3740717458303734
 40
0.4488502852250587
 40
0.5236911757616934
 40
0.598524511591177
 40
0.6733015429188476
 40
0.7481025832849174
 40
0.8229642714956872
 40
0.8977583472148083
 40
0.9700099268920098
 40
1.0
 40
1.0
 40
1.0
 40
1.0
 10
46.32488918740387
 20
-11.27244122716089
 30
0.0
 10
45.40106468220863
 20
-11.09022384991989
 30
0.0
 10
43.55414935780875
 20
-10.72593380943516
 30
0.0
 10
40.7844110419024
 20
-10.00695706489477
 30
0.0
 10
38.01422666504282
 20
-9.172791659756715
 30
0.0
 10
35.24315606336589
 20
-8.221945458577549
 30
0.0
 10
32.4730098080995
 20
-7.168025595213815
 30
0.0
 10
29.70324258454226
 20
-6.024000470407572
 30
0.0
 10
26.93245304578572
 20
-4.805413383402563
 30
0.0
 10
24.16176427915908
 20
-3.526562482589
 30
0.0
 10
21.39205282863958
 20
-2.202790598214941
 30
0.0
 10
18.62182693514688
 20
-0.8517797114489615
 30
0.0
 10
15.85076965440411
 20
0.5094732824332875
 30
0.0
 10
13.11182717905192
 20
1.84753354662221
 30
0.0
 10
10.92692621486836
 20
2.90531869196514
 30
0.0
 10
9.6647755026337
 20
3.491002004279354
 30
0.0
 10
9.294554647413904
 20
3.662797792746664
 30
0.0
1001
PE_URL
1000

  0
LINE
  5
9E
330
1F
100
AcDbEntity
  8
0
  6
Continuous
 62
     1
370
    15
100
AcDbLine
 10
46.32488918740358
 20
-13.55799266915077
 30
0.0
 11
46.32488918740387
 21
-11.27244122716089
 31
0.0
1001
PE_URL
1000

  0
LINE
  5
9F
330
1F
100
AcDbEntity
  8
외형선
  6
Continuous
370
    15
100
AcDbLine
 10
5.04988918740387
 20
1.968301753060352
 30
0.0
 11
5.04988918740387
 21
5.800054782176637
 31
0.0
  0
LINE
  5
A0
330
1F
100
AcDbEntity
  8
0
  6
Continuous
 62
     1
370
    15
100
AcDbLine
 10
46.32488918740387
 20
-14.27542442259353
 30
0.0
 11
46.3248891874041
 21
-13.55799266915075
 31
0.0
1001
PE_URL
1000

  0
SPLINE
  5
A1
330
1F
100
AcDbEntity
  8
0
  6
Continuous
 62
     1
370
    15
100
AcDbSpline
210
0.0
220
0.0
230
1.0
 70
     8
 71
     3
 72
    38
 73
    34
 74
     0
 42
0.000000001
 43
0.00000001
 40
0.0
 40
0.0
 40
0.0
 40
0.0
 40
0.0625000000000002
 40
0.0625000000000002
 40
0.1250000000000003
 40
0.1250000000000003
 40
0.1875000000000004
 40
0.1875000000000004
 40
0.2500000000000006
 40
0.2500000000000006
 40
0.3125000000000006
 40
0.3125000000000006
 40
0.3750000000000004
 40
0.3750000000000004
 40
0.4375000000000004
 40
0.4375000000000004
 40
0.5000000000000003
 40
0.5000000000000003
 40
0.5625000000000003
 40
0.5625000000000003
 40
0.6250000000000003
 40
0.6250000000000003
 40
0.6875000000000002
 40
0.6875000000000002
 40
0.7500000000000001
 40
0.7500000000000001
 40
0.8125000000000001
 40
0.8125000000000001
 40
0.8750000000000001
 40
0.8750000000000001
 40
0.9375000000000001
 40
0.9375000000000001
 40
1.0
 40
1.0
 40
1.0
 40
1.0
 10
41.84795465795492
 20
2.056872394682039
 30
0.0
 10
41.08190162745147
 20
2.405083679247892
 30
0.0
 10
40.31292417833115
 20
2.750771258351206
 30
0.0
 10
38.77906450637719
 20
3.432619968118026
 30
0.0
 10
38.01560731652296
 20
3.768584988526312
 30
0.0
 10
36.48083242304458
 20
4.429851854424659
 30
0.0
 10
35.71206156967275
 20
4.754765197120299
 30
0.0
 10
34.18168825271672
 20
5.388988756952191
 30
0.0
 10
33.41545629678836
 20
5.698949360499602
 30
0.0
 10
31.87991919732675
 20
6.301973364354573
 30
0.0
 10
31.11455959391924
 20
6.594523567460279
 30
0.0
 10
29.58332983754774
 20
7.159905466414994
 30
0.0
 10
28.81443994110623
 20
7.433086537812012
 30
0.0
 10
27.28005041992646
 20
7.956853266229674
 30
0.0
 10
26.51668274100929
 20
8.207235778470789
 30
0.0
 10
24.9823498187141
 20
8.684498225162491
 30
0.0
 10
24.21344714603089
 20
8.91111908635198
 30
0.0
 10
22.68211023377387
 20
9.337458965686436
 30
0.0
 10
21.91685386183
 20
9.537469625883569
 30
0.0
 10
20.38132256991424
 20
9.909880154593512
 30
0.0
 10
19.61496384214064
 20
10.08195097030942
 30
0.0
 10
18.08470917698405
 20
10.39646464019119
 30
0.0
 10
17.31595693410311
 20
10.53921788049677
 30
0.0
 10
15.78113703276433
 20
10.79378208609443
 30
0.0
 10
15.01765624257552
 20
10.90550415829162
 30
0.0
 10
13.48386474829022
 20
11.09759791622909
 30
0.0
 10
12.71488035995876
 20
11.17785749311265
 30
0.0
 10
11.182678662097
 20
11.30579723670932
 30
0.0
 10
10.41819565984874
 20
11.35355858476335
 30
0.0
 10
8.882769891583335
 20
11.41638480858394
 30
0.0
 10
8.115210063102435
 20
11.43136694164685
 30
0.0
 10
6.586029065474655
 20
11.42843705668303
 30
0.0
 10
5.817464547073252
 20
11.41051037666124
 30
0.0
 10
5.04988918740388
 20
11.3761739913208
 30
0.0
1001
PE_URL
1000

  0
SPLINE
  5
A2
330
1F
100
AcDbEntity
  8
0
  6
Continuous
 62
     1
370
    15
100
AcDbSpline
210
0.0
220
0.0
230
1.0
 70
     8
 71
     3
 72
     8
 73
     4
 74
     0
 42
0.000000001
 43
0.00000001
 40
0.0
 40
0.0
 40
0.0
 40
0.0
 40
1.0
 40
1.0
 40
1.0
 40
1.0
 10
41.84795465796365
 20
2.056872394678066
 30
0.0
 10
41.90770947182715
 20
1.336864287756912
 30
0.0
 10
41.90211691278289
 20
0.62325177424314
 30
0.0
 10
41.83980015455065
 20
-0.0848091019480796
 30
0.0
1001
PE_URL
1000

  0
SPLINE
  5
A3
330
1F
100
AcDbEntity
  8
0
  6
Continuous
 62
     1
370
    15
100
AcDbSpline
210
0.0
220
0.0
230
1.0
 70
     8
 71
     3
 72
     8
 73
     4
 74
     0
 42
0.000000001
 43
0.00000001
 40
0.0
 40
0.0
 40
0.0
 40
0.0
 40
1.0
 40
1.0
 40
1.0
 40
1.0
 10
46.32488918740387
 20
-3.818233591398553
 30
0.0
 10
44.80760002703448
 20
-2.62539716155786
 30
0.0
 10
43.31230016523866
 20
-1.381549115337537
 30
0.0
 10
41.8398001545506
 20
-0.0848091019482235
 30
0.0
1001
PE_URL
1000

  0
SPLINE
  5
A4
330
1F
100
AcDbEntity
  8
0
  6
Continuous
 62
     1
370
    15
100
AcDbSpline
210
0.0
220
0.0
230
1.0
 70
    24
 71
     3
 72
    14
 73
    10
 74
     0
 42
0.000000001
 43
0.00000001
 40
0.0
 40
0.0
 40
0.0
 40
0.0
 40
0.25
 40
0.25
 40
0.5
 40
0.5
 40
0.75
 40
0.75
 40
1.0
 40
1.0
 40
1.0
 40
1.0
 10
46.32488918740387
 20
-11.27244122716089
 30
0.0
 10
46.32488918740385
 20
-10.84038097377638
 30
0.0
 10
46.32488918740387
 20
-10.35243942288555
 30
0.0
 10
46.32488918740387
 20
-9.273169113985382
 30
0.0
 10
46.32488918740385
 20
-8.681860135701594
 30
0.0
 10
46.32488918740385
 20
-7.41263775447743
 30
0.0
 10
46.32488918740387
 20
-6.734795127081763
 30
0.0
 10
46.32488918740387
 20
-5.31638843127504
 30
0.0
 10
46.32488918740387
 20
-4.575931841997303
 30
0.0
 10
46.32488918740387
 20
-3.818233591399012
 30
0.0
1001
PE_URL
1000

  0
SPLINE
  5
A5
330
1F
100
AcDbEntity
  8
외형선
  6
Continuous
370
    15
100
AcDbSpline
210
0.0
220
0.0
230
1.0
 70
    24
 71
     3
 72
    19
 73
    15
 74
     0
 42
0.000000001
 43
0.00000001
 40
0.0
 40
0.0
 40
0.0
 40
0.0
 40
0.066511754826196
 40
0.133023509652392
 40
0.2003988994310649
 40
0.2677742892097378
 40
0.365897517593655
 40
0.464020745977572
 40
0.5649946664451526
 40
0.6659685869127331
 40
0.7546774498127579
 40
0.8433863127127827
 40
0.9341816969370305
 40
1.0
 40
1.0
 40
1.0
 40
1.0
 10
5.049889187403871
 20
11.3761739913208
 30
0.0
 10
5.049889187403871
 20
11.36582731030283
 30
0.0
 10
5.04988918740387
 20
11.34513394826687
 30
0.0
 10
5.049889187403868
 20
11.25065000742508
 30
0.0
 10
5.049889187403868
 20
11.10901969374557
 30
0.0
 10
5.04988918740387
 20
10.88625945231201
 30
0.0
 10
5.049889187403868
 20
10.55444077125902
 30
0.0
 10
5.049889187403868
 20
10.07686613854592
 30
0.0
 10
5.049889187403868
 20
9.491244972332792
 30
0.0
 10
5.049889187403868
 20
8.827249969405988
 30
0.0
 10
5.049889187403868
 20
8.108591861690979
 30
0.0
 10
5.04988918740387
 20
7.343640489561953
 30
0.0
 10
5.049889187403868
 20
6.589292514337452
 30
0.0
 10
5.049889187403868
 20
6.061365898533392
 30
0.0
 10
5.049889187403868
 20
5.839500015698544
 30
0.0
  0
LINE
  5
A6
330
1F
100
AcDbEntity
  8
0
  6
Continuous
 62
     1
370
    15
100
AcDbLine
 10
41.32488918740387
 20
2.937719435296589
 30
0.0
 11
46.32488918740387
 21
0.0000000000000023
 31
0.0
1001
PE_URL
1000

  0
LINE
  5
A7
330
1F
100
AcDbEntity
  8
0
  6
Continuous
 62
     1
370
    15
100
AcDbLine
 10
46.32488918740387
 20
0.0000000000000023
 30
0.0
 11
46.32488918740387
 21
-3.81823359139855
 31
0.0
1001
PE_URL
1000

  0
SPLINE
  5
A8
330
1F
100
AcDbEntity
  8
0
  6
Continuous
 62
     1
370
    15
100
AcDbSpline
210
0.0
220
0.0
230
1.0
 70
    24
 71
     3
 72
    10
 73
     6
 74
     0
 42
0.000000001
 43
0.00000001
 40
0.0
 40
0.0
 40
0.0
 40
0.0
 40
0.4999999999999998
 40
0.4999999999999998
 40
1.0
 40
1.0
 40
1.0
 40
1.0
 10
41.32488918740388
 20
2.903267587236818
 30
0.0
 10
41.32488918740387
 20
4.062656055186829
 30
0.0
 10
41.32488918740387
 20
5.152387741769966
 30
0.0
 10
41.32488918740385
 20
7.040785214705715
 30
0.0
 10
41.32488918740388
 20
7.837540184130851
 30
0.0
 10
41.32488918740388
 20
8.437440756011974
 30
0.0
1001
PE_URL
1000

  0
SPLINE
  5
A9
330
1F
100
AcDbEntity
  8
0
  6
Continuous
 62
     1
370
    15
100
AcDbSpline
210
0.0
220
0.0
230
1.0
 70
     8
 71
     3
 72
     9
 73
     5
 74
     0
 42
0.000000001
 43
0.00000001
 40
0.0
 40
0.0
 40
0.0
 40
0.0
 40
0.522089112821628
 40
0.9999999999999999
 40
0.9999999999999999
 40
0.9999999999999999
 40
0.9999999999999999
 10
46.32488918740387
 20
10.00125
 30
0.0
 10
45.40107243669016
 20
9.991213057316857
 30
0.0
 10
43.63161061872398
 20
9.971988479679343
 30
0.0
 10
41.86237547747579
 20
9.833497824662656
 30
0.0
 10
41.01683874149472
 20
9.76731163285772
 30
0.0
1001
PE_URL
1000

  0
SPLINE
  5
AA
330
1F
100
AcDbEntity
  8
0
  6
Continuous
 62
     1
370
    15
100
AcDbSpline
210
0.0
220
0.0
230
1.0
 70
     8
 71
     3
 72
     8
 73
     4
 74
     0
 42
0.000000001
 43
0.00000001
 40
0.0
 40
0.0
 40
0.0
 40
0.0
 40
1.0
 40
1.0
 40
1.0
 40
1.0
 10
46.32488918740387
 20
10.00125
 30
0.0
 10
44.64607441382799
 20
9.546169416721769
 30
0.0
 10
42.97900425790923
 20
9.027098086698862
 30
0.0
 10
41.32488918740387
 20
8.437440756011974
 30
0.0
1001
PE_URL
1000

  0
SPLINE
  5
AB
330
1F
100
AcDbEntity
  8
0
  6
Continuous
 62
     1
370
    15
100
AcDbSpline
210
0.0
220
0.0
230
1.0
 70
     8
 71
     3
 72
     8
 73
     4
 74
     0
 42
0.000000001
 43
0.00000001
 40
0.0
 40
0.0
 40
0.0
 40
0.0
 40
1.0
 40
1.0
 40
1.0
 40
1.0
 10
41.32488918740387
 20
2.903267587236509
 30
0.0
 10
41.5072491483913
 20
2.629565818839098
 30
0.0
 10
41.68173305650853
 20
2.347569677602608
 30
0.0
 10
41.84795465796364
 20
2.056872394678071
 30
0.0
1001
PE_URL
1000

  0
SPLINE
  5
AC
330
1F
100
AcDbEntity
  8
0
  6
Continuous
 62
     1
370
    15
100
AcDbSpline
210
0.0
220
0.0
230
1.0
 70
     8
 71
     3
 72
    12
 73
     8
 74
     0
 42
0.000000001
 43
0.00000001
 40
0.0
 40
0.0
 40
0.0
 40
0.0
 40
0.0187388301528877
 40
0.2703768238519554
 40
0.5134589146200091
 40
0.7568024154822177
 40
1.0
 40
1.0
 40
1.0
 40
1.0
 10
16.05628575583593
 20
-10.7414980259679
 30
0.0
 10
15.98752991100857
 20
-10.75381902866056
 30
0.0
 10
14.99547294725966
 20
-10.93159499159598
 30
0.0
 10
13.11183120473518
 20
-11.14673544533546
 30
0.0
 10
10.40433356165
 20
-11.37171025094893
 30
0.0
 10
7.727072695874772
 20
-11.456983574646
 30
0.0
 10
5.942105249713105
 20
-11.40310513294899
 30
0.0
 10
5.04988918740388
 20
-11.37617399132081
 30
0.0
1001
PE_URL
1000

  0
SPLINE
  5
AD
330
1F
100
AcDbEntity
  8
외형선
  6
Continuous
370
    15
100
AcDbSpline
210
0.0
220
0.0
230
1.0
 70
    24
 71
     3
 72
    14
 73
    10
 74
     0
 42
0.000000001
 43
0.00000001
 40
0.0
 40
0.0
 40
0.0
 40
0.0
 40
0.2500000000000001
 40
0.2500000000000001
 40
0.5000000000000002
 40
0.5000000000000002
 40
0.7500000000000001
 40
0.7500000000000001
 40
1.0
 40
1.0
 40
1.0
 40
1.0
 10
5.049889187403863
 20
0.9694610345493164
 30
0.0
 10
5.049889187403863
 20
-0.2874711085215864
 30
0.0
 10
5.049889187403863
 20
-1.566586592590122
 30
0.0
 10
5.049889187403863
 20
-4.046424879569749
 30
0.0
 10
5.049889187403863
 20
-5.245789698218676
 30
0.0
 10
5.049889187403863
 20
-7.439964980678304
 30
0.0
 10
5.049889187403863
 20
-8.433606296163946
 30
0.0
 10
5.049889187403863
 20
-10.12957156549823
 30
0.0
 10
5.049889187403863
 20
-10.83163852703381
 30
0.0
 10
5.049889187403863
 20
-11.3761739913208
 30
0.0
  0
LINE
  5
AE
330
1F
100
AcDbEntity
  8
0
  6
Continuous
 62
     1
370
    15
100
AcDbLine
 10
46.32488918740387
 20
0.0000000000000023
 30
0.0
 11
46.32488918740387
 21
10.00125
 31
0.0
1001
PE_URL
1000

  0
SPLINE
  5
AF
330
1F
100
AcDbEntity
  8
0
  6
Continuous
 62
     1
370
    15
100
AcDbSpline
210
0.0
220
0.0
230
1.0
 70
     8
 71
     3
 72
    16
 73
    12
 74
     0
 42
0.000000001
 43
0.00000001
 40
0.0
 40
0.0
 40
0.0
 40
0.0
 40
0.0756033297218362
 40
0.191220283077292
 40
0.3067304262572613
 40
0.4222447385115494
 40
0.537858203154744
 40
0.6533178872287124
 40
0.7689576915882241
 40
0.8844344669988272
 40
1.0
 40
1.0
 40
1.0
 40
1.0
 10
26.678053033092
 20
9.576673076755178
 30
0.0
 10
27.17309817943659
 20
9.790280952122432
 30
0.0
 10
28.4251947916935
 20
10.33055025700025
 30
0.0
 10
30.43451972470216
 20
11.09309518712191
 30
0.0
 10
32.704361737748
 20
11.87732724674122
 30
0.0
 10
34.97419133616365
 20
12.55763044247934
 30
0.0
 10
37.24467817529023
 20
13.13246166690306
 30
0.0
 10
39.51436249256841
 20
13.59840806179012
 30
0.0
 10
41.78503591801685
 20
13.94660417579114
 30
0.0
 10
44.0547358083011
 20
14.18692599701293
 30
0.0
 10
45.56797761788787
 20
14.24591739332294
 30
0.0
 10
46.32488918740387
 20
14.27542442259353
 30
0.0
1001
PE_URL
1000

  0
SPLINE
  5
B0
330
1F
100
AcDbEntity
  8
0
  6
Continuous
 62
     1
370
    15
100
AcDbSpline
210
0.0
220
0.0
230
1.0
 70
    24
 71
     3
 72
    12
 73
     8
 74
     0
 42
0.000000001
 43
0.00000001
 40
0.0
 40
0.0
 40
0.0
 40
0.0
 40
0.4999999999999994
 40
0.4999999999999994
 40
0.7499999999999997
 40
0.7499999999999997
 40
1.0
 40
1.0
 40
1.0
 40
1.0
 10
46.32488918740387
 20
10.00125
 30
0.0
 10
46.32488918740387
 20
10.6075008691345
 30
0.0
 10
46.32488918740387
 20
11.31202052393893
 30
0.0
 10
46.32488918740387
 20
12.42058077765589
 30
0.0
 10
46.32488918740387
 20
12.79789599038187
 30
0.0
 10
46.32488918740388
 20
13.54650148965526
 30
0.0
 10
46.32488918740385
 20
13.91765556830353
 30
0.0
 10
46.32488918740387
 20
14.27542442259353
 30
0.0
1001
PE_URL
1000

  0
LINE
  5
B1
330
1F
100
AcDbEntity
  8
중심선
 62
     1
100
AcDbLine
 10
-65.45011081259614
 20
-0.0000000000000092
 30
0.0
 11
53.32488918740387
 21
0.0000000000000055
 31
0.0
  0
LINE
  5
B2
330
1F
100
AcDbEntity
  8
참조1
100
AcDbLine
 10
0.2873891874038703
 20
-0.0000000000000068
 30
0.0
 11
0.2873891874038754
 21
-40.00000000000001
 31
0.0
  0
LINE
  5
B3
330
1F
100
AcDbEntity
  8
참조1
100
AcDbLine
 10
0.2873891874038754
 20
-40.00000000000001
 30
0.0
 11
-21.2214426269048
 21
-40.0
 31
0.0
  0
INSERT
  5
B5
330
1F
100
AcDbEntity
  8
0
  6
Continuous
 62
     7
100
AcDbBlockReference
 66
     1
  2
블럭10
 10
-13.65288374472133
 20
-52.04717430164393
 30
0.0
  0
ATTRIB
  5
B6
330
B5
100
AcDbEntity
  8
FORMAT
 62
     2
100
AcDbText
 10
-22.83417903346262
 20
-49.97180738881175
 30
0.0
 40
4.233333333333333
  1
E1030108 [ 2 FLUTE ]
 41
0.75
  7
SLDTEXTSTYLE0
 11
-22.83417903346262
 21
-52.08847405547841
 31
0.0
100
AcDbAttribute
  2
AUTOATTR0
 70
     0
 74
     1
  0
SEQEND
  5
B7
330
B5
100
AcDbEntity
  8
0
  6
Continuous
 62
     7
  0
HATCH
  5
B8
330
1F
100
AcDbEntity
  8
중심선
100
AcDbHatch
 10
0.0
 20
0.0
 30
0.0
210
0.0
220
0.0
230
1.0
  2
SOLID
 70
     1
 71
     0
 91
        1
 92
        0
 93
        4
 72
     1
 10
-7.937974440340493
 20
-35.8
 11
-11.38424968417777
 21
-35.8
 72
     1
 10
-11.38424968417777
 20
-35.8
 11
-13.5124795433818
 21
-38.3363255805726
 72
     1
 10
-13.5124795433818
 20
-38.3363255805726
 11
-10.06617121443137
 21
-38.33628615127011
 72
     1
 10
-10.06617121443137
 20
-38.33628615127011
 11
-7.937974440340493
 21
-35.8
 97
        0
 75
     0
 76
     1
 98
        1
 10
1.309310355276935
 20
-0.001074928723896
  0
HATCH
  5
B9
330
1F
100
AcDbEntity
  8
중심선
100
AcDbHatch
 10
0.0
 20
0.0
 30
0.0
210
0.0
220
0.0
230
1.0
  2
SOLID
 70
     1
 71
     0
 91
        1
 92
        0
 93
        4
 72
     1
 10
-2.925210449304513
 20
-35.8
 11
-6.371485693141796
 21
-35.8
 72
     1
 10
-6.371485693141796
 20
-35.8
 11
-10.90262370149921
 21
-41.20000000000002
 72
     1
 10
-10.90262370149921
 20
-41.20000000000002
 11
-7.45634845766193
 21
-41.20000000000002
 72
     1
 10
-7.45634845766193
 20
-41.20000000000002
 11
-2.925210449304513
 21
-35.8
 97
        0
 75
     0
 76
     1
 98
        1
 10
1.309310355276935
 20
-0.001074928723896
  0
HATCH
  5
BA
330
1F
100
AcDbEntity
  8
중심선
100
AcDbHatch
 10
0.0
 20
0.0
 30
0.0
210
0.0
220
0.0
230
1.0
  2
SOLID
 70
     1
 71
     0
 91
        1
 92
        0
 93
        4
 72
     1
 10
2.087553541731354
 20
-35.8
 11
-1.358721702105734
 21
-35.8
 72
     1
 10
-1.358721702105734
 20
-35.8
 11
-8.407158603995011
 21
-44.20000000000002
 72
     1
 10
-8.407158603995011
 20
-44.20000000000002
 11
-4.960883360157728
 21
-44.20000000000002
 72
     1
 10
-4.960883360157728
 20
-44.20000000000002
 11
2.087553541731355
 21
-35.8
 97
        0
 75
     0
 76
     1
 98
        1
 10
1.309310355276935
 20
-0.001074928723896
  0
HATCH
  5
BB
330
1F
100
AcDbEntity
  8
중심선
100
AcDbHatch
 10
0.0
 20
0.0
 30
0.0
210
0.0
220
0.0
230
1.0
  2
SOLID
 70
     1
 71
     0
 91
        1
 92
        0
 93
        6
 72
     3
 10
6.887443972743553
 20
-40.00000000005127
 11
3.960054785062284
 21
1.540882976769353E-10
 40
0.3939339440162627
 50
17.09539180608437
 51
320.0019657685086
 73
     0
 72
     1
 10
8.57044362844415
 20
-38.58789400463833
 11
10.87574550214521
 21
-36.65356729459038
 72
     3
 10
6.887443972690707
 20
-40.00000000000015
 11
6.60005478528683
 21
-1.278976924368180E-13
 40
0.636358354079598
 50
39.99873849337385
 51
368.4976242363725
 73
     1
 72
     1
 10
13.31277646459132
 20
-39.03999999993002
 11
5.567511279526629
 21
-39.03999999993002
 72
     1
 10
5.567511279526629
 20
-39.03999999993002
 11
5.567486235080695
 21
-40.95999999992991
 72
     1
 10
5.567486235080695
 20
-40.95999999992991
 11
10.00886600455273
 21
-40.95999999992988
 97
        0
 75
     0
 76
     1
 98
        1
 10
1.309310355276935
 20
-0.001074928723896
  0
DIMENSION
  5
BC
330
1F
100
AcDbEntity
  8
치수문자_일반주서
100
AcDbDimension
  2
_D
 10
-73.45011081259605
 20
-12.70000000000008
 30
0.0
 11
-73.4501108125962
 21
29.32499999999987
 31
0.0
 70
   160
  1
%%c<>
 71
     2
 42
25.39999999999995
 52
-270.0
  3
SLDDIMSTYLE2
100
AcDbAlignedDimension
 13
-43.84511081259615
 23
12.69999999999998
 33
0.0
 14
-57.45011081259614
 24
-12.70000000000002
 34
0.0
 50
90.0000000000002
100
AcDbRotatedDimension
1001
PE_URL
1000

1001
ACAD
1000
DSTYLE
1002
{
1070
   171
1070
     8
1070
   273
1070
     7
1070
    41
1040
4.0
1070
   140
1040
4.0
1002
}
1001
ACAD_DSTYLE_DIMFLIPARROW_SYMBOL
1070
   385
1070
     0
1001
ACAD_DSTYLE_DIMFLIPARROW_WHICH_SYMBOL
1070
   386
1070
     3
  0
DIMENSION
  5
CA
330
1F
100
AcDbEntity
  8
치수문자_일반주서
100
AcDbDimension
  2
_D_1
 10
5.049889187403874
 20
27.69999999999998
 30
0.0
 11
25.68738918740387
 21
27.69999999999998
 31
0.0
 70
   160
  1
<>
 71
     2
 42
41.275
  3
SLDDIMSTYLE2
100
AcDbAlignedDimension
 13
46.32488918740387
 23
14.27542442259353
 33
0.0
 14
5.049889187403873
 24
5.47284932406939
 34
0.0
100
AcDbRotatedDimension
1001
PE_URL
1000

1001
ACAD
1000
DSTYLE
1002
{
1070
   171
1070
     8
1070
   273
1070
     7
1070
    41
1040
4.0
1070
   140
1040
4.0
1002
}
  0
DIMENSION
  5
E0
330
1F
100
AcDbEntity
  8
치수문자_일반주서
100
AcDbDimension
  2
_D_2
 10
-58.45011081259614
 20
42.69999999999998
 30
0.0
 11
-7.650110812596147
 21
42.69999999999998
 31
0.0
 70
   160
  1
<>
 71
     2
 42
104.775
  3
SLDDIMSTYLE2
100
AcDbAlignedDimension
 13
46.32488918740387
 23
14.27542442259353
 33
0.0
 14
-58.45011081259614
 24
10.79499999999999
 34
0.0
 50
0.000000000000008
100
AcDbRotatedDimension
1001
PE_URL
1000

1001
ACAD
1000
DSTYLE
1002
{
1070
   171
1070
     8
1070
   273
1070
     7
1070
    41
1040
4.0
1070
   140
1040
4.0
1002
}
  0
DIMENSION
  5
F4
330
1F
100
AcDbEntity
  8
치수문자_일반주서
100
AcDbDimension
  2
_D_3
 10
61.32488918740381
 20
14.27542442259359
 30
0.0
 11
61.32488918740373
 21
36.65042442259359
 31
0.0
 70
   160
  1
%%c<>
 71
     2
 42
28.55084884518707
 52
-270.0
  3
SLDDIMSTYLE2
100
AcDbAlignedDimension
 13
46.32488918740387
 23
-14.27542442259353
 33
0.0
 14
46.32488918740387
 24
14.27542442259353
 34
0.0
 50
90.0000000000002
100
AcDbRotatedDimension
1001
PE_URL
1000

1001
ACAD
1000
DSTYLE
1002
{
1070
   171
1070
     8
1070
   273
1070
     7
1070
    41
1040
4.0
1070
   140
1040
4.0
1002
}
1001
ACAD_DSTYLE_DIMFLIPARROW_SYMBOL
1070
   385
1070
     0
1001
ACAD_DSTYLE_DIMFLIPARROW_WHICH_SYMBOL
1070
   386
1070
     3
  0
LINE
  5
108
330
1F
100
AcDbEntity
  8
참조1
100
AcDbLine
 10
76.75089800274947
 20
7.44
 30
0.0
 11
76.75089800274947
 21
-7.440000000000005
 31
0.0
  0
LINE
  5
109
330
1F
100
AcDbEntity
  8
참조1
100
AcDbLine
 10
89.45089800274947
 20
5.44
 30
0.0
 11
76.75089800274947
 21
5.44
 31
0.0
  0
SOLID
  5
10A
330
1F
100
AcDbEntity
  8
참조1
100
AcDbTrace
 10
76.75089800274947
 20
5.44
 30
0.0
 11
83.10089800274946
 21
4.423999999999999
 31
0.0
 12
83.10089800274946
 22
6.456
 32
0.0
 13
83.10089800274946
 23
6.456
 33
0.0
  0
LINE
  5
10B
330
1F
100
AcDbEntity
  8
참조1
100
AcDbLine
 10
89.45089800274947
 20
-5.440000000000005
 30
0.0
 11
76.75089800274947
 21
-5.440000000000005
 31
0.0
  0
SOLID
  5
10C
330
1F
100
AcDbEntity
  8
참조1
100
AcDbTrace
 10
76.75089800274947
 20
-5.440000000000005
 30
0.0
 11
83.10089800274946
 21
-6.456000000000005
 31
0.0
 12
83.10089800274946
 22
-4.424000000000005
 32
0.0
 13
83.10089800274946
 23
-4.424000000000005
 33
0.0
  0
MTEXT
  5
10D
330
1F
100
AcDbEntity
  8
참조1
100
AcDbMText
 10
86.13524813537545
 20
11.01029177718833
 30
0.0
 40
3.5
 41
0.0
 71
     1
 72
     1
  1
A
  7
SLDTEXTSTYLE0
 73
     1
 44
1.0
  0
MTEXT
  5
10E
330
1F
100
AcDbEntity
  8
참조1
100
AcDbMText
 10
86.13524813537545
 20
0.1302917771883241
 30
0.0
 40
3.5
 41
0.0
 71
     1
 72
     1
  1
A
  7
SLDTEXTSTYLE0
 73
     1
 44
1.0
  0
LINE
  5
1DB
330
1F
100
AcDbEntity
  8
외형선
  6
Continuous
370
    15
100
AcDbLine
 10
1.999999999999956
 20
12.69999999999998
 30
0.0
 11
-21.02003581259613
 21
12.69999999999998
 31
0.0
  0
LINE
  5
1DC
330
1F
100
AcDbEntity
  8
외형선
  6
Continuous
370
    15
100
AcDbLine
 10
-57.45011081259614
 20
-12.70000000000002
 30
0.0
 11
1.999999999999956
 21
-12.70000000000002
 31
0.0
  0
LINE
  5
1DE
330
1F
100
AcDbEntity
  8
외형선
  6
Continuous
370
    15
100
AcDbLine
 10
-58.45011081259614
 20
-11.7
 30
0.0
 11
-57.45011081259614
 21
-12.7
 31
0.0
  0
SPLINE
  5
1DF
330
1F
100
AcDbEntity
  8
외형선
  6
Continuous
370
    15
100
AcDbSpline
210
0.0
220
0.0
230
1.0
 70
     8
 71
     3
 72
     9
 73
     5
 74
     0
 42
0.000000001
 43
0.00000001
 40
0.0
 40
0.0
 40
0.0
 40
0.0
 40
0.513415295112947
 40
1.0
 40
1.0
 40
1.0
 40
1.0
 10
5.04988918740388
 20
11.3761739913208
 30
0.0
 10
4.613357243020597
 20
11.36924605639808
 30
0.0
 10
3.763106094411451
 20
11.35575223377791
 30
0.0
 10
2.913167503991008
 20
11.35511638711444
 30
0.0
 10
2.499600385799165
 20
11.35480699385335
 30
0.0
  0
SPLINE
  5
1E0
330
1F
100
AcDbEntity
  8
외형선
  6
Continuous
370
    15
100
AcDbSpline
210
0.0
220
0.0
230
1.0
 70
     8
 71
     3
 72
    15
 73
    11
 74
     0
 42
0.000000001
 43
0.00000001
 40
0.0
 40
0.0
 40
0.0
 40
0.0
 40
0.0244565305945641
 40
0.0541440412063436
 40
0.1454998821154878
 40
0.4992080449012715
 40
0.852911514464883
 40
0.9446926652743755
 40
0.9748701462068602
 40
1.0
 40
1.0
 40
1.0
 40
1.0
 10
2.498919121627185
 20
11.35500001652132
 30
0.0
 10
2.496629351163935
 20
11.35545071467352
 30
0.0
 10
2.491560053790134
 20
11.35644851030236
 30
0.0
 10
2.468162818431703
 20
11.37017765397778
 30
0.0
 10
2.377757193317559
 20
11.44137491404217
 30
0.0
 10
2.229064637441343
 20
11.58438977981457
 30
0.0
 10
2.085966637261389
 20
11.73331893267461
 30
0.0
 10
2.014983918084165
 20
11.82275276947473
 30
0.0
 10
2.001411908690893
 20
11.84530753629066
 30
0.0
 10
2.000441102674304
 20
11.84995499000928
 30
0.0
 10
1.999999999999953
 20
11.85206664180083
 30
0.0
  0
SPLINE
  5
1E1
330
1F
100
AcDbEntity
  8
외형선
  6
Continuous
370
    15
100
AcDbSpline
210
0.0
220
0.0
230
1.0
 70
     8
 71
     3
 72
    11
 73
     7
 74
     0
 42
0.000000001
 43
0.00000001
 40
0.0
 40
0.0
 40
0.0
 40
0.0
 40
0.2098863354409208
 40
0.4444777216078921
 40
0.707289598900393
 40
1.0
 40
1.0
 40
1.0
 40
1.0
 10
2.000042371073213
 20
-11.35712135543129
 30
0.0
 10
2.204747103952456
 20
-11.35600573757212
 30
0.0
 10
2.638251710535712
 20
-11.35364318603587
 30
0.0
 10
3.359951143671352
 20
-11.35505519951308
 30
0.0
 10
4.173158936773702
 20
-11.36203170137181
 30
0.0
 10
4.747344768257114
 20
-11.37129373209061
 30
0.0
 10
5.049889187403863
 20
-11.3761739913208
 30
0.0
  0
SPLINE
  5
1E3
330
1F
100
AcDbEntity
  8
외형선
  6
Continuous
370
    15
100
AcDbSpline
210
0.0
220
0.0
230
1.0
 70
     8
 71
     3
 72
    10
 73
     6
 74
     0
 42
0.000000001
 43
0.00000001
 40
0.0
 40
0.0
 40
0.0
 40
0.0
 40
0.5
 40
0.5
 40
1.0
 40
1.0
 40
1.0
 40
1.0
 10
5.04988918740387
 20
5.800054782176644
 30
0.0
 10
4.540909610180917
 20
6.037900384674436
 30
0.0
 10
4.031266146552801
 20
6.26987140308607
 30
0.0
 10
3.014324012470467
 20
6.720404979008435
 30
0.0
 10
2.508312872537863
 20
6.93879571814947
 30
0.0
 10
2.000116015221955
 20
7.150455157774565
 30
0.0
  0
LINE
  5
1E4
330
1F
100
AcDbEntity
  8
외형선
  6
Continuous
370
    15
100
AcDbLine
 10
5.049889187403877
 20
7.446721624469284
 30
0.0
 11
5.049889187403877
 21
4.315827518756308
 31
0.0
  0
SPLINE
  5
1E5
330
1F
100
AcDbEntity
  8
외형선
  6
Continuous
370
    15
100
AcDbSpline
210
0.0
220
0.0
230
1.0
 70
     8
 71
     3
 72
    10
 73
     6
 74
     0
 42
0.000000001
 43
0.00000001
 40
0.0
 40
0.0
 40
0.0
 40
0.0
 40
0.5
 40
0.5
 40
1.0
 40
1.0
 40
1.0
 40
1.0
 10
5.049889187403861
 20
1.968301753060367
 30
0.0
 10
4.540890244533625
 20
2.244455467411755
 30
0.0
 10
4.031227364804974
 20
2.517264201236835
 30
0.0
 10
3.01424671643147
 20
3.054233043298105
 30
0.0
 10
2.508216401492708
 20
3.318178018838723
 30
0.0
 10
1.999999999999955
 20
3.577756454960522
 30
0.0
  0
LINE
  5
1E6
330
1F
100
AcDbEntity
  8
외형선
  6
Continuous
370
    15
100
AcDbLine
 10
1.99999999999996
 20
11.85206664180083
 30
0.0
 11
1.999999999999956
 21
12.69999999999998
 31
0.0
  0
LINE
  5
1E7
330
1F
100
AcDbEntity
  8
외형선
  6
Continuous
370
    15
100
AcDbLine
 10
-57.45011081259614
 20
10.79499999999999
 30
0.0
 11
-57.45011081259614
 21
-12.70000000000002
 31
0.0
  0
LINE
  5
1E8
330
1F
100
AcDbEntity
  8
외형선
  6
Continuous
370
    15
100
AcDbLine
 10
1.999999999999956
 20
-12.70000000000002
 30
0.0
 11
1.99999999999997
 21
7.150455157774566
 31
0.0
  0
LINE
  5
1E9
330
1F
100
AcDbEntity
  8
외형선
  6
Continuous
370
    15
100
AcDbLine
 10
-58.45011081259614
 20
10.79499999999999
 30
0.0
 11
-58.45011081259614
 21
-11.69999999999999
 31
0.0
  0
SPLINE
  5
1EA
330
1F
100
AcDbEntity
  8
외형선
  6
Continuous
370
    15
100
AcDbSpline
210
0.0
220
0.0
230
1.0
 70
    24
 71
     3
 72
    10
 73
     6
 74
     0
 42
0.000000001
 43
0.00000001
 40
0.0
 40
0.0
 40
0.0
 40
0.0
 40
0.4999999999999999
 40
0.4999999999999999
 40
1.0
 40
1.0
 40
1.0
 40
1.0
 10
5.049889187403877
 20
4.315827518756286
 30
0.0
 10
5.049889187403877
 20
4.27965861532698
 30
0.0
 10
5.049889187403877
 20
4.110592275494113
 30
0.0
 10
5.049889187403877
 20
3.536403249295887
 30
0.0
 10
5.049889187403877
 20
3.133699623960418
 30
0.0
 10
5.049889187403877
 20
2.674846316482871
 30
0.0
  0
SPLINE
  5
1EB
330
1F
100
AcDbEntity
  8
외형선
  6
Continuous
370
    15
100
AcDbSpline
210
0.0
220
0.0
230
1.0
 70
     8
 71
     3
 72
    10
 73
     6
 74
     0
 42
0.000000001
 43
0.00000001
 40
0.0
 40
0.0
 40
0.0
 40
0.0
 40
0.5
 40
0.5
 40
1.0
 40
1.0
 40
1.0
 40
1.0
 10
5.049889187403855
 20
0.9694610345493235
 30
0.0
 10
4.540894911071702
 20
1.165474603780337
 30
0.0
 10
4.031236710039031
 20
1.359425850432286
 30
0.0
 10
3.01426534244819
 20
1.741810596476957
 30
0.0
 10
2.508239648115604
 20
1.930089985191995
 30
0.0
 10
2.000027956180694
 20
2.115579553786643
 30
0.0
  0
SPLINE
  5
1ED
330
1F
100
AcDbEntity
  8
외형선
  6
Continuous
370
    15
100
AcDbSpline
210
0.0
220
0.0
230
1.0
 70
    24
 71
     3
 72
    14
 73
    10
 74
     0
 42
0.000000001
 43
0.00000001
 40
0.0
 40
0.0
 40
0.0
 40
0.0
 40
0.25
 40
0.25
 40
0.5
 40
0.5
 40
0.75
 40
0.75
 40
1.0
 40
1.0
 40
1.0
 40
1.0
 10
5.049889187403863
 20
2.674846316482871
 30
0.0
 10
5.049889187403863
 20
1.554485769315647
 30
0.0
 10
5.049889187403863
 20
0.3856054938153903
 30
0.0
 10
5.049889187403863
 20
-1.945594131518689
 30
0.0
 10
5.049889187403863
 20
-3.106767436886742
 30
0.0
 10
5.049889187403863
 20
-5.304214521798386
 30
0.0
 10
5.049889187403863
 20
-6.339317409663792
 30
0.0
 10
5.049889187403863
 20
-8.190148010146245
 30
0.0
 10
5.049889187403863
 20
-9.005404382512438
 30
0.0
 10
5.049889187403863
 20
-9.6891976666261
 30
0.0
  0
SPLINE
  5
1EE
330
1F
100
AcDbEntity
  8
외형선
  6
Continuous
370
    15
100
AcDbSpline
210
0.0
220
0.0
230
1.0
 70
    24
 71
     3
 72
    15
 73
    11
 74
     0
 42
0.000000001
 43
0.00000001
 40
0.0
 40
0.0
 40
0.0
 40
0.0
 40
0.0481601969769369
 40
0.1895210010626969
 40
0.3308818051484568
 40
0.4763494464407028
 40
0.6218170877329486
 40
0.7495835185739168
 40
0.877349949414885
 40
1.0
 40
1.0
 40
1.0
 40
1.0
 10
5.049889187403877
 20
9.922574482852248
 30
0.0
 10
5.049889187403877
 20
9.926690916627209
 30
0.0
 10
5.049889187403877
 20
9.942889991772482
 30
0.0
 10
5.049889187403877
 20
9.848832077628956
 30
0.0
 10
5.049889187403877
 20
9.667805616807705
 30
0.0
 10
5.049889187403877
 20
9.376527322424536
 30
0.0
 10
5.049889187403877
 20
9.003908865015454
 30
0.0
 10
5.049889187403877
 20
8.56231085600519
 30
0.0
 10
5.049889187403877
 20
8.0815982012559
 30
0.0
 10
5.049889187403877
 20
7.706205142716392
 30
0.0
 10
5.049889187403877
 20
7.522343532023001
 30
0.0
  0
SPLINE
  5
1EF
330
1F
100
AcDbEntity
  8
외형선
  6
Continuous
370
    15
100
AcDbSpline
210
0.0
220
0.0
230
1.0
 70
    24
 71
     3
 72
     9
 73
     5
 74
     0
 42
0.000000001
 43
0.00000001
 40
0.0
 40
0.0
 40
0.0
 40
0.0
 40
0.571335264264989
 40
1.0
 40
1.0
 40
1.0
 40
1.0
 10
5.049889187403877
 20
-9.6891976666261
 30
0.0
 10
5.049889187403877
 20
-9.776153428683344
 30
0.0
 10
5.049889187403877
 20
-9.928350864227781
 30
0.0
 10
5.049889187403877
 20
-9.924307413507009
 30
0.0
 10
5.049889187403877
 20
-9.92257412877234
 30
0.0
  0
SPLINE
  5
1F0
330
1F
100
AcDbEntity
  8
외형선
  6
Continuous
370
    15
100
AcDbSpline
210
0.0
220
0.0
230
1.0
 70
    24
 71
     3
 72
    10
 73
     6
 74
     0
 42
0.000000001
 43
0.00000001
 40
0.0
 40
0.0
 40
0.0
 40
0.0
 40
0.5
 40
0.5
 40
1.0
 40
1.0
 40
1.0
 40
1.0
 10
5.049889187403884
 20
4.315827518756286
 30
0.0
 10
5.049889187403884
 20
4.279658615326973
 30
0.0
 10
5.049889187403884
 20
4.110592275494106
 30
0.0
 10
5.049889187403884
 20
3.536403249295887
 30
0.0
 10
5.049889187403884
 20
3.13369962396041
 30
0.0
 10
5.049889187403884
 20
2.674846316482864
 30
0.0
  0
SPLINE
  5
1F1
330
1F
100
AcDbEntity
  8
외형선
  6
Continuous
370
    15
100
AcDbSpline
210
0.0
220
0.0
230
1.0
 70
    24
 71
     3
 72
    15
 73
    11
 74
     0
 42
0.000000001
 43
0.00000001
 40
0.0
 40
0.0
 40
0.0
 40
0.0
 40
0.0487479268184043
 40
0.190021445246734
 40
0.3312949636750639
 40
0.4766727834726801
 40
0.6220506032702965
 40
0.7497381425331818
 40
0.8774256817960671
 40
1.0
 40
1.0
 40
1.0
 40
1.0
 10
5.049889187403877
 20
9.922400281477877
 30
0.0
 10
5.049889187403877
 20
9.926611652889541
 30
0.0
 10
5.049889187403877
 20
9.943027753723861
 30
0.0
 10
5.049889187403877
 20
9.84884609486813
 30
0.0
 10
5.049889187403877
 20
9.667801738062465
 30
0.0
 10
5.049889187403884
 20
9.376528378815003
 30
0.0
 10
5.049889187403891
 20
9.003908620097569
 30
0.0
 10
5.049889187403884
 20
8.56231091779047
 30
0.0
 10
5.049889187403884
 20
8.081598186529106
 30
0.0
 10
5.049889187403884
 20
7.70620513787479
 30
0.0
 10
5.049889187403884
 20
7.522343532023001
 30
0.0
  0
SPLINE
  5
1F2
330
1F
100
AcDbEntity
  8
외형선
  6
Continuous
370
    15
100
AcDbSpline
210
0.0
220
0.0
230
1.0
 70
    24
 71
     3
 72
    14
 73
    10
 74
     0
 42
0.000000001
 43
0.00000001
 40
0.0
 40
0.0
 40
0.0
 40
0.0
 40
0.25
 40
0.25
 40
0.4999999999999999
 40
0.4999999999999999
 40
0.75
 40
0.75
 40
1.0
 40
1.0
 40
1.0
 40
1.0
 10
5.049889187403877
 20
2.674846316482871
 30
0.0
 10
5.049889187403877
 20
1.554485769315647
 30
0.0
 10
5.049889187403877
 20
0.3856054938153832
 30
0.0
 10
5.049889187403877
 20
-1.945594131518689
 30
0.0
 10
5.049889187403877
 20
-3.106767436886742
 30
0.0
 10
5.049889187403877
 20
-5.304214521798386
 30
0.0
 10
5.049889187403877
 20
-6.339317409663792
 30
0.0
 10
5.049889187403877
 20
-8.190148010146245
 30
0.0
 10
5.049889187403877
 20
-9.005404382512438
 30
0.0
 10
5.049889187403877
 20
-9.6891976666261
 30
0.0
  0
SPLINE
  5
1F3
330
1F
100
AcDbEntity
  8
외형선
  6
Continuous
370
    15
100
AcDbSpline
210
0.0
220
0.0
230
1.0
 70
    24
 71
     3
 72
     9
 73
     5
 74
     0
 42
0.000000001
 43
0.00000001
 40
0.0
 40
0.0
 40
0.0
 40
0.0
 40
0.5723804910689725
 40
1.0
 40
1.0
 40
1.0
 40
1.0
 10
5.049889187403884
 20
-9.6891976666261
 30
0.0
 10
5.049889187403884
 20
-9.77618452973023
 30
0.0
 10
5.049889187403884
 20
-9.928158373111359
 30
0.0
 10
5.049889187403877
 20
-9.924176642471053
 30
0.0
 10
5.049889187403877
 20
-9.92247397676995
 30
0.0
  0
CIRCLE
  5
1F4
330
1F
100
AcDbEntity
  8
해칭선
100
AcDbCircle
 10
0.0
 20
0.0
 30
0.0
 40
2.999999999999993
  0
INSERT
  5
1F5
330
1F
100
AcDbEntity
  8
해칭선
100
AcDbBlockReference
  2
SW_DOWELSYMBOL_0
 10
0.0
 20
0.0
 30
0.0
  0
LINE
  5
233
330
1F
100
AcDbEntity
  8
외형선
  6
Continuous
370
    15
100
AcDbLine
 10
-36.03143581259604
 20
10.79499999999999
 30
0.0
 11
-22.92503581259615
 21
10.79499999999999
 31
0.0
1001
PE_URL
1000

  0
LINE
  5
234
330
1F
100
AcDbEntity
  8
외형선
  6
Continuous
370
    15
100
AcDbLine
 10
-36.03143581259604
 20
10.79500000000001
 30
0.0
 11
-37.93643581259602
 21
12.7
 31
0.0
1001
PE_URL
1000

  0
LINE
  5
235
330
1F
100
AcDbEntity
  8
외형선
  6
Continuous
370
    15
100
AcDbLine
 10
-22.92503581259615
 20
10.79500000000001
 30
0.0
 11
-21.02003581259612
 21
12.7
 31
0.0
1001
PE_URL
1000

  0
LINE
  5
236
330
1F
100
AcDbEntity
  8
외형선
  6
Continuous
370
    15
100
AcDbLine
 10
-58.45011081259614
 20
10.79499999999999
 30
0.0
 11
-45.75011081259612
 21
10.79499999999999
 31
0.0
1001
PE_URL
1000

  0
LINE
  5
237
330
1F
100
AcDbEntity
  8
외형선
  6
Continuous
370
    15
100
AcDbLine
 10
-45.75011081259612
 20
10.79500000000001
 30
0.0
 11
-43.84511081259615
 21
12.69999999999998
 31
0.0
1001
PE_URL
1000

  0
LINE
  5
238
330
1F
100
AcDbEntity
  8
외형선
  6
Continuous
370
    15
100
AcDbLine
 10
-37.93643581259601
 20
12.69999999999998
 30
0.0
 11
-43.84511081259615
 21
12.69999999999998
 31
0.0
  0
ENDSEC
  0
SECTION
  2
OBJECTS
  0
DICTIONARY
  5
C
330
0
100
AcDbDictionary
281
     1
  3
ACAD_DETAILVIEWSTYLE
350
1FB
  3
ACAD_GROUP
350
D
  3
ACAD_LAYOUT
350
1A
  3
ACAD_MLINESTYLE
350
17
  3
ACAD_PLOTSETTINGS
350
19
  3
ACAD_PLOTSTYLENAME
350
E
  3
ACAD_SCALELIST
350
47
  3
ACAD_SECTIONVIEWSTYLE
350
1FC
  3
AcDbVariableDictionary
350
1F6
  3
APPDATA
350
137
  3
DWGPROPS
350
243
  0
DICTIONARY
  5
16E
330
2
100
AcDbDictionary
280
     1
281
     1
  3
ACAD_LAYERSTATES
360
16F
  0
DICTIONARY
  5
1FB
102
{ACAD_REACTORS
330
C
102
}
330
C
100
AcDbDictionary
281
     1
  0
DICTIONARY
  5
D
102
{ACAD_REACTORS
330
C
102
}
330
C
100
AcDbDictionary
281
     1
  0
DICTIONARY
  5
1A
102
{ACAD_REACTORS
330
C
102
}
330
C
100
AcDbDictionary
281
     1
  3
Layout1
350
1E
  3
Layout2
350
26
  3
Model
350
22
  0
DICTIONARY
  5
17
102
{ACAD_REACTORS
330
C
102
}
330
C
100
AcDbDictionary
281
     1
  3
Standard
350
18
  0
DICTIONARY
  5
19
102
{ACAD_REACTORS
330
C
102
}
330
C
100
AcDbDictionary
281
     1
  0
ACDBDICTIONARYWDFLT
  5
E
102
{ACAD_REACTORS
330
C
102
}
330
C
100
AcDbDictionary
281
     1
  3
Normal
350
F
100
AcDbDictionaryWithDefault
340
F
  0
DICTIONARY
  5
47
102
{ACAD_REACTORS
330
C
102
}
330
C
100
AcDbDictionary
281
     1
  3
A0
350
48
  3
A1
350
49
  3
A2
350
4A
  3
A3
350
4B
  3
A4
350
4C
  3
A5
350
4D
  3
A6
350
4E
  3
A7
350
4F
  3
A8
350
50
  3
A9
350
51
  3
B0
350
52
  3
B1
350
53
  3
B2
350
54
  3
B3
350
55
  3
B4
350
56
  3
B5
350
57
  3
B6
350
58
  3
B7
350
59
  3
B8
350
5A
  3
B9
350
5B
  3
C0
350
5C
  3
C1
350
5D
  3
C2
350
5E
  3
C3
350
5F
  3
C4
350
60
  3
C5
350
61
  3
C6
350
62
  3
C7
350
63
  3
C8
350
64
  3
C9
350
65
  3
D0
350
66
  3
D1
350
67
  3
D2
350
68
  0
DICTIONARY
  5
1FC
102
{ACAD_REACTORS
330
C
102
}
330
C
100
AcDbDictionary
281
     1
  0
DICTIONARY
  5
1F6
102
{ACAD_REACTORS
330
C
102
}
330
C
100
AcDbDictionary
281
     1
  0
DICTIONARY
  5
137
102
{ACAD_REACTORS
330
C
102
}
330
C
100
AcDbDictionary
281
     1
  0
XRECORD
  5
243
102
{ACAD_REACTORS
330
C
102
}
330
C
100
AcDbXrecord
280
     1
  1
DWGPROPS COOKIE
  2

  3

  4

  6

  7

  8
120170442
  9

300
=
301
=
302
=
303
=
304
=
305
=
306
=
307
=
308
=
309
=
 40
0.0
 41
2458311.18809559
 42
2458320.993850938
  1

 90
        0
  0
DICTIONARY
  5
16F
102
{ACAD_REACTORS
330
16E
102
}
330
16E
100
AcDbDictionary
281
     1
  0
LAYOUT
  5
1E
102
{ACAD_REACTORS
330
1A
102
}
330
1A
100
AcDbPlotSettings
  1

  2
none_device
  4

  6

 40
0.0
 41
0.0
 42
0.0
 43
0.0
 44
0.0
 45
0.0
 46
0.0
 47
0.0
 48
0.0
 49
0.0
140
0.0
141
0.0
142
1.0
143
1.0
 70
   688
 72
     1
 73
     0
 74
     5
  7

 75
    16
147
1.0
148
0.0
149
0.0
100
AcDbLayout
  1
Layout1
 70
     1
 71
     1
 10
0.0
 20
0.0
 11
420.0
 21
297.0
 12
0.0
 22
0.0
 32
0.0
 14
1.000000000000000E+20
 24
1.000000000000000E+20
 34
1.000000000000000E+20
 15
-1.000000000000000E+20
 25
-1.000000000000000E+20
 35
-1.000000000000000E+20
146
0.0
 13
0.0
 23
0.0
 33
0.0
 16
1.0
 26
0.0
 36
0.0
 17
0.0
 27
1.0
 37
0.0
 76
     0
330
1B
  0
LAYOUT
  5
26
102
{ACAD_REACTORS
330
1A
102
}
330
1A
100
AcDbPlotSettings
  1

  2
none_device
  4

  6

 40
0.0
 41
0.0
 42
0.0
 43
0.0
 44
0.0
 45
0.0
 46
0.0
 47
0.0
 48
0.0
 49
0.0
140
0.0
141
0.0
142
1.0
143
1.0
 70
   688
 72
     1
 73
     0
 74
     5
  7

 75
    16
147
1.0
148
0.0
149
0.0
100
AcDbLayout
  1
Layout2
 70
     1
 71
     2
 10
0.0
 20
0.0
 11
0.0
 21
0.0
 12
0.0
 22
0.0
 32
0.0
 14
0.0
 24
0.0
 34
0.0
 15
0.0
 25
0.0
 35
0.0
146
0.0
 13
0.0
 23
0.0
 33
0.0
 16
1.0
 26
0.0
 36
0.0
 17
0.0
 27
1.0
 37
0.0
 76
     0
330
23
  0
LAYOUT
  5
22
102
{ACAD_REACTORS
330
1A
102
}
330
1A
100
AcDbPlotSettings
  1

  2
none_device
  4
ANSI_A_(11.00_x_8.50_Inches)
  6

 40
6.35
 41
19.05
 42
6.35000508
 43
19.05000254
 44
279.4
 45
215.9
 46
111.5354592427306
 47
88.15540373683449
 48
0.0
 49
0.0
140
0.0
141
0.0
142
0.0715194751484015
143
1.0
 70
  1696
 72
     0
 73
     0
 74
     0
  7

 75
     0
147
0.0235690232323232
148
0.0
149
0.0
100
AcDbLayout
  1
Model
 70
     1
 71
     0
 10
0.0
 20
0.0
 11
420.0
 21
297.0
 12
0.0
 22
0.0
 32
0.0
 14
-78.32511081259624
 24
-49.97180738881175
 34
0.0
 15
89.45089800274947
 25
55.02542442259359
 35
0.0
146
0.0
 13
0.0
 23
0.0
 33
0.0
 16
1.0
 26
0.0
 36
0.0
 17
0.0
 27
1.0
 37
0.0
 76
     0
330
1F
331
29
  0
MLINESTYLE
  5
18
102
{ACAD_REACTORS
330
17
102
}
330
17
100
AcDbMlineStyle
  2
Standard
 70
     0
  3

 62
   256
 51
90.0
 52
90.0
 71
     2
 49
0.5
 62
   256
  6
BYLAYER
 49
-0.5
 62
   256
  6
BYLAYER
  0
ACDBPLACEHOLDER
  5
F
102
{ACAD_REACTORS
330
E
102
}
330
E
  0
SCALE
  5
48
102
{ACAD_REACTORS
330
47
102
}
330
47
100
AcDbScale
 70
     0
300
1:1
140
1.0
141
1.0
290
     1
  0
SCALE
  5
49
102
{ACAD_REACTORS
330
47
102
}
330
47
100
AcDbScale
 70
     0
300
1:2
140
1.0
141
2.0
290
     0
  0
SCALE
  5
4A
102
{ACAD_REACTORS
330
47
102
}
330
47
100
AcDbScale
 70
     0
300
1:4
140
1.0
141
4.0
290
     0
  0
SCALE
  5
4B
102
{ACAD_REACTORS
330
47
102
}
330
47
100
AcDbScale
 70
     0
300
1:5
140
1.0
141
5.0
290
     0
  0
SCALE
  5
4C
102
{ACAD_REACTORS
330
47
102
}
330
47
100
AcDbScale
 70
     0
300
1:8
140
1.0
141
8.0
290
     0
  0
SCALE
  5
4D
102
{ACAD_REACTORS
330
47
102
}
330
47
100
AcDbScale
 70
     0
300
1:10
140
1.0
141
10.0
290
     0
  0
SCALE
  5
4E
102
{ACAD_REACTORS
330
47
102
}
330
47
100
AcDbScale
 70
     0
300
1:16
140
1.0
141
16.0
290
     0
  0
SCALE
  5
4F
102
{ACAD_REACTORS
330
47
102
}
330
47
100
AcDbScale
 70
     0
300
1:20
140
1.0
141
20.0
290
     0
  0
SCALE
  5
50
102
{ACAD_REACTORS
330
47
102
}
330
47
100
AcDbScale
 70
     0
300
1:30
140
1.0
141
30.0
290
     0
  0
SCALE
  5
51
102
{ACAD_REACTORS
330
47
102
}
330
47
100
AcDbScale
 70
     0
300
1:40
140
1.0
141
40.0
290
     0
  0
SCALE
  5
52
102
{ACAD_REACTORS
330
47
102
}
330
47
100
AcDbScale
 70
     0
300
1:50
140
1.0
141
50.0
290
     0
  0
SCALE
  5
53
102
{ACAD_REACTORS
330
47
102
}
330
47
100
AcDbScale
 70
     0
300
1:100
140
1.0
141
100.0
290
     0
  0
SCALE
  5
54
102
{ACAD_REACTORS
330
47
102
}
330
47
100
AcDbScale
 70
     0
300
2:1
140
2.0
141
1.0
290
     0
  0
SCALE
  5
55
102
{ACAD_REACTORS
330
47
102
}
330
47
100
AcDbScale
 70
     0
300
4:1
140
4.0
141
1.0
290
     0
  0
SCALE
  5
56
102
{ACAD_REACTORS
330
47
102
}
330
47
100
AcDbScale
 70
     0
300
8:1
140
8.0
141
1.0
290
     0
  0
SCALE
  5
57
102
{ACAD_REACTORS
330
47
102
}
330
47
100
AcDbScale
 70
     0
300
10:1
140
10.0
141
1.0
290
     0
  0
SCALE
  5
58
102
{ACAD_REACTORS
330
47
102
}
330
47
100
AcDbScale
 70
     0
300
100:1
140
100.0
141
1.0
290
     0
  0
SCALE
  5
59
102
{ACAD_REACTORS
330
47
102
}
330
47
100
AcDbScale
 70
     0
300
1/128" = 1'-0"
140
0.0078125
141
12.0
290
     0
  0
SCALE
  5
5A
102
{ACAD_REACTORS
330
47
102
}
330
47
100
AcDbScale
 70
     0
300
1/64" = 1'-0"
140
0.015625
141
12.0
290
     0
  0
SCALE
  5
5B
102
{ACAD_REACTORS
330
47
102
}
330
47
100
AcDbScale
 70
     0
300
1/32" = 1'-0"
140
0.03125
141
12.0
290
     0
  0
SCALE
  5
5C
102
{ACAD_REACTORS
330
47
102
}
330
47
100
AcDbScale
 70
     0
300
1/16" = 1'-0"
140
0.0625
141
12.0
290
     0
  0
SCALE
  5
5D
102
{ACAD_REACTORS
330
47
102
}
330
47
100
AcDbScale
 70
     0
300
3/32" = 1'-0"
140
0.09375
141
12.0
290
     0
  0
SCALE
  5
5E
102
{ACAD_REACTORS
330
47
102
}
330
47
100
AcDbScale
 70
     0
300
1/8" = 1'-0"
140
0.125
141
12.0
290
     0
  0
SCALE
  5
5F
102
{ACAD_REACTORS
330
47
102
}
330
47
100
AcDbScale
 70
     0
300
3/16" = 1'-0"
140
0.1875
141
12.0
290
     0
  0
SCALE
  5
60
102
{ACAD_REACTORS
330
47
102
}
330
47
100
AcDbScale
 70
     0
300
1/4" = 1'-0"
140
0.25
141
12.0
290
     0
  0
SCALE
  5
61
102
{ACAD_REACTORS
330
47
102
}
330
47
100
AcDbScale
 70
     0
300
3/8" = 1'-0"
140
0.375
141
12.0
290
     0
  0
SCALE
  5
62
102
{ACAD_REACTORS
330
47
102
}
330
47
100
AcDbScale
 70
     0
300
1/2" = 1'-0"
140
0.5
141
12.0
290
     0
  0
SCALE
  5
63
102
{ACAD_REACTORS
330
47
102
}
330
47
100
AcDbScale
 70
     0
300
3/4" = 1'-0"
140
0.75
141
12.0
290
     0
  0
SCALE
  5
64
102
{ACAD_REACTORS
330
47
102
}
330
47
100
AcDbScale
 70
     0
300
1" = 1'-0"
140
1.0
141
12.0
290
     0
  0
SCALE
  5
65
102
{ACAD_REACTORS
330
47
102
}
330
47
100
AcDbScale
 70
     0
300
1-1/2" = 1'-0"
140
1.5
141
12.0
290
     0
  0
SCALE
  5
66
102
{ACAD_REACTORS
330
47
102
}
330
47
100
AcDbScale
 70
     0
300
3" = 1'-0"
140
3.0
141
12.0
290
     0
  0
SCALE
  5
67
102
{ACAD_REACTORS
330
47
102
}
330
47
100
AcDbScale
 70
     0
300
6" = 1'-0"
140
6.0
141
12.0
290
     0
  0
SCALE
  5
68
102
{ACAD_REACTORS
330
47
102
}
330
47
100
AcDbScale
 70
     0
300
1'-0" = 1'-0"
140
12.0
141
12.0
290
     0
  0
ENDSEC
  0
EOF
