  0
SECTION
  2
HEADER
  9
$ACADVER
  1
AC1015
  9
$ACADMAINTVER
 70
     6
  9
$DWGCODEPAGE
  3
ANSI_949
  9
$INSBASE
 10
0.0
 20
0.0
 30
0.0
  9
$EXTMIN
 10
-81.37500000000013
 20
-49.97180738881175
 30
0.0
  9
$EXTMAX
 10
86.40100881534558
 20
62.95621576847888
 30
0.0
  9
$LIMMIN
 10
0.0
 20
0.0
  9
$LIMMAX
 10
420.0
 20
297.0
  9
$ORTHOMODE
 70
     1
  9
$REGENMODE
 70
     1
  9
$FILLMODE
 70
     1
  9
$QTEXTMODE
 70
     0
  9
$MIRRTEXT
 70
     1
  9
$LTSCALE
 40
1.0
  9
$ATTMODE
 70
     1
  9
$TEXTSIZE
 40
3.5
  9
$TRACEWID
 40
1.0
  9
$TEXTSTYLE
  7
Standard
  9
$CLAYER
  8
0
  9
$CELTYPE
  6
ByLayer
  9
$CECOLOR
 62
   256
  9
$CELTSCALE
 40
1.0
  9
$DISPSILH
 70
     0
  9
$DIMSCALE
 40
1.0
  9
$DIMASZ
 40
3.302
  9
$DIMEXO
 40
1.0
  9
$DIMDLI
 40
3.75
  9
$DIMRND
 40
0.0
  9
$DIMDLE
 40
0.0
  9
$DIMEXE
 40
1.0
  9
$DIMTP
 40
0.0
  9
$DIMTM
 40
0.0
  9
$DIMTXT
 40
3.5
  9
$DIMCEN
 40
2.5
  9
$DIMTSZ
 40
0.0
  9
$DIMTOL
 70
     0
  9
$DIMLIM
 70
     0
  9
$DIMTIH
 70
     1
  9
$DIMTOH
 70
     1
  9
$DIMSE1
 70
     0
  9
$DIMSE2
 70
     0
  9
$DIMTAD
 70
     1
  9
$DIMZIN
 70
     0
  9
$DIMBLK
  1

  9
$DIMASO
 70
     1
  9
$DIMSHO
 70
     1
  9
$DIMPOST
  1

  9
$DIMAPOST
  1

  9
$DIMALT
 70
     0
  9
$DIMALTD
 70
     3
  9
$DIMALTF
 40
0.0393700787401575
  9
$DIMLFAC
 40
1.0
  9
$DIMTOFL
 70
     1
  9
$DIMTVP
 40
0.0
  9
$DIMTIX
 70
     0
  9
$DIMSOXD
 70
     0
  9
$DIMSAH
 70
     0
  9
$DIMBLK1
  1

  9
$DIMBLK2
  1

  9
$DIMSTYLE
  2
ISO-25
  9
$DIMCLRD
 70
     0
  9
$DIMCLRE
 70
     0
  9
$DIMCLRT
 70
     0
  9
$DIMTFAC
 40
1.0
  9
$DIMGAP
 40
1.524
  9
$DIMJUST
 70
     0
  9
$DIMSD1
 70
     0
  9
$DIMSD2
 70
     0
  9
$DIMTOLJ
 70
     0
  9
$DIMTZIN
 70
     0
  9
$DIMALTZ
 70
     0
  9
$DIMALTTZ
 70
     0
  9
$DIMUPT
 70
     0
  9
$DIMDEC
 70
     2
  9
$DIMTDEC
 70
     2
  9
$DIMALTU
 70
     2
  9
$DIMALTTD
 70
     3
  9
$DIMTXSTY
  7
Standard
  9
$DIMAUNIT
 70
     0
  9
$DIMADEC
 70
     2
  9
$DIMALTRND
 40
0.0
  9
$DIMAZIN
 70
     0
  9
$DIMDSEP
 70
    44
  9
$DIMATFIT
 70
     3
  9
$DIMFRAC
 70
     0
  9
$DIMLDRBLK
  1

  9
$DIMLUNIT
 70
     2
  9
$DIMLWD
 70
    -2
  9
$DIMLWE
 70
    -2
  9
$DIMTMOVE
 70
     0
  9
$LUNITS
 70
     2
  9
$LUPREC
 70
     2
  9
$SKETCHINC
 40
1.0
  9
$FILLETRAD
 40
10.0
  9
$AUNITS
 70
     0
  9
$AUPREC
 70
     2
  9
$MENU
  1
.
  9
$ELEVATION
 40
0.0
  9
$PELEVATION
 40
0.0
  9
$THICKNESS
 40
0.0
  9
$LIMCHECK
 70
     0
  9
$CHAMFERA
 40
0.0
  9
$CHAMFERB
 40
0.0
  9
$CHAMFERC
 40
0.0
  9
$CHAMFERD
 40
0.0
  9
$SKPOLY
 70
     0
  9
$TDCREATE
 40
2458311.564578136
  9
$TDUCREATE
 40
2458311.189578136
  9
$TDUPDATE
 40
2458321.490642107
  9
$TDUUPDATE
 40
2458321.115642107
  9
$TDINDWG
 40
0.0027123032
  9
$TDUSRTIMER
 40
0.0027253241
  9
$USRTIMER
 70
     1
  9
$ANGBASE
 50
0.0
  9
$ANGDIR
 70
     0
  9
$PDMODE
 70
     0
  9
$PDSIZE
 40
-1.0
  9
$PLINEWID
 40
0.0
  9
$SPLFRAME
 70
     0
  9
$SPLINETYPE
 70
     6
  9
$SPLINESEGS
 70
     8
  9
$HANDSEED
  5
23C
  9
$SURFTAB1
 70
     6
  9
$SURFTAB2
 70
     6
  9
$SURFTYPE
 70
     6
  9
$SURFU
 70
     6
  9
$SURFV
 70
     6
  9
$UCSBASE
  2

  9
$UCSNAME
  2

  9
$UCSORG
 10
0.0
 20
0.0
 30
0.0
  9
$UCSXDIR
 10
1.0
 20
0.0
 30
0.0
  9
$UCSYDIR
 10
0.0
 20
1.0
 30
0.0
  9
$UCSORTHOREF
  2

  9
$UCSORTHOVIEW
 70
     0
  9
$UCSORGTOP
 10
0.0
 20
0.0
 30
0.0
  9
$UCSORGBOTTOM
 10
0.0
 20
0.0
 30
0.0
  9
$UCSORGLEFT
 10
0.0
 20
0.0
 30
0.0
  9
$UCSORGRIGHT
 10
0.0
 20
0.0
 30
0.0
  9
$UCSORGFRONT
 10
0.0
 20
0.0
 30
0.0
  9
$UCSORGBACK
 10
0.0
 20
0.0
 30
0.0
  9
$PUCSBASE
  2

  9
$PUCSNAME
  2

  9
$PUCSORG
 10
0.0
 20
0.0
 30
0.0
  9
$PUCSXDIR
 10
1.0
 20
0.0
 30
0.0
  9
$PUCSYDIR
 10
0.0
 20
1.0
 30
0.0
  9
$PUCSORTHOREF
  2

  9
$PUCSORTHOVIEW
 70
     0
  9
$PUCSORGTOP
 10
0.0
 20
0.0
 30
0.0
  9
$PUCSORGBOTTOM
 10
0.0
 20
0.0
 30
0.0
  9
$PUCSORGLEFT
 10
0.0
 20
0.0
 30
0.0
  9
$PUCSORGRIGHT
 10
0.0
 20
0.0
 30
0.0
  9
$PUCSORGFRONT
 10
0.0
 20
0.0
 30
0.0
  9
$PUCSORGBACK
 10
0.0
 20
0.0
 30
0.0
  9
$USERI1
 70
     0
  9
$USERI2
 70
     0
  9
$USERI3
 70
     0
  9
$USERI4
 70
     0
  9
$USERI5
 70
     0
  9
$USERR1
 40
0.0
  9
$USERR2
 40
0.0
  9
$USERR3
 40
0.0
  9
$USERR4
 40
0.0
  9
$USERR5
 40
0.0
  9
$WORLDVIEW
 70
     1
  9
$SHADEDGE
 70
     3
  9
$SHADEDIF
 70
    70
  9
$TILEMODE
 70
     1
  9
$MAXACTVP
 70
    64
  9
$PINSBASE
 10
0.0
 20
0.0
 30
0.0
  9
$PLIMCHECK
 70
     0
  9
$PEXTMIN
 10
1.000000000000000E+20
 20
1.000000000000000E+20
 30
1.000000000000000E+20
  9
$PEXTMAX
 10
-1.000000000000000E+20
 20
-1.000000000000000E+20
 30
-1.000000000000000E+20
  9
$PLIMMIN
 10
0.0
 20
0.0
  9
$PLIMMAX
 10
0.0
 20
0.0
  9
$UNITMODE
 70
     0
  9
$VISRETAIN
 70
     1
  9
$PLINEGEN
 70
     0
  9
$PSLTSCALE
 70
     1
  9
$TREEDEPTH
 70
  3020
  9
$CMLSTYLE
  2
Standard
  9
$CMLJUST
 70
     0
  9
$CMLSCALE
 40
20.0
  9
$PROXYGRAPHICS
 70
     1
  9
$MEASUREMENT
 70
     1
  9
$CELWEIGHT
370
    -1
  9
$ENDCAPS
280
     0
  9
$JOINSTYLE
280
     0
  9
$LWDISPLAY
290
     1
  9
$INSUNITS
 70
     4
  9
$HYPERLINKBASE
  1

  9
$STYLESHEET
  1

  9
$XEDIT
290
     1
  9
$CEPSNTYPE
380
     0
  9
$PSTYLEMODE
290
     1
  9
$FINGERPRINTGUID
  2
{A0E203C4-EACE-4021-9D34-4A1A69DC86DD}
  9
$VERSIONGUID
  2
{FAEB1C32-E019-11D5-929B-00C0DF256EC4}
  9
$EXTNAMES
290
     1
  9
$PSVPSCALE
 40
0.0
  9
$OLESTARTUP
290
     0
  0
ENDSEC
  0
SECTION
  2
CLASSES
  0
CLASS
  1
ACDBDICTIONARYWDFLT
  2
AcDbDictionaryWithDefault
  3
ObjectDBX Classes
 90
        0
280
     0
281
     0
  0
CLASS
  1
VISUALSTYLE
  2
AcDbVisualStyle
  3
ObjectDBX Classes
 90
     4095
280
     0
281
     0
  0
CLASS
  1
MATERIAL
  2
AcDbMaterial
  3
ObjectDBX Classes
 90
     1153
280
     0
281
     0
  0
CLASS
  1
SCALE
  2
AcDbScale
  3
ObjectDBX Classes
 90
     1153
280
     0
281
     0
  0
CLASS
  1
SUN
  2
AcDbSun
  3
SCENEOE
 90
     1153
280
     0
281
     0
  0
CLASS
  1
ACDBPLACEHOLDER
  2
AcDbPlaceHolder
  3
ObjectDBX Classes
 90
        0
280
     0
281
     0
  0
CLASS
  1
LAYOUT
  2
AcDbLayout
  3
ObjectDBX Classes
 90
        0
280
     0
281
     0
  0
CLASS
  1
TABLESTYLE
  2
AcDbTableStyle
  3
ObjectDBX Classes
 90
     4095
280
     0
281
     0
  0
CLASS
  1
MLEADERSTYLE
  2
AcDbMLeaderStyle
  3
ACDB_MLEADERSTYLE_CLASS
 90
     4095
280
     0
281
     0
  0
CLASS
  1
DICTIONARYVAR
  2
AcDbDictionaryVar
  3
ObjectDBX Classes
 90
        0
280
     0
281
     0
  0
ENDSEC
  0
SECTION
  2
TABLES
  0
TABLE
  2
VPORT
  5
8
330
0
100
AcDbSymbolTable
 70
     1
  0
VPORT
  5
29
330
8
100
AcDbSymbolTableRecord
100
AcDbViewportTableRecord
  2
*Active
 70
     0
 10
0.0
 20
0.0
 11
1.0
 21
1.0
 12
2.513004407672724
 22
6.492204189833565
 13
0.0
 23
0.0
 14
10.0
 24
10.0
 15
10.0
 25
10.0
 16
0.0
 26
0.0
 36
1.0
 17
0.0
 27
0.0
 37
0.0
 40
115.1865836204364
 41
1.782762691853601
 42
50.0
 43
0.0
 44
0.0
 50
0.0
 51
0.0
 71
    16
 72
  2000
 73
     1
 74
     3
 75
     0
 76
     0
 77
     0
 78
     0
281
     0
 65
     1
110
0.0
120
0.0
130
0.0
111
1.0
121
0.0
131
0.0
112
0.0
122
1.0
132
0.0
 79
     0
146
0.0
  0
ENDTAB
  0
TABLE
  2
LTYPE
  5
5
330
0
100
AcDbSymbolTable
 70
     6
  0
LTYPE
  5
14
330
5
100
AcDbSymbolTableRecord
100
AcDbLinetypeTableRecord
  2
ByBlock
 70
     0
  3

 72
    65
 73
     0
 40
0.0
  0
LTYPE
  5
15
330
5
100
AcDbSymbolTableRecord
100
AcDbLinetypeTableRecord
  2
ByLayer
 70
     0
  3

 72
    65
 73
     0
 40
0.0
  0
LTYPE
  5
16
330
5
100
AcDbSymbolTableRecord
100
AcDbLinetypeTableRecord
  2
Continuous
 70
     0
  3
Solid line
 72
    65
 73
     0
 40
0.0
  0
LTYPE
  5
6A
330
5
100
AcDbSymbolTableRecord
100
AcDbLinetypeTableRecord
  2
HIDDEN
 70
     0
  3
Hidden __ __ __ __ __ __ __ __ __ __ __ __ __ __
 72
    65
 73
     2
 40
1.905
 49
1.27
 74
     0
 49
-0.635
 74
     0
  0
LTYPE
  5
6B
330
5
100
AcDbSymbolTableRecord
100
AcDbLinetypeTableRecord
  2
PHANTOM
 70
     0
  3
Phantom ______  __  __  ______  __  __  ______
 72
    65
 73
     6
 40
12.7
 49
6.35
 74
     0
 49
-1.27
 74
     0
 49
1.27
 74
     0
 49
-1.27
 74
     0
 49
1.27
 74
     0
 49
-1.27
 74
     0
  0
LTYPE
  5
6C
330
5
100
AcDbSymbolTableRecord
100
AcDbLinetypeTableRecord
  2
CENTER
 70
     0
  3
Center ____ _ ____ _ ____ _ ____ _ ____ _ ____
 72
    65
 73
     4
 40
10.16
 49
6.35
 74
     0
 49
-1.27
 74
     0
 49
1.27
 74
     0
 49
-1.27
 74
     0
  0
LTYPE
  5
6D
330
5
100
AcDbSymbolTableRecord
100
AcDbLinetypeTableRecord
  2
CENTERX2
 70
     0
  3
Center (2x) ________  __  ________  __  _____
 72
    65
 73
     4
 40
20.32
 49
12.7
 74
     0
 49
-2.54
 74
     0
 49
2.54
 74
     0
 49
-2.54
 74
     0
  0
LTYPE
  5
6E
330
5
100
AcDbSymbolTableRecord
100
AcDbLinetypeTableRecord
  2
DOT2
 70
     0
  3
Dot (.5x) ........................................
 72
    65
 73
     2
 40
0.635
 49
0.0
 74
     0
 49
-0.635
 74
     0
  0
ENDTAB
  0
TABLE
  2
LAYER
  5
2
102
{ACAD_XDICTIONARY
360
185
102
}
330
0
100
AcDbSymbolTable
 70
    18
  0
LAYER
  5
10
330
2
100
AcDbSymbolTableRecord
100
AcDbLayerTableRecord
  2
0
 70
     0
 62
     7
  6
Continuous
370
    -3
390
F
  0
LAYER
  5
6F
330
2
100
AcDbSymbolTableRecord
100
AcDbLayerTableRecord
  2
FORMAT
 70
     0
 62
     2
  6
Continuous
370
    -3
390
F
  0
LAYER
  5
70
330
2
100
AcDbSymbolTableRecord
100
AcDbLayerTableRecord
  2
외형선
 70
     0
 62
     4
  6
Continuous
370
    30
390
F
  0
LAYER
  5
71
330
2
100
AcDbSymbolTableRecord
100
AcDbLayerTableRecord
  2
숨은선
 70
     0
 62
     2
  6
HIDDEN
370
    15
390
F
  0
LAYER
  5
72
330
2
100
AcDbSymbolTableRecord
100
AcDbLayerTableRecord
  2
중심선
 70
     0
 62
     1
  6
CENTERX2
370
    -3
390
F
  0
LAYER
  5
73
330
2
100
AcDbSymbolTableRecord
100
AcDbLayerTableRecord
  2
파단선
 70
     0
 62
     4
  6
Continuous
370
    -3
390
F
  0
LAYER
  5
74
330
2
100
AcDbSymbolTableRecord
100
AcDbLayerTableRecord
  2
해칭선
 70
     0
 62
   100
  6
Continuous
370
    -3
390
F
  0
LAYER
  5
75
330
2
100
AcDbSymbolTableRecord
100
AcDbLayerTableRecord
  2
가는실선
 70
     0
 62
     4
  6
Continuous
370
    -3
390
F
  0
LAYER
  5
76
330
2
100
AcDbSymbolTableRecord
100
AcDbLayerTableRecord
  2
치수_보조선
 70
     0
 62
     4
  6
Continuous
370
    -3
390
F
  0
LAYER
  5
77
330
2
100
AcDbSymbolTableRecord
100
AcDbLayerTableRecord
  2
치수문자_일반주서
 70
     0
 62
     7
  6
Continuous
370
    15
390
F
  0
LAYER
  5
78
330
2
100
AcDbSymbolTableRecord
100
AcDbLayerTableRecord
  2
개별주서
 70
     0
 62
   100
  6
Continuous
370
    30
390
F
  0
LAYER
  5
79
330
2
100
AcDbSymbolTableRecord
100
AcDbLayerTableRecord
  2
중간선
 70
     0
 62
     2
  6
Continuous
370
    15
390
F
  0
LAYER
  5
7A
330
2
100
AcDbSymbolTableRecord
100
AcDbLayerTableRecord
  2
윤곽선
 70
     0
 62
     3
  6
Continuous
370
    40
390
F
  0
LAYER
  5
7B
330
2
100
AcDbSymbolTableRecord
100
AcDbLayerTableRecord
  2
중심마크
 70
     0
 62
   100
  6
Continuous
370
    30
390
F
  0
LAYER
  5
7C
330
2
100
AcDbSymbolTableRecord
100
AcDbLayerTableRecord
  2
가상선
 70
     0
 62
     4
  6
PHANTOM
370
    -3
390
F
  0
LAYER
  5
7D
330
2
100
AcDbSymbolTableRecord
100
AcDbLayerTableRecord
  2
특수지정선
 70
     0
 62
     5
  6
CENTERX2
370
    60
390
F
  0
LAYER
  5
7E
330
2
100
AcDbSymbolTableRecord
100
AcDbLayerTableRecord
  2
참조1
 70
     0
 62
    -4
  6
Continuous
370
    -3
390
F
  0
LAYER
  5
1B7
330
2
100
AcDbSymbolTableRecord
100
AcDbLayerTableRecord
  2
Defpoints
 70
     0
 62
     7
  6
Continuous
290
     0
370
    -3
390
F
  0
ENDTAB
  0
TABLE
  2
STYLE
  5
3
330
0
100
AcDbSymbolTable
 70
     2
  0
STYLE
  5
11
330
3
100
AcDbSymbolTableRecord
100
AcDbTextStyleTableRecord
  2
Standard
 70
     0
 40
0.0
 41
1.0
 50
0.0
 71
     0
 42
3.5
  3
txt
  4

  0
STYLE
  5
94
330
3
100
AcDbSymbolTableRecord
100
AcDbTextStyleTableRecord
  2
SLDTEXTSTYLE0
 70
     0
 40
0.0
 41
0.75
 50
0.0
 71
     0
 42
3.5
  3
TXT
  4

  0
ENDTAB
  0
TABLE
  2
VIEW
  5
6
330
0
100
AcDbSymbolTable
 70
     0
  0
ENDTAB
  0
TABLE
  2
UCS
  5
7
330
0
100
AcDbSymbolTable
 70
     0
  0
ENDTAB
  0
TABLE
  2
APPID
  5
9
330
0
100
AcDbSymbolTable
 70
     4
  0
APPID
  5
12
330
9
100
AcDbSymbolTableRecord
100
AcDbRegAppTableRecord
  2
ACAD
 70
     0
  0
APPID
  5
13B
330
9
100
AcDbSymbolTableRecord
100
AcDbRegAppTableRecord
  2
PE_URL
 70
     0
  0
APPID
  5
23A
330
9
100
AcDbSymbolTableRecord
100
AcDbRegAppTableRecord
  2
ACAD_DSTYLE_DIMFLIPARROW_SYMBOL
 70
     0
  0
APPID
  5
23B
330
9
100
AcDbSymbolTableRecord
100
AcDbRegAppTableRecord
  2
ACAD_DSTYLE_DIMFLIPARROW_WHICH_SYMBOL
 70
     0
  0
ENDTAB
  0
TABLE
  2
DIMSTYLE
  5
A
330
0
100
AcDbSymbolTable
 70
     5
100
AcDbDimStyleTable
  0
DIMSTYLE
105
27
330
A
100
AcDbSymbolTableRecord
100
AcDbDimStyleTableRecord
  2
ISO-25
 70
     0
 41
2.5
 42
0.625
 43
3.75
 44
1.25
 73
     0
 74
     0
 77
     1
 78
     8
140
2.5
141
2.5
143
0.03937007874016
147
0.625
171
     3
172
     1
178
     0
271
     2
272
     2
274
     3
278
    44
283
     0
284
     8
340
11
  0
DIMSTYLE
105
B8
330
A
100
AcDbSymbolTableRecord
100
AcDbDimStyleTableRecord
  2
SLDDIMSTYLE0
 70
     0
 41
3.302
 44
0.0
 45
0.000000001
 73
     0
 74
     0
 77
     1
 78
     4
 79
     1
140
3.5
147
0.875
172
     1
173
     1
178
     0
271
     2
272
     2
276
     2
284
    12
289
     0
340
94
  0
DIMSTYLE
105
C6
330
A
100
AcDbSymbolTableRecord
100
AcDbDimStyleTableRecord
  2
SLDDIMSTYLE1
 70
     0
 41
3.302
 44
0.0
 45
0.000000001
 73
     0
 74
     0
 77
     1
 78
     4
 79
     1
140
3.5
143
0.0393700787401575
147
0.875
148
0.000000001
170
     1
172
     1
173
     1
178
     0
271
     2
272
     2
276
     2
284
    12
289
     0
340
94
  0
DIMSTYLE
105
DC
102
{ACAD_REACTORS
330
DB
330
1DD
330
EF
330
C5
330
B7
102
}
330
A
100
AcDbSymbolTableRecord
100
AcDbDimStyleTableRecord
  2
SLDDIMSTYLE2
 70
     0
 41
3.302
 44
0.0
 45
0.000000001
 73
     0
 74
     0
 77
     1
 78
     4
 79
     1
140
3.5
143
0.0393700787401575
147
0.875
148
0.000000001
170
     1
173
     1
178
     0
271
     2
272
     2
276
     2
284
    12
340
94
  0
DIMSTYLE
105
F0
330
A
100
AcDbSymbolTableRecord
100
AcDbDimStyleTableRecord
  2
SLDDIMSTYLE3
 70
     0
 41
3.302
 44
0.0
 45
0.000000001
 73
     0
 74
     0
 77
     1
 78
    12
 79
     3
140
3.5
143
0.0393700787401575
147
0.875
148
0.000000001
170
     1
173
     1
178
     0
271
     2
272
     2
276
     2
284
    12
340
94
  0
ENDTAB
  0
TABLE
  2
BLOCK_RECORD
  5
1
330
0
100
AcDbSymbolTable
 70
    11
  0
BLOCK_RECORD
  5
1F
330
1
100
AcDbSymbolTableRecord
100
AcDbBlockTableRecord
  2
*Model_Space
340
22
  0
BLOCK_RECORD
  5
1B
330
1
100
AcDbSymbolTableRecord
100
AcDbBlockTableRecord
  2
*Paper_Space
340
1E
  0
BLOCK_RECORD
  5
23
330
1
100
AcDbSymbolTableRecord
100
AcDbBlockTableRecord
  2
*Paper_Space0
340
26
  0
BLOCK_RECORD
  5
7F
330
1
100
AcDbSymbolTableRecord
100
AcDbBlockTableRecord
  2
블럭10
340
0
102
{BLKREFS
331
B0
102
}
  0
BLOCK_RECORD
  5
B9
330
1
100
AcDbSymbolTableRecord
100
AcDbBlockTableRecord
  2
_D
340
0
  0
BLOCK_RECORD
  5
C7
330
1
100
AcDbSymbolTableRecord
100
AcDbBlockTableRecord
  2
_D_1
340
0
  0
BLOCK_RECORD
  5
DD
330
1
100
AcDbSymbolTableRecord
100
AcDbBlockTableRecord
  2
_D_2
340
0
  0
BLOCK_RECORD
  5
F1
330
1
100
AcDbSymbolTableRecord
100
AcDbBlockTableRecord
  2
_D_3
340
0
  0
BLOCK_RECORD
  5
10A
330
1
100
AcDbSymbolTableRecord
100
AcDbBlockTableRecord
  2
SW_DOWELSYMBOL_0
340
0
102
{BLKREFS
331
0
331
177
331
0
331
228
102
}
  0
BLOCK_RECORD
  5
1ED
330
1
100
AcDbSymbolTableRecord
100
AcDbBlockTableRecord
  2
*D9
340
0
  0
BLOCK_RECORD
  5
1FC
330
1
100
AcDbSymbolTableRecord
100
AcDbBlockTableRecord
  2
*D10
340
0
  0
ENDTAB
  0
ENDSEC
  0
SECTION
  2
BLOCKS
  0
BLOCK
  5
20
330
1F
100
AcDbEntity
  8
0
100
AcDbBlockBegin
  2
*Model_Space
 70
     0
 10
0.0
 20
0.0
 30
0.0
  3
*Model_Space
  1

  0
ENDBLK
  5
21
330
1F
100
AcDbEntity
  8
0
100
AcDbBlockEnd
  0
BLOCK
  5
1C
330
1B
100
AcDbEntity
 67
     1
  8
0
100
AcDbBlockBegin
  2
*Paper_Space
 70
     0
 10
0.0
 20
0.0
 30
0.0
  3
*Paper_Space
  1

  0
ENDBLK
  5
1D
330
1B
100
AcDbEntity
 67
     1
  8
0
100
AcDbBlockEnd
  0
BLOCK
  5
24
330
23
100
AcDbEntity
  8
0
100
AcDbBlockBegin
  2
*Paper_Space0
 70
     0
 10
0.0
 20
0.0
 30
0.0
  3
*Paper_Space0
  1

  0
ENDBLK
  5
25
330
23
100
AcDbEntity
  8
0
100
AcDbBlockEnd
  0
BLOCK
  5
80
330
7F
100
AcDbEntity
  8
0
100
AcDbBlockBegin
  2
블럭10
 70
     2
 10
0.0
 20
0.0
 30
0.0
  3
블럭10
  1

  0
ELLIPSE
  5
82
330
7F
100
AcDbEntity
  8
중심선
100
AcDbEllipse
 10
20.54032771741204
 20
12.0471743016438
 30
0.0
 11
6.600054785286829
 21
-1.261213355974178E-13
 31
0.0
210
0.0
220
0.0
230
1.0
 40
0.636358354079598
 41
0.9219305317359503
 42
6.513795318482858
  0
ELLIPSE
  5
83
330
7F
100
AcDbEntity
  8
중심선
100
AcDbEllipse
 10
20.54032771746488
 20
12.04717430159265
 30
0.0
 11
3.960054785062283
 21
1.540847449632565E-10
 31
0.0
210
0.0
220
0.0
230
1.0
 40
0.3939339440162632
 41
1.131841032648279
 42
5.62031148352944
  0
LINE
  5
84
330
7F
100
AcDbEntity
  8
중심선
100
AcDbLine
 10
2.268634060543552
 20
16.24717430164393
 30
0.0
 11
5.714909304380834
 21
16.24717430164393
 31
0.0
  0
LINE
  5
85
330
7F
100
AcDbEntity
  8
중심선
100
AcDbLine
 10
5.245725140726316
 20
7.84717430164391
 30
0.0
 11
8.692000384563599
 21
7.84717430164391
 31
0.0
  0
LINE
  5
86
330
7F
100
AcDbEntity
  8
중심선
100
AcDbLine
 10
15.74043728645272
 20
16.24717430164393
 30
0.0
 11
8.692000384563599
 21
7.84717430164391
 31
0.0
  0
LINE
  5
87
330
7F
100
AcDbEntity
  8
중심선
100
AcDbLine
 10
0.1404042013395286
 20
13.71084872107135
 30
0.0
 11
3.58671253028996
 21
13.71088815037384
 31
0.0
  0
LINE
  5
88
330
7F
100
AcDbEntity
  8
중심선
100
AcDbLine
 10
2.750260043222114
 20
10.84717430164391
 30
0.0
 11
6.196535287059397
 21
10.84717430164391
 31
0.0
  0
LINE
  5
89
330
7F
100
AcDbEntity
  8
중심선
100
AcDbLine
 10
12.29416204261559
 20
16.24717430164393
 30
0.0
 11
5.245725140726316
 21
7.84717430164391
 31
0.0
  0
LINE
  5
8A
330
7F
100
AcDbEntity
  8
중심선
100
AcDbLine
 10
10.72767329541681
 20
16.24717430164393
 30
0.0
 11
6.196535287059397
 21
10.84717430164391
 31
0.0
  0
LINE
  5
8B
330
7F
100
AcDbEntity
  8
중심선
100
AcDbLine
 10
7.28139805157953
 20
16.24717430164393
 30
0.0
 11
2.750260043222114
 21
10.84717430164391
 31
0.0
  0
LINE
  5
8C
330
7F
100
AcDbEntity
  8
중심선
100
AcDbLine
 10
5.714909304380834
 20
16.24717430164393
 30
0.0
 11
3.58671253028996
 21
13.71088815037384
 31
0.0
  0
LINE
  5
8D
330
7F
100
AcDbEntity
  8
중심선
100
AcDbLine
 10
2.268634060543552
 20
16.24717430164393
 30
0.0
 11
0.1404042013395286
 21
13.71084872107135
 31
0.0
  0
LINE
  5
8E
330
7F
100
AcDbEntity
  8
중심선
100
AcDbLine
 10
7.28139805157953
 20
16.24717430164393
 30
0.0
 11
10.72767329541681
 21
16.24717430164393
 31
0.0
  0
LINE
  5
8F
330
7F
100
AcDbEntity
  8
중심선
100
AcDbLine
 10
12.29416204261559
 20
16.24717430164393
 30
0.0
 11
15.74043728645272
 21
16.24717430164393
 31
0.0
  0
LINE
  5
90
330
7F
100
AcDbEntity
  8
중심선
100
AcDbLine
 10
19.22036997980202
 20
11.08717430171403
 30
0.0
 11
23.66174974927406
 21
11.08717430171406
 31
0.0
  0
LINE
  5
91
330
7F
100
AcDbEntity
  8
중심선
100
AcDbLine
 10
19.22039502424796
 20
13.00717430171391
 30
0.0
 11
19.22036997980202
 21
11.08717430171403
 31
0.0
  0
LINE
  5
92
330
7F
100
AcDbEntity
  8
중심선
100
AcDbLine
 10
19.22039502424796
 20
13.00717430171391
 30
0.0
 11
26.96566020931264
 21
13.00717430171391
 31
0.0
  0
LINE
  5
93
330
7F
100
AcDbEntity
  8
중심선
100
AcDbLine
 10
22.22332737316547
 20
13.45928029700563
 30
0.0
 11
24.52862924686651
 21
15.39360700705356
 31
0.0
  0
ATTDEF
  5
95
330
7F
100
AcDbEntity
  8
FORMAT
 62
     2
100
AcDbText
 10
4.408487351596664
 20
2.075366912832191
 30
0.0
 40
4.233333333333333
  1
E1030148
 41
0.75
  7
SLDTEXTSTYLE0
 11
4.408487351596664
 21
-0.0412997538344756
 31
0.0
100
AcDbAttributeDefinition
  3

  2
AUTOATTR0
 70
     0
 74
     1
  0
ENDBLK
  5
81
330
7F
100
AcDbEntity
  8
0
100
AcDbBlockEnd
  0
BLOCK
  5
BA
330
B9
100
AcDbEntity
  8
0
100
AcDbBlockBegin
  2
_D
 70
     0
 10
0.0
 20
0.0
 30
0.0
  3
_D
  1

  0
LINE
  5
BC
330
B9
100
AcDbEntity
  8
치수문자_일반주서
 62
     0
370
    -2
100
AcDbLine
 10
-46.95750000000001
 20
15.87499999999998
 30
0.0
 11
-76.49999999999997
 21
15.87499999999987
 31
0.0
  0
LINE
  5
BD
330
B9
100
AcDbEntity
  8
치수문자_일반주서
 62
     0
370
    -2
100
AcDbLine
 10
-60.49999999999999
 20
-15.87500000000002
 30
0.0
 11
-76.49999999999986
 21
-15.87500000000008
 31
0.0
  0
LINE
  5
BE
330
B9
100
AcDbEntity
  8
치수문자_일반주서
 62
     0
370
    -2
100
AcDbLine
 10
-76.49999999999997
 20
15.87499999999987
 30
0.0
 11
-76.50000000000013
 21
55.62499999999987
 31
0.0
  0
LINE
  5
BF
330
B9
100
AcDbEntity
  8
치수문자_일반주서
 62
     0
370
    -2
100
AcDbLine
 10
-76.49999999999997
 20
15.87499999999987
 30
0.0
 11
-76.49999999999986
 21
-15.87500000000008
 31
0.0
  0
LINE
  5
C0
330
B9
100
AcDbEntity
  8
치수문자_일반주서
 62
     0
370
    -2
100
AcDbLine
 10
-76.49999999999999
 20
19.87499999999987
 30
0.0
 11
-76.5
 21
23.87499999999987
 31
0.0
  0
LINE
  5
C1
330
B9
100
AcDbEntity
  8
치수문자_일반주서
 62
     0
370
    -2
100
AcDbLine
 10
-76.49999999999984
 20
-19.87500000000008
 30
0.0
 11
-76.49999999999983
 21
-23.87500000000008
 31
0.0
  0
SOLID
  5
C2
330
B9
100
AcDbEntity
  8
치수문자_일반주서
 62
     0
100
AcDbTrace
 10
-77.16666666666666
 20
19.87499999999986
 30
0.0
 11
-75.83333333333331
 21
19.87499999999987
 31
0.0
 12
-76.49999999999997
 22
15.87499999999987
 32
0.0
 13
-76.49999999999997
 23
15.87499999999987
 33
0.0
  0
SOLID
  5
C3
330
B9
100
AcDbEntity
  8
치수문자_일반주서
 62
     0
100
AcDbTrace
 10
-75.83333333333317
 20
-19.87500000000007
 30
0.0
 11
-77.16666666666652
 21
-19.87500000000008
 31
0.0
 12
-76.49999999999986
 22
-15.87500000000008
 32
0.0
 13
-76.49999999999986
 23
-15.87500000000008
 33
0.0
  0
MTEXT
  5
C4
330
B9
100
AcDbEntity
  8
치수문자_일반주서
 62
     0
100
AcDbMText
 10
-81.37500000000006
 20
37.74999999999986
 30
0.0
 40
4.0
 41
0.0
 71
     2
 72
     1
  1
\A1;%%c31.75 [1 1/4]
  7
SLDTEXTSTYLE0
 11
-3.580687802255628E-15
 21
1.0
 31
0.0
 73
     1
 44
1.0
  0
POINT
  5
232
330
B9
100
AcDbEntity
  8
Defpoints
 62
     0
100
AcDbPoint
 10
-46.89500000000001
 20
15.87499999999998
 30
0.0
  0
POINT
  5
233
330
B9
100
AcDbEntity
  8
Defpoints
 62
     0
100
AcDbPoint
 10
-60.43749999999999
 20
-15.87500000000002
 30
0.0
  0
POINT
  5
234
330
B9
100
AcDbEntity
  8
Defpoints
 62
     0
100
AcDbPoint
 10
-76.49999999999986
 20
-15.87500000000008
 30
0.0
  0
ENDBLK
  5
BB
330
B9
100
AcDbEntity
  8
0
100
AcDbBlockEnd
  0
BLOCK
  5
C8
330
C7
100
AcDbEntity
  8
0
100
AcDbBlockBegin
  2
_D_1
 70
     0
 10
0.0
 20
0.0
 30
0.0
  3
_D_1
  1

  0
LINE
  5
CA
330
C7
100
AcDbEntity
  8
치수문자_일반주서
 62
     0
370
    -2
100
AcDbLine
 10
43.27499999999998
 20
22.26871576847882
 30
0.0
 11
43.27499999999998
 21
30.875
 31
0.0
  0
LINE
  5
CB
330
C7
100
AcDbEntity
  8
치수문자_일반주서
 62
     0
370
    -2
100
AcDbLine
 10
1.999999999999981
 20
5.53534932406939
 30
0.0
 11
1.999999999999982
 21
30.875
 31
0.0
  0
LINE
  5
CC
330
C7
100
AcDbEntity
  8
치수문자_일반주서
 62
     0
370
    -2
100
AcDbLine
 10
39.27499999999998
 20
30.875
 30
0.0
 11
5.999999999999982
 21
30.875
 31
0.0
  0
SOLID
  5
CD
330
C7
100
AcDbEntity
  8
치수문자_일반주서
 62
     0
100
AcDbTrace
 10
39.27499999999998
 20
30.20833333333334
 30
0.0
 11
39.27499999999998
 21
31.54166666666667
 31
0.0
 12
43.27499999999998
 22
30.875
 32
0.0
 13
43.27499999999998
 23
30.875
 33
0.0
  0
SOLID
  5
CE
330
C7
100
AcDbEntity
  8
치수문자_일반주서
 62
     0
100
AcDbTrace
 10
5.999999999999982
 20
31.54166666666667
 30
0.0
 11
5.999999999999982
 21
30.20833333333334
 31
0.0
 12
1.999999999999982
 22
30.875
 32
0.0
 13
1.999999999999982
 23
30.875
 33
0.0
  0
MTEXT
  5
CF
330
C7
100
AcDbEntity
  8
치수문자_일반주서
 62
     0
100
AcDbMText
 10
22.63749999999998
 20
35.75
 30
0.0
 40
4.0
 41
0.0
 71
     2
 72
     1
  1
\A1;41.28 [1 5/8]
  7
SLDTEXTSTYLE0
 73
     1
 44
1.0
  0
POINT
  5
D0
330
C7
100
AcDbEntity
  8
Defpoints
 62
     0
100
AcDbPoint
 10
43.27499999999998
 20
22.20621576847882
 30
0.0
  0
POINT
  5
D1
330
C7
100
AcDbEntity
  8
Defpoints
 62
     0
100
AcDbPoint
 10
1.999999999999981
 20
5.47284932406939
 30
0.0
  0
POINT
  5
D2
330
C7
100
AcDbEntity
  8
Defpoints
 62
     0
100
AcDbPoint
 10
1.999999999999981
 20
30.875
 30
0.0
  0
ENDBLK
  5
C9
330
C7
100
AcDbEntity
  8
0
100
AcDbBlockEnd
  0
BLOCK
  5
DE
330
DD
100
AcDbEntity
  8
0
100
AcDbBlockBegin
  2
_D_2
 70
     0
 10
0.0
 20
0.0
 30
0.0
  3
_D_2
  1

  0
LINE
  5
E0
330
DD
100
AcDbEntity
  8
치수문자_일반주서
 62
     0
370
    -2
100
AcDbLine
 10
43.27499999999998
 20
22.26871576847882
 30
0.0
 11
43.27499999999998
 21
45.875
 31
0.0
  0
LINE
  5
E1
330
DD
100
AcDbEntity
  8
치수문자_일반주서
 62
     0
370
    -2
100
AcDbLine
 10
-61.5
 20
14.03249999999999
 30
0.0
 11
-61.5
 21
45.875
 31
0.0
  0
LINE
  5
E2
330
DD
100
AcDbEntity
  8
치수문자_일반주서
 62
     0
370
    -2
100
AcDbLine
 10
39.27499999999998
 20
45.875
 30
0.0
 11
-57.5
 21
45.875
 31
0.0
  0
SOLID
  5
E3
330
DD
100
AcDbEntity
  8
치수문자_일반주서
 62
     0
100
AcDbTrace
 10
39.27499999999998
 20
45.20833333333334
 30
0.0
 11
39.27499999999998
 21
46.54166666666666
 31
0.0
 12
43.27499999999998
 22
45.875
 32
0.0
 13
43.27499999999998
 23
45.875
 33
0.0
  0
SOLID
  5
E4
330
DD
100
AcDbEntity
  8
치수문자_일반주서
 62
     0
100
AcDbTrace
 10
-57.5
 20
46.54166666666666
 30
0.0
 11
-57.5
 21
45.20833333333334
 31
0.0
 12
-61.5
 22
45.875
 32
0.0
 13
-61.5
 23
45.875
 33
0.0
  0
MTEXT
  5
E5
330
DD
100
AcDbEntity
  8
치수문자_일반주서
 62
     0
100
AcDbMText
 10
-9.112500000000011
 20
50.75
 30
0.0
 40
4.0
 41
0.0
 71
     2
 72
     1
  1
\A1;104.78 [4 1/8]
  7
SLDTEXTSTYLE0
 73
     1
 44
1.0
  0
POINT
  5
E6
330
DD
100
AcDbEntity
  8
Defpoints
 62
     0
100
AcDbPoint
 10
43.27499999999998
 20
22.20621576847882
 30
0.0
  0
POINT
  5
E7
330
DD
100
AcDbEntity
  8
Defpoints
 62
     0
100
AcDbPoint
 10
-61.5
 20
13.96999999999999
 30
0.0
  0
POINT
  5
E8
330
DD
100
AcDbEntity
  8
Defpoints
 62
     0
100
AcDbPoint
 10
-61.5
 20
45.875
 30
0.0
  0
ENDBLK
  5
DF
330
DD
100
AcDbEntity
  8
0
100
AcDbBlockEnd
  0
BLOCK
  5
F2
330
F1
100
AcDbEntity
  8
0
100
AcDbBlockBegin
  2
_D_3
 70
     0
 10
0.0
 20
0.0
 30
0.0
  3
_D_3
  1

  0
LINE
  5
F4
330
F1
100
AcDbEntity
  8
치수문자_일반주서
 62
     0
370
    -2
100
AcDbLine
 10
43.33749999999996
 20
-22.20621576847882
 30
0.0
 11
58.27500000000015
 21
-22.20621576847877
 31
0.0
  0
LINE
  5
F5
330
F1
100
AcDbEntity
  8
치수문자_일반주서
 62
     0
370
    -2
100
AcDbLine
 10
43.33749999999996
 20
22.20621576847882
 30
0.0
 11
58.27499999999999
 21
22.20621576847888
 31
0.0
  0
LINE
  5
F6
330
F1
100
AcDbEntity
  8
치수문자_일반주서
 62
     0
370
    -2
100
AcDbLine
 10
58.27499999999999
 20
22.20621576847888
 30
0.0
 11
58.27499999999985
 21
62.95621576847888
 31
0.0
  0
LINE
  5
F7
330
F1
100
AcDbEntity
  8
치수문자_일반주서
 62
     0
370
    -2
100
AcDbLine
 10
58.27500000000015
 20
-22.20621576847877
 30
0.0
 11
58.27499999999999
 21
22.20621576847888
 31
0.0
  0
LINE
  5
F8
330
F1
100
AcDbEntity
  8
치수문자_일반주서
 62
     0
370
    -2
100
AcDbLine
 10
58.27500000000016
 20
-26.20621576847877
 30
0.0
 11
58.27500000000018
 21
-30.20621576847877
 31
0.0
  0
LINE
  5
F9
330
F1
100
AcDbEntity
  8
치수문자_일반주서
 62
     0
370
    -2
100
AcDbLine
 10
58.27499999999998
 20
26.20621576847888
 30
0.0
 11
58.27499999999996
 21
30.20621576847888
 31
0.0
  0
SOLID
  5
FA
330
F1
100
AcDbEntity
  8
치수문자_일반주서
 62
     0
100
AcDbTrace
 10
58.94166666666683
 20
-26.20621576847877
 30
0.0
 11
57.6083333333335
 21
-26.20621576847877
 31
0.0
 12
58.27500000000015
 22
-22.20621576847877
 32
0.0
 13
58.27500000000015
 23
-22.20621576847877
 33
0.0
  0
SOLID
  5
FB
330
F1
100
AcDbEntity
  8
치수문자_일반주서
 62
     0
100
AcDbTrace
 10
57.60833333333331
 20
26.20621576847888
 30
0.0
 11
58.94166666666664
 21
26.20621576847888
 31
0.0
 12
58.27499999999999
 22
22.20621576847888
 32
0.0
 13
58.27499999999999
 23
22.20621576847888
 33
0.0
  0
MTEXT
  5
FC
330
F1
100
AcDbEntity
  8
치수문자_일반주서
 62
     0
100
AcDbMText
 10
53.39999999999991
 20
44.58121576847887
 30
0.0
 40
4.0
 41
0.0
 71
     2
 72
     1
  1
\A1;%%c44.41 [1 3/4]
  7
SLDTEXTSTYLE0
 11
-3.519721763874635E-15
 21
1.0
 31
0.0
 73
     1
 44
1.0
  0
POINT
  5
FD
330
F1
100
AcDbEntity
  8
Defpoints
 62
     0
100
AcDbPoint
 10
43.27499999999996
 20
-22.20621576847882
 30
0.0
  0
POINT
  5
236
330
F1
100
AcDbEntity
  8
Defpoints
 62
     0
100
AcDbPoint
 10
43.27499999999996
 20
22.20621576847882
 30
0.0
  0
POINT
  5
238
330
F1
100
AcDbEntity
  8
Defpoints
 62
     0
100
AcDbPoint
 10
58.27499999999999
 20
22.20621576847888
 30
0.0
  0
ENDBLK
  5
F3
330
F1
100
AcDbEntity
  8
0
100
AcDbBlockEnd
  0
BLOCK
  5
10B
330
10A
100
AcDbEntity
  8
0
100
AcDbBlockBegin
  2
SW_DOWELSYMBOL_0
 70
     0
 10
0.0
 20
0.0
 30
0.0
  3
SW_DOWELSYMBOL_0
  1

  0
CIRCLE
  5
10D
330
10A
100
AcDbEntity
  8
해칭선
 62
     0
100
AcDbCircle
 10
0.0
 20
0.0
 30
0.0
 40
3.000000000000001
  0
HATCH
  5
10E
330
10A
100
AcDbEntity
  8
0
  6
Continuous
 62
     0
370
     0
100
AcDbHatch
 10
0.0
 20
0.0
 30
0.0
210
0.0
220
0.0
230
1.0
  2
SOLID
 70
     1
 71
     0
 91
        1
 92
        0
 93
        3
 72
     2
 10
0.0
 20
0.0
 40
3.000000000000001
 50
0.0
 51
90.0
 73
     1
 72
     1
 10
0.0
 20
3.000000000000001
 11
0.0
 21
0.0
 72
     1
 10
0.0
 20
0.0
 11
3.000000000000001
 21
0.0
 97
        0
 75
     0
 76
     1
 98
        1
 10
0.0
 20
0.0
  0
HATCH
  5
10F
330
10A
100
AcDbEntity
  8
0
  6
Continuous
 62
     0
370
     0
100
AcDbHatch
 10
0.0
 20
0.0
 30
0.0
210
0.0
220
0.0
230
1.0
  2
SOLID
 70
     1
 71
     0
 91
        1
 92
        0
 93
        3
 72
     2
 10
0.0
 20
0.0
 40
3.000000000000001
 50
180.0
 51
270.0000000000008
 73
     1
 72
     1
 10
0.0
 20
-3.000000000000001
 11
0.0
 21
0.0
 72
     1
 10
0.0
 20
0.0
 11
-3.000000000000001
 21
0.0
 97
        0
 75
     0
 76
     1
 98
        1
 10
0.0
 20
0.0
  0
ENDBLK
  5
10C
330
10A
100
AcDbEntity
  8
0
100
AcDbBlockEnd
  0
BLOCK
  5
1EE
330
1ED
100
AcDbEntity
  8
0
100
AcDbBlockBegin
  2
*D9
 70
     1
 10
0.0
 20
0.0
 30
0.0
  3
*D9
  1

  0
LINE
  5
1F0
330
1ED
100
AcDbEntity
  8
치수문자_일반주서
 62
     0
370
    -2
100
AcDbLine
 10
41.275
 20
16.93660569950587
 30
0.0
 11
41.275
 21
30.30136473855821
 31
0.0
  0
LINE
  5
1F1
330
1ED
100
AcDbEntity
  8
치수문자_일반주서
 62
     0
370
    -2
100
AcDbLine
 10
0.0
 20
4.96171406262761
 30
0.0
 11
0.0
 21
30.30136473855821
 31
0.0
  0
LINE
  5
1F2
330
1ED
100
AcDbEntity
  8
치수문자_일반주서
 62
     0
370
    -2
100
AcDbLine
 10
37.275
 20
30.30136473855821
 30
0.0
 11
4.0
 21
30.30136473855821
 31
0.0
  0
SOLID
  5
1F3
330
1ED
100
AcDbEntity
  8
치수문자_일반주서
 62
     0
100
AcDbTrace
 10
37.275
 20
29.63469807189155
 30
0.0
 11
37.275
 21
30.96803140522488
 31
0.0
 12
41.275
 22
30.30136473855821
 32
0.0
 13
41.275
 23
30.30136473855821
 33
0.0
  0
SOLID
  5
1F4
330
1ED
100
AcDbEntity
  8
치수문자_일반주서
 62
     0
100
AcDbTrace
 10
4.0
 20
30.96803140522488
 30
0.0
 11
4.0
 21
29.63469807189155
 31
0.0
 12
0.0
 22
30.30136473855821
 32
0.0
 13
0.0
 23
30.30136473855821
 33
0.0
  0
MTEXT
  5
1F5
330
1ED
100
AcDbEntity
  8
치수문자_일반주서
 62
     0
100
AcDbMText
 10
20.6375
 20
35.17636473855821
 30
0.0
 40
4.0
 41
0.0
 71
     2
 72
     1
  1
\A1;41.28 [1 5/8]
  7
SLDTEXTSTYLE0
 73
     1
 44
1.0
  0
POINT
  5
1F6
330
1ED
100
AcDbEntity
  8
Defpoints
 62
     0
100
AcDbPoint
 10
41.275
 20
16.87410569950587
 30
0.0
  0
POINT
  5
1F7
330
1ED
100
AcDbEntity
  8
Defpoints
 62
     0
100
AcDbPoint
 10
0.0
 20
4.89921406262761
 30
0.0
  0
POINT
  5
1F8
330
1ED
100
AcDbEntity
  8
Defpoints
 62
     0
100
AcDbPoint
 10
0.0
 20
30.30136473855821
 30
0.0
  0
ENDBLK
  5
1EF
330
1ED
100
AcDbEntity
  8
0
100
AcDbBlockEnd
  0
BLOCK
  5
1FD
330
1FC
100
AcDbEntity
  8
0
100
AcDbBlockBegin
  2
*D10
 70
     1
 10
0.0
 20
0.0
 30
0.0
  3
*D10
  1

  0
LINE
  5
1FF
330
1FC
100
AcDbEntity
  8
치수문자_일반주서
 62
     0
370
    -2
100
AcDbLine
 10
133.3123090656901
 20
-17.99368077872554
 30
0.0
 11
133.3123090656901
 21
-4.628921739673196
 31
0.0
  0
LINE
  5
200
330
1FC
100
AcDbEntity
  8
치수문자_일반주서
 62
     0
370
    -2
100
AcDbLine
 10
92.0373090656901
 20
-29.9685724156038
 30
0.0
 11
92.0373090656901
 21
-4.628921739673196
 31
0.0
  0
LINE
  5
201
330
1FC
100
AcDbEntity
  8
치수문자_일반주서
 62
     0
370
    -2
100
AcDbLine
 10
129.3123090656901
 20
-4.628921739673196
 30
0.0
 11
96.0373090656901
 21
-4.628921739673196
 31
0.0
  0
SOLID
  5
202
330
1FC
100
AcDbEntity
  8
치수문자_일반주서
 62
     0
100
AcDbTrace
 10
129.3123090656901
 20
-5.295588406339863
 30
0.0
 11
129.3123090656901
 21
-3.962255073006529
 31
0.0
 12
133.3123090656901
 22
-4.628921739673196
 32
0.0
 13
133.3123090656901
 23
-4.628921739673196
 33
0.0
  0
SOLID
  5
203
330
1FC
100
AcDbEntity
  8
치수문자_일반주서
 62
     0
100
AcDbTrace
 10
96.0373090656901
 20
-3.962255073006529
 30
0.0
 11
96.0373090656901
 21
-5.295588406339863
 31
0.0
 12
92.0373090656901
 22
-4.628921739673196
 32
0.0
 13
92.0373090656901
 23
-4.628921739673196
 33
0.0
  0
MTEXT
  5
204
330
1FC
100
AcDbEntity
  8
치수문자_일반주서
 62
     0
100
AcDbMText
 10
112.6748090656901
 20
0.2460782603268044
 30
0.0
 40
4.0
 41
0.0
 71
     2
 72
     1
  1
\A1;41.28 [1 5/8]
  7
SLDTEXTSTYLE0
 73
     1
 44
1.0
  0
POINT
  5
205
330
1FC
100
AcDbEntity
  8
Defpoints
 62
     0
100
AcDbPoint
 10
133.3123090656901
 20
-18.05618077872554
 30
0.0
  0
POINT
  5
206
330
1FC
100
AcDbEntity
  8
Defpoints
 62
     0
100
AcDbPoint
 10
92.0373090656901
 20
-30.0310724156038
 30
0.0
  0
POINT
  5
207
330
1FC
100
AcDbEntity
  8
Defpoints
 62
     0
100
AcDbPoint
 10
92.0373090656901
 20
-4.628921739673196
 30
0.0
  0
ENDBLK
  5
1FE
330
1FC
100
AcDbEntity
  8
0
100
AcDbBlockEnd
  0
ENDSEC
  0
SECTION
  2
ENTITIES
  0
SPLINE
  5
96
330
1F
100
AcDbEntity
  8
0
  6
Continuous
 62
     1
370
    15
100
AcDbSpline
210
0.0
220
0.0
230
1.0
 70
     8
 71
     3
 72
    67
 73
    63
 74
     0
 42
0.000000001
 43
0.00000001
 40
0.0
 40
0.0
 40
0.0
 40
0.0
 40
0.0210486659816184
 40
0.0407146669917979
 40
0.0595013442839913
 40
0.0780181929432607
 40
0.0969558584826263
 40
0.1168425890948945
 40
0.1347611730910908
 40
0.149389157622516
 40
0.1601644305651833
 40
0.1681338656828523
 40
0.1770152195049892
 40
0.1891943618578321
 40
0.2042831443744945
 40
0.2200388562019209
 40
0.2361501551442268
 40
0.2526430056768257
 40
0.2681964309781766
 40
0.2800550030950429
 40
0.2890557220058312
 40
0.2991854841822018
 40
0.3109565769964036
 40
0.3243097504661293
 40
0.353320401883823
 40
0.3813489821001313
 40
0.4084020070664965
 40
0.4370520642100362
 40
0.4695299876635771
 40
0.488366062639233
 40
0.5082717447524767
 40
0.5292371594356211
 40
0.549760751910427
 40
0.5667518578617037
 40
0.5799200463044277
 40
0.5895897019154371
 40
0.597247116929443
 40
0.6081991554094542
 40
0.6229163388098525
 40
0.6409893896041139
 40
0.6605077430171228
 40
0.6812199431069311
 40
0.6983228713545439
 40
0.715748902782867
 40
0.7300671763507505
 40
0.740480291061379
 40
0.7527407153316008
 40
0.767984563230813
 40
0.7864492027098345
 40
0.8082112046465006
 40
0.8332925637060233
 40
0.8616588203779965
 40
0.8736200550595323
 40
0.8834504014377289
 40
0.8911462782385557
 40
0.89670500991833
 40
0.9028136753376713
 40
0.9121737732213452
 40
0.9273805157649299
 40
0.9470998485257723
 40
0.9713167052576827
 40
1.0
 40
1.0
 40
1.0
 40
1.0
 10
35.01614585149844
 20
15.20084489286602
 30
0.0
 10
34.85136995728782
 20
15.18606569207993
 30
0.0
 10
34.53264212594117
 20
15.15747812083259
 30
0.0
 10
33.97883660166688
 20
15.10563163739711
 30
0.0
 10
33.39120650780381
 20
15.05530219266654
 30
0.0
 10
32.76559626431342
 20
15.00843722445418
 30
0.0
 10
32.1058171277697
 20
14.9661874198918
 30
0.0
 10
31.45962511490711
 20
14.93009084151612
 30
0.0
 10
30.86471946569936
 20
14.89672821962831
 30
0.0
 10
30.37036611436725
 20
14.86913801126023
 30
0.0
 10
29.98855651216706
 20
14.84814181650282
 30
0.0
 10
29.67095186405447
 20
14.83107535211939
 30
0.0
 10
29.3442400831782
 20
14.81433440736109
 30
0.0
 10
28.94657449196438
 20
14.79504981595154
 30
0.0
 10
28.48066345123473
 20
14.77384670568713
 30
0.0
 10
27.96665736778138
 20
14.75199730727445
 30
0.0
 10
27.43434141029684
 20
14.73114363272994
 30
0.0
 10
26.90046805942818
 20
14.71211543842986
 30
0.0
 10
26.41256005717203
 20
14.6964562865295
 30
0.0
 10
26.00813843029678
 20
14.68469688542254
 30
0.0
 10
25.66368082195305
 20
14.67547233873192
 30
0.0
 10
25.32104792794404
 20
14.66701735066166
 30
0.0
 10
24.93065436590392
 20
14.65832006580945
 30
0.0
 10
24.3322600515252
 20
14.6466273136737
 30
0.0
 10
23.55251973792504
 20
14.63499667127148
 30
0.0
 10
22.61807558272242
 20
14.62693262753337
 30
0.0
 10
21.68365795777408
 20
14.62460091462711
 30
0.0
 10
20.69886474037221
 20
14.62824180578607
 30
0.0
 10
19.80789066727412
 20
14.6375537096747
 30
0.0
 10
19.01499653053363
 20
14.65032780926887
 30
0.0
 10
18.35076322860829
 20
14.66386926197051
 30
0.0
 10
17.66821837693164
 20
14.68086215602509
 30
0.0
 10
17.01847079531791
 20
14.70002518714763
 30
0.0
 10
16.45532383185622
 20
14.71895777926946
 30
0.0
 10
16.01271569277453
 20
14.73528518546675
 30
0.0
 10
15.67379587854845
 20
14.74862858999063
 30
0.0
 10
15.35944503525115
 20
14.76159540350512
 30
0.0
 10
14.9889810483618
 20
14.7776243699181
 30
0.0
 10
14.50271278622709
 20
14.80001630054766
 30
0.0
 10
13.92119496208816
 20
14.82885954468431
 30
0.0
 10
13.27291136758216
 20
14.86365423605028
 30
0.0
 10
12.63533535584675
 20
14.90065702641003
 30
0.0
 10
12.02097637600629
 20
14.9388348288802
 30
0.0
 10
11.47769094128392
 20
14.9746482030343
 30
0.0
 10
11.00878804898634
 20
15.00711746497809
 30
0.0
 10
10.59739420738601
 20
15.03667227751656
 30
0.0
 10
10.17603337083647
 20
15.06794283529745
 30
0.0
 10
9.665218067655198
 20
15.10732022442609
 30
0.0
 10
9.048880071544419
 20
15.15700079527561
 30
0.0
 10
8.322910809069654
 20
15.2185666447874
 30
0.0
 10
7.486529492546451
 20
15.29358884845994
 30
0.0
 10
6.758840862429031
 20
15.36293911177633
 30
0.0
 10
6.200784184749305
 20
15.41848200356491
 30
0.0
 10
5.872663355267585
 20
15.4518405081876
 30
0.0
 10
5.615931618868108
 20
15.47838829549795
 30
0.0
 10
5.400395926888721
 20
15.50095897859093
 30
0.0
 10
5.16785029700112
 20
15.52557857658591
 30
0.0
 10
4.830096072700862
 20
15.56184465393138
 30
0.0
 10
4.343230531564442
 20
15.61526054554415
 30
0.0
 10
3.693620099981366
 20
15.6887566965874
 30
0.0
 10
2.896150193860241
 20
15.78203398645902
 30
0.0
 10
2.315070536192475
 20
15.85379644333912
 30
0.0
 10
1.999999999999974
 20
15.89270717695258
 30
0.0
1001
PE_URL
1000

  0
SPLINE
  5
97
330
1F
100
AcDbEntity
  8
0
  6
Continuous
 62
     1
370
    15
100
AcDbSpline
210
0.0
220
0.0
230
1.0
 70
     8
 71
     3
 72
    29
 73
    25
 74
     0
 42
0.000000001
 43
0.00000001
 40
0.0
 40
0.0
 40
0.0
 40
0.0
 40
0.0828308295096672
 40
0.1538270081758458
 40
0.2129071768046602
 40
0.2600284509291603
 40
0.2951736210159623
 40
0.3180333647830857
 40
0.3356512895701885
 40
0.360522268803982
 40
0.3929767757183397
 40
0.4666571668649697
 40
0.5379779047159361
 40
0.6020633189693517
 40
0.6588642961030529
 40
0.6990673509633786
 40
0.7347393213591173
 40
0.7658931369937965
 40
0.7925278181434593
 40
0.8189905831458398
 40
0.8565480997914906
 40
0.9062282732569953
 40
0.9606747586927653
 40
1.0
 40
1.0
 40
1.0
 40
1.0
 10
1.999999999999974
 20
-15.89270717695259
 30
0.0
 10
2.292727326364614
 20
-15.85652375137212
 30
0.0
 10
2.83635786939487
 20
-15.78932669279448
 30
0.0
 10
3.58857181805803
 20
-15.70093743357383
 30
0.0
 10
4.214722382980648
 20
-15.62964832294483
 30
0.0
 10
4.714482129052955
 20
-15.57442095207112
 30
0.0
 10
5.086718613120208
 20
-15.53422327838207
 30
0.0
 10
5.355242221308931
 20
-15.50571064332649
 30
0.0
 10
5.589233195020021
 20
-15.48116450365269
 30
0.0
 10
5.857379059869859
 20
-15.45339902210659
 30
0.0
 10
6.326376194590685
 20
-15.40569175578573
 30
0.0
 10
6.961590187726415
 20
-15.34323347911142
 30
0.0
 10
7.709862621822026
 20
-15.27335689311954
 30
0.0
 10
8.39750077574744
 20
-15.21226971202719
 30
0.0
 10
8.973615641137133
 20
-15.16343277959614
 30
0.0
 10
9.447926283935221
 20
-15.1247705716985
 30
0.0
 10
9.830550462030429
 20
-15.09455680189491
 30
0.0
 10
10.16467925438217
 20
-15.0689227673089
 30
0.0
 10
10.46589668911218
 20
-15.046398409962
 30
0.0
 10
10.79013545132949
 20
-15.02273356052128
 30
0.0
 10
11.19700370433327
 20
-14.9939059454266
 30
0.0
 10
11.70401225125563
 20
-14.95952954899517
 30
0.0
 10
12.21730972369679
 20
-14.92632456273098
 30
0.0
 10
12.55281664123811
 20
-14.90622686872375
 30
0.0
 10
12.69351886514745
 20
-14.89779845758102
 30
0.0
1001
PE_URL
1000

  0
SPLINE
  5
98
330
1F
100
AcDbEntity
  8
0
  6
Continuous
 62
     1
370
    15
100
AcDbSpline
210
0.0
220
0.0
230
1.0
 70
     8
 71
     3
 72
    32
 73
    28
 74
     0
 42
0.000000001
 43
0.00000001
 40
0.0
 40
0.0
 40
0.0
 40
0.0
 40
0.1249999999999999
 40
0.1249999999999999
 40
0.2499999999999998
 40
0.2499999999999998
 40
0.3749999999999999
 40
0.3749999999999999
 40
0.4375000000000001
 40
0.4375000000000001
 40
0.5000000000000001
 40
0.5000000000000001
 40
0.5625000000000002
 40
0.5625000000000002
 40
0.6250000000000002
 40
0.6250000000000002
 40
0.6875000000000002
 40
0.6875000000000002
 40
0.7500000000000001
 40
0.7500000000000001
 40
0.8125000000000001
 40
0.8125000000000001
 40
0.8750000000000001
 40
0.8750000000000001
 40
0.9375
 40
0.9375
 40
1.0
 40
1.0
 40
1.0
 40
1.0
 10
43.27499999999998
 20
-21.09021081867898
 30
0.0
 10
41.5592631089086
 20
-20.77724128650893
 30
0.0
 10
39.83172421556181
 20
-20.40023515349927
 30
0.0
 10
36.3993646062518
 20
-19.52822715168451
 30
0.0
 10
34.6727196585233
 20
-19.03141018036994
 30
0.0
 10
31.23950791287894
 20
-17.92893669225952
 30
0.0
 10
29.51372223772021
 20
-17.32125575075739
 30
0.0
 10
26.93819961532047
 20
-16.33635815362712
 30
0.0
 10
26.078887725933
 20
-15.99549462135013
 30
0.0
 10
24.35723910619003
 20
-15.28991643375612
 30
0.0
 10
23.49602726188616
 20
-14.92534557000356
 30
0.0
 10
21.77861984434157
 20
-14.17514906942993
 30
0.0
 10
20.91972306301702
 20
-13.78914305019
 30
0.0
 10
19.19814255244443
 20
-12.99648847335446
 30
0.0
 10
18.33685344075609
 20
-12.59004312574265
 30
0.0
 10
16.61907057299237
 20
-11.75969362127235
 30
0.0
 10
15.76054548627877
 20
-11.33547500123396
 30
0.0
 10
14.03905010795923
 20
-10.46996552542705
 30
0.0
 10
13.17769225682721
 20
-10.02893442076777
 30
0.0
 10
11.45955083691126
 20
-9.133317412759956
 30
0.0
 10
10.60135401913234
 20
-8.67849744578385
 30
0.0
 10
8.879960793342315
 20
-7.755661476280785
 30
0.0
 10
8.018542732979695
 20
-7.287954362983587
 30
0.0
 10
6.300059670767222
 20
-6.343128706590829
 30
0.0
 10
5.44214768544955
 20
-5.86586396509311
 30
0.0
 10
3.720873629098502
 20
-4.902258023321751
 30
0.0
 10
2.859403891708773
 20
-4.416263709559427
 30
0.0
 10
1.999999999999981
 20
-3.927718584933371
 30
0.0
1001
PE_URL
1000

  0
SPLINE
  5
99
330
1F
100
AcDbEntity
  8
외형선
  6
Continuous
370
    15
100
AcDbSpline
210
0.0
220
0.0
230
1.0
 70
    24
 71
     3
 72
     8
 73
     4
 74
     0
 42
0.000000001
 43
0.00000001
 40
0.0
 40
0.0
 40
0.0
 40
0.0
 40
1.0
 40
1.0
 40
1.0
 40
1.0
 10
1.999999999999981
 20
-2.211800464607738
 30
0.0
 10
1.999999999999981
 20
-2.697842394081325
 30
0.0
 10
1.999999999999981
 20
-3.273109884633203
 30
0.0
 10
1.999999999999981
 20
-3.927718584930034
 30
0.0
  0
SPLINE
  5
9A
330
1F
100
AcDbEntity
  8
0
  6
Continuous
 62
     1
370
    15
100
AcDbSpline
210
0.0
220
0.0
230
1.0
 70
     8
 71
     3
 72
    32
 73
    28
 74
     0
 42
0.000000001
 43
0.00000001
 40
0.0
 40
0.0
 40
0.0
 40
0.0
 40
0.1249999999999999
 40
0.1249999999999999
 40
0.2499999999999997
 40
0.2499999999999997
 40
0.3749999999999996
 40
0.3749999999999996
 40
0.4374999999999996
 40
0.4374999999999996
 40
0.4999999999999997
 40
0.4999999999999997
 40
0.5624999999999997
 40
0.5624999999999997
 40
0.6249999999999998
 40
0.6249999999999998
 40
0.6874999999999998
 40
0.6874999999999998
 40
0.7499999999999998
 40
0.7499999999999998
 40
0.8124999999999999
 40
0.8124999999999999
 40
0.8749999999999999
 40
0.8749999999999999
 40
0.9375
 40
0.9375
 40
1.0
 40
1.0
 40
1.0
 40
1.0
 10
43.27499999999998
 20
-17.5349085755836
 30
0.0
 10
41.55926310890862
 20
-17.2211356616193
 30
0.0
 10
39.83172421556179
 20
-16.85399916600378
 30
0.0
 10
36.39936460625176
 20
-16.02281728021878
 30
0.0
 10
34.67271965852328
 20
-15.55703911076906
 30
0.0
 10
31.23950791287894
 20
-14.53709925250343
 30
0.0
 10
29.51372223772021
 20
-13.98106267181625
 30
0.0
 10
26.93819961532047
 20
-13.08824041951127
 30
0.0
 10
26.078887725933
 20
-12.78053012480124
 30
0.0
 10
24.35723910619004
 20
-12.14606375009159
 30
0.0
 10
23.49602726188616
 20
-11.81943808714772
 30
0.0
 10
21.77861984434157
 20
-11.14964373783147
 30
0.0
 10
20.91972306301701
 20
-10.80613409773012
 30
0.0
 10
19.19814255244443
 20
-10.10293906204932
 30
0.0
 10
18.33685344075607
 20
-9.743435210865645
 30
0.0
 10
16.61907057299237
 20
-9.011066795992182
 30
0.0
 10
15.76054548627877
 20
-8.637923432085238
 30
0.0
 10
14.03905010795923
 20
-7.87861592813686
 30
0.0
 10
13.17769225682721
 20
-7.492681053272207
 30
0.0
 10
11.45955083691126
 20
-6.710868732050388
 30
0.0
 10
10.60135401913234
 20
-6.314785433987245
 30
0.0
 10
8.879960793342319
 20
-5.512988180433254
 30
0.0
 10
8.018542732979698
 20
-5.107544087059781
 30
0.0
 10
6.300059670767221
 20
-4.290307153205779
 30
0.0
 10
5.442147685449556
 20
-3.878386248630639
 30
0.0
 10
3.720873629098502
 20
-3.048483911003204
 30
0.0
 10
2.859403891708773
 20
-2.630802811112294
 30
0.0
 10
1.999999999999999
 20
-2.211800464607747
 30
0.0
1001
PE_URL
1000

  0
LINE
  5
9B
330
1F
100
AcDbEntity
  8
0
  6
Continuous
 62
     1
370
    15
100
AcDbLine
 10
43.27499999999969
 20
-21.09021081867897
 30
0.0
 11
43.27499999999998
 21
-17.5349085755836
 31
0.0
1001
PE_URL
1000

  0
SPLINE
  5
9C
330
1F
100
AcDbEntity
  8
0
  6
Continuous
 62
     1
370
    15
100
AcDbSpline
210
0.0
220
0.0
230
1.0
 70
     8
 71
     3
 72
    32
 73
    28
 74
     0
 42
0.000000001
 43
0.00000001
 40
0.0
 40
0.0
 40
0.0
 40
0.0
 40
0.1250000000000003
 40
0.1250000000000003
 40
0.2500000000000006
 40
0.2500000000000006
 40
0.3750000000000007
 40
0.3750000000000007
 40
0.4375000000000006
 40
0.4375000000000006
 40
0.5000000000000006
 40
0.5000000000000006
 40
0.5625000000000006
 40
0.5625000000000006
 40
0.6250000000000004
 40
0.6250000000000004
 40
0.6875000000000004
 40
0.6875000000000004
 40
0.7500000000000003
 40
0.7500000000000003
 40
0.8125000000000002
 40
0.8125000000000002
 40
0.8750000000000001
 40
0.8750000000000001
 40
0.9375000000000001
 40
0.9375000000000001
 40
1.0
 40
1.0
 40
1.0
 40
1.0
 10
43.27499999999996
 20
-22.20621576847882
 30
0.0
 10
41.55926310890862
 20
-22.16543409287177
 30
0.0
 10
39.83172421556181
 20
-22.05788501800658
 30
0.0
 10
36.39936460625177
 20
-21.71210197325248
 30
0.0
 10
34.6727196585233
 20
-21.47316257333463
 30
0.0
 10
31.23950791287894
 20
-20.86931933232598
 30
0.0
 10
29.51372223772022
 20
-20.50331757006937
 30
0.0
 10
26.93819961532047
 20
-19.86498395907635
 30
0.0
 10
26.078887725933
 20
-19.63712561470961
 30
0.0
 10
24.35723910619005
 20
-19.15206595557261
 30
0.0
 10
23.49602726188617
 20
-18.8949574677774
 30
0.0
 10
21.77861984434157
 20
-18.35338329528386
 30
0.0
 10
20.91972306301701
 20
-18.06865022565492
 30
0.0
 10
19.19814255244443
 20
-17.47212872079603
 30
0.0
 10
18.33685344075608
 20
-17.16048637351599
 30
0.0
 10
16.61907057299237
 20
-16.51259276928782
 30
0.0
 10
15.76054548627876
 20
-16.17610392982459
 30
0.0
 10
14.03905010795923
 20
-15.47882447845577
 30
0.0
 10
13.17769225682721
 20
-15.11823565393347
 30
0.0
 10
11.45955083691126
 20
-14.37563109644422
 30
0.0
 10
10.60135401913234
 20
-13.99342953769488
 30
0.0
 10
8.879960793342319
 20
-13.20790378276556
 30
0.0
 10
8.018542732979695
 20
-12.80483450136404
 30
0.0
 10
6.300059670767221
 20
-11.98082879717024
 30
0.0
 10
5.442147685449553
 20
-11.55977354098731
 30
0.0
 10
3.720873629098504
 20
-10.7000962075639
 30
0.0
 10
2.859403891708769
 20
-10.26177509518613
 30
0.0
 10
1.999999999999981
 20
-9.816457870982834
 30
0.0
1001
PE_URL
1000

  0
LINE
  5
9D
330
1F
100
AcDbEntity
  8
0
  6
Continuous
 62
     1
370
    15
100
AcDbLine
 10
43.27499999999996
 20
-22.20621576847882
 30
0.0
 11
43.27499999999964
 21
-21.09021081867895
 31
0.0
1001
PE_URL
1000

  0
LINE
  5
9E
330
1F
100
AcDbEntity
  8
외형선
  6
Continuous
370
    15
100
AcDbLine
 10
1.999999999999981
 20
-9.816457870982838
 30
0.0
 11
1.999999999999981
 21
-3.927718584933368
 31
0.0
  0
SPLINE
  5
9F
330
1F
100
AcDbEntity
  8
0
  6
Continuous
 62
     1
370
    15
100
AcDbSpline
210
0.0
220
0.0
230
1.0
 70
     8
 71
     3
 72
    32
 73
    28
 74
     0
 42
0.000000001
 43
0.00000001
 40
0.0
 40
0.0
 40
0.0
 40
0.0
 40
0.1249999999999998
 40
0.1249999999999998
 40
0.2499999999999996
 40
0.2499999999999996
 40
0.3749999999999994
 40
0.3749999999999994
 40
0.4374999999999993
 40
0.4374999999999993
 40
0.4999999999999992
 40
0.4999999999999992
 40
0.5624999999999991
 40
0.5624999999999991
 40
0.624999999999999
 40
0.624999999999999
 40
0.6874999999999991
 40
0.6874999999999991
 40
0.7499999999999992
 40
0.7499999999999992
 40
0.8124999999999994
 40
0.8124999999999994
 40
0.8749999999999996
 40
0.8749999999999996
 40
0.9374999999999998
 40
0.9374999999999998
 40
1.0
 40
1.0
 40
1.0
 40
1.0
 10
43.27499999999998
 20
0.0000000000000092
 30
0.0
 10
41.55926310890862
 20
0.793699319075311
 30
0.0
 10
39.83172421556179
 20
1.589206625520747
 30
0.0
 10
36.3993646062518
 20
3.162504638749507
 30
0.0
 10
34.6727196585233
 20
3.943609571955442
 30
0.0
 10
31.23950791287895
 20
5.474578305550851
 30
0.0
 10
29.51372223772021
 20
6.227283292630915
 30
0.0
 10
26.93819961532047
 20
7.323157760840404
 30
0.0
 10
26.07888772593299
 20
7.683360513450642
 30
0.0
 10
24.35723910619003
 20
8.392139490632077
 30
0.0
 10
23.49602726188616
 20
8.740554711314047
 30
0.0
 10
21.77861984434156
 20
9.423123814428392
 30
0.0
 10
20.919723063017
 20
9.75764362656586
 30
0.0
 10
19.19814255244443
 20
10.41205848037162
 30
0.0
 10
18.33685344075607
 20
10.7317669503058
 30
0.0
 10
16.61907057299237
 20
11.35406945691105
 30
0.0
 10
15.76054548627875
 20
11.65692055895381
 30
0.0
 10
14.03905010795922
 20
12.24523375099847
 30
0.0
 10
13.17769225682721
 20
12.53049873162039
 30
0.0
 10
11.45955083691125
 20
13.08136178667071
 30
0.0
 10
10.60135401913233
 20
13.34712650013057
 30
0.0
 10
8.879960793342311
 20
13.85878705251419
 30
0.0
 10
8.018542732979684
 20
14.10448960033051
 30
0.0
 10
6.30005967076721
 20
14.57402094959815
 30
0.0
 10
5.442147685449546
 20
14.79794623561175
 30
0.0
 10
3.720873629098497
 20
15.22377909275345
 30
0.0
 10
2.859403891708764
 20
15.42550998114272
 30
0.0
 10
1.999999999999966
 20
15.61539285736313
 30
0.0
1001
PE_URL
1000

  0
SPLINE
  5
A0
330
1F
100
AcDbEntity
  8
0
  6
Continuous
 62
     1
370
    15
100
AcDbSpline
210
0.0
220
0.0
230
1.0
 70
    24
 71
     3
 72
    14
 73
    10
 74
     0
 42
0.000000001
 43
0.00000001
 40
0.0
 40
0.0
 40
0.0
 40
0.0
 40
0.2500000000000001
 40
0.2500000000000001
 40
0.5000000000000001
 40
0.5000000000000001
 40
0.75
 40
0.75
 40
1.0
 40
1.0
 40
1.0
 40
1.0
 10
43.27499999999998
 20
-17.5349085755836
 30
0.0
 10
43.27499999999998
 20
-16.58612669045716
 30
0.0
 10
43.27499999999998
 20
-15.46302083053626
 30
0.0
 10
43.27499999999999
 20
-12.91249390880115
 30
0.0
 10
43.27499999999998
 20
-11.48543230176422
 30
0.0
 10
43.27499999999996
 20
-8.42077257856649
 30
0.0
 10
43.27499999999998
 20
-6.784059443102635
 30
0.0
 10
43.27499999999999
 20
-3.424447097485572
 30
0.0
 10
43.27499999999998
 20
-1.702544449778117
 30
0.0
 10
43.27499999999998
 20
0.0000000000000092
 30
0.0
1001
PE_URL
1000

  0
SPLINE
  5
A1
330
1F
100
AcDbEntity
  8
외형선
  6
Continuous
370
    15
100
AcDbSpline
210
0.0
220
0.0
230
1.0
 70
    24
 71
     3
 72
    14
 73
    10
 74
     0
 42
0.000000001
 43
0.00000001
 40
0.0
 40
0.0
 40
0.0
 40
0.0
 40
0.25
 40
0.25
 40
0.5
 40
0.5
 40
0.75
 40
0.75
 40
1.0
 40
1.0
 40
1.0
 40
1.0
 10
1.999999999999981
 20
15.61539285736313
 30
0.0
 10
1.999999999999981
 20
14.62726858929859
 30
0.0
 10
1.999999999999981
 20
13.466751573795
 30
0.0
 10
1.999999999999981
 20
10.84845639843468
 30
0.0
 10
1.999999999999981
 20
9.391063571220814
 30
0.0
 10
1.999999999999981
 20
6.275319846866367
 30
0.0
 10
1.999999999999981
 20
4.617868681931551
 30
0.0
 10
1.999999999999981
 20
1.227510043974112
 30
0.0
 10
1.999999999999981
 20
-0.5044041413764002
 30
0.0
 10
1.999999999999981
 20
-2.211800464607737
 30
0.0
  0
SPLINE
  5
A2
330
1F
100
AcDbEntity
  8
0
  6
Continuous
 62
     1
370
    15
100
AcDbSpline
210
0.0
220
0.0
230
1.0
 70
    24
 71
     3
 72
    10
 73
     6
 74
     0
 42
0.000000001
 43
0.00000001
 40
0.0
 40
0.0
 40
0.0
 40
0.0
 40
0.5
 40
0.5
 40
1.0
 40
1.0
 40
1.0
 40
1.0
 10
38.27499999999998
 20
10.45901038765627
 30
0.0
 10
38.27499999999998
 20
11.22861133197119
 30
0.0
 10
38.27499999999998
 20
11.92194424518667
 30
0.0
 10
38.27499999999998
 20
13.13164390062824
 30
0.0
 10
38.27499999999998
 20
13.64795355494802
 30
0.0
 10
38.27499999999996
 20
14.07002798366863
 30
0.0
1001
PE_URL
1000

  0
SPLINE
  5
A3
330
1F
100
AcDbEntity
  8
0
  6
Continuous
 62
     1
370
    15
100
AcDbSpline
210
0.0
220
0.0
230
1.0
 70
     8
 71
     3
 72
    10
 73
     6
 74
     0
 42
0.000000001
 43
0.00000001
 40
0.0
 40
0.0
 40
0.0
 40
0.0
 40
0.5
 40
0.5
 40
1.0
 40
1.0
 40
1.0
 40
1.0
 10
38.27499999999998
 20
10.45901038765628
 30
0.0
 10
39.20803537573832
 20
9.790658859758222
 30
0.0
 10
40.09495232143099
 20
9.044101253554368
 30
0.0
 10
41.76654225756599
 20
7.377604190058479
 30
0.0
 10
42.55139945866578
 20
6.457977110986763
 30
0.0
 10
43.27499999999998
 20
5.434473054194111
 30
0.0
1001
PE_URL
1000

  0
SPLINE
  5
A4
330
1F
100
AcDbEntity
  8
0
  6
Continuous
 62
     1
370
    15
100
AcDbSpline
210
0.0
220
0.0
230
1.0
 70
     8
 71
     3
 72
    10
 73
     6
 74
     0
 42
0.000000001
 43
0.00000001
 40
0.0
 40
0.0
 40
0.0
 40
0.0
 40
0.4473057612972237
 40
0.8943219391388152
 40
0.9999999999999999
 40
0.9999999999999999
 40
0.9999999999999999
 40
0.9999999999999999
 10
43.27499999999998
 20
15.55749999999999
 30
0.0
 10
42.04336623210772
 20
15.54159224067189
 30
0.0
 10
39.58089604970749
 20
15.50978702061748
 30
0.0
 10
36.82781225708101
 20
15.36758682068481
 30
0.0
 10
35.30607652431323
 20
15.21692374102763
 30
0.0
 10
35.0151126058915
 20
15.1881161635524
 30
0.0
1001
PE_URL
1000

  0
SPLINE
  5
A5
330
1F
100
AcDbEntity
  8
0
  6
Continuous
 62
     1
370
    15
100
AcDbSpline
210
0.0
220
0.0
230
1.0
 70
     8
 71
     3
 72
     8
 73
     4
 74
     0
 42
0.000000001
 43
0.00000001
 40
0.0
 40
0.0
 40
0.0
 40
0.0
 40
1.0
 40
1.0
 40
1.0
 40
1.0
 10
43.27499999999998
 20
15.55749999999999
 30
0.0
 10
41.60098058323503
 20
15.10379354190031
 30
0.0
 10
39.93422931830572
 20
14.60845412675043
 30
0.0
 10
38.27499999999996
 20
14.07002798366864
 30
0.0
1001
PE_URL
1000

  0
SPLINE
  5
A6
330
1F
100
AcDbEntity
  8
0
  6
Continuous
 62
     1
370
    15
100
AcDbSpline
210
0.0
220
0.0
230
1.0
 70
    24
 71
     3
 72
     8
 73
     4
 74
     0
 42
0.000000001
 43
0.00000001
 40
0.0
 40
0.0
 40
0.0
 40
0.0
 40
1.0
 40
1.0
 40
1.0
 40
1.0
 10
43.27499999999998
 20
0.0000000000000071
 30
0.0
 10
43.27499999999998
 20
1.867551435155369
 30
0.0
 10
43.27499999999996
 20
3.711912638870845
 30
0.0
 10
43.27499999999996
 20
5.434473054194108
 30
0.0
1001
PE_URL
1000

  0
SPLINE
  5
A7
330
1F
100
AcDbEntity
  8
외형선
  6
Continuous
370
    15
100
AcDbSpline
210
0.0
220
0.0
230
1.0
 70
    24
 71
     3
 72
     9
 73
     5
 74
     0
 42
0.000000001
 43
0.00000001
 40
0.0
 40
0.0
 40
0.0
 40
0.0
 40
0.4105198857732234
 40
0.9999999999999999
 40
0.9999999999999999
 40
0.9999999999999999
 40
0.9999999999999999
 10
1.99999999999998
 20
15.87504341935433
 30
0.0
 10
1.99999999999998
 20
15.87170362730909
 30
0.0
 10
1.99999999999998
 20
15.86356810900419
 30
0.0
 10
1.99999999999998
 20
15.70743199291204
 30
0.0
 10
1.99999999999998
 20
15.61539285736312
 30
0.0
  0
SPLINE
  5
A8
330
1F
100
AcDbEntity
  8
외형선
  6
Continuous
370
    15
100
AcDbSpline
210
0.0
220
0.0
230
1.0
 70
    24
 71
     3
 72
    17
 73
    13
 74
     0
 42
0.000000001
 43
0.00000001
 40
0.0
 40
0.0
 40
0.0
 40
0.0
 40
0.0347891577048622
 40
0.1530526806707704
 40
0.2713162036366785
 40
0.3862409150842868
 40
0.5011656265318951
 40
0.6194291494978031
 40
0.7376926724637114
 40
0.8528634988265009
 40
0.968437314593805
 40
1.0
 40
1.0
 40
1.0
 40
1.0
 10
1.999999999999981
 20
-9.86749216212828
 30
0.0
 10
1.999999999999981
 20
-10.00598881554273
 30
0.0
 10
1.99999999999998
 20
-10.61529600972207
 30
0.0
 10
1.999999999999981
 20
-11.56037022277361
 30
0.0
 10
1.99999999999998
 20
-12.67526910813018
 30
0.0
 10
1.999999999999981
 20
-13.61895530068793
 30
0.0
 10
1.99999999999998
 20
-14.41159056541611
 30
0.0
 10
1.999999999999981
 20
-15.04521033778522
 30
0.0
 10
1.99999999999998
 20
-15.51332857987886
 30
0.0
 10
1.999999999999981
 20
-15.79111217700869
 30
0.0
 10
1.99999999999998
 20
-15.90852396108721
 30
0.0
 10
1.99999999999998
 20
-15.87983232685625
 30
0.0
 10
1.99999999999998
 20
-15.87367759966213
 30
0.0
  0
LINE
  5
A9
330
1F
100
AcDbEntity
  8
0
  6
Continuous
 62
     1
370
    15
100
AcDbLine
 10
43.27499999999998
 20
5.46000019976683
 30
0.0
 11
43.27499999999998
 21
15.5575
 31
0.0
1001
PE_URL
1000

  0
SPLINE
  5
AA
330
1F
100
AcDbEntity
  8
0
  6
Continuous
 62
     1
370
    15
100
AcDbSpline
210
0.0
220
0.0
230
1.0
 70
     8
 71
     3
 72
    16
 73
    12
 74
     0
 42
0.000000001
 43
0.00000001
 40
0.0
 40
0.0
 40
0.0
 40
0.0
 40
0.0822713995474787
 40
0.1901902852582827
 40
0.2982122293942625
 40
0.406170932282233
 40
0.5248988253525169
 40
0.6437171428180501
 40
0.7624840066647218
 40
0.8812054070558203
 40
1.0
 40
1.0
 40
1.0
 40
1.0
 10
12.69351831781535
 20
14.89779822816065
 30
0.0
 10
13.53226739102379
 20
15.25470661597146
 30
0.0
 10
15.47123921320086
 20
16.07978688034254
 30
0.0
 10
18.51039523959163
 20
17.23885725578156
 30
0.0
 10
21.8128502228984
 20
18.38274004784477
 30
0.0
 10
25.2245538758929
 20
19.42251406680897
 30
0.0
 10
28.74617068625447
 20
20.33698702233628
 30
0.0
 10
32.37897013999976
 20
21.09915687204673
 30
0.0
 10
36.01109229425405
 20
21.67035493806583
 30
0.0
 10
39.64251137660877
 20
22.06296266848195
 30
0.0
 10
42.06392173287356
 20
22.15845492623213
 30
0.0
 10
43.27499999999996
 20
22.20621576847882
 30
0.0
1001
PE_URL
1000

  0
SPLINE
  5
AB
330
1F
100
AcDbEntity
  8
0
  6
Continuous
 62
     1
370
    15
100
AcDbSpline
210
0.0
220
0.0
230
1.0
 70
    24
 71
     3
 72
    14
 73
    10
 74
     0
 42
0.000000001
 43
0.00000001
 40
0.0
 40
0.0
 40
0.0
 40
0.0
 40
0.25
 40
0.25
 40
0.5
 40
0.5
 40
0.75
 40
0.75
 40
1.0
 40
1.0
 40
1.0
 40
1.0
 10
43.27499999999998
 20
15.55749999999999
 30
0.0
 10
43.27499999999996
 20
16.02902845377127
 30
0.0
 10
43.27499999999998
 20
16.53761365798587
 30
0.0
 10
43.27499999999998
 20
17.60879551873965
 30
0.0
 10
43.27499999999998
 20
18.17128539101751
 30
0.0
 10
43.27499999999998
 20
19.32090343190917
 30
0.0
 10
43.27499999999998
 20
19.90783820726068
 30
0.0
 10
43.27499999999999
 20
21.07233565057484
 30
0.0
 10
43.27499999999998
 20
21.64968643958327
 30
0.0
 10
43.27499999999998
 20
22.20621576847882
 30
0.0
1001
PE_URL
1000

  0
LINE
  5
AC
330
1F
100
AcDbEntity
  8
중심선
 62
     1
100
AcDbLine
 10
-68.5
 20
-0.0000000000000097
 30
0.0
 11
50.27499999999998
 21
0.0000000000000041
 31
0.0
  0
LINE
  5
AD
330
1F
100
AcDbEntity
  8
참조1
100
AcDbLine
 10
-2.762500000000021
 20
-0.0000000000000073
 30
0.0
 11
-2.762500000000016
 21
-40.00000000000001
 31
0.0
  0
LINE
  5
AE
330
1F
100
AcDbEntity
  8
참조1
100
AcDbLine
 10
-2.762500000000016
 20
-40.00000000000001
 30
0.0
 11
-24.2713318143087
 21
-40.0
 31
0.0
  0
INSERT
  5
B0
330
1F
100
AcDbEntity
  8
0
  6
Continuous
 62
     7
100
AcDbBlockReference
 66
     1
  2
블럭10
 10
-16.70277293212523
 20
-52.04717430164393
 30
0.0
  0
ATTRIB
  5
B1
330
B0
100
AcDbEntity
  8
FORMAT
 62
     2
100
AcDbText
 10
-25.88406822086651
 20
-49.97180738881175
 30
0.0
 40
4.233333333333333
  1
E1030148 [ 2 FLUTE ]
 41
0.75
  7
SLDTEXTSTYLE0
 11
-25.88406822086651
 21
-52.08847405547841
 31
0.0
100
AcDbAttribute
  2
AUTOATTR0
 70
     0
 74
     1
  0
SEQEND
  5
B2
330
B0
100
AcDbEntity
  8
0
  6
Continuous
 62
     7
  0
HATCH
  5
B3
330
1F
100
AcDbEntity
  8
중심선
100
AcDbHatch
 10
0.0
 20
0.0
 30
0.0
210
0.0
220
0.0
230
1.0
  2
SOLID
 70
     1
 71
     0
 91
        1
 92
        0
 93
        4
 72
     1
 10
-10.98786362774439
 20
-35.8
 11
-14.43413887158167
 21
-35.8
 72
     1
 10
-14.43413887158167
 20
-35.8
 11
-16.56236873078569
 21
-38.3363255805726
 72
     1
 10
-16.56236873078569
 20
-38.3363255805726
 11
-13.11606040183526
 21
-38.33628615127011
 72
     1
 10
-13.11606040183526
 20
-38.33628615127011
 11
-10.98786362774439
 21
-35.8
 97
        0
 75
     0
 76
     1
 98
        1
 10
-1.740578832126957
 20
-0.0010749287238965
  0
HATCH
  5
B4
330
1F
100
AcDbEntity
  8
중심선
100
AcDbHatch
 10
0.0
 20
0.0
 30
0.0
210
0.0
220
0.0
230
1.0
  2
SOLID
 70
     1
 71
     0
 91
        1
 92
        0
 93
        4
 72
     1
 10
-5.975099636708405
 20
-35.8
 11
-9.421374880545688
 21
-35.8
 72
     1
 10
-9.421374880545688
 20
-35.8
 11
-13.9525128889031
 21
-41.20000000000002
 72
     1
 10
-13.9525128889031
 20
-41.20000000000002
 11
-10.50623764506582
 21
-41.20000000000002
 72
     1
 10
-10.50623764506582
 20
-41.20000000000002
 11
-5.975099636708405
 21
-35.8
 97
        0
 75
     0
 76
     1
 98
        1
 10
-1.740578832126957
 20
-0.0010749287238965
  0
HATCH
  5
B5
330
1F
100
AcDbEntity
  8
중심선
100
AcDbHatch
 10
0.0
 20
0.0
 30
0.0
210
0.0
220
0.0
230
1.0
  2
SOLID
 70
     1
 71
     0
 91
        1
 92
        0
 93
        4
 72
     1
 10
-0.9623356456725376
 20
-35.8
 11
-4.408610889509625
 21
-35.8
 72
     1
 10
-4.408610889509625
 20
-35.8
 11
-11.4570477913989
 21
-44.20000000000002
 72
     1
 10
-11.4570477913989
 20
-44.20000000000002
 11
-8.01077254756162
 21
-44.20000000000002
 72
     1
 10
-8.01077254756162
 20
-44.20000000000002
 11
-0.9623356456725372
 21
-35.8
 97
        0
 75
     0
 76
     1
 98
        1
 10
-1.740578832126957
 20
-0.0010749287238965
  0
HATCH
  5
B6
330
1F
100
AcDbEntity
  8
중심선
100
AcDbHatch
 10
0.0
 20
0.0
 30
0.0
210
0.0
220
0.0
230
1.0
  2
SOLID
 70
     1
 71
     0
 91
        1
 92
        0
 93
        6
 72
     3
 10
3.837554785339662
 20
-40.00000000005127
 11
3.960054785062284
 21
1.540882976769353E-10
 40
0.3939339440162627
 50
17.09539180608437
 51
320.0019657685086
 73
     0
 72
     1
 10
5.520554441040257
 20
-38.58789400463833
 11
7.825856314741323
 21
-36.65356729459038
 72
     3
 10
3.837554785286815
 20
-40.00000000000015
 11
6.60005478528683
 21
-1.278976924368180E-13
 40
0.636358354079598
 50
39.99873849337385
 51
368.4976242363725
 73
     1
 72
     1
 10
10.26288727718742
 20
-39.03999999993002
 11
2.517622092122737
 21
-39.03999999993002
 72
     1
 10
2.517622092122737
 20
-39.03999999993002
 11
2.517597047676803
 21
-40.95999999992991
 72
     1
 10
2.517597047676803
 20
-40.95999999992991
 11
6.958976817148841
 21
-40.95999999992988
 97
        0
 75
     0
 76
     1
 98
        1
 10
-1.740578832126957
 20
-0.0010749287238965
  0
DIMENSION
  5
B7
330
1F
100
AcDbEntity
  8
치수문자_일반주서
100
AcDbDimension
  2
_D
 10
-76.49999999999986
 20
-15.87500000000008
 30
0.0
 11
-76.50000000000006
 21
37.74999999999987
 31
0.0
 70
   160
  1
%%c<>
 71
     2
 42
31.74999999999995
 52
-270.0
  3
SLDDIMSTYLE2
100
AcDbAlignedDimension
 13
-46.89500000000001
 23
15.87499999999998
 33
0.0
 14
-60.43749999999999
 24
-15.87500000000002
 34
0.0
 50
90.0000000000002
100
AcDbRotatedDimension
1001
PE_URL
1000

1001
ACAD
1000
DSTYLE
1002
{
1070
   171
1070
     8
1070
   273
1070
     7
1070
    41
1040
4.0
1070
   140
1040
4.0
1002
}
1001
ACAD_DSTYLE_DIMFLIPARROW_SYMBOL
1070
   385
1070
     0
1001
ACAD_DSTYLE_DIMFLIPARROW_WHICH_SYMBOL
1070
   386
1070
     3
  0
DIMENSION
  5
C5
330
1F
100
AcDbEntity
  8
치수문자_일반주서
100
AcDbDimension
  2
_D_1
 10
1.999999999999982
 20
30.875
 30
0.0
 11
22.63749999999998
 21
30.875
 31
0.0
 70
   160
  1
<>
 71
     2
 42
41.275
  3
SLDDIMSTYLE2
100
AcDbAlignedDimension
 13
43.27499999999998
 23
22.20621576847882
 33
0.0
 14
1.999999999999981
 24
5.47284932406939
 34
0.0
100
AcDbRotatedDimension
1001
PE_URL
1000

1001
ACAD
1000
DSTYLE
1002
{
1070
   171
1070
     8
1070
   273
1070
     7
1070
    41
1040
4.0
1070
   140
1040
4.0
1002
}
  0
DIMENSION
  5
DB
330
1F
100
AcDbEntity
  8
치수문자_일반주서
100
AcDbDimension
  2
_D_2
 10
-61.5
 20
45.875
 30
0.0
 11
-9.112500000000011
 21
45.875
 31
0.0
 70
   160
  1
<>
 71
     2
 42
104.775
  3
SLDDIMSTYLE2
100
AcDbAlignedDimension
 13
43.27499999999998
 23
22.20621576847882
 33
0.0
 14
-61.5
 24
13.96999999999999
 34
0.0
 50
0.000000000000008
100
AcDbRotatedDimension
1001
PE_URL
1000

1001
ACAD
1000
DSTYLE
1002
{
1070
   171
1070
     8
1070
   273
1070
     7
1070
    41
1040
4.0
1070
   140
1040
4.0
1002
}
  0
DIMENSION
  5
EF
330
1F
100
AcDbEntity
  8
치수문자_일반주서
100
AcDbDimension
  2
_D_3
 10
58.27499999999999
 20
22.20621576847888
 30
0.0
 11
58.27499999999991
 21
44.58121576847888
 31
0.0
 70
   160
  1
%%c<>
 71
     2
 42
44.41243153695764
 52
-270.0
  3
SLDDIMSTYLE2
100
AcDbAlignedDimension
 13
43.27499999999996
 23
-22.20621576847882
 33
0.0
 14
43.27499999999996
 24
22.20621576847882
 34
0.0
 50
90.0000000000002
100
AcDbRotatedDimension
1001
PE_URL
1000

1001
ACAD
1000
DSTYLE
1002
{
1070
   171
1070
     8
1070
   273
1070
     7
1070
    41
1040
4.0
1070
   140
1040
4.0
1002
}
1001
ACAD_DSTYLE_DIMFLIPARROW_SYMBOL
1070
   385
1070
     0
1001
ACAD_DSTYLE_DIMFLIPARROW_WHICH_SYMBOL
1070
   386
1070
     3
  0
LINE
  5
103
330
1F
100
AcDbEntity
  8
참조1
100
AcDbLine
 10
73.70100881534557
 20
7.44
 30
0.0
 11
73.70100881534557
 21
-7.440000000000005
 31
0.0
  0
LINE
  5
104
330
1F
100
AcDbEntity
  8
참조1
100
AcDbLine
 10
86.40100881534558
 20
5.44
 30
0.0
 11
73.70100881534557
 21
5.44
 31
0.0
  0
SOLID
  5
105
330
1F
100
AcDbEntity
  8
참조1
100
AcDbTrace
 10
73.70100881534557
 20
5.44
 30
0.0
 11
80.05100881534557
 21
4.423999999999999
 31
0.0
 12
80.05100881534557
 22
6.456
 32
0.0
 13
80.05100881534557
 23
6.456
 33
0.0
  0
LINE
  5
106
330
1F
100
AcDbEntity
  8
참조1
100
AcDbLine
 10
86.40100881534558
 20
-5.440000000000005
 30
0.0
 11
73.70100881534557
 21
-5.440000000000005
 31
0.0
  0
SOLID
  5
107
330
1F
100
AcDbEntity
  8
참조1
100
AcDbTrace
 10
73.70100881534557
 20
-5.440000000000005
 30
0.0
 11
80.05100881534557
 21
-6.456000000000005
 31
0.0
 12
80.05100881534557
 22
-4.424000000000005
 32
0.0
 13
80.05100881534557
 23
-4.424000000000005
 33
0.0
  0
MTEXT
  5
108
330
1F
100
AcDbEntity
  8
참조1
100
AcDbMText
 10
83.08535894797156
 20
11.01029177718833
 30
0.0
 40
3.5
 41
0.0
 71
     1
 72
     1
  1
A
  7
SLDTEXTSTYLE0
 73
     1
 44
1.0
  0
MTEXT
  5
109
330
1F
100
AcDbEntity
  8
참조1
100
AcDbMText
 10
83.08535894797156
 20
0.1302917771883236
 30
0.0
 40
3.5
 41
0.0
 71
     1
 72
     1
  1
A
  7
SLDTEXTSTYLE0
 73
     1
 44
1.0
  0
SPLINE
  5
20B
330
1F
100
AcDbEntity
  8
외형선
  6
Continuous
370
    15
100
AcDbSpline
210
0.0
220
0.0
230
1.0
 70
    24
 71
     3
 72
     8
 73
     4
 74
     0
 42
0.000000001
 43
0.00000001
 40
0.0
 40
0.0
 40
0.0
 40
0.0
 40
1.0
 40
1.0
 40
1.0
 40
1.0
 10
2.0
 20
2.586003176581413
 30
0.0
 10
2.0
 20
2.464529104552755
 30
0.0
 10
2.0
 20
2.268408457578149
 30
0.0
 10
2.0
 20
2.000423427877584
 30
0.0
  0
LINE
  5
20C
330
1F
100
AcDbEntity
  8
외형선
  6
Continuous
370
    15
100
AcDbLine
 10
2.0
 20
-2.868439214036259
 30
0.0
 11
2.0
 21
2.000423427880398
 31
0.0
  0
SPLINE
  5
20D
330
1F
100
AcDbEntity
  8
외형선
  6
Continuous
370
    15
100
AcDbSpline
210
0.0
220
0.0
230
1.0
 70
    24
 71
     3
 72
    14
 73
    10
 74
     0
 42
0.000000001
 43
0.00000001
 40
0.0
 40
0.0
 40
0.0
 40
0.0
 40
0.25
 40
0.25
 40
0.5
 40
0.5
 40
0.75
 40
0.75
 40
1.0
 40
1.0
 40
1.0
 40
1.0
 10
2.0
 20
13.67426650302473
 30
0.0
 10
2.0
 20
13.24811946257552
 30
0.0
 10
2.0
 20
12.6760027089913
 30
0.0
 10
2.0
 20
11.24974388296437
 30
0.0
 10
2.0
 20
10.39568219519117
 30
0.0
 10
2.0
 20
8.457733453098557
 30
0.0
 10
2.0
 20
7.374406019547289
 30
0.0
 10
2.0
 20
5.0633667461929
 30
0.0
 10
2.0
 20
3.836432004151936
 30
0.0
 10
2.0
 20
2.58600317658142
 30
0.0
  0
SPLINE
  5
20E
330
1F
100
AcDbEntity
  8
외형선
  6
Continuous
370
    15
100
AcDbSpline
210
0.0
220
0.0
230
1.0
 70
    24
 71
     3
 72
    19
 73
    15
 74
     0
 42
0.000000001
 43
0.00000001
 40
0.0
 40
0.0
 40
0.0
 40
0.0
 40
0.0601676081337111
 40
0.1445939507462632
 40
0.2314730612762812
 40
0.3183521718062992
 40
0.4027785144188513
 40
0.4872048570314035
 40
0.5740839675614213
 40
0.6609630780914393
 40
0.7445340734226613
 40
0.8281050687538833
 40
0.9140525343769417
 40
1.0
 40
1.0
 40
1.0
 40
1.0
 10
2.0
 20
-2.91240839372673
 30
0.0
 10
2.0
 20
-3.254453086296566
 30
0.0
 10
2.0
 20
-4.076450087083986
 30
0.0
 10
2.0
 20
-5.319834978087878
 30
0.0
 10
2.0
 20
-6.63814463475577
 30
0.0
 10
2.0
 20
-7.867966054994584
 30
0.0
 10
2.0
 20
-8.992604012995196
 30
0.0
 10
2.0
 20
-10.0176284874699
 30
0.0
 10
2.0
 20
-10.94236411808054
 30
0.0
 10
2.0
 20
-11.74686082211427
 30
0.0
 10
2.0
 20
-12.42147928126016
 30
0.0
 10
2.0
 20
-12.97034062893323
 30
0.0
 10
2.0
 20
-13.40538110893542
 30
0.0
 10
2.0
 20
-13.5846380383283
 30
0.0
 10
2.0
 20
-13.67426650302473
 30
0.0
  0
LINE
  5
20F
330
1F
100
AcDbEntity
  8
외형선
  6
Continuous
370
    15
100
AcDbLine
 10
1.999999999999979
 20
15.87499999999999
 30
0.0
 11
-24.06992499999998
 21
15.87499999999999
 31
0.0
  0
LINE
  5
210
330
1F
100
AcDbEntity
  8
외형선
  6
Continuous
370
    15
100
AcDbLine
 10
-60.49999999999999
 20
-15.87500000000002
 30
0.0
 11
1.99999999999998
 21
-15.87500000000002
 31
0.0
  0
LINE
  5
211
330
1F
100
AcDbEntity
  8
외형선
  6
Continuous
370
    15
100
AcDbLine
 10
-61.5
 20
-14.875
 30
0.0
 11
-60.49999999999999
 21
-15.875
 31
0.0
  0
LINE
  5
213
330
1F
100
AcDbEntity
  8
외형선
  6
Continuous
370
    15
100
AcDbLine
 10
2.000000000000028
 20
-0.5314138600008547
 30
0.0
 11
2.000000000000028
 21
-0.7738545373127308
 31
0.0
  0
LINE
  5
217
330
1F
100
AcDbEntity
  8
외형선
  6
Continuous
370
    15
100
AcDbLine
 10
2.000000000000028
 20
3.946614535943974
 30
0.0
 11
2.000000000000028
 21
-0.453607832853423
 31
0.0
  0
LINE
  5
21A
330
1F
100
AcDbEntity
  8
외형선
  6
Continuous
370
    15
100
AcDbLine
 10
-60.49999999999999
 20
13.96999999999999
 30
0.0
 11
-60.49999999999999
 21
-15.87500000000002
 31
0.0
  0
LINE
  5
21B
330
1F
100
AcDbEntity
  8
외형선
  6
Continuous
370
    15
100
AcDbLine
 10
-61.5
 20
13.96999999999999
 30
0.0
 11
-61.5
 21
-14.87499999999999
 31
0.0
  0
SPLINE
  5
21C
330
1F
100
AcDbEntity
  8
외형선
  6
Continuous
370
    15
100
AcDbSpline
210
0.0
220
0.0
230
1.0
 70
    24
 71
     3
 72
    11
 73
     7
 74
     0
 42
0.000000001
 43
0.00000001
 40
0.0
 40
0.0
 40
0.0
 40
0.0
 40
0.0823041583770279
 40
0.330386082657111
 40
0.8244444445770203
 40
1.0
 40
1.0
 40
1.0
 40
1.0
 10
2.000000000000028
 20
4.132058598373471
 30
0.0
 10
2.000000000000028
 20
4.13157933731288
 30
0.0
 10
2.000000000000028
 20
4.129655483312051
 30
0.0
 10
2.000000000000028
 20
4.098156775640733
 30
0.0
 10
2.000000000000028
 20
4.037020422010125
 30
0.0
 10
2.000000000000028
 20
3.965393320621184
 30
0.0
 10
2.000000000000028
 20
3.946614535948415
 30
0.0
  0
SPLINE
  5
220
330
1F
100
AcDbEntity
  8
외형선
  6
Continuous
370
    15
100
AcDbSpline
210
0.0
220
0.0
230
1.0
 70
    24
 71
     3
 72
    17
 73
    13
 74
     0
 42
0.000000001
 43
0.00000001
 40
0.0
 40
0.0
 40
0.0
 40
0.0
 40
0.1313580261013513
 40
0.2627160522027026
 40
0.3590253798081519
 40
0.455334707413601
 40
0.5544420293605489
 40
0.6535493513074967
 40
0.7406183468884215
 40
0.8276873424693466
 40
0.916804288052325
 40
1.0
 40
1.0
 40
1.0
 40
1.0
 10
2.000000000000028
 20
12.66916838106827
 30
0.0
 10
2.000000000000028
 20
12.52596852133815
 30
0.0
 10
2.000000000000028
 20
12.23956880187788
 30
0.0
 10
2.000000000000028
 20
11.59905215273748
 30
0.0
 10
2.000000000000028
 20
10.88663460064065
 30
0.0
 10
2.000000000000028
 20
10.13578412132074
 30
0.0
 10
2.000000000000028
 20
9.273352987290759
 30
0.0
 10
2.000000000000028
 20
8.341553286000527
 30
0.0
 10
2.000000000000028
 20
7.368369768598383
 30
0.0
 10
2.000000000000028
 20
6.362407772971215
 30
0.0
 10
2.000000000000028
 20
5.313601434760459
 30
0.0
 10
2.000000000000028
 20
4.57075791067547
 30
0.0
 10
2.000000000000028
 20
4.212099430575266
 30
0.0
  0
SPLINE
  5
222
330
1F
100
AcDbEntity
  8
외형선
  6
Continuous
370
    15
100
AcDbSpline
210
0.0
220
0.0
230
1.0
 70
    24
 71
     3
 72
    14
 73
    10
 74
     0
 42
0.000000001
 43
0.00000001
 40
0.0
 40
0.0
 40
0.0
 40
0.0
 40
0.25
 40
0.25
 40
0.5
 40
0.5
 40
0.75
 40
0.75
 40
1.0
 40
1.0
 40
1.0
 40
1.0
 10
2.000000000000028
 20
-0.7738545373127308
 30
0.0
 10
2.000000000000028
 20
-2.123710599937895
 30
0.0
 10
2.000000000000028
 20
-3.468575573474526
 30
0.0
 10
2.000000000000028
 20
-6.010654175805856
 30
0.0
 10
2.000000000000028
 20
-7.206344885641231
 30
0.0
 10
2.000000000000028
 20
-9.320485110779545
 30
0.0
 10
2.000000000000028
 20
-10.23780812378206
 30
0.0
 10
2.000000000000028
 20
-11.71921585877856
 30
0.0
 10
2.000000000000028
 20
-12.28326743127755
 30
0.0
 10
2.000000000000028
 20
-12.6691683810683
 30
0.0
  0
SPLINE
  5
223
330
1F
100
AcDbEntity
  8
외형선
  6
Continuous
370
    15
100
AcDbSpline
210
0.0
220
0.0
230
1.0
 70
    24
 71
     3
 72
    12
 73
     8
 74
     0
 42
0.000000001
 43
0.00000001
 40
0.0
 40
0.0
 40
0.0
 40
0.0
 40
0.0864847977554923
 40
0.3334174136468478
 40
0.5791958706366193
 40
0.8252577544266632
 40
1.0
 40
1.0
 40
1.0
 40
1.0
 10
2.000000000000028
 20
4.132175635189975
 30
0.0
 10
2.000000000000028
 20
4.131679582684344
 30
0.0
 10
2.000000000000028
 20
4.129767194059378
 30
0.0
 10
2.000000000000028
 20
4.1075815301313
 30
0.0
 10
2.000000000000028
 20
4.065320096429824
 30
0.0
 10
2.000000000000028
 20
4.010593567145628
 30
0.0
 10
2.000000000000028
 20
3.965386944028632
 30
0.0
 10
2.000000000000028
 20
3.946614535948415
 30
0.0
  0
LINE
  5
224
330
1F
100
AcDbEntity
  8
외형선
  6
Continuous
370
    15
100
AcDbLine
 10
2.000000000000028
 20
-0.5314138600008405
 30
0.0
 11
2.000000000000028
 21
-0.7738545373127308
 31
0.0
  0
SPLINE
  5
225
330
1F
100
AcDbEntity
  8
외형선
  6
Continuous
370
    15
100
AcDbSpline
210
0.0
220
0.0
230
1.0
 70
    24
 71
     3
 72
    17
 73
    13
 74
     0
 42
0.000000001
 43
0.00000001
 40
0.0
 40
0.0
 40
0.0
 40
0.0
 40
0.1305123694726852
 40
0.2627180348991967
 40
0.3590271035105814
 40
0.4553361721219662
 40
0.5544432275505119
 40
0.6535502829790576
 40
0.7406190444149251
 40
0.8276878058507925
 40
0.9168045117813872
 40
1.0
 40
1.0
 40
1.0
 40
1.0
 10
2.000000000000028
 20
12.66916838106827
 30
0.0
 10
2.000000000000028
 20
12.52719636435633
 30
0.0
 10
2.000000000000028
 20
12.24141035501532
 30
0.0
 10
2.000000000000028
 20
11.60081709327883
 30
0.0
 10
2.000000000000028
 20
10.88665767745519
 30
0.0
 10
2.000000000000028
 20
10.13577773567578
 30
0.0
 10
2.000000000000028
 20
9.273354726452327
 30
0.0
 10
2.000000000000028
 20
8.341552882596753
 30
0.0
 10
2.000000000000028
 20
7.368369870626031
 30
0.0
 10
2.000000000000028
 20
6.36240774498526
 30
0.0
 10
2.000000000000028
 20
5.313601441280118
 30
0.0
 10
2.000000000000028
 20
4.570757912798326
 30
0.0
 10
2.000000000000028
 20
4.212099430575266
 30
0.0
  0
SPLINE
  5
226
330
1F
100
AcDbEntity
  8
외형선
  6
Continuous
370
    15
100
AcDbSpline
210
0.0
220
0.0
230
1.0
 70
    24
 71
     3
 72
    14
 73
    10
 74
     0
 42
0.000000001
 43
0.00000001
 40
0.0
 40
0.0
 40
0.0
 40
0.0
 40
0.25
 40
0.25
 40
0.5
 40
0.5
 40
0.75
 40
0.75
 40
1.0
 40
1.0
 40
1.0
 40
1.0
 10
2.000000000000028
 20
-0.7738545373127308
 30
0.0
 10
2.000000000000028
 20
-2.123710599937895
 30
0.0
 10
2.000000000000028
 20
-3.468575573474526
 30
0.0
 10
2.000000000000028
 20
-6.010654175805856
 30
0.0
 10
2.000000000000028
 20
-7.206344885641231
 30
0.0
 10
2.000000000000028
 20
-9.320485110779545
 30
0.0
 10
2.000000000000028
 20
-10.23780812378206
 30
0.0
 10
2.000000000000028
 20
-11.71921585877856
 30
0.0
 10
2.000000000000028
 20
-12.28326743127755
 30
0.0
 10
2.000000000000028
 20
-12.6691683810683
 30
0.0
  0
CIRCLE
  5
227
330
1F
100
AcDbEntity
  8
해칭선
100
AcDbCircle
 10
0.0
 20
0.0
 30
0.0
 40
2.999999999999993
  0
INSERT
  5
228
330
1F
100
AcDbEntity
  8
해칭선
100
AcDbBlockReference
  2
SW_DOWELSYMBOL_0
 10
0.0
 20
0.0
 30
0.0
  0
LINE
  5
229
330
1F
100
AcDbEntity
  8
외형선
  6
Continuous
370
    15
100
AcDbLine
 10
-39.08132499999991
 20
13.96999999999999
 30
0.0
 11
-25.97492500000001
 21
13.96999999999999
 31
0.0
1001
PE_URL
1000

  0
LINE
  5
22A
330
1F
100
AcDbEntity
  8
외형선
  6
Continuous
370
    15
100
AcDbLine
 10
-39.08132499999991
 20
13.97
 30
0.0
 11
-40.98632499999988
 21
15.87499999999999
 31
0.0
1001
PE_URL
1000

  0
LINE
  5
22B
330
1F
100
AcDbEntity
  8
외형선
  6
Continuous
370
    15
100
AcDbLine
 10
-25.97492500000001
 20
13.97
 30
0.0
 11
-24.06992499999998
 21
15.87499999999999
 31
0.0
1001
PE_URL
1000

  0
LINE
  5
22C
330
1F
100
AcDbEntity
  8
외형선
  6
Continuous
370
    15
100
AcDbLine
 10
-61.5
 20
13.96999999999999
 30
0.0
 11
-48.79999999999998
 21
13.96999999999999
 31
0.0
1001
PE_URL
1000

  0
LINE
  5
22D
330
1F
100
AcDbEntity
  8
외형선
  6
Continuous
370
    15
100
AcDbLine
 10
-48.79999999999998
 20
13.97
 30
0.0
 11
-46.89500000000001
 21
15.87499999999998
 31
0.0
1001
PE_URL
1000

  0
LINE
  5
22E
330
1F
100
AcDbEntity
  8
외형선
  6
Continuous
370
    15
100
AcDbLine
 10
-40.98632499999987
 20
15.87499999999999
 30
0.0
 11
-46.89500000000001
 21
15.87499999999998
 31
0.0
  0
ENDSEC
  0
SECTION
  2
OBJECTS
  0
DICTIONARY
  5
C
330
0
100
AcDbDictionary
281
     1
  3
ACAD_DETAILVIEWSTYLE
350
1B4
  3
ACAD_GROUP
350
D
  3
ACAD_LAYOUT
350
1A
  3
ACAD_MLINESTYLE
350
17
  3
ACAD_PLOTSETTINGS
350
19
  3
ACAD_PLOTSTYLENAME
350
E
  3
ACAD_SCALELIST
350
47
  3
ACAD_SECTIONVIEWSTYLE
350
1B5
  3
AcDbVariableDictionary
350
1AF
  3
APPDATA
350
132
  3
DWGPROPS
350
239
  0
DICTIONARY
  5
185
330
2
100
AcDbDictionary
280
     1
281
     1
  3
ACAD_LAYERSTATES
360
186
  0
DICTIONARY
  5
1B4
102
{ACAD_REACTORS
330
C
102
}
330
C
100
AcDbDictionary
281
     1
  0
DICTIONARY
  5
D
102
{ACAD_REACTORS
330
C
102
}
330
C
100
AcDbDictionary
281
     1
  0
DICTIONARY
  5
1A
102
{ACAD_REACTORS
330
C
102
}
330
C
100
AcDbDictionary
281
     1
  3
Layout1
350
1E
  3
Layout2
350
26
  3
Model
350
22
  0
DICTIONARY
  5
17
102
{ACAD_REACTORS
330
C
102
}
330
C
100
AcDbDictionary
281
     1
  3
Standard
350
18
  0
DICTIONARY
  5
19
102
{ACAD_REACTORS
330
C
102
}
330
C
100
AcDbDictionary
281
     1
  0
ACDBDICTIONARYWDFLT
  5
E
102
{ACAD_REACTORS
330
C
102
}
330
C
100
AcDbDictionary
281
     1
  3
Normal
350
F
100
AcDbDictionaryWithDefault
340
F
  0
DICTIONARY
  5
47
102
{ACAD_REACTORS
330
C
102
}
330
C
100
AcDbDictionary
281
     1
  3
A0
350
48
  3
A1
350
49
  3
A2
350
4A
  3
A3
350
4B
  3
A4
350
4C
  3
A5
350
4D
  3
A6
350
4E
  3
A7
350
4F
  3
A8
350
50
  3
A9
350
51
  3
B0
350
52
  3
B1
350
53
  3
B2
350
54
  3
B3
350
55
  3
B4
350
56
  3
B5
350
57
  3
B6
350
58
  3
B7
350
59
  3
B8
350
5A
  3
B9
350
5B
  3
C0
350
5C
  3
C1
350
5D
  3
C2
350
5E
  3
C3
350
5F
  3
C4
350
60
  3
C5
350
61
  3
C6
350
62
  3
C7
350
63
  3
C8
350
64
  3
C9
350
65
  3
D0
350
66
  3
D1
350
67
  3
D2
350
68
  0
DICTIONARY
  5
1B5
102
{ACAD_REACTORS
330
C
102
}
330
C
100
AcDbDictionary
281
     1
  0
DICTIONARY
  5
1AF
102
{ACAD_REACTORS
330
C
102
}
330
C
100
AcDbDictionary
281
     1
  0
DICTIONARY
  5
132
102
{ACAD_REACTORS
330
C
102
}
330
C
100
AcDbDictionary
281
     1
  0
XRECORD
  5
239
102
{ACAD_REACTORS
330
C
102
}
330
C
100
AcDbXrecord
280
     1
  1
DWGPROPS COOKIE
  2

  3

  4

  6

  7

  8
120170442
  9

300
=
301
=
302
=
303
=
304
=
305
=
306
=
307
=
308
=
309
=
 40
0.0
 41
2458311.189578136
 42
2458321.115642107
  1

 90
        0
  0
DICTIONARY
  5
186
102
{ACAD_REACTORS
330
185
102
}
330
185
100
AcDbDictionary
281
     1
  0
LAYOUT
  5
1E
102
{ACAD_REACTORS
330
1A
102
}
330
1A
100
AcDbPlotSettings
  1

  2
none_device
  4

  6

 40
0.0
 41
0.0
 42
0.0
 43
0.0
 44
0.0
 45
0.0
 46
0.0
 47
0.0
 48
0.0
 49
0.0
140
0.0
141
0.0
142
1.0
143
1.0
 70
   688
 72
     1
 73
     0
 74
     5
  7

 75
    16
147
1.0
148
0.0
149
0.0
100
AcDbLayout
  1
Layout1
 70
     1
 71
     1
 10
0.0
 20
0.0
 11
420.0
 21
297.0
 12
0.0
 22
0.0
 32
0.0
 14
1.000000000000000E+20
 24
1.000000000000000E+20
 34
1.000000000000000E+20
 15
-1.000000000000000E+20
 25
-1.000000000000000E+20
 35
-1.000000000000000E+20
146
0.0
 13
0.0
 23
0.0
 33
0.0
 16
1.0
 26
0.0
 36
0.0
 17
0.0
 27
1.0
 37
0.0
 76
     0
330
1B
  0
LAYOUT
  5
26
102
{ACAD_REACTORS
330
1A
102
}
330
1A
100
AcDbPlotSettings
  1

  2
none_device
  4

  6

 40
0.0
 41
0.0
 42
0.0
 43
0.0
 44
0.0
 45
0.0
 46
0.0
 47
0.0
 48
0.0
 49
0.0
140
0.0
141
0.0
142
1.0
143
1.0
 70
   688
 72
     1
 73
     0
 74
     5
  7

 75
    16
147
1.0
148
0.0
149
0.0
100
AcDbLayout
  1
Layout2
 70
     1
 71
     2
 10
0.0
 20
0.0
 11
0.0
 21
0.0
 12
0.0
 22
0.0
 32
0.0
 14
0.0
 24
0.0
 34
0.0
 15
0.0
 25
0.0
 35
0.0
146
0.0
 13
0.0
 23
0.0
 33
0.0
 16
1.0
 26
0.0
 36
0.0
 17
0.0
 27
1.0
 37
0.0
 76
     0
330
23
  0
LAYOUT
  5
22
102
{ACAD_REACTORS
330
1A
102
}
330
1A
100
AcDbPlotSettings
  1

  2
none_device
  4
ANSI_A_(11.00_x_8.50_Inches)
  6

 40
6.35
 41
19.05
 42
6.35000508
 43
19.05000254
 44
279.4
 45
215.9
 46
113.0083816448609
 47
67.93704294909715
 48
0.0
 49
0.0
140
0.0
141
0.0
142
0.0666904645094651
143
1.0
 70
  1696
 72
     0
 73
     0
 74
     0
  7

 75
     0
147
0.0235690232323232
148
0.0
149
0.0
100
AcDbLayout
  1
Model
 70
     1
 71
     0
 10
0.0
 20
0.0
 11
420.0
 21
297.0
 12
0.0
 22
0.0
 32
0.0
 14
-81.37500000000013
 24
-49.97180738881175
 34
0.0
 15
86.40100881534558
 25
62.95621576847888
 35
0.0
146
0.0
 13
0.0
 23
0.0
 33
0.0
 16
1.0
 26
0.0
 36
0.0
 17
0.0
 27
1.0
 37
0.0
 76
     0
330
1F
331
29
  0
MLINESTYLE
  5
18
102
{ACAD_REACTORS
330
17
102
}
330
17
100
AcDbMlineStyle
  2
Standard
 70
     0
  3

 62
   256
 51
90.0
 52
90.0
 71
     2
 49
0.5
 62
   256
  6
BYLAYER
 49
-0.5
 62
   256
  6
BYLAYER
  0
ACDBPLACEHOLDER
  5
F
102
{ACAD_REACTORS
330
E
102
}
330
E
  0
SCALE
  5
48
102
{ACAD_REACTORS
330
47
102
}
330
47
100
AcDbScale
 70
     0
300
1:1
140
1.0
141
1.0
290
     1
  0
SCALE
  5
49
102
{ACAD_REACTORS
330
47
102
}
330
47
100
AcDbScale
 70
     0
300
1:2
140
1.0
141
2.0
290
     0
  0
SCALE
  5
4A
102
{ACAD_REACTORS
330
47
102
}
330
47
100
AcDbScale
 70
     0
300
1:4
140
1.0
141
4.0
290
     0
  0
SCALE
  5
4B
102
{ACAD_REACTORS
330
47
102
}
330
47
100
AcDbScale
 70
     0
300
1:5
140
1.0
141
5.0
290
     0
  0
SCALE
  5
4C
102
{ACAD_REACTORS
330
47
102
}
330
47
100
AcDbScale
 70
     0
300
1:8
140
1.0
141
8.0
290
     0
  0
SCALE
  5
4D
102
{ACAD_REACTORS
330
47
102
}
330
47
100
AcDbScale
 70
     0
300
1:10
140
1.0
141
10.0
290
     0
  0
SCALE
  5
4E
102
{ACAD_REACTORS
330
47
102
}
330
47
100
AcDbScale
 70
     0
300
1:16
140
1.0
141
16.0
290
     0
  0
SCALE
  5
4F
102
{ACAD_REACTORS
330
47
102
}
330
47
100
AcDbScale
 70
     0
300
1:20
140
1.0
141
20.0
290
     0
  0
SCALE
  5
50
102
{ACAD_REACTORS
330
47
102
}
330
47
100
AcDbScale
 70
     0
300
1:30
140
1.0
141
30.0
290
     0
  0
SCALE
  5
51
102
{ACAD_REACTORS
330
47
102
}
330
47
100
AcDbScale
 70
     0
300
1:40
140
1.0
141
40.0
290
     0
  0
SCALE
  5
52
102
{ACAD_REACTORS
330
47
102
}
330
47
100
AcDbScale
 70
     0
300
1:50
140
1.0
141
50.0
290
     0
  0
SCALE
  5
53
102
{ACAD_REACTORS
330
47
102
}
330
47
100
AcDbScale
 70
     0
300
1:100
140
1.0
141
100.0
290
     0
  0
SCALE
  5
54
102
{ACAD_REACTORS
330
47
102
}
330
47
100
AcDbScale
 70
     0
300
2:1
140
2.0
141
1.0
290
     0
  0
SCALE
  5
55
102
{ACAD_REACTORS
330
47
102
}
330
47
100
AcDbScale
 70
     0
300
4:1
140
4.0
141
1.0
290
     0
  0
SCALE
  5
56
102
{ACAD_REACTORS
330
47
102
}
330
47
100
AcDbScale
 70
     0
300
8:1
140
8.0
141
1.0
290
     0
  0
SCALE
  5
57
102
{ACAD_REACTORS
330
47
102
}
330
47
100
AcDbScale
 70
     0
300
10:1
140
10.0
141
1.0
290
     0
  0
SCALE
  5
58
102
{ACAD_REACTORS
330
47
102
}
330
47
100
AcDbScale
 70
     0
300
100:1
140
100.0
141
1.0
290
     0
  0
SCALE
  5
59
102
{ACAD_REACTORS
330
47
102
}
330
47
100
AcDbScale
 70
     0
300
1/128" = 1'-0"
140
0.0078125
141
12.0
290
     0
  0
SCALE
  5
5A
102
{ACAD_REACTORS
330
47
102
}
330
47
100
AcDbScale
 70
     0
300
1/64" = 1'-0"
140
0.015625
141
12.0
290
     0
  0
SCALE
  5
5B
102
{ACAD_REACTORS
330
47
102
}
330
47
100
AcDbScale
 70
     0
300
1/32" = 1'-0"
140
0.03125
141
12.0
290
     0
  0
SCALE
  5
5C
102
{ACAD_REACTORS
330
47
102
}
330
47
100
AcDbScale
 70
     0
300
1/16" = 1'-0"
140
0.0625
141
12.0
290
     0
  0
SCALE
  5
5D
102
{ACAD_REACTORS
330
47
102
}
330
47
100
AcDbScale
 70
     0
300
3/32" = 1'-0"
140
0.09375
141
12.0
290
     0
  0
SCALE
  5
5E
102
{ACAD_REACTORS
330
47
102
}
330
47
100
AcDbScale
 70
     0
300
1/8" = 1'-0"
140
0.125
141
12.0
290
     0
  0
SCALE
  5
5F
102
{ACAD_REACTORS
330
47
102
}
330
47
100
AcDbScale
 70
     0
300
3/16" = 1'-0"
140
0.1875
141
12.0
290
     0
  0
SCALE
  5
60
102
{ACAD_REACTORS
330
47
102
}
330
47
100
AcDbScale
 70
     0
300
1/4" = 1'-0"
140
0.25
141
12.0
290
     0
  0
SCALE
  5
61
102
{ACAD_REACTORS
330
47
102
}
330
47
100
AcDbScale
 70
     0
300
3/8" = 1'-0"
140
0.375
141
12.0
290
     0
  0
SCALE
  5
62
102
{ACAD_REACTORS
330
47
102
}
330
47
100
AcDbScale
 70
     0
300
1/2" = 1'-0"
140
0.5
141
12.0
290
     0
  0
SCALE
  5
63
102
{ACAD_REACTORS
330
47
102
}
330
47
100
AcDbScale
 70
     0
300
3/4" = 1'-0"
140
0.75
141
12.0
290
     0
  0
SCALE
  5
64
102
{ACAD_REACTORS
330
47
102
}
330
47
100
AcDbScale
 70
     0
300
1" = 1'-0"
140
1.0
141
12.0
290
     0
  0
SCALE
  5
65
102
{ACAD_REACTORS
330
47
102
}
330
47
100
AcDbScale
 70
     0
300
1-1/2" = 1'-0"
140
1.5
141
12.0
290
     0
  0
SCALE
  5
66
102
{ACAD_REACTORS
330
47
102
}
330
47
100
AcDbScale
 70
     0
300
3" = 1'-0"
140
3.0
141
12.0
290
     0
  0
SCALE
  5
67
102
{ACAD_REACTORS
330
47
102
}
330
47
100
AcDbScale
 70
     0
300
6" = 1'-0"
140
6.0
141
12.0
290
     0
  0
SCALE
  5
68
102
{ACAD_REACTORS
330
47
102
}
330
47
100
AcDbScale
 70
     0
300
1'-0" = 1'-0"
140
12.0
141
12.0
290
     0
  0
ENDSEC
  0
EOF
