  0
SECTION
  2
HEADER
  9
$ACADVER
  1
AC1015
  9
$ACADMAINTVER
 70
     6
  9
$DWGCODEPAGE
  3
ANSI_949
  9
$INSBASE
 10
0.0
 20
0.0
 30
0.0
  9
$EXTMIN
 10
-81.37500000000016
 20
-49.97180738881175
 30
0.0
  9
$EXTMAX
 10
86.40100881534558
 20
55.62853230683299
 30
0.0
  9
$LIMMIN
 10
0.0
 20
0.0
  9
$LIMMAX
 10
420.0
 20
297.0
  9
$ORTHOMODE
 70
     1
  9
$REGENMODE
 70
     1
  9
$FILLMODE
 70
     1
  9
$QTEXTMODE
 70
     0
  9
$MIRRTEXT
 70
     1
  9
$LTSCALE
 40
1.0
  9
$ATTMODE
 70
     1
  9
$TEXTSIZE
 40
3.5
  9
$TRACEWID
 40
1.0
  9
$TEXTSTYLE
  7
Standard
  9
$CLAYER
  8
0
  9
$CELTYPE
  6
ByLayer
  9
$CECOLOR
 62
   256
  9
$CELTSCALE
 40
1.0
  9
$DISPSILH
 70
     0
  9
$DIMSCALE
 40
1.0
  9
$DIMASZ
 40
3.302
  9
$DIMEXO
 40
1.0
  9
$DIMDLI
 40
3.75
  9
$DIMRND
 40
0.0
  9
$DIMDLE
 40
0.0
  9
$DIMEXE
 40
1.0
  9
$DIMTP
 40
0.0
  9
$DIMTM
 40
0.0
  9
$DIMTXT
 40
3.5
  9
$DIMCEN
 40
2.5
  9
$DIMTSZ
 40
0.0
  9
$DIMTOL
 70
     0
  9
$DIMLIM
 70
     0
  9
$DIMTIH
 70
     1
  9
$DIMTOH
 70
     1
  9
$DIMSE1
 70
     0
  9
$DIMSE2
 70
     0
  9
$DIMTAD
 70
     1
  9
$DIMZIN
 70
     0
  9
$DIMBLK
  1

  9
$DIMASO
 70
     1
  9
$DIMSHO
 70
     1
  9
$DIMPOST
  1

  9
$DIMAPOST
  1

  9
$DIMALT
 70
     0
  9
$DIMALTD
 70
     3
  9
$DIMALTF
 40
0.0393700787401575
  9
$DIMLFAC
 40
1.0
  9
$DIMTOFL
 70
     1
  9
$DIMTVP
 40
0.0
  9
$DIMTIX
 70
     0
  9
$DIMSOXD
 70
     0
  9
$DIMSAH
 70
     0
  9
$DIMBLK1
  1

  9
$DIMBLK2
  1

  9
$DIMSTYLE
  2
ISO-25
  9
$DIMCLRD
 70
     0
  9
$DIMCLRE
 70
     0
  9
$DIMCLRT
 70
     0
  9
$DIMTFAC
 40
1.0
  9
$DIMGAP
 40
1.524
  9
$DIMJUST
 70
     0
  9
$DIMSD1
 70
     0
  9
$DIMSD2
 70
     0
  9
$DIMTOLJ
 70
     0
  9
$DIMTZIN
 70
     0
  9
$DIMALTZ
 70
     0
  9
$DIMALTTZ
 70
     0
  9
$DIMUPT
 70
     0
  9
$DIMDEC
 70
     2
  9
$DIMTDEC
 70
     2
  9
$DIMALTU
 70
     2
  9
$DIMALTTD
 70
     3
  9
$DIMTXSTY
  7
Standard
  9
$DIMAUNIT
 70
     0
  9
$DIMADEC
 70
     2
  9
$DIMALTRND
 40
0.0
  9
$DIMAZIN
 70
     0
  9
$DIMDSEP
 70
    44
  9
$DIMATFIT
 70
     3
  9
$DIMFRAC
 70
     0
  9
$DIMLDRBLK
  1

  9
$DIMLUNIT
 70
     2
  9
$DIMLWD
 70
    -2
  9
$DIMLWE
 70
    -2
  9
$DIMTMOVE
 70
     0
  9
$LUNITS
 70
     2
  9
$LUPREC
 70
     2
  9
$SKETCHINC
 40
1.0
  9
$FILLETRAD
 40
10.0
  9
$AUNITS
 70
     0
  9
$AUPREC
 70
     2
  9
$MENU
  1
.
  9
$ELEVATION
 40
0.0
  9
$PELEVATION
 40
0.0
  9
$THICKNESS
 40
0.0
  9
$LIMCHECK
 70
     0
  9
$CHAMFERA
 40
0.0
  9
$CHAMFERB
 40
0.0
  9
$CHAMFERC
 40
0.0
  9
$CHAMFERD
 40
0.0
  9
$SKPOLY
 70
     0
  9
$TDCREATE
 40
2458311.565001713
  9
$TDUCREATE
 40
2458311.190001713
  9
$TDUPDATE
 40
2458321.506626169
  9
$TDUUPDATE
 40
2458321.131626169
  9
$TDINDWG
 40
0.0048096065
  9
$TDUSRTIMER
 40
0.0053618981
  9
$USRTIMER
 70
     1
  9
$ANGBASE
 50
0.0
  9
$ANGDIR
 70
     0
  9
$PDMODE
 70
     0
  9
$PDSIZE
 40
-1.0
  9
$PLINEWID
 40
0.0
  9
$SPLFRAME
 70
     0
  9
$SPLINETYPE
 70
     6
  9
$SPLINESEGS
 70
     8
  9
$HANDSEED
  5
217
  9
$SURFTAB1
 70
     6
  9
$SURFTAB2
 70
     6
  9
$SURFTYPE
 70
     6
  9
$SURFU
 70
     6
  9
$SURFV
 70
     6
  9
$UCSBASE
  2

  9
$UCSNAME
  2

  9
$UCSORG
 10
0.0
 20
0.0
 30
0.0
  9
$UCSXDIR
 10
1.0
 20
0.0
 30
0.0
  9
$UCSYDIR
 10
0.0
 20
1.0
 30
0.0
  9
$UCSORTHOREF
  2

  9
$UCSORTHOVIEW
 70
     0
  9
$UCSORGTOP
 10
0.0
 20
0.0
 30
0.0
  9
$UCSORGBOTTOM
 10
0.0
 20
0.0
 30
0.0
  9
$UCSORGLEFT
 10
0.0
 20
0.0
 30
0.0
  9
$UCSORGRIGHT
 10
0.0
 20
0.0
 30
0.0
  9
$UCSORGFRONT
 10
0.0
 20
0.0
 30
0.0
  9
$UCSORGBACK
 10
0.0
 20
0.0
 30
0.0
  9
$PUCSBASE
  2

  9
$PUCSNAME
  2

  9
$PUCSORG
 10
0.0
 20
0.0
 30
0.0
  9
$PUCSXDIR
 10
1.0
 20
0.0
 30
0.0
  9
$PUCSYDIR
 10
0.0
 20
1.0
 30
0.0
  9
$PUCSORTHOREF
  2

  9
$PUCSORTHOVIEW
 70
     0
  9
$PUCSORGTOP
 10
0.0
 20
0.0
 30
0.0
  9
$PUCSORGBOTTOM
 10
0.0
 20
0.0
 30
0.0
  9
$PUCSORGLEFT
 10
0.0
 20
0.0
 30
0.0
  9
$PUCSORGRIGHT
 10
0.0
 20
0.0
 30
0.0
  9
$PUCSORGFRONT
 10
0.0
 20
0.0
 30
0.0
  9
$PUCSORGBACK
 10
0.0
 20
0.0
 30
0.0
  9
$USERI1
 70
     0
  9
$USERI2
 70
     0
  9
$USERI3
 70
     0
  9
$USERI4
 70
     0
  9
$USERI5
 70
     0
  9
$USERR1
 40
0.0
  9
$USERR2
 40
0.0
  9
$USERR3
 40
0.0
  9
$USERR4
 40
0.0
  9
$USERR5
 40
0.0
  9
$WORLDVIEW
 70
     1
  9
$SHADEDGE
 70
     3
  9
$SHADEDIF
 70
    70
  9
$TILEMODE
 70
     1
  9
$MAXACTVP
 70
    64
  9
$PINSBASE
 10
0.0
 20
0.0
 30
0.0
  9
$PLIMCHECK
 70
     0
  9
$PEXTMIN
 10
1.000000000000000E+20
 20
1.000000000000000E+20
 30
1.000000000000000E+20
  9
$PEXTMAX
 10
-1.000000000000000E+20
 20
-1.000000000000000E+20
 30
-1.000000000000000E+20
  9
$PLIMMIN
 10
0.0
 20
0.0
  9
$PLIMMAX
 10
0.0
 20
0.0
  9
$UNITMODE
 70
     0
  9
$VISRETAIN
 70
     1
  9
$PLINEGEN
 70
     0
  9
$PSLTSCALE
 70
     1
  9
$TREEDEPTH
 70
  3020
  9
$CMLSTYLE
  2
Standard
  9
$CMLJUST
 70
     0
  9
$CMLSCALE
 40
20.0
  9
$PROXYGRAPHICS
 70
     1
  9
$MEASUREMENT
 70
     1
  9
$CELWEIGHT
370
    -1
  9
$ENDCAPS
280
     0
  9
$JOINSTYLE
280
     0
  9
$LWDISPLAY
290
     1
  9
$INSUNITS
 70
     4
  9
$HYPERLINKBASE
  1

  9
$STYLESHEET
  1

  9
$XEDIT
290
     1
  9
$CEPSNTYPE
380
     0
  9
$PSTYLEMODE
290
     1
  9
$FINGERPRINTGUID
  2
{526AE477-120F-409A-BD39-51542F2C8E6A}
  9
$VERSIONGUID
  2
{FAEB1C32-E019-11D5-929B-00C0DF256EC4}
  9
$EXTNAMES
290
     1
  9
$PSVPSCALE
 40
0.0
  9
$OLESTARTUP
290
     0
  0
ENDSEC
  0
SECTION
  2
CLASSES
  0
CLASS
  1
ACDBDICTIONARYWDFLT
  2
AcDbDictionaryWithDefault
  3
ObjectDBX Classes
 90
        0
280
     0
281
     0
  0
CLASS
  1
VISUALSTYLE
  2
AcDbVisualStyle
  3
ObjectDBX Classes
 90
     4095
280
     0
281
     0
  0
CLASS
  1
MATERIAL
  2
AcDbMaterial
  3
ObjectDBX Classes
 90
     1153
280
     0
281
     0
  0
CLASS
  1
SCALE
  2
AcDbScale
  3
ObjectDBX Classes
 90
     1153
280
     0
281
     0
  0
CLASS
  1
SUN
  2
AcDbSun
  3
SCENEOE
 90
     1153
280
     0
281
     0
  0
CLASS
  1
ACDBPLACEHOLDER
  2
AcDbPlaceHolder
  3
ObjectDBX Classes
 90
        0
280
     0
281
     0
  0
CLASS
  1
LAYOUT
  2
AcDbLayout
  3
ObjectDBX Classes
 90
        0
280
     0
281
     0
  0
CLASS
  1
TABLESTYLE
  2
AcDbTableStyle
  3
ObjectDBX Classes
 90
     4095
280
     0
281
     0
  0
CLASS
  1
MLEADERSTYLE
  2
AcDbMLeaderStyle
  3
ACDB_MLEADERSTYLE_CLASS
 90
     4095
280
     0
281
     0
  0
CLASS
  1
DICTIONARYVAR
  2
AcDbDictionaryVar
  3
ObjectDBX Classes
 90
        0
280
     0
281
     0
  0
ENDSEC
  0
SECTION
  2
TABLES
  0
TABLE
  2
VPORT
  5
8
330
0
100
AcDbSymbolTable
 70
     1
  0
VPORT
  5
29
330
8
100
AcDbSymbolTableRecord
100
AcDbViewportTableRecord
  2
*Active
 70
     0
 10
0.0
 20
0.0
 11
1.0
 21
1.0
 12
2.51300440767271
 22
2.82836245901062
 13
0.0
 23
0.0
 14
10.0
 24
10.0
 15
10.0
 25
10.0
 16
0.0
 26
0.0
 36
1.0
 17
0.0
 27
0.0
 37
0.0
 40
107.7123464895576
 41
1.782762691853601
 42
50.0
 43
0.0
 44
0.0
 50
0.0
 51
0.0
 71
    16
 72
  2000
 73
     1
 74
     3
 75
     0
 76
     0
 77
     0
 78
     0
281
     0
 65
     1
110
0.0
120
0.0
130
0.0
111
1.0
121
0.0
131
0.0
112
0.0
122
1.0
132
0.0
 79
     0
146
0.0
  0
ENDTAB
  0
TABLE
  2
LTYPE
  5
5
330
0
100
AcDbSymbolTable
 70
     6
  0
LTYPE
  5
14
330
5
100
AcDbSymbolTableRecord
100
AcDbLinetypeTableRecord
  2
ByBlock
 70
     0
  3

 72
    65
 73
     0
 40
0.0
  0
LTYPE
  5
15
330
5
100
AcDbSymbolTableRecord
100
AcDbLinetypeTableRecord
  2
ByLayer
 70
     0
  3

 72
    65
 73
     0
 40
0.0
  0
LTYPE
  5
16
330
5
100
AcDbSymbolTableRecord
100
AcDbLinetypeTableRecord
  2
Continuous
 70
     0
  3
Solid line
 72
    65
 73
     0
 40
0.0
  0
LTYPE
  5
6A
330
5
100
AcDbSymbolTableRecord
100
AcDbLinetypeTableRecord
  2
HIDDEN
 70
     0
  3
Hidden __ __ __ __ __ __ __ __ __ __ __ __ __ __
 72
    65
 73
     2
 40
1.905
 49
1.27
 74
     0
 49
-0.635
 74
     0
  0
LTYPE
  5
6B
330
5
100
AcDbSymbolTableRecord
100
AcDbLinetypeTableRecord
  2
PHANTOM
 70
     0
  3
Phantom ______  __  __  ______  __  __  ______
 72
    65
 73
     6
 40
12.7
 49
6.35
 74
     0
 49
-1.27
 74
     0
 49
1.27
 74
     0
 49
-1.27
 74
     0
 49
1.27
 74
     0
 49
-1.27
 74
     0
  0
LTYPE
  5
6C
330
5
100
AcDbSymbolTableRecord
100
AcDbLinetypeTableRecord
  2
CENTER
 70
     0
  3
Center ____ _ ____ _ ____ _ ____ _ ____ _ ____
 72
    65
 73
     4
 40
10.16
 49
6.35
 74
     0
 49
-1.27
 74
     0
 49
1.27
 74
     0
 49
-1.27
 74
     0
  0
LTYPE
  5
6D
330
5
100
AcDbSymbolTableRecord
100
AcDbLinetypeTableRecord
  2
CENTERX2
 70
     0
  3
Center (2x) ________  __  ________  __  _____
 72
    65
 73
     4
 40
20.32
 49
12.7
 74
     0
 49
-2.54
 74
     0
 49
2.54
 74
     0
 49
-2.54
 74
     0
  0
LTYPE
  5
6E
330
5
100
AcDbSymbolTableRecord
100
AcDbLinetypeTableRecord
  2
DOT2
 70
     0
  3
Dot (.5x) ........................................
 72
    65
 73
     2
 40
0.635
 49
0.0
 74
     0
 49
-0.635
 74
     0
  0
ENDTAB
  0
TABLE
  2
LAYER
  5
2
102
{ACAD_XDICTIONARY
360
185
102
}
330
0
100
AcDbSymbolTable
 70
    18
  0
LAYER
  5
10
330
2
100
AcDbSymbolTableRecord
100
AcDbLayerTableRecord
  2
0
 70
     0
 62
     7
  6
Continuous
370
    -3
390
F
  0
LAYER
  5
6F
330
2
100
AcDbSymbolTableRecord
100
AcDbLayerTableRecord
  2
FORMAT
 70
     0
 62
     2
  6
Continuous
370
    -3
390
F
  0
LAYER
  5
70
330
2
100
AcDbSymbolTableRecord
100
AcDbLayerTableRecord
  2
외형선
 70
     0
 62
     4
  6
Continuous
370
    30
390
F
  0
LAYER
  5
71
330
2
100
AcDbSymbolTableRecord
100
AcDbLayerTableRecord
  2
숨은선
 70
     0
 62
     2
  6
HIDDEN
370
    15
390
F
  0
LAYER
  5
72
330
2
100
AcDbSymbolTableRecord
100
AcDbLayerTableRecord
  2
중심선
 70
     0
 62
     1
  6
CENTERX2
370
    -3
390
F
  0
LAYER
  5
73
330
2
100
AcDbSymbolTableRecord
100
AcDbLayerTableRecord
  2
파단선
 70
     0
 62
     4
  6
Continuous
370
    -3
390
F
  0
LAYER
  5
74
330
2
100
AcDbSymbolTableRecord
100
AcDbLayerTableRecord
  2
해칭선
 70
     0
 62
   100
  6
Continuous
370
    -3
390
F
  0
LAYER
  5
75
330
2
100
AcDbSymbolTableRecord
100
AcDbLayerTableRecord
  2
가는실선
 70
     0
 62
     4
  6
Continuous
370
    -3
390
F
  0
LAYER
  5
76
330
2
100
AcDbSymbolTableRecord
100
AcDbLayerTableRecord
  2
치수_보조선
 70
     0
 62
     4
  6
Continuous
370
    -3
390
F
  0
LAYER
  5
77
330
2
100
AcDbSymbolTableRecord
100
AcDbLayerTableRecord
  2
치수문자_일반주서
 70
     0
 62
     7
  6
Continuous
370
    15
390
F
  0
LAYER
  5
78
330
2
100
AcDbSymbolTableRecord
100
AcDbLayerTableRecord
  2
개별주서
 70
     0
 62
   100
  6
Continuous
370
    30
390
F
  0
LAYER
  5
79
330
2
100
AcDbSymbolTableRecord
100
AcDbLayerTableRecord
  2
중간선
 70
     0
 62
     2
  6
Continuous
370
    15
390
F
  0
LAYER
  5
7A
330
2
100
AcDbSymbolTableRecord
100
AcDbLayerTableRecord
  2
윤곽선
 70
     0
 62
     3
  6
Continuous
370
    40
390
F
  0
LAYER
  5
7B
330
2
100
AcDbSymbolTableRecord
100
AcDbLayerTableRecord
  2
중심마크
 70
     0
 62
   100
  6
Continuous
370
    30
390
F
  0
LAYER
  5
7C
330
2
100
AcDbSymbolTableRecord
100
AcDbLayerTableRecord
  2
가상선
 70
     0
 62
     4
  6
PHANTOM
370
    -3
390
F
  0
LAYER
  5
7D
330
2
100
AcDbSymbolTableRecord
100
AcDbLayerTableRecord
  2
특수지정선
 70
     0
 62
     5
  6
CENTERX2
370
    60
390
F
  0
LAYER
  5
7E
330
2
100
AcDbSymbolTableRecord
100
AcDbLayerTableRecord
  2
참조1
 70
     0
 62
    -4
  6
Continuous
370
    -3
390
F
  0
LAYER
  5
1B0
330
2
100
AcDbSymbolTableRecord
100
AcDbLayerTableRecord
  2
Defpoints
 70
     0
 62
     7
  6
Continuous
290
     0
370
    -3
390
F
  0
ENDTAB
  0
TABLE
  2
STYLE
  5
3
330
0
100
AcDbSymbolTable
 70
     2
  0
STYLE
  5
11
330
3
100
AcDbSymbolTableRecord
100
AcDbTextStyleTableRecord
  2
Standard
 70
     0
 40
0.0
 41
1.0
 50
0.0
 71
     0
 42
3.5
  3
txt
  4

  0
STYLE
  5
94
330
3
100
AcDbSymbolTableRecord
100
AcDbTextStyleTableRecord
  2
SLDTEXTSTYLE0
 70
     0
 40
0.0
 41
0.75
 50
0.0
 71
     0
 42
3.5
  3
TXT
  4

  0
ENDTAB
  0
TABLE
  2
VIEW
  5
6
330
0
100
AcDbSymbolTable
 70
     0
  0
ENDTAB
  0
TABLE
  2
UCS
  5
7
330
0
100
AcDbSymbolTable
 70
     0
  0
ENDTAB
  0
TABLE
  2
APPID
  5
9
330
0
100
AcDbSymbolTable
 70
     4
  0
APPID
  5
12
330
9
100
AcDbSymbolTableRecord
100
AcDbRegAppTableRecord
  2
ACAD
 70
     0
  0
APPID
  5
13B
330
9
100
AcDbSymbolTableRecord
100
AcDbRegAppTableRecord
  2
PE_URL
 70
     0
  0
APPID
  5
215
330
9
100
AcDbSymbolTableRecord
100
AcDbRegAppTableRecord
  2
ACAD_DSTYLE_DIMFLIPARROW_SYMBOL
 70
     0
  0
APPID
  5
216
330
9
100
AcDbSymbolTableRecord
100
AcDbRegAppTableRecord
  2
ACAD_DSTYLE_DIMFLIPARROW_WHICH_SYMBOL
 70
     0
  0
ENDTAB
  0
TABLE
  2
DIMSTYLE
  5
A
330
0
100
AcDbSymbolTable
 70
     5
100
AcDbDimStyleTable
  0
DIMSTYLE
105
27
330
A
100
AcDbSymbolTableRecord
100
AcDbDimStyleTableRecord
  2
ISO-25
 70
     0
 41
2.5
 42
0.625
 43
3.75
 44
1.25
 73
     0
 74
     0
 77
     1
 78
     8
140
2.5
141
2.5
143
0.03937007874016
147
0.625
171
     3
172
     1
178
     0
271
     2
272
     2
274
     3
278
    44
283
     0
284
     8
340
11
  0
DIMSTYLE
105
B8
330
A
100
AcDbSymbolTableRecord
100
AcDbDimStyleTableRecord
  2
SLDDIMSTYLE0
 70
     0
 41
3.302
 44
0.0
 45
0.000000001
 73
     0
 74
     0
 77
     1
 78
     4
 79
     1
140
3.5
147
0.875
172
     1
173
     1
178
     0
271
     2
272
     2
276
     2
284
    12
289
     0
340
94
  0
DIMSTYLE
105
C6
330
A
100
AcDbSymbolTableRecord
100
AcDbDimStyleTableRecord
  2
SLDDIMSTYLE1
 70
     0
 41
3.302
 44
0.0
 45
0.000000001
 73
     0
 74
     0
 77
     1
 78
     4
 79
     1
140
3.5
143
0.0393700787401575
147
0.875
148
0.000000001
170
     1
172
     1
173
     1
178
     0
271
     2
272
     2
276
     2
284
    12
289
     0
340
94
  0
DIMSTYLE
105
DC
102
{ACAD_REACTORS
330
DB
330
1D6
330
EF
330
C5
330
B7
102
}
330
A
100
AcDbSymbolTableRecord
100
AcDbDimStyleTableRecord
  2
SLDDIMSTYLE2
 70
     0
 41
3.302
 44
0.0
 45
0.000000001
 73
     0
 74
     0
 77
     1
 78
     4
 79
     1
140
3.5
143
0.0393700787401575
147
0.875
148
0.000000001
170
     1
173
     1
178
     0
271
     2
272
     2
276
     2
284
    12
340
94
  0
DIMSTYLE
105
F0
330
A
100
AcDbSymbolTableRecord
100
AcDbDimStyleTableRecord
  2
SLDDIMSTYLE3
 70
     0
 41
3.302
 44
0.0
 45
0.000000001
 73
     0
 74
     0
 77
     1
 78
    12
 79
     3
140
3.5
143
0.0393700787401575
147
0.875
148
0.000000001
170
     1
173
     1
178
     0
271
     2
272
     2
276
     2
284
    12
340
94
  0
ENDTAB
  0
TABLE
  2
BLOCK_RECORD
  5
1
330
0
100
AcDbSymbolTable
 70
    11
  0
BLOCK_RECORD
  5
1F
330
1
100
AcDbSymbolTableRecord
100
AcDbBlockTableRecord
  2
*Model_Space
340
22
  0
BLOCK_RECORD
  5
1B
330
1
100
AcDbSymbolTableRecord
100
AcDbBlockTableRecord
  2
*Paper_Space
340
1E
  0
BLOCK_RECORD
  5
23
330
1
100
AcDbSymbolTableRecord
100
AcDbBlockTableRecord
  2
*Paper_Space0
340
26
  0
BLOCK_RECORD
  5
7F
330
1
100
AcDbSymbolTableRecord
100
AcDbBlockTableRecord
  2
블럭10
340
0
102
{BLKREFS
331
B0
102
}
  0
BLOCK_RECORD
  5
B9
330
1
100
AcDbSymbolTableRecord
100
AcDbBlockTableRecord
  2
_D
340
0
  0
BLOCK_RECORD
  5
C7
330
1
100
AcDbSymbolTableRecord
100
AcDbBlockTableRecord
  2
_D_1
340
0
  0
BLOCK_RECORD
  5
DD
330
1
100
AcDbSymbolTableRecord
100
AcDbBlockTableRecord
  2
_D_2
340
0
  0
BLOCK_RECORD
  5
F1
330
1
100
AcDbSymbolTableRecord
100
AcDbBlockTableRecord
  2
_D_3
340
0
  0
BLOCK_RECORD
  5
10A
330
1
100
AcDbSymbolTableRecord
100
AcDbBlockTableRecord
  2
SW_DOWELSYMBOL_0
340
0
102
{BLKREFS
331
0
331
177
331
1A7
102
}
  0
BLOCK_RECORD
  5
1E6
330
1
100
AcDbSymbolTableRecord
100
AcDbBlockTableRecord
  2
*D9
340
0
  0
BLOCK_RECORD
  5
1F5
330
1
100
AcDbSymbolTableRecord
100
AcDbBlockTableRecord
  2
*D10
340
0
  0
ENDTAB
  0
ENDSEC
  0
SECTION
  2
BLOCKS
  0
BLOCK
  5
20
330
1F
100
AcDbEntity
  8
0
100
AcDbBlockBegin
  2
*Model_Space
 70
     0
 10
0.0
 20
0.0
 30
0.0
  3
*Model_Space
  1

  0
ENDBLK
  5
21
330
1F
100
AcDbEntity
  8
0
100
AcDbBlockEnd
  0
BLOCK
  5
1C
330
1B
100
AcDbEntity
 67
     1
  8
0
100
AcDbBlockBegin
  2
*Paper_Space
 70
     0
 10
0.0
 20
0.0
 30
0.0
  3
*Paper_Space
  1

  0
ENDBLK
  5
1D
330
1B
100
AcDbEntity
 67
     1
  8
0
100
AcDbBlockEnd
  0
BLOCK
  5
24
330
23
100
AcDbEntity
  8
0
100
AcDbBlockBegin
  2
*Paper_Space0
 70
     0
 10
0.0
 20
0.0
 30
0.0
  3
*Paper_Space0
  1

  0
ENDBLK
  5
25
330
23
100
AcDbEntity
  8
0
100
AcDbBlockEnd
  0
BLOCK
  5
80
330
7F
100
AcDbEntity
  8
0
100
AcDbBlockBegin
  2
블럭10
 70
     2
 10
0.0
 20
0.0
 30
0.0
  3
블럭10
  1

  0
ELLIPSE
  5
82
330
7F
100
AcDbEntity
  8
중심선
100
AcDbEllipse
 10
20.54032771741204
 20
12.0471743016438
 30
0.0
 11
6.600054785286829
 21
-1.261213355974178E-13
 31
0.0
210
0.0
220
0.0
230
1.0
 40
0.636358354079598
 41
0.9219305317359503
 42
6.513795318482858
  0
ELLIPSE
  5
83
330
7F
100
AcDbEntity
  8
중심선
100
AcDbEllipse
 10
20.54032771746488
 20
12.04717430159265
 30
0.0
 11
3.960054785062283
 21
1.540847449632565E-10
 31
0.0
210
0.0
220
0.0
230
1.0
 40
0.3939339440162632
 41
1.131841032648279
 42
5.62031148352944
  0
LINE
  5
84
330
7F
100
AcDbEntity
  8
중심선
100
AcDbLine
 10
2.268634060543552
 20
16.24717430164393
 30
0.0
 11
5.714909304380834
 21
16.24717430164393
 31
0.0
  0
LINE
  5
85
330
7F
100
AcDbEntity
  8
중심선
100
AcDbLine
 10
5.245725140726316
 20
7.84717430164391
 30
0.0
 11
8.692000384563599
 21
7.84717430164391
 31
0.0
  0
LINE
  5
86
330
7F
100
AcDbEntity
  8
중심선
100
AcDbLine
 10
15.74043728645272
 20
16.24717430164393
 30
0.0
 11
8.692000384563599
 21
7.84717430164391
 31
0.0
  0
LINE
  5
87
330
7F
100
AcDbEntity
  8
중심선
100
AcDbLine
 10
0.1404042013395286
 20
13.71084872107135
 30
0.0
 11
3.58671253028996
 21
13.71088815037384
 31
0.0
  0
LINE
  5
88
330
7F
100
AcDbEntity
  8
중심선
100
AcDbLine
 10
2.750260043222114
 20
10.84717430164391
 30
0.0
 11
6.196535287059397
 21
10.84717430164391
 31
0.0
  0
LINE
  5
89
330
7F
100
AcDbEntity
  8
중심선
100
AcDbLine
 10
12.29416204261559
 20
16.24717430164393
 30
0.0
 11
5.245725140726316
 21
7.84717430164391
 31
0.0
  0
LINE
  5
8A
330
7F
100
AcDbEntity
  8
중심선
100
AcDbLine
 10
10.72767329541681
 20
16.24717430164393
 30
0.0
 11
6.196535287059397
 21
10.84717430164391
 31
0.0
  0
LINE
  5
8B
330
7F
100
AcDbEntity
  8
중심선
100
AcDbLine
 10
7.28139805157953
 20
16.24717430164393
 30
0.0
 11
2.750260043222114
 21
10.84717430164391
 31
0.0
  0
LINE
  5
8C
330
7F
100
AcDbEntity
  8
중심선
100
AcDbLine
 10
5.714909304380834
 20
16.24717430164393
 30
0.0
 11
3.58671253028996
 21
13.71088815037384
 31
0.0
  0
LINE
  5
8D
330
7F
100
AcDbEntity
  8
중심선
100
AcDbLine
 10
2.268634060543552
 20
16.24717430164393
 30
0.0
 11
0.1404042013395286
 21
13.71084872107135
 31
0.0
  0
LINE
  5
8E
330
7F
100
AcDbEntity
  8
중심선
100
AcDbLine
 10
7.28139805157953
 20
16.24717430164393
 30
0.0
 11
10.72767329541681
 21
16.24717430164393
 31
0.0
  0
LINE
  5
8F
330
7F
100
AcDbEntity
  8
중심선
100
AcDbLine
 10
12.29416204261559
 20
16.24717430164393
 30
0.0
 11
15.74043728645272
 21
16.24717430164393
 31
0.0
  0
LINE
  5
90
330
7F
100
AcDbEntity
  8
중심선
100
AcDbLine
 10
19.22036997980202
 20
11.08717430171403
 30
0.0
 11
23.66174974927406
 21
11.08717430171406
 31
0.0
  0
LINE
  5
91
330
7F
100
AcDbEntity
  8
중심선
100
AcDbLine
 10
19.22039502424796
 20
13.00717430171391
 30
0.0
 11
19.22036997980202
 21
11.08717430171403
 31
0.0
  0
LINE
  5
92
330
7F
100
AcDbEntity
  8
중심선
100
AcDbLine
 10
19.22039502424796
 20
13.00717430171391
 30
0.0
 11
26.96566020931264
 21
13.00717430171391
 31
0.0
  0
LINE
  5
93
330
7F
100
AcDbEntity
  8
중심선
100
AcDbLine
 10
22.22332737316547
 20
13.45928029700563
 30
0.0
 11
24.52862924686651
 21
15.39360700705356
 31
0.0
  0
ATTDEF
  5
95
330
7F
100
AcDbEntity
  8
FORMAT
 62
     2
100
AcDbText
 10
4.408487351596664
 20
2.075366912832191
 30
0.0
 40
4.233333333333333
  1
E1030200
 41
0.75
  7
SLDTEXTSTYLE0
 11
4.408487351596664
 21
-0.0412997538344756
 31
0.0
100
AcDbAttributeDefinition
  3

  2
AUTOATTR0
 70
     0
 74
     1
  0
ENDBLK
  5
81
330
7F
100
AcDbEntity
  8
0
100
AcDbBlockEnd
  0
BLOCK
  5
BA
330
B9
100
AcDbEntity
  8
0
100
AcDbBlockBegin
  2
_D
 70
     0
 10
0.0
 20
0.0
 30
0.0
  3
_D
  1

  0
LINE
  5
BC
330
B9
100
AcDbEntity
  8
치수문자_일반주서
 62
     0
370
    -2
100
AcDbLine
 10
-46.95750000000004
 20
15.87499999999998
 30
0.0
 11
-76.5
 21
15.87499999999988
 31
0.0
  0
LINE
  5
BD
330
B9
100
AcDbEntity
  8
치수문자_일반주서
 62
     0
370
    -2
100
AcDbLine
 10
-60.50000000000001
 20
-15.87500000000002
 30
0.0
 11
-76.49999999999989
 21
-15.87500000000007
 31
0.0
  0
LINE
  5
BE
330
B9
100
AcDbEntity
  8
치수문자_일반주서
 62
     0
370
    -2
100
AcDbLine
 10
-76.5
 20
15.87499999999988
 30
0.0
 11
-76.50000000000016
 21
55.62499999999987
 31
0.0
  0
LINE
  5
BF
330
B9
100
AcDbEntity
  8
치수문자_일반주서
 62
     0
370
    -2
100
AcDbLine
 10
-76.5
 20
15.87499999999988
 30
0.0
 11
-76.49999999999989
 21
-15.87500000000007
 31
0.0
  0
LINE
  5
C0
330
B9
100
AcDbEntity
  8
치수문자_일반주서
 62
     0
370
    -2
100
AcDbLine
 10
-76.50000000000001
 20
19.87499999999988
 30
0.0
 11
-76.50000000000003
 21
23.87499999999988
 31
0.0
  0
LINE
  5
C1
330
B9
100
AcDbEntity
  8
치수문자_일반주서
 62
     0
370
    -2
100
AcDbLine
 10
-76.49999999999987
 20
-19.87500000000007
 30
0.0
 11
-76.49999999999986
 21
-23.87500000000007
 31
0.0
  0
SOLID
  5
C2
330
B9
100
AcDbEntity
  8
치수문자_일반주서
 62
     0
100
AcDbTrace
 10
-77.16666666666669
 20
19.87499999999987
 30
0.0
 11
-75.83333333333334
 21
19.87499999999988
 31
0.0
 12
-76.5
 22
15.87499999999988
 32
0.0
 13
-76.5
 23
15.87499999999988
 33
0.0
  0
SOLID
  5
C3
330
B9
100
AcDbEntity
  8
치수문자_일반주서
 62
     0
100
AcDbTrace
 10
-75.8333333333332
 20
-19.87500000000007
 30
0.0
 11
-77.16666666666654
 21
-19.87500000000007
 31
0.0
 12
-76.49999999999989
 22
-15.87500000000007
 32
0.0
 13
-76.49999999999989
 23
-15.87500000000007
 33
0.0
  0
MTEXT
  5
C4
330
B9
100
AcDbEntity
  8
치수문자_일반주서
 62
     0
100
AcDbMText
 10
-81.37500000000009
 20
37.74999999999986
 30
0.0
 40
4.0
 41
0.0
 71
     2
 72
     1
  1
\A1;%%c31.75 [1 1/4]
  7
SLDTEXTSTYLE0
 11
-3.580687802255628E-15
 21
1.0
 31
0.0
 73
     1
 44
1.0
  0
POINT
  5
20B
330
B9
100
AcDbEntity
  8
Defpoints
 62
     0
100
AcDbPoint
 10
-46.89500000000004
 20
15.87499999999998
 30
0.0
  0
POINT
  5
20C
330
B9
100
AcDbEntity
  8
Defpoints
 62
     0
100
AcDbPoint
 10
-60.43750000000001
 20
-15.87500000000002
 30
0.0
  0
POINT
  5
20D
330
B9
100
AcDbEntity
  8
Defpoints
 62
     0
100
AcDbPoint
 10
-76.4999999999999
 20
-15.87500000000008
 30
0.0
  0
ENDBLK
  5
BB
330
B9
100
AcDbEntity
  8
0
100
AcDbBlockEnd
  0
BLOCK
  5
C8
330
C7
100
AcDbEntity
  8
0
100
AcDbBlockBegin
  2
_D_1
 70
     0
 10
0.0
 20
0.0
 30
0.0
  3
_D_1
  1

  0
LINE
  5
CA
330
C7
100
AcDbEntity
  8
치수문자_일반주서
 62
     0
370
    -2
100
AcDbLine
 10
43.27499999999998
 20
25.44103230683294
 30
0.0
 11
43.27499999999998
 21
30.87499999999999
 31
0.0
  0
LINE
  5
CB
330
C7
100
AcDbEntity
  8
치수문자_일반주서
 62
     0
370
    -2
100
AcDbLine
 10
1.999999999999981
 20
5.53534932406939
 30
0.0
 11
1.999999999999982
 21
30.87499999999999
 31
0.0
  0
LINE
  5
CC
330
C7
100
AcDbEntity
  8
치수문자_일반주서
 62
     0
370
    -2
100
AcDbLine
 10
39.27499999999998
 20
30.87499999999999
 30
0.0
 11
5.999999999999982
 21
30.87499999999999
 31
0.0
  0
SOLID
  5
CD
330
C7
100
AcDbEntity
  8
치수문자_일반주서
 62
     0
100
AcDbTrace
 10
39.27499999999998
 20
30.20833333333333
 30
0.0
 11
39.27499999999998
 21
31.54166666666666
 31
0.0
 12
43.27499999999998
 22
30.87499999999999
 32
0.0
 13
43.27499999999998
 23
30.87499999999999
 33
0.0
  0
SOLID
  5
CE
330
C7
100
AcDbEntity
  8
치수문자_일반주서
 62
     0
100
AcDbTrace
 10
5.999999999999982
 20
31.54166666666666
 30
0.0
 11
5.999999999999982
 21
30.20833333333333
 31
0.0
 12
1.999999999999982
 22
30.87499999999999
 32
0.0
 13
1.999999999999982
 23
30.87499999999999
 33
0.0
  0
MTEXT
  5
CF
330
C7
100
AcDbEntity
  8
치수문자_일반주서
 62
     0
100
AcDbMText
 10
22.63749999999998
 20
35.74999999999999
 30
0.0
 40
4.0
 41
0.0
 71
     2
 72
     1
  1
\A1;41.28 [1 5/8]
  7
SLDTEXTSTYLE0
 73
     1
 44
1.0
  0
POINT
  5
D0
330
C7
100
AcDbEntity
  8
Defpoints
 62
     0
100
AcDbPoint
 10
43.27499999999998
 20
25.37853230683294
 30
0.0
  0
POINT
  5
D1
330
C7
100
AcDbEntity
  8
Defpoints
 62
     0
100
AcDbPoint
 10
1.999999999999981
 20
5.47284932406939
 30
0.0
  0
POINT
  5
D2
330
C7
100
AcDbEntity
  8
Defpoints
 62
     0
100
AcDbPoint
 10
1.999999999999981
 20
30.87499999999999
 30
0.0
  0
ENDBLK
  5
C9
330
C7
100
AcDbEntity
  8
0
100
AcDbBlockEnd
  0
BLOCK
  5
DE
330
DD
100
AcDbEntity
  8
0
100
AcDbBlockBegin
  2
_D_2
 70
     0
 10
0.0
 20
0.0
 30
0.0
  3
_D_2
  1

  0
LINE
  5
E0
330
DD
100
AcDbEntity
  8
치수문자_일반주서
 62
     0
370
    -2
100
AcDbLine
 10
43.27499999999998
 20
25.44103230683294
 30
0.0
 11
43.27499999999998
 21
45.87499999999999
 31
0.0
  0
LINE
  5
E1
330
DD
100
AcDbEntity
  8
치수문자_일반주서
 62
     0
370
    -2
100
AcDbLine
 10
-61.50000000000003
 20
14.0325
 30
0.0
 11
-61.50000000000003
 21
45.87499999999999
 31
0.0
  0
LINE
  5
E2
330
DD
100
AcDbEntity
  8
치수문자_일반주서
 62
     0
370
    -2
100
AcDbLine
 10
39.27499999999998
 20
45.87499999999999
 30
0.0
 11
-57.50000000000003
 21
45.87499999999999
 31
0.0
  0
SOLID
  5
E3
330
DD
100
AcDbEntity
  8
치수문자_일반주서
 62
     0
100
AcDbTrace
 10
39.27499999999998
 20
45.20833333333333
 30
0.0
 11
39.27499999999998
 21
46.54166666666666
 31
0.0
 12
43.27499999999998
 22
45.87499999999999
 32
0.0
 13
43.27499999999998
 23
45.87499999999999
 33
0.0
  0
SOLID
  5
E4
330
DD
100
AcDbEntity
  8
치수문자_일반주서
 62
     0
100
AcDbTrace
 10
-57.50000000000003
 20
46.54166666666666
 30
0.0
 11
-57.50000000000003
 21
45.20833333333333
 31
0.0
 12
-61.50000000000003
 22
45.87499999999999
 32
0.0
 13
-61.50000000000003
 23
45.87499999999999
 33
0.0
  0
MTEXT
  5
E5
330
DD
100
AcDbEntity
  8
치수문자_일반주서
 62
     0
100
AcDbMText
 10
-9.112500000000026
 20
50.74999999999999
 30
0.0
 40
4.0
 41
0.0
 71
     2
 72
     1
  1
\A1;104.78 [4 1/8]
  7
SLDTEXTSTYLE0
 73
     1
 44
1.0
  0
POINT
  5
E6
330
DD
100
AcDbEntity
  8
Defpoints
 62
     0
100
AcDbPoint
 10
43.27499999999998
 20
25.37853230683294
 30
0.0
  0
POINT
  5
E7
330
DD
100
AcDbEntity
  8
Defpoints
 62
     0
100
AcDbPoint
 10
-61.50000000000003
 20
13.97
 30
0.0
  0
POINT
  5
E8
330
DD
100
AcDbEntity
  8
Defpoints
 62
     0
100
AcDbPoint
 10
-61.50000000000003
 20
45.87499999999999
 30
0.0
  0
ENDBLK
  5
DF
330
DD
100
AcDbEntity
  8
0
100
AcDbBlockEnd
  0
BLOCK
  5
F2
330
F1
100
AcDbEntity
  8
0
100
AcDbBlockBegin
  2
_D_3
 70
     0
 10
0.0
 20
0.0
 30
0.0
  3
_D_3
  1

  0
LINE
  5
F4
330
F1
100
AcDbEntity
  8
치수문자_일반주서
 62
     0
370
    -2
100
AcDbLine
 10
43.33749999999998
 20
-25.37853230683293
 30
0.0
 11
58.27500000000003
 21
-25.37853230683288
 31
0.0
  0
LINE
  5
F5
330
F1
100
AcDbEntity
  8
치수문자_일반주서
 62
     0
370
    -2
100
AcDbLine
 10
43.33749999999998
 20
25.37853230683293
 30
0.0
 11
58.27499999999986
 21
25.37853230683299
 31
0.0
  0
LINE
  5
F6
330
F1
100
AcDbEntity
  8
치수문자_일반주서
 62
     0
370
    -2
100
AcDbLine
 10
58.27499999999986
 20
25.37853230683299
 30
0.0
 11
58.27499999999976
 21
55.62853230683299
 31
0.0
  0
LINE
  5
F7
330
F1
100
AcDbEntity
  8
치수문자_일반주서
 62
     0
370
    -2
100
AcDbLine
 10
58.27500000000003
 20
-25.37853230683288
 30
0.0
 11
58.27499999999986
 21
25.37853230683299
 31
0.0
  0
LINE
  5
F8
330
F1
100
AcDbEntity
  8
치수문자_일반주서
 62
     0
370
    -2
100
AcDbLine
 10
58.27500000000005
 20
-29.37853230683288
 30
0.0
 11
58.27500000000006
 21
-33.37853230683288
 31
0.0
  0
LINE
  5
F9
330
F1
100
AcDbEntity
  8
치수문자_일반주서
 62
     0
370
    -2
100
AcDbLine
 10
58.27499999999984
 20
29.37853230683299
 30
0.0
 11
58.27499999999983
 21
33.37853230683299
 31
0.0
  0
SOLID
  5
FA
330
F1
100
AcDbEntity
  8
치수문자_일반주서
 62
     0
100
AcDbTrace
 10
58.94166666666671
 20
-29.37853230683288
 30
0.0
 11
57.60833333333338
 21
-29.37853230683288
 31
0.0
 12
58.27500000000003
 22
-25.37853230683288
 32
0.0
 13
58.27500000000003
 23
-25.37853230683288
 33
0.0
  0
SOLID
  5
FB
330
F1
100
AcDbEntity
  8
치수문자_일반주서
 62
     0
100
AcDbTrace
 10
57.60833333333318
 20
29.37853230683299
 30
0.0
 11
58.94166666666651
 21
29.37853230683299
 31
0.0
 12
58.27499999999986
 22
25.37853230683299
 32
0.0
 13
58.27499999999986
 23
25.37853230683299
 33
0.0
  0
MTEXT
  5
FC
330
F1
100
AcDbEntity
  8
치수문자_일반주서
 62
     0
100
AcDbMText
 10
53.3999999999998
 20
42.50353230683298
 30
0.0
 40
4.0
 41
0.0
 71
     2
 72
     1
  1
\A1;%%c50.76 [2]
  7
SLDTEXTSTYLE0
 11
-3.499723344761713E-15
 21
1.0
 31
0.0
 73
     1
 44
1.0
  0
POINT
  5
FD
330
F1
100
AcDbEntity
  8
Defpoints
 62
     0
100
AcDbPoint
 10
43.27499999999998
 20
-25.37853230683293
 30
0.0
  0
POINT
  5
212
330
F1
100
AcDbEntity
  8
Defpoints
 62
     0
100
AcDbPoint
 10
43.27499999999998
 20
25.37853230683293
 30
0.0
  0
POINT
  5
213
330
F1
100
AcDbEntity
  8
Defpoints
 62
     0
100
AcDbPoint
 10
58.27499999999986
 20
25.37853230683299
 30
0.0
  0
ENDBLK
  5
F3
330
F1
100
AcDbEntity
  8
0
100
AcDbBlockEnd
  0
BLOCK
  5
10B
330
10A
100
AcDbEntity
  8
0
100
AcDbBlockBegin
  2
SW_DOWELSYMBOL_0
 70
     0
 10
0.0
 20
0.0
 30
0.0
  3
SW_DOWELSYMBOL_0
  1

  0
CIRCLE
  5
10D
330
10A
100
AcDbEntity
  8
해칭선
 62
     0
100
AcDbCircle
 10
0.0
 20
0.0
 30
0.0
 40
3.000000000000001
  0
HATCH
  5
10E
330
10A
100
AcDbEntity
  8
0
  6
Continuous
 62
     0
370
     0
100
AcDbHatch
 10
0.0
 20
0.0
 30
0.0
210
0.0
220
0.0
230
1.0
  2
SOLID
 70
     1
 71
     0
 91
        1
 92
        0
 93
        3
 72
     2
 10
0.0
 20
0.0
 40
3.000000000000001
 50
0.0
 51
90.0
 73
     1
 72
     1
 10
0.0
 20
3.000000000000001
 11
0.0
 21
0.0
 72
     1
 10
0.0
 20
0.0
 11
3.000000000000001
 21
0.0
 97
        0
 75
     0
 76
     1
 98
        1
 10
0.0
 20
0.0
  0
HATCH
  5
10F
330
10A
100
AcDbEntity
  8
0
  6
Continuous
 62
     0
370
     0
100
AcDbHatch
 10
0.0
 20
0.0
 30
0.0
210
0.0
220
0.0
230
1.0
  2
SOLID
 70
     1
 71
     0
 91
        1
 92
        0
 93
        3
 72
     2
 10
0.0
 20
0.0
 40
3.000000000000001
 50
180.0
 51
270.0000000000008
 73
     1
 72
     1
 10
0.0
 20
-3.000000000000001
 11
0.0
 21
0.0
 72
     1
 10
0.0
 20
0.0
 11
-3.000000000000001
 21
0.0
 97
        0
 75
     0
 76
     1
 98
        1
 10
0.0
 20
0.0
  0
ENDBLK
  5
10C
330
10A
100
AcDbEntity
  8
0
100
AcDbBlockEnd
  0
BLOCK
  5
1E7
330
1E6
100
AcDbEntity
  8
0
100
AcDbBlockBegin
  2
*D9
 70
     1
 10
0.0
 20
0.0
 30
0.0
  3
*D9
  1

  0
LINE
  5
1E9
330
1E6
100
AcDbEntity
  8
치수문자_일반주서
 62
     0
370
    -2
100
AcDbLine
 10
41.275
 20
16.93660569950587
 30
0.0
 11
41.275
 21
30.30136473855821
 31
0.0
  0
LINE
  5
1EA
330
1E6
100
AcDbEntity
  8
치수문자_일반주서
 62
     0
370
    -2
100
AcDbLine
 10
0.0
 20
4.96171406262761
 30
0.0
 11
0.0
 21
30.30136473855821
 31
0.0
  0
LINE
  5
1EB
330
1E6
100
AcDbEntity
  8
치수문자_일반주서
 62
     0
370
    -2
100
AcDbLine
 10
37.275
 20
30.30136473855821
 30
0.0
 11
4.0
 21
30.30136473855821
 31
0.0
  0
SOLID
  5
1EC
330
1E6
100
AcDbEntity
  8
치수문자_일반주서
 62
     0
100
AcDbTrace
 10
37.275
 20
29.63469807189155
 30
0.0
 11
37.275
 21
30.96803140522488
 31
0.0
 12
41.275
 22
30.30136473855821
 32
0.0
 13
41.275
 23
30.30136473855821
 33
0.0
  0
SOLID
  5
1ED
330
1E6
100
AcDbEntity
  8
치수문자_일반주서
 62
     0
100
AcDbTrace
 10
4.0
 20
30.96803140522488
 30
0.0
 11
4.0
 21
29.63469807189155
 31
0.0
 12
0.0
 22
30.30136473855821
 32
0.0
 13
0.0
 23
30.30136473855821
 33
0.0
  0
MTEXT
  5
1EE
330
1E6
100
AcDbEntity
  8
치수문자_일반주서
 62
     0
100
AcDbMText
 10
20.6375
 20
35.17636473855821
 30
0.0
 40
4.0
 41
0.0
 71
     2
 72
     1
  1
\A1;41.28 [1 5/8]
  7
SLDTEXTSTYLE0
 73
     1
 44
1.0
  0
POINT
  5
1EF
330
1E6
100
AcDbEntity
  8
Defpoints
 62
     0
100
AcDbPoint
 10
41.275
 20
16.87410569950587
 30
0.0
  0
POINT
  5
1F0
330
1E6
100
AcDbEntity
  8
Defpoints
 62
     0
100
AcDbPoint
 10
0.0
 20
4.89921406262761
 30
0.0
  0
POINT
  5
1F1
330
1E6
100
AcDbEntity
  8
Defpoints
 62
     0
100
AcDbPoint
 10
0.0
 20
30.30136473855821
 30
0.0
  0
ENDBLK
  5
1E8
330
1E6
100
AcDbEntity
  8
0
100
AcDbBlockEnd
  0
BLOCK
  5
1F6
330
1F5
100
AcDbEntity
  8
0
100
AcDbBlockBegin
  2
*D10
 70
     1
 10
0.0
 20
0.0
 30
0.0
  3
*D10
  1

  0
LINE
  5
1F8
330
1F5
100
AcDbEntity
  8
치수문자_일반주서
 62
     0
370
    -2
100
AcDbLine
 10
129.8642659982389
 20
16.5103529656601
 30
0.0
 11
129.8642659982389
 21
29.87511200471245
 31
0.0
  0
LINE
  5
1F9
330
1F5
100
AcDbEntity
  8
치수문자_일반주서
 62
     0
370
    -2
100
AcDbLine
 10
88.58926599823893
 20
4.535461328781842
 30
0.0
 11
88.58926599823893
 21
29.87511200471245
 31
0.0
  0
LINE
  5
1FA
330
1F5
100
AcDbEntity
  8
치수문자_일반주서
 62
     0
370
    -2
100
AcDbLine
 10
125.8642659982389
 20
29.87511200471245
 30
0.0
 11
92.58926599823893
 21
29.87511200471245
 31
0.0
  0
SOLID
  5
1FB
330
1F5
100
AcDbEntity
  8
치수문자_일반주서
 62
     0
100
AcDbTrace
 10
125.8642659982389
 20
29.20844533804578
 30
0.0
 11
125.8642659982389
 21
30.54177867137911
 31
0.0
 12
129.8642659982389
 22
29.87511200471245
 32
0.0
 13
129.8642659982389
 23
29.87511200471245
 33
0.0
  0
SOLID
  5
1FC
330
1F5
100
AcDbEntity
  8
치수문자_일반주서
 62
     0
100
AcDbTrace
 10
92.58926599823893
 20
30.54177867137911
 30
0.0
 11
92.58926599823893
 21
29.20844533804578
 31
0.0
 12
88.58926599823893
 22
29.87511200471245
 32
0.0
 13
88.58926599823893
 23
29.87511200471245
 33
0.0
  0
MTEXT
  5
1FD
330
1F5
100
AcDbEntity
  8
치수문자_일반주서
 62
     0
100
AcDbMText
 10
109.2267659982389
 20
34.75011200471245
 30
0.0
 40
4.0
 41
0.0
 71
     2
 72
     1
  1
\A1;41.28 [1 5/8]
  7
SLDTEXTSTYLE0
 73
     1
 44
1.0
  0
POINT
  5
1FE
330
1F5
100
AcDbEntity
  8
Defpoints
 62
     0
100
AcDbPoint
 10
129.8642659982389
 20
16.4478529656601
 30
0.0
  0
POINT
  5
1FF
330
1F5
100
AcDbEntity
  8
Defpoints
 62
     0
100
AcDbPoint
 10
88.58926599823893
 20
4.472961328781842
 30
0.0
  0
POINT
  5
200
330
1F5
100
AcDbEntity
  8
Defpoints
 62
     0
100
AcDbPoint
 10
88.58926599823893
 20
29.87511200471245
 30
0.0
  0
ENDBLK
  5
1F7
330
1F5
100
AcDbEntity
  8
0
100
AcDbBlockEnd
  0
ENDSEC
  0
SECTION
  2
ENTITIES
  0
SPLINE
  5
96
330
1F
100
AcDbEntity
  8
0
  6
Continuous
 62
     1
370
    15
100
AcDbSpline
210
0.0
220
0.0
230
1.0
 70
     8
 71
     3
 72
    44
 73
    40
 74
     0
 42
0.000000001
 43
0.00000001
 40
0.0
 40
0.0
 40
0.0
 40
0.0
 40
0.0359317189209328
 40
0.0674723359794867
 40
0.0950592628469812
 40
0.1194648933989085
 40
0.1419884465972409
 40
0.1633370603131402
 40
0.1835316179733752
 40
0.2096208165447878
 40
0.2348704186340215
 40
0.2597634763509968
 40
0.2840027267132144
 40
0.3067742803757481
 40
0.3281815358354723
 40
0.3524922316425372
 40
0.3805308640216115
 40
0.4114166772982604
 40
0.4439975587141869
 40
0.478346826894889
 40
0.5101059458756412
 40
0.5395870767785094
 40
0.5659130972645721
 40
0.5896077148911024
 40
0.615397025658088
 40
0.6438952091040803
 40
0.6729310020320933
 40
0.6975762080690965
 40
0.7180389727789418
 40
0.7642443367297675
 40
0.811758492956901
 40
0.8236046693484783
 40
0.8359627227357678
 40
0.8521862813849371
 40
0.8728734700394719
 40
0.8980188368923661
 40
0.9276052297263016
 40
0.9615985855740511
 40
1.0
 40
1.0
 40
1.0
 40
1.0
 10
33.83610325520424
 20
17.3723939463166
 30
0.0
 10
33.50071256112493
 20
17.34347579663535
 30
0.0
 10
32.87091821020316
 20
17.28917349299406
 30
0.0
 10
31.920884916223
 20
17.21096776688837
 30
0.0
 10
31.0404400069961
 20
17.14525229167069
 30
0.0
 10
30.21867849002844
 20
17.09210613246089
 30
0.0
 10
29.46892971239954
 20
17.0476719764355
 30
0.0
 10
28.7638669373429
 20
17.00656877602746
 30
0.0
 10
28.02027865720934
 20
16.96520109987969
 30
0.0
 10
27.23454815142409
 20
16.92399415521953
 30
0.0
 10
26.4084601290748
 20
16.88492109442747
 30
0.0
 10
25.62837570813783
 20
16.85253500141942
 30
0.0
 10
24.89906263402553
 20
16.82546812365354
 30
0.0
 10
24.18293566620518
 20
16.80133032314249
 30
0.0
 10
23.45193111515866
 20
16.77968192354165
 30
0.0
 10
22.66450091239983
 20
16.7596849052453
 30
0.0
 10
21.77538979684014
 20
16.74140150087519
 30
0.0
 10
20.79805276787394
 20
16.72662846647652
 30
0.0
 10
19.75396475319407
 20
16.71698718414731
 30
0.0
 10
18.70062357226313
 20
16.7138291332129
 30
0.0
 10
17.68059932351007
 20
16.71702534036108
 30
0.0
 10
16.74607953105798
 20
16.7252559277172
 30
0.0
 10
15.89749639672761
 20
16.73711963729187
 30
0.0
 10
15.08797353060397
 20
16.75219495589739
 30
0.0
 10
14.25551968765797
 20
16.77154172348317
 30
0.0
 10
13.36604764251193
 20
16.79666714559439
 30
0.0
 10
12.48873720217785
 20
16.82607749839066
 30
0.0
 10
11.69733046819069
 20
16.85649791560889
 30
0.0
 10
10.7225969438052
 20
16.89799226290987
 30
0.0
 10
9.506289225101044
 20
16.95717612523238
 30
0.0
 10
8.381213926727773
 20
17.02160848622125
 30
0.0
 10
7.614455146398962
 20
17.06958039092768
 30
0.0
 10
7.181782025033252
 20
17.09758709756042
 30
0.0
 10
6.656989765811272
 20
17.13288632691031
 30
0.0
 10
5.997204403935685
 20
17.17942013843295
 30
0.0
 10
5.196522132479101
 20
17.23910051685536
 30
0.0
 10
4.25537259667121
 20
17.31387145732303
 30
0.0
 10
3.174311061084481
 20
17.40534283009576
 30
0.0
 10
2.407010456577779
 20
17.4764245263977
 30
0.0
 10
1.999999999999978
 20
17.51412942783562
 30
0.0
1001
PE_URL
1000

  0
SPLINE
  5
97
330
1F
100
AcDbEntity
  8
0
  6
Continuous
 62
     1
370
    15
100
AcDbSpline
210
0.0
220
0.0
230
1.0
 70
     8
 71
     3
 72
    18
 73
    14
 74
     0
 42
0.000000001
 43
0.00000001
 40
0.0
 40
0.0
 40
0.0
 40
0.0
 40
0.169422665845601
 40
0.3155113639345457
 40
0.4383283052710535
 40
0.5377382180913766
 40
0.6198251100383801
 40
0.6777595168529642
 40
0.7358334465510461
 40
0.7979839717934274
 40
0.8642011812014
 40
0.9344995214035036
 40
0.9999999999999999
 40
0.9999999999999999
 40
0.9999999999999999
 40
0.9999999999999999
 10
1.999999999999978
 20
-17.51412942783563
 30
0.0
 10
2.356196938086613
 20
-17.48106598483239
 30
0.0
 10
3.01953310508709
 20
-17.41949280661413
 30
0.0
 10
3.941247704528818
 20
-17.34027895830575
 30
0.0
 10
4.716318150840277
 20
-17.27701672171931
 30
0.0
 10
5.357540578674166
 20
-17.22720987776966
 30
0.0
 10
5.862813703552805
 20
-17.18954976982126
 30
0.0
 10
6.283207310257392
 20
-17.15925296194305
 30
0.0
 10
6.661430512668078
 20
-17.13277255838073
 30
0.0
 10
7.05731037560418
 20
-17.1058901397296
 30
0.0
 10
7.479206035525543
 20
-17.07822611747483
 30
0.0
 10
7.908303730034133
 20
-17.05102012269878
 30
0.0
 10
8.196656363538494
 20
-17.03369062111123
 30
0.0
 10
8.335738836171096
 20
-17.02533200166324
 30
0.0
1001
PE_URL
1000

  0
SPLINE
  5
98
330
1F
100
AcDbEntity
  8
0
  6
Continuous
 62
     1
370
    15
100
AcDbSpline
210
0.0
220
0.0
230
1.0
 70
     8
 71
     3
 72
    34
 73
    30
 74
     0
 42
0.000000001
 43
0.00000001
 40
0.0
 40
0.0
 40
0.0
 40
0.0
 40
0.1249999999999994
 40
0.1249999999999994
 40
0.1874999999999993
 40
0.1874999999999993
 40
0.2499999999999992
 40
0.2499999999999992
 40
0.3124999999999993
 40
0.3124999999999993
 40
0.3749999999999993
 40
0.3749999999999993
 40
0.4374999999999994
 40
0.4374999999999994
 40
0.4999999999999994
 40
0.4999999999999994
 40
0.6249999999999997
 40
0.6249999999999997
 40
0.6874999999999997
 40
0.6874999999999997
 40
0.7499999999999998
 40
0.7499999999999998
 40
0.8124999999999998
 40
0.8124999999999998
 40
0.8749999999999999
 40
0.8749999999999999
 40
0.9374999999999999
 40
0.9374999999999999
 40
1.0
 40
1.0
 40
1.0
 40
1.0
 10
43.27499999999998
 20
-24.10309807849024
 30
0.0
 10
41.55884297474177
 20
-23.79009170398145
 30
0.0
 10
39.83278669723082
 20
-23.42112276052306
 30
0.0
 10
37.25546360085305
 20
-22.78931731063169
 30
0.0
 10
36.39716391710316
 20
-22.5656154666416
 30
0.0
 10
34.67602087284232
 20
-22.09220228449434
 30
0.0
 10
33.81467564899634
 20
-21.8426110986115
 30
0.0
 10
32.09487819188883
 20
-21.3189660016427
 30
0.0
 10
31.23746785936972
 20
-21.04504147287802
 30
0.0
 10
29.51728331364464
 20
-20.47282629427712
 30
0.0
 10
28.65590148727573
 20
-20.17466741963384
 30
0.0
 10
26.93499974933358
 20
-19.55577464874341
 30
0.0
 10
26.07711539642825
 20
-19.23525562171271
 30
0.0
 10
24.35836748684105
 20
-18.57219379890856
 30
0.0
 10
23.49718932319539
 20
-18.22959286675042
 30
0.0
 10
20.91489849931193
 20
-17.17117790187243
 30
0.0
 10
19.19920856420596
 20
-16.42537524528039
 30
0.0
 10
16.61669859831921
 20
-15.25150450793385
 30
0.0
 10
15.75576225654673
 20
-14.85122081762509
 30
0.0
 10
14.03812358327606
 20
-14.03476969191037
 30
0.0
 10
13.17928209421453
 20
-13.61827185527012
 30
0.0
 10
11.45794220788187
 20
-12.76954589940744
 30
0.0
 10
10.59665588531582
 20
-12.33750980532271
 30
0.0
 10
8.87728986521507
 20
-11.46033512753311
 30
0.0
 10
8.019752981752994
 20
-11.01530127563962
 30
0.0
 10
6.299225729117289
 20
-10.11217998327301
 30
0.0
 10
5.437829602143986
 20
-9.654360697002515
 30
0.0
 10
3.717213613982334
 20
-8.728564729081493
 30
0.0
 10
2.859618081742029
 20
-8.260889201556802
 30
0.0
 10
1.99999999999643
 20
-7.788385243171803
 30
0.0
1001
PE_URL
1000

  0
SPLINE
  5
99
330
1F
100
AcDbEntity
  8
외형선
  6
Continuous
370
    15
100
AcDbSpline
210
0.0
220
0.0
230
1.0
 70
    24
 71
     3
 72
     8
 73
     4
 74
     0
 42
0.000000001
 43
0.00000001
 40
0.0
 40
0.0
 40
0.0
 40
0.0
 40
1.0
 40
1.0
 40
1.0
 40
1.0
 10
1.999999999999985
 20
-5.369504345042198
 30
0.0
 10
1.999999999999985
 20
-6.084583969791728
 30
0.0
 10
1.999999999999985
 20
-6.895654930682124
 30
0.0
 10
1.999999999999985
 20
-7.788385243163319
 30
0.0
  0
SPLINE
  5
9A
330
1F
100
AcDbEntity
  8
0
  6
Continuous
 62
     1
370
    15
100
AcDbSpline
210
0.0
220
0.0
230
1.0
 70
     8
 71
     3
 72
    34
 73
    30
 74
     0
 42
0.000000001
 43
0.00000001
 40
0.0
 40
0.0
 40
0.0
 40
0.0
 40
0.1250000000000001
 40
0.1250000000000001
 40
0.1875000000000001
 40
0.1875000000000001
 40
0.2500000000000002
 40
0.2500000000000002
 40
0.3125000000000002
 40
0.3125000000000002
 40
0.3750000000000003
 40
0.3750000000000003
 40
0.4375000000000003
 40
0.4375000000000003
 40
0.5000000000000003
 40
0.5000000000000003
 40
0.6250000000000003
 40
0.6250000000000003
 40
0.6875000000000002
 40
0.6875000000000002
 40
0.7500000000000002
 40
0.7500000000000002
 40
0.8125000000000001
 40
0.8125000000000001
 40
0.8750000000000001
 40
0.8750000000000001
 40
0.9375
 40
0.9375
 40
1.0
 40
1.0
 40
1.0
 40
1.0
 10
43.27499999999998
 20
-20.03989551495269
 30
0.0
 10
41.55884297474193
 20
-19.72608566407668
 30
0.0
 10
39.83278669723113
 20
-19.36564463447691
 30
0.0
 10
37.25546360085361
 20
-18.76051330118622
 30
0.0
 10
36.39716391710377
 20
-18.54801135414005
 30
0.0
 10
34.67602087284308
 20
-18.10161110416761
 30
0.0
 10
33.81467564899717
 20
-17.8678282408836
 30
0.0
 10
32.0948781918898
 20
-17.38031843396526
 30
0.0
 10
31.23746785937076
 20
-17.12670924397253
 30
0.0
 10
29.51728331364584
 20
-16.59963276459002
 30
0.0
 10
28.65590148727701
 20
-16.32628932698162
 30
0.0
 10
26.934999749335
 20
-15.76139350427151
 30
0.0
 10
26.07711539642972
 20
-15.47003530031281
 30
0.0
 10
24.35836748684268
 20
-14.8696058760413
 30
0.0
 10
23.49718932319711
 20
-14.56048382105566
 30
0.0
 10
20.91489849931388
 20
-13.6087448940279
 30
0.0
 10
19.19920856420803
 20
-12.94231074999289
 30
0.0
 10
16.6166985983215
 20
-11.89932490449508
 30
0.0
 10
15.75576225654911
 20
-11.54462029274205
 30
0.0
 10
14.03812358327859
 20
-10.82298506953152
 30
0.0
 10
13.17928209421713
 20
-10.45576148459263
 30
0.0
 10
11.45794220788463
 20
-9.709224123517156
 30
0.0
 10
10.59665588531865
 20
-9.330080160516662
 30
0.0
 10
8.877289865218048
 20
-8.56200875474748
 30
0.0
 10
8.019752981756046
 20
-8.173171470355097
 30
0.0
 10
6.299225729120499
 20
-7.385754573147429
 30
0.0
 10
5.437829602147261
 20
-6.987410262822229
 30
0.0
 10
3.717213613985754
 20
-6.183503316016674
 30
0.0
 10
2.859618081745515
 20
-5.778200746221593
 30
0.0
 10
1.999999999999978
 20
-5.369504345042197
 30
0.0
1001
PE_URL
1000

  0
LINE
  5
9B
330
1F
100
AcDbEntity
  8
0
  6
Continuous
 62
     1
370
    15
100
AcDbLine
 10
43.27499999999969
 20
-24.10309807849026
 30
0.0
 11
43.27499999999998
 21
-20.03989551495269
 31
0.0
1001
PE_URL
1000

  0
SPLINE
  5
9C
330
1F
100
AcDbEntity
  8
0
  6
Continuous
 62
     1
370
    15
100
AcDbSpline
210
0.0
220
0.0
230
1.0
 70
     8
 71
     3
 72
    34
 73
    30
 74
     0
 42
0.000000001
 43
0.00000001
 40
0.0
 40
0.0
 40
0.0
 40
0.0
 40
0.0624999999999998
 40
0.0624999999999998
 40
0.1249999999999996
 40
0.1249999999999996
 40
0.1874999999999994
 40
0.1874999999999994
 40
0.2499999999999993
 40
0.2499999999999993
 40
0.3124999999999991
 40
0.3124999999999991
 40
0.374999999999999
 40
0.374999999999999
 40
0.499999999999999
 40
0.499999999999999
 40
0.5624999999999991
 40
0.5624999999999991
 40
0.6249999999999991
 40
0.6249999999999991
 40
0.6874999999999992
 40
0.6874999999999992
 40
0.7499999999999993
 40
0.7499999999999993
 40
0.8124999999999993
 40
0.8124999999999993
 40
0.8749999999999994
 40
0.8749999999999994
 40
1.0
 40
1.0
 40
1.0
 40
1.0
 10
1.999999999999972
 20
-14.1625340344225
 30
0.0
 10
2.859618081745518
 20
-14.57462116002294
 30
0.0
 10
3.717213613985752
 20
-14.97827854960525
 30
0.0
 10
5.437829602147264
 20
-15.76881485952326
 30
0.0
 10
6.299225729120499
 20
-16.15542887307394
 30
0.0
 10
8.019752981756042
 20
-16.90935621854764
 30
0.0
 10
8.877289865218048
 20
-17.27645379820703
 30
0.0
 10
10.59665588531864
 20
-17.99105526498168
 30
0.0
 10
11.45794220788463
 20
-18.33846549207862
 30
0.0
 10
13.17928209421713
 20
-19.01169008574963
 30
0.0
 10
14.03812358327859
 20
-19.3373570309518
 30
0.0
 10
15.75576225654912
 20
-19.96618413955397
 30
0.0
 10
16.61669859832151
 20
-20.26959369660507
 30
0.0
 10
19.19920856420803
 20
-21.14438406133409
 30
0.0
 10
20.91489849931385
 20
-21.67975267059933
 30
0.0
 10
23.49718932319709
 20
-22.40739387671075
 30
0.0
 10
24.35836748684267
 20
-22.63725813915674
 30
0.0
 10
26.07711539642972
 20
-23.07047785846633
 30
0.0
 10
26.934999749335
 20
-23.27388105795022
 30
0.0
 10
28.65590148727699
 20
-23.65418144216353
 30
0.0
 10
29.51728331364583
 20
-23.83093612799734
 30
0.0
 10
31.23746785937075
 20
-24.15675450699067
 30
0.0
 10
32.0948781918898
 20
-24.30575649144865
 30
0.0
 10
33.81467564899717
 20
-24.57603753401712
 30
0.0
 10
34.67602087284308
 20
-24.6972352537028
 30
0.0
 10
36.39716391710375
 20
-24.91109817922356
 30
0.0
 10
37.2554636008536
 20
-25.0037206606426
 30
0.0
 10
39.83278669723113
 20
-25.2385883315071
 30
0.0
 10
41.55884297474191
 20
-25.33774583046364
 30
0.0
 10
43.27499999999996
 20
-25.37853230683293
 30
0.0
1001
PE_URL
1000

  0
LINE
  5
9D
330
1F
100
AcDbEntity
  8
0
  6
Continuous
 62
     1
370
    15
100
AcDbLine
 10
43.27499999999998
 20
-25.37853230683293
 30
0.0
 11
43.27499999999907
 21
-24.10309807849023
 31
0.0
1001
PE_URL
1000

  0
LINE
  5
9E
330
1F
100
AcDbEntity
  8
외형선
  6
Continuous
370
    15
100
AcDbLine
 10
1.999999999999987
 20
-14.1625340344225
 30
0.0
 11
1.999999999999988
 21
-7.788385243160018
 31
0.0
  0
SPLINE
  5
9F
330
1F
100
AcDbEntity
  8
0
  6
Continuous
 62
     1
370
    15
100
AcDbSpline
210
0.0
220
0.0
230
1.0
 70
     8
 71
     3
 72
    34
 73
    30
 74
     0
 42
0.000000001
 43
0.00000001
 40
0.0
 40
0.0
 40
0.0
 40
0.0
 40
0.1250000000000004
 40
0.1250000000000004
 40
0.1875000000000006
 40
0.1875000000000006
 40
0.2500000000000007
 40
0.2500000000000007
 40
0.3125000000000007
 40
0.3125000000000007
 40
0.3750000000000006
 40
0.3750000000000006
 40
0.4375000000000006
 40
0.4375000000000006
 40
0.5000000000000006
 40
0.5000000000000006
 40
0.6250000000000003
 40
0.6250000000000003
 40
0.6875000000000003
 40
0.6875000000000003
 40
0.7500000000000002
 40
0.7500000000000002
 40
0.8125000000000002
 40
0.8125000000000002
 40
0.8750000000000002
 40
0.8750000000000002
 40
0.9375000000000001
 40
0.9375000000000001
 40
1.0
 40
1.0
 40
1.0
 40
1.0
 10
43.27499999999998
 20
0.0000000000000127
 30
0.0
 10
41.55884297474167
 20
0.7937927522571075
 30
0.0
 10
39.83278669723059
 20
1.589105150699771
 30
0.0
 10
37.25546360085271
 20
2.772086625659825
 30
0.0
 10
36.39716391710272
 20
3.164929368716922
 30
0.0
 10
34.67602087284176
 20
3.947227962909188
 30
0.0
 10
33.81467564899575
 20
4.336453507560758
 30
0.0
 10
32.09487819188813
 20
5.109054113299692
 30
0.0
 10
31.23746785936896
 20
5.49227829461994
 30
0.0
 10
29.51728331364377
 20
6.252792273801877
 30
0.0
 10
28.6559014872748
 20
6.629870309176754
 30
0.0
 10
26.93499974933254
 20
7.375721253857849
 30
0.0
 10
26.07711539642714
 20
7.744263981794369
 30
0.0
 10
24.35836748683984
 20
8.472487055193595
 30
0.0
 10
23.49718932319413
 20
8.832204426622743
 30
0.0
 10
20.9148984993105
 20
9.895368739826035
 30
0.0
 10
19.19920856420442
 20
10.58227871624536
 30
0.0
 10
16.61669859831749
 20
11.5751190629188
 30
0.0
 10
15.75576225654498
 20
11.89962433755887
 30
0.0
 10
14.0381235832742
 20
12.53411116763543
 30
0.0
 10
13.17928209421261
 20
12.84436345055064
 30
0.0
 10
11.45794220787985
 20
13.45022254977207
 30
0.0
 10
10.59665588531374
 20
13.74567883083217
 30
0.0
 10
8.877289865212887
 20
14.3201395724348
 30
0.0
 10
8.019752981750745
 20
14.59909836586115
 30
0.0
 10
6.299225729114932
 20
15.14055681432506
 30
0.0
 10
5.437829602141568
 20
15.40287342571049
 30
0.0
 10
3.717213613979812
 20
15.9093280437314
 30
0.0
 10
2.859618081739454
 20
16.15332261179455
 30
0.0
 10
1.999999999993776
 20
16.38812038886567
 30
0.0
1001
PE_URL
1000

  0
SPLINE
  5
A0
330
1F
100
AcDbEntity
  8
0
  6
Continuous
 62
     1
370
    15
100
AcDbSpline
210
0.0
220
0.0
230
1.0
 70
    24
 71
     3
 72
    14
 73
    10
 74
     0
 42
0.000000001
 43
0.00000001
 40
0.0
 40
0.0
 40
0.0
 40
0.0
 40
0.25
 40
0.25
 40
0.5
 40
0.5
 40
0.75
 40
0.75
 40
1.0
 40
1.0
 40
1.0
 40
1.0
 10
43.27499999999998
 20
-20.03989551495269
 30
0.0
 10
43.27499999999996
 20
-18.95557336052246
 30
0.0
 10
43.27499999999998
 20
-17.67202380632716
 30
0.0
 10
43.27499999999996
 20
-14.75713589577274
 30
0.0
 10
43.27499999999998
 20
-13.1262083448734
 30
0.0
 10
43.27499999999999
 20
-9.623740089790282
 30
0.0
 10
43.27499999999998
 20
-7.753210792117306
 30
0.0
 10
43.27499999999999
 20
-3.913653825697808
 30
0.0
 10
43.27499999999998
 20
-1.945765085460716
 30
0.0
 10
43.27499999999998
 20
-0.0000000000000029
 30
0.0
1001
PE_URL
1000

  0
SPLINE
  5
A1
330
1F
100
AcDbEntity
  8
외형선
  6
Continuous
370
    15
100
AcDbSpline
210
0.0
220
0.0
230
1.0
 70
    24
 71
     3
 72
    14
 73
    10
 74
     0
 42
0.000000001
 43
0.00000001
 40
0.0
 40
0.0
 40
0.0
 40
0.0
 40
0.2499999999999999
 40
0.2499999999999999
 40
0.4999999999999999
 40
0.4999999999999999
 40
0.7499999999999999
 40
0.7499999999999999
 40
1.0
 40
1.0
 40
1.0
 40
1.0
 10
1.999999999999978
 20
16.38812038886397
 30
0.0
 10
1.999999999999978
 20
15.05512998534921
 30
0.0
 10
1.999999999999978
 20
13.53785076935498
 30
0.0
 10
1.999999999999978
 20
10.20595725653693
 30
0.0
 10
1.999999999999978
 20
8.391920602069264
 30
0.0
 10
1.999999999999978
 20
4.589236607052564
 30
0.0
 10
1.999999999999978
 20
2.60168736620663
 30
0.0
 10
1.999999999999978
 20
-1.399824467794576
 30
0.0
 10
1.999999999999978
 20
-3.412682133149192
 30
0.0
 10
1.999999999999978
 20
-5.369504345042193
 30
0.0
  0
SPLINE
  5
A2
330
1F
100
AcDbEntity
  8
0
  6
Continuous
 62
     1
370
    15
100
AcDbSpline
210
0.0
220
0.0
230
1.0
 70
    24
 71
     3
 72
    10
 73
     6
 74
     0
 42
0.000000001
 43
0.00000001
 40
0.0
 40
0.0
 40
0.0
 40
0.0
 40
0.5
 40
0.5
 40
1.0
 40
1.0
 40
1.0
 40
1.0
 10
38.27499999999998
 20
13.02321813694331
 30
0.0
 10
38.27499999999998
 20
13.71820767828031
 30
0.0
 10
38.27499999999998
 20
14.34397502627872
 30
0.0
 10
38.27499999999998
 20
15.44274489391832
 30
0.0
 10
38.27499999999999
 20
15.9157308934945
 30
0.0
 10
38.27499999999998
 20
16.30935131046914
 30
0.0
1001
PE_URL
1000

  0
SPLINE
  5
A3
330
1F
100
AcDbEntity
  8
0
  6
Continuous
 62
     1
370
    15
100
AcDbSpline
210
0.0
220
0.0
230
1.0
 70
     8
 71
     3
 72
    10
 73
     6
 74
     0
 42
0.000000001
 43
0.00000001
 40
0.0
 40
0.0
 40
0.0
 40
0.0
 40
0.5
 40
0.5
 40
1.0
 40
1.0
 40
1.0
 40
1.0
 10
38.27499999999998
 20
13.02321813694333
 30
0.0
 10
39.16931931368735
 20
12.47562514837291
 30
0.0
 10
40.03506898428241
 20
11.86799396800355
 30
0.0
 10
41.70414897846297
 20
10.52155934460768
 30
0.0
 10
42.50753921924451
 20
9.782881815653445
 30
0.0
 10
43.27499999999996
 20
8.968699674852756
 30
0.0
1001
PE_URL
1000

  0
SPLINE
  5
A4
330
1F
100
AcDbEntity
  8
0
  6
Continuous
 62
     1
370
    15
100
AcDbSpline
210
0.0
220
0.0
230
1.0
 70
     8
 71
     3
 72
    10
 73
     6
 74
     0
 42
0.000000001
 43
0.00000001
 40
0.0
 40
0.0
 40
0.0
 40
0.0
 40
0.4898586417360485
 40
0.9795498386089816
 40
1.0
 40
1.0
 40
1.0
 40
1.0
 10
43.27499999999998
 20
17.78
 30
0.0
 10
41.73361677322901
 20
17.75706229226374
 30
0.0
 10
38.65137719965082
 20
17.71119471742322
 30
0.0
 10
35.50494694104326
 20
17.54486084371666
 30
0.0
 10
33.89983231769956
 20
17.375317034739
 30
0.0
 10
33.83548769524005
 20
17.36852049060418
 30
0.0
1001
PE_URL
1000

  0
SPLINE
  5
A5
330
1F
100
AcDbEntity
  8
0
  6
Continuous
 62
     1
370
    15
100
AcDbSpline
210
0.0
220
0.0
230
1.0
 70
     8
 71
     3
 72
     8
 73
     4
 74
     0
 42
0.000000001
 43
0.00000001
 40
0.0
 40
0.0
 40
0.0
 40
0.0
 40
1.0
 40
1.0
 40
1.0
 40
1.0
 10
43.27499999999998
 20
17.78
 30
0.0
 10
41.60198159360294
 20
17.32658360122464
 30
0.0
 10
39.9352598445877
 20
16.83668649987301
 30
0.0
 10
38.27499999999996
 20
16.30935131046915
 30
0.0
1001
PE_URL
1000

  0
SPLINE
  5
A6
330
1F
100
AcDbEntity
  8
0
  6
Continuous
 62
     1
370
    15
100
AcDbSpline
210
0.0
220
0.0
230
1.0
 70
    24
 71
     3
 72
    10
 73
     6
 74
     0
 42
0.000000001
 43
0.00000001
 40
0.0
 40
0.0
 40
0.0
 40
0.0
 40
0.5
 40
0.5
 40
1.0
 40
1.0
 40
1.0
 40
1.0
 10
43.27499999999998
 20
-0.0000000000000085
 30
0.0
 10
43.27499999999998
 20
1.585610116459099
 30
0.0
 10
43.27499999999998
 20
3.156497691851287
 30
0.0
 10
43.27499999999996
 20
6.176915321786732
 30
0.0
 10
43.27499999999998
 20
7.625879162438546
 30
0.0
 10
43.27499999999998
 20
8.96869967485276
 30
0.0
1001
PE_URL
1000

  0
SPLINE
  5
A7
330
1F
100
AcDbEntity
  8
외형선
  6
Continuous
370
    15
100
AcDbSpline
210
0.0
220
0.0
230
1.0
 70
    24
 71
     3
 72
    11
 73
     7
 74
     0
 42
0.000000001
 43
0.00000001
 40
0.0
 40
0.0
 40
0.0
 40
0.0
 40
0.100380862092477
 40
0.3984844253834809
 40
0.6965879886744848
 40
1.0
 40
1.0
 40
1.0
 40
1.0
 10
1.999999999999988
 20
17.49297121604963
 30
0.0
 10
1.999999999999988
 20
17.49746685193515
 30
0.0
 10
1.999999999999988
 20
17.51531329044177
 30
0.0
 10
1.999999999999988
 20
17.34644237239803
 30
0.0
 10
1.999999999999988
 20
16.99794897340642
 30
0.0
 10
1.999999999999988
 20
16.59258903395141
 30
0.0
 10
1.99999999999999
 20
16.38812038886397
 30
0.0
  0
SPLINE
  5
A8
330
1F
100
AcDbEntity
  8
외형선
  6
Continuous
370
    15
100
AcDbSpline
210
0.0
220
0.0
230
1.0
 70
    24
 71
     3
 72
    14
 73
    10
 74
     0
 42
0.000000001
 43
0.00000001
 40
0.0
 40
0.0
 40
0.0
 40
0.0
 40
0.0357646818915792
 40
0.2087613943459702
 40
0.3768740698489403
 40
0.5449867453519106
 40
0.7179834578063016
 40
0.8909801702606926
 40
1.0
 40
1.0
 40
1.0
 40
1.0
 10
1.999999999999988
 20
-14.21807848711176
 30
0.0
 10
1.999999999999988
 20
-14.3000616171563
 30
0.0
 10
1.999999999999988
 20
-14.77860390065347
 30
0.0
 10
1.999999999999988
 20
-15.4686603604352
 30
0.0
 10
1.999999999999988
 20
-16.27279801081254
 30
0.0
 10
1.999999999999988
 20
-16.87884573270866
 30
0.0
 10
1.999999999999988
 20
-17.29084310909649
 30
0.0
 10
1.999999999999988
 20
-17.50376529960639
 30
0.0
 10
1.999999999999988
 20
-17.49575331981286
 30
0.0
 10
1.999999999999988
 20
-17.49265610903873
 30
0.0
  0
LINE
  5
A9
330
1F
100
AcDbEntity
  8
0
  6
Continuous
 62
     1
370
    15
100
AcDbLine
 10
43.27499999999998
 20
8.996481901197384
 30
0.0
 11
43.27499999999998
 21
17.77999999999999
 31
0.0
1001
PE_URL
1000

  0
SPLINE
  5
AA
330
1F
100
AcDbEntity
  8
0
  6
Continuous
 62
     1
370
    15
100
AcDbSpline
210
0.0
220
0.0
230
1.0
 70
     8
 71
     3
 72
    18
 73
    14
 74
     0
 42
0.000000001
 43
0.00000001
 40
0.0
 40
0.0
 40
0.0
 40
0.0
 40
0.0483196176462757
 40
0.1641503699914157
 40
0.2799811515431567
 40
0.3688515872068347
 40
0.4577220173314656
 40
0.5470370496576963
 40
0.6363520722794442
 40
0.7270277351201171
 40
0.8177033791416071
 40
0.9088517049133698
 40
1.0
 40
1.0
 40
1.0
 40
1.0
 10
8.33788290610182
 20
17.02625564878984
 30
0.0
 10
8.900592102935711
 20
17.27128686079911
 30
0.0
 10
10.8122157323701
 20
18.10370164531193
 30
0.0
 10
14.07284853791212
 20
19.36876973164867
 30
0.0
 10
17.80619447623222
 20
20.69599339244127
 30
0.0
 10
21.22501317144489
 20
21.772891933867
 30
0.0
 10
24.33493886418173
 20
22.64589542924942
 30
0.0
 10
27.45031794899532
 20
23.40611021928157
 30
0.0
 10
30.58631600196405
 20
24.05360395614236
 30
0.0
 10
33.73865908651125
 20
24.58145675679701
 30
0.0
 10
36.91171170235294
 20
24.98314498293362
 30
0.0
 10
40.09092852942803
 20
25.26449334507595
 30
0.0
 10
42.21364296224483
 20
25.34051932384631
 30
0.0
 10
43.27499999999998
 20
25.37853230683294
 30
0.0
1001
PE_URL
1000

  0
SPLINE
  5
AB
330
1F
100
AcDbEntity
  8
0
  6
Continuous
 62
     1
370
    15
100
AcDbSpline
210
0.0
220
0.0
230
1.0
 70
    24
 71
     3
 72
    14
 73
    10
 74
     0
 42
0.000000001
 43
0.00000001
 40
0.0
 40
0.0
 40
0.0
 40
0.0
 40
0.25
 40
0.25
 40
0.5
 40
0.5
 40
0.75
 40
0.75
 40
1.0
 40
1.0
 40
1.0
 40
1.0
 10
43.27499999999998
 20
17.77999999999999
 30
0.0
 10
43.27499999999998
 20
18.31888966145288
 30
0.0
 10
43.27499999999998
 20
18.90012989484099
 30
0.0
 10
43.27499999999998
 20
20.12433773570245
 30
0.0
 10
43.27499999999998
 20
20.76718330402
 30
0.0
 10
43.27499999999999
 20
22.08103249361048
 30
0.0
 10
43.27499999999999
 20
22.7518150940122
 30
0.0
 10
43.27499999999999
 20
24.08266931494267
 30
0.0
 10
43.27499999999996
 20
24.74249878809515
 30
0.0
 10
43.27499999999998
 20
25.37853230683293
 30
0.0
1001
PE_URL
1000

  0
LINE
  5
AC
330
1F
100
AcDbEntity
  8
중심선
 62
     1
100
AcDbLine
 10
-68.50000000000003
 20
-0.0000000000000096
 30
0.0
 11
50.27499999999998
 21
0.0000000000000039
 31
0.0
  0
LINE
  5
AD
330
1F
100
AcDbEntity
  8
참조1
100
AcDbLine
 10
-2.762500000000021
 20
-0.0000000000000073
 30
0.0
 11
-2.762500000000016
 21
-40.00000000000001
 31
0.0
  0
LINE
  5
AE
330
1F
100
AcDbEntity
  8
참조1
100
AcDbLine
 10
-2.762500000000016
 20
-40.00000000000001
 30
0.0
 11
-24.2713318143087
 21
-40.0
 31
0.0
  0
INSERT
  5
B0
330
1F
100
AcDbEntity
  8
0
  6
Continuous
 62
     7
100
AcDbBlockReference
 66
     1
  2
블럭10
 10
-16.70277293212523
 20
-52.04717430164393
 30
0.0
  0
ATTRIB
  5
B1
330
B0
100
AcDbEntity
  8
FORMAT
 62
     2
100
AcDbText
 10
-25.88406822086651
 20
-49.97180738881175
 30
0.0
 40
4.233333333333333
  1
E1030200 [ 2 FLUTE ]
 41
0.75
  7
SLDTEXTSTYLE0
 11
-25.88406822086651
 21
-52.08847405547841
 31
0.0
100
AcDbAttribute
  2
AUTOATTR0
 70
     0
 74
     1
  0
SEQEND
  5
B2
330
B0
100
AcDbEntity
  8
0
  6
Continuous
 62
     7
  0
HATCH
  5
B3
330
1F
100
AcDbEntity
  8
중심선
100
AcDbHatch
 10
0.0
 20
0.0
 30
0.0
210
0.0
220
0.0
230
1.0
  2
SOLID
 70
     1
 71
     0
 91
        1
 92
        0
 93
        4
 72
     1
 10
-10.98786362774439
 20
-35.8
 11
-14.43413887158167
 21
-35.8
 72
     1
 10
-14.43413887158167
 20
-35.8
 11
-16.56236873078569
 21
-38.3363255805726
 72
     1
 10
-16.56236873078569
 20
-38.3363255805726
 11
-13.11606040183526
 21
-38.33628615127011
 72
     1
 10
-13.11606040183526
 20
-38.33628615127011
 11
-10.98786362774439
 21
-35.8
 97
        0
 75
     0
 76
     1
 98
        1
 10
-1.740578832126957
 20
-0.0010749287238965
  0
HATCH
  5
B4
330
1F
100
AcDbEntity
  8
중심선
100
AcDbHatch
 10
0.0
 20
0.0
 30
0.0
210
0.0
220
0.0
230
1.0
  2
SOLID
 70
     1
 71
     0
 91
        1
 92
        0
 93
        4
 72
     1
 10
-5.975099636708405
 20
-35.8
 11
-9.421374880545688
 21
-35.8
 72
     1
 10
-9.421374880545688
 20
-35.8
 11
-13.9525128889031
 21
-41.20000000000002
 72
     1
 10
-13.9525128889031
 20
-41.20000000000002
 11
-10.50623764506582
 21
-41.20000000000002
 72
     1
 10
-10.50623764506582
 20
-41.20000000000002
 11
-5.975099636708405
 21
-35.8
 97
        0
 75
     0
 76
     1
 98
        1
 10
-1.740578832126957
 20
-0.0010749287238965
  0
HATCH
  5
B5
330
1F
100
AcDbEntity
  8
중심선
100
AcDbHatch
 10
0.0
 20
0.0
 30
0.0
210
0.0
220
0.0
230
1.0
  2
SOLID
 70
     1
 71
     0
 91
        1
 92
        0
 93
        4
 72
     1
 10
-0.9623356456725376
 20
-35.8
 11
-4.408610889509625
 21
-35.8
 72
     1
 10
-4.408610889509625
 20
-35.8
 11
-11.4570477913989
 21
-44.20000000000002
 72
     1
 10
-11.4570477913989
 20
-44.20000000000002
 11
-8.01077254756162
 21
-44.20000000000002
 72
     1
 10
-8.01077254756162
 20
-44.20000000000002
 11
-0.9623356456725372
 21
-35.8
 97
        0
 75
     0
 76
     1
 98
        1
 10
-1.740578832126957
 20
-0.0010749287238965
  0
HATCH
  5
B6
330
1F
100
AcDbEntity
  8
중심선
100
AcDbHatch
 10
0.0
 20
0.0
 30
0.0
210
0.0
220
0.0
230
1.0
  2
SOLID
 70
     1
 71
     0
 91
        1
 92
        0
 93
        6
 72
     3
 10
3.837554785339662
 20
-40.00000000005127
 11
3.960054785062284
 21
1.540882976769353E-10
 40
0.3939339440162627
 50
17.09539180608437
 51
320.0019657685086
 73
     0
 72
     1
 10
5.520554441040257
 20
-38.58789400463833
 11
7.825856314741323
 21
-36.65356729459038
 72
     3
 10
3.837554785286815
 20
-40.00000000000015
 11
6.60005478528683
 21
-1.278976924368180E-13
 40
0.636358354079598
 50
39.99873849337385
 51
368.4976242363725
 73
     1
 72
     1
 10
10.26288727718742
 20
-39.03999999993002
 11
2.517622092122737
 21
-39.03999999993002
 72
     1
 10
2.517622092122737
 20
-39.03999999993002
 11
2.517597047676803
 21
-40.95999999992991
 72
     1
 10
2.517597047676803
 20
-40.95999999992991
 11
6.958976817148841
 21
-40.95999999992988
 97
        0
 75
     0
 76
     1
 98
        1
 10
-1.740578832126957
 20
-0.0010749287238965
  0
DIMENSION
  5
B7
330
1F
100
AcDbEntity
  8
치수문자_일반주서
100
AcDbDimension
  2
_D
 10
-76.49999999999989
 20
-15.87500000000007
 30
0.0
 11
-76.50000000000009
 21
37.74999999999987
 31
0.0
 70
   160
  1
%%c<>
 71
     2
 42
31.74999999999995
 52
-270.0
  3
SLDDIMSTYLE2
100
AcDbAlignedDimension
 13
-46.89500000000004
 23
15.87499999999998
 33
0.0
 14
-60.43750000000001
 24
-15.87500000000002
 34
0.0
 50
90.0000000000002
100
AcDbRotatedDimension
1001
PE_URL
1000

1001
ACAD
1000
DSTYLE
1002
{
1070
   171
1070
     8
1070
   273
1070
     7
1070
    41
1040
4.0
1070
   140
1040
4.0
1002
}
1001
ACAD_DSTYLE_DIMFLIPARROW_SYMBOL
1070
   385
1070
     0
1001
ACAD_DSTYLE_DIMFLIPARROW_WHICH_SYMBOL
1070
   386
1070
     3
  0
DIMENSION
  5
C5
330
1F
100
AcDbEntity
  8
치수문자_일반주서
100
AcDbDimension
  2
_D_1
 10
1.999999999999982
 20
30.87499999999999
 30
0.0
 11
22.63749999999998
 21
30.87499999999999
 31
0.0
 70
   160
  1
<>
 71
     2
 42
41.275
  3
SLDDIMSTYLE2
100
AcDbAlignedDimension
 13
43.27499999999998
 23
25.37853230683294
 33
0.0
 14
1.999999999999981
 24
5.47284932406939
 34
0.0
100
AcDbRotatedDimension
1001
PE_URL
1000

1001
ACAD
1000
DSTYLE
1002
{
1070
   171
1070
     8
1070
   273
1070
     7
1070
    41
1040
4.0
1070
   140
1040
4.0
1002
}
  0
DIMENSION
  5
DB
330
1F
100
AcDbEntity
  8
치수문자_일반주서
100
AcDbDimension
  2
_D_2
 10
-61.50000000000003
 20
45.87499999999999
 30
0.0
 11
-9.112500000000026
 21
45.87499999999999
 31
0.0
 70
   160
  1
<>
 71
     2
 42
104.775
  3
SLDDIMSTYLE2
100
AcDbAlignedDimension
 13
43.27499999999998
 23
25.37853230683294
 33
0.0
 14
-61.50000000000003
 24
13.97
 34
0.0
 50
0.000000000000008
100
AcDbRotatedDimension
1001
PE_URL
1000

1001
ACAD
1000
DSTYLE
1002
{
1070
   171
1070
     8
1070
   273
1070
     7
1070
    41
1040
4.0
1070
   140
1040
4.0
1002
}
  0
DIMENSION
  5
EF
330
1F
100
AcDbEntity
  8
치수문자_일반주서
100
AcDbDimension
  2
_D_3
 10
58.27499999999986
 20
25.37853230683299
 30
0.0
 11
58.2749999999998
 21
42.50353230683299
 31
0.0
 70
   160
  1
%%c<>
 71
     2
 42
50.75706461366586
 52
-270.0
  3
SLDDIMSTYLE2
100
AcDbAlignedDimension
 13
43.27499999999998
 23
-25.37853230683293
 33
0.0
 14
43.27499999999998
 24
25.37853230683293
 34
0.0
 50
90.0000000000002
100
AcDbRotatedDimension
1001
PE_URL
1000

1001
ACAD
1000
DSTYLE
1002
{
1070
   171
1070
     8
1070
   273
1070
     7
1070
    41
1040
4.0
1070
   140
1040
4.0
1002
}
1001
ACAD_DSTYLE_DIMFLIPARROW_SYMBOL
1070
   385
1070
     0
1001
ACAD_DSTYLE_DIMFLIPARROW_WHICH_SYMBOL
1070
   386
1070
     3
  0
LINE
  5
103
330
1F
100
AcDbEntity
  8
참조1
100
AcDbLine
 10
73.70100881534557
 20
7.44
 30
0.0
 11
73.70100881534557
 21
-7.440000000000005
 31
0.0
  0
LINE
  5
104
330
1F
100
AcDbEntity
  8
참조1
100
AcDbLine
 10
86.40100881534558
 20
5.44
 30
0.0
 11
73.70100881534557
 21
5.44
 31
0.0
  0
SOLID
  5
105
330
1F
100
AcDbEntity
  8
참조1
100
AcDbTrace
 10
73.70100881534557
 20
5.44
 30
0.0
 11
80.05100881534557
 21
4.423999999999999
 31
0.0
 12
80.05100881534557
 22
6.456
 32
0.0
 13
80.05100881534557
 23
6.456
 33
0.0
  0
LINE
  5
106
330
1F
100
AcDbEntity
  8
참조1
100
AcDbLine
 10
86.40100881534558
 20
-5.440000000000005
 30
0.0
 11
73.70100881534557
 21
-5.440000000000005
 31
0.0
  0
SOLID
  5
107
330
1F
100
AcDbEntity
  8
참조1
100
AcDbTrace
 10
73.70100881534557
 20
-5.440000000000005
 30
0.0
 11
80.05100881534557
 21
-6.456000000000005
 31
0.0
 12
80.05100881534557
 22
-4.424000000000005
 32
0.0
 13
80.05100881534557
 23
-4.424000000000005
 33
0.0
  0
MTEXT
  5
108
330
1F
100
AcDbEntity
  8
참조1
100
AcDbMText
 10
83.08535894797156
 20
11.01029177718833
 30
0.0
 40
3.5
 41
0.0
 71
     1
 72
     1
  1
A
  7
SLDTEXTSTYLE0
 73
     1
 44
1.0
  0
MTEXT
  5
109
330
1F
100
AcDbEntity
  8
참조1
100
AcDbMText
 10
83.08535894797156
 20
0.1302917771883236
 30
0.0
 40
3.5
 41
0.0
 71
     1
 72
     1
  1
A
  7
SLDTEXTSTYLE0
 73
     1
 44
1.0
  0
SPLINE
  5
18A
330
1F
100
AcDbEntity
  8
외형선
  6
Continuous
370
    15
100
AcDbSpline
210
0.0
220
0.0
230
1.0
 70
    24
 71
     3
 72
     8
 73
     4
 74
     0
 42
0.000000001
 43
0.00000001
 40
0.0
 40
0.0
 40
0.0
 40
0.0
 40
1.0
 40
1.0
 40
1.0
 40
1.0
 10
1.999999999999972
 20
2.58600317658142
 30
0.0
 10
1.999999999999972
 20
2.464529104552762
 30
0.0
 10
1.999999999999972
 20
2.268408457578156
 30
0.0
 10
1.999999999999972
 20
2.000423427877591
 30
0.0
  0
LINE
  5
18B
330
1F
100
AcDbEntity
  8
외형선
  6
Continuous
370
    15
100
AcDbLine
 10
1.999999999999972
 20
-2.868439214036245
 30
0.0
 11
1.999999999999972
 21
2.000423427880405
 31
0.0
  0
SPLINE
  5
18C
330
1F
100
AcDbEntity
  8
외형선
  6
Continuous
370
    15
100
AcDbSpline
210
0.0
220
0.0
230
1.0
 70
    24
 71
     3
 72
    14
 73
    10
 74
     0
 42
0.000000001
 43
0.00000001
 40
0.0
 40
0.0
 40
0.0
 40
0.0
 40
0.25
 40
0.25
 40
0.5
 40
0.5
 40
0.75
 40
0.75
 40
1.0
 40
1.0
 40
1.0
 40
1.0
 10
1.999999999999972
 20
13.67426650302473
 30
0.0
 10
1.999999999999972
 20
13.24811946257553
 30
0.0
 10
1.999999999999972
 20
12.6760027089913
 30
0.0
 10
1.999999999999972
 20
11.24974388296437
 30
0.0
 10
1.999999999999972
 20
10.39568219519118
 30
0.0
 10
1.999999999999972
 20
8.457733453098564
 30
0.0
 10
1.999999999999972
 20
7.374406019547296
 30
0.0
 10
1.999999999999972
 20
5.063366746192907
 30
0.0
 10
1.999999999999972
 20
3.836432004151944
 30
0.0
 10
1.999999999999972
 20
2.586003176581427
 30
0.0
  0
SPLINE
  5
18D
330
1F
100
AcDbEntity
  8
외형선
  6
Continuous
370
    15
100
AcDbSpline
210
0.0
220
0.0
230
1.0
 70
    24
 71
     3
 72
    19
 73
    15
 74
     0
 42
0.000000001
 43
0.00000001
 40
0.0
 40
0.0
 40
0.0
 40
0.0
 40
0.0601676081337111
 40
0.1445939507462632
 40
0.2314730612762812
 40
0.3183521718062992
 40
0.4027785144188513
 40
0.4872048570314035
 40
0.5740839675614213
 40
0.6609630780914393
 40
0.7445340734226613
 40
0.8281050687538833
 40
0.9140525343769417
 40
1.0
 40
1.0
 40
1.0
 40
1.0
 10
1.999999999999972
 20
-2.912408393726723
 30
0.0
 10
1.999999999999972
 20
-3.254453086296552
 30
0.0
 10
1.999999999999972
 20
-4.076450087083971
 30
0.0
 10
1.999999999999972
 20
-5.31983497808787
 30
0.0
 10
1.999999999999972
 20
-6.638144634755763
 30
0.0
 10
1.999999999999972
 20
-7.86796605499457
 30
0.0
 10
1.999999999999972
 20
-8.992604012995189
 30
0.0
 10
1.999999999999972
 20
-10.01762848746989
 30
0.0
 10
1.999999999999972
 20
-10.94236411808052
 30
0.0
 10
1.999999999999972
 20
-11.74686082211427
 30
0.0
 10
1.999999999999972
 20
-12.42147928126016
 30
0.0
 10
1.999999999999972
 20
-12.97034062893322
 30
0.0
 10
1.999999999999972
 20
-13.40538110893542
 30
0.0
 10
1.999999999999972
 20
-13.58463803832828
 30
0.0
 10
1.999999999999972
 20
-13.67426650302473
 30
0.0
  0
LINE
  5
18E
330
1F
100
AcDbEntity
  8
외형선
  6
Continuous
370
    15
100
AcDbLine
 10
1.999999999999978
 20
15.87499999999999
 30
0.0
 11
-24.06992500000001
 21
15.87499999999999
 31
0.0
  0
LINE
  5
18F
330
1F
100
AcDbEntity
  8
외형선
  6
Continuous
370
    15
100
AcDbLine
 10
-60.50000000000001
 20
-15.87500000000002
 30
0.0
 11
1.999999999999988
 21
-15.875
 31
0.0
  0
LINE
  5
190
330
1F
100
AcDbEntity
  8
외형선
  6
Continuous
370
    15
100
AcDbLine
 10
-61.50000000000003
 20
-14.87499999999999
 30
0.0
 11
-60.50000000000001
 21
-15.87499999999999
 31
0.0
  0
LINE
  5
192
330
1F
100
AcDbEntity
  8
외형선
  6
Continuous
370
    15
100
AcDbLine
 10
2.0
 20
-0.5314138600008405
 30
0.0
 11
2.0
 21
-0.7738545373127166
 31
0.0
  0
LINE
  5
196
330
1F
100
AcDbEntity
  8
외형선
  6
Continuous
370
    15
100
AcDbLine
 10
2.0
 20
3.946614535943981
 30
0.0
 11
2.0
 21
-0.453607832853423
 31
0.0
  0
LINE
  5
199
330
1F
100
AcDbEntity
  8
외형선
  6
Continuous
370
    15
100
AcDbLine
 10
-60.50000000000001
 20
13.97
 30
0.0
 11
-60.50000000000001
 21
-15.87500000000002
 31
0.0
  0
LINE
  5
19A
330
1F
100
AcDbEntity
  8
외형선
  6
Continuous
370
    15
100
AcDbLine
 10
-61.50000000000003
 20
13.97
 30
0.0
 11
-61.50000000000003
 21
-14.87499999999999
 31
0.0
  0
SPLINE
  5
19B
330
1F
100
AcDbEntity
  8
외형선
  6
Continuous
370
    15
100
AcDbSpline
210
0.0
220
0.0
230
1.0
 70
    24
 71
     3
 72
    11
 73
     7
 74
     0
 42
0.000000001
 43
0.00000001
 40
0.0
 40
0.0
 40
0.0
 40
0.0
 40
0.0823041583770279
 40
0.330386082657111
 40
0.8244444445770203
 40
1.0
 40
1.0
 40
1.0
 40
1.0
 10
2.0
 20
4.132058598373478
 30
0.0
 10
2.0
 20
4.131579337312887
 30
0.0
 10
2.0
 20
4.129655483312058
 30
0.0
 10
2.0
 20
4.09815677564074
 30
0.0
 10
2.0
 20
4.037020422010132
 30
0.0
 10
2.0
 20
3.965393320621191
 30
0.0
 10
2.0
 20
3.946614535948422
 30
0.0
  0
SPLINE
  5
19F
330
1F
100
AcDbEntity
  8
외형선
  6
Continuous
370
    15
100
AcDbSpline
210
0.0
220
0.0
230
1.0
 70
    24
 71
     3
 72
    17
 73
    13
 74
     0
 42
0.000000001
 43
0.00000001
 40
0.0
 40
0.0
 40
0.0
 40
0.0
 40
0.1313580261013513
 40
0.2627160522027026
 40
0.3590253798081519
 40
0.455334707413601
 40
0.5544420293605489
 40
0.6535493513074967
 40
0.7406183468884215
 40
0.8276873424693466
 40
0.916804288052325
 40
1.0
 40
1.0
 40
1.0
 40
1.0
 10
2.0
 20
12.66916838106827
 30
0.0
 10
2.0
 20
12.52596852133816
 30
0.0
 10
2.0
 20
12.23956880187789
 30
0.0
 10
2.0
 20
11.59905215273748
 30
0.0
 10
2.0
 20
10.88663460064065
 30
0.0
 10
2.0
 20
10.13578412132074
 30
0.0
 10
2.0
 20
9.273352987290766
 30
0.0
 10
2.0
 20
8.341553286000535
 30
0.0
 10
2.0
 20
7.36836976859839
 30
0.0
 10
2.0
 20
6.362407772971222
 30
0.0
 10
2.0
 20
5.313601434760466
 30
0.0
 10
2.0
 20
4.570757910675477
 30
0.0
 10
2.0
 20
4.212099430575273
 30
0.0
  0
SPLINE
  5
1A1
330
1F
100
AcDbEntity
  8
외형선
  6
Continuous
370
    15
100
AcDbSpline
210
0.0
220
0.0
230
1.0
 70
    24
 71
     3
 72
    14
 73
    10
 74
     0
 42
0.000000001
 43
0.00000001
 40
0.0
 40
0.0
 40
0.0
 40
0.0
 40
0.25
 40
0.25
 40
0.5
 40
0.5
 40
0.75
 40
0.75
 40
1.0
 40
1.0
 40
1.0
 40
1.0
 10
2.0
 20
-0.7738545373127166
 30
0.0
 10
2.0
 20
-2.123710599937881
 30
0.0
 10
2.0
 20
-3.468575573474511
 30
0.0
 10
2.0
 20
-6.010654175805842
 30
0.0
 10
2.0
 20
-7.206344885641231
 30
0.0
 10
2.0
 20
-9.320485110779531
 30
0.0
 10
2.0
 20
-10.23780812378205
 30
0.0
 10
2.0
 20
-11.71921585877856
 30
0.0
 10
2.0
 20
-12.28326743127755
 30
0.0
 10
2.0
 20
-12.6691683810683
 30
0.0
  0
SPLINE
  5
1A2
330
1F
100
AcDbEntity
  8
외형선
  6
Continuous
370
    15
100
AcDbSpline
210
0.0
220
0.0
230
1.0
 70
    24
 71
     3
 72
    12
 73
     8
 74
     0
 42
0.000000001
 43
0.00000001
 40
0.0
 40
0.0
 40
0.0
 40
0.0
 40
0.0864847977554923
 40
0.3334174136468478
 40
0.5791958706366193
 40
0.8252577544266632
 40
1.0
 40
1.0
 40
1.0
 40
1.0
 10
2.0
 20
4.132175635189983
 30
0.0
 10
2.0
 20
4.131679582684351
 30
0.0
 10
2.0
 20
4.129767194059385
 30
0.0
 10
2.0
 20
4.107581530131307
 30
0.0
 10
2.0
 20
4.065320096429831
 30
0.0
 10
2.0
 20
4.010593567145635
 30
0.0
 10
2.0
 20
3.965386944028639
 30
0.0
 10
2.0
 20
3.946614535948422
 30
0.0
  0
LINE
  5
1A3
330
1F
100
AcDbEntity
  8
외형선
  6
Continuous
370
    15
100
AcDbLine
 10
2.0
 20
-0.5314138600008405
 30
0.0
 11
2.0
 21
-0.7738545373127166
 31
0.0
  0
SPLINE
  5
1A4
330
1F
100
AcDbEntity
  8
외형선
  6
Continuous
370
    15
100
AcDbSpline
210
0.0
220
0.0
230
1.0
 70
    24
 71
     3
 72
    17
 73
    13
 74
     0
 42
0.000000001
 43
0.00000001
 40
0.0
 40
0.0
 40
0.0
 40
0.0
 40
0.1305123694726852
 40
0.2627180348991967
 40
0.3590271035105814
 40
0.4553361721219662
 40
0.5544432275505119
 40
0.6535502829790576
 40
0.7406190444149251
 40
0.8276878058507925
 40
0.9168045117813872
 40
1.0
 40
1.0
 40
1.0
 40
1.0
 10
2.0
 20
12.66916838106827
 30
0.0
 10
2.0
 20
12.52719636435633
 30
0.0
 10
2.0
 20
12.24141035501532
 30
0.0
 10
2.0
 20
11.60081709327883
 30
0.0
 10
2.0
 20
10.8866576774552
 30
0.0
 10
2.0
 20
10.13577773567579
 30
0.0
 10
2.0
 20
9.273354726452334
 30
0.0
 10
2.0
 20
8.34155288259676
 30
0.0
 10
2.0
 20
7.368369870626038
 30
0.0
 10
2.0
 20
6.362407744985267
 30
0.0
 10
2.0
 20
5.313601441280126
 30
0.0
 10
2.0
 20
4.570757912798333
 30
0.0
 10
2.0
 20
4.212099430575273
 30
0.0
  0
SPLINE
  5
1A5
330
1F
100
AcDbEntity
  8
외형선
  6
Continuous
370
    15
100
AcDbSpline
210
0.0
220
0.0
230
1.0
 70
    24
 71
     3
 72
    14
 73
    10
 74
     0
 42
0.000000001
 43
0.00000001
 40
0.0
 40
0.0
 40
0.0
 40
0.0
 40
0.25
 40
0.25
 40
0.5
 40
0.5
 40
0.75
 40
0.75
 40
1.0
 40
1.0
 40
1.0
 40
1.0
 10
2.0
 20
-0.7738545373127166
 30
0.0
 10
2.0
 20
-2.123710599937881
 30
0.0
 10
2.0
 20
-3.468575573474511
 30
0.0
 10
2.0
 20
-6.010654175805842
 30
0.0
 10
2.0
 20
-7.206344885641231
 30
0.0
 10
2.0
 20
-9.320485110779531
 30
0.0
 10
2.0
 20
-10.23780812378205
 30
0.0
 10
2.0
 20
-11.71921585877856
 30
0.0
 10
2.0
 20
-12.28326743127755
 30
0.0
 10
2.0
 20
-12.6691683810683
 30
0.0
  0
CIRCLE
  5
1A6
330
1F
100
AcDbEntity
  8
해칭선
100
AcDbCircle
 10
0.0
 20
0.0
 30
0.0
 40
2.999999999999993
  0
INSERT
  5
1A7
330
1F
100
AcDbEntity
  8
해칭선
100
AcDbBlockReference
  2
SW_DOWELSYMBOL_0
 10
0.0
 20
0.0
 30
0.0
  0
LINE
  5
1A8
330
1F
100
AcDbEntity
  8
외형선
  6
Continuous
370
    15
100
AcDbLine
 10
-39.08132499999994
 20
13.97
 30
0.0
 11
-25.97492500000004
 21
13.97
 31
0.0
1001
PE_URL
1000

  0
LINE
  5
1A9
330
1F
100
AcDbEntity
  8
외형선
  6
Continuous
370
    15
100
AcDbLine
 10
-39.08132499999994
 20
13.97
 30
0.0
 11
-40.98632499999991
 21
15.87499999999999
 31
0.0
1001
PE_URL
1000

  0
LINE
  5
1AA
330
1F
100
AcDbEntity
  8
외형선
  6
Continuous
370
    15
100
AcDbLine
 10
-25.97492500000004
 20
13.97
 30
0.0
 11
-24.06992500000001
 21
15.87499999999999
 31
0.0
1001
PE_URL
1000

  0
LINE
  5
1AB
330
1F
100
AcDbEntity
  8
외형선
  6
Continuous
370
    15
100
AcDbLine
 10
-61.50000000000003
 20
13.97
 30
0.0
 11
-48.80000000000001
 21
13.97
 31
0.0
1001
PE_URL
1000

  0
LINE
  5
1AC
330
1F
100
AcDbEntity
  8
외형선
  6
Continuous
370
    15
100
AcDbLine
 10
-48.80000000000001
 20
13.97
 30
0.0
 11
-46.89500000000004
 21
15.87499999999998
 31
0.0
1001
PE_URL
1000

  0
LINE
  5
1AD
330
1F
100
AcDbEntity
  8
외형선
  6
Continuous
370
    15
100
AcDbLine
 10
-40.98632499999989
 20
15.87499999999999
 30
0.0
 11
-46.89500000000004
 21
15.87499999999998
 31
0.0
  0
ENDSEC
  0
SECTION
  2
OBJECTS
  0
DICTIONARY
  5
C
330
0
100
AcDbDictionary
281
     1
  3
ACAD_DETAILVIEWSTYLE
350
206
  3
ACAD_GROUP
350
D
  3
ACAD_LAYOUT
350
1A
  3
ACAD_MLINESTYLE
350
17
  3
ACAD_PLOTSETTINGS
350
19
  3
ACAD_PLOTSTYLENAME
350
E
  3
ACAD_SCALELIST
350
47
  3
ACAD_SECTIONVIEWSTYLE
350
207
  3
AcDbVariableDictionary
350
201
  3
APPDATA
350
132
  3
DWGPROPS
350
214
  0
DICTIONARY
  5
185
330
2
100
AcDbDictionary
280
     1
281
     1
  3
ACAD_LAYERSTATES
360
186
  0
DICTIONARY
  5
206
102
{ACAD_REACTORS
330
C
102
}
330
C
100
AcDbDictionary
281
     1
  0
DICTIONARY
  5
D
102
{ACAD_REACTORS
330
C
102
}
330
C
100
AcDbDictionary
281
     1
  0
DICTIONARY
  5
1A
102
{ACAD_REACTORS
330
C
102
}
330
C
100
AcDbDictionary
281
     1
  3
Layout1
350
1E
  3
Layout2
350
26
  3
Model
350
22
  0
DICTIONARY
  5
17
102
{ACAD_REACTORS
330
C
102
}
330
C
100
AcDbDictionary
281
     1
  3
Standard
350
18
  0
DICTIONARY
  5
19
102
{ACAD_REACTORS
330
C
102
}
330
C
100
AcDbDictionary
281
     1
  0
ACDBDICTIONARYWDFLT
  5
E
102
{ACAD_REACTORS
330
C
102
}
330
C
100
AcDbDictionary
281
     1
  3
Normal
350
F
100
AcDbDictionaryWithDefault
340
F
  0
DICTIONARY
  5
47
102
{ACAD_REACTORS
330
C
102
}
330
C
100
AcDbDictionary
281
     1
  3
A0
350
48
  3
A1
350
49
  3
A2
350
4A
  3
A3
350
4B
  3
A4
350
4C
  3
A5
350
4D
  3
A6
350
4E
  3
A7
350
4F
  3
A8
350
50
  3
A9
350
51
  3
B0
350
52
  3
B1
350
53
  3
B2
350
54
  3
B3
350
55
  3
B4
350
56
  3
B5
350
57
  3
B6
350
58
  3
B7
350
59
  3
B8
350
5A
  3
B9
350
5B
  3
C0
350
5C
  3
C1
350
5D
  3
C2
350
5E
  3
C3
350
5F
  3
C4
350
60
  3
C5
350
61
  3
C6
350
62
  3
C7
350
63
  3
C8
350
64
  3
C9
350
65
  3
D0
350
66
  3
D1
350
67
  3
D2
350
68
  0
DICTIONARY
  5
207
102
{ACAD_REACTORS
330
C
102
}
330
C
100
AcDbDictionary
281
     1
  0
DICTIONARY
  5
201
102
{ACAD_REACTORS
330
C
102
}
330
C
100
AcDbDictionary
281
     1
  0
DICTIONARY
  5
132
102
{ACAD_REACTORS
330
C
102
}
330
C
100
AcDbDictionary
281
     1
  0
XRECORD
  5
214
102
{ACAD_REACTORS
330
C
102
}
330
C
100
AcDbXrecord
280
     1
  1
DWGPROPS COOKIE
  2

  3

  4

  6

  7

  8
120170442
  9

300
=
301
=
302
=
303
=
304
=
305
=
306
=
307
=
308
=
309
=
 40
0.0
 41
2458311.190001713
 42
2458321.131626169
  1

 90
        0
  0
DICTIONARY
  5
186
102
{ACAD_REACTORS
330
185
102
}
330
185
100
AcDbDictionary
281
     1
  0
LAYOUT
  5
1E
102
{ACAD_REACTORS
330
1A
102
}
330
1A
100
AcDbPlotSettings
  1

  2
none_device
  4

  6

 40
0.0
 41
0.0
 42
0.0
 43
0.0
 44
0.0
 45
0.0
 46
0.0
 47
0.0
 48
0.0
 49
0.0
140
0.0
141
0.0
142
1.0
143
1.0
 70
   688
 72
     1
 73
     0
 74
     5
  7

 75
    16
147
1.0
148
0.0
149
0.0
100
AcDbLayout
  1
Layout1
 70
     1
 71
     1
 10
0.0
 20
0.0
 11
420.0
 21
297.0
 12
0.0
 22
0.0
 32
0.0
 14
1.000000000000000E+20
 24
1.000000000000000E+20
 34
1.000000000000000E+20
 15
-1.000000000000000E+20
 25
-1.000000000000000E+20
 35
-1.000000000000000E+20
146
0.0
 13
0.0
 23
0.0
 33
0.0
 16
1.0
 26
0.0
 36
0.0
 17
0.0
 27
1.0
 37
0.0
 76
     0
330
1B
  0
LAYOUT
  5
26
102
{ACAD_REACTORS
330
1A
102
}
330
1A
100
AcDbPlotSettings
  1

  2
none_device
  4

  6

 40
0.0
 41
0.0
 42
0.0
 43
0.0
 44
0.0
 45
0.0
 46
0.0
 47
0.0
 48
0.0
 49
0.0
140
0.0
141
0.0
142
1.0
143
1.0
 70
   688
 72
     1
 73
     0
 74
     5
  7

 75
    16
147
1.0
148
0.0
149
0.0
100
AcDbLayout
  1
Layout2
 70
     1
 71
     2
 10
0.0
 20
0.0
 11
0.0
 21
0.0
 12
0.0
 22
0.0
 32
0.0
 14
0.0
 24
0.0
 34
0.0
 15
0.0
 25
0.0
 35
0.0
146
0.0
 13
0.0
 23
0.0
 33
0.0
 16
1.0
 26
0.0
 36
0.0
 17
0.0
 27
1.0
 37
0.0
 76
     0
330
23
  0
LAYOUT
  5
22
102
{ACAD_REACTORS
330
1A
102
}
330
1A
100
AcDbPlotSettings
  1

  2
none_device
  4
ANSI_A_(11.00_x_8.50_Inches)
  6

 40
6.35
 41
19.05
 42
6.35000508
 43
19.05000254
 44
279.4
 45
215.9
 46
114.4427324605555
 47
61.8794338955786
 48
0.0
 49
0.0
140
0.0
141
0.0
142
0.0619879117212539
143
1.0
 70
  1696
 72
     0
 73
     0
 74
     0
  7

 75
     0
147
0.0235690232323232
148
0.0
149
0.0
100
AcDbLayout
  1
Model
 70
     1
 71
     0
 10
0.0
 20
0.0
 11
420.0
 21
297.0
 12
0.0
 22
0.0
 32
0.0
 14
-81.37500000000016
 24
-49.97180738881175
 34
0.0
 15
86.40100881534558
 25
55.62853230683299
 35
0.0
146
0.0
 13
0.0
 23
0.0
 33
0.0
 16
1.0
 26
0.0
 36
0.0
 17
0.0
 27
1.0
 37
0.0
 76
     0
330
1F
331
29
  0
MLINESTYLE
  5
18
102
{ACAD_REACTORS
330
17
102
}
330
17
100
AcDbMlineStyle
  2
Standard
 70
     0
  3

 62
   256
 51
90.0
 52
90.0
 71
     2
 49
0.5
 62
   256
  6
BYLAYER
 49
-0.5
 62
   256
  6
BYLAYER
  0
ACDBPLACEHOLDER
  5
F
102
{ACAD_REACTORS
330
E
102
}
330
E
  0
SCALE
  5
48
102
{ACAD_REACTORS
330
47
102
}
330
47
100
AcDbScale
 70
     0
300
1:1
140
1.0
141
1.0
290
     1
  0
SCALE
  5
49
102
{ACAD_REACTORS
330
47
102
}
330
47
100
AcDbScale
 70
     0
300
1:2
140
1.0
141
2.0
290
     0
  0
SCALE
  5
4A
102
{ACAD_REACTORS
330
47
102
}
330
47
100
AcDbScale
 70
     0
300
1:4
140
1.0
141
4.0
290
     0
  0
SCALE
  5
4B
102
{ACAD_REACTORS
330
47
102
}
330
47
100
AcDbScale
 70
     0
300
1:5
140
1.0
141
5.0
290
     0
  0
SCALE
  5
4C
102
{ACAD_REACTORS
330
47
102
}
330
47
100
AcDbScale
 70
     0
300
1:8
140
1.0
141
8.0
290
     0
  0
SCALE
  5
4D
102
{ACAD_REACTORS
330
47
102
}
330
47
100
AcDbScale
 70
     0
300
1:10
140
1.0
141
10.0
290
     0
  0
SCALE
  5
4E
102
{ACAD_REACTORS
330
47
102
}
330
47
100
AcDbScale
 70
     0
300
1:16
140
1.0
141
16.0
290
     0
  0
SCALE
  5
4F
102
{ACAD_REACTORS
330
47
102
}
330
47
100
AcDbScale
 70
     0
300
1:20
140
1.0
141
20.0
290
     0
  0
SCALE
  5
50
102
{ACAD_REACTORS
330
47
102
}
330
47
100
AcDbScale
 70
     0
300
1:30
140
1.0
141
30.0
290
     0
  0
SCALE
  5
51
102
{ACAD_REACTORS
330
47
102
}
330
47
100
AcDbScale
 70
     0
300
1:40
140
1.0
141
40.0
290
     0
  0
SCALE
  5
52
102
{ACAD_REACTORS
330
47
102
}
330
47
100
AcDbScale
 70
     0
300
1:50
140
1.0
141
50.0
290
     0
  0
SCALE
  5
53
102
{ACAD_REACTORS
330
47
102
}
330
47
100
AcDbScale
 70
     0
300
1:100
140
1.0
141
100.0
290
     0
  0
SCALE
  5
54
102
{ACAD_REACTORS
330
47
102
}
330
47
100
AcDbScale
 70
     0
300
2:1
140
2.0
141
1.0
290
     0
  0
SCALE
  5
55
102
{ACAD_REACTORS
330
47
102
}
330
47
100
AcDbScale
 70
     0
300
4:1
140
4.0
141
1.0
290
     0
  0
SCALE
  5
56
102
{ACAD_REACTORS
330
47
102
}
330
47
100
AcDbScale
 70
     0
300
8:1
140
8.0
141
1.0
290
     0
  0
SCALE
  5
57
102
{ACAD_REACTORS
330
47
102
}
330
47
100
AcDbScale
 70
     0
300
10:1
140
10.0
141
1.0
290
     0
  0
SCALE
  5
58
102
{ACAD_REACTORS
330
47
102
}
330
47
100
AcDbScale
 70
     0
300
100:1
140
100.0
141
1.0
290
     0
  0
SCALE
  5
59
102
{ACAD_REACTORS
330
47
102
}
330
47
100
AcDbScale
 70
     0
300
1/128" = 1'-0"
140
0.0078125
141
12.0
290
     0
  0
SCALE
  5
5A
102
{ACAD_REACTORS
330
47
102
}
330
47
100
AcDbScale
 70
     0
300
1/64" = 1'-0"
140
0.015625
141
12.0
290
     0
  0
SCALE
  5
5B
102
{ACAD_REACTORS
330
47
102
}
330
47
100
AcDbScale
 70
     0
300
1/32" = 1'-0"
140
0.03125
141
12.0
290
     0
  0
SCALE
  5
5C
102
{ACAD_REACTORS
330
47
102
}
330
47
100
AcDbScale
 70
     0
300
1/16" = 1'-0"
140
0.0625
141
12.0
290
     0
  0
SCALE
  5
5D
102
{ACAD_REACTORS
330
47
102
}
330
47
100
AcDbScale
 70
     0
300
3/32" = 1'-0"
140
0.09375
141
12.0
290
     0
  0
SCALE
  5
5E
102
{ACAD_REACTORS
330
47
102
}
330
47
100
AcDbScale
 70
     0
300
1/8" = 1'-0"
140
0.125
141
12.0
290
     0
  0
SCALE
  5
5F
102
{ACAD_REACTORS
330
47
102
}
330
47
100
AcDbScale
 70
     0
300
3/16" = 1'-0"
140
0.1875
141
12.0
290
     0
  0
SCALE
  5
60
102
{ACAD_REACTORS
330
47
102
}
330
47
100
AcDbScale
 70
     0
300
1/4" = 1'-0"
140
0.25
141
12.0
290
     0
  0
SCALE
  5
61
102
{ACAD_REACTORS
330
47
102
}
330
47
100
AcDbScale
 70
     0
300
3/8" = 1'-0"
140
0.375
141
12.0
290
     0
  0
SCALE
  5
62
102
{ACAD_REACTORS
330
47
102
}
330
47
100
AcDbScale
 70
     0
300
1/2" = 1'-0"
140
0.5
141
12.0
290
     0
  0
SCALE
  5
63
102
{ACAD_REACTORS
330
47
102
}
330
47
100
AcDbScale
 70
     0
300
3/4" = 1'-0"
140
0.75
141
12.0
290
     0
  0
SCALE
  5
64
102
{ACAD_REACTORS
330
47
102
}
330
47
100
AcDbScale
 70
     0
300
1" = 1'-0"
140
1.0
141
12.0
290
     0
  0
SCALE
  5
65
102
{ACAD_REACTORS
330
47
102
}
330
47
100
AcDbScale
 70
     0
300
1-1/2" = 1'-0"
140
1.5
141
12.0
290
     0
  0
SCALE
  5
66
102
{ACAD_REACTORS
330
47
102
}
330
47
100
AcDbScale
 70
     0
300
3" = 1'-0"
140
3.0
141
12.0
290
     0
  0
SCALE
  5
67
102
{ACAD_REACTORS
330
47
102
}
330
47
100
AcDbScale
 70
     0
300
6" = 1'-0"
140
6.0
141
12.0
290
     0
  0
SCALE
  5
68
102
{ACAD_REACTORS
330
47
102
}
330
47
100
AcDbScale
 70
     0
300
1'-0" = 1'-0"
140
12.0
141
12.0
290
     0
  0
ENDSEC
  0
EOF
