  0
SECTION
  2
HEADER
  9
$ACADVER
  1
AC1015
  9
$ACADMAINTVER
 70
     6
  9
$DWGCODEPAGE
  3
ANSI_949
  9
$INSBASE
 10
0.0
 20
0.0
 30
0.0
  9
$EXTMIN
 10
-75.02500000000009
 20
-49.97180738881175
 30
0.0
  9
$EXTMAX
 10
86.40100881534562
 20
44.77499999999993
 30
0.0
  9
$LIMMIN
 10
0.0
 20
0.0
  9
$LIMMAX
 10
420.0
 20
297.0
  9
$ORTHOMODE
 70
     1
  9
$REGENMODE
 70
     1
  9
$FILLMODE
 70
     1
  9
$QTEXTMODE
 70
     0
  9
$MIRRTEXT
 70
     1
  9
$LTSCALE
 40
1.0
  9
$ATTMODE
 70
     1
  9
$TEXTSIZE
 40
3.5
  9
$TRACEWID
 40
1.0
  9
$TEXTSTYLE
  7
Standard
  9
$CLAYER
  8
0
  9
$CELTYPE
  6
ByLayer
  9
$CECOLOR
 62
   256
  9
$CELTSCALE
 40
1.0
  9
$DISPSILH
 70
     0
  9
$DIMSCALE
 40
1.0
  9
$DIMASZ
 40
3.302
  9
$DIMEXO
 40
1.0
  9
$DIMDLI
 40
3.75
  9
$DIMRND
 40
0.0
  9
$DIMDLE
 40
0.0
  9
$DIMEXE
 40
1.0
  9
$DIMTP
 40
0.0
  9
$DIMTM
 40
0.0
  9
$DIMTXT
 40
3.5
  9
$DIMCEN
 40
2.5
  9
$DIMTSZ
 40
0.0
  9
$DIMTOL
 70
     0
  9
$DIMLIM
 70
     0
  9
$DIMTIH
 70
     1
  9
$DIMTOH
 70
     1
  9
$DIMSE1
 70
     0
  9
$DIMSE2
 70
     0
  9
$DIMTAD
 70
     1
  9
$DIMZIN
 70
     0
  9
$DIMBLK
  1

  9
$DIMASO
 70
     1
  9
$DIMSHO
 70
     1
  9
$DIMPOST
  1

  9
$DIMAPOST
  1

  9
$DIMALT
 70
     0
  9
$DIMALTD
 70
     3
  9
$DIMALTF
 40
0.0393700787401575
  9
$DIMLFAC
 40
1.0
  9
$DIMTOFL
 70
     1
  9
$DIMTVP
 40
0.0
  9
$DIMTIX
 70
     0
  9
$DIMSOXD
 70
     0
  9
$DIMSAH
 70
     0
  9
$DIMBLK1
  1

  9
$DIMBLK2
  1

  9
$DIMSTYLE
  2
ISO-25
  9
$DIMCLRD
 70
     0
  9
$DIMCLRE
 70
     0
  9
$DIMCLRT
 70
     0
  9
$DIMTFAC
 40
1.0
  9
$DIMGAP
 40
1.524
  9
$DIMJUST
 70
     0
  9
$DIMSD1
 70
     0
  9
$DIMSD2
 70
     0
  9
$DIMTOLJ
 70
     0
  9
$DIMTZIN
 70
     0
  9
$DIMALTZ
 70
     0
  9
$DIMALTTZ
 70
     0
  9
$DIMUPT
 70
     0
  9
$DIMDEC
 70
     2
  9
$DIMTDEC
 70
     2
  9
$DIMALTU
 70
     2
  9
$DIMALTTD
 70
     3
  9
$DIMTXSTY
  7
Standard
  9
$DIMAUNIT
 70
     0
  9
$DIMADEC
 70
     2
  9
$DIMALTRND
 40
0.0
  9
$DIMAZIN
 70
     0
  9
$DIMDSEP
 70
    44
  9
$DIMATFIT
 70
     3
  9
$DIMFRAC
 70
     0
  9
$DIMLDRBLK
  1

  9
$DIMLUNIT
 70
     2
  9
$DIMLWD
 70
    -2
  9
$DIMLWE
 70
    -2
  9
$DIMTMOVE
 70
     0
  9
$LUNITS
 70
     2
  9
$LUPREC
 70
     2
  9
$SKETCHINC
 40
1.0
  9
$FILLETRAD
 40
10.0
  9
$AUNITS
 70
     0
  9
$AUPREC
 70
     2
  9
$MENU
  1
.
  9
$ELEVATION
 40
0.0
  9
$PELEVATION
 40
0.0
  9
$THICKNESS
 40
0.0
  9
$LIMCHECK
 70
     0
  9
$CHAMFERA
 40
0.0
  9
$CHAMFERB
 40
0.0
  9
$CHAMFERC
 40
0.0
  9
$CHAMFERD
 40
0.0
  9
$SKPOLY
 70
     0
  9
$TDCREATE
 40
2458311.566908391
  9
$TDUCREATE
 40
2458311.191908391
  9
$TDUPDATE
 40
2458321.611410614
  9
$TDUUPDATE
 40
2458321.236410614
  9
$TDINDWG
 40
0.0006742593
  9
$TDUSRTIMER
 40
0.0006742477
  9
$USRTIMER
 70
     1
  9
$ANGBASE
 50
0.0
  9
$ANGDIR
 70
     0
  9
$PDMODE
 70
     0
  9
$PDSIZE
 40
-1.0
  9
$PLINEWID
 40
0.0
  9
$SPLFRAME
 70
     0
  9
$SPLINETYPE
 70
     6
  9
$SPLINESEGS
 70
     8
  9
$HANDSEED
  5
212
  9
$SURFTAB1
 70
     6
  9
$SURFTAB2
 70
     6
  9
$SURFTYPE
 70
     6
  9
$SURFU
 70
     6
  9
$SURFV
 70
     6
  9
$UCSBASE
  2

  9
$UCSNAME
  2

  9
$UCSORG
 10
0.0
 20
0.0
 30
0.0
  9
$UCSXDIR
 10
1.0
 20
0.0
 30
0.0
  9
$UCSYDIR
 10
0.0
 20
1.0
 30
0.0
  9
$UCSORTHOREF
  2

  9
$UCSORTHOVIEW
 70
     0
  9
$UCSORGTOP
 10
0.0
 20
0.0
 30
0.0
  9
$UCSORGBOTTOM
 10
0.0
 20
0.0
 30
0.0
  9
$UCSORGLEFT
 10
0.0
 20
0.0
 30
0.0
  9
$UCSORGRIGHT
 10
0.0
 20
0.0
 30
0.0
  9
$UCSORGFRONT
 10
0.0
 20
0.0
 30
0.0
  9
$UCSORGBACK
 10
0.0
 20
0.0
 30
0.0
  9
$PUCSBASE
  2

  9
$PUCSNAME
  2

  9
$PUCSORG
 10
0.0
 20
0.0
 30
0.0
  9
$PUCSXDIR
 10
1.0
 20
0.0
 30
0.0
  9
$PUCSYDIR
 10
0.0
 20
1.0
 30
0.0
  9
$PUCSORTHOREF
  2

  9
$PUCSORTHOVIEW
 70
     0
  9
$PUCSORGTOP
 10
0.0
 20
0.0
 30
0.0
  9
$PUCSORGBOTTOM
 10
0.0
 20
0.0
 30
0.0
  9
$PUCSORGLEFT
 10
0.0
 20
0.0
 30
0.0
  9
$PUCSORGRIGHT
 10
0.0
 20
0.0
 30
0.0
  9
$PUCSORGFRONT
 10
0.0
 20
0.0
 30
0.0
  9
$PUCSORGBACK
 10
0.0
 20
0.0
 30
0.0
  9
$USERI1
 70
     0
  9
$USERI2
 70
     0
  9
$USERI3
 70
     0
  9
$USERI4
 70
     0
  9
$USERI5
 70
     0
  9
$USERR1
 40
0.0
  9
$USERR2
 40
0.0
  9
$USERR3
 40
0.0
  9
$USERR4
 40
0.0
  9
$USERR5
 40
0.0
  9
$WORLDVIEW
 70
     1
  9
$SHADEDGE
 70
     3
  9
$SHADEDIF
 70
    70
  9
$TILEMODE
 70
     1
  9
$MAXACTVP
 70
    64
  9
$PINSBASE
 10
0.0
 20
0.0
 30
0.0
  9
$PLIMCHECK
 70
     0
  9
$PEXTMIN
 10
1.000000000000000E+20
 20
1.000000000000000E+20
 30
1.000000000000000E+20
  9
$PEXTMAX
 10
-1.000000000000000E+20
 20
-1.000000000000000E+20
 30
-1.000000000000000E+20
  9
$PLIMMIN
 10
0.0
 20
0.0
  9
$PLIMMAX
 10
0.0
 20
0.0
  9
$UNITMODE
 70
     0
  9
$VISRETAIN
 70
     1
  9
$PLINEGEN
 70
     0
  9
$PSLTSCALE
 70
     1
  9
$TREEDEPTH
 70
  3020
  9
$CMLSTYLE
  2
Standard
  9
$CMLJUST
 70
     0
  9
$CMLSCALE
 40
20.0
  9
$PROXYGRAPHICS
 70
     1
  9
$MEASUREMENT
 70
     1
  9
$CELWEIGHT
370
    -1
  9
$ENDCAPS
280
     0
  9
$JOINSTYLE
280
     0
  9
$LWDISPLAY
290
     1
  9
$INSUNITS
 70
     4
  9
$HYPERLINKBASE
  1

  9
$STYLESHEET
  1

  9
$XEDIT
290
     1
  9
$CEPSNTYPE
380
     0
  9
$PSTYLEMODE
290
     1
  9
$FINGERPRINTGUID
  2
{058B1DAC-ACAA-4283-8E31-632C085DB319}
  9
$VERSIONGUID
  2
{FAEB1C32-E019-11D5-929B-00C0DF256EC4}
  9
$EXTNAMES
290
     1
  9
$PSVPSCALE
 40
0.0
  9
$OLESTARTUP
290
     0
  0
ENDSEC
  0
SECTION
  2
CLASSES
  0
CLASS
  1
ACDBDICTIONARYWDFLT
  2
AcDbDictionaryWithDefault
  3
ObjectDBX Classes
 90
        0
280
     0
281
     0
  0
CLASS
  1
VISUALSTYLE
  2
AcDbVisualStyle
  3
ObjectDBX Classes
 90
     4095
280
     0
281
     0
  0
CLASS
  1
MATERIAL
  2
AcDbMaterial
  3
ObjectDBX Classes
 90
     1153
280
     0
281
     0
  0
CLASS
  1
SCALE
  2
AcDbScale
  3
ObjectDBX Classes
 90
     1153
280
     0
281
     0
  0
CLASS
  1
SUN
  2
AcDbSun
  3
SCENEOE
 90
     1153
280
     0
281
     0
  0
CLASS
  1
ACDBPLACEHOLDER
  2
AcDbPlaceHolder
  3
ObjectDBX Classes
 90
        0
280
     0
281
     0
  0
CLASS
  1
LAYOUT
  2
AcDbLayout
  3
ObjectDBX Classes
 90
        0
280
     0
281
     0
  0
CLASS
  1
TABLESTYLE
  2
AcDbTableStyle
  3
ObjectDBX Classes
 90
     4095
280
     0
281
     0
  0
CLASS
  1
MLEADERSTYLE
  2
AcDbMLeaderStyle
  3
ACDB_MLEADERSTYLE_CLASS
 90
     4095
280
     0
281
     0
  0
CLASS
  1
DICTIONARYVAR
  2
AcDbDictionaryVar
  3
ObjectDBX Classes
 90
        0
280
     0
281
     0
  0
ENDSEC
  0
SECTION
  2
TABLES
  0
TABLE
  2
VPORT
  5
8
330
0
100
AcDbSymbolTable
 70
     1
  0
VPORT
  5
29
330
8
100
AcDbSymbolTableRecord
100
AcDbViewportTableRecord
  2
*Active
 70
     0
 10
0.0
 20
0.0
 11
1.0
 21
1.0
 12
5.688004407672764
 22
-2.59840369440591
 13
0.0
 23
0.0
 14
10.0
 24
10.0
 15
10.0
 25
10.0
 16
0.0
 26
0.0
 36
1.0
 17
0.0
 27
0.0
 37
0.0
 40
96.64174353658791
 41
1.782762691853601
 42
50.0
 43
0.0
 44
0.0
 50
0.0
 51
0.0
 71
    16
 72
  2000
 73
     1
 74
     3
 75
     0
 76
     0
 77
     0
 78
     0
281
     0
 65
     1
110
0.0
120
0.0
130
0.0
111
1.0
121
0.0
131
0.0
112
0.0
122
1.0
132
0.0
 79
     0
146
0.0
  0
ENDTAB
  0
TABLE
  2
LTYPE
  5
5
330
0
100
AcDbSymbolTable
 70
     6
  0
LTYPE
  5
14
330
5
100
AcDbSymbolTableRecord
100
AcDbLinetypeTableRecord
  2
ByBlock
 70
     0
  3

 72
    65
 73
     0
 40
0.0
  0
LTYPE
  5
15
330
5
100
AcDbSymbolTableRecord
100
AcDbLinetypeTableRecord
  2
ByLayer
 70
     0
  3

 72
    65
 73
     0
 40
0.0
  0
LTYPE
  5
16
330
5
100
AcDbSymbolTableRecord
100
AcDbLinetypeTableRecord
  2
Continuous
 70
     0
  3
Solid line
 72
    65
 73
     0
 40
0.0
  0
LTYPE
  5
6A
330
5
100
AcDbSymbolTableRecord
100
AcDbLinetypeTableRecord
  2
HIDDEN
 70
     0
  3
Hidden __ __ __ __ __ __ __ __ __ __ __ __ __ __
 72
    65
 73
     2
 40
1.905
 49
1.27
 74
     0
 49
-0.635
 74
     0
  0
LTYPE
  5
6B
330
5
100
AcDbSymbolTableRecord
100
AcDbLinetypeTableRecord
  2
PHANTOM
 70
     0
  3
Phantom ______  __  __  ______  __  __  ______
 72
    65
 73
     6
 40
12.7
 49
6.35
 74
     0
 49
-1.27
 74
     0
 49
1.27
 74
     0
 49
-1.27
 74
     0
 49
1.27
 74
     0
 49
-1.27
 74
     0
  0
LTYPE
  5
6C
330
5
100
AcDbSymbolTableRecord
100
AcDbLinetypeTableRecord
  2
CENTER
 70
     0
  3
Center ____ _ ____ _ ____ _ ____ _ ____ _ ____
 72
    65
 73
     4
 40
10.16
 49
6.35
 74
     0
 49
-1.27
 74
     0
 49
1.27
 74
     0
 49
-1.27
 74
     0
  0
LTYPE
  5
6D
330
5
100
AcDbSymbolTableRecord
100
AcDbLinetypeTableRecord
  2
CENTERX2
 70
     0
  3
Center (2x) ________  __  ________  __  _____
 72
    65
 73
     4
 40
20.32
 49
12.7
 74
     0
 49
-2.54
 74
     0
 49
2.54
 74
     0
 49
-2.54
 74
     0
  0
LTYPE
  5
6E
330
5
100
AcDbSymbolTableRecord
100
AcDbLinetypeTableRecord
  2
DOT2
 70
     0
  3
Dot (.5x) ........................................
 72
    65
 73
     2
 40
0.635
 49
0.0
 74
     0
 49
-0.635
 74
     0
  0
ENDTAB
  0
TABLE
  2
LAYER
  5
2
102
{ACAD_XDICTIONARY
360
183
102
}
330
0
100
AcDbSymbolTable
 70
    18
  0
LAYER
  5
10
330
2
100
AcDbSymbolTableRecord
100
AcDbLayerTableRecord
  2
0
 70
     0
 62
     7
  6
Continuous
370
    -3
390
F
  0
LAYER
  5
6F
330
2
100
AcDbSymbolTableRecord
100
AcDbLayerTableRecord
  2
FORMAT
 70
     0
 62
     2
  6
Continuous
370
    -3
390
F
  0
LAYER
  5
70
330
2
100
AcDbSymbolTableRecord
100
AcDbLayerTableRecord
  2
외형선
 70
     0
 62
     4
  6
Continuous
370
    30
390
F
  0
LAYER
  5
71
330
2
100
AcDbSymbolTableRecord
100
AcDbLayerTableRecord
  2
숨은선
 70
     0
 62
     2
  6
HIDDEN
370
    15
390
F
  0
LAYER
  5
72
330
2
100
AcDbSymbolTableRecord
100
AcDbLayerTableRecord
  2
중심선
 70
     0
 62
     1
  6
CENTERX2
370
    -3
390
F
  0
LAYER
  5
73
330
2
100
AcDbSymbolTableRecord
100
AcDbLayerTableRecord
  2
파단선
 70
     0
 62
     4
  6
Continuous
370
    -3
390
F
  0
LAYER
  5
74
330
2
100
AcDbSymbolTableRecord
100
AcDbLayerTableRecord
  2
해칭선
 70
     0
 62
   100
  6
Continuous
370
    -3
390
F
  0
LAYER
  5
75
330
2
100
AcDbSymbolTableRecord
100
AcDbLayerTableRecord
  2
가는실선
 70
     0
 62
     4
  6
Continuous
370
    -3
390
F
  0
LAYER
  5
76
330
2
100
AcDbSymbolTableRecord
100
AcDbLayerTableRecord
  2
치수_보조선
 70
     0
 62
     4
  6
Continuous
370
    -3
390
F
  0
LAYER
  5
77
330
2
100
AcDbSymbolTableRecord
100
AcDbLayerTableRecord
  2
치수문자_일반주서
 70
     0
 62
     7
  6
Continuous
370
    15
390
F
  0
LAYER
  5
78
330
2
100
AcDbSymbolTableRecord
100
AcDbLayerTableRecord
  2
개별주서
 70
     0
 62
   100
  6
Continuous
370
    30
390
F
  0
LAYER
  5
79
330
2
100
AcDbSymbolTableRecord
100
AcDbLayerTableRecord
  2
중간선
 70
     0
 62
     2
  6
Continuous
370
    15
390
F
  0
LAYER
  5
7A
330
2
100
AcDbSymbolTableRecord
100
AcDbLayerTableRecord
  2
윤곽선
 70
     0
 62
     3
  6
Continuous
370
    40
390
F
  0
LAYER
  5
7B
330
2
100
AcDbSymbolTableRecord
100
AcDbLayerTableRecord
  2
중심마크
 70
     0
 62
   100
  6
Continuous
370
    30
390
F
  0
LAYER
  5
7C
330
2
100
AcDbSymbolTableRecord
100
AcDbLayerTableRecord
  2
가상선
 70
     0
 62
     4
  6
PHANTOM
370
    -3
390
F
  0
LAYER
  5
7D
330
2
100
AcDbSymbolTableRecord
100
AcDbLayerTableRecord
  2
특수지정선
 70
     0
 62
     5
  6
CENTERX2
370
    60
390
F
  0
LAYER
  5
7E
330
2
100
AcDbSymbolTableRecord
100
AcDbLayerTableRecord
  2
참조1
 70
     0
 62
    -4
  6
Continuous
370
    -3
390
F
  0
LAYER
  5
1A8
330
2
100
AcDbSymbolTableRecord
100
AcDbLayerTableRecord
  2
Defpoints
 70
     0
 62
     7
  6
Continuous
290
     0
370
    -3
390
F
  0
ENDTAB
  0
TABLE
  2
STYLE
  5
3
330
0
100
AcDbSymbolTable
 70
     2
  0
STYLE
  5
11
330
3
100
AcDbSymbolTableRecord
100
AcDbTextStyleTableRecord
  2
Standard
 70
     0
 40
0.0
 41
1.0
 50
0.0
 71
     0
 42
3.5
  3
txt
  4

  0
STYLE
  5
94
330
3
100
AcDbSymbolTableRecord
100
AcDbTextStyleTableRecord
  2
SLDTEXTSTYLE0
 70
     0
 40
0.0
 41
0.75
 50
0.0
 71
     0
 42
3.5
  3
TXT
  4

  0
ENDTAB
  0
TABLE
  2
VIEW
  5
6
330
0
100
AcDbSymbolTable
 70
     0
  0
ENDTAB
  0
TABLE
  2
UCS
  5
7
330
0
100
AcDbSymbolTable
 70
     0
  0
ENDTAB
  0
TABLE
  2
APPID
  5
9
330
0
100
AcDbSymbolTable
 70
     4
  0
APPID
  5
12
330
9
100
AcDbSymbolTableRecord
100
AcDbRegAppTableRecord
  2
ACAD
 70
     0
  0
APPID
  5
13F
330
9
100
AcDbSymbolTableRecord
100
AcDbRegAppTableRecord
  2
PE_URL
 70
     0
  0
APPID
  5
210
330
9
100
AcDbSymbolTableRecord
100
AcDbRegAppTableRecord
  2
ACAD_DSTYLE_DIMFLIPARROW_SYMBOL
 70
     0
  0
APPID
  5
211
330
9
100
AcDbSymbolTableRecord
100
AcDbRegAppTableRecord
  2
ACAD_DSTYLE_DIMFLIPARROW_WHICH_SYMBOL
 70
     0
  0
ENDTAB
  0
TABLE
  2
DIMSTYLE
  5
A
330
0
100
AcDbSymbolTable
 70
     5
100
AcDbDimStyleTable
  0
DIMSTYLE
105
27
330
A
100
AcDbSymbolTableRecord
100
AcDbDimStyleTableRecord
  2
ISO-25
 70
     0
 41
2.5
 42
0.625
 43
3.75
 44
1.25
 73
     0
 74
     0
 77
     1
 78
     8
140
2.5
141
2.5
143
0.03937007874016
147
0.625
171
     3
172
     1
178
     0
271
     2
272
     2
274
     3
278
    44
283
     0
284
     8
340
11
  0
DIMSTYLE
105
BE
330
A
100
AcDbSymbolTableRecord
100
AcDbDimStyleTableRecord
  2
SLDDIMSTYLE0
 70
     0
 41
3.302
 44
0.0
 45
0.000000001
 73
     0
 74
     0
 77
     1
 78
     4
 79
     1
140
3.5
147
0.875
172
     1
173
     1
178
     0
271
     2
272
     2
276
     2
284
    12
289
     0
340
94
  0
DIMSTYLE
105
CC
330
A
100
AcDbSymbolTableRecord
100
AcDbDimStyleTableRecord
  2
SLDDIMSTYLE1
 70
     0
 41
3.302
 44
0.0
 45
0.000000001
 73
     0
 74
     0
 77
     1
 78
     4
 79
     1
140
3.5
143
0.0393700787401575
147
0.875
148
0.000000001
170
     1
172
     1
173
     1
178
     0
271
     2
272
     2
276
     2
284
    12
289
     0
340
94
  0
DIMSTYLE
105
E2
102
{ACAD_REACTORS
330
E1
330
1CE
330
CB
330
F5
330
BD
102
}
330
A
100
AcDbSymbolTableRecord
100
AcDbDimStyleTableRecord
  2
SLDDIMSTYLE2
 70
     0
 41
3.302
 44
0.0
 45
0.000000001
 73
     0
 74
     0
 77
     1
 78
     4
 79
     1
140
3.5
143
0.0393700787401575
147
0.875
148
0.000000001
170
     1
173
     1
178
     0
271
     2
272
     2
276
     2
284
    12
340
94
  0
DIMSTYLE
105
F6
330
A
100
AcDbSymbolTableRecord
100
AcDbDimStyleTableRecord
  2
SLDDIMSTYLE3
 70
     0
 41
3.302
 44
0.0
 45
0.000000001
 73
     0
 74
     0
 77
     1
 78
    12
 79
     3
140
3.5
143
0.0393700787401575
147
0.875
148
0.000000001
170
     1
173
     1
178
     0
271
     2
272
     2
276
     2
284
    12
340
94
  0
ENDTAB
  0
TABLE
  2
BLOCK_RECORD
  5
1
330
0
100
AcDbSymbolTable
 70
    11
  0
BLOCK_RECORD
  5
1F
330
1
100
AcDbSymbolTableRecord
100
AcDbBlockTableRecord
  2
*Model_Space
340
22
  0
BLOCK_RECORD
  5
1B
330
1
100
AcDbSymbolTableRecord
100
AcDbBlockTableRecord
  2
*Paper_Space
340
1E
  0
BLOCK_RECORD
  5
23
330
1
100
AcDbSymbolTableRecord
100
AcDbBlockTableRecord
  2
*Paper_Space0
340
26
  0
BLOCK_RECORD
  5
7F
330
1
100
AcDbSymbolTableRecord
100
AcDbBlockTableRecord
  2
블럭10
340
0
102
{BLKREFS
331
B6
102
}
  0
BLOCK_RECORD
  5
BF
330
1
100
AcDbSymbolTableRecord
100
AcDbBlockTableRecord
  2
_D
340
0
  0
BLOCK_RECORD
  5
CD
330
1
100
AcDbSymbolTableRecord
100
AcDbBlockTableRecord
  2
_D_1
340
0
  0
BLOCK_RECORD
  5
E3
330
1
100
AcDbSymbolTableRecord
100
AcDbBlockTableRecord
  2
_D_2
340
0
  0
BLOCK_RECORD
  5
F7
330
1
100
AcDbSymbolTableRecord
100
AcDbBlockTableRecord
  2
_D_3
340
0
  0
BLOCK_RECORD
  5
110
330
1
100
AcDbSymbolTableRecord
100
AcDbBlockTableRecord
  2
SW_DOWELSYMBOL_0
340
0
102
{BLKREFS
331
0
331
178
331
1A2
102
}
  0
BLOCK_RECORD
  5
1DF
330
1
100
AcDbSymbolTableRecord
100
AcDbBlockTableRecord
  2
*D9
340
0
  0
BLOCK_RECORD
  5
1EF
330
1
100
AcDbSymbolTableRecord
100
AcDbBlockTableRecord
  2
*D10
340
0
  0
ENDTAB
  0
ENDSEC
  0
SECTION
  2
BLOCKS
  0
BLOCK
  5
20
330
1F
100
AcDbEntity
  8
0
100
AcDbBlockBegin
  2
*Model_Space
 70
     0
 10
0.0
 20
0.0
 30
0.0
  3
*Model_Space
  1

  0
ENDBLK
  5
21
330
1F
100
AcDbEntity
  8
0
100
AcDbBlockEnd
  0
BLOCK
  5
1C
330
1B
100
AcDbEntity
 67
     1
  8
0
100
AcDbBlockBegin
  2
*Paper_Space
 70
     0
 10
0.0
 20
0.0
 30
0.0
  3
*Paper_Space
  1

  0
ENDBLK
  5
1D
330
1B
100
AcDbEntity
 67
     1
  8
0
100
AcDbBlockEnd
  0
BLOCK
  5
24
330
23
100
AcDbEntity
  8
0
100
AcDbBlockBegin
  2
*Paper_Space0
 70
     0
 10
0.0
 20
0.0
 30
0.0
  3
*Paper_Space0
  1

  0
ENDBLK
  5
25
330
23
100
AcDbEntity
  8
0
100
AcDbBlockEnd
  0
BLOCK
  5
80
330
7F
100
AcDbEntity
  8
0
100
AcDbBlockBegin
  2
블럭10
 70
     2
 10
0.0
 20
0.0
 30
0.0
  3
블럭10
  1

  0
ELLIPSE
  5
82
330
7F
100
AcDbEntity
  8
중심선
100
AcDbEllipse
 10
20.54032771741204
 20
12.0471743016438
 30
0.0
 11
6.600054785286829
 21
-1.261213355974178E-13
 31
0.0
210
0.0
220
0.0
230
1.0
 40
0.636358354079598
 41
0.9219305317359503
 42
6.513795318482858
  0
ELLIPSE
  5
83
330
7F
100
AcDbEntity
  8
중심선
100
AcDbEllipse
 10
20.54032771746488
 20
12.04717430159265
 30
0.0
 11
3.960054785062283
 21
1.540847449632565E-10
 31
0.0
210
0.0
220
0.0
230
1.0
 40
0.3939339440162632
 41
1.131841032648279
 42
5.62031148352944
  0
LINE
  5
84
330
7F
100
AcDbEntity
  8
중심선
100
AcDbLine
 10
2.268634060543552
 20
16.24717430164393
 30
0.0
 11
5.714909304380834
 21
16.24717430164393
 31
0.0
  0
LINE
  5
85
330
7F
100
AcDbEntity
  8
중심선
100
AcDbLine
 10
5.245725140726316
 20
7.84717430164391
 30
0.0
 11
8.692000384563599
 21
7.84717430164391
 31
0.0
  0
LINE
  5
86
330
7F
100
AcDbEntity
  8
중심선
100
AcDbLine
 10
15.74043728645272
 20
16.24717430164393
 30
0.0
 11
8.692000384563599
 21
7.84717430164391
 31
0.0
  0
LINE
  5
87
330
7F
100
AcDbEntity
  8
중심선
100
AcDbLine
 10
0.1404042013395286
 20
13.71084872107135
 30
0.0
 11
3.58671253028996
 21
13.71088815037384
 31
0.0
  0
LINE
  5
88
330
7F
100
AcDbEntity
  8
중심선
100
AcDbLine
 10
2.750260043222114
 20
10.84717430164391
 30
0.0
 11
6.196535287059397
 21
10.84717430164391
 31
0.0
  0
LINE
  5
89
330
7F
100
AcDbEntity
  8
중심선
100
AcDbLine
 10
12.29416204261559
 20
16.24717430164393
 30
0.0
 11
5.245725140726316
 21
7.84717430164391
 31
0.0
  0
LINE
  5
8A
330
7F
100
AcDbEntity
  8
중심선
100
AcDbLine
 10
10.72767329541681
 20
16.24717430164393
 30
0.0
 11
6.196535287059397
 21
10.84717430164391
 31
0.0
  0
LINE
  5
8B
330
7F
100
AcDbEntity
  8
중심선
100
AcDbLine
 10
7.28139805157953
 20
16.24717430164393
 30
0.0
 11
2.750260043222114
 21
10.84717430164391
 31
0.0
  0
LINE
  5
8C
330
7F
100
AcDbEntity
  8
중심선
100
AcDbLine
 10
5.714909304380834
 20
16.24717430164393
 30
0.0
 11
3.58671253028996
 21
13.71088815037384
 31
0.0
  0
LINE
  5
8D
330
7F
100
AcDbEntity
  8
중심선
100
AcDbLine
 10
2.268634060543552
 20
16.24717430164393
 30
0.0
 11
0.1404042013395286
 21
13.71084872107135
 31
0.0
  0
LINE
  5
8E
330
7F
100
AcDbEntity
  8
중심선
100
AcDbLine
 10
7.28139805157953
 20
16.24717430164393
 30
0.0
 11
10.72767329541681
 21
16.24717430164393
 31
0.0
  0
LINE
  5
8F
330
7F
100
AcDbEntity
  8
중심선
100
AcDbLine
 10
12.29416204261559
 20
16.24717430164393
 30
0.0
 11
15.74043728645272
 21
16.24717430164393
 31
0.0
  0
LINE
  5
90
330
7F
100
AcDbEntity
  8
중심선
100
AcDbLine
 10
19.22036997980202
 20
11.08717430171403
 30
0.0
 11
23.66174974927406
 21
11.08717430171406
 31
0.0
  0
LINE
  5
91
330
7F
100
AcDbEntity
  8
중심선
100
AcDbLine
 10
19.22039502424796
 20
13.00717430171391
 30
0.0
 11
19.22036997980202
 21
11.08717430171403
 31
0.0
  0
LINE
  5
92
330
7F
100
AcDbEntity
  8
중심선
100
AcDbLine
 10
19.22039502424796
 20
13.00717430171391
 30
0.0
 11
26.96566020931264
 21
13.00717430171391
 31
0.0
  0
LINE
  5
93
330
7F
100
AcDbEntity
  8
중심선
100
AcDbLine
 10
22.22332737316547
 20
13.45928029700563
 30
0.0
 11
24.52862924686651
 21
15.39360700705356
 31
0.0
  0
ATTDEF
  5
95
330
7F
100
AcDbEntity
  8
FORMAT
 62
     2
100
AcDbText
 10
4.408487351596664
 20
2.075366912832191
 30
0.0
 40
4.233333333333333
  1
E1030909
 41
0.75
  7
SLDTEXTSTYLE0
 11
4.408487351596664
 21
-0.0412997538344756
 31
0.0
100
AcDbAttributeDefinition
  3

  2
AUTOATTR0
 70
     0
 74
     1
  0
ENDBLK
  5
81
330
7F
100
AcDbEntity
  8
0
100
AcDbBlockEnd
  0
BLOCK
  5
C0
330
BF
100
AcDbEntity
  8
0
100
AcDbBlockBegin
  2
_D
 70
     0
 10
0.0
 20
0.0
 30
0.0
  3
_D
  1

  0
LINE
  5
C2
330
BF
100
AcDbEntity
  8
치수문자_일반주서
 62
     0
370
    -2
100
AcDbLine
 10
-54.21249999999996
 20
9.524999999999995
 30
0.0
 11
-70.14999999999996
 21
9.524999999999935
 31
0.0
  0
LINE
  5
C3
330
BF
100
AcDbEntity
  8
치수문자_일반주서
 62
     0
370
    -2
100
AcDbLine
 10
-54.14999999999996
 20
-9.525000000000006
 30
0.0
 11
-70.14999999999989
 21
-9.52500000000007
 31
0.0
  0
LINE
  5
C4
330
BF
100
AcDbEntity
  8
치수문자_일반주서
 62
     0
370
    -2
100
AcDbLine
 10
-70.14999999999996
 20
9.524999999999935
 30
0.0
 11
-70.15000000000009
 21
44.77499999999993
 31
0.0
  0
LINE
  5
C5
330
BF
100
AcDbEntity
  8
치수문자_일반주서
 62
     0
370
    -2
100
AcDbLine
 10
-70.14999999999996
 20
9.524999999999935
 30
0.0
 11
-70.14999999999989
 21
-9.52500000000007
 31
0.0
  0
LINE
  5
C6
330
BF
100
AcDbEntity
  8
치수문자_일반주서
 62
     0
370
    -2
100
AcDbLine
 10
-70.14999999999998
 20
13.52499999999993
 30
0.0
 11
-70.14999999999999
 21
17.52499999999993
 31
0.0
  0
LINE
  5
C7
330
BF
100
AcDbEntity
  8
치수문자_일반주서
 62
     0
370
    -2
100
AcDbLine
 10
-70.14999999999988
 20
-13.52500000000007
 30
0.0
 11
-70.14999999999986
 21
-17.52500000000007
 31
0.0
  0
SOLID
  5
C8
330
BF
100
AcDbEntity
  8
치수문자_일반주서
 62
     0
100
AcDbTrace
 10
-70.81666666666665
 20
13.52499999999993
 30
0.0
 11
-69.4833333333333
 21
13.52499999999994
 31
0.0
 12
-70.14999999999996
 22
9.524999999999935
 32
0.0
 13
-70.14999999999996
 23
9.524999999999935
 33
0.0
  0
SOLID
  5
C9
330
BF
100
AcDbEntity
  8
치수문자_일반주서
 62
     0
100
AcDbTrace
 10
-69.4833333333332
 20
-13.52500000000007
 30
0.0
 11
-70.81666666666655
 21
-13.52500000000007
 31
0.0
 12
-70.14999999999989
 22
-9.52500000000007
 32
0.0
 13
-70.14999999999989
 23
-9.52500000000007
 33
0.0
  0
MTEXT
  5
CA
330
BF
100
AcDbEntity
  8
치수문자_일반주서
 62
     0
100
AcDbMText
 10
-75.02500000000003
 20
29.14999999999992
 30
0.0
 40
4.0
 41
0.0
 71
     2
 72
     1
  1
\A1;%%c19.05 [3/4]
  7
SLDTEXTSTYLE0
 11
-3.729883127349607E-15
 21
1.0
 31
0.0
 73
     1
 44
1.0
  0
POINT
  5
20A
330
BF
100
AcDbEntity
  8
Defpoints
 62
     0
100
AcDbPoint
 10
-54.14999999999996
 20
9.524999999999995
 30
0.0
  0
POINT
  5
20B
330
BF
100
AcDbEntity
  8
Defpoints
 62
     0
100
AcDbPoint
 10
-54.08749999999996
 20
-9.525000000000006
 30
0.0
  0
POINT
  5
20C
330
BF
100
AcDbEntity
  8
Defpoints
 62
     0
100
AcDbPoint
 10
-70.14999999999989
 20
-9.525000000000066
 30
0.0
  0
ENDBLK
  5
C1
330
BF
100
AcDbEntity
  8
0
100
AcDbBlockEnd
  0
BLOCK
  5
CE
330
CD
100
AcDbEntity
  8
0
100
AcDbBlockBegin
  2
_D_1
 70
     0
 10
0.0
 20
0.0
 30
0.0
  3
_D_1
  1

  0
LINE
  5
D0
330
CD
100
AcDbEntity
  8
치수문자_일반주서
 62
     0
370
    -2
100
AcDbLine
 10
40.10000000000004
 20
12.75176615341647
 30
0.0
 11
40.10000000000004
 21
24.525
 31
0.0
  0
LINE
  5
D1
330
CD
100
AcDbEntity
  8
치수문자_일반주서
 62
     0
370
    -2
100
AcDbLine
 10
2.000000000000031
 20
5.535349324069391
 30
0.0
 11
2.000000000000032
 21
24.525
 31
0.0
  0
LINE
  5
D2
330
CD
100
AcDbEntity
  8
치수문자_일반주서
 62
     0
370
    -2
100
AcDbLine
 10
36.10000000000004
 20
24.525
 30
0.0
 11
6.000000000000032
 21
24.525
 31
0.0
  0
SOLID
  5
D3
330
CD
100
AcDbEntity
  8
치수문자_일반주서
 62
     0
100
AcDbTrace
 10
36.10000000000004
 20
23.85833333333333
 30
0.0
 11
36.10000000000004
 21
25.19166666666667
 31
0.0
 12
40.10000000000004
 22
24.525
 32
0.0
 13
40.10000000000004
 23
24.525
 33
0.0
  0
SOLID
  5
D4
330
CD
100
AcDbEntity
  8
치수문자_일반주서
 62
     0
100
AcDbTrace
 10
6.000000000000032
 20
25.19166666666667
 30
0.0
 11
6.000000000000032
 21
23.85833333333333
 31
0.0
 12
2.000000000000032
 22
24.525
 32
0.0
 13
2.000000000000032
 23
24.525
 33
0.0
  0
MTEXT
  5
D5
330
CD
100
AcDbEntity
  8
치수문자_일반주서
 62
     0
100
AcDbMText
 10
21.05000000000004
 20
29.4
 30
0.0
 40
4.0
 41
0.0
 71
     2
 72
     1
  1
\A1;38.10 [1 1/2]
  7
SLDTEXTSTYLE0
 73
     1
 44
1.0
  0
POINT
  5
D6
330
CD
100
AcDbEntity
  8
Defpoints
 62
     0
100
AcDbPoint
 10
40.10000000000004
 20
12.68926615341647
 30
0.0
  0
POINT
  5
D7
330
CD
100
AcDbEntity
  8
Defpoints
 62
     0
100
AcDbPoint
 10
2.000000000000031
 20
5.472849324069391
 30
0.0
  0
POINT
  5
D8
330
CD
100
AcDbEntity
  8
Defpoints
 62
     0
100
AcDbPoint
 10
2.000000000000031
 20
24.525
 30
0.0
  0
ENDBLK
  5
CF
330
CD
100
AcDbEntity
  8
0
100
AcDbBlockEnd
  0
BLOCK
  5
E4
330
E3
100
AcDbEntity
  8
0
100
AcDbBlockBegin
  2
_D_2
 70
     0
 10
0.0
 20
0.0
 30
0.0
  3
_D_2
  1

  0
LINE
  5
E6
330
E3
100
AcDbEntity
  8
치수문자_일반주서
 62
     0
370
    -2
100
AcDbLine
 10
40.10000000000004
 20
12.75176615341647
 30
0.0
 11
40.10000000000005
 21
39.525
 31
0.0
  0
LINE
  5
E7
330
E3
100
AcDbEntity
  8
치수문자_일반주서
 62
     0
370
    -2
100
AcDbLine
 10
-55.14999999999998
 20
8.587499999999991
 30
0.0
 11
-55.14999999999997
 21
39.525
 31
0.0
  0
LINE
  5
E8
330
E3
100
AcDbEntity
  8
치수문자_일반주서
 62
     0
370
    -2
100
AcDbLine
 10
36.10000000000005
 20
39.525
 30
0.0
 11
-51.14999999999997
 21
39.525
 31
0.0
  0
SOLID
  5
E9
330
E3
100
AcDbEntity
  8
치수문자_일반주서
 62
     0
100
AcDbTrace
 10
36.10000000000005
 20
38.85833333333333
 30
0.0
 11
36.10000000000005
 21
40.19166666666666
 31
0.0
 12
40.10000000000005
 22
39.525
 32
0.0
 13
40.10000000000005
 23
39.525
 33
0.0
  0
SOLID
  5
EA
330
E3
100
AcDbEntity
  8
치수문자_일반주서
 62
     0
100
AcDbTrace
 10
-51.14999999999997
 20
40.19166666666666
 30
0.0
 11
-51.14999999999997
 21
38.85833333333333
 31
0.0
 12
-55.14999999999997
 22
39.525
 32
0.0
 13
-55.14999999999997
 23
39.525
 33
0.0
  0
MTEXT
  5
EB
330
E3
100
AcDbEntity
  8
치수문자_일반주서
 62
     0
100
AcDbMText
 10
-7.524999999999963
 20
44.4
 30
0.0
 40
4.0
 41
0.0
 71
     2
 72
     1
  1
\A1;95.25 [3 3/4]
  7
SLDTEXTSTYLE0
 73
     1
 44
1.0
  0
POINT
  5
EC
330
E3
100
AcDbEntity
  8
Defpoints
 62
     0
100
AcDbPoint
 10
40.10000000000004
 20
12.68926615341647
 30
0.0
  0
POINT
  5
ED
330
E3
100
AcDbEntity
  8
Defpoints
 62
     0
100
AcDbPoint
 10
-55.14999999999998
 20
8.524999999999991
 30
0.0
  0
POINT
  5
EE
330
E3
100
AcDbEntity
  8
Defpoints
 62
     0
100
AcDbPoint
 10
-55.14999999999998
 20
39.525
 30
0.0
  0
ENDBLK
  5
E5
330
E3
100
AcDbEntity
  8
0
100
AcDbBlockEnd
  0
BLOCK
  5
F8
330
F7
100
AcDbEntity
  8
0
100
AcDbBlockBegin
  2
_D_3
 70
     0
 10
0.0
 20
0.0
 30
0.0
  3
_D_3
  1

  0
LINE
  5
FA
330
F7
100
AcDbEntity
  8
치수문자_일반주서
 62
     0
370
    -2
100
AcDbLine
 10
40.16250000000004
 20
-12.68926615341648
 30
0.0
 11
55.1000000000001
 21
-12.68926615341642
 31
0.0
  0
LINE
  5
FB
330
F7
100
AcDbEntity
  8
치수문자_일반주서
 62
     0
370
    -2
100
AcDbLine
 10
40.16250000000004
 20
12.68926615341647
 30
0.0
 11
55.10000000000002
 21
12.68926615341653
 31
0.0
  0
LINE
  5
FC
330
F7
100
AcDbEntity
  8
치수문자_일반주서
 62
     0
370
    -2
100
AcDbLine
 10
55.10000000000002
 20
12.68926615341653
 30
0.0
 11
55.09999999999992
 21
42.43926615341653
 31
0.0
  0
LINE
  5
FD
330
F7
100
AcDbEntity
  8
치수문자_일반주서
 62
     0
370
    -2
100
AcDbLine
 10
55.1000000000001
 20
-12.68926615341642
 30
0.0
 11
55.10000000000002
 21
12.68926615341653
 31
0.0
  0
LINE
  5
FE
330
F7
100
AcDbEntity
  8
치수문자_일반주서
 62
     0
370
    -2
100
AcDbLine
 10
55.10000000000012
 20
-16.68926615341642
 30
0.0
 11
55.10000000000013
 21
-20.68926615341642
 31
0.0
  0
LINE
  5
FF
330
F7
100
AcDbEntity
  8
치수문자_일반주서
 62
     0
370
    -2
100
AcDbLine
 10
55.1
 20
16.68926615341653
 30
0.0
 11
55.09999999999999
 21
20.68926615341653
 31
0.0
  0
SOLID
  5
100
330
F7
100
AcDbEntity
  8
치수문자_일반주서
 62
     0
100
AcDbTrace
 10
55.76666666666678
 20
-16.68926615341642
 30
0.0
 11
54.43333333333345
 21
-16.68926615341642
 31
0.0
 12
55.1000000000001
 22
-12.68926615341642
 32
0.0
 13
55.1000000000001
 23
-12.68926615341642
 33
0.0
  0
SOLID
  5
101
330
F7
100
AcDbEntity
  8
치수문자_일반주서
 62
     0
100
AcDbTrace
 10
54.43333333333334
 20
16.68926615341652
 30
0.0
 11
55.76666666666667
 21
16.68926615341653
 31
0.0
 12
55.10000000000002
 22
12.68926615341653
 32
0.0
 13
55.10000000000002
 23
12.68926615341653
 33
0.0
  0
MTEXT
  5
102
330
F7
100
AcDbEntity
  8
치수문자_일반주서
 62
     0
100
AcDbMText
 10
50.22499999999996
 20
29.56426615341651
 30
0.0
 40
4.0
 41
0.0
 71
     2
 72
     1
  1
\A1;%%c25.38 [1]
  7
SLDTEXTSTYLE0
 11
-3.359734410971241E-15
 21
1.0
 31
0.0
 73
     1
 44
1.0
  0
POINT
  5
103
330
F7
100
AcDbEntity
  8
Defpoints
 62
     0
100
AcDbPoint
 10
40.10000000000004
 20
-12.68926615341648
 30
0.0
  0
POINT
  5
20D
330
F7
100
AcDbEntity
  8
Defpoints
 62
     0
100
AcDbPoint
 10
40.10000000000004
 20
12.68926615341647
 30
0.0
  0
POINT
  5
20E
330
F7
100
AcDbEntity
  8
Defpoints
 62
     0
100
AcDbPoint
 10
55.10000000000002
 20
12.68926615341653
 30
0.0
  0
ENDBLK
  5
F9
330
F7
100
AcDbEntity
  8
0
100
AcDbBlockEnd
  0
BLOCK
  5
111
330
110
100
AcDbEntity
  8
0
100
AcDbBlockBegin
  2
SW_DOWELSYMBOL_0
 70
     0
 10
0.0
 20
0.0
 30
0.0
  3
SW_DOWELSYMBOL_0
  1

  0
CIRCLE
  5
113
330
110
100
AcDbEntity
  8
해칭선
 62
     0
100
AcDbCircle
 10
0.0
 20
0.0
 30
0.0
 40
3.000000000000001
  0
HATCH
  5
114
330
110
100
AcDbEntity
  8
0
  6
Continuous
 62
     0
370
     0
100
AcDbHatch
 10
0.0
 20
0.0
 30
0.0
210
0.0
220
0.0
230
1.0
  2
SOLID
 70
     1
 71
     0
 91
        1
 92
        0
 93
        3
 72
     2
 10
0.0
 20
0.0
 40
3.000000000000001
 50
0.0
 51
90.0
 73
     1
 72
     1
 10
0.0
 20
3.000000000000001
 11
0.0
 21
0.0
 72
     1
 10
0.0
 20
0.0
 11
3.000000000000001
 21
0.0
 97
        0
 75
     0
 76
     1
 98
        1
 10
0.0
 20
0.0
  0
HATCH
  5
115
330
110
100
AcDbEntity
  8
0
  6
Continuous
 62
     0
370
     0
100
AcDbHatch
 10
0.0
 20
0.0
 30
0.0
210
0.0
220
0.0
230
1.0
  2
SOLID
 70
     1
 71
     0
 91
        1
 92
        0
 93
        3
 72
     2
 10
0.0
 20
0.0
 40
3.000000000000001
 50
180.0
 51
270.0000000000008
 73
     1
 72
     1
 10
0.0
 20
-3.000000000000001
 11
0.0
 21
0.0
 72
     1
 10
0.0
 20
0.0
 11
-3.000000000000001
 21
0.0
 97
        0
 75
     0
 76
     1
 98
        1
 10
0.0
 20
0.0
  0
ENDBLK
  5
112
330
110
100
AcDbEntity
  8
0
100
AcDbBlockEnd
  0
BLOCK
  5
1E0
330
1DF
100
AcDbEntity
  8
0
100
AcDbBlockBegin
  2
*D9
 70
     1
 10
0.0
 20
0.0
 30
0.0
  3
*D9
  1

  0
LINE
  5
1E2
330
1DF
100
AcDbEntity
  8
치수문자_일반주서
 62
     0
370
    -2
100
AcDbLine
 10
33.3375
 20
7.305487110473621
 30
0.0
 11
33.3375
 21
22.27826230294244
 31
0.0
  0
LINE
  5
1E3
330
1DF
100
AcDbEntity
  8
치수문자_일반주서
 62
     0
370
    -2
100
AcDbLine
 10
0.0
 20
5.229500539435875
 30
0.0
 11
0.0
 21
22.27826230294244
 31
0.0
  0
LINE
  5
1E4
330
1DF
100
AcDbEntity
  8
치수문자_일반주서
 62
     0
370
    -2
100
AcDbLine
 10
33.3375
 20
22.27826230294244
 30
0.0
 11
74.0875
 21
22.27826230294244
 31
0.0
  0
LINE
  5
1E5
330
1DF
100
AcDbEntity
  8
치수문자_일반주서
 62
     0
370
    -2
100
AcDbLine
 10
29.3375
 20
22.27826230294244
 30
0.0
 11
4.0
 21
22.27826230294244
 31
0.0
  0
SOLID
  5
1E6
330
1DF
100
AcDbEntity
  8
치수문자_일반주서
 62
     0
100
AcDbTrace
 10
29.3375
 20
21.61159563627578
 30
0.0
 11
29.3375
 21
22.94492896960911
 31
0.0
 12
33.3375
 22
22.27826230294244
 32
0.0
 13
33.3375
 23
22.27826230294244
 33
0.0
  0
SOLID
  5
1E7
330
1DF
100
AcDbEntity
  8
치수문자_일반주서
 62
     0
100
AcDbTrace
 10
4.0
 20
22.94492896960911
 30
0.0
 11
4.0
 21
21.61159563627578
 31
0.0
 12
0.0
 22
22.27826230294244
 32
0.0
 13
0.0
 23
22.27826230294244
 33
0.0
  0
MTEXT
  5
1E8
330
1DF
100
AcDbEntity
  8
치수문자_일반주서
 62
     0
100
AcDbMText
 10
55.71250000000001
 20
27.15326230294244
 30
0.0
 40
4.0
 41
0.0
 71
     2
 72
     1
  1
\A1;33.34 [1 5/16]
  7
SLDTEXTSTYLE0
 73
     1
 44
1.0
  0
POINT
  5
1E9
330
1DF
100
AcDbEntity
  8
Defpoints
 62
     0
100
AcDbPoint
 10
33.3375
 20
7.242987110473621
 30
0.0
  0
POINT
  5
1EA
330
1DF
100
AcDbEntity
  8
Defpoints
 62
     0
100
AcDbPoint
 10
0.0
 20
5.167000539435875
 30
0.0
  0
POINT
  5
1EB
330
1DF
100
AcDbEntity
  8
Defpoints
 62
     0
100
AcDbPoint
 10
0.0
 20
22.27826230294244
 30
0.0
  0
ENDBLK
  5
1E1
330
1DF
100
AcDbEntity
  8
0
100
AcDbBlockEnd
  0
BLOCK
  5
1F0
330
1EF
100
AcDbEntity
  8
0
100
AcDbBlockBegin
  2
*D10
 70
     1
 10
0.0
 20
0.0
 30
0.0
  3
*D10
  1

  0
LINE
  5
1F2
330
1EF
100
AcDbEntity
  8
치수문자_일반주서
 62
     0
370
    -2
100
AcDbLine
 10
80.22015276727265
 20
-40.05716837572248
 30
0.0
 11
80.22015276727265
 21
-25.08439318325365
 31
0.0
  0
LINE
  5
1F3
330
1EF
100
AcDbEntity
  8
치수문자_일반주서
 62
     0
370
    -2
100
AcDbLine
 10
46.88265276727265
 20
-42.13315494676022
 30
0.0
 11
46.88265276727265
 21
-25.08439318325365
 31
0.0
  0
LINE
  5
1F4
330
1EF
100
AcDbEntity
  8
치수문자_일반주서
 62
     0
370
    -2
100
AcDbLine
 10
80.22015276727265
 20
-25.08439318325365
 30
0.0
 11
120.9701527672727
 21
-25.08439318325365
 31
0.0
  0
LINE
  5
1F5
330
1EF
100
AcDbEntity
  8
치수문자_일반주서
 62
     0
370
    -2
100
AcDbLine
 10
76.22015276727265
 20
-25.08439318325365
 30
0.0
 11
50.88265276727265
 21
-25.08439318325365
 31
0.0
  0
SOLID
  5
1F6
330
1EF
100
AcDbEntity
  8
치수문자_일반주서
 62
     0
100
AcDbTrace
 10
76.22015276727265
 20
-25.75105984992032
 30
0.0
 11
76.22015276727265
 21
-24.41772651658698
 31
0.0
 12
80.22015276727265
 22
-25.08439318325365
 32
0.0
 13
80.22015276727265
 23
-25.08439318325365
 33
0.0
  0
SOLID
  5
1F7
330
1EF
100
AcDbEntity
  8
치수문자_일반주서
 62
     0
100
AcDbTrace
 10
50.88265276727265
 20
-24.41772651658698
 30
0.0
 11
50.88265276727265
 21
-25.75105984992032
 31
0.0
 12
46.88265276727265
 22
-25.08439318325365
 32
0.0
 13
46.88265276727265
 23
-25.08439318325365
 33
0.0
  0
MTEXT
  5
1F8
330
1EF
100
AcDbEntity
  8
치수문자_일반주서
 62
     0
100
AcDbMText
 10
102.5951527672727
 20
-20.20939318325365
 30
0.0
 40
4.0
 41
0.0
 71
     2
 72
     1
  1
\A1;33.34 [1 5/16]
  7
SLDTEXTSTYLE0
 73
     1
 44
1.0
  0
POINT
  5
1F9
330
1EF
100
AcDbEntity
  8
Defpoints
 62
     0
100
AcDbPoint
 10
80.22015276727265
 20
-40.11966837572248
 30
0.0
  0
POINT
  5
1FA
330
1EF
100
AcDbEntity
  8
Defpoints
 62
     0
100
AcDbPoint
 10
46.88265276727265
 20
-42.19565494676022
 30
0.0
  0
POINT
  5
1FB
330
1EF
100
AcDbEntity
  8
Defpoints
 62
     0
100
AcDbPoint
 10
46.88265276727265
 20
-25.08439318325365
 30
0.0
  0
ENDBLK
  5
1F1
330
1EF
100
AcDbEntity
  8
0
100
AcDbBlockEnd
  0
ENDSEC
  0
SECTION
  2
ENTITIES
  0
SPLINE
  5
96
330
1F
100
AcDbEntity
  8
0
  6
Continuous
 62
     1
370
    15
100
AcDbSpline
210
0.0
220
0.0
230
1.0
 70
     8
 71
     3
 72
    19
 73
    15
 74
     0
 42
0.000000001
 43
0.00000001
 40
0.0
 40
0.0
 40
0.0
 40
0.0
 40
0.1211096279607951
 40
0.2189065425372133
 40
0.2949136151193256
 40
0.3588363058078543
 40
0.4128469302855827
 40
0.4579275953333199
 40
0.5019954213647287
 40
0.663187243247623
 40
0.7101585393556864
 40
0.7809152625120668
 40
0.8775658668103046
 40
1.0
 40
1.0
 40
1.0
 40
1.0
 10
7.19745746466358
 20
3.254361711707992
 30
0.0
 10
7.060110855857898
 20
3.319004129371882
 30
0.0
 10
6.81185585112288
 20
3.435845774336968
 30
0.0
 10
6.468880655462623
 20
3.600222749550112
 30
0.0
 10
6.182514211068024
 20
3.739080225630568
 30
0.0
 10
5.949772371617811
 20
3.85296601416376
 30
0.0
 10
5.755390896493616
 20
3.948793057789847
 30
0.0
 10
5.586950974517787
 20
4.032357890888131
 30
0.0
 10
5.292644244021231
 20
4.179189675303406
 30
0.0
 10
4.996305322712866
 20
4.328947723357456
 30
0.0
 10
4.667368705735
 20
4.497332523149237
 30
0.0
 10
4.415447966696928
 20
4.627256572303382
 30
0.0
 10
4.075097129454976
 20
4.804418043304841
 30
0.0
 10
3.818178132198552
 20
4.940458363811566
 30
0.0
 10
3.67460055993253
 20
5.016483644764817
 30
0.0
1001
PE_URL
1000

  0
SPLINE
  5
97
330
1F
100
AcDbEntity
  8
0
  6
Continuous
 62
     1
370
    15
100
AcDbSpline
210
0.0
220
0.0
230
1.0
 70
     8
 71
     3
 72
     9
 73
     5
 74
     0
 42
0.000000001
 43
0.00000001
 40
0.0
 40
0.0
 40
0.0
 40
0.0
 40
0.4989302883118208
 40
1.0
 40
1.0
 40
1.0
 40
1.0
 10
2.999898088263805
 20
10.09191442517385
 30
0.0
 10
2.83318488649392
 20
10.08298042016436
 30
0.0
 10
2.499043613303286
 20
10.06507410094746
 30
0.0
 10
2.166584961038558
 20
10.04666750610936
 30
0.0
 10
2.000000000000031
 20
10.03744451894067
 30
0.0
1001
PE_URL
1000

  0
SPLINE
  5
98
330
1F
100
AcDbEntity
  8
0
  6
Continuous
 62
     1
370
    15
100
AcDbSpline
210
0.0
220
0.0
230
1.0
 70
     8
 71
     3
 72
    51
 73
    47
 74
     0
 42
0.000000001
 43
0.00000001
 40
0.0
 40
0.0
 40
0.0
 40
0.0
 40
0.0277953182460923
 40
0.0528008630605463
 40
0.0752365037103751
 40
0.0954787034544732
 40
0.1142835310309753
 40
0.1379349957221813
 40
0.1608686853188625
 40
0.1831265586985551
 40
0.2060536112666949
 40
0.2274226937649709
 40
0.2462419357345627
 40
0.2645782426100822
 40
0.285979479432815
 40
0.3287756739644391
 40
0.3715399815786547
 40
0.4102408966554811
 40
0.4482843069739901
 40
0.4867260207987102
 40
0.5058635685679774
 40
0.527899600834162
 40
0.5509495489905114
 40
0.5711905539692608
 40
0.5885236496813091
 40
0.6038456287539943
 40
0.6176900123813027
 40
0.6362060377093488
 40
0.6582340625047298
 40
0.6834909584423584
 40
0.7106668330587838
 40
0.7369449504577764
 40
0.7631386443248024
 40
0.7861654326522384
 40
0.8068195843028485
 40
0.8300381219624393
 40
0.8461923926347827
 40
0.860995376560957
 40
0.8732575745740927
 40
0.883282485638402
 40
0.8925082308094963
 40
0.9058108000741694
 40
0.9232012509855381
 40
0.9446679489559602
 40
0.9702675878436411
 40
1.0
 40
1.0
 40
1.0
 40
1.0
 10
35.38152543264244
 20
8.686197676937779
 30
0.0
 10
35.19456546909633
 20
8.670222993931551
 30
0.0
 10
34.83941042659589
 20
8.639876982334224
 30
0.0
 10
34.30567292292518
 20
8.597458753235458
 30
0.0
 10
33.80661615653192
 20
8.561552694445556
 30
0.0
 10
33.33777171634411
 20
8.531864379267617
 30
0.0
 10
32.85880342361238
 20
8.50398000675498
 30
0.0
 10
32.35982032649837
 20
8.476251515152466
 30
0.0
 10
31.84686366680336
 20
8.450953710877394
 30
0.0
 10
31.34603589768024
 20
8.429129833302722
 30
0.0
 10
30.85352525267254
 20
8.410467487208246
 30
0.0
 10
30.38611217149331
 20
8.395395916350052
 30
0.0
 10
29.95267457650031
 20
8.38363626306672
 30
0.0
 10
29.51869717887524
 20
8.373921705370497
 30
0.0
 10
28.90668772535696
 20
8.363334617793143
 30
0.0
 10
28.11374290874614
 20
8.356225085697027
 30
0.0
 10
27.19330535271481
 20
8.358113969929102
 30
0.0
 10
26.30752939191176
 20
8.369198510448093
 30
0.0
 10
25.45372943430452
 20
8.388368516394477
 30
0.0
 10
24.74515876726962
 20
8.41123602711405
 30
0.0
 10
24.15518880698129
 20
8.434569265810552
 30
0.0
 10
23.67928547166625
 20
8.45587133394482
 30
0.0
 10
23.19518498002452
 20
8.480298757301686
 30
0.0
 10
22.74584052114342
 20
8.505434300686542
 30
0.0
 10
22.35362911767496
 20
8.529243254510638
 30
0.0
 10
22.00890020534962
 20
8.551604122694357
 30
0.0
 10
21.65556106462717
 20
8.575833005384549
 30
0.0
 10
21.25262273872754
 20
8.605039225518757
 30
0.0
 10
20.76514869226332
 20
8.642773691905484
 30
0.0
 10
20.21344502879397
 20
8.68863336898563
 30
0.0
 10
19.63011504317005
 20
8.740816595151374
 30
0.0
 10
19.03970631950813
 20
8.797447934202067
 30
0.0
 10
18.48001742860285
 20
8.854695007204484
 30
0.0
 10
17.96240808963843
 20
8.910737831868142
 30
0.0
 10
17.46707991575509
 20
8.966772474668412
 30
0.0
 10
17.02437486647832
 20
9.019035156103197
 30
0.0
 10
16.62664680595771
 20
9.067696040397433
 30
0.0
 10
16.3064003208683
 20
9.10799217870956
 30
0.0
 10
16.02803082390213
 20
9.143930901235688
 30
0.0
 10
15.78846465372927
 20
9.175390079101765
 30
0.0
 10
15.54321046739586
 20
9.208082307884597
 30
0.0
 10
15.24594595625074
 20
9.24855259605399
 30
0.0
 10
14.8598082860567
 20
9.302486841761946
 30
0.0
 10
14.38481807749735
 20
9.371019337362718
 30
0.0
 10
13.82009065532435
 20
9.454916121411532
 30
0.0
 10
13.41369487072126
 20
9.518135431808878
 30
0.0
 10
13.19532004567079
 20
9.552106024937235
 30
0.0
1001
PE_URL
1000

  0
SPLINE
  5
99
330
1F
100
AcDbEntity
  8
0
  6
Continuous
 62
     1
370
    15
100
AcDbSpline
210
0.0
220
0.0
230
1.0
 70
     8
 71
     3
 72
    27
 73
    23
 74
     0
 42
0.000000001
 43
0.00000001
 40
0.0
 40
0.0
 40
0.0
 40
0.0
 40
0.0645227995267065
 40
0.1205047316238963
 40
0.1682252734134774
 40
0.2084526139685117
 40
0.2432813071156268
 40
0.2762238788104017
 40
0.3246650864657081
 40
0.3695977666706268
 40
0.4132920336424368
 40
0.4600629340708851
 40
0.5010278117967086
 40
0.5359601588548178
 40
0.577087297779478
 40
0.6276557384334817
 40
0.7014230649977341
 40
0.7794996282115121
 40
0.8606506120961466
 40
0.9407327432279053
 40
0.9987477400820204
 40
0.9999999999999999
 40
0.9999999999999999
 40
0.9999999999999999
 40
0.9999999999999999
 10
13.19532004567079
 20
-9.55210602493724
 30
0.0
 10
13.38457928107952
 20
-9.522443718102142
 30
0.0
 10
13.73804555249932
 20
-9.467045496841926
 30
0.0
 10
14.24883652581247
 20
-9.389264795672043
 30
0.0
 10
14.69925939656104
 20
-9.323140736336313
 30
0.0
 10
15.09675757588539
 20
-9.267643650741746
 30
0.0
 10
15.44655098027545
 20
-9.22083943616311
 30
0.0
 10
15.82291852971352
 20
-9.170771116970963
 30
0.0
 10
16.23211238689472
 20
-9.117223799640401
 30
0.0
 10
16.67815495386035
 20
-9.060035191509362
 30
0.0
 10
17.11191877763975
 20
-9.007453901601648
 30
0.0
 10
17.49485903528382
 20
-8.963646142333705
 30
0.0
 10
17.86377265233784
 20
-8.921886178658555
 30
0.0
 10
18.2344684851539
 20
-8.881177555459528
 30
0.0
 10
18.63578842206259
 20
-8.838633823833879
 30
0.0
 10
19.16051547198487
 20
-8.785533818826874
 30
0.0
 10
19.80249987448544
 20
-8.724691758246024
 30
0.0
 10
20.54104915489467
 20
-8.660534970851602
 30
0.0
 10
21.29909860381659
 20
-8.600780721407263
 30
0.0
 10
21.99395001028853
 20
-8.552285649137335
 30
0.0
 10
22.43579331901122
 20
-8.523700161817889
 30
0.0
 10
22.62367916034962
 20
-8.51298989549421
 30
0.0
 10
22.62764900678892
 20
-8.51276359790666
 30
0.0
1001
PE_URL
1000

  0
SPLINE
  5
9A
330
1F
100
AcDbEntity
  8
0
  6
Continuous
 62
     1
370
    15
100
AcDbSpline
210
0.0
220
0.0
230
1.0
 70
     8
 71
     3
 72
     9
 73
     5
 74
     0
 42
0.000000001
 43
0.00000001
 40
0.0
 40
0.0
 40
0.0
 40
0.0
 40
0.5010697116881793
 40
1.0
 40
1.0
 40
1.0
 40
1.0
 10
2.000000000000031
 20
-10.03744451894067
 30
0.0
 10
2.166584961038558
 20
-10.04666750610936
 30
0.0
 10
2.499043613303284
 20
-10.06507410094746
 30
0.0
 10
2.833184886493922
 20
-10.08298042016436
 30
0.0
 10
2.999898088263805
 20
-10.09191442517385
 30
0.0
1001
PE_URL
1000

  0
SPLINE
  5
9B
330
1F
100
AcDbEntity
  8
0
  6
Continuous
 62
     1
370
    15
100
AcDbSpline
210
0.0
220
0.0
230
1.0
 70
     8
 71
     3
 72
    44
 73
    40
 74
     0
 42
0.000000001
 43
0.00000001
 40
0.0
 40
0.0
 40
0.0
 40
0.0
 40
0.0625
 40
0.0625
 40
0.125
 40
0.125
 40
0.1875000000000001
 40
0.1875000000000001
 40
0.2500000000000001
 40
0.2500000000000001
 40
0.3125000000000001
 40
0.3125000000000001
 40
0.3750000000000001
 40
0.3750000000000001
 40
0.4375000000000001
 40
0.4375000000000001
 40
0.5000000000000001
 40
0.5000000000000001
 40
0.5625000000000001
 40
0.5625000000000001
 40
0.6250000000000001
 40
0.6250000000000001
 40
0.6875000000000001
 40
0.6875000000000001
 40
0.7500000000000002
 40
0.7500000000000002
 40
0.7812500000000002
 40
0.7812500000000002
 40
0.8125000000000002
 40
0.8125000000000002
 40
0.8437500000000002
 40
0.8437500000000002
 40
0.8750000000000002
 40
0.8750000000000002
 40
0.9375000000000001
 40
0.9375000000000001
 40
0.9687500000000001
 40
0.9687500000000001
 40
1.0
 40
1.0
 40
1.0
 40
1.0
 10
40.10000000000002
 20
-12.05154903924513
 30
0.0
 10
39.30895787455666
 20
-11.9071494162766
 30
0.0
 10
38.51259063939912
 20
-11.73887281937317
 30
0.0
 10
36.92314963114093
 20
-11.35730120945462
 30
0.0
 10
36.13301252693662
 20
-11.14434336264861
 30
0.0
 10
34.54397570823368
 20
-10.67498700334209
 30
0.0
 10
33.74742603318084
 20
-10.41872662182522
 30
0.0
 10
32.16421841861523
 20
-9.86768373793564
 30
0.0
 10
31.36914480394367
 20
-9.57194535742616
 30
0.0
 10
29.77938353161998
 20
-8.94424346034112
 30
0.0
 10
28.98909608137728
 20
-8.61292358160937
 30
0.0
 10
27.40054730655284
 20
-7.916867087530411
 30
0.0
 10
26.60385747564321
 20
-7.552291910351336
 30
0.0
 10
25.01960932782128
 20
-6.796520384636283
 30
0.0
 10
24.22567985513478
 20
-6.404337579790387
 30
0.0
 10
22.63568230064073
 20
-5.596113723916486
 30
0.0
 10
21.84509418477007
 20
-5.181032485972047
 30
0.0
 10
20.25711722224586
 20
-4.331098673663912
 30
0.0
 10
19.46032954440105
 20
-3.896317127483279
 30
0.0
 10
17.87512387617771
 20
-3.014775515952847
 30
0.0
 10
17.08218886606858
 20
-2.56719679252642
 30
0.0
 10
15.49203905292258
 20
-1.662948182236736
 30
0.0
 10
14.70100000472213
 20
-1.207458159819899
 30
0.0
 10
13.11367852231518
 20
-0.2925459076083849
 30
0.0
 10
12.31683532383172
 20
0.1669875981888318
 30
0.0
 10
11.12727531801013
 20
0.8533607836894123
 30
0.0
 10
10.73217557709256
 20
1.081574563772602
 30
0.0
 10
9.938694375908922
 20
1.537353718925528
 30
0.0
 10
9.541110409062798
 20
1.764764980151405
 30
0.0
 10
8.746001398335862
 20
2.217628446733968
 30
0.0
 10
8.348477208209118
 20
2.443080166107112
 30
0.0
 10
7.555234240126511
 20
2.891038556990023
 30
0.0
 10
7.160161112611863
 20
3.113426672945724
 30
0.0
 10
5.970224275304291
 20
3.7765916815359
 30
0.0
 10
5.173367892338731
 20
4.212831899754129
 30
0.0
 10
3.983214632650877
 20
4.852648646626175
 30
0.0
 10
3.588125387208129
 20
5.063367776315207
 30
0.0
 10
2.795034566593723
 20
5.480178095846511
 30
0.0
 10
2.397550541846096
 20
5.686173019927673
 30
0.0
 10
1.999999999996272
 20
5.889298411671211
 30
0.0
1001
PE_URL
1000

  0
SPLINE
  5
9C
330
1F
100
AcDbEntity
  8
0
  6
Continuous
 62
     1
370
    15
100
AcDbSpline
210
0.0
220
0.0
230
1.0
 70
     8
 71
     3
 72
    23
 73
    19
 74
     0
 42
0.000000001
 43
0.00000001
 40
0.0
 40
0.0
 40
0.0
 40
0.0
 40
0.0625072077385857
 40
0.1249655066137224
 40
0.1875171403301003
 40
0.2499561106870456
 40
0.3125136270106211
 40
0.3749628909098819
 40
0.4374877320198117
 40
0.4999768893041731
 40
0.5624469763646361
 40
0.6249891399438707
 40
0.687430867393451
 40
0.7499906774490354
 40
0.8124336613968547
 40
0.8749725544730562
 40
0.9374464083160997
 40
1.0
 40
1.0
 40
1.0
 40
1.0
 10
40.10000000000003
 20
-10.01994775747635
 30
0.0
 10
39.41398218297582
 20
-9.88630666138563
 30
0.0
 10
38.04248332465217
 20
-9.619129036890971
 30
0.0
 10
35.9851474010447
 20
-9.109918785668748
 30
0.0
 10
33.92732314637593
 20
-8.528976721307933
 30
0.0
 10
31.86995106436169
 20
-7.869500260067207
 30
0.0
 10
29.81208284278438
 20
-7.144285922880573
 30
0.0
 10
27.75472969364407
 20
-6.353978654356315
 30
0.0
 10
25.69709395623741
 20
-5.510064719753072
 30
0.0
 10
23.6396845471313
 20
-4.617164754306843
 30
0.0
 10
21.58234564088027
 20
-3.683265802940113
 30
0.0
 10
19.52458993011428
 20
-2.719239221520536
 30
0.0
 10
17.46722283200519
 20
-1.72824634255394
 30
0.0
 10
15.40933691016036
 20
-0.7259398263171091
 30
0.0
 10
13.35197428671876
 20
0.2866521113666646
 30
0.0
 10
11.29423292705496
 20
1.292809550466788
 30
0.0
 10
9.236160782854117
 20
2.292995761052194
 30
0.0
 10
7.864096069217998
 20
2.938553347287415
 30
0.0
 10
7.177626186553828
 20
3.261537996678654
 30
0.0
1001
PE_URL
1000

  0
LINE
  5
9D
330
1F
100
AcDbEntity
  8
0
  6
Continuous
 62
     1
370
    15
100
AcDbLine
 10
40.09999999999974
 20
-12.05154903924513
 30
0.0
 11
40.10000000000003
 21
-10.01994775747635
 31
0.0
1001
PE_URL
1000

  0
SPLINE
  5
9E
330
1F
100
AcDbEntity
  8
0
  6
Continuous
 62
     1
370
    15
100
AcDbSpline
210
0.0
220
0.0
230
1.0
 70
     8
 71
     3
 72
    44
 73
    40
 74
     0
 42
0.000000001
 43
0.00000001
 40
0.0
 40
0.0
 40
0.0
 40
0.0
 40
0.0624999999999998
 40
0.0624999999999998
 40
0.1249999999999996
 40
0.1249999999999996
 40
0.1874999999999994
 40
0.1874999999999994
 40
0.2499999999999995
 40
0.2499999999999995
 40
0.3124999999999996
 40
0.3124999999999996
 40
0.3749999999999996
 40
0.3749999999999996
 40
0.4374999999999996
 40
0.4374999999999996
 40
0.4999999999999996
 40
0.4999999999999996
 40
0.5624999999999996
 40
0.5624999999999996
 40
0.6249999999999997
 40
0.6249999999999997
 40
0.6874999999999997
 40
0.6874999999999997
 40
0.7499999999999996
 40
0.7499999999999996
 40
0.7812499999999997
 40
0.7812499999999997
 40
0.8124999999999997
 40
0.8124999999999997
 40
0.8437499999999998
 40
0.8437499999999998
 40
0.8749999999999999
 40
0.8749999999999999
 40
0.9375
 40
0.9375
 40
0.96875
 40
0.96875
 40
1.0
 40
1.0
 40
1.0
 40
1.0
 10
40.10000000000003
 20
-12.68926615341648
 30
0.0
 10
39.30895787455675
 20
-12.67045007716505
 30
0.0
 10
38.51259063939931
 20
-12.62679180146505
 30
0.0
 10
36.92314963114121
 20
-12.49032776008258
 30
0.0
 10
36.13301252693702
 20
-12.39771592936382
 30
0.0
 10
34.54397570823422
 20
-12.16413301851544
 30
0.0
 10
33.74742603318146
 20
-12.02317103260827
 30
0.0
 10
32.16421841861602
 20
-11.69554951397602
 30
0.0
 10
31.36914480394453
 20
-11.50833221979438
 30
0.0
 10
29.77938353162099
 20
-11.08966134442441
 30
0.0
 10
28.98909608137838
 20
-10.858671315707
 30
0.0
 10
27.40054730655411
 20
-10.35445701614152
 30
0.0
 10
26.60385747564454
 20
-10.08131043032333
 30
0.0
 10
25.01960932782276
 20
-9.497834478838612
 30
0.0
 10
24.22567985513635
 20
-9.186758043953795
 30
0.0
 10
22.63568230064247
 20
-8.529626778831831
 30
0.0
 10
21.84509418477186
 20
-8.18437090095246
 30
0.0
 10
20.25711722224781
 20
-7.462300566295573
 30
0.0
 10
19.46032954440308
 20
-7.085515887097919
 30
0.0
 10
17.87512387617989
 20
-6.307102904698135
 30
0.0
 10
17.08218886607085
 20
-5.904769220205144
 30
0.0
 10
15.492039052925
 20
-5.077871122673724
 30
0.0
 10
14.70100000472463
 20
-4.654395065089298
 30
0.0
 10
13.11367852231785
 20
-3.790015924400277
 30
0.0
 10
12.31683532383445
 20
-3.348981530224513
 30
0.0
 10
11.12727531801297
 20
-2.679970581577936
 30
0.0
 10
10.73217557709545
 20
-2.455818424114548
 30
0.0
 10
9.938694375911892
 20
-2.004718034674425
 30
0.0
 10
9.541110409065809
 20
-1.777918541232278
 30
0.0
 10
8.746001398338953
 20
-1.322813607173146
 30
0.0
 10
8.348477208212241
 20
-1.094508655453784
 30
0.0
 10
7.55523424012971
 20
-0.6373994508019303
 30
0.0
 10
7.160161112615105
 20
-0.4087200921928896
 30
0.0
 10
5.970224275307663
 20
0.2784883661847473
 30
0.0
 10
5.173367892342186
 20
0.7376625064755135
 30
0.0
 10
3.98321463265443
 20
1.421937826923885
 30
0.0
 10
3.588125387211711
 20
1.649135667079274
 30
0.0
 10
2.795034566597392
 20
2.102257568640213
 30
0.0
 10
2.397550541849816
 20
2.32808114860278
 30
0.0
 10
2.000000000000031
 20
2.55266867352386
 30
0.0
1001
PE_URL
1000

  0
SPLINE
  5
9F
330
1F
100
AcDbEntity
  8
0
  6
Continuous
 62
     1
370
    15
100
AcDbSpline
210
0.0
220
0.0
230
1.0
 70
     8
 71
     3
 72
    10
 73
     6
 74
     0
 42
0.000000001
 43
0.00000001
 40
0.0
 40
0.0
 40
0.0
 40
0.0
 40
0.2349078904498321
 40
0.6176917210234614
 40
0.9999999999999999
 40
0.9999999999999999
 40
0.9999999999999999
 40
0.9999999999999999
 10
8.545307883798701
 20
-1.206038507323855
 30
0.0
 10
8.032816500216379
 20
-1.000923650295792
 30
0.0
 10
6.685217302384119
 20
-0.4615728911427965
 30
0.0
 10
4.503111867628978
 20
0.4232662456276931
 30
0.0
 10
2.834024809271479
 20
1.092819752263163
 30
0.0
 10
2.000000000000031
 20
1.427388421328398
 30
0.0
1001
PE_URL
1000

  0
SPLINE
  5
A0
330
1F
100
AcDbEntity
  8
외형선
  6
Continuous
370
    15
100
AcDbSpline
210
0.0
220
0.0
230
1.0
 70
    24
 71
     3
 72
    14
 73
    10
 74
     0
 42
0.000000001
 43
0.00000001
 40
0.0
 40
0.0
 40
0.0
 40
0.0
 40
0.0525749688799667
 40
0.1872201051736338
 40
0.4477271842018277
 40
0.5813892736161079
 40
0.7160344099097775
 40
0.8574343791793584
 40
1.0
 40
1.0
 40
1.0
 40
1.0
 10
2.000000000000029
 20
2.562873035946619
 30
0.0
 10
2.000000000000029
 20
2.56130634050117
 30
0.0
 10
2.000000000000029
 20
2.555727318918833
 30
0.0
 10
2.000000000000029
 20
2.489204211035353
 30
0.0
 10
2.000000000000029
 20
2.350860576739044
 30
0.0
 10
2.000000000000028
 20
2.140952387988192
 30
0.0
 10
2.000000000000029
 20
1.943688892148928
 30
0.0
 10
2.000000000000028
 20
1.709383237587361
 30
0.0
 10
2.000000000000029
 20
1.521643577855652
 30
0.0
 10
2.000000000000029
 20
1.4273884213284
 30
0.0
  0
LINE
  5
A1
330
1F
100
AcDbEntity
  8
외형선
  6
Continuous
370
    15
100
AcDbLine
 10
2.000000000000029
 20
2.55266867352386
 30
0.0
 11
2.000000000000029
 21
5.889298411667617
 31
0.0
  0
LINE
  5
A2
330
1F
100
AcDbEntity
  8
0
  6
Continuous
 62
     1
370
    15
100
AcDbLine
 10
40.10000000000004
 20
-12.68926615341648
 30
0.0
 11
40.09999999999969
 21
-12.05154903924511
 31
0.0
1001
PE_URL
1000

  0
SPLINE
  5
A3
330
1F
100
AcDbEntity
  8
0
  6
Continuous
 62
     1
370
    15
100
AcDbSpline
210
0.0
220
0.0
230
1.0
 70
     8
 71
     3
 72
    10
 73
     6
 74
     0
 42
0.000000001
 43
0.00000001
 40
0.0
 40
0.0
 40
0.0
 40
0.0
 40
0.5
 40
0.5
 40
1.0
 40
1.0
 40
1.0
 40
1.0
 10
40.10000000000002
 20
-3.393985414576483
 30
0.0
 10
39.24940223300546
 20
-2.725276500219905
 30
0.0
 10
38.40743926415033
 20
-2.038875865003508
 30
0.0
 10
36.74054037091926
 20
-0.6311881139455336
 30
0.0
 10
35.91560326807888
 20
0.0900965873561309
 30
0.0
 10
35.10000000000171
 20
0.83050525618042
 30
0.0
1001
PE_URL
1000

  0
LINE
  5
A4
330
1F
100
AcDbEntity
  8
0
  6
Continuous
 62
     1
370
    15
100
AcDbLine
 10
35.10000000000003
 20
2.937719435296589
 30
0.0
 11
40.10000000000003
 21
0.0000000000000025
 31
0.0
1001
PE_URL
1000

  0
LINE
  5
A5
330
1F
100
AcDbEntity
  8
0
  6
Continuous
 62
     1
370
    15
100
AcDbLine
 10
40.10000000000003
 20
0.0000000000000025
 30
0.0
 11
40.10000000000003
 21
-3.393985414576487
 31
0.0
1001
PE_URL
1000

  0
SPLINE
  5
A6
330
1F
100
AcDbEntity
  8
0
  6
Continuous
 62
     1
370
    15
100
AcDbSpline
210
0.0
220
0.0
230
1.0
 70
     8
 71
     3
 72
    21
 73
    17
 74
     0
 42
0.000000001
 43
0.00000001
 40
0.0
 40
0.0
 40
0.0
 40
0.0
 40
0.0549503537933243
 40
0.1097971655157351
 40
0.1647537796771515
 40
0.2448451679898389
 40
0.3249239937197531
 40
0.4050882207681116
 40
0.4852150430827528
 40
0.5652865475211429
 40
0.6454059128631942
 40
0.7255754083496793
 40
0.8056573294929902
 40
0.8807760409807769
 40
0.9559856959951927
 40
1.0
 40
1.0
 40
1.0
 40
1.0
 10
35.10000000000004
 20
2.289784744250639
 30
0.0
 10
34.51190236255234
 20
2.55270195124769
 30
0.0
 10
33.33681523060921
 20
3.078040954562662
 30
0.0
 10
31.57448923207643
 20
3.844545947214038
 30
0.0
 10
29.54202019443278
 20
4.698247662957135
 30
0.0
 10
27.2402717274885
 20
5.619820333237228
 30
0.0
 10
24.66878972043445
 20
6.572433994885762
 30
0.0
 10
22.096312621682
 20
7.434461934986969
 30
0.0
 10
19.52421909444416
 20
8.195479371385874
 30
0.0
 10
16.95295615202684
 20
8.844822891657632
 30
0.0
 10
14.38094455362968
 20
9.373220602392195
 30
0.0
 10
11.80841430627933
 20
9.772964532088661
 30
0.0
 10
9.290029573521592
 20
10.03573744204404
 30
0.0
 10
6.824792834030239
 20
10.15983923619273
 30
0.0
 10
4.744706127039751
 20
10.17687973553175
 30
0.0
 10
3.469081512820924
 20
10.10404338571256
 30
0.0
 10
2.998154947153112
 20
10.07715414910345
 30
0.0
1001
PE_URL
1000

  0
SPLINE
  5
A7
330
1F
100
AcDbEntity
  8
0
  6
Continuous
 62
     1
370
    15
100
AcDbSpline
210
0.0
220
0.0
230
1.0
 70
    24
 71
     3
 72
     8
 73
     4
 74
     0
 42
0.000000001
 43
0.00000001
 40
0.0
 40
0.0
 40
0.0
 40
0.0
 40
1.0
 40
1.0
 40
1.0
 40
1.0
 10
35.10000000000004
 20
0.8305052561693256
 30
0.0
 10
35.10000000000004
 20
1.322728240362211
 30
0.0
 10
35.10000000000004
 20
1.810406971894835
 30
0.0
 10
35.10000000000004
 20
2.289784744250642
 30
0.0
1001
PE_URL
1000

  0
SPLINE
  5
A8
330
1F
100
AcDbEntity
  8
0
  6
Continuous
 62
     1
370
    15
100
AcDbSpline
210
0.0
220
0.0
230
1.0
 70
    24
 71
     3
 72
    12
 73
     8
 74
     0
 42
0.000000001
 43
0.00000001
 40
0.0
 40
0.0
 40
0.0
 40
0.0
 40
0.5000000000000001
 40
0.5000000000000001
 40
0.75
 40
0.75
 40
1.0
 40
1.0
 40
1.0
 40
1.0
 10
40.10000000000003
 20
-10.01994775747634
 30
0.0
 10
40.10000000000003
 20
-9.251840640348322
 30
0.0
 10
40.10000000000003
 20
-8.28130784561215
 30
0.0
 10
40.10000000000003
 20
-6.58901133731326
 30
0.0
 10
40.10000000000003
 20
-5.986484557406002
 30
0.0
 10
40.10000000000004
 20
-4.725678605577802
 30
0.0
 10
40.10000000000003
 20
-4.06749497066426
 30
0.0
 10
40.10000000000003
 20
-3.39398541457689
 30
0.0
1001
PE_URL
1000

  0
SPLINE
  5
A9
330
1F
100
AcDbEntity
  8
외형선
  6
Continuous
370
    15
100
AcDbSpline
210
0.0
220
0.0
230
1.0
 70
    24
 71
     3
 72
    18
 73
    14
 74
     0
 42
0.000000001
 43
0.00000001
 40
0.0
 40
0.0
 40
0.0
 40
0.0
 40
0.053278120547887
 40
0.1283619461107405
 40
0.2034457716735939
 40
0.3127576884873312
 40
0.4220696053010685
 40
0.5345572698051666
 40
0.6470449343092649
 40
0.7458445524212488
 40
0.8446441705332327
 40
0.9457664569358682
 40
1.0
 40
1.0
 40
1.0
 40
1.0
 10
2.000000000000029
 20
10.03308731213654
 30
0.0
 10
2.000000000000029
 20
10.02761125647681
 30
0.0
 10
2.000000000000028
 20
10.01441790141351
 30
0.0
 10
2.000000000000029
 20
9.941160325475163
 30
0.0
 10
2.000000000000029
 20
9.802600431680258
 30
0.0
 10
2.000000000000029
 20
9.571585043289268
 30
0.0
 10
2.000000000000029
 20
9.218204297728725
 30
0.0
 10
2.000000000000029
 20
8.766872060742534
 30
0.0
 10
2.000000000000028
 20
8.240915954423958
 30
0.0
 10
2.000000000000029
 20
7.660991287701091
 30
0.0
 10
2.000000000000028
 20
7.033918334674004
 30
0.0
 10
2.000000000000028
 20
6.455467108741912
 30
0.0
 10
2.000000000000029
 20
6.062311834151029
 30
0.0
 10
2.000000000000029
 20
5.92506430640392
 30
0.0
  0
SPLINE
  5
AA
330
1F
100
AcDbEntity
  8
0
  6
Continuous
 62
     1
370
    15
100
AcDbSpline
210
0.0
220
0.0
230
1.0
 70
    24
 71
     3
 72
    10
 73
     6
 74
     0
 42
0.000000001
 43
0.00000001
 40
0.0
 40
0.0
 40
0.0
 40
0.0
 40
0.5000000000000001
 40
0.5000000000000001
 40
1.0
 40
1.0
 40
1.0
 40
1.0
 10
35.10000000000003
 20
2.28978474425064
 30
0.0
 10
35.10000000000003
 20
3.318117051978202
 30
0.0
 10
35.10000000000004
 20
4.293337801787545
 30
0.0
 10
35.10000000000003
 20
6.003026800807384
 30
0.0
 10
35.10000000000003
 20
6.735761112039308
 30
0.0
 10
35.10000000000003
 20
7.298596457508377
 30
0.0
1001
PE_URL
1000

  0
SPLINE
  5
AB
330
1F
100
AcDbEntity
  8
0
  6
Continuous
 62
     1
370
    15
100
AcDbSpline
210
0.0
220
0.0
230
1.0
 70
     8
 71
     3
 72
     9
 73
     5
 74
     0
 42
0.000000001
 43
0.00000001
 40
0.0
 40
0.0
 40
0.0
 40
0.0
 40
0.545077473062252
 40
1.0
 40
1.0
 40
1.0
 40
1.0
 10
40.10000000000003
 20
8.889999999999997
 30
0.0
 10
39.24231168174121
 20
8.880725869618495
 30
0.0
 10
37.66879532737727
 20
8.863711535253506
 30
0.0
 10
36.09550678927153
 20
8.735992944131093
 30
0.0
 10
35.37978239191425
 20
8.677890879920753
 30
0.0
1001
PE_URL
1000

  0
SPLINE
  5
AC
330
1F
100
AcDbEntity
  8
0
  6
Continuous
 62
     1
370
    15
100
AcDbSpline
210
0.0
220
0.0
230
1.0
 70
     8
 71
     3
 72
     8
 73
     4
 74
     0
 42
0.000000001
 43
0.00000001
 40
0.0
 40
0.0
 40
0.0
 40
0.0
 40
1.0
 40
1.0
 40
1.0
 40
1.0
 10
40.10000000000003
 20
8.890000000000002
 30
0.0
 10
38.4193518865621
 20
8.43438940178129
 30
0.0
 10
36.75204233969719
 20
7.907363561684508
 30
0.0
 10
35.10000000000003
 20
7.298596457508376
 30
0.0
1001
PE_URL
1000

  0
SPLINE
  5
AD
330
1F
100
AcDbEntity
  8
0
  6
Continuous
 62
     1
370
    15
100
AcDbSpline
210
0.0
220
0.0
230
1.0
 70
     8
 71
     3
 72
    12
 73
     8
 74
     0
 42
0.000000001
 43
0.00000001
 40
0.0
 40
0.0
 40
0.0
 40
0.0
 40
0.1243414803246634
 40
0.3538661635124716
 40
0.5691656744327435
 40
0.7847258407398925
 40
1.0
 40
1.0
 40
1.0
 40
1.0
 10
13.20039331710069
 20
-9.534992645240415
 30
0.0
 10
12.73611192444283
 20
-9.610663515557308
 30
0.0
 10
11.41480326074441
 20
-9.826016915716064
 30
0.0
 10
9.290035356032769
 20
-10.03147408739467
 30
0.0
 10
6.824781475392909
 20
-10.16276233339279
 30
0.0
 10
4.41192443528538
 20
-10.17202219394596
 30
0.0
 10
2.803618923443973
 20
-10.07610826019511
 30
0.0
 10
2.000000000000031
 20
-10.0281831292939
 30
0.0
1001
PE_URL
1000

  0
SPLINE
  5
AE
330
1F
100
AcDbEntity
  8
외형선
  6
Continuous
370
    15
100
AcDbSpline
210
0.0
220
0.0
230
1.0
 70
    24
 71
     3
 72
    14
 73
    10
 74
     0
 42
0.000000001
 43
0.00000001
 40
0.0
 40
0.0
 40
0.0
 40
0.0
 40
0.2500000000000001
 40
0.2500000000000001
 40
0.5000000000000001
 40
0.5000000000000001
 40
0.7500000000000002
 40
0.7500000000000002
 40
1.0
 40
1.0
 40
1.0
 40
1.0
 10
2.000000000000007
 20
1.427388421328407
 30
0.0
 10
2.000000000000008
 20
0.3039609947000234
 30
0.0
 10
2.000000000000007
 20
-0.8481983035655688
 30
0.0
 10
2.000000000000007
 20
-3.102063151810459
 30
0.0
 10
2.000000000000007
 20
-4.202574900751787
 30
0.0
 10
2.000000000000007
 20
-6.238560242141844
 30
0.0
 10
2.000000000000007
 20
-7.17294897647975
 30
0.0
 10
2.000000000000007
 20
-8.793831463666121
 30
0.0
 10
2.000000000000007
 20
-9.480020473356873
 30
0.0
 10
2.000000000000007
 20
-10.02818312929391
 30
0.0
  0
LINE
  5
AF
330
1F
100
AcDbEntity
  8
0
  6
Continuous
 62
     1
370
    15
100
AcDbLine
 10
40.10000000000003
 20
0.0000000000000025
 30
0.0
 11
40.10000000000003
 21
8.89
 31
0.0
1001
PE_URL
1000

  0
SPLINE
  5
B0
330
1F
100
AcDbEntity
  8
0
  6
Continuous
 62
     1
370
    15
100
AcDbSpline
210
0.0
220
0.0
230
1.0
 70
     8
 71
     3
 72
    16
 73
    12
 74
     0
 42
0.000000001
 43
0.00000001
 40
0.0
 40
0.0
 40
0.0
 40
0.0
 40
0.0404928293110503
 40
0.1604758664868812
 40
0.280405457793267
 40
0.4002798541018918
 40
0.5203109546208442
 40
0.6401427551749254
 40
0.7601841598266164
 40
0.8800433906218701
 40
1.0
 40
1.0
 40
1.0
 40
1.0
 10
22.62790912618447
 20
8.512876050145291
 30
0.0
 10
22.86369287639381
 20
8.615734653095714
 30
0.0
 10
23.79812008886932
 20
9.023370368231955
 30
0.0
 10
25.43158070954895
 20
9.659637566592414
 30
0.0
 10
27.52698194187225
 20
10.40621952056972
 30
0.0
 10
29.62213809989667
 20
11.05434579131112
 30
0.0
 10
31.71815219321802
 20
11.60204954241701
 30
0.0
 10
33.81323868253381
 20
12.04631513202436
 30
0.0
 10
35.90931944295554
 20
12.3779067852414
 30
0.0
 10
38.00444059217944
 20
12.60634711386174
 30
0.0
 10
39.40129113103034
 20
12.66161899241158
 30
0.0
 10
40.10000000000004
 20
12.68926615341647
 30
0.0
1001
PE_URL
1000

  0
SPLINE
  5
B1
330
1F
100
AcDbEntity
  8
0
  6
Continuous
 62
     1
370
    15
100
AcDbSpline
210
0.0
220
0.0
230
1.0
 70
    24
 71
     3
 72
    10
 73
     6
 74
     0
 42
0.000000001
 43
0.00000001
 40
0.0
 40
0.0
 40
0.0
 40
0.0
 40
0.5
 40
0.5
 40
1.0
 40
1.0
 40
1.0
 40
1.0
 10
40.10000000000003
 20
8.889999999999997
 30
0.0
 10
40.10000000000003
 20
9.428889661452882
 30
0.0
 10
40.10000000000003
 20
10.05512935461238
 30
0.0
 10
40.10000000000003
 20
11.36897854420286
 30
0.0
 10
40.10000000000003
 20
12.05323263467869
 30
0.0
 10
40.10000000000003
 20
12.68926615341647
 30
0.0
1001
PE_URL
1000

  0
LINE
  5
B2
330
1F
100
AcDbEntity
  8
중심선
 62
     1
100
AcDbLine
 10
-62.14999999999998
 20
-0.0000000000000079
 30
0.0
 11
47.10000000000004
 21
0.0000000000000054
 31
0.0
  0
LINE
  5
B3
330
1F
100
AcDbEntity
  8
참조1
100
AcDbLine
 10
-4.349999999999964
 20
-0.0000000000000062
 30
0.0
 11
-4.349999999999959
 21
-40.00000000000001
 31
0.0
  0
LINE
  5
B4
330
1F
100
AcDbEntity
  8
참조1
100
AcDbLine
 10
-4.349999999999959
 20
-40.00000000000001
 30
0.0
 11
-24.27133181430865
 21
-40.0
 31
0.0
  0
INSERT
  5
B6
330
1F
100
AcDbEntity
  8
0
  6
Continuous
 62
     7
100
AcDbBlockReference
 66
     1
  2
블럭10
 10
-18.29027293212517
 20
-52.04717430164393
 30
0.0
  0
ATTRIB
  5
B7
330
B6
100
AcDbEntity
  8
FORMAT
 62
     2
100
AcDbText
 10
-27.47156822086645
 20
-49.97180738881175
 30
0.0
 40
4.233333333333333
  1
E1030909 [ 2 FLUTE ]
 41
0.75
  7
SLDTEXTSTYLE0
 11
-27.47156822086645
 21
-52.08847405547841
 31
0.0
100
AcDbAttribute
  2
AUTOATTR0
 70
     0
 74
     1
  0
SEQEND
  5
B8
330
B6
100
AcDbEntity
  8
0
  6
Continuous
 62
     7
  0
HATCH
  5
B9
330
1F
100
AcDbEntity
  8
중심선
100
AcDbHatch
 10
0.0
 20
0.0
 30
0.0
210
0.0
220
0.0
230
1.0
  2
SOLID
 70
     1
 71
     0
 91
        1
 92
        0
 93
        4
 72
     1
 10
-12.57536362774433
 20
-35.8
 11
-16.02163887158161
 21
-35.8
 72
     1
 10
-16.02163887158161
 20
-35.8
 11
-18.14986873078563
 21
-38.3363255805726
 72
     1
 10
-18.14986873078563
 20
-38.3363255805726
 11
-14.7035604018352
 21
-38.33628615127011
 72
     1
 10
-14.7035604018352
 20
-38.33628615127011
 11
-12.57536362774433
 21
-35.8
 97
        0
 75
     0
 76
     1
 98
        1
 10
-1.740578832126907
 20
-0.0010749287238954
  0
HATCH
  5
BA
330
1F
100
AcDbEntity
  8
중심선
100
AcDbHatch
 10
0.0
 20
0.0
 30
0.0
210
0.0
220
0.0
230
1.0
  2
SOLID
 70
     1
 71
     0
 91
        1
 92
        0
 93
        4
 72
     1
 10
-7.562599636708347
 20
-35.8
 11
-11.00887488054563
 21
-35.8
 72
     1
 10
-11.00887488054563
 20
-35.8
 11
-15.54001288890305
 21
-41.20000000000002
 72
     1
 10
-15.54001288890305
 20
-41.20000000000002
 11
-12.09373764506576
 21
-41.20000000000002
 72
     1
 10
-12.09373764506576
 20
-41.20000000000002
 11
-7.562599636708347
 21
-35.8
 97
        0
 75
     0
 76
     1
 98
        1
 10
-1.740578832126907
 20
-0.0010749287238954
  0
HATCH
  5
BB
330
1F
100
AcDbEntity
  8
중심선
100
AcDbHatch
 10
0.0
 20
0.0
 30
0.0
210
0.0
220
0.0
230
1.0
  2
SOLID
 70
     1
 71
     0
 91
        1
 92
        0
 93
        4
 72
     1
 10
-2.54983564567248
 20
-35.8
 11
-5.996110889509596
 21
-35.8
 72
     1
 10
-5.996110889509596
 20
-35.8
 11
-13.04454779139884
 21
-44.20000000000002
 72
     1
 10
-13.04454779139884
 20
-44.20000000000002
 11
-9.598272547561562
 21
-44.20000000000002
 72
     1
 10
-9.598272547561562
 20
-44.20000000000002
 11
-2.54983564567248
 21
-35.8
 97
        0
 75
     0
 76
     1
 98
        1
 10
-1.740578832126907
 20
-0.0010749287238954
  0
HATCH
  5
BC
330
1F
100
AcDbEntity
  8
중심선
100
AcDbHatch
 10
0.0
 20
0.0
 30
0.0
210
0.0
220
0.0
230
1.0
  2
SOLID
 70
     1
 71
     0
 91
        1
 92
        0
 93
        6
 72
     3
 10
2.25005478533972
 20
-40.00000000005127
 11
3.960054785062284
 21
1.540882976769353E-10
 40
0.3939339440162627
 50
17.09539180608437
 51
320.0019657685081
 73
     0
 72
     1
 10
3.933054441040316
 20
-38.5878940046383
 11
6.238356314741353
 21
-36.65356729459035
 72
     3
 10
2.250054785286873
 20
-40.00000000000015
 11
6.60005478528683
 21
-1.278976924368180E-13
 40
0.636358354079598
 50
39.99873849337432
 51
368.4976242363725
 73
     1
 72
     1
 10
8.675387277187482
 20
-39.03999999993002
 11
0.9301220921227955
 21
-39.03999999993002
 72
     1
 10
0.9301220921227955
 20
-39.03999999993002
 11
0.9300970476768615
 21
-40.95999999992991
 72
     1
 10
0.9300970476768615
 20
-40.95999999992991
 11
5.371476817148899
 21
-40.95999999992988
 97
        0
 75
     0
 76
     1
 98
        1
 10
-1.740578832126907
 20
-0.0010749287238954
  0
DIMENSION
  5
BD
330
1F
100
AcDbEntity
  8
치수문자_일반주서
100
AcDbDimension
  2
_D
 10
-70.14999999999989
 20
-9.52500000000007
 30
0.0
 11
-70.15000000000003
 21
29.14999999999993
 31
0.0
 70
   160
  1
%%c<>
 71
     2
 42
19.05
 52
-270.0
  3
SLDDIMSTYLE2
100
AcDbAlignedDimension
 13
-54.14999999999996
 23
9.524999999999995
 33
0.0
 14
-54.08749999999996
 24
-9.525000000000006
 34
0.0
 50
90.0000000000002
100
AcDbRotatedDimension
1001
PE_URL
1000

1001
ACAD
1000
DSTYLE
1002
{
1070
   171
1070
     8
1070
   273
1070
     7
1070
    41
1040
4.0
1070
   140
1040
4.0
1002
}
1001
ACAD_DSTYLE_DIMFLIPARROW_SYMBOL
1070
   385
1070
     0
1001
ACAD_DSTYLE_DIMFLIPARROW_WHICH_SYMBOL
1070
   386
1070
     3
  0
DIMENSION
  5
CB
330
1F
100
AcDbEntity
  8
치수문자_일반주서
100
AcDbDimension
  2
_D_1
 10
2.000000000000032
 20
24.525
 30
0.0
 11
21.05000000000004
 21
24.525
 31
0.0
 70
   160
  1
<>
 71
     2
 42
38.10000000000002
  3
SLDDIMSTYLE2
100
AcDbAlignedDimension
 13
40.10000000000004
 23
12.68926615341647
 33
0.0
 14
2.000000000000031
 24
5.472849324069391
 34
0.0
100
AcDbRotatedDimension
1001
PE_URL
1000

1001
ACAD
1000
DSTYLE
1002
{
1070
   171
1070
     8
1070
   273
1070
     7
1070
    41
1040
4.0
1070
   140
1040
4.0
1002
}
  0
DIMENSION
  5
E1
330
1F
100
AcDbEntity
  8
치수문자_일반주서
100
AcDbDimension
  2
_D_2
 10
-55.14999999999997
 20
39.525
 30
0.0
 11
-7.524999999999963
 21
39.525
 31
0.0
 70
   160
  1
<>
 71
     2
 42
95.25000000000003
  3
SLDDIMSTYLE2
100
AcDbAlignedDimension
 13
40.10000000000004
 23
12.68926615341647
 33
0.0
 14
-55.14999999999998
 24
8.524999999999991
 34
0.0
 50
0.000000000000008
100
AcDbRotatedDimension
1001
PE_URL
1000

1001
ACAD
1000
DSTYLE
1002
{
1070
   171
1070
     8
1070
   273
1070
     7
1070
    41
1040
4.0
1070
   140
1040
4.0
1002
}
  0
DIMENSION
  5
F5
330
1F
100
AcDbEntity
  8
치수문자_일반주서
100
AcDbDimension
  2
_D_3
 10
55.10000000000002
 20
12.68926615341653
 30
0.0
 11
55.09999999999996
 21
29.56426615341653
 31
0.0
 70
   160
  1
%%c<>
 71
     2
 42
25.37853230683295
 52
-270.0
  3
SLDDIMSTYLE2
100
AcDbAlignedDimension
 13
40.10000000000004
 23
-12.68926615341648
 33
0.0
 14
40.10000000000004
 24
12.68926615341647
 34
0.0
 50
90.0000000000002
100
AcDbRotatedDimension
1001
PE_URL
1000

1001
ACAD
1000
DSTYLE
1002
{
1070
   171
1070
     8
1070
   273
1070
     7
1070
    41
1040
4.0
1070
   140
1040
4.0
1002
}
1001
ACAD_DSTYLE_DIMFLIPARROW_SYMBOL
1070
   385
1070
     0
1001
ACAD_DSTYLE_DIMFLIPARROW_WHICH_SYMBOL
1070
   386
1070
     3
  0
LINE
  5
109
330
1F
100
AcDbEntity
  8
참조1
100
AcDbLine
 10
73.70100881534563
 20
7.44
 30
0.0
 11
73.70100881534563
 21
-7.440000000000004
 31
0.0
  0
LINE
  5
10A
330
1F
100
AcDbEntity
  8
참조1
100
AcDbLine
 10
86.40100881534562
 20
5.44
 30
0.0
 11
73.70100881534563
 21
5.44
 31
0.0
  0
SOLID
  5
10B
330
1F
100
AcDbEntity
  8
참조1
100
AcDbTrace
 10
73.70100881534563
 20
5.44
 30
0.0
 11
80.05100881534563
 21
4.424
 31
0.0
 12
80.05100881534563
 22
6.456
 32
0.0
 13
80.05100881534563
 23
6.456
 33
0.0
  0
LINE
  5
10C
330
1F
100
AcDbEntity
  8
참조1
100
AcDbLine
 10
86.40100881534562
 20
-5.440000000000004
 30
0.0
 11
73.70100881534563
 21
-5.440000000000004
 31
0.0
  0
SOLID
  5
10D
330
1F
100
AcDbEntity
  8
참조1
100
AcDbTrace
 10
73.70100881534563
 20
-5.440000000000004
 30
0.0
 11
80.05100881534563
 21
-6.456000000000004
 31
0.0
 12
80.05100881534563
 22
-4.424000000000004
 32
0.0
 13
80.05100881534563
 23
-4.424000000000004
 33
0.0
  0
MTEXT
  5
10E
330
1F
100
AcDbEntity
  8
참조1
100
AcDbMText
 10
83.0853589479716
 20
11.01029177718833
 30
0.0
 40
3.5
 41
0.0
 71
     1
 72
     1
  1
A
  7
SLDTEXTSTYLE0
 73
     1
 44
1.0
  0
MTEXT
  5
10F
330
1F
100
AcDbEntity
  8
참조1
100
AcDbMText
 10
83.0853589479716
 20
0.1302917771883247
 30
0.0
 40
3.5
 41
0.0
 71
     1
 72
     1
  1
A
  7
SLDTEXTSTYLE0
 73
     1
 44
1.0
  0
LINE
  5
188
330
1F
100
AcDbEntity
  8
외형선
  6
Continuous
370
    15
100
AcDbLine
 10
2.000000000000029
 20
9.524999999999999
 30
0.0
 11
-21.65692499999997
 21
9.524999999999999
 31
0.0
  0
LINE
  5
189
330
1F
100
AcDbEntity
  8
외형선
  6
Continuous
370
    15
100
AcDbLine
 10
-54.14999999999996
 20
-9.525000000000006
 30
0.0
 11
2.000000000000007
 21
-9.524999999999999
 31
0.0
  0
LINE
  5
18A
330
1F
100
AcDbEntity
  8
외형선
  6
Continuous
370
    15
100
AcDbLine
 10
-54.14999999999996
 20
9.524999999999991
 30
0.0
 11
-55.14999999999998
 21
8.524999999999991
 31
0.0
  0
LINE
  5
18B
330
1F
100
AcDbEntity
  8
외형선
  6
Continuous
370
    15
100
AcDbLine
 10
-55.14999999999998
 20
-8.525000000000006
 30
0.0
 11
-54.14999999999996
 21
-9.524999999999999
 31
0.0
  0
LINE
  5
194
330
1F
100
AcDbEntity
  8
외형선
  6
Continuous
370
    15
100
AcDbLine
 10
-54.14999999999996
 20
9.524999999999991
 30
0.0
 11
-54.14999999999996
 21
-9.525000000000006
 31
0.0
  0
LINE
  5
196
330
1F
100
AcDbEntity
  8
외형선
  6
Continuous
370
    15
100
AcDbLine
 10
-55.14999999999998
 20
8.524999999999991
 30
0.0
 11
-55.14999999999998
 21
-8.525000000000006
 31
0.0
  0
CIRCLE
  5
1A1
330
1F
100
AcDbEntity
  8
해칭선
100
AcDbCircle
 10
0.0
 20
0.0
 30
0.0
 40
2.999999999999993
  0
INSERT
  5
1A2
330
1F
100
AcDbEntity
  8
해칭선
100
AcDbBlockReference
  2
SW_DOWELSYMBOL_0
 10
0.0
 20
0.0
 30
0.0
  0
LINE
  5
1A3
330
1F
100
AcDbEntity
  8
외형선
  6
Continuous
370
    15
100
AcDbLine
 10
-35.14432499999995
 20
7.61999999999999
 30
0.0
 11
-23.56192499999994
 21
7.61999999999999
 31
0.0
1001
PE_URL
1000

  0
LINE
  5
1A4
330
1F
100
AcDbEntity
  8
외형선
  6
Continuous
370
    15
100
AcDbLine
 10
-35.14432499999995
 20
7.619999999999976
 30
0.0
 11
-37.04932500000008
 21
9.525000000000006
 31
0.0
1001
PE_URL
1000

  0
LINE
  5
1A5
330
1F
100
AcDbEntity
  8
외형선
  6
Continuous
370
    15
100
AcDbLine
 10
-23.56192499999994
 20
7.619999999999976
 30
0.0
 11
-21.65692499999997
 21
9.525000000000006
 31
0.0
1001
PE_URL
1000

  0
LINE
  5
1A6
330
1F
100
AcDbEntity
  8
외형선
  6
Continuous
370
    15
100
AcDbLine
 10
-37.04932500000008
 20
9.524999999999999
 30
0.0
 11
-54.14999999999996
 21
9.524999999999995
 31
0.0
  0
ENDSEC
  0
SECTION
  2
OBJECTS
  0
DICTIONARY
  5
C
330
0
100
AcDbDictionary
281
     1
  3
ACAD_DETAILVIEWSTYLE
350
201
  3
ACAD_GROUP
350
D
  3
ACAD_LAYOUT
350
1A
  3
ACAD_MLINESTYLE
350
17
  3
ACAD_PLOTSETTINGS
350
19
  3
ACAD_PLOTSTYLENAME
350
E
  3
ACAD_SCALELIST
350
47
  3
ACAD_SECTIONVIEWSTYLE
350
202
  3
AcDbVariableDictionary
350
1FC
  3
APPDATA
350
138
  3
DWGPROPS
350
20F
  0
DICTIONARY
  5
183
330
2
100
AcDbDictionary
280
     1
281
     1
  3
ACAD_LAYERSTATES
360
184
  0
DICTIONARY
  5
201
102
{ACAD_REACTORS
330
C
102
}
330
C
100
AcDbDictionary
281
     1
  0
DICTIONARY
  5
D
102
{ACAD_REACTORS
330
C
102
}
330
C
100
AcDbDictionary
281
     1
  0
DICTIONARY
  5
1A
102
{ACAD_REACTORS
330
C
102
}
330
C
100
AcDbDictionary
281
     1
  3
Layout1
350
1E
  3
Layout2
350
26
  3
Model
350
22
  0
DICTIONARY
  5
17
102
{ACAD_REACTORS
330
C
102
}
330
C
100
AcDbDictionary
281
     1
  3
Standard
350
18
  0
DICTIONARY
  5
19
102
{ACAD_REACTORS
330
C
102
}
330
C
100
AcDbDictionary
281
     1
  0
ACDBDICTIONARYWDFLT
  5
E
102
{ACAD_REACTORS
330
C
102
}
330
C
100
AcDbDictionary
281
     1
  3
Normal
350
F
100
AcDbDictionaryWithDefault
340
F
  0
DICTIONARY
  5
47
102
{ACAD_REACTORS
330
C
102
}
330
C
100
AcDbDictionary
281
     1
  3
A0
350
48
  3
A1
350
49
  3
A2
350
4A
  3
A3
350
4B
  3
A4
350
4C
  3
A5
350
4D
  3
A6
350
4E
  3
A7
350
4F
  3
A8
350
50
  3
A9
350
51
  3
B0
350
52
  3
B1
350
53
  3
B2
350
54
  3
B3
350
55
  3
B4
350
56
  3
B5
350
57
  3
B6
350
58
  3
B7
350
59
  3
B8
350
5A
  3
B9
350
5B
  3
C0
350
5C
  3
C1
350
5D
  3
C2
350
5E
  3
C3
350
5F
  3
C4
350
60
  3
C5
350
61
  3
C6
350
62
  3
C7
350
63
  3
C8
350
64
  3
C9
350
65
  3
D0
350
66
  3
D1
350
67
  3
D2
350
68
  0
DICTIONARY
  5
202
102
{ACAD_REACTORS
330
C
102
}
330
C
100
AcDbDictionary
281
     1
  0
DICTIONARY
  5
1FC
102
{ACAD_REACTORS
330
C
102
}
330
C
100
AcDbDictionary
281
     1
  0
DICTIONARY
  5
138
102
{ACAD_REACTORS
330
C
102
}
330
C
100
AcDbDictionary
281
     1
  0
XRECORD
  5
20F
102
{ACAD_REACTORS
330
C
102
}
330
C
100
AcDbXrecord
280
     1
  1
DWGPROPS COOKIE
  2

  3

  4

  6

  7

  8
120170442
  9

300
=
301
=
302
=
303
=
304
=
305
=
306
=
307
=
308
=
309
=
 40
0.0
 41
2458311.191908391
 42
2458321.236410614
  1

 90
        0
  0
DICTIONARY
  5
184
102
{ACAD_REACTORS
330
183
102
}
330
183
100
AcDbDictionary
281
     1
  0
LAYOUT
  5
1E
102
{ACAD_REACTORS
330
1A
102
}
330
1A
100
AcDbPlotSettings
  1

  2
none_device
  4

  6

 40
0.0
 41
0.0
 42
0.0
 43
0.0
 44
0.0
 45
0.0
 46
0.0
 47
0.0
 48
0.0
 49
0.0
140
0.0
141
0.0
142
1.0
143
1.0
 70
   688
 72
     1
 73
     0
 74
     5
  7

 75
    16
147
1.0
148
0.0
149
0.0
100
AcDbLayout
  1
Layout1
 70
     1
 71
     1
 10
0.0
 20
0.0
 11
420.0
 21
297.0
 12
0.0
 22
0.0
 32
0.0
 14
1.000000000000000E+20
 24
1.000000000000000E+20
 34
1.000000000000000E+20
 15
-1.000000000000000E+20
 25
-1.000000000000000E+20
 35
-1.000000000000000E+20
146
0.0
 13
0.0
 23
0.0
 33
0.0
 16
1.0
 26
0.0
 36
0.0
 17
0.0
 27
1.0
 37
0.0
 76
     0
330
1B
  0
LAYOUT
  5
26
102
{ACAD_REACTORS
330
1A
102
}
330
1A
100
AcDbPlotSettings
  1

  2
none_device
  4

  6

 40
0.0
 41
0.0
 42
0.0
 43
0.0
 44
0.0
 45
0.0
 46
0.0
 47
0.0
 48
0.0
 49
0.0
140
0.0
141
0.0
142
1.0
143
1.0
 70
   688
 72
     1
 73
     0
 74
     5
  7

 75
    16
147
1.0
148
0.0
149
0.0
100
AcDbLayout
  1
Layout2
 70
     1
 71
     2
 10
0.0
 20
0.0
 11
0.0
 21
0.0
 12
0.0
 22
0.0
 32
0.0
 14
0.0
 24
0.0
 34
0.0
 15
0.0
 25
0.0
 35
0.0
146
0.0
 13
0.0
 23
0.0
 33
0.0
 16
1.0
 26
0.0
 36
0.0
 17
0.0
 27
1.0
 37
0.0
 76
     0
330
23
  0
LAYOUT
  5
22
102
{ACAD_REACTORS
330
1A
102
}
330
1A
100
AcDbPlotSettings
  1

  2
none_device
  4
ANSI_A_(11.00_x_8.50_Inches)
  6

 40
6.35
 41
19.05
 42
6.35000508
 43
19.05000254
 44
279.4
 45
215.9
 46
111.5354592427306
 47
92.50265853467127
 48
0.0
 49
0.0
140
0.0
141
0.0
142
0.0715194751484015
143
1.0
 70
  1696
 72
     0
 73
     0
 74
     0
  7

 75
     0
147
0.0235690232323232
148
0.0
149
0.0
100
AcDbLayout
  1
Model
 70
     1
 71
     0
 10
0.0
 20
0.0
 11
420.0
 21
297.0
 12
0.0
 22
0.0
 32
0.0
 14
-75.02500000000009
 24
-49.97180738881175
 34
0.0
 15
86.40100881534562
 25
44.77499999999993
 35
0.0
146
0.0
 13
0.0
 23
0.0
 33
0.0
 16
1.0
 26
0.0
 36
0.0
 17
0.0
 27
1.0
 37
0.0
 76
     0
330
1F
331
29
  0
MLINESTYLE
  5
18
102
{ACAD_REACTORS
330
17
102
}
330
17
100
AcDbMlineStyle
  2
Standard
 70
     0
  3

 62
   256
 51
90.0
 52
90.0
 71
     2
 49
0.5
 62
   256
  6
BYLAYER
 49
-0.5
 62
   256
  6
BYLAYER
  0
ACDBPLACEHOLDER
  5
F
102
{ACAD_REACTORS
330
E
102
}
330
E
  0
SCALE
  5
48
102
{ACAD_REACTORS
330
47
102
}
330
47
100
AcDbScale
 70
     0
300
1:1
140
1.0
141
1.0
290
     1
  0
SCALE
  5
49
102
{ACAD_REACTORS
330
47
102
}
330
47
100
AcDbScale
 70
     0
300
1:2
140
1.0
141
2.0
290
     0
  0
SCALE
  5
4A
102
{ACAD_REACTORS
330
47
102
}
330
47
100
AcDbScale
 70
     0
300
1:4
140
1.0
141
4.0
290
     0
  0
SCALE
  5
4B
102
{ACAD_REACTORS
330
47
102
}
330
47
100
AcDbScale
 70
     0
300
1:5
140
1.0
141
5.0
290
     0
  0
SCALE
  5
4C
102
{ACAD_REACTORS
330
47
102
}
330
47
100
AcDbScale
 70
     0
300
1:8
140
1.0
141
8.0
290
     0
  0
SCALE
  5
4D
102
{ACAD_REACTORS
330
47
102
}
330
47
100
AcDbScale
 70
     0
300
1:10
140
1.0
141
10.0
290
     0
  0
SCALE
  5
4E
102
{ACAD_REACTORS
330
47
102
}
330
47
100
AcDbScale
 70
     0
300
1:16
140
1.0
141
16.0
290
     0
  0
SCALE
  5
4F
102
{ACAD_REACTORS
330
47
102
}
330
47
100
AcDbScale
 70
     0
300
1:20
140
1.0
141
20.0
290
     0
  0
SCALE
  5
50
102
{ACAD_REACTORS
330
47
102
}
330
47
100
AcDbScale
 70
     0
300
1:30
140
1.0
141
30.0
290
     0
  0
SCALE
  5
51
102
{ACAD_REACTORS
330
47
102
}
330
47
100
AcDbScale
 70
     0
300
1:40
140
1.0
141
40.0
290
     0
  0
SCALE
  5
52
102
{ACAD_REACTORS
330
47
102
}
330
47
100
AcDbScale
 70
     0
300
1:50
140
1.0
141
50.0
290
     0
  0
SCALE
  5
53
102
{ACAD_REACTORS
330
47
102
}
330
47
100
AcDbScale
 70
     0
300
1:100
140
1.0
141
100.0
290
     0
  0
SCALE
  5
54
102
{ACAD_REACTORS
330
47
102
}
330
47
100
AcDbScale
 70
     0
300
2:1
140
2.0
141
1.0
290
     0
  0
SCALE
  5
55
102
{ACAD_REACTORS
330
47
102
}
330
47
100
AcDbScale
 70
     0
300
4:1
140
4.0
141
1.0
290
     0
  0
SCALE
  5
56
102
{ACAD_REACTORS
330
47
102
}
330
47
100
AcDbScale
 70
     0
300
8:1
140
8.0
141
1.0
290
     0
  0
SCALE
  5
57
102
{ACAD_REACTORS
330
47
102
}
330
47
100
AcDbScale
 70
     0
300
10:1
140
10.0
141
1.0
290
     0
  0
SCALE
  5
58
102
{ACAD_REACTORS
330
47
102
}
330
47
100
AcDbScale
 70
     0
300
100:1
140
100.0
141
1.0
290
     0
  0
SCALE
  5
59
102
{ACAD_REACTORS
330
47
102
}
330
47
100
AcDbScale
 70
     0
300
1/128" = 1'-0"
140
0.0078125
141
12.0
290
     0
  0
SCALE
  5
5A
102
{ACAD_REACTORS
330
47
102
}
330
47
100
AcDbScale
 70
     0
300
1/64" = 1'-0"
140
0.015625
141
12.0
290
     0
  0
SCALE
  5
5B
102
{ACAD_REACTORS
330
47
102
}
330
47
100
AcDbScale
 70
     0
300
1/32" = 1'-0"
140
0.03125
141
12.0
290
     0
  0
SCALE
  5
5C
102
{ACAD_REACTORS
330
47
102
}
330
47
100
AcDbScale
 70
     0
300
1/16" = 1'-0"
140
0.0625
141
12.0
290
     0
  0
SCALE
  5
5D
102
{ACAD_REACTORS
330
47
102
}
330
47
100
AcDbScale
 70
     0
300
3/32" = 1'-0"
140
0.09375
141
12.0
290
     0
  0
SCALE
  5
5E
102
{ACAD_REACTORS
330
47
102
}
330
47
100
AcDbScale
 70
     0
300
1/8" = 1'-0"
140
0.125
141
12.0
290
     0
  0
SCALE
  5
5F
102
{ACAD_REACTORS
330
47
102
}
330
47
100
AcDbScale
 70
     0
300
3/16" = 1'-0"
140
0.1875
141
12.0
290
     0
  0
SCALE
  5
60
102
{ACAD_REACTORS
330
47
102
}
330
47
100
AcDbScale
 70
     0
300
1/4" = 1'-0"
140
0.25
141
12.0
290
     0
  0
SCALE
  5
61
102
{ACAD_REACTORS
330
47
102
}
330
47
100
AcDbScale
 70
     0
300
3/8" = 1'-0"
140
0.375
141
12.0
290
     0
  0
SCALE
  5
62
102
{ACAD_REACTORS
330
47
102
}
330
47
100
AcDbScale
 70
     0
300
1/2" = 1'-0"
140
0.5
141
12.0
290
     0
  0
SCALE
  5
63
102
{ACAD_REACTORS
330
47
102
}
330
47
100
AcDbScale
 70
     0
300
3/4" = 1'-0"
140
0.75
141
12.0
290
     0
  0
SCALE
  5
64
102
{ACAD_REACTORS
330
47
102
}
330
47
100
AcDbScale
 70
     0
300
1" = 1'-0"
140
1.0
141
12.0
290
     0
  0
SCALE
  5
65
102
{ACAD_REACTORS
330
47
102
}
330
47
100
AcDbScale
 70
     0
300
1-1/2" = 1'-0"
140
1.5
141
12.0
290
     0
  0
SCALE
  5
66
102
{ACAD_REACTORS
330
47
102
}
330
47
100
AcDbScale
 70
     0
300
3" = 1'-0"
140
3.0
141
12.0
290
     0
  0
SCALE
  5
67
102
{ACAD_REACTORS
330
47
102
}
330
47
100
AcDbScale
 70
     0
300
6" = 1'-0"
140
6.0
141
12.0
290
     0
  0
SCALE
  5
68
102
{ACAD_REACTORS
330
47
102
}
330
47
100
AcDbScale
 70
     0
300
1'-0" = 1'-0"
140
12.0
141
12.0
290
     0
  0
ENDSEC
  0
EOF
