  0
SECTION
  2
HEADER
  9
$ACADVER
  1
AC1015
  9
$ACADMAINTVER
 70
     6
  9
$DWGCODEPAGE
  3
ANSI_949
  9
$INSBASE
 10
0.0
 20
0.0
 30
0.0
  9
$EXTMIN
 10
-81.3750000000001
 20
-49.97180738881175
 30
0.0
  9
$EXTMAX
 10
86.40100881534559
 20
58.6977409609477
 30
0.0
  9
$LIMMIN
 10
0.0
 20
0.0
  9
$LIMMAX
 10
420.0
 20
297.0
  9
$ORTHOMODE
 70
     1
  9
$REGENMODE
 70
     1
  9
$FILLMODE
 70
     1
  9
$QTEXTMODE
 70
     0
  9
$MIRRTEXT
 70
     1
  9
$LTSCALE
 40
1.0
  9
$ATTMODE
 70
     1
  9
$TEXTSIZE
 40
3.5
  9
$TRACEWID
 40
1.0
  9
$TEXTSTYLE
  7
Standard
  9
$CLAYER
  8
0
  9
$CELTYPE
  6
ByLayer
  9
$CECOLOR
 62
   256
  9
$CELTSCALE
 40
1.0
  9
$DISPSILH
 70
     0
  9
$DIMSCALE
 40
1.0
  9
$DIMASZ
 40
3.302
  9
$DIMEXO
 40
1.0
  9
$DIMDLI
 40
3.75
  9
$DIMRND
 40
0.0
  9
$DIMDLE
 40
0.0
  9
$DIMEXE
 40
1.0
  9
$DIMTP
 40
0.0
  9
$DIMTM
 40
0.0
  9
$DIMTXT
 40
3.5
  9
$DIMCEN
 40
2.5
  9
$DIMTSZ
 40
0.0
  9
$DIMTOL
 70
     0
  9
$DIMLIM
 70
     0
  9
$DIMTIH
 70
     1
  9
$DIMTOH
 70
     1
  9
$DIMSE1
 70
     0
  9
$DIMSE2
 70
     0
  9
$DIMTAD
 70
     1
  9
$DIMZIN
 70
     0
  9
$DIMBLK
  1

  9
$DIMASO
 70
     1
  9
$DIMSHO
 70
     1
  9
$DIMPOST
  1

  9
$DIMAPOST
  1

  9
$DIMALT
 70
     0
  9
$DIMALTD
 70
     3
  9
$DIMALTF
 40
0.0393700787401575
  9
$DIMLFAC
 40
1.0
  9
$DIMTOFL
 70
     1
  9
$DIMTVP
 40
0.0
  9
$DIMTIX
 70
     0
  9
$DIMSOXD
 70
     0
  9
$DIMSAH
 70
     0
  9
$DIMBLK1
  1

  9
$DIMBLK2
  1

  9
$DIMSTYLE
  2
ISO-25
  9
$DIMCLRD
 70
     0
  9
$DIMCLRE
 70
     0
  9
$DIMCLRT
 70
     0
  9
$DIMTFAC
 40
1.0
  9
$DIMGAP
 40
1.524
  9
$DIMJUST
 70
     0
  9
$DIMSD1
 70
     0
  9
$DIMSD2
 70
     0
  9
$DIMTOLJ
 70
     0
  9
$DIMTZIN
 70
     0
  9
$DIMALTZ
 70
     0
  9
$DIMALTTZ
 70
     0
  9
$DIMUPT
 70
     0
  9
$DIMDEC
 70
     2
  9
$DIMTDEC
 70
     2
  9
$DIMALTU
 70
     2
  9
$DIMALTTD
 70
     3
  9
$DIMTXSTY
  7
Standard
  9
$DIMAUNIT
 70
     0
  9
$DIMADEC
 70
     2
  9
$DIMALTRND
 40
0.0
  9
$DIMAZIN
 70
     0
  9
$DIMDSEP
 70
    44
  9
$DIMATFIT
 70
     3
  9
$DIMFRAC
 70
     0
  9
$DIMLDRBLK
  1

  9
$DIMLUNIT
 70
     2
  9
$DIMLWD
 70
    -2
  9
$DIMLWE
 70
    -2
  9
$DIMTMOVE
 70
     0
  9
$LUNITS
 70
     2
  9
$LUPREC
 70
     2
  9
$SKETCHINC
 40
1.0
  9
$FILLETRAD
 40
10.0
  9
$AUNITS
 70
     0
  9
$AUPREC
 70
     2
  9
$MENU
  1
.
  9
$ELEVATION
 40
0.0
  9
$PELEVATION
 40
0.0
  9
$THICKNESS
 40
0.0
  9
$LIMCHECK
 70
     0
  9
$CHAMFERA
 40
0.0
  9
$CHAMFERB
 40
0.0
  9
$CHAMFERC
 40
0.0
  9
$CHAMFERD
 40
0.0
  9
$SKPOLY
 70
     0
  9
$TDCREATE
 40
2458311.567543217
  9
$TDUCREATE
 40
2458311.192543217
  9
$TDUPDATE
 40
2458321.661276493
  9
$TDUUPDATE
 40
2458321.286276493
  9
$TDINDWG
 40
0.0011541667
  9
$TDUSRTIMER
 40
0.0011541551
  9
$USRTIMER
 70
     1
  9
$ANGBASE
 50
0.0
  9
$ANGDIR
 70
     0
  9
$PDMODE
 70
     0
  9
$PDSIZE
 40
-1.0
  9
$PLINEWID
 40
0.0
  9
$SPLFRAME
 70
     0
  9
$SPLINETYPE
 70
     6
  9
$SPLINESEGS
 70
     8
  9
$HANDSEED
  5
264
  9
$SURFTAB1
 70
     6
  9
$SURFTAB2
 70
     6
  9
$SURFTYPE
 70
     6
  9
$SURFU
 70
     6
  9
$SURFV
 70
     6
  9
$UCSBASE
  2

  9
$UCSNAME
  2

  9
$UCSORG
 10
0.0
 20
0.0
 30
0.0
  9
$UCSXDIR
 10
1.0
 20
0.0
 30
0.0
  9
$UCSYDIR
 10
0.0
 20
1.0
 30
0.0
  9
$UCSORTHOREF
  2

  9
$UCSORTHOVIEW
 70
     0
  9
$UCSORGTOP
 10
0.0
 20
0.0
 30
0.0
  9
$UCSORGBOTTOM
 10
0.0
 20
0.0
 30
0.0
  9
$UCSORGLEFT
 10
0.0
 20
0.0
 30
0.0
  9
$UCSORGRIGHT
 10
0.0
 20
0.0
 30
0.0
  9
$UCSORGFRONT
 10
0.0
 20
0.0
 30
0.0
  9
$UCSORGBACK
 10
0.0
 20
0.0
 30
0.0
  9
$PUCSBASE
  2

  9
$PUCSNAME
  2

  9
$PUCSORG
 10
0.0
 20
0.0
 30
0.0
  9
$PUCSXDIR
 10
1.0
 20
0.0
 30
0.0
  9
$PUCSYDIR
 10
0.0
 20
1.0
 30
0.0
  9
$PUCSORTHOREF
  2

  9
$PUCSORTHOVIEW
 70
     0
  9
$PUCSORGTOP
 10
0.0
 20
0.0
 30
0.0
  9
$PUCSORGBOTTOM
 10
0.0
 20
0.0
 30
0.0
  9
$PUCSORGLEFT
 10
0.0
 20
0.0
 30
0.0
  9
$PUCSORGRIGHT
 10
0.0
 20
0.0
 30
0.0
  9
$PUCSORGFRONT
 10
0.0
 20
0.0
 30
0.0
  9
$PUCSORGBACK
 10
0.0
 20
0.0
 30
0.0
  9
$USERI1
 70
     0
  9
$USERI2
 70
     0
  9
$USERI3
 70
     0
  9
$USERI4
 70
     0
  9
$USERI5
 70
     0
  9
$USERR1
 40
0.0
  9
$USERR2
 40
0.0
  9
$USERR3
 40
0.0
  9
$USERR4
 40
0.0
  9
$USERR5
 40
0.0
  9
$WORLDVIEW
 70
     1
  9
$SHADEDGE
 70
     3
  9
$SHADEDIF
 70
    70
  9
$TILEMODE
 70
     1
  9
$MAXACTVP
 70
    64
  9
$PINSBASE
 10
0.0
 20
0.0
 30
0.0
  9
$PLIMCHECK
 70
     0
  9
$PEXTMIN
 10
1.000000000000000E+20
 20
1.000000000000000E+20
 30
1.000000000000000E+20
  9
$PEXTMAX
 10
-1.000000000000000E+20
 20
-1.000000000000000E+20
 30
-1.000000000000000E+20
  9
$PLIMMIN
 10
0.0
 20
0.0
  9
$PLIMMAX
 10
0.0
 20
0.0
  9
$UNITMODE
 70
     0
  9
$VISRETAIN
 70
     1
  9
$PLINEGEN
 70
     0
  9
$PSLTSCALE
 70
     1
  9
$TREEDEPTH
 70
  3020
  9
$CMLSTYLE
  2
Standard
  9
$CMLJUST
 70
     0
  9
$CMLSCALE
 40
20.0
  9
$PROXYGRAPHICS
 70
     1
  9
$MEASUREMENT
 70
     1
  9
$CELWEIGHT
370
    -1
  9
$ENDCAPS
280
     0
  9
$JOINSTYLE
280
     0
  9
$LWDISPLAY
290
     1
  9
$INSUNITS
 70
     4
  9
$HYPERLINKBASE
  1

  9
$STYLESHEET
  1

  9
$XEDIT
290
     1
  9
$CEPSNTYPE
380
     0
  9
$PSTYLEMODE
290
     1
  9
$FINGERPRINTGUID
  2
{967F14F4-90F0-4766-A71D-F8B6468C0F68}
  9
$VERSIONGUID
  2
{FAEB1C32-E019-11D5-929B-00C0DF256EC4}
  9
$EXTNAMES
290
     1
  9
$PSVPSCALE
 40
0.0
  9
$OLESTARTUP
290
     0
  0
ENDSEC
  0
SECTION
  2
CLASSES
  0
CLASS
  1
ACDBDICTIONARYWDFLT
  2
AcDbDictionaryWithDefault
  3
ObjectDBX Classes
 90
        0
280
     0
281
     0
  0
CLASS
  1
VISUALSTYLE
  2
AcDbVisualStyle
  3
ObjectDBX Classes
 90
     4095
280
     0
281
     0
  0
CLASS
  1
MATERIAL
  2
AcDbMaterial
  3
ObjectDBX Classes
 90
     1153
280
     0
281
     0
  0
CLASS
  1
SCALE
  2
AcDbScale
  3
ObjectDBX Classes
 90
     1153
280
     0
281
     0
  0
CLASS
  1
SUN
  2
AcDbSun
  3
SCENEOE
 90
     1153
280
     0
281
     0
  0
CLASS
  1
ACDBPLACEHOLDER
  2
AcDbPlaceHolder
  3
ObjectDBX Classes
 90
        0
280
     0
281
     0
  0
CLASS
  1
LAYOUT
  2
AcDbLayout
  3
ObjectDBX Classes
 90
        0
280
     0
281
     0
  0
CLASS
  1
TABLESTYLE
  2
AcDbTableStyle
  3
ObjectDBX Classes
 90
     4095
280
     0
281
     0
  0
CLASS
  1
MLEADERSTYLE
  2
AcDbMLeaderStyle
  3
ACDB_MLEADERSTYLE_CLASS
 90
     4095
280
     0
281
     0
  0
CLASS
  1
DICTIONARYVAR
  2
AcDbDictionaryVar
  3
ObjectDBX Classes
 90
        0
280
     0
281
     0
  0
ENDSEC
  0
SECTION
  2
TABLES
  0
TABLE
  2
VPORT
  5
8
330
0
100
AcDbSymbolTable
 70
     1
  0
VPORT
  5
29
330
8
100
AcDbSymbolTableRecord
100
AcDbViewportTableRecord
  2
*Active
 70
     0
 10
0.0
 20
0.0
 11
1.0
 21
1.0
 12
2.513004407672739
 22
4.362966786067979
 13
0.0
 23
0.0
 14
10.0
 24
10.0
 15
10.0
 25
10.0
 16
0.0
 26
0.0
 36
1.0
 17
0.0
 27
0.0
 37
0.0
 40
110.8429393167546
 41
1.782762691853601
 42
50.0
 43
0.0
 44
0.0
 50
0.0
 51
0.0
 71
    16
 72
  2000
 73
     1
 74
     3
 75
     0
 76
     0
 77
     0
 78
     0
281
     0
 65
     1
110
0.0
120
0.0
130
0.0
111
1.0
121
0.0
131
0.0
112
0.0
122
1.0
132
0.0
 79
     0
146
0.0
  0
ENDTAB
  0
TABLE
  2
LTYPE
  5
5
330
0
100
AcDbSymbolTable
 70
     6
  0
LTYPE
  5
14
330
5
100
AcDbSymbolTableRecord
100
AcDbLinetypeTableRecord
  2
ByBlock
 70
     0
  3

 72
    65
 73
     0
 40
0.0
  0
LTYPE
  5
15
330
5
100
AcDbSymbolTableRecord
100
AcDbLinetypeTableRecord
  2
ByLayer
 70
     0
  3

 72
    65
 73
     0
 40
0.0
  0
LTYPE
  5
16
330
5
100
AcDbSymbolTableRecord
100
AcDbLinetypeTableRecord
  2
Continuous
 70
     0
  3
Solid line
 72
    65
 73
     0
 40
0.0
  0
LTYPE
  5
6A
330
5
100
AcDbSymbolTableRecord
100
AcDbLinetypeTableRecord
  2
HIDDEN
 70
     0
  3
Hidden __ __ __ __ __ __ __ __ __ __ __ __ __ __
 72
    65
 73
     2
 40
1.905
 49
1.27
 74
     0
 49
-0.635
 74
     0
  0
LTYPE
  5
6B
330
5
100
AcDbSymbolTableRecord
100
AcDbLinetypeTableRecord
  2
PHANTOM
 70
     0
  3
Phantom ______  __  __  ______  __  __  ______
 72
    65
 73
     6
 40
12.7
 49
6.35
 74
     0
 49
-1.27
 74
     0
 49
1.27
 74
     0
 49
-1.27
 74
     0
 49
1.27
 74
     0
 49
-1.27
 74
     0
  0
LTYPE
  5
6C
330
5
100
AcDbSymbolTableRecord
100
AcDbLinetypeTableRecord
  2
CENTER
 70
     0
  3
Center ____ _ ____ _ ____ _ ____ _ ____ _ ____
 72
    65
 73
     4
 40
10.16
 49
6.35
 74
     0
 49
-1.27
 74
     0
 49
1.27
 74
     0
 49
-1.27
 74
     0
  0
LTYPE
  5
6D
330
5
100
AcDbSymbolTableRecord
100
AcDbLinetypeTableRecord
  2
CENTERX2
 70
     0
  3
Center (2x) ________  __  ________  __  _____
 72
    65
 73
     4
 40
20.32
 49
12.7
 74
     0
 49
-2.54
 74
     0
 49
2.54
 74
     0
 49
-2.54
 74
     0
  0
LTYPE
  5
6E
330
5
100
AcDbSymbolTableRecord
100
AcDbLinetypeTableRecord
  2
DOT2
 70
     0
  3
Dot (.5x) ........................................
 72
    65
 73
     2
 40
0.635
 49
0.0
 74
     0
 49
-0.635
 74
     0
  0
ENDTAB
  0
TABLE
  2
LAYER
  5
2
102
{ACAD_XDICTIONARY
360
180
102
}
330
0
100
AcDbSymbolTable
 70
    18
  0
LAYER
  5
10
330
2
100
AcDbSymbolTableRecord
100
AcDbLayerTableRecord
  2
0
 70
     0
 62
     7
  6
Continuous
370
    -3
390
F
  0
LAYER
  5
6F
330
2
100
AcDbSymbolTableRecord
100
AcDbLayerTableRecord
  2
FORMAT
 70
     0
 62
     2
  6
Continuous
370
    -3
390
F
  0
LAYER
  5
70
330
2
100
AcDbSymbolTableRecord
100
AcDbLayerTableRecord
  2
외형선
 70
     0
 62
     4
  6
Continuous
370
    30
390
F
  0
LAYER
  5
71
330
2
100
AcDbSymbolTableRecord
100
AcDbLayerTableRecord
  2
숨은선
 70
     0
 62
     2
  6
HIDDEN
370
    15
390
F
  0
LAYER
  5
72
330
2
100
AcDbSymbolTableRecord
100
AcDbLayerTableRecord
  2
중심선
 70
     0
 62
     1
  6
CENTERX2
370
    -3
390
F
  0
LAYER
  5
73
330
2
100
AcDbSymbolTableRecord
100
AcDbLayerTableRecord
  2
파단선
 70
     0
 62
     4
  6
Continuous
370
    -3
390
F
  0
LAYER
  5
74
330
2
100
AcDbSymbolTableRecord
100
AcDbLayerTableRecord
  2
해칭선
 70
     0
 62
   100
  6
Continuous
370
    -3
390
F
  0
LAYER
  5
75
330
2
100
AcDbSymbolTableRecord
100
AcDbLayerTableRecord
  2
가는실선
 70
     0
 62
     4
  6
Continuous
370
    -3
390
F
  0
LAYER
  5
76
330
2
100
AcDbSymbolTableRecord
100
AcDbLayerTableRecord
  2
치수_보조선
 70
     0
 62
     4
  6
Continuous
370
    -3
390
F
  0
LAYER
  5
77
330
2
100
AcDbSymbolTableRecord
100
AcDbLayerTableRecord
  2
치수문자_일반주서
 70
     0
 62
     7
  6
Continuous
370
    15
390
F
  0
LAYER
  5
78
330
2
100
AcDbSymbolTableRecord
100
AcDbLayerTableRecord
  2
개별주서
 70
     0
 62
   100
  6
Continuous
370
    30
390
F
  0
LAYER
  5
79
330
2
100
AcDbSymbolTableRecord
100
AcDbLayerTableRecord
  2
중간선
 70
     0
 62
     2
  6
Continuous
370
    15
390
F
  0
LAYER
  5
7A
330
2
100
AcDbSymbolTableRecord
100
AcDbLayerTableRecord
  2
윤곽선
 70
     0
 62
     3
  6
Continuous
370
    40
390
F
  0
LAYER
  5
7B
330
2
100
AcDbSymbolTableRecord
100
AcDbLayerTableRecord
  2
중심마크
 70
     0
 62
   100
  6
Continuous
370
    30
390
F
  0
LAYER
  5
7C
330
2
100
AcDbSymbolTableRecord
100
AcDbLayerTableRecord
  2
가상선
 70
     0
 62
     4
  6
PHANTOM
370
    -3
390
F
  0
LAYER
  5
7D
330
2
100
AcDbSymbolTableRecord
100
AcDbLayerTableRecord
  2
특수지정선
 70
     0
 62
     5
  6
CENTERX2
370
    60
390
F
  0
LAYER
  5
7E
330
2
100
AcDbSymbolTableRecord
100
AcDbLayerTableRecord
  2
참조1
 70
     0
 62
    -4
  6
Continuous
370
    -3
390
F
  0
LAYER
  5
1A6
330
2
100
AcDbSymbolTableRecord
100
AcDbLayerTableRecord
  2
Defpoints
 70
     0
 62
     7
  6
Continuous
290
     0
370
    -3
390
F
  0
ENDTAB
  0
TABLE
  2
STYLE
  5
3
330
0
100
AcDbSymbolTable
 70
     2
  0
STYLE
  5
11
330
3
100
AcDbSymbolTableRecord
100
AcDbTextStyleTableRecord
  2
Standard
 70
     0
 40
0.0
 41
1.0
 50
0.0
 71
     0
 42
3.5
  3
txt
  4

  0
STYLE
  5
94
330
3
100
AcDbSymbolTableRecord
100
AcDbTextStyleTableRecord
  2
SLDTEXTSTYLE0
 70
     0
 40
0.0
 41
0.75
 50
0.0
 71
     0
 42
3.5
  3
TXT
  4

  0
ENDTAB
  0
TABLE
  2
VIEW
  5
6
330
0
100
AcDbSymbolTable
 70
     0
  0
ENDTAB
  0
TABLE
  2
UCS
  5
7
330
0
100
AcDbSymbolTable
 70
     0
  0
ENDTAB
  0
TABLE
  2
APPID
  5
9
330
0
100
AcDbSymbolTable
 70
     4
  0
APPID
  5
12
330
9
100
AcDbSymbolTableRecord
100
AcDbRegAppTableRecord
  2
ACAD
 70
     0
  0
APPID
  5
13B
330
9
100
AcDbSymbolTableRecord
100
AcDbRegAppTableRecord
  2
PE_URL
 70
     0
  0
APPID
  5
262
330
9
100
AcDbSymbolTableRecord
100
AcDbRegAppTableRecord
  2
ACAD_DSTYLE_DIMFLIPARROW_SYMBOL
 70
     0
  0
APPID
  5
263
330
9
100
AcDbSymbolTableRecord
100
AcDbRegAppTableRecord
  2
ACAD_DSTYLE_DIMFLIPARROW_WHICH_SYMBOL
 70
     0
  0
ENDTAB
  0
TABLE
  2
DIMSTYLE
  5
A
330
0
100
AcDbSymbolTable
 70
     4
100
AcDbDimStyleTable
  0
DIMSTYLE
105
27
330
A
100
AcDbSymbolTableRecord
100
AcDbDimStyleTableRecord
  2
ISO-25
 70
     0
 41
2.5
 42
0.625
 43
3.75
 44
1.25
 73
     0
 74
     0
 77
     1
 78
     8
140
2.5
141
2.5
143
0.03937007874016
147
0.625
171
     3
172
     1
178
     0
271
     2
272
     2
274
     3
278
    44
283
     0
284
     8
340
11
  0
DIMSTYLE
105
BB
330
A
100
AcDbSymbolTableRecord
100
AcDbDimStyleTableRecord
  2
SLDDIMSTYLE0
 70
     0
 41
3.302
 44
0.0
 45
0.000000001
 73
     0
 74
     0
 77
     1
 78
     4
 79
     1
140
3.5
147
0.875
172
     1
173
     1
178
     0
271
     2
272
     2
276
     2
284
    12
289
     0
340
94
  0
DIMSTYLE
105
C9
330
A
100
AcDbSymbolTableRecord
100
AcDbDimStyleTableRecord
  2
SLDDIMSTYLE1
 70
     0
 41
3.302
 44
0.0
 45
0.000000001
 73
     0
 74
     0
 77
     1
 78
     4
 79
     1
140
3.5
143
0.0393700787401575
147
0.875
148
0.000000001
170
     1
172
     1
173
     1
178
     0
271
     2
272
     2
276
     2
284
    12
289
     0
340
94
  0
DIMSTYLE
105
DF
102
{ACAD_REACTORS
330
DE
330
F2
330
1CD
330
C8
330
BA
102
}
330
A
100
AcDbSymbolTableRecord
100
AcDbDimStyleTableRecord
  2
SLDDIMSTYLE2
 70
     0
 41
3.302
 44
0.0
 45
0.000000001
 73
     0
 74
     0
 77
     1
 78
     4
 79
     1
140
3.5
143
0.0393700787401575
147
0.875
148
0.000000001
170
     1
173
     1
178
     0
271
     2
272
     2
276
     2
284
    12
340
94
  0
ENDTAB
  0
TABLE
  2
BLOCK_RECORD
  5
1
330
0
100
AcDbSymbolTable
 70
    13
  0
BLOCK_RECORD
  5
1F
330
1
100
AcDbSymbolTableRecord
100
AcDbBlockTableRecord
  2
*Model_Space
340
22
  0
BLOCK_RECORD
  5
1B
330
1
100
AcDbSymbolTableRecord
100
AcDbBlockTableRecord
  2
*Paper_Space
340
1E
  0
BLOCK_RECORD
  5
23
330
1
100
AcDbSymbolTableRecord
100
AcDbBlockTableRecord
  2
*Paper_Space0
340
26
  0
BLOCK_RECORD
  5
7F
330
1
100
AcDbSymbolTableRecord
100
AcDbBlockTableRecord
  2
블럭10
340
0
102
{BLKREFS
331
B3
102
}
  0
BLOCK_RECORD
  5
BC
330
1
100
AcDbSymbolTableRecord
100
AcDbBlockTableRecord
  2
_D
340
0
  0
BLOCK_RECORD
  5
CA
330
1
100
AcDbSymbolTableRecord
100
AcDbBlockTableRecord
  2
_D_1
340
0
  0
BLOCK_RECORD
  5
E0
330
1
100
AcDbSymbolTableRecord
100
AcDbBlockTableRecord
  2
_D_2
340
0
  0
BLOCK_RECORD
  5
F3
330
1
100
AcDbSymbolTableRecord
100
AcDbBlockTableRecord
  2
_D_3
340
0
  0
BLOCK_RECORD
  5
10C
330
1
100
AcDbSymbolTableRecord
100
AcDbBlockTableRecord
  2
SW_DOWELSYMBOL_0
340
0
102
{BLKREFS
331
0
331
173
331
19E
102
}
  0
BLOCK_RECORD
  5
1DD
330
1
100
AcDbSymbolTableRecord
100
AcDbBlockTableRecord
  2
*D9
340
0
  0
BLOCK_RECORD
  5
1ED
330
1
100
AcDbSymbolTableRecord
100
AcDbBlockTableRecord
  2
*D10
340
0
  0
ENDTAB
  0
ENDSEC
  0
SECTION
  2
BLOCKS
  0
BLOCK
  5
20
330
1F
100
AcDbEntity
  8
0
100
AcDbBlockBegin
  2
*Model_Space
 70
     0
 10
0.0
 20
0.0
 30
0.0
  3
*Model_Space
  1

  0
ENDBLK
  5
21
330
1F
100
AcDbEntity
  8
0
100
AcDbBlockEnd
  0
BLOCK
  5
1C
330
1B
100
AcDbEntity
 67
     1
  8
0
100
AcDbBlockBegin
  2
*Paper_Space
 70
     0
 10
0.0
 20
0.0
 30
0.0
  3
*Paper_Space
  1

  0
ENDBLK
  5
1D
330
1B
100
AcDbEntity
 67
     1
  8
0
100
AcDbBlockEnd
  0
BLOCK
  5
24
330
23
100
AcDbEntity
  8
0
100
AcDbBlockBegin
  2
*Paper_Space0
 70
     0
 10
0.0
 20
0.0
 30
0.0
  3
*Paper_Space0
  1

  0
ENDBLK
  5
25
330
23
100
AcDbEntity
  8
0
100
AcDbBlockEnd
  0
BLOCK
  5
80
330
7F
100
AcDbEntity
  8
0
100
AcDbBlockBegin
  2
블럭10
 70
     2
 10
0.0
 20
0.0
 30
0.0
  3
블럭10
  1

  0
ELLIPSE
  5
82
330
7F
100
AcDbEntity
  8
중심선
100
AcDbEllipse
 10
20.54032771741204
 20
12.0471743016438
 30
0.0
 11
6.600054785286829
 21
-1.261213355974178E-13
 31
0.0
210
0.0
220
0.0
230
1.0
 40
0.636358354079598
 41
0.9219305317359503
 42
6.513795318482858
  0
ELLIPSE
  5
83
330
7F
100
AcDbEntity
  8
중심선
100
AcDbEllipse
 10
20.54032771746488
 20
12.04717430159265
 30
0.0
 11
3.960054785062283
 21
1.540847449632565E-10
 31
0.0
210
0.0
220
0.0
230
1.0
 40
0.3939339440162632
 41
1.131841032648279
 42
5.62031148352944
  0
LINE
  5
84
330
7F
100
AcDbEntity
  8
중심선
100
AcDbLine
 10
2.268634060543552
 20
16.24717430164393
 30
0.0
 11
5.714909304380834
 21
16.24717430164393
 31
0.0
  0
LINE
  5
85
330
7F
100
AcDbEntity
  8
중심선
100
AcDbLine
 10
5.245725140726316
 20
7.84717430164391
 30
0.0
 11
8.692000384563599
 21
7.84717430164391
 31
0.0
  0
LINE
  5
86
330
7F
100
AcDbEntity
  8
중심선
100
AcDbLine
 10
15.74043728645272
 20
16.24717430164393
 30
0.0
 11
8.692000384563599
 21
7.84717430164391
 31
0.0
  0
LINE
  5
87
330
7F
100
AcDbEntity
  8
중심선
100
AcDbLine
 10
0.1404042013395286
 20
13.71084872107135
 30
0.0
 11
3.58671253028996
 21
13.71088815037384
 31
0.0
  0
LINE
  5
88
330
7F
100
AcDbEntity
  8
중심선
100
AcDbLine
 10
2.750260043222114
 20
10.84717430164391
 30
0.0
 11
6.196535287059397
 21
10.84717430164391
 31
0.0
  0
LINE
  5
89
330
7F
100
AcDbEntity
  8
중심선
100
AcDbLine
 10
12.29416204261559
 20
16.24717430164393
 30
0.0
 11
5.245725140726316
 21
7.84717430164391
 31
0.0
  0
LINE
  5
8A
330
7F
100
AcDbEntity
  8
중심선
100
AcDbLine
 10
10.72767329541681
 20
16.24717430164393
 30
0.0
 11
6.196535287059397
 21
10.84717430164391
 31
0.0
  0
LINE
  5
8B
330
7F
100
AcDbEntity
  8
중심선
100
AcDbLine
 10
7.28139805157953
 20
16.24717430164393
 30
0.0
 11
2.750260043222114
 21
10.84717430164391
 31
0.0
  0
LINE
  5
8C
330
7F
100
AcDbEntity
  8
중심선
100
AcDbLine
 10
5.714909304380834
 20
16.24717430164393
 30
0.0
 11
3.58671253028996
 21
13.71088815037384
 31
0.0
  0
LINE
  5
8D
330
7F
100
AcDbEntity
  8
중심선
100
AcDbLine
 10
2.268634060543552
 20
16.24717430164393
 30
0.0
 11
0.1404042013395286
 21
13.71084872107135
 31
0.0
  0
LINE
  5
8E
330
7F
100
AcDbEntity
  8
중심선
100
AcDbLine
 10
7.28139805157953
 20
16.24717430164393
 30
0.0
 11
10.72767329541681
 21
16.24717430164393
 31
0.0
  0
LINE
  5
8F
330
7F
100
AcDbEntity
  8
중심선
100
AcDbLine
 10
12.29416204261559
 20
16.24717430164393
 30
0.0
 11
15.74043728645272
 21
16.24717430164393
 31
0.0
  0
LINE
  5
90
330
7F
100
AcDbEntity
  8
중심선
100
AcDbLine
 10
19.22036997980202
 20
11.08717430171403
 30
0.0
 11
23.66174974927406
 21
11.08717430171406
 31
0.0
  0
LINE
  5
91
330
7F
100
AcDbEntity
  8
중심선
100
AcDbLine
 10
19.22039502424796
 20
13.00717430171391
 30
0.0
 11
19.22036997980202
 21
11.08717430171403
 31
0.0
  0
LINE
  5
92
330
7F
100
AcDbEntity
  8
중심선
100
AcDbLine
 10
19.22039502424796
 20
13.00717430171391
 30
0.0
 11
26.96566020931264
 21
13.00717430171391
 31
0.0
  0
LINE
  5
93
330
7F
100
AcDbEntity
  8
중심선
100
AcDbLine
 10
22.22332737316547
 20
13.45928029700563
 30
0.0
 11
24.52862924686651
 21
15.39360700705356
 31
0.0
  0
ATTDEF
  5
95
330
7F
100
AcDbEntity
  8
FORMAT
 62
     2
100
AcDbText
 10
4.408487351596664
 20
2.075366912832191
 30
0.0
 40
4.233333333333333
  1
E1030912
 41
0.75
  7
SLDTEXTSTYLE0
 11
4.408487351596664
 21
-0.0412997538344756
 31
0.0
100
AcDbAttributeDefinition
  3

  2
AUTOATTR0
 70
     0
 74
     1
  0
ENDBLK
  5
81
330
7F
100
AcDbEntity
  8
0
100
AcDbBlockEnd
  0
BLOCK
  5
BD
330
BC
100
AcDbEntity
  8
0
100
AcDbBlockBegin
  2
_D
 70
     0
 10
0.0
 20
0.0
 30
0.0
  3
_D
  1

  0
LINE
  5
BF
330
BC
100
AcDbEntity
  8
치수문자_일반주서
 62
     0
370
    -2
100
AcDbLine
 10
-46.95750000000001
 20
12.69999999999999
 30
0.0
 11
-76.5
 21
12.69999999999988
 31
0.0
  0
LINE
  5
C0
330
BC
100
AcDbEntity
  8
치수문자_일반주서
 62
     0
370
    -2
100
AcDbLine
 10
-60.49999999999997
 20
-12.70000000000001
 30
0.0
 11
-76.49999999999991
 21
-12.70000000000007
 31
0.0
  0
LINE
  5
C1
330
BC
100
AcDbEntity
  8
치수문자_일반주서
 62
     0
370
    -2
100
AcDbLine
 10
-76.5
 20
12.69999999999988
 30
0.0
 11
-76.5000000000001
 21
41.94999999999987
 31
0.0
  0
LINE
  5
C2
330
BC
100
AcDbEntity
  8
치수문자_일반주서
 62
     0
370
    -2
100
AcDbLine
 10
-76.5
 20
12.69999999999988
 30
0.0
 11
-76.49999999999991
 21
-12.70000000000007
 31
0.0
  0
LINE
  5
C3
330
BC
100
AcDbEntity
  8
치수문자_일반주서
 62
     0
370
    -2
100
AcDbLine
 10
-76.50000000000001
 20
16.69999999999988
 30
0.0
 11
-76.50000000000003
 21
20.69999999999988
 31
0.0
  0
LINE
  5
C4
330
BC
100
AcDbEntity
  8
치수문자_일반주서
 62
     0
370
    -2
100
AcDbLine
 10
-76.4999999999999
 20
-16.70000000000007
 30
0.0
 11
-76.49999999999989
 21
-20.70000000000007
 31
0.0
  0
SOLID
  5
C5
330
BC
100
AcDbEntity
  8
치수문자_일반주서
 62
     0
100
AcDbTrace
 10
-77.16666666666669
 20
16.69999999999987
 30
0.0
 11
-75.83333333333334
 21
16.69999999999988
 31
0.0
 12
-76.5
 22
12.69999999999988
 32
0.0
 13
-76.5
 23
12.69999999999988
 33
0.0
  0
SOLID
  5
C6
330
BC
100
AcDbEntity
  8
치수문자_일반주서
 62
     0
100
AcDbTrace
 10
-75.83333333333323
 20
-16.70000000000007
 30
0.0
 11
-77.16666666666657
 21
-16.70000000000007
 31
0.0
 12
-76.49999999999991
 22
-12.70000000000007
 32
0.0
 13
-76.49999999999991
 23
-12.70000000000007
 33
0.0
  0
MTEXT
  5
C7
330
BC
100
AcDbEntity
  8
치수문자_일반주서
 62
     0
100
AcDbMText
 10
-81.37500000000006
 20
29.32499999999986
 30
0.0
 40
4.0
 41
0.0
 71
     2
 72
     1
  1
\A1;%%c25.40 [1]
  7
SLDTEXTSTYLE0
 11
-3.356894814614653E-15
 21
1.0
 31
0.0
 73
     1
 44
1.0
  0
POINT
  5
25D
330
BC
100
AcDbEntity
  8
Defpoints
 62
     0
100
AcDbPoint
 10
-46.89500000000001
 20
12.69999999999999
 30
0.0
  0
POINT
  5
25E
330
BC
100
AcDbEntity
  8
Defpoints
 62
     0
100
AcDbPoint
 10
-60.43749999999997
 20
-12.70000000000001
 30
0.0
  0
POINT
  5
25F
330
BC
100
AcDbEntity
  8
Defpoints
 62
     0
100
AcDbPoint
 10
-76.49999999999991
 20
-12.70000000000007
 30
0.0
  0
ENDBLK
  5
BE
330
BC
100
AcDbEntity
  8
0
100
AcDbBlockEnd
  0
BLOCK
  5
CB
330
CA
100
AcDbEntity
  8
0
100
AcDbBlockBegin
  2
_D_1
 70
     0
 10
0.0
 20
0.0
 30
0.0
  3
_D_1
  1

  0
LINE
  5
CD
330
CA
100
AcDbEntity
  8
치수문자_일반주서
 62
     0
370
    -2
100
AcDbLine
 10
43.27499999999999
 20
17.51024096094766
 30
0.0
 11
43.27499999999999
 21
27.69999999999999
 31
0.0
  0
LINE
  5
CE
330
CA
100
AcDbEntity
  8
치수문자_일반주서
 62
     0
370
    -2
100
AcDbLine
 10
1.999999999999996
 20
5.535349324069394
 30
0.0
 11
1.999999999999996
 21
27.69999999999999
 31
0.0
  0
LINE
  5
CF
330
CA
100
AcDbEntity
  8
치수문자_일반주서
 62
     0
370
    -2
100
AcDbLine
 10
39.27499999999999
 20
27.69999999999999
 30
0.0
 11
5.999999999999996
 21
27.69999999999999
 31
0.0
  0
SOLID
  5
D0
330
CA
100
AcDbEntity
  8
치수문자_일반주서
 62
     0
100
AcDbTrace
 10
39.27499999999999
 20
27.03333333333332
 30
0.0
 11
39.27499999999999
 21
28.36666666666666
 31
0.0
 12
43.27499999999999
 22
27.69999999999999
 32
0.0
 13
43.27499999999999
 23
27.69999999999999
 33
0.0
  0
SOLID
  5
D1
330
CA
100
AcDbEntity
  8
치수문자_일반주서
 62
     0
100
AcDbTrace
 10
5.999999999999996
 20
28.36666666666666
 30
0.0
 11
5.999999999999996
 21
27.03333333333332
 31
0.0
 12
1.999999999999996
 22
27.69999999999999
 32
0.0
 13
1.999999999999996
 23
27.69999999999999
 33
0.0
  0
MTEXT
  5
D2
330
CA
100
AcDbEntity
  8
치수문자_일반주서
 62
     0
100
AcDbMText
 10
22.6375
 20
32.57499999999999
 30
0.0
 40
4.0
 41
0.0
 71
     2
 72
     1
  1
\A1;41.28 [1 5/8]
  7
SLDTEXTSTYLE0
 73
     1
 44
1.0
  0
POINT
  5
D3
330
CA
100
AcDbEntity
  8
Defpoints
 62
     0
100
AcDbPoint
 10
43.27499999999999
 20
17.44774096094766
 30
0.0
  0
POINT
  5
D4
330
CA
100
AcDbEntity
  8
Defpoints
 62
     0
100
AcDbPoint
 10
1.999999999999996
 20
5.472849324069394
 30
0.0
  0
POINT
  5
D5
330
CA
100
AcDbEntity
  8
Defpoints
 62
     0
100
AcDbPoint
 10
1.999999999999996
 20
27.69999999999999
 30
0.0
  0
ENDBLK
  5
CC
330
CA
100
AcDbEntity
  8
0
100
AcDbBlockEnd
  0
BLOCK
  5
E1
330
E0
100
AcDbEntity
  8
0
100
AcDbBlockBegin
  2
_D_2
 70
     0
 10
0.0
 20
0.0
 30
0.0
  3
_D_2
  1

  0
LINE
  5
E3
330
E0
100
AcDbEntity
  8
치수문자_일반주서
 62
     0
370
    -2
100
AcDbLine
 10
43.27499999999999
 20
17.51024096094766
 30
0.0
 11
43.27499999999999
 21
42.69999999999999
 31
0.0
  0
LINE
  5
E4
330
E0
100
AcDbEntity
  8
치수문자_일반주서
 62
     0
370
    -2
100
AcDbLine
 10
-61.5
 20
10.8575
 30
0.0
 11
-61.5
 21
42.69999999999999
 31
0.0
  0
LINE
  5
E5
330
E0
100
AcDbEntity
  8
치수문자_일반주서
 62
     0
370
    -2
100
AcDbLine
 10
39.27499999999999
 20
42.69999999999999
 30
0.0
 11
-57.5
 21
42.69999999999999
 31
0.0
  0
SOLID
  5
E6
330
E0
100
AcDbEntity
  8
치수문자_일반주서
 62
     0
100
AcDbTrace
 10
39.27499999999999
 20
42.03333333333332
 30
0.0
 11
39.27499999999999
 21
43.36666666666665
 31
0.0
 12
43.27499999999999
 22
42.69999999999999
 32
0.0
 13
43.27499999999999
 23
42.69999999999999
 33
0.0
  0
SOLID
  5
E7
330
E0
100
AcDbEntity
  8
치수문자_일반주서
 62
     0
100
AcDbTrace
 10
-57.5
 20
43.36666666666665
 30
0.0
 11
-57.5
 21
42.03333333333332
 31
0.0
 12
-61.5
 22
42.69999999999999
 32
0.0
 13
-61.5
 23
42.69999999999999
 33
0.0
  0
MTEXT
  5
E8
330
E0
100
AcDbEntity
  8
치수문자_일반주서
 62
     0
100
AcDbMText
 10
-9.112500000000004
 20
47.57499999999999
 30
0.0
 40
4.0
 41
0.0
 71
     2
 72
     1
  1
\A1;104.78 [4 1/8]
  7
SLDTEXTSTYLE0
 73
     1
 44
1.0
  0
POINT
  5
E9
330
E0
100
AcDbEntity
  8
Defpoints
 62
     0
100
AcDbPoint
 10
43.27499999999999
 20
17.44774096094766
 30
0.0
  0
POINT
  5
EA
330
E0
100
AcDbEntity
  8
Defpoints
 62
     0
100
AcDbPoint
 10
-61.5
 20
10.795
 30
0.0
  0
POINT
  5
EB
330
E0
100
AcDbEntity
  8
Defpoints
 62
     0
100
AcDbPoint
 10
-61.5
 20
42.69999999999999
 30
0.0
  0
ENDBLK
  5
E2
330
E0
100
AcDbEntity
  8
0
100
AcDbBlockEnd
  0
BLOCK
  5
F4
330
F3
100
AcDbEntity
  8
0
100
AcDbBlockBegin
  2
_D_3
 70
     0
 10
0.0
 20
0.0
 30
0.0
  3
_D_3
  1

  0
LINE
  5
F6
330
F3
100
AcDbEntity
  8
치수문자_일반주서
 62
     0
370
    -2
100
AcDbLine
 10
43.33750000000001
 20
-17.44774096094765
 30
0.0
 11
58.27500000000008
 21
-17.44774096094761
 31
0.0
  0
LINE
  5
F7
330
F3
100
AcDbEntity
  8
치수문자_일반주서
 62
     0
370
    -2
100
AcDbLine
 10
43.33750000000001
 20
17.44774096094766
 30
0.0
 11
58.27499999999996
 21
17.44774096094771
 31
0.0
  0
LINE
  5
F8
330
F3
100
AcDbEntity
  8
치수문자_일반주서
 62
     0
370
    -2
100
AcDbLine
 10
58.27499999999996
 20
17.44774096094771
 30
0.0
 11
58.27499999999981
 21
58.69774096094771
 31
0.0
  0
LINE
  5
F9
330
F3
100
AcDbEntity
  8
치수문자_일반주서
 62
     0
370
    -2
100
AcDbLine
 10
58.27500000000008
 20
-17.44774096094761
 30
0.0
 11
58.27499999999996
 21
17.44774096094771
 31
0.0
  0
LINE
  5
FA
330
F3
100
AcDbEntity
  8
치수문자_일반주서
 62
     0
370
    -2
100
AcDbLine
 10
58.27500000000009
 20
-21.44774096094761
 30
0.0
 11
58.27500000000011
 21
-25.44774096094761
 31
0.0
  0
LINE
  5
FB
330
F3
100
AcDbEntity
  8
치수문자_일반주서
 62
     0
370
    -2
100
AcDbLine
 10
58.27499999999994
 20
21.44774096094771
 30
0.0
 11
58.27499999999993
 21
25.44774096094771
 31
0.0
  0
SOLID
  5
FC
330
F3
100
AcDbEntity
  8
치수문자_일반주서
 62
     0
100
AcDbTrace
 10
58.94166666666676
 20
-21.4477409609476
 30
0.0
 11
57.60833333333343
 21
-21.44774096094761
 31
0.0
 12
58.27500000000008
 22
-17.44774096094761
 32
0.0
 13
58.27500000000008
 23
-17.44774096094761
 33
0.0
  0
SOLID
  5
FD
330
F3
100
AcDbEntity
  8
치수문자_일반주서
 62
     0
100
AcDbTrace
 10
57.60833333333328
 20
21.4477409609477
 30
0.0
 11
58.94166666666661
 21
21.44774096094771
 31
0.0
 12
58.27499999999996
 22
17.44774096094771
 32
0.0
 13
58.27499999999996
 23
17.44774096094771
 33
0.0
  0
MTEXT
  5
FE
330
F3
100
AcDbEntity
  8
치수문자_일반주서
 62
     0
100
AcDbMText
 10
53.39999999999988
 20
40.0727409609477
 30
0.0
 40
4.0
 41
0.0
 71
     2
 72
     1
  1
\A1;%%c34.90 [1 3/8]
  7
SLDTEXTSTYLE0
 11
-3.461544544637036E-15
 21
1.0
 31
0.0
 73
     1
 44
1.0
  0
POINT
  5
FF
330
F3
100
AcDbEntity
  8
Defpoints
 62
     0
100
AcDbPoint
 10
43.27500000000001
 20
-17.44774096094765
 30
0.0
  0
POINT
  5
25B
330
F3
100
AcDbEntity
  8
Defpoints
 62
     0
100
AcDbPoint
 10
43.27500000000001
 20
17.44774096094766
 30
0.0
  0
POINT
  5
25C
330
F3
100
AcDbEntity
  8
Defpoints
 62
     0
100
AcDbPoint
 10
58.27499999999996
 20
17.44774096094771
 30
0.0
  0
ENDBLK
  5
F5
330
F3
100
AcDbEntity
  8
0
100
AcDbBlockEnd
  0
BLOCK
  5
10D
330
10C
100
AcDbEntity
  8
0
100
AcDbBlockBegin
  2
SW_DOWELSYMBOL_0
 70
     0
 10
0.0
 20
0.0
 30
0.0
  3
SW_DOWELSYMBOL_0
  1

  0
CIRCLE
  5
10F
330
10C
100
AcDbEntity
  8
해칭선
 62
     0
100
AcDbCircle
 10
0.0
 20
0.0
 30
0.0
 40
3.000000000000001
  0
HATCH
  5
110
330
10C
100
AcDbEntity
  8
0
  6
Continuous
 62
     0
370
     0
100
AcDbHatch
 10
0.0
 20
0.0
 30
0.0
210
0.0
220
0.0
230
1.0
  2
SOLID
 70
     1
 71
     0
 91
        1
 92
        0
 93
        3
 72
     2
 10
0.0
 20
0.0
 40
3.000000000000001
 50
0.0
 51
90.0
 73
     1
 72
     1
 10
0.0
 20
3.000000000000001
 11
0.0
 21
0.0
 72
     1
 10
0.0
 20
0.0
 11
3.000000000000001
 21
0.0
 97
        0
 75
     0
 76
     1
 98
        1
 10
0.0
 20
0.0
  0
HATCH
  5
111
330
10C
100
AcDbEntity
  8
0
  6
Continuous
 62
     0
370
     0
100
AcDbHatch
 10
0.0
 20
0.0
 30
0.0
210
0.0
220
0.0
230
1.0
  2
SOLID
 70
     1
 71
     0
 91
        1
 92
        0
 93
        3
 72
     2
 10
0.0
 20
0.0
 40
3.000000000000001
 50
180.0
 51
270.0000000000008
 73
     1
 72
     1
 10
0.0
 20
-3.000000000000001
 11
0.0
 21
0.0
 72
     1
 10
0.0
 20
0.0
 11
-3.000000000000001
 21
0.0
 97
        0
 75
     0
 76
     1
 98
        1
 10
0.0
 20
0.0
  0
ENDBLK
  5
10E
330
10C
100
AcDbEntity
  8
0
100
AcDbBlockEnd
  0
BLOCK
  5
1DE
330
1DD
100
AcDbEntity
  8
0
100
AcDbBlockBegin
  2
*D9
 70
     1
 10
0.0
 20
0.0
 30
0.0
  3
*D9
  1

  0
LINE
  5
1E0
330
1DD
100
AcDbEntity
  8
치수문자_일반주서
 62
     0
370
    -2
100
AcDbLine
 10
41.27500000000001
 20
10.46198140916584
 30
0.0
 11
41.27500000000001
 21
25.41021525574937
 31
0.0
  0
LINE
  5
1E1
330
1DD
100
AcDbEntity
  8
치수문자_일반주서
 62
     0
370
    -2
100
AcDbLine
 10
0.0
 20
7.712741558615068
 30
0.0
 11
0.0
 21
25.41021525574937
 31
0.0
  0
LINE
  5
1E2
330
1DD
100
AcDbEntity
  8
치수문자_일반주서
 62
     0
370
    -2
100
AcDbLine
 10
41.27500000000001
 20
25.41021525574937
 30
0.0
 11
79.025
 21
25.41021525574937
 31
0.0
  0
LINE
  5
1E3
330
1DD
100
AcDbEntity
  8
치수문자_일반주서
 62
     0
370
    -2
100
AcDbLine
 10
37.27500000000001
 20
25.41021525574937
 30
0.0
 11
4.0
 21
25.41021525574937
 31
0.0
  0
SOLID
  5
1E4
330
1DD
100
AcDbEntity
  8
치수문자_일반주서
 62
     0
100
AcDbTrace
 10
37.27500000000001
 20
24.7435485890827
 30
0.0
 11
37.27500000000001
 21
26.07688192241604
 31
0.0
 12
41.27500000000001
 22
25.41021525574937
 32
0.0
 13
41.27500000000001
 23
25.41021525574937
 33
0.0
  0
SOLID
  5
1E5
330
1DD
100
AcDbEntity
  8
치수문자_일반주서
 62
     0
100
AcDbTrace
 10
4.0
 20
26.07688192241604
 30
0.0
 11
4.0
 21
24.7435485890827
 31
0.0
 12
0.0
 22
25.41021525574937
 32
0.0
 13
0.0
 23
25.41021525574937
 33
0.0
  0
MTEXT
  5
1E6
330
1DD
100
AcDbEntity
  8
치수문자_일반주서
 62
     0
100
AcDbMText
 10
62.15000000000001
 20
30.28521525574937
 30
0.0
 40
4.0
 41
0.0
 71
     2
 72
     1
  1
\A1;41.28 [1 5/8]
  7
SLDTEXTSTYLE0
 73
     1
 44
1.0
  0
POINT
  5
1E7
330
1DD
100
AcDbEntity
  8
Defpoints
 62
     0
100
AcDbPoint
 10
41.27500000000001
 20
10.39948140916584
 30
0.0
  0
POINT
  5
1E8
330
1DD
100
AcDbEntity
  8
Defpoints
 62
     0
100
AcDbPoint
 10
0.0
 20
7.650241558615068
 30
0.0
  0
POINT
  5
1E9
330
1DD
100
AcDbEntity
  8
Defpoints
 62
     0
100
AcDbPoint
 10
0.0
 20
25.41021525574937
 30
0.0
  0
ENDBLK
  5
1DF
330
1DD
100
AcDbEntity
  8
0
100
AcDbBlockEnd
  0
BLOCK
  5
1EE
330
1ED
100
AcDbEntity
  8
0
100
AcDbBlockBegin
  2
*D10
 70
     1
 10
0.0
 20
0.0
 30
0.0
  3
*D10
  1

  0
LINE
  5
1F0
330
1ED
100
AcDbEntity
  8
치수문자_일반주서
 62
     0
370
    -2
100
AcDbLine
 10
120.4867995307498
 20
-21.76498362292078
 30
0.0
 11
120.4867995307498
 21
-6.816749776337247
 31
0.0
  0
LINE
  5
1F1
330
1ED
100
AcDbEntity
  8
치수문자_일반주서
 62
     0
370
    -2
100
AcDbLine
 10
79.21179953074984
 20
-24.51422347347155
 30
0.0
 11
79.21179953074984
 21
-6.816749776337247
 31
0.0
  0
LINE
  5
1F2
330
1ED
100
AcDbEntity
  8
치수문자_일반주서
 62
     0
370
    -2
100
AcDbLine
 10
120.4867995307498
 20
-6.816749776337247
 30
0.0
 11
158.2367995307499
 21
-6.816749776337247
 31
0.0
  0
LINE
  5
1F3
330
1ED
100
AcDbEntity
  8
치수문자_일반주서
 62
     0
370
    -2
100
AcDbLine
 10
116.4867995307498
 20
-6.816749776337247
 30
0.0
 11
83.21179953074984
 21
-6.816749776337247
 31
0.0
  0
SOLID
  5
1F4
330
1ED
100
AcDbEntity
  8
치수문자_일반주서
 62
     0
100
AcDbTrace
 10
116.4867995307498
 20
-7.483416443003914
 30
0.0
 11
116.4867995307498
 21
-6.15008310967058
 31
0.0
 12
120.4867995307498
 22
-6.816749776337247
 32
0.0
 13
120.4867995307498
 23
-6.816749776337247
 33
0.0
  0
SOLID
  5
1F5
330
1ED
100
AcDbEntity
  8
치수문자_일반주서
 62
     0
100
AcDbTrace
 10
83.21179953074984
 20
-6.15008310967058
 30
0.0
 11
83.21179953074984
 21
-7.483416443003914
 31
0.0
 12
79.21179953074984
 22
-6.816749776337247
 32
0.0
 13
79.21179953074984
 23
-6.816749776337247
 33
0.0
  0
MTEXT
  5
1F6
330
1ED
100
AcDbEntity
  8
치수문자_일반주서
 62
     0
100
AcDbMText
 10
141.3617995307499
 20
-1.941749776337247
 30
0.0
 40
4.0
 41
0.0
 71
     2
 72
     1
  1
\A1;41.28 [1 5/8]
  7
SLDTEXTSTYLE0
 73
     1
 44
1.0
  0
POINT
  5
1F7
330
1ED
100
AcDbEntity
  8
Defpoints
 62
     0
100
AcDbPoint
 10
120.4867995307498
 20
-21.82748362292078
 30
0.0
  0
POINT
  5
1F8
330
1ED
100
AcDbEntity
  8
Defpoints
 62
     0
100
AcDbPoint
 10
79.21179953074984
 20
-24.57672347347155
 30
0.0
  0
POINT
  5
1F9
330
1ED
100
AcDbEntity
  8
Defpoints
 62
     0
100
AcDbPoint
 10
79.21179953074984
 20
-6.816749776337247
 30
0.0
  0
ENDBLK
  5
1EF
330
1ED
100
AcDbEntity
  8
0
100
AcDbBlockEnd
  0
ENDSEC
  0
SECTION
  2
ENTITIES
  0
SPLINE
  5
96
330
1F
100
AcDbEntity
  8
0
  6
Continuous
 62
     1
370
    15
100
AcDbSpline
210
0.0
220
0.0
230
1.0
 70
     8
 71
     3
 72
    65
 73
    61
 74
     0
 42
0.000000001
 43
0.00000001
 40
0.0
 40
0.0
 40
0.0
 40
0.0
 40
0.0104336265057745
 40
0.0196775937890845
 40
0.027899171829845
 40
0.0353493137570069
 40
0.0423743629233445
 40
0.0526407737183672
 40
0.0635758180265702
 40
0.0746342501600719
 40
0.0858077819939451
 40
0.1216447031317367
 40
0.1434483653128809
 40
0.1651895471589074
 40
0.1869774394043308
 40
0.2038107551622441
 40
0.2199926782939868
 40
0.2337251633299832
 40
0.2451180355911698
 40
0.2558507067763967
 40
0.2706257607799474
 40
0.2888909403386997
 40
0.3060923756852105
 40
0.328208531804372
 40
0.3457789272702159
 40
0.359972217132644
 40
0.3725591657045739
 40
0.3887833645381306
 40
0.4090795044296783
 40
0.4353474724020311
 40
0.4619288649052685
 40
0.4878666600609737
 40
0.5093977050048433
 40
0.5390790834367591
 40
0.5679514065513217
 40
0.5992036724315695
 40
0.6336658240378007
 40
0.6567202668836346
 40
0.6793209430577848
 40
0.7014093658467698
 40
0.7215966846076864
 40
0.7381853795750398
 40
0.7491747695658096
 40
0.7651878358903089
 40
0.7855736908171643
 40
0.804660695512565
 40
0.8212508341663569
 40
0.8351544429913818
 40
0.8467442717982079
 40
0.8560873245195519
 40
0.8642286282608646
 40
0.8738410875415952
 40
0.8859102086494554
 40
0.9004493423056878
 40
0.9174573323946104
 40
0.9343585554601193
 40
0.9527209438356959
 40
0.9688876494881425
 40
0.9841601723508373
 40
1.0
 40
1.0
 40
1.0
 40
1.0
 10
36.78639481798607
 20
11.94352085851371
 30
0.0
 10
36.74150353751225
 20
11.93927669004898
 30
0.0
 10
36.65683955405966
 20
11.93127228017527
 30
0.0
 10
36.49776277335179
 20
11.91321966376622
 30
0.0
 10
36.32292576040363
 20
11.89385853310145
 30
0.0
 10
36.12915391676393
 20
11.87421433307458
 30
0.0
 10
35.88460933089288
 20
11.85255602750473
 30
0.0
 10
35.57679599905656
 20
11.83082381433069
 30
0.0
 10
35.23445031047707
 20
11.80989046951822
 30
0.0
 10
34.87924683965639
 20
11.78738867748881
 30
0.0
 10
34.25789271619269
 20
11.74878046725058
 30
0.0
 10
33.51964441876986
 20
11.7044298170121
 30
0.0
 10
32.66959984891718
 20
11.65667039562476
 30
0.0
 10
31.96597197701981
 20
11.61958396097349
 30
0.0
 10
31.33171699217889
 20
11.5917203371704
 30
0.0
 10
30.79180401669636
 20
11.57211385058468
 30
0.0
 10
30.34649213881883
 20
11.55733765747046
 30
0.0
 10
29.93687632093037
 20
11.54452868235887
 30
0.0
 10
29.5679029226639
 20
11.53407732060805
 30
0.0
 10
29.18269295481357
 20
11.52430209403474
 30
0.0
 10
28.72710528151598
 20
11.51427905618247
 30
0.0
 10
28.20354570572863
 20
11.50503890187789
 30
0.0
 10
27.60386615746857
 20
11.49725619196327
 30
0.0
 10
27.0115749825158
 20
11.49262994601654
 30
0.0
 10
26.4509043138132
 20
11.49117493479032
 30
0.0
 10
25.9894245263043
 20
11.49190550292864
 30
0.0
 10
25.54185048972459
 20
11.49419329453693
 30
0.0
 10
25.03067780568385
 20
11.49875497425493
 30
0.0
 10
24.37696638152446
 20
11.50773518053887
 30
0.0
 10
23.61533992980247
 20
11.52284667716889
 30
0.0
 10
22.7949998616986
 20
11.54479065069579
 30
0.0
 10
22.02400922200152
 20
11.57070574734927
 30
0.0
 10
21.22096713515414
 20
11.6026764407095
 30
0.0
 10
20.38763745631863
 20
11.64148304037949
 30
0.0
 10
19.45253715812719
 20
11.69204679718537
 30
0.0
 10
18.46794536483442
 20
11.75280207403749
 30
0.0
 10
17.54114332449867
 20
11.81772973610291
 30
0.0
 10
16.7027948358116
 20
11.88259075224065
 30
0.0
 10
15.99717213297324
 20
11.94136005171484
 30
0.0
 10
15.32431197667807
 20
12.00110293518458
 30
0.0
 10
14.71489672150875
 20
12.05828603420409
 30
0.0
 10
14.21841582398716
 20
12.10705908851429
 30
0.0
 10
13.76452458248443
 20
12.15315764304024
 30
0.0
 10
13.27176891588801
 20
12.20480261002021
 30
0.0
 10
12.69431022129865
 20
12.26786040002119
 30
0.0
 10
12.11349435819382
 20
12.33402841122719
 30
0.0
 10
11.60190576218914
 20
12.39451816991374
 30
0.0
 10
11.17377217486733
 20
12.4465257137539
 30
0.0
 10
10.81571583843866
 20
12.49099962731398
 30
0.0
 10
10.51022099174637
 20
12.52980834459241
 30
0.0
 10
10.22089829368379
 20
12.56728670056316
 30
0.0
 10
9.903387893809205
 20
12.60885048683625
 30
0.0
 10
9.518589803921431
 20
12.65959516808718
 30
0.0
 10
9.056162277550206
 20
12.7209734494971
 30
0.0
 10
8.545026416065388
 20
12.78879616338691
 30
0.0
 10
7.98922948722363
 20
12.8636958423463
 30
0.0
 10
7.439645377736102
 20
12.9427132333575
 30
0.0
 10
6.938367274184523
 20
13.021754710954
 30
0.0
 10
6.53197327218829
 20
13.09208400205273
 30
0.0
 10
6.365867851374881
 20
13.1199554672177
 30
0.0
 10
6.281300752007919
 20
13.13414530492779
 30
0.0
1001
PE_URL
1000

  0
SPLINE
  5
97
330
1F
100
AcDbEntity
  8
0
  6
Continuous
 62
     1
370
    15
100
AcDbSpline
210
0.0
220
0.0
230
1.0
 70
     8
 71
     3
 72
    33
 73
    29
 74
     0
 42
0.000000001
 43
0.00000001
 40
0.0
 40
0.0
 40
0.0
 40
0.0
 40
0.0372811446290249
 40
0.0732270618640721
 40
0.111277557422059
 40
0.1421022804677971
 40
0.1765427657006167
 40
0.2141925124619441
 40
0.2483163295061588
 40
0.2776245528103674
 40
0.302130078314772
 40
0.3218612835217765
 40
0.3436172737300006
 40
0.3704601225974898
 40
0.4042226341760171
 40
0.445108971138278
 40
0.4830670663158047
 40
0.5257248342952294
 40
0.5660972515037398
 40
0.5968922391623249
 40
0.618647867475829
 40
0.6473325043907571
 40
0.6807167385344178
 40
0.7183498412933872
 40
0.7978684951301185
 40
0.8793482036283712
 40
0.9549446336837154
 40
1.0
 40
1.0
 40
1.0
 40
1.0
 10
6.281300752007919
 20
-13.13414530492779
 30
0.0
 10
6.365869488446375
 20
-13.11995522474868
 30
0.0
 10
6.531978124770918
 20
-13.09208328332973
 30
0.0
 10
6.938348219954081
 20
-13.02175753310348
 30
0.0
 10
7.38671324130882
 20
-12.95106023762652
 30
0.0
 10
7.85134791054733
 20
-12.88332103153083
 30
0.0
 10
8.318319324283397
 20
-12.81900589264055
 30
0.0
 10
8.794758287164157
 20
-12.75575305399153
 30
0.0
 10
9.249307776328743
 20
-12.69528348939436
 30
0.0
 10
9.645566851080215
 20
-12.64282993288192
 30
0.0
 10
9.977777771829656
 20
-12.59909129607298
 30
0.0
 10
10.27642308573455
 20
-12.56005643381196
 30
0.0
 10
10.58623673005996
 20
-12.52003267911178
 30
0.0
 10
10.95155933796913
 20
-12.47395517204895
 30
0.0
 10
11.38991603810368
 20
-12.42008101847335
 30
0.0
 10
11.88141089636905
 20
-12.36121041913971
 30
0.0
 10
12.41524962585047
 20
-12.29940852218186
 30
0.0
 10
12.94926239364038
 20
-12.23976716683709
 30
0.0
 10
13.45246524861225
 20
-12.1857081004029
 30
0.0
 10
13.86305628609203
 20
-12.143090942861
 30
0.0
 10
14.22249129705002
 20
-12.10674941148723
 30
0.0
 10
14.5926370493336
 20
-12.07028079825808
 30
0.0
 10
15.03196562932673
 20
-12.02838420751145
 30
0.0
 10
15.6938979068846
 20
-11.9676578394022
 30
0.0
 10
16.57141427307625
 20
-11.89228341413821
 30
0.0
 10
17.62375792130174
 20
-11.81153067843359
 30
0.0
 10
18.51966561824061
 20
-11.74934669611566
 30
0.0
 10
19.05337984143119
 20
-11.717611005031
 30
0.0
 10
19.25268636281936
 20
-11.70575984963904
 30
0.0
1001
PE_URL
1000

  0
SPLINE
  5
98
330
1F
100
AcDbEntity
  8
0
  6
Continuous
 62
     1
370
    15
100
AcDbSpline
210
0.0
220
0.0
230
1.0
 70
     8
 71
     3
 72
    38
 73
    34
 74
     0
 42
0.000000001
 43
0.00000001
 40
0.0
 40
0.0
 40
0.0
 40
0.0
 40
0.0625
 40
0.0625
 40
0.125
 40
0.125
 40
0.1875
 40
0.1875
 40
0.25
 40
0.25
 40
0.3125000000000001
 40
0.3125000000000001
 40
0.375
 40
0.375
 40
0.4375
 40
0.4375
 40
0.5
 40
0.5
 40
0.5625
 40
0.5625
 40
0.6250000000000001
 40
0.6250000000000001
 40
0.6875000000000001
 40
0.6875000000000001
 40
0.75
 40
0.75
 40
0.8125
 40
0.8125
 40
0.875
 40
0.875
 40
0.9375
 40
0.9375
 40
1.0
 40
1.0
 40
1.0
 40
1.0
 10
43.27499999999999
 20
-16.57087992896204
 30
0.0
 10
42.41748729140013
 20
-16.41441140055266
 30
0.0
 10
41.55586277527054
 20
-16.23760235567669
 30
0.0
 10
39.83376281832665
 20
-15.84506606869257
 30
0.0
 10
38.97584654215214
 20
-15.62958040256584
 30
0.0
 10
37.25734393011133
 20
-15.16107420510167
 30
0.0
 10
36.39512933506283
 20
-14.90786164456175
 30
0.0
 10
34.67416759167309
 20
-14.36622474898913
 30
0.0
 10
33.81754031062422
 20
-14.0780800845703
 30
0.0
 10
32.09669080278918
 20
-13.46752730092319
 30
0.0
 10
31.23445779750013
 20
-13.14530188506935
 30
0.0
 10
29.51576997485158
 20
-12.47050469547141
 30
0.0
 10
28.65800961010147
 20
-12.11780055010778
 30
0.0
 10
26.93594866662414
 20
-11.38296064324043
 30
0.0
 10
26.07426896052984
 20
-11.00116461428033
 30
0.0
 10
24.35898576465681
 20
-10.21308482066754
 30
0.0
 10
23.49767272865221
 20
-9.805624319391555
 30
0.0
 10
21.77553847714487
 20
-8.967960455122773
 30
0.0
 10
20.91745625963895
 20
-8.538227067416923
 30
0.0
 10
19.19914354428979
 20
-7.658777091675999
 30
0.0
 10
18.3369497295569
 20
-7.208703595487192
 30
0.0
 10
16.61588045912236
 20
-6.292734910749733
 30
0.0
 10
15.75924313641471
 20
-5.82726406127793
 30
0.0
 10
14.03851057161992
 20
-4.881985893371674
 30
0.0
 10
13.17626152633436
 20
-4.402496978770831
 30
0.0
 10
11.4573931808496
 20
-3.435056660303936
 30
0.0
 10
10.59977869619575
 20
-2.946930987636666
 30
0.0
 10
8.877761484731732
 20
-1.963431428982186
 30
0.0
 10
8.01602895383935
 20
-1.468560913234416
 30
0.0
 10
6.300492636076738
 20
-0.477983457314011
 30
0.0
 10
5.439481081234312
 20
0.0191087601020391
 30
0.0
 10
3.717317254379924
 20
1.012070668091226
 30
0.0
 10
2.859059067148127
 20
1.507382337910859
 30
0.0
 10
1.999999999996266
 20
2.000423427876283
 30
0.0
1001
PE_URL
1000

  0
SPLINE
  5
99
330
1F
100
AcDbEntity
  8
외형선
  6
Continuous
370
    15
100
AcDbSpline
210
0.0
220
0.0
230
1.0
 70
    24
 71
     3
 72
     8
 73
     4
 74
     0
 42
0.000000001
 43
0.00000001
 40
0.0
 40
0.0
 40
0.0
 40
0.0
 40
1.0
 40
1.0
 40
1.0
 40
1.0
 10
1.999999999999997
 20
2.586003176581421
 30
0.0
 10
1.999999999999997
 20
2.464529104552763
 30
0.0
 10
1.999999999999997
 20
2.268408457578158
 30
0.0
 10
1.999999999999997
 20
2.000423427877594
 30
0.0
  0
SPLINE
  5
9A
330
1F
100
AcDbEntity
  8
0
  6
Continuous
 62
     1
370
    15
100
AcDbSpline
210
0.0
220
0.0
230
1.0
 70
     8
 71
     3
 72
    38
 73
    34
 74
     0
 42
0.000000001
 43
0.00000001
 40
0.0
 40
0.0
 40
0.0
 40
0.0
 40
0.0624999999999998
 40
0.0624999999999998
 40
0.1249999999999997
 40
0.1249999999999997
 40
0.1874999999999995
 40
0.1874999999999995
 40
0.2499999999999993
 40
0.2499999999999993
 40
0.3124999999999994
 40
0.3124999999999994
 40
0.3749999999999994
 40
0.3749999999999994
 40
0.4374999999999995
 40
0.4374999999999995
 40
0.4999999999999996
 40
0.4999999999999996
 40
0.5624999999999996
 40
0.5624999999999996
 40
0.6249999999999997
 40
0.6249999999999997
 40
0.6874999999999997
 40
0.6874999999999997
 40
0.7499999999999998
 40
0.7499999999999998
 40
0.8124999999999998
 40
0.8124999999999998
 40
0.8749999999999999
 40
0.8749999999999999
 40
0.9374999999999999
 40
0.9374999999999999
 40
1.0
 40
1.0
 40
1.0
 40
1.0
 10
43.27499999999999
 20
-13.77742816652998
 30
0.0
 10
42.41748729140021
 20
-13.62055798890501
 30
0.0
 10
41.5558627752707
 20
-13.4467334698606
 30
0.0
 10
39.83376281832697
 20
-13.06693387402499
 30
0.0
 10
38.97584654215251
 20
-12.86118604334236
 30
0.0
 10
37.25734393011187
 20
-12.41884337743024
 30
0.0
 10
36.39512933506345
 20
-12.18207267751396
 30
0.0
 10
34.67416759167386
 20
-11.67986998950479
 30
0.0
 10
33.81754031062506
 20
-11.41469096729419
 30
0.0
 10
32.09669080279019
 20
-10.85653529913967
 30
0.0
 10
31.23445779750123
 20
-10.56373130428324
 30
0.0
 10
29.51576997485281
 20
-9.953894189221543
 30
0.0
 10
28.65800961010279
 20
-9.636737503947494
 30
0.0
 10
26.93594866662562
 20
-8.979014468346756
 30
0.0
 10
26.07426896053139
 20
-8.63875581145892
 30
0.0
 10
24.35898576465852
 20
-7.939233576917291
 30
0.0
 10
23.49767272865401
 20
-7.578925222479441
 30
0.0
 10
21.77553847714682
 20
-6.840848641526726
 30
0.0
 10
20.91745625964096
 20
-6.463491866111401
 30
0.0
 10
19.19914354429197
 20
-5.693733705456058
 30
0.0
 10
18.33694972955915
 20
-5.301022697075901
 30
0.0
 10
16.61588045912477
 20
-4.504194616024121
 30
0.0
 10
15.7592431364172
 20
-4.10044294506265
 30
0.0
 10
14.03851057162257
 20
-3.282816032486143
 30
0.0
 10
13.17626152633709
 20
-2.869219824407507
 30
0.0
 10
11.45739318085248
 20
-2.03697693582097
 30
0.0
 10
10.59977869619871
 20
-1.618177490817338
 30
0.0
 10
8.877761484734854
 20
-0.776567487587775
 30
0.0
 10
8.016028953842552
 20
-0.3541904805423848
 30
0.0
 10
6.300492636080074
 20
0.4891024785718602
 30
0.0
 10
5.439481081237739
 20
0.9111981624814679
 30
0.0
 10
3.717317254383506
 20
1.752178718755175
 30
0.0
 10
2.859059067151779
 20
2.170592885588779
 30
0.0
 10
2.000000000000011
 20
2.586003176581414
 30
0.0
1001
PE_URL
1000

  0
LINE
  5
9B
330
1F
100
AcDbEntity
  8
0
  6
Continuous
 62
     1
370
    15
100
AcDbLine
 10
43.27499999999971
 20
-16.57087992896205
 30
0.0
 11
43.27499999999999
 21
-13.77742816652998
 31
0.0
1001
PE_URL
1000

  0
SPLINE
  5
9C
330
1F
100
AcDbEntity
  8
0
  6
Continuous
 62
     1
370
    15
100
AcDbSpline
210
0.0
220
0.0
230
1.0
 70
     8
 71
     3
 72
    38
 73
    34
 74
     0
 42
0.000000001
 43
0.00000001
 40
0.0
 40
0.0
 40
0.0
 40
0.0
 40
0.0625
 40
0.0625
 40
0.125
 40
0.125
 40
0.1875
 40
0.1875
 40
0.25
 40
0.25
 40
0.3125
 40
0.3125
 40
0.375
 40
0.375
 40
0.4375
 40
0.4375
 40
0.5
 40
0.5
 40
0.5625
 40
0.5625
 40
0.625
 40
0.625
 40
0.6875
 40
0.6875
 40
0.75
 40
0.75
 40
0.8125
 40
0.8125
 40
0.875
 40
0.875
 40
0.9375
 40
0.9375
 40
1.0
 40
1.0
 40
1.0
 40
1.0
 10
1.999999999999997
 20
-2.868439214036249
 30
0.0
 10
2.859059067151782
 20
-3.358006020675056
 30
0.0
 10
3.717317254383515
 20
-3.843947009550166
 30
0.0
 10
5.439481081237744
 20
-4.806388892244771
 30
0.0
 10
6.300492636080076
 20
-5.282338645315578
 30
0.0
 10
8.016028953842552
 20
-6.219116661955601
 30
0.0
 10
8.877761484734854
 20
-6.681252674371434
 30
0.0
 10
10.59977869619871
 20
-7.587926996518148
 30
0.0
 10
11.45739318085248
 20
-8.032016362681508
 30
0.0
 10
13.17626152633709
 20
-8.900299426833692
 30
0.0
 10
14.03851057162257
 20
-9.324634171627045
 30
0.0
 10
15.7592431364172
 20
-10.14904220905296
 30
0.0
 10
16.61588045912479
 20
-10.54885736536946
 30
0.0
 10
18.33694972955916
 20
-11.32316075626236
 30
0.0
 10
19.19914354429197
 20
-11.69727010097352
 30
0.0
 10
20.91745625964097
 20
-12.41537230041814
 30
0.0
 10
21.77553847714682
 20
-12.75967150887958
 30
0.0
 10
23.49767272865401
 20
-13.41727822356419
 30
0.0
 10
24.35898576465851
 20
-13.73020248914518
 30
0.0
 10
26.0742689605314
 20
-14.32120209400036
 30
0.0
 10
26.93594866662562
 20
-14.60015843164686
 30
0.0
 10
28.65800961010279
 20
-15.12180851000318
 30
0.0
 10
29.51576997485282
 20
-15.3642805615452
 30
0.0
 10
31.23445779750123
 20
-15.81174007340454
 30
0.0
 10
32.0966908027902
 20
-16.01679408928828
 30
0.0
 10
33.81754031062508
 20
-16.38726781677316
 30
0.0
 10
34.67416759167387
 20
-16.55260700218991
 30
0.0
 10
36.39512933506346
 20
-16.84326550544516
 30
0.0
 10
37.25734393011187
 20
-16.96840054861293
 30
0.0
 10
38.97584654215251
 20
-17.17697714949323
 30
0.0
 10
39.83376281832696
 20
-17.26053352791703
 30
0.0
 10
41.5558627752707
 20
-17.38577710879181
 30
0.0
 10
42.41748729140023
 20
-17.42735223900381
 30
0.0
 10
43.27500000000001
 20
-17.44774096094764
 30
0.0
1001
PE_URL
1000

  0
LINE
  5
9D
330
1F
100
AcDbEntity
  8
외형선
  6
Continuous
370
    15
100
AcDbLine
 10
1.999999999999999
 20
-2.868439214036247
 30
0.0
 11
1.999999999999999
 21
2.000423427880404
 31
0.0
  0
LINE
  5
9E
330
1F
100
AcDbEntity
  8
0
  6
Continuous
 62
     1
370
    15
100
AcDbLine
 10
43.27500000000001
 20
-17.44774096094765
 30
0.0
 11
43.27499999999965
 21
-16.57087992896203
 31
0.0
1001
PE_URL
1000

  0
SPLINE
  5
9F
330
1F
100
AcDbEntity
  8
0
  6
Continuous
 62
     1
370
    15
100
AcDbSpline
210
0.0
220
0.0
230
1.0
 70
     8
 71
     3
 72
    38
 73
    34
 74
     0
 42
0.000000001
 43
0.00000001
 40
0.0
 40
0.0
 40
0.0
 40
0.0
 40
0.0625
 40
0.0625
 40
0.125
 40
0.125
 40
0.1875
 40
0.1875
 40
0.25
 40
0.25
 40
0.3125
 40
0.3125
 40
0.375
 40
0.375
 40
0.4375
 40
0.4375
 40
0.5
 40
0.5
 40
0.5625
 40
0.5625
 40
0.625
 40
0.625
 40
0.6875
 40
0.6875
 40
0.75
 40
0.75
 40
0.8125
 40
0.8125
 40
0.875
 40
0.875
 40
0.9375
 40
0.9375
 40
1.0
 40
1.0
 40
1.0
 40
1.0
 10
42.03345225362207
 20
0.5736352614417838
 30
0.0
 10
41.19896892809949
 20
0.9586014380959644
 30
0.0
 10
40.36273853965207
 20
1.343179702637432
 30
0.0
 10
38.69535636230162
 20
2.107620110623379
 30
0.0
 10
37.86385615594397
 20
2.487540579022692
 30
0.0
 10
36.19386502389393
 20
3.241901398886189
 30
0.0
 10
35.3579453945944
 20
3.615944285426071
 30
0.0
 10
33.69282015898076
 20
4.353944419087309
 30
0.0
 10
32.85925800935571
 20
4.718550841967732
 30
0.0
 10
31.18887184288932
 20
5.436635060217768
 30
0.0
 10
30.35456410842903
 20
5.789747360854005
 30
0.0
 10
28.6901121263165
 20
6.481407008976833
 30
0.0
 10
27.85432187939223
 20
6.820730030354975
 30
0.0
 10
26.18417062156079
 20
7.482833747972062
 30
0.0
 10
25.35227797838739
 20
7.805306196377805
 30
0.0
 10
23.68541029193824
 20
8.432138167768183
 30
0.0
 10
22.84922893083879
 20
8.736626604914402
 30
0.0
 10
21.17994222945292
 20
9.324598546011272
 30
0.0
 10
20.34907465347209
 20
9.607850181700073
 30
0.0
 10
18.68041678891032
 20
10.1525934938815
 30
0.0
 10
17.84416052539676
 20
10.41388325238969
 30
0.0
 10
16.17636694210182
 20
10.91163221511285
 30
0.0
 10
15.34513312351556
 20
11.14809548823378
 30
0.0
 10
13.67531285289379
 20
11.59574946406309
 30
0.0
 10
12.83929799330778
 20
11.80667282530718
 30
0.0
 10
11.17362421552341
 20
12.20061661326101
 30
0.0
 10
10.3406333039482
 20
12.38392262285936
 30
0.0
 10
8.670279859167824
 20
12.72216846700345
 30
0.0
 10
7.835256746221033
 20
12.87693040949454
 30
0.0
 10
6.171418020139906
 20
13.15642412251907
 30
0.0
 10
5.335755811235344
 20
13.28153362124085
 30
0.0
 10
3.665499094218992
 20
13.50108035640621
 30
0.0
 10
2.833195631261352
 20
13.59544913632059
 30
0.0
 10
2.000000000000003
 20
13.67426650302473
 30
0.0
1001
PE_URL
1000

  0
SPLINE
  5
A0
330
1F
100
AcDbEntity
  8
0
  6
Continuous
 62
     1
370
    15
100
AcDbSpline
210
0.0
220
0.0
230
1.0
 70
     8
 71
     3
 72
     8
 73
     4
 74
     0
 42
0.000000001
 43
0.00000001
 40
0.0
 40
0.0
 40
0.0
 40
0.0
 40
1.0
 40
1.0
 40
1.0
 40
1.0
 10
43.27499999999999
 20
-4.666729945042674
 30
0.0
 10
42.60384439325514
 20
-4.139092664741613
 30
0.0
 10
41.93579095486585
 20
-3.602741090073759
 30
0.0
 10
41.27079581346032
 20
-3.057798460014046
 30
0.0
1001
PE_URL
1000

  0
SPLINE
  5
A1
330
1F
100
AcDbEntity
  8
0
  6
Continuous
 62
     1
370
    15
100
AcDbSpline
210
0.0
220
0.0
230
1.0
 70
    24
 71
     3
 72
    14
 73
    10
 74
     0
 42
0.000000001
 43
0.00000001
 40
0.0
 40
0.0
 40
0.0
 40
0.0
 40
0.2500000000000001
 40
0.2500000000000001
 40
0.5
 40
0.5
 40
0.7499999999999999
 40
0.7499999999999999
 40
1.0
 40
1.0
 40
1.0
 40
1.0
 10
43.27499999999999
 20
-13.77742816652997
 30
0.0
 10
43.27499999999999
 20
-13.24935452350445
 30
0.0
 10
43.27500000000001
 20
-12.6529815168601
 30
0.0
 10
43.27500000000001
 20
-11.33387336153768
 30
0.0
 10
43.27499999999999
 20
-10.61116238807972
 30
0.0
 10
43.27499999999998
 20
-9.059890588805738
 30
0.0
 10
43.27499999999999
 20
-8.231416266433254
 30
0.0
 10
43.27500000000001
 20
-6.497808082669483
 30
0.0
 10
43.27500000000001
 20
-5.592805584663367
 30
0.0
 10
43.27499999999998
 20
-4.666729945043231
 30
0.0
1001
PE_URL
1000

  0
SPLINE
  5
A2
330
1F
100
AcDbEntity
  8
0
  6
Continuous
 62
     1
370
    15
100
AcDbSpline
210
0.0
220
0.0
230
1.0
 70
     8
 71
     3
 72
     8
 73
     4
 74
     0
 42
0.000000001
 43
0.00000001
 40
0.0
 40
0.0
 40
0.0
 40
0.0
 40
1.0
 40
1.0
 40
1.0
 40
1.0
 10
42.03345225362205
 20
0.5736352614417957
 30
0.0
 10
41.9126578346247
 20
-0.693295788777635
 30
0.0
 10
41.64525172194386
 20
-1.898194022908772
 30
0.0
 10
41.27079581346031
 20
-3.057798460014031
 30
0.0
1001
PE_URL
1000

  0
SPLINE
  5
A3
330
1F
100
AcDbEntity
  8
외형선
  6
Continuous
370
    15
100
AcDbSpline
210
0.0
220
0.0
230
1.0
 70
    24
 71
     3
 72
    14
 73
    10
 74
     0
 42
0.000000001
 43
0.00000001
 40
0.0
 40
0.0
 40
0.0
 40
0.0
 40
0.25
 40
0.25
 40
0.5
 40
0.5
 40
0.75
 40
0.75
 40
1.0
 40
1.0
 40
1.0
 40
1.0
 10
1.999999999999997
 20
13.67426650302473
 30
0.0
 10
1.999999999999997
 20
13.24811946257552
 30
0.0
 10
1.999999999999997
 20
12.6760027089913
 30
0.0
 10
1.999999999999997
 20
11.24974388296438
 30
0.0
 10
1.999999999999997
 20
10.39568219519118
 30
0.0
 10
1.999999999999997
 20
8.457733453098566
 30
0.0
 10
1.999999999999997
 20
7.374406019547298
 30
0.0
 10
1.999999999999999
 20
5.063366746192909
 30
0.0
 10
1.999999999999997
 20
3.836432004151943
 30
0.0
 10
1.999999999999997
 20
2.586003176581426
 30
0.0
  0
SPLINE
  5
A4
330
1F
100
AcDbEntity
  8
0
  6
Continuous
 62
     1
370
    15
100
AcDbSpline
210
0.0
220
0.0
230
1.0
 70
    24
 71
     3
 72
    10
 73
     6
 74
     0
 42
0.000000001
 43
0.00000001
 40
0.0
 40
0.0
 40
0.0
 40
0.0
 40
0.4999999999999998
 40
0.4999999999999998
 40
1.0
 40
1.0
 40
1.0
 40
1.0
 10
38.27499999999999
 20
6.273390904201039
 30
0.0
 10
38.27500000000001
 20
7.219467762590195
 30
0.0
 10
38.27500000000001
 20
8.081680603247005
 30
0.0
 10
38.27499999999998
 20
9.573988838152527
 30
0.0
 10
38.27500000000001
 20
10.20369638999399
 30
0.0
 10
38.27499999999999
 20
10.69918179754862
 30
0.0
1001
PE_URL
1000

  0
SPLINE
  5
A5
330
1F
100
AcDbEntity
  8
0
  6
Continuous
 62
     1
370
    15
100
AcDbSpline
210
0.0
220
0.0
230
1.0
 70
     8
 71
     3
 72
    10
 73
     6
 74
     0
 42
0.000000001
 43
0.00000001
 40
0.0
 40
0.0
 40
0.0
 40
0.0
 40
0.4880746391050733
 40
0.9757668664227981
 40
1.0
 40
1.0
 40
1.0
 40
1.0
 10
43.27499999999999
 20
12.22375
 30
0.0
 10
42.21928401209878
 20
12.20814762246935
 30
0.0
 10
40.10867920125336
 20
12.17695509204052
 30
0.0
 10
37.94602727754648
 20
12.0625996528702
 30
0.0
 10
36.83879582132554
 20
11.94596382987665
 30
0.0
 10
36.78638254034924
 20
11.94044261195232
 30
0.0
1001
PE_URL
1000

  0
SPLINE
  5
A6
330
1F
100
AcDbEntity
  8
0
  6
Continuous
 62
     1
370
    15
100
AcDbSpline
210
0.0
220
0.0
230
1.0
 70
     8
 71
     3
 72
     8
 73
     4
 74
     0
 42
0.000000001
 43
0.00000001
 40
0.0
 40
0.0
 40
0.0
 40
0.0
 40
1.0
 40
1.0
 40
1.0
 40
1.0
 10
43.27499999999999
 20
12.22375000000001
 30
0.0
 10
41.59870332814634
 20
11.76938035645063
 30
0.0
 10
39.93185032902877
 20
11.26223232239131
 30
0.0
 10
38.27499999999999
 20
10.69918179754867
 30
0.0
1001
PE_URL
1000

  0
SPLINE
  5
A7
330
1F
100
AcDbEntity
  8
0
  6
Continuous
 62
     1
370
    15
100
AcDbSpline
210
0.0
220
0.0
230
1.0
 70
     8
 71
     3
 72
    12
 73
     8
 74
     0
 42
0.000000001
 43
0.00000001
 40
0.0
 40
0.0
 40
0.0
 40
0.0
 40
0.5
 40
0.5
 40
0.75
 40
0.75
 40
1.0
 40
1.0
 40
1.0
 40
1.0
 10
38.27500000000001
 20
6.273390904201046
 30
0.0
 10
39.04601644400926
 20
5.497780354833258
 30
0.0
 10
39.75149744498932
 20
4.64138154017094
 30
0.0
 10
40.69922845340616
 20
3.220577093687107
 30
0.0
 10
40.99659380591557
 20
2.724114439187723
 30
0.0
 10
41.5503400621976
 20
1.680665896279912
 30
0.0
 10
41.8050934036996
 20
1.136234791338663
 30
0.0
 10
42.03345225362204
 20
0.573635261441802
 30
0.0
1001
PE_URL
1000

  0
LINE
  5
A8
330
1F
100
AcDbEntity
  8
0
  6
Continuous
 62
     1
370
    15
100
AcDbLine
 10
41.94351942102527
 20
0.7823032749148058
 30
0.0
 11
43.27499999999999
 21
0.0000000000000063
 31
0.0
1001
PE_URL
1000

  0
LINE
  5
A9
330
1F
100
AcDbEntity
  8
0
  6
Continuous
 62
     1
370
    15
100
AcDbLine
 10
43.27499999999999
 20
0.0000000000000063
 30
0.0
 11
43.27499999999999
 21
-4.666729945042668
 31
0.0
1001
PE_URL
1000

  0
SPLINE
  5
AA
330
1F
100
AcDbEntity
  8
0
  6
Continuous
 62
     1
370
    15
100
AcDbSpline
210
0.0
220
0.0
230
1.0
 70
     8
 71
     3
 72
     9
 73
     5
 74
     0
 42
0.000000001
 43
0.00000001
 40
0.0
 40
0.0
 40
0.0
 40
0.0
 40
0.2561985033671117
 40
1.0
 40
1.0
 40
1.0
 40
1.0
 10
6.282219975980126
 20
-13.11749375644455
 30
0.0
 10
5.916533327619478
 20
-13.17980353762081
 30
0.0
 10
4.489176635232209
 20
-13.42301253516506
 30
0.0
 10
3.061733981903509
 20
-13.56709657703841
 30
0.0
 10
2.000000000000003
 20
-13.67426650302473
 30
0.0
1001
PE_URL
1000

  0
SPLINE
  5
AB
330
1F
100
AcDbEntity
  8
외형선
  6
Continuous
370
    15
100
AcDbSpline
210
0.0
220
0.0
230
1.0
 70
    24
 71
     3
 72
    19
 73
    15
 74
     0
 42
0.000000001
 43
0.00000001
 40
0.0
 40
0.0
 40
0.0
 40
0.0
 40
0.0601676081337111
 40
0.1445939507462632
 40
0.2314730612762812
 40
0.3183521718062992
 40
0.4027785144188513
 40
0.4872048570314035
 40
0.5740839675614213
 40
0.6609630780914393
 40
0.7445340734226613
 40
0.8281050687538833
 40
0.9140525343769417
 40
1.0
 40
1.0
 40
1.0
 40
1.0
 10
1.999999999999997
 20
-2.912408393726722
 30
0.0
 10
1.999999999999997
 20
-3.254453086296555
 30
0.0
 10
1.999999999999997
 20
-4.076450087083973
 30
0.0
 10
1.999999999999999
 20
-5.31983497808787
 30
0.0
 10
1.999999999999999
 20
-6.638144634755763
 30
0.0
 10
1.999999999999999
 20
-7.867966054994573
 30
0.0
 10
1.999999999999999
 20
-8.992604012995189
 30
0.0
 10
1.999999999999999
 20
-10.0176284874699
 30
0.0
 10
1.999999999999999
 20
-10.94236411808052
 30
0.0
 10
1.999999999999999
 20
-11.74686082211427
 30
0.0
 10
1.999999999999999
 20
-12.42147928126015
 30
0.0
 10
1.999999999999999
 20
-12.97034062893323
 30
0.0
 10
1.999999999999999
 20
-13.40538110893541
 30
0.0
 10
1.999999999999999
 20
-13.58463803832829
 30
0.0
 10
1.999999999999999
 20
-13.67426650302472
 30
0.0
  0
LINE
  5
AC
330
1F
100
AcDbEntity
  8
0
  6
Continuous
 62
     1
370
    15
100
AcDbLine
 10
43.27499999999999
 20
0.0000000000000063
 30
0.0
 11
43.27499999999999
 21
12.22375
 31
0.0
1001
PE_URL
1000

  0
SPLINE
  5
AD
330
1F
100
AcDbEntity
  8
0
  6
Continuous
 62
     1
370
    15
100
AcDbSpline
210
0.0
220
0.0
230
1.0
 70
    24
 71
     3
 72
    14
 73
    10
 74
     0
 42
0.000000001
 43
0.00000001
 40
0.0
 40
0.0
 40
0.0
 40
0.0
 40
0.25
 40
0.25
 40
0.5
 40
0.5
 40
0.75
 40
0.75
 40
1.0
 40
1.0
 40
1.0
 40
1.0
 10
43.27499999999999
 20
12.22375
 30
0.0
 10
43.27500000000001
 20
12.59423664224885
 30
0.0
 10
43.27500000000001
 20
12.99383930270318
 30
0.0
 10
43.27500000000001
 20
13.83548219329544
 30
0.0
 10
43.27499999999999
 20
14.27743852151376
 30
0.0
 10
43.27500000000001
 20
15.18070983935721
 30
0.0
 10
43.27500000000001
 20
15.64187287713341
 30
0.0
 10
43.27500000000001
 20
16.5568351540231
 30
0.0
 10
43.27499999999998
 20
17.01046791681543
 30
0.0
 10
43.27499999999999
 20
17.44774096094766
 30
0.0
1001
PE_URL
1000

  0
SPLINE
  5
AE
330
1F
100
AcDbEntity
  8
0
  6
Continuous
 62
     1
370
    15
100
AcDbSpline
210
0.0
220
0.0
230
1.0
 70
     8
 71
     3
 72
    17
 73
    13
 74
     0
 42
0.000000001
 43
0.00000001
 40
0.0
 40
0.0
 40
0.0
 40
0.0
 40
0.0577009303968104
 40
0.1631526556571382
 40
0.2660337820274312
 40
0.3690867118690184
 40
0.4723988435643008
 40
0.5758849703491319
 40
0.6814462827606145
 40
0.7871933163070786
 40
0.8935017027680133
 40
1.0
 40
1.0
 40
1.0
 40
1.0
 10
19.25234932162101
 20
11.70569174455807
 30
0.0
 10
19.71440043750367
 20
11.905054595635
 30
0.0
 10
21.02087619252491
 20
12.46876437239065
 30
0.0
 10
23.15135596787915
 20
13.2956996478771
 30
0.0
 10
25.64418701197309
 20
14.18828831664019
 30
0.0
 10
28.12133098877003
 20
14.9746056370641
 30
0.0
 10
30.60146236460643
 20
15.66451896786261
 30
0.0
 10
33.10380664098207
 20
16.25164756477852
 30
0.0
 10
35.62346586532853
 20
16.73312601584234
 30
0.0
 10
38.16775548717018
 20
17.09743995600246
 30
0.0
 10
40.71793263142927
 20
17.35109763238027
 30
0.0
 10
42.42213726083622
 20
17.41550735813493
 30
0.0
 10
43.27499999999999
 20
17.44774096094766
 30
0.0
1001
PE_URL
1000

  0
LINE
  5
AF
330
1F
100
AcDbEntity
  8
중심선
 62
     1
100
AcDbLine
 10
-68.49999999999999
 20
-0.0000000000000053
 30
0.0
 11
50.27499999999999
 21
0.0000000000000075
 31
0.0
  0
LINE
  5
B0
330
1F
100
AcDbEntity
  8
참조1
100
AcDbLine
 10
-2.762500000000007
 20
-0.0000000000000028
 30
0.0
 11
-2.762500000000002
 21
-40.00000000000001
 31
0.0
  0
LINE
  5
B1
330
1F
100
AcDbEntity
  8
참조1
100
AcDbLine
 10
-2.762500000000002
 20
-40.00000000000001
 30
0.0
 11
-24.27133181430868
 21
-40.0
 31
0.0
  0
INSERT
  5
B3
330
1F
100
AcDbEntity
  8
0
  6
Continuous
 62
     7
100
AcDbBlockReference
 66
     1
  2
블럭10
 10
-16.70277293212521
 20
-52.04717430164393
 30
0.0
  0
ATTRIB
  5
B4
330
B3
100
AcDbEntity
  8
FORMAT
 62
     2
100
AcDbText
 10
-25.8840682208665
 20
-49.97180738881175
 30
0.0
 40
4.233333333333333
  1
E1030912 [ 2 FLUTE ]
 41
0.75
  7
SLDTEXTSTYLE0
 11
-25.8840682208665
 21
-52.08847405547841
 31
0.0
100
AcDbAttribute
  2
AUTOATTR0
 70
     0
 74
     1
  0
SEQEND
  5
B5
330
B3
100
AcDbEntity
  8
0
  6
Continuous
 62
     7
  0
HATCH
  5
B6
330
1F
100
AcDbEntity
  8
중심선
100
AcDbHatch
 10
0.0
 20
0.0
 30
0.0
210
0.0
220
0.0
230
1.0
  2
SOLID
 70
     1
 71
     0
 91
        1
 92
        0
 93
        4
 72
     1
 10
-10.98786362774437
 20
-35.8
 11
-14.43413887158165
 21
-35.8
 72
     1
 10
-14.43413887158165
 20
-35.8
 11
-16.56236873078567
 21
-38.3363255805726
 72
     1
 10
-16.56236873078567
 20
-38.3363255805726
 11
-13.11606040183524
 21
-38.33628615127011
 72
     1
 10
-13.11606040183524
 20
-38.33628615127011
 11
-10.98786362774437
 21
-35.8
 97
        0
 75
     0
 76
     1
 98
        1
 10
-1.740578832126943
 20
-0.001074928723892
  0
HATCH
  5
B7
330
1F
100
AcDbEntity
  8
중심선
100
AcDbHatch
 10
0.0
 20
0.0
 30
0.0
210
0.0
220
0.0
230
1.0
  2
SOLID
 70
     1
 71
     0
 91
        1
 92
        0
 93
        4
 72
     1
 10
-5.975099636708391
 20
-35.8
 11
-9.421374880545674
 21
-35.8
 72
     1
 10
-9.421374880545674
 20
-35.8
 11
-13.95251288890309
 21
-41.20000000000002
 72
     1
 10
-13.95251288890309
 20
-41.20000000000002
 11
-10.50623764506581
 21
-41.20000000000002
 72
     1
 10
-10.50623764506581
 20
-41.20000000000002
 11
-5.975099636708391
 21
-35.8
 97
        0
 75
     0
 76
     1
 98
        1
 10
-1.740578832126943
 20
-0.001074928723892
  0
HATCH
  5
B8
330
1F
100
AcDbEntity
  8
중심선
100
AcDbHatch
 10
0.0
 20
0.0
 30
0.0
210
0.0
220
0.0
230
1.0
  2
SOLID
 70
     1
 71
     0
 91
        1
 92
        0
 93
        4
 72
     1
 10
-0.9623356456725234
 20
-35.8
 11
-4.408610889509611
 21
-35.8
 72
     1
 10
-4.408610889509611
 20
-35.8
 11
-11.45704779139889
 21
-44.20000000000002
 72
     1
 10
-11.45704779139889
 20
-44.20000000000002
 11
-8.010772547561606
 21
-44.20000000000002
 72
     1
 10
-8.010772547561606
 20
-44.20000000000002
 11
-0.9623356456725229
 21
-35.8
 97
        0
 75
     0
 76
     1
 98
        1
 10
-1.740578832126943
 20
-0.001074928723892
  0
HATCH
  5
B9
330
1F
100
AcDbEntity
  8
중심선
100
AcDbHatch
 10
0.0
 20
0.0
 30
0.0
210
0.0
220
0.0
230
1.0
  2
SOLID
 70
     1
 71
     0
 91
        1
 92
        0
 93
        6
 72
     3
 10
3.837554785339676
 20
-40.00000000005127
 11
3.960054785062284
 21
1.540882976769353E-10
 40
0.3939339440162627
 50
17.09539180608437
 51
320.0019657685086
 73
     0
 72
     1
 10
5.520554441040272
 20
-38.58789400463833
 11
7.825856314741337
 21
-36.65356729459038
 72
     3
 10
3.837554785286829
 20
-40.00000000000015
 11
6.60005478528683
 21
-1.278976924368180E-13
 40
0.636358354079598
 50
39.99873849337385
 51
368.4976242363725
 73
     1
 72
     1
 10
10.26288727718744
 20
-39.03999999993002
 11
2.517622092122751
 21
-39.03999999993002
 72
     1
 10
2.517622092122751
 20
-39.03999999993002
 11
2.517597047676817
 21
-40.95999999992991
 72
     1
 10
2.517597047676817
 20
-40.95999999992991
 11
6.958976817148855
 21
-40.95999999992988
 97
        0
 75
     0
 76
     1
 98
        1
 10
-1.740578832126943
 20
-0.001074928723892
  0
DIMENSION
  5
BA
330
1F
100
AcDbEntity
  8
치수문자_일반주서
100
AcDbDimension
  2
_D
 10
-76.49999999999991
 20
-12.70000000000007
 30
0.0
 11
-76.50000000000006
 21
29.32499999999988
 31
0.0
 70
   160
  1
%%c<>
 71
     2
 42
25.39999999999995
 52
-270.0
  3
SLDDIMSTYLE2
100
AcDbAlignedDimension
 13
-46.89500000000001
 23
12.69999999999999
 33
0.0
 14
-60.43749999999997
 24
-12.70000000000001
 34
0.0
 50
90.0000000000002
100
AcDbRotatedDimension
1001
PE_URL
1000

1001
ACAD
1000
DSTYLE
1002
{
1070
   171
1070
     8
1070
   273
1070
     7
1070
    41
1040
4.0
1070
   140
1040
4.0
1002
}
1001
ACAD_DSTYLE_DIMFLIPARROW_SYMBOL
1070
   385
1070
     0
1001
ACAD_DSTYLE_DIMFLIPARROW_WHICH_SYMBOL
1070
   386
1070
     3
  0
DIMENSION
  5
C8
330
1F
100
AcDbEntity
  8
치수문자_일반주서
100
AcDbDimension
  2
_D_1
 10
1.999999999999996
 20
27.69999999999999
 30
0.0
 11
22.6375
 21
27.69999999999999
 31
0.0
 70
   160
  1
<>
 71
     2
 42
41.275
  3
SLDDIMSTYLE2
100
AcDbAlignedDimension
 13
43.27499999999999
 23
17.44774096094766
 33
0.0
 14
1.999999999999996
 24
5.472849324069394
 34
0.0
100
AcDbRotatedDimension
1001
PE_URL
1000

1001
ACAD
1000
DSTYLE
1002
{
1070
   171
1070
     8
1070
   273
1070
     7
1070
    41
1040
4.0
1070
   140
1040
4.0
1002
}
  0
DIMENSION
  5
DE
330
1F
100
AcDbEntity
  8
치수문자_일반주서
100
AcDbDimension
  2
_D_2
 10
-61.5
 20
42.69999999999999
 30
0.0
 11
-9.112500000000004
 21
42.69999999999999
 31
0.0
 70
   160
  1
<>
 71
     2
 42
104.775
  3
SLDDIMSTYLE2
100
AcDbAlignedDimension
 13
43.27499999999999
 23
17.44774096094766
 33
0.0
 14
-61.5
 24
10.795
 34
0.0
 50
0.000000000000008
100
AcDbRotatedDimension
1001
PE_URL
1000

1001
ACAD
1000
DSTYLE
1002
{
1070
   171
1070
     8
1070
   273
1070
     7
1070
    41
1040
4.0
1070
   140
1040
4.0
1002
}
  0
DIMENSION
  5
F2
330
1F
100
AcDbEntity
  8
치수문자_일반주서
100
AcDbDimension
  2
_D_3
 10
58.27499999999996
 20
17.44774096094771
 30
0.0
 11
58.27499999999988
 21
40.07274096094771
 31
0.0
 70
   160
  1
%%c<>
 71
     2
 42
34.89548192189531
 52
-270.0
  3
SLDDIMSTYLE2
100
AcDbAlignedDimension
 13
43.27500000000001
 23
-17.44774096094765
 33
0.0
 14
43.27500000000001
 24
17.44774096094766
 34
0.0
 50
90.0000000000002
100
AcDbRotatedDimension
1001
PE_URL
1000

1001
ACAD
1000
DSTYLE
1002
{
1070
   171
1070
     8
1070
   273
1070
     7
1070
    41
1040
4.0
1070
   140
1040
4.0
1002
}
1001
ACAD_DSTYLE_DIMFLIPARROW_SYMBOL
1070
   385
1070
     0
1001
ACAD_DSTYLE_DIMFLIPARROW_WHICH_SYMBOL
1070
   386
1070
     3
  0
LINE
  5
105
330
1F
100
AcDbEntity
  8
참조1
100
AcDbLine
 10
73.70100881534559
 20
7.440000000000003
 30
0.0
 11
73.70100881534559
 21
-7.440000000000001
 31
0.0
  0
LINE
  5
106
330
1F
100
AcDbEntity
  8
참조1
100
AcDbLine
 10
86.40100881534559
 20
5.440000000000003
 30
0.0
 11
73.70100881534559
 21
5.440000000000003
 31
0.0
  0
SOLID
  5
107
330
1F
100
AcDbEntity
  8
참조1
100
AcDbTrace
 10
73.70100881534559
 20
5.440000000000003
 30
0.0
 11
80.05100881534558
 21
4.424000000000003
 31
0.0
 12
80.05100881534558
 22
6.456000000000003
 32
0.0
 13
80.05100881534558
 23
6.456000000000003
 33
0.0
  0
LINE
  5
108
330
1F
100
AcDbEntity
  8
참조1
100
AcDbLine
 10
86.40100881534559
 20
-5.440000000000001
 30
0.0
 11
73.70100881534559
 21
-5.440000000000001
 31
0.0
  0
SOLID
  5
109
330
1F
100
AcDbEntity
  8
참조1
100
AcDbTrace
 10
73.70100881534559
 20
-5.440000000000001
 30
0.0
 11
80.05100881534558
 21
-6.456000000000001
 31
0.0
 12
80.05100881534558
 22
-4.424000000000001
 32
0.0
 13
80.05100881534558
 23
-4.424000000000001
 33
0.0
  0
MTEXT
  5
10A
330
1F
100
AcDbEntity
  8
참조1
100
AcDbMText
 10
83.08535894797157
 20
11.01029177718833
 30
0.0
 40
3.5
 41
0.0
 71
     1
 72
     1
  1
A
  7
SLDTEXTSTYLE0
 73
     1
 44
1.0
  0
MTEXT
  5
10B
330
1F
100
AcDbEntity
  8
참조1
100
AcDbMText
 10
83.08535894797157
 20
0.1302917771883281
 30
0.0
 40
3.5
 41
0.0
 71
     1
 72
     1
  1
A
  7
SLDTEXTSTYLE0
 73
     1
 44
1.0
  0
LINE
  5
185
330
1F
100
AcDbEntity
  8
외형선
  6
Continuous
370
    15
100
AcDbLine
 10
1.999999999999997
 20
12.69999999999999
 30
0.0
 11
-24.06992499999998
 21
12.69999999999999
 31
0.0
  0
LINE
  5
186
330
1F
100
AcDbEntity
  8
외형선
  6
Continuous
370
    15
100
AcDbLine
 10
-60.49999999999997
 20
-12.70000000000001
 30
0.0
 11
1.999999999999999
 21
-12.70000000000001
 31
0.0
  0
LINE
  5
187
330
1F
100
AcDbEntity
  8
외형선
  6
Continuous
370
    15
100
AcDbLine
 10
-61.5
 20
-11.7
 30
0.0
 11
-60.49999999999997
 21
-12.7
 31
0.0
  0
LINE
  5
190
330
1F
100
AcDbEntity
  8
외형선
  6
Continuous
370
    15
100
AcDbLine
 10
-60.49999999999997
 20
10.795
 30
0.0
 11
-60.49999999999997
 21
-12.70000000000001
 31
0.0
  0
LINE
  5
192
330
1F
100
AcDbEntity
  8
외형선
  6
Continuous
370
    15
100
AcDbLine
 10
-61.5
 20
10.795
 30
0.0
 11
-61.5
 21
-11.69999999999998
 31
0.0
  0
CIRCLE
  5
19D
330
1F
100
AcDbEntity
  8
해칭선
100
AcDbCircle
 10
0.0
 20
0.0
 30
0.0
 40
2.999999999999993
  0
INSERT
  5
19E
330
1F
100
AcDbEntity
  8
해칭선
100
AcDbBlockReference
  2
SW_DOWELSYMBOL_0
 10
0.0
 20
0.0
 30
0.0
  0
LINE
  5
19F
330
1F
100
AcDbEntity
  8
외형선
  6
Continuous
370
    15
100
AcDbLine
 10
-39.08132499999989
 20
10.795
 30
0.0
 11
-25.97492500000001
 21
10.795
 31
0.0
1001
PE_URL
1000

  0
LINE
  5
1A0
330
1F
100
AcDbEntity
  8
외형선
  6
Continuous
370
    15
100
AcDbLine
 10
-39.08132499999989
 20
10.79500000000001
 30
0.0
 11
-40.98632499999988
 21
12.7
 31
0.0
1001
PE_URL
1000

  0
LINE
  5
1A1
330
1F
100
AcDbEntity
  8
외형선
  6
Continuous
370
    15
100
AcDbLine
 10
-25.97492500000001
 20
10.79500000000001
 30
0.0
 11
-24.06992499999998
 21
12.7
 31
0.0
1001
PE_URL
1000

  0
LINE
  5
1A2
330
1F
100
AcDbEntity
  8
외형선
  6
Continuous
370
    15
100
AcDbLine
 10
-61.5
 20
10.795
 30
0.0
 11
-48.79999999999998
 21
10.795
 31
0.0
1001
PE_URL
1000

  0
LINE
  5
1A3
330
1F
100
AcDbEntity
  8
외형선
  6
Continuous
370
    15
100
AcDbLine
 10
-48.79999999999998
 20
10.79500000000001
 30
0.0
 11
-46.89500000000001
 21
12.7
 31
0.0
1001
PE_URL
1000

  0
LINE
  5
1A4
330
1F
100
AcDbEntity
  8
외형선
  6
Continuous
370
    15
100
AcDbLine
 10
-40.98632499999985
 20
12.69999999999999
 30
0.0
 11
-46.89500000000001
 21
12.69999999999999
 31
0.0
  0
ENDSEC
  0
SECTION
  2
OBJECTS
  0
DICTIONARY
  5
C
330
0
100
AcDbDictionary
281
     1
  3
ACAD_DETAILVIEWSTYLE
350
22A
  3
ACAD_GROUP
350
D
  3
ACAD_LAYOUT
350
1A
  3
ACAD_MLINESTYLE
350
17
  3
ACAD_PLOTSETTINGS
350
19
  3
ACAD_PLOTSTYLENAME
350
E
  3
ACAD_SCALELIST
350
47
  3
ACAD_SECTIONVIEWSTYLE
350
22B
  3
AcDbVariableDictionary
350
225
  3
APPDATA
350
134
  3
DWGPROPS
350
261
  0
DICTIONARY
  5
180
330
2
100
AcDbDictionary
280
     1
281
     1
  3
ACAD_LAYERSTATES
360
181
  0
DICTIONARY
  5
22A
102
{ACAD_REACTORS
330
C
102
}
330
C
100
AcDbDictionary
281
     1
  0
DICTIONARY
  5
D
102
{ACAD_REACTORS
330
C
102
}
330
C
100
AcDbDictionary
281
     1
  0
DICTIONARY
  5
1A
102
{ACAD_REACTORS
330
C
102
}
330
C
100
AcDbDictionary
281
     1
  3
Layout1
350
1E
  3
Layout2
350
26
  3
Model
350
22
  0
DICTIONARY
  5
17
102
{ACAD_REACTORS
330
C
102
}
330
C
100
AcDbDictionary
281
     1
  3
Standard
350
18
  0
DICTIONARY
  5
19
102
{ACAD_REACTORS
330
C
102
}
330
C
100
AcDbDictionary
281
     1
  0
ACDBDICTIONARYWDFLT
  5
E
102
{ACAD_REACTORS
330
C
102
}
330
C
100
AcDbDictionary
281
     1
  3
Normal
350
F
100
AcDbDictionaryWithDefault
340
F
  0
DICTIONARY
  5
47
102
{ACAD_REACTORS
330
C
102
}
330
C
100
AcDbDictionary
281
     1
  3
A0
350
48
  3
A1
350
49
  3
A2
350
4A
  3
A3
350
4B
  3
A4
350
4C
  3
A5
350
4D
  3
A6
350
4E
  3
A7
350
4F
  3
A8
350
50
  3
A9
350
51
  3
B0
350
52
  3
B1
350
53
  3
B2
350
54
  3
B3
350
55
  3
B4
350
56
  3
B5
350
57
  3
B6
350
58
  3
B7
350
59
  3
B8
350
5A
  3
B9
350
5B
  3
C0
350
5C
  3
C1
350
5D
  3
C2
350
5E
  3
C3
350
5F
  3
C4
350
60
  3
C5
350
61
  3
C6
350
62
  3
C7
350
63
  3
C8
350
64
  3
C9
350
65
  3
D0
350
66
  3
D1
350
67
  3
D2
350
68
  0
DICTIONARY
  5
22B
102
{ACAD_REACTORS
330
C
102
}
330
C
100
AcDbDictionary
281
     1
  0
DICTIONARY
  5
225
102
{ACAD_REACTORS
330
C
102
}
330
C
100
AcDbDictionary
281
     1
  0
DICTIONARY
  5
134
102
{ACAD_REACTORS
330
C
102
}
330
C
100
AcDbDictionary
281
     1
  0
XRECORD
  5
261
102
{ACAD_REACTORS
330
C
102
}
330
C
100
AcDbXrecord
280
     1
  1
DWGPROPS COOKIE
  2

  3

  4

  6

  7

  8
120170442
  9

300
=
301
=
302
=
303
=
304
=
305
=
306
=
307
=
308
=
309
=
 40
0.0
 41
2458311.192543217
 42
2458321.286276493
  1

 90
        0
  0
DICTIONARY
  5
181
102
{ACAD_REACTORS
330
180
102
}
330
180
100
AcDbDictionary
281
     1
  0
LAYOUT
  5
1E
102
{ACAD_REACTORS
330
1A
102
}
330
1A
100
AcDbPlotSettings
  1

  2
none_device
  4

  6

 40
0.0
 41
0.0
 42
0.0
 43
0.0
 44
0.0
 45
0.0
 46
0.0
 47
0.0
 48
0.0
 49
0.0
140
0.0
141
0.0
142
1.0
143
1.0
 70
   688
 72
     1
 73
     0
 74
     5
  7

 75
    16
147
1.0
148
0.0
149
0.0
100
AcDbLayout
  1
Layout1
 70
     1
 71
     1
 10
0.0
 20
0.0
 11
420.0
 21
297.0
 12
0.0
 22
0.0
 32
0.0
 14
1.000000000000000E+20
 24
1.000000000000000E+20
 34
1.000000000000000E+20
 15
-1.000000000000000E+20
 25
-1.000000000000000E+20
 35
-1.000000000000000E+20
146
0.0
 13
0.0
 23
0.0
 33
0.0
 16
1.0
 26
0.0
 36
0.0
 17
0.0
 27
1.0
 37
0.0
 76
     0
330
1B
  0
LAYOUT
  5
26
102
{ACAD_REACTORS
330
1A
102
}
330
1A
100
AcDbPlotSettings
  1

  2
none_device
  4

  6

 40
0.0
 41
0.0
 42
0.0
 43
0.0
 44
0.0
 45
0.0
 46
0.0
 47
0.0
 48
0.0
 49
0.0
140
0.0
141
0.0
142
1.0
143
1.0
 70
   688
 72
     1
 73
     0
 74
     5
  7

 75
    16
147
1.0
148
0.0
149
0.0
100
AcDbLayout
  1
Layout2
 70
     1
 71
     2
 10
0.0
 20
0.0
 11
0.0
 21
0.0
 12
0.0
 22
0.0
 32
0.0
 14
0.0
 24
0.0
 34
0.0
 15
0.0
 25
0.0
 35
0.0
146
0.0
 13
0.0
 23
0.0
 33
0.0
 16
1.0
 26
0.0
 36
0.0
 17
0.0
 27
1.0
 37
0.0
 76
     0
330
23
  0
LAYOUT
  5
22
102
{ACAD_REACTORS
330
1A
102
}
330
1A
100
AcDbPlotSettings
  1

  2
none_device
  4
ANSI_A_(11.00_x_8.50_Inches)
  6

 40
6.35
 41
19.05
 42
6.35000508
 43
19.05000254
 44
279.4
 45
215.9
 46
111.5354592427306
 47
79.46089414116082
 48
0.0
 49
0.0
140
0.0
141
0.0
142
0.0715194751484015
143
1.0
 70
  1696
 72
     0
 73
     0
 74
     0
  7

 75
     0
147
0.0235690232323232
148
0.0
149
0.0
100
AcDbLayout
  1
Model
 70
     1
 71
     0
 10
0.0
 20
0.0
 11
420.0
 21
297.0
 12
0.0
 22
0.0
 32
0.0
 14
-81.3750000000001
 24
-49.97180738881175
 34
0.0
 15
86.40100881534559
 25
58.6977409609477
 35
0.0
146
0.0
 13
0.0
 23
0.0
 33
0.0
 16
1.0
 26
0.0
 36
0.0
 17
0.0
 27
1.0
 37
0.0
 76
     0
330
1F
331
29
  0
MLINESTYLE
  5
18
102
{ACAD_REACTORS
330
17
102
}
330
17
100
AcDbMlineStyle
  2
Standard
 70
     0
  3

 62
   256
 51
90.0
 52
90.0
 71
     2
 49
0.5
 62
   256
  6
BYLAYER
 49
-0.5
 62
   256
  6
BYLAYER
  0
ACDBPLACEHOLDER
  5
F
102
{ACAD_REACTORS
330
E
102
}
330
E
  0
SCALE
  5
48
102
{ACAD_REACTORS
330
47
102
}
330
47
100
AcDbScale
 70
     0
300
1:1
140
1.0
141
1.0
290
     1
  0
SCALE
  5
49
102
{ACAD_REACTORS
330
47
102
}
330
47
100
AcDbScale
 70
     0
300
1:2
140
1.0
141
2.0
290
     0
  0
SCALE
  5
4A
102
{ACAD_REACTORS
330
47
102
}
330
47
100
AcDbScale
 70
     0
300
1:4
140
1.0
141
4.0
290
     0
  0
SCALE
  5
4B
102
{ACAD_REACTORS
330
47
102
}
330
47
100
AcDbScale
 70
     0
300
1:5
140
1.0
141
5.0
290
     0
  0
SCALE
  5
4C
102
{ACAD_REACTORS
330
47
102
}
330
47
100
AcDbScale
 70
     0
300
1:8
140
1.0
141
8.0
290
     0
  0
SCALE
  5
4D
102
{ACAD_REACTORS
330
47
102
}
330
47
100
AcDbScale
 70
     0
300
1:10
140
1.0
141
10.0
290
     0
  0
SCALE
  5
4E
102
{ACAD_REACTORS
330
47
102
}
330
47
100
AcDbScale
 70
     0
300
1:16
140
1.0
141
16.0
290
     0
  0
SCALE
  5
4F
102
{ACAD_REACTORS
330
47
102
}
330
47
100
AcDbScale
 70
     0
300
1:20
140
1.0
141
20.0
290
     0
  0
SCALE
  5
50
102
{ACAD_REACTORS
330
47
102
}
330
47
100
AcDbScale
 70
     0
300
1:30
140
1.0
141
30.0
290
     0
  0
SCALE
  5
51
102
{ACAD_REACTORS
330
47
102
}
330
47
100
AcDbScale
 70
     0
300
1:40
140
1.0
141
40.0
290
     0
  0
SCALE
  5
52
102
{ACAD_REACTORS
330
47
102
}
330
47
100
AcDbScale
 70
     0
300
1:50
140
1.0
141
50.0
290
     0
  0
SCALE
  5
53
102
{ACAD_REACTORS
330
47
102
}
330
47
100
AcDbScale
 70
     0
300
1:100
140
1.0
141
100.0
290
     0
  0
SCALE
  5
54
102
{ACAD_REACTORS
330
47
102
}
330
47
100
AcDbScale
 70
     0
300
2:1
140
2.0
141
1.0
290
     0
  0
SCALE
  5
55
102
{ACAD_REACTORS
330
47
102
}
330
47
100
AcDbScale
 70
     0
300
4:1
140
4.0
141
1.0
290
     0
  0
SCALE
  5
56
102
{ACAD_REACTORS
330
47
102
}
330
47
100
AcDbScale
 70
     0
300
8:1
140
8.0
141
1.0
290
     0
  0
SCALE
  5
57
102
{ACAD_REACTORS
330
47
102
}
330
47
100
AcDbScale
 70
     0
300
10:1
140
10.0
141
1.0
290
     0
  0
SCALE
  5
58
102
{ACAD_REACTORS
330
47
102
}
330
47
100
AcDbScale
 70
     0
300
100:1
140
100.0
141
1.0
290
     0
  0
SCALE
  5
59
102
{ACAD_REACTORS
330
47
102
}
330
47
100
AcDbScale
 70
     0
300
1/128" = 1'-0"
140
0.0078125
141
12.0
290
     0
  0
SCALE
  5
5A
102
{ACAD_REACTORS
330
47
102
}
330
47
100
AcDbScale
 70
     0
300
1/64" = 1'-0"
140
0.015625
141
12.0
290
     0
  0
SCALE
  5
5B
102
{ACAD_REACTORS
330
47
102
}
330
47
100
AcDbScale
 70
     0
300
1/32" = 1'-0"
140
0.03125
141
12.0
290
     0
  0
SCALE
  5
5C
102
{ACAD_REACTORS
330
47
102
}
330
47
100
AcDbScale
 70
     0
300
1/16" = 1'-0"
140
0.0625
141
12.0
290
     0
  0
SCALE
  5
5D
102
{ACAD_REACTORS
330
47
102
}
330
47
100
AcDbScale
 70
     0
300
3/32" = 1'-0"
140
0.09375
141
12.0
290
     0
  0
SCALE
  5
5E
102
{ACAD_REACTORS
330
47
102
}
330
47
100
AcDbScale
 70
     0
300
1/8" = 1'-0"
140
0.125
141
12.0
290
     0
  0
SCALE
  5
5F
102
{ACAD_REACTORS
330
47
102
}
330
47
100
AcDbScale
 70
     0
300
3/16" = 1'-0"
140
0.1875
141
12.0
290
     0
  0
SCALE
  5
60
102
{ACAD_REACTORS
330
47
102
}
330
47
100
AcDbScale
 70
     0
300
1/4" = 1'-0"
140
0.25
141
12.0
290
     0
  0
SCALE
  5
61
102
{ACAD_REACTORS
330
47
102
}
330
47
100
AcDbScale
 70
     0
300
3/8" = 1'-0"
140
0.375
141
12.0
290
     0
  0
SCALE
  5
62
102
{ACAD_REACTORS
330
47
102
}
330
47
100
AcDbScale
 70
     0
300
1/2" = 1'-0"
140
0.5
141
12.0
290
     0
  0
SCALE
  5
63
102
{ACAD_REACTORS
330
47
102
}
330
47
100
AcDbScale
 70
     0
300
3/4" = 1'-0"
140
0.75
141
12.0
290
     0
  0
SCALE
  5
64
102
{ACAD_REACTORS
330
47
102
}
330
47
100
AcDbScale
 70
     0
300
1" = 1'-0"
140
1.0
141
12.0
290
     0
  0
SCALE
  5
65
102
{ACAD_REACTORS
330
47
102
}
330
47
100
AcDbScale
 70
     0
300
1-1/2" = 1'-0"
140
1.5
141
12.0
290
     0
  0
SCALE
  5
66
102
{ACAD_REACTORS
330
47
102
}
330
47
100
AcDbScale
 70
     0
300
3" = 1'-0"
140
3.0
141
12.0
290
     0
  0
SCALE
  5
67
102
{ACAD_REACTORS
330
47
102
}
330
47
100
AcDbScale
 70
     0
300
6" = 1'-0"
140
6.0
141
12.0
290
     0
  0
SCALE
  5
68
102
{ACAD_REACTORS
330
47
102
}
330
47
100
AcDbScale
 70
     0
300
1'-0" = 1'-0"
140
12.0
141
12.0
290
     0
  0
ENDSEC
  0
EOF
