  0
SECTION
  2
HEADER
  9
$ACADVER
  1
AC1015
  9
$ACADMAINTVER
 70
     6
  9
$DWGCODEPAGE
  3
ANSI_949
  9
$INSBASE
 10
0.0
 20
0.0
 30
0.0
  9
$EXTMIN
 10
-103.1250000000002
 20
-49.97180738881175
 30
0.0
  9
$EXTMAX
 10
87.67227809435462
 20
60.27499999999998
 30
0.0
  9
$LIMMIN
 10
0.0
 20
0.0
  9
$LIMMAX
 10
420.0
 20
297.0
  9
$ORTHOMODE
 70
     1
  9
$REGENMODE
 70
     1
  9
$FILLMODE
 70
     1
  9
$QTEXTMODE
 70
     0
  9
$MIRRTEXT
 70
     1
  9
$LTSCALE
 40
1.0
  9
$ATTMODE
 70
     1
  9
$TEXTSIZE
 40
3.5
  9
$TRACEWID
 40
1.0
  9
$TEXTSTYLE
  7
Standard
  9
$CLAYER
  8
0
  9
$CELTYPE
  6
ByLayer
  9
$CECOLOR
 62
   256
  9
$CELTSCALE
 40
1.0
  9
$DISPSILH
 70
     0
  9
$DIMSCALE
 40
1.0
  9
$DIMASZ
 40
3.302
  9
$DIMEXO
 40
1.0
  9
$DIMDLI
 40
3.75
  9
$DIMRND
 40
0.0
  9
$DIMDLE
 40
0.0
  9
$DIMEXE
 40
1.0
  9
$DIMTP
 40
0.0
  9
$DIMTM
 40
0.0
  9
$DIMTXT
 40
3.5
  9
$DIMCEN
 40
2.5
  9
$DIMTSZ
 40
0.0
  9
$DIMTOL
 70
     0
  9
$DIMLIM
 70
     0
  9
$DIMTIH
 70
     1
  9
$DIMTOH
 70
     1
  9
$DIMSE1
 70
     0
  9
$DIMSE2
 70
     0
  9
$DIMTAD
 70
     1
  9
$DIMZIN
 70
     0
  9
$DIMBLK
  1

  9
$DIMASO
 70
     1
  9
$DIMSHO
 70
     1
  9
$DIMPOST
  1

  9
$DIMAPOST
  1

  9
$DIMALT
 70
     0
  9
$DIMALTD
 70
     3
  9
$DIMALTF
 40
0.0393700787401575
  9
$DIMLFAC
 40
1.0
  9
$DIMTOFL
 70
     1
  9
$DIMTVP
 40
0.0
  9
$DIMTIX
 70
     0
  9
$DIMSOXD
 70
     0
  9
$DIMSAH
 70
     0
  9
$DIMBLK1
  1

  9
$DIMBLK2
  1

  9
$DIMSTYLE
  2
ISO-25
  9
$DIMCLRD
 70
     0
  9
$DIMCLRE
 70
     0
  9
$DIMCLRT
 70
     0
  9
$DIMTFAC
 40
1.0
  9
$DIMGAP
 40
1.524
  9
$DIMJUST
 70
     0
  9
$DIMSD1
 70
     0
  9
$DIMSD2
 70
     0
  9
$DIMTOLJ
 70
     0
  9
$DIMTZIN
 70
     0
  9
$DIMALTZ
 70
     0
  9
$DIMALTTZ
 70
     0
  9
$DIMUPT
 70
     0
  9
$DIMDEC
 70
     2
  9
$DIMTDEC
 70
     2
  9
$DIMALTU
 70
     2
  9
$DIMALTTD
 70
     3
  9
$DIMTXSTY
  7
Standard
  9
$DIMAUNIT
 70
     0
  9
$DIMADEC
 70
     2
  9
$DIMALTRND
 40
0.0
  9
$DIMAZIN
 70
     0
  9
$DIMDSEP
 70
    44
  9
$DIMATFIT
 70
     3
  9
$DIMFRAC
 70
     0
  9
$DIMLDRBLK
  1

  9
$DIMLUNIT
 70
     2
  9
$DIMLWD
 70
    -2
  9
$DIMLWE
 70
    -2
  9
$DIMTMOVE
 70
     0
  9
$LUNITS
 70
     2
  9
$LUPREC
 70
     2
  9
$SKETCHINC
 40
1.0
  9
$FILLETRAD
 40
10.0
  9
$AUNITS
 70
     0
  9
$AUPREC
 70
     2
  9
$MENU
  1
.
  9
$ELEVATION
 40
0.0
  9
$PELEVATION
 40
0.0
  9
$THICKNESS
 40
0.0
  9
$LIMCHECK
 70
     0
  9
$CHAMFERA
 40
0.0
  9
$CHAMFERB
 40
0.0
  9
$CHAMFERC
 40
0.0
  9
$CHAMFERD
 40
0.0
  9
$SKPOLY
 70
     0
  9
$TDCREATE
 40
2458311.459872755
  9
$TDUCREATE
 40
2458311.084872755
  9
$TDUPDATE
 40
2458321.689732222
  9
$TDUUPDATE
 40
2458321.314732222
  9
$TDINDWG
 40
0.0004178472
  9
$TDUSRTIMER
 40
0.0013920023
  9
$USRTIMER
 70
     1
  9
$ANGBASE
 50
0.0
  9
$ANGDIR
 70
     0
  9
$PDMODE
 70
     0
  9
$PDSIZE
 40
-1.0
  9
$PLINEWID
 40
0.0
  9
$SPLFRAME
 70
     0
  9
$SPLINETYPE
 70
     6
  9
$SPLINESEGS
 70
     8
  9
$HANDSEED
  5
1E6
  9
$SURFTAB1
 70
     6
  9
$SURFTAB2
 70
     6
  9
$SURFTYPE
 70
     6
  9
$SURFU
 70
     6
  9
$SURFV
 70
     6
  9
$UCSBASE
  2

  9
$UCSNAME
  2

  9
$UCSORG
 10
0.0
 20
0.0
 30
0.0
  9
$UCSXDIR
 10
1.0
 20
0.0
 30
0.0
  9
$UCSYDIR
 10
0.0
 20
1.0
 30
0.0
  9
$UCSORTHOREF
  2

  9
$UCSORTHOVIEW
 70
     0
  9
$UCSORGTOP
 10
0.0
 20
0.0
 30
0.0
  9
$UCSORGBOTTOM
 10
0.0
 20
0.0
 30
0.0
  9
$UCSORGLEFT
 10
0.0
 20
0.0
 30
0.0
  9
$UCSORGRIGHT
 10
0.0
 20
0.0
 30
0.0
  9
$UCSORGFRONT
 10
0.0
 20
0.0
 30
0.0
  9
$UCSORGBACK
 10
0.0
 20
0.0
 30
0.0
  9
$PUCSBASE
  2

  9
$PUCSNAME
  2

  9
$PUCSORG
 10
0.0
 20
0.0
 30
0.0
  9
$PUCSXDIR
 10
1.0
 20
0.0
 30
0.0
  9
$PUCSYDIR
 10
0.0
 20
1.0
 30
0.0
  9
$PUCSORTHOREF
  2

  9
$PUCSORTHOVIEW
 70
     0
  9
$PUCSORGTOP
 10
0.0
 20
0.0
 30
0.0
  9
$PUCSORGBOTTOM
 10
0.0
 20
0.0
 30
0.0
  9
$PUCSORGLEFT
 10
0.0
 20
0.0
 30
0.0
  9
$PUCSORGRIGHT
 10
0.0
 20
0.0
 30
0.0
  9
$PUCSORGFRONT
 10
0.0
 20
0.0
 30
0.0
  9
$PUCSORGBACK
 10
0.0
 20
0.0
 30
0.0
  9
$USERI1
 70
     0
  9
$USERI2
 70
     0
  9
$USERI3
 70
     0
  9
$USERI4
 70
     0
  9
$USERI5
 70
     0
  9
$USERR1
 40
0.0
  9
$USERR2
 40
0.0
  9
$USERR3
 40
0.0
  9
$USERR4
 40
0.0
  9
$USERR5
 40
0.0
  9
$WORLDVIEW
 70
     1
  9
$SHADEDGE
 70
     3
  9
$SHADEDIF
 70
    70
  9
$TILEMODE
 70
     1
  9
$MAXACTVP
 70
    64
  9
$PINSBASE
 10
0.0
 20
0.0
 30
0.0
  9
$PLIMCHECK
 70
     0
  9
$PEXTMIN
 10
1.000000000000000E+20
 20
1.000000000000000E+20
 30
1.000000000000000E+20
  9
$PEXTMAX
 10
-1.000000000000000E+20
 20
-1.000000000000000E+20
 30
-1.000000000000000E+20
  9
$PLIMMIN
 10
0.0
 20
0.0
  9
$PLIMMAX
 10
0.0
 20
0.0
  9
$UNITMODE
 70
     0
  9
$VISRETAIN
 70
     1
  9
$PLINEGEN
 70
     0
  9
$PSLTSCALE
 70
     1
  9
$TREEDEPTH
 70
  3020
  9
$CMLSTYLE
  2
Standard
  9
$CMLJUST
 70
     0
  9
$CMLSCALE
 40
20.0
  9
$PROXYGRAPHICS
 70
     1
  9
$MEASUREMENT
 70
     1
  9
$CELWEIGHT
370
    -1
  9
$ENDCAPS
280
     0
  9
$JOINSTYLE
280
     0
  9
$LWDISPLAY
290
     1
  9
$INSUNITS
 70
     4
  9
$HYPERLINKBASE
  1

  9
$STYLESHEET
  1

  9
$XEDIT
290
     1
  9
$CEPSNTYPE
380
     0
  9
$PSTYLEMODE
290
     1
  9
$FINGERPRINTGUID
  2
{35F748A5-AB4A-478C-943F-316EA2C4B291}
  9
$VERSIONGUID
  2
{FAEB1C32-E019-11D5-929B-00C0DF256EC4}
  9
$EXTNAMES
290
     1
  9
$PSVPSCALE
 40
0.0
  9
$OLESTARTUP
290
     0
  0
ENDSEC
  0
SECTION
  2
CLASSES
  0
CLASS
  1
ACDBDICTIONARYWDFLT
  2
AcDbDictionaryWithDefault
  3
ObjectDBX Classes
 90
        0
280
     0
281
     0
  0
CLASS
  1
VISUALSTYLE
  2
AcDbVisualStyle
  3
ObjectDBX Classes
 90
     4095
280
     0
281
     0
  0
CLASS
  1
MATERIAL
  2
AcDbMaterial
  3
ObjectDBX Classes
 90
     1153
280
     0
281
     0
  0
CLASS
  1
SCALE
  2
AcDbScale
  3
ObjectDBX Classes
 90
     1153
280
     0
281
     0
  0
CLASS
  1
SUN
  2
AcDbSun
  3
SCENEOE
 90
     1153
280
     0
281
     0
  0
CLASS
  1
ACDBPLACEHOLDER
  2
AcDbPlaceHolder
  3
ObjectDBX Classes
 90
        0
280
     0
281
     0
  0
CLASS
  1
LAYOUT
  2
AcDbLayout
  3
ObjectDBX Classes
 90
        0
280
     0
281
     0
  0
CLASS
  1
TABLESTYLE
  2
AcDbTableStyle
  3
ObjectDBX Classes
 90
     4095
280
     0
281
     0
  0
CLASS
  1
MLEADERSTYLE
  2
AcDbMLeaderStyle
  3
ACDB_MLEADERSTYLE_CLASS
 90
     4095
280
     0
281
     0
  0
CLASS
  1
DICTIONARYVAR
  2
AcDbDictionaryVar
  3
ObjectDBX Classes
 90
        0
280
     0
281
     0
  0
ENDSEC
  0
SECTION
  2
TABLES
  0
TABLE
  2
VPORT
  5
8
330
0
100
AcDbSymbolTable
 70
     1
  0
VPORT
  5
29
330
8
100
AcDbSymbolTableRecord
100
AcDbViewportTableRecord
  2
*Active
 70
     0
 10
0.0
 20
0.0
 11
1.0
 21
1.0
 12
-7.726360952822773
 22
5.151596305594111
 13
0.0
 23
0.0
 14
10.0
 24
10.0
 15
10.0
 25
10.0
 16
0.0
 26
0.0
 36
1.0
 17
0.0
 27
0.0
 37
0.0
 40
112.451743536588
 41
1.782762691853601
 42
50.0
 43
0.0
 44
0.0
 50
0.0
 51
0.0
 71
    16
 72
  2000
 73
     1
 74
     3
 75
     0
 76
     0
 77
     0
 78
     0
281
     0
 65
     1
110
0.0
120
0.0
130
0.0
111
1.0
121
0.0
131
0.0
112
0.0
122
1.0
132
0.0
 79
     0
146
0.0
  0
ENDTAB
  0
TABLE
  2
LTYPE
  5
5
330
0
100
AcDbSymbolTable
 70
     6
  0
LTYPE
  5
14
330
5
100
AcDbSymbolTableRecord
100
AcDbLinetypeTableRecord
  2
ByBlock
 70
     0
  3

 72
    65
 73
     0
 40
0.0
  0
LTYPE
  5
15
330
5
100
AcDbSymbolTableRecord
100
AcDbLinetypeTableRecord
  2
ByLayer
 70
     0
  3

 72
    65
 73
     0
 40
0.0
  0
LTYPE
  5
16
330
5
100
AcDbSymbolTableRecord
100
AcDbLinetypeTableRecord
  2
Continuous
 70
     0
  3
Solid line
 72
    65
 73
     0
 40
0.0
  0
LTYPE
  5
6A
330
5
100
AcDbSymbolTableRecord
100
AcDbLinetypeTableRecord
  2
HIDDEN
 70
     0
  3
Hidden __ __ __ __ __ __ __ __ __ __ __ __ __ __
 72
    65
 73
     2
 40
1.905
 49
1.27
 74
     0
 49
-0.635
 74
     0
  0
LTYPE
  5
6B
330
5
100
AcDbSymbolTableRecord
100
AcDbLinetypeTableRecord
  2
PHANTOM
 70
     0
  3
Phantom ______  __  __  ______  __  __  ______
 72
    65
 73
     6
 40
12.7
 49
6.35
 74
     0
 49
-1.27
 74
     0
 49
1.27
 74
     0
 49
-1.27
 74
     0
 49
1.27
 74
     0
 49
-1.27
 74
     0
  0
LTYPE
  5
6C
330
5
100
AcDbSymbolTableRecord
100
AcDbLinetypeTableRecord
  2
CENTER
 70
     0
  3
Center ____ _ ____ _ ____ _ ____ _ ____ _ ____
 72
    65
 73
     4
 40
10.16
 49
6.35
 74
     0
 49
-1.27
 74
     0
 49
1.27
 74
     0
 49
-1.27
 74
     0
  0
LTYPE
  5
6D
330
5
100
AcDbSymbolTableRecord
100
AcDbLinetypeTableRecord
  2
CENTERX2
 70
     0
  3
Center (2x) ________  __  ________  __  _____
 72
    65
 73
     4
 40
20.32
 49
12.7
 74
     0
 49
-2.54
 74
     0
 49
2.54
 74
     0
 49
-2.54
 74
     0
  0
LTYPE
  5
6E
330
5
100
AcDbSymbolTableRecord
100
AcDbLinetypeTableRecord
  2
DOT2
 70
     0
  3
Dot (.5x) ........................................
 72
    65
 73
     2
 40
0.635
 49
0.0
 74
     0
 49
-0.635
 74
     0
  0
ENDTAB
  0
TABLE
  2
LAYER
  5
2
102
{ACAD_XDICTIONARY
360
17E
102
}
330
0
100
AcDbSymbolTable
 70
    18
  0
LAYER
  5
10
330
2
100
AcDbSymbolTableRecord
100
AcDbLayerTableRecord
  2
0
 70
     0
 62
     7
  6
Continuous
370
    -3
390
F
  0
LAYER
  5
6F
330
2
100
AcDbSymbolTableRecord
100
AcDbLayerTableRecord
  2
FORMAT
 70
     0
 62
     2
  6
Continuous
370
    -3
390
F
  0
LAYER
  5
70
330
2
100
AcDbSymbolTableRecord
100
AcDbLayerTableRecord
  2
외형선
 70
     0
 62
     4
  6
Continuous
370
    30
390
F
  0
LAYER
  5
71
330
2
100
AcDbSymbolTableRecord
100
AcDbLayerTableRecord
  2
숨은선
 70
     0
 62
     2
  6
HIDDEN
370
    15
390
F
  0
LAYER
  5
72
330
2
100
AcDbSymbolTableRecord
100
AcDbLayerTableRecord
  2
중심선
 70
     0
 62
     1
  6
CENTERX2
370
    -3
390
F
  0
LAYER
  5
73
330
2
100
AcDbSymbolTableRecord
100
AcDbLayerTableRecord
  2
파단선
 70
     0
 62
     4
  6
Continuous
370
    -3
390
F
  0
LAYER
  5
74
330
2
100
AcDbSymbolTableRecord
100
AcDbLayerTableRecord
  2
해칭선
 70
     0
 62
   100
  6
Continuous
370
    -3
390
F
  0
LAYER
  5
75
330
2
100
AcDbSymbolTableRecord
100
AcDbLayerTableRecord
  2
가는실선
 70
     0
 62
     4
  6
Continuous
370
    -3
390
F
  0
LAYER
  5
76
330
2
100
AcDbSymbolTableRecord
100
AcDbLayerTableRecord
  2
치수_보조선
 70
     0
 62
     4
  6
Continuous
370
    -3
390
F
  0
LAYER
  5
77
330
2
100
AcDbSymbolTableRecord
100
AcDbLayerTableRecord
  2
치수문자_일반주서
 70
     0
 62
     7
  6
Continuous
370
    15
390
F
  0
LAYER
  5
78
330
2
100
AcDbSymbolTableRecord
100
AcDbLayerTableRecord
  2
개별주서
 70
     0
 62
   100
  6
Continuous
370
    30
390
F
  0
LAYER
  5
79
330
2
100
AcDbSymbolTableRecord
100
AcDbLayerTableRecord
  2
중간선
 70
     0
 62
     2
  6
Continuous
370
    15
390
F
  0
LAYER
  5
7A
330
2
100
AcDbSymbolTableRecord
100
AcDbLayerTableRecord
  2
윤곽선
 70
     0
 62
     3
  6
Continuous
370
    40
390
F
  0
LAYER
  5
7B
330
2
100
AcDbSymbolTableRecord
100
AcDbLayerTableRecord
  2
중심마크
 70
     0
 62
   100
  6
Continuous
370
    30
390
F
  0
LAYER
  5
7C
330
2
100
AcDbSymbolTableRecord
100
AcDbLayerTableRecord
  2
가상선
 70
     0
 62
     4
  6
PHANTOM
370
    -3
390
F
  0
LAYER
  5
7D
330
2
100
AcDbSymbolTableRecord
100
AcDbLayerTableRecord
  2
특수지정선
 70
     0
 62
     5
  6
CENTERX2
370
    60
390
F
  0
LAYER
  5
7E
330
2
100
AcDbSymbolTableRecord
100
AcDbLayerTableRecord
  2
참조1
 70
     0
 62
    -4
  6
Continuous
370
    -3
390
F
  0
LAYER
  5
14A
330
2
100
AcDbSymbolTableRecord
100
AcDbLayerTableRecord
  2
Defpoints
 70
     0
 62
     7
  6
Continuous
290
     0
370
    -3
390
F
  0
ENDTAB
  0
TABLE
  2
STYLE
  5
3
330
0
100
AcDbSymbolTable
 70
     2
  0
STYLE
  5
11
330
3
100
AcDbSymbolTableRecord
100
AcDbTextStyleTableRecord
  2
Standard
 70
     0
 40
0.0
 41
1.0
 50
0.0
 71
     0
 42
3.5
  3
txt
  4

  0
STYLE
  5
94
330
3
100
AcDbSymbolTableRecord
100
AcDbTextStyleTableRecord
  2
SLDTEXTSTYLE0
 70
     0
 40
0.0
 41
0.75
 50
0.0
 71
     0
 42
3.5
  3
TXT
  4

  0
ENDTAB
  0
TABLE
  2
VIEW
  5
6
330
0
100
AcDbSymbolTable
 70
     0
  0
ENDTAB
  0
TABLE
  2
UCS
  5
7
330
0
100
AcDbSymbolTable
 70
     0
  0
ENDTAB
  0
TABLE
  2
APPID
  5
9
330
0
100
AcDbSymbolTable
 70
     4
  0
APPID
  5
12
330
9
100
AcDbSymbolTableRecord
100
AcDbRegAppTableRecord
  2
ACAD
 70
     0
  0
APPID
  5
151
330
9
100
AcDbSymbolTableRecord
100
AcDbRegAppTableRecord
  2
PE_URL
 70
     0
  0
APPID
  5
1E4
330
9
100
AcDbSymbolTableRecord
100
AcDbRegAppTableRecord
  2
ACAD_DSTYLE_DIMFLIPARROW_SYMBOL
 70
     0
  0
APPID
  5
1E5
330
9
100
AcDbSymbolTableRecord
100
AcDbRegAppTableRecord
  2
ACAD_DSTYLE_DIMFLIPARROW_WHICH_SYMBOL
 70
     0
  0
ENDTAB
  0
TABLE
  2
DIMSTYLE
  5
A
330
0
100
AcDbSymbolTable
 70
     4
100
AcDbDimStyleTable
  0
DIMSTYLE
105
27
330
A
100
AcDbSymbolTableRecord
100
AcDbDimStyleTableRecord
  2
ISO-25
 70
     0
 41
2.5
 42
0.625
 43
3.75
 44
1.25
 73
     0
 74
     0
 77
     1
 78
     8
140
2.5
141
2.5
143
0.03937007874016
147
0.625
171
     3
172
     1
178
     0
271
     2
272
     2
274
     3
278
    44
283
     0
284
     8
340
11
  0
DIMSTYLE
105
CC
330
A
100
AcDbSymbolTableRecord
100
AcDbDimStyleTableRecord
  2
SLDDIMSTYLE0
 70
     0
 41
3.302
 44
0.0
 45
0.000000001
 73
     0
 74
     0
 77
     1
 78
     4
 79
     1
140
3.5
143
0.0393700787401575
147
0.875
148
0.000000001
170
     1
173
     1
178
     0
271
     2
272
     2
276
     2
284
    12
340
94
  0
DIMSTYLE
105
F3
330
A
100
AcDbSymbolTableRecord
100
AcDbDimStyleTableRecord
  2
SLDDIMSTYLE1
 70
     0
 41
3.302
 44
0.0
 45
0.000000001
 73
     0
 74
     0
 77
     1
 78
    12
 79
     3
140
3.5
143
0.0393700787401575
147
0.875
148
0.000000001
170
     1
173
     1
178
     0
271
     2
272
     2
276
     2
284
    12
340
94
  0
DIMSTYLE
105
14F
102
{ACAD_REACTORS
330
170
330
DE
330
F2
330
106
330
CB
102
}
330
A
100
AcDbSymbolTableRecord
100
AcDbDimStyleTableRecord
  2
SLDDIMSTYLE2
 70
     0
 41
3.302
 44
0.0
 45
0.000000001
 73
     0
 74
     0
 77
     1
 78
     4
 79
     1
140
3.5
143
0.0393700787401575
147
0.875
148
0.000000001
170
     1
173
     1
178
     0
271
     2
272
     2
276
     2
284
    12
340
94
  0
ENDTAB
  0
TABLE
  2
BLOCK_RECORD
  5
1
330
0
100
AcDbSymbolTable
 70
    11
  0
BLOCK_RECORD
  5
1F
330
1
100
AcDbSymbolTableRecord
100
AcDbBlockTableRecord
  2
*Model_Space
340
22
  0
BLOCK_RECORD
  5
1B
330
1
100
AcDbSymbolTableRecord
100
AcDbBlockTableRecord
  2
*Paper_Space
340
1E
  0
BLOCK_RECORD
  5
23
330
1
100
AcDbSymbolTableRecord
100
AcDbBlockTableRecord
  2
*Paper_Space0
340
26
  0
BLOCK_RECORD
  5
7F
330
1
100
AcDbSymbolTableRecord
100
AcDbBlockTableRecord
  2
블럭10
340
0
102
{BLKREFS
331
C4
102
}
  0
BLOCK_RECORD
  5
CD
330
1
100
AcDbSymbolTableRecord
100
AcDbBlockTableRecord
  2
_D
340
0
  0
BLOCK_RECORD
  5
DF
330
1
100
AcDbSymbolTableRecord
100
AcDbBlockTableRecord
  2
_D_1
340
0
  0
BLOCK_RECORD
  5
F4
330
1
100
AcDbSymbolTableRecord
100
AcDbBlockTableRecord
  2
_D_2
340
0
  0
BLOCK_RECORD
  5
107
330
1
100
AcDbSymbolTableRecord
100
AcDbBlockTableRecord
  2
_D_3
340
0
  0
BLOCK_RECORD
  5
120
330
1
100
AcDbSymbolTableRecord
100
AcDbBlockTableRecord
  2
SW_DOWELSYMBOL_0
340
0
102
{BLKREFS
331
126
102
}
  0
BLOCK_RECORD
  5
182
330
1
100
AcDbSymbolTableRecord
100
AcDbBlockTableRecord
  2
*D8
340
0
  0
BLOCK_RECORD
  5
191
330
1
100
AcDbSymbolTableRecord
100
AcDbBlockTableRecord
  2
*D9
340
0
  0
ENDTAB
  0
ENDSEC
  0
SECTION
  2
BLOCKS
  0
BLOCK
  5
20
330
1F
100
AcDbEntity
  8
0
100
AcDbBlockBegin
  2
*Model_Space
 70
     0
 10
0.0
 20
0.0
 30
0.0
  3
*Model_Space
  1

  0
ENDBLK
  5
21
330
1F
100
AcDbEntity
  8
0
100
AcDbBlockEnd
  0
BLOCK
  5
1C
330
1B
100
AcDbEntity
 67
     1
  8
0
100
AcDbBlockBegin
  2
*Paper_Space
 70
     0
 10
0.0
 20
0.0
 30
0.0
  3
*Paper_Space
  1

  0
ENDBLK
  5
1D
330
1B
100
AcDbEntity
 67
     1
  8
0
100
AcDbBlockEnd
  0
BLOCK
  5
24
330
23
100
AcDbEntity
  8
0
100
AcDbBlockBegin
  2
*Paper_Space0
 70
     0
 10
0.0
 20
0.0
 30
0.0
  3
*Paper_Space0
  1

  0
ENDBLK
  5
25
330
23
100
AcDbEntity
  8
0
100
AcDbBlockEnd
  0
BLOCK
  5
80
330
7F
100
AcDbEntity
  8
0
100
AcDbBlockBegin
  2
블럭10
 70
     2
 10
0.0
 20
0.0
 30
0.0
  3
블럭10
  1

  0
ELLIPSE
  5
82
330
7F
100
AcDbEntity
  8
중심선
100
AcDbEllipse
 10
20.54032771741204
 20
12.0471743016438
 30
0.0
 11
6.600054785286829
 21
-1.261213355974178E-13
 31
0.0
210
0.0
220
0.0
230
1.0
 40
0.636358354079598
 41
0.9219305317359503
 42
6.513795318482858
  0
ELLIPSE
  5
83
330
7F
100
AcDbEntity
  8
중심선
100
AcDbEllipse
 10
20.54032771746488
 20
12.04717430159265
 30
0.0
 11
3.960054785062283
 21
1.540847449632565E-10
 31
0.0
210
0.0
220
0.0
230
1.0
 40
0.3939339440162632
 41
1.131841032648279
 42
5.62031148352944
  0
LINE
  5
84
330
7F
100
AcDbEntity
  8
중심선
100
AcDbLine
 10
2.268634060543552
 20
16.24717430164393
 30
0.0
 11
5.714909304380834
 21
16.24717430164393
 31
0.0
  0
LINE
  5
85
330
7F
100
AcDbEntity
  8
중심선
100
AcDbLine
 10
5.245725140726316
 20
7.84717430164391
 30
0.0
 11
8.692000384563599
 21
7.84717430164391
 31
0.0
  0
LINE
  5
86
330
7F
100
AcDbEntity
  8
중심선
100
AcDbLine
 10
15.74043728645272
 20
16.24717430164393
 30
0.0
 11
8.692000384563599
 21
7.84717430164391
 31
0.0
  0
LINE
  5
87
330
7F
100
AcDbEntity
  8
중심선
100
AcDbLine
 10
0.1404042013395286
 20
13.71084872107135
 30
0.0
 11
3.58671253028996
 21
13.71088815037384
 31
0.0
  0
LINE
  5
88
330
7F
100
AcDbEntity
  8
중심선
100
AcDbLine
 10
2.750260043222114
 20
10.84717430164391
 30
0.0
 11
6.196535287059397
 21
10.84717430164391
 31
0.0
  0
LINE
  5
89
330
7F
100
AcDbEntity
  8
중심선
100
AcDbLine
 10
12.29416204261559
 20
16.24717430164393
 30
0.0
 11
5.245725140726316
 21
7.84717430164391
 31
0.0
  0
LINE
  5
8A
330
7F
100
AcDbEntity
  8
중심선
100
AcDbLine
 10
10.72767329541681
 20
16.24717430164393
 30
0.0
 11
6.196535287059397
 21
10.84717430164391
 31
0.0
  0
LINE
  5
8B
330
7F
100
AcDbEntity
  8
중심선
100
AcDbLine
 10
7.28139805157953
 20
16.24717430164393
 30
0.0
 11
2.750260043222114
 21
10.84717430164391
 31
0.0
  0
LINE
  5
8C
330
7F
100
AcDbEntity
  8
중심선
100
AcDbLine
 10
5.714909304380834
 20
16.24717430164393
 30
0.0
 11
3.58671253028996
 21
13.71088815037384
 31
0.0
  0
LINE
  5
8D
330
7F
100
AcDbEntity
  8
중심선
100
AcDbLine
 10
2.268634060543552
 20
16.24717430164393
 30
0.0
 11
0.1404042013395286
 21
13.71084872107135
 31
0.0
  0
LINE
  5
8E
330
7F
100
AcDbEntity
  8
중심선
100
AcDbLine
 10
7.28139805157953
 20
16.24717430164393
 30
0.0
 11
10.72767329541681
 21
16.24717430164393
 31
0.0
  0
LINE
  5
8F
330
7F
100
AcDbEntity
  8
중심선
100
AcDbLine
 10
12.29416204261559
 20
16.24717430164393
 30
0.0
 11
15.74043728645272
 21
16.24717430164393
 31
0.0
  0
LINE
  5
90
330
7F
100
AcDbEntity
  8
중심선
100
AcDbLine
 10
19.22036997980202
 20
11.08717430171403
 30
0.0
 11
23.66174974927406
 21
11.08717430171406
 31
0.0
  0
LINE
  5
91
330
7F
100
AcDbEntity
  8
중심선
100
AcDbLine
 10
19.22039502424796
 20
13.00717430171391
 30
0.0
 11
19.22036997980202
 21
11.08717430171403
 31
0.0
  0
LINE
  5
92
330
7F
100
AcDbEntity
  8
중심선
100
AcDbLine
 10
19.22039502424796
 20
13.00717430171391
 30
0.0
 11
26.96566020931264
 21
13.00717430171391
 31
0.0
  0
LINE
  5
93
330
7F
100
AcDbEntity
  8
중심선
100
AcDbLine
 10
22.22332737316547
 20
13.45928029700563
 30
0.0
 11
24.52862924686651
 21
15.39360700705356
 31
0.0
  0
ATTDEF
  5
95
330
7F
100
AcDbEntity
  8
FORMAT
 62
     2
100
AcDbText
 10
4.408487351596664
 20
2.075366912832191
 30
0.0
 40
4.233333333333333
  1
E1030916
 41
0.75
  7
SLDTEXTSTYLE0
 11
4.408487351596664
 21
-0.0412997538344756
 31
0.0
100
AcDbAttributeDefinition
  3

  2
AUTOATTR0
 70
     0
 74
     1
  0
ENDBLK
  5
81
330
7F
100
AcDbEntity
  8
0
100
AcDbBlockEnd
  0
BLOCK
  5
CE
330
CD
100
AcDbEntity
  8
0
100
AcDbBlockBegin
  2
_D
 70
     0
 10
0.0
 20
0.0
 30
0.0
  3
_D
  1

  0
LINE
  5
D0
330
CD
100
AcDbEntity
  8
치수문자_일반주서
 62
     0
370
    -2
100
AcDbLine
 10
-68.70750000000004
 20
25.39999999999997
 30
0.0
 11
-98.25000000000006
 21
25.39999999999986
 31
0.0
  0
LINE
  5
D1
330
CD
100
AcDbEntity
  8
치수문자_일반주서
 62
     0
370
    -2
100
AcDbLine
 10
-82.31250000000003
 20
-25.40000000000002
 30
0.0
 11
-98.24999999999989
 21
-25.40000000000008
 31
0.0
  0
LINE
  5
D2
330
CD
100
AcDbEntity
  8
치수문자_일반주서
 62
     0
370
    -2
100
AcDbLine
 10
-98.25000000000006
 20
25.39999999999986
 30
0.0
 11
-98.25000000000016
 21
55.14999999999987
 31
0.0
  0
LINE
  5
D3
330
CD
100
AcDbEntity
  8
치수문자_일반주서
 62
     0
370
    -2
100
AcDbLine
 10
-98.25000000000006
 20
25.39999999999986
 30
0.0
 11
-98.24999999999989
 21
-25.40000000000008
 31
0.0
  0
LINE
  5
D4
330
CD
100
AcDbEntity
  8
치수문자_일반주서
 62
     0
370
    -2
100
AcDbLine
 10
-98.25000000000007
 20
29.39999999999986
 30
0.0
 11
-98.25000000000009
 21
33.39999999999986
 31
0.0
  0
LINE
  5
D5
330
CD
100
AcDbEntity
  8
치수문자_일반주서
 62
     0
370
    -2
100
AcDbLine
 10
-98.24999999999987
 20
-29.40000000000008
 30
0.0
 11
-98.24999999999986
 21
-33.40000000000008
 31
0.0
  0
SOLID
  5
D6
330
CD
100
AcDbEntity
  8
치수문자_일반주서
 62
     0
100
AcDbTrace
 10
-98.91666666666674
 20
29.39999999999985
 30
0.0
 11
-97.5833333333334
 21
29.39999999999986
 31
0.0
 12
-98.25000000000006
 22
25.39999999999986
 32
0.0
 13
-98.25000000000006
 23
25.39999999999986
 33
0.0
  0
SOLID
  5
D7
330
CD
100
AcDbEntity
  8
치수문자_일반주서
 62
     0
100
AcDbTrace
 10
-97.5833333333332
 20
-29.40000000000008
 30
0.0
 11
-98.91666666666654
 21
-29.40000000000009
 31
0.0
 12
-98.24999999999989
 22
-25.40000000000008
 32
0.0
 13
-98.24999999999989
 23
-25.40000000000008
 33
0.0
  0
MTEXT
  5
D8
330
CD
100
AcDbEntity
  8
치수문자_일반주서
 62
     0
100
AcDbMText
 10
-103.1250000000001
 20
42.27499999999986
 30
0.0
 40
4.0
 41
0.0
 71
     2
 72
     1
  1
\A1;%%c50.80 [2]
  7
SLDTEXTSTYLE0
 11
-3.356894814614650E-15
 21
1.0
 31
0.0
 73
     1
 44
1.0
  0
POINT
  5
1D7
330
CD
100
AcDbEntity
  8
Defpoints
 62
     0
100
AcDbPoint
 10
-68.64500000000004
 20
25.39999999999997
 30
0.0
  0
POINT
  5
1D8
330
CD
100
AcDbEntity
  8
Defpoints
 62
     0
100
AcDbPoint
 10
-82.25000000000003
 20
-25.40000000000002
 30
0.0
  0
POINT
  5
1D9
330
CD
100
AcDbEntity
  8
Defpoints
 62
     0
100
AcDbPoint
 10
-98.24999999999989
 20
-25.40000000000008
 30
0.0
  0
ENDBLK
  5
CF
330
CD
100
AcDbEntity
  8
0
100
AcDbBlockEnd
  0
BLOCK
  5
E0
330
DF
100
AcDbEntity
  8
0
100
AcDbBlockBegin
  2
_D_1
 70
     0
 10
0.0
 20
0.0
 30
0.0
  3
_D_1
  1

  0
LINE
  5
E2
330
DF
100
AcDbEntity
  8
치수문자_일반주서
 62
     0
370
    -2
100
AcDbLine
 10
62.8
 20
25.44103230683292
 30
0.0
 11
62.8
 21
40.39999999999997
 31
0.0
  0
LINE
  5
E3
330
DF
100
AcDbEntity
  8
치수문자_일반주서
 62
     0
370
    -2
100
AcDbLine
 10
12.00000000000001
 20
18.64852999787494
 30
0.0
 11
12.00000000000001
 21
40.39999999999997
 31
0.0
  0
LINE
  5
E4
330
DF
100
AcDbEntity
  8
치수문자_일반주서
 62
     0
370
    -2
100
AcDbLine
 10
58.8
 20
40.39999999999997
 30
0.0
 11
16.00000000000001
 21
40.39999999999997
 31
0.0
  0
SOLID
  5
E5
330
DF
100
AcDbEntity
  8
치수문자_일반주서
 62
     0
100
AcDbTrace
 10
58.8
 20
39.73333333333331
 30
0.0
 11
58.8
 21
41.06666666666663
 31
0.0
 12
62.8
 22
40.39999999999997
 32
0.0
 13
62.8
 23
40.39999999999997
 33
0.0
  0
SOLID
  5
E6
330
DF
100
AcDbEntity
  8
치수문자_일반주서
 62
     0
100
AcDbTrace
 10
16.00000000000001
 20
41.06666666666663
 30
0.0
 11
16.00000000000001
 21
39.73333333333331
 31
0.0
 12
12.00000000000001
 22
40.39999999999997
 32
0.0
 13
12.00000000000001
 23
40.39999999999997
 33
0.0
  0
MTEXT
  5
E7
330
DF
100
AcDbEntity
  8
치수문자_일반주서
 62
     0
100
AcDbMText
 10
37.40000000000001
 20
45.27499999999997
 30
0.0
 40
4.0
 41
0.0
 71
     2
 72
     1
  1
\A1;50.80 [2]
  7
SLDTEXTSTYLE0
 73
     1
 44
1.0
  0
POINT
  5
E8
330
DF
100
AcDbEntity
  8
Defpoints
 62
     0
100
AcDbPoint
 10
62.8
 20
25.37853230683292
 30
0.0
  0
POINT
  5
E9
330
DF
100
AcDbEntity
  8
Defpoints
 62
     0
100
AcDbPoint
 10
12.00000000000001
 20
18.58602999787494
 30
0.0
  0
POINT
  5
EA
330
DF
100
AcDbEntity
  8
Defpoints
 62
     0
100
AcDbPoint
 10
12.00000000000001
 20
40.39999999999997
 30
0.0
  0
ENDBLK
  5
E1
330
DF
100
AcDbEntity
  8
0
100
AcDbBlockEnd
  0
BLOCK
  5
F5
330
F4
100
AcDbEntity
  8
0
100
AcDbBlockBegin
  2
_D_2
 70
     0
 10
0.0
 20
0.0
 30
0.0
  3
_D_2
  1

  0
LINE
  5
F7
330
F4
100
AcDbEntity
  8
치수문자_일반주서
 62
     0
370
    -2
100
AcDbLine
 10
62.79999999999998
 20
25.44103230683292
 30
0.0
 11
62.79999999999998
 21
55.39999999999997
 31
0.0
  0
LINE
  5
F8
330
F4
100
AcDbEntity
  8
치수문자_일반주서
 62
     0
370
    -2
100
AcDbLine
 10
-83.25000000000003
 20
23.55749999999998
 30
0.0
 11
-83.25000000000003
 21
55.39999999999997
 31
0.0
  0
LINE
  5
F9
330
F4
100
AcDbEntity
  8
치수문자_일반주서
 62
     0
370
    -2
100
AcDbLine
 10
58.79999999999998
 20
55.39999999999997
 30
0.0
 11
-79.25000000000003
 21
55.39999999999997
 31
0.0
  0
SOLID
  5
FA
330
F4
100
AcDbEntity
  8
치수문자_일반주서
 62
     0
100
AcDbTrace
 10
58.79999999999998
 20
54.73333333333331
 30
0.0
 11
58.79999999999998
 21
56.06666666666663
 31
0.0
 12
62.79999999999998
 22
55.39999999999997
 32
0.0
 13
62.79999999999998
 23
55.39999999999997
 33
0.0
  0
SOLID
  5
FB
330
F4
100
AcDbEntity
  8
치수문자_일반주서
 62
     0
100
AcDbTrace
 10
-79.25000000000003
 20
56.06666666666663
 30
0.0
 11
-79.25000000000003
 21
54.73333333333331
 31
0.0
 12
-83.25000000000003
 22
55.39999999999997
 32
0.0
 13
-83.25000000000003
 23
55.39999999999997
 33
0.0
  0
MTEXT
  5
FC
330
F4
100
AcDbEntity
  8
치수문자_일반주서
 62
     0
100
AcDbMText
 10
-10.22500000000015
 20
60.27499999999997
 30
0.0
 40
4.0
 41
0.0
 71
     2
 72
     1
  1
\A1;146.05 [5 3/4]
  7
SLDTEXTSTYLE0
 73
     1
 44
1.0
  0
POINT
  5
FD
330
F4
100
AcDbEntity
  8
Defpoints
 62
     0
100
AcDbPoint
 10
62.79999999999998
 20
25.37853230683292
 30
0.0
  0
POINT
  5
FE
330
F4
100
AcDbEntity
  8
Defpoints
 62
     0
100
AcDbPoint
 10
-83.25000000000003
 20
23.49499999999998
 30
0.0
  0
POINT
  5
FF
330
F4
100
AcDbEntity
  8
Defpoints
 62
     0
100
AcDbPoint
 10
-83.25000000000003
 20
55.39999999999997
 30
0.0
  0
ENDBLK
  5
F6
330
F4
100
AcDbEntity
  8
0
100
AcDbBlockEnd
  0
BLOCK
  5
108
330
107
100
AcDbEntity
  8
0
100
AcDbBlockBegin
  2
_D_3
 70
     0
 10
0.0
 20
0.0
 30
0.0
  3
_D_3
  1

  0
LINE
  5
10A
330
107
100
AcDbEntity
  8
치수문자_일반주서
 62
     0
370
    -2
100
AcDbLine
 10
62.8625
 20
-25.37853230683295
 30
0.0
 11
77.80000000000014
 21
-25.37853230683289
 31
0.0
  0
LINE
  5
10B
330
107
100
AcDbEntity
  8
치수문자_일반주서
 62
     0
370
    -2
100
AcDbLine
 10
62.8625
 20
25.37853230683292
 30
0.0
 11
77.79999999999997
 21
25.37853230683298
 31
0.0
  0
LINE
  5
10C
330
107
100
AcDbEntity
  8
치수문자_일반주서
 62
     0
370
    -2
100
AcDbLine
 10
77.79999999999997
 20
25.37853230683298
 30
0.0
 11
77.79999999999987
 21
55.62853230683298
 31
0.0
  0
LINE
  5
10D
330
107
100
AcDbEntity
  8
치수문자_일반주서
 62
     0
370
    -2
100
AcDbLine
 10
77.80000000000014
 20
-25.37853230683289
 30
0.0
 11
77.79999999999997
 21
25.37853230683298
 31
0.0
  0
LINE
  5
10E
330
107
100
AcDbEntity
  8
치수문자_일반주서
 62
     0
370
    -2
100
AcDbLine
 10
77.80000000000015
 20
-29.37853230683289
 30
0.0
 11
77.80000000000017
 21
-33.37853230683289
 31
0.0
  0
LINE
  5
10F
330
107
100
AcDbEntity
  8
치수문자_일반주서
 62
     0
370
    -2
100
AcDbLine
 10
77.79999999999995
 20
29.37853230683298
 30
0.0
 11
77.79999999999994
 21
33.37853230683298
 31
0.0
  0
SOLID
  5
110
330
107
100
AcDbEntity
  8
치수문자_일반주서
 62
     0
100
AcDbTrace
 10
78.46666666666682
 20
-29.37853230683289
 30
0.0
 11
77.13333333333348
 21
-29.3785323068329
 31
0.0
 12
77.80000000000014
 22
-25.37853230683289
 32
0.0
 13
77.80000000000014
 23
-25.37853230683289
 33
0.0
  0
SOLID
  5
111
330
107
100
AcDbEntity
  8
치수문자_일반주서
 62
     0
100
AcDbTrace
 10
77.13333333333328
 20
29.37853230683297
 30
0.0
 11
78.46666666666663
 21
29.37853230683298
 31
0.0
 12
77.79999999999997
 22
25.37853230683298
 32
0.0
 13
77.79999999999997
 23
25.37853230683298
 33
0.0
  0
MTEXT
  5
112
330
107
100
AcDbEntity
  8
치수문자_일반주서
 62
     0
100
AcDbMText
 10
72.92499999999991
 20
42.50353230683297
 30
0.0
 40
4.0
 41
0.0
 71
     2
 72
     1
  1
\A1;%%c50.76 [2]
  7
SLDTEXTSTYLE0
 11
-3.359734410971244E-15
 21
1.0
 31
0.0
 73
     1
 44
1.0
  0
POINT
  5
113
330
107
100
AcDbEntity
  8
Defpoints
 62
     0
100
AcDbPoint
 10
62.8
 20
-25.37853230683295
 30
0.0
  0
POINT
  5
1DA
330
107
100
AcDbEntity
  8
Defpoints
 62
     0
100
AcDbPoint
 10
62.8
 20
25.37853230683292
 30
0.0
  0
POINT
  5
1DB
330
107
100
AcDbEntity
  8
Defpoints
 62
     0
100
AcDbPoint
 10
77.79999999999997
 20
25.37853230683297
 30
0.0
  0
ENDBLK
  5
109
330
107
100
AcDbEntity
  8
0
100
AcDbBlockEnd
  0
BLOCK
  5
121
330
120
100
AcDbEntity
  8
0
100
AcDbBlockBegin
  2
SW_DOWELSYMBOL_0
 70
     0
 10
0.0
 20
0.0
 30
0.0
  3
SW_DOWELSYMBOL_0
  1

  0
CIRCLE
  5
123
330
120
100
AcDbEntity
  8
해칭선
 62
     0
100
AcDbCircle
 10
0.0
 20
0.0
 30
0.0
 40
2.999999999999994
  0
HATCH
  5
124
330
120
100
AcDbEntity
  8
0
  6
Continuous
 62
     0
370
     0
100
AcDbHatch
 10
0.0
 20
0.0
 30
0.0
210
0.0
220
0.0
230
1.0
  2
SOLID
 70
     1
 71
     0
 91
        1
 92
        0
 93
        3
 72
     2
 10
0.0
 20
0.0
 40
2.999999999999994
 50
0.0
 51
90.0
 73
     1
 72
     1
 10
0.0
 20
2.999999999999994
 11
0.0
 21
0.0
 72
     1
 10
0.0
 20
0.0
 11
2.999999999999994
 21
0.0
 97
        0
 75
     0
 76
     1
 98
        1
 10
0.0
 20
0.0
  0
HATCH
  5
125
330
120
100
AcDbEntity
  8
0
  6
Continuous
 62
     0
370
     0
100
AcDbHatch
 10
0.0
 20
0.0
 30
0.0
210
0.0
220
0.0
230
1.0
  2
SOLID
 70
     1
 71
     0
 91
        1
 92
        0
 93
        3
 72
     2
 10
0.0
 20
0.0
 40
2.999999999999994
 50
180.0
 51
270.0000000000008
 73
     1
 72
     1
 10
0.0
 20
-2.999999999999994
 11
0.0
 21
0.0
 72
     1
 10
0.0
 20
0.0
 11
-2.999999999999994
 21
0.0
 97
        0
 75
     0
 76
     1
 98
        1
 10
0.0
 20
0.0
  0
ENDBLK
  5
122
330
120
100
AcDbEntity
  8
0
100
AcDbBlockEnd
  0
BLOCK
  5
183
330
182
100
AcDbEntity
  8
0
100
AcDbBlockBegin
  2
*D8
 70
     1
 10
0.0
 20
0.0
 30
0.0
  3
*D8
  1

  0
LINE
  5
185
330
182
100
AcDbEntity
  8
치수문자_일반주서
 62
     0
370
    -2
100
AcDbLine
 10
41.275
 20
15.20970817523237
 30
0.0
 11
41.275
 21
19.05215067593062
 31
0.0
  0
LINE
  5
186
330
182
100
AcDbEntity
  8
치수문자_일반주서
 62
     0
370
    -2
100
AcDbLine
 10
0.0
 20
0.0625
 30
0.0
 11
0.0
 21
19.05215067593062
 31
0.0
  0
LINE
  5
187
330
182
100
AcDbEntity
  8
치수문자_일반주서
 62
     0
370
    -2
100
AcDbLine
 10
37.275
 20
19.05215067593062
 30
0.0
 11
4.0
 21
19.05215067593062
 31
0.0
  0
SOLID
  5
188
330
182
100
AcDbEntity
  8
치수문자_일반주서
 62
     0
100
AcDbTrace
 10
37.275
 20
18.38548400926395
 30
0.0
 11
37.275
 21
19.71881734259729
 31
0.0
 12
41.275
 22
19.05215067593062
 32
0.0
 13
41.275
 23
19.05215067593062
 33
0.0
  0
SOLID
  5
189
330
182
100
AcDbEntity
  8
치수문자_일반주서
 62
     0
100
AcDbTrace
 10
4.0
 20
19.71881734259729
 30
0.0
 11
4.0
 21
18.38548400926395
 31
0.0
 12
0.0
 22
19.05215067593062
 32
0.0
 13
0.0
 23
19.05215067593062
 33
0.0
  0
MTEXT
  5
18A
330
182
100
AcDbEntity
  8
치수문자_일반주서
 62
     0
100
AcDbMText
 10
20.6375
 20
23.92715067593062
 30
0.0
 40
4.0
 41
0.0
 71
     2
 72
     1
  1
\A1;41.28 [1 5/8]
  7
SLDTEXTSTYLE0
 73
     1
 44
1.0
  0
POINT
  5
18B
330
182
100
AcDbEntity
  8
Defpoints
 62
     0
100
AcDbPoint
 10
41.275
 20
15.14720817523237
 30
0.0
  0
POINT
  5
18C
330
182
100
AcDbEntity
  8
Defpoints
 62
     0
100
AcDbPoint
 10
0.0
 20
0.0
 30
0.0
  0
POINT
  5
18D
330
182
100
AcDbEntity
  8
Defpoints
 62
     0
100
AcDbPoint
 10
0.0
 20
19.05215067593062
 30
0.0
  0
ENDBLK
  5
184
330
182
100
AcDbEntity
  8
0
100
AcDbBlockEnd
  0
BLOCK
  5
192
330
191
100
AcDbEntity
  8
0
100
AcDbBlockBegin
  2
*D9
 70
     1
 10
0.0
 20
0.0
 30
0.0
  3
*D9
  1

  0
LINE
  5
194
330
191
100
AcDbEntity
  8
치수문자_일반주서
 62
     0
370
    -2
100
AcDbLine
 10
198.2503931903431
 20
-11.11365325942192
 30
0.0
 11
198.2503931903431
 21
-7.271210758723669
 31
0.0
  0
LINE
  5
195
330
191
100
AcDbEntity
  8
치수문자_일반주서
 62
     0
370
    -2
100
AcDbLine
 10
156.9753931903431
 20
-26.26086143465429
 30
0.0
 11
156.9753931903431
 21
-7.271210758723669
 31
0.0
  0
LINE
  5
196
330
191
100
AcDbEntity
  8
치수문자_일반주서
 62
     0
370
    -2
100
AcDbLine
 10
194.2503931903431
 20
-7.271210758723669
 30
0.0
 11
160.9753931903431
 21
-7.271210758723669
 31
0.0
  0
SOLID
  5
197
330
191
100
AcDbEntity
  8
치수문자_일반주서
 62
     0
100
AcDbTrace
 10
194.2503931903431
 20
-7.937877425390336
 30
0.0
 11
194.2503931903431
 21
-6.604544092057002
 31
0.0
 12
198.2503931903431
 22
-7.271210758723669
 32
0.0
 13
198.2503931903431
 23
-7.271210758723669
 33
0.0
  0
SOLID
  5
198
330
191
100
AcDbEntity
  8
치수문자_일반주서
 62
     0
100
AcDbTrace
 10
160.9753931903431
 20
-6.604544092057002
 30
0.0
 11
160.9753931903431
 21
-7.937877425390336
 31
0.0
 12
156.9753931903431
 22
-7.271210758723669
 32
0.0
 13
156.9753931903431
 23
-7.271210758723669
 33
0.0
  0
MTEXT
  5
199
330
191
100
AcDbEntity
  8
치수문자_일반주서
 62
     0
100
AcDbMText
 10
177.6128931903431
 20
-2.396210758723669
 30
0.0
 40
4.0
 41
0.0
 71
     2
 72
     1
  1
\A1;41.28 [1 5/8]
  7
SLDTEXTSTYLE0
 73
     1
 44
1.0
  0
POINT
  5
19A
330
191
100
AcDbEntity
  8
Defpoints
 62
     0
100
AcDbPoint
 10
198.2503931903431
 20
-11.17615325942192
 30
0.0
  0
POINT
  5
19B
330
191
100
AcDbEntity
  8
Defpoints
 62
     0
100
AcDbPoint
 10
156.9753931903431
 20
-26.32336143465429
 30
0.0
  0
POINT
  5
19C
330
191
100
AcDbEntity
  8
Defpoints
 62
     0
100
AcDbPoint
 10
156.9753931903431
 20
-7.271210758723669
 30
0.0
  0
ENDBLK
  5
193
330
191
100
AcDbEntity
  8
0
100
AcDbBlockEnd
  0
ENDSEC
  0
SECTION
  2
ENTITIES
  0
LINE
  5
96
330
1F
100
AcDbEntity
  8
외형선
  6
Continuous
370
    15
100
AcDbLine
 10
8.950078388697676
 20
25.39999999999998
 30
0.0
 11
-45.81992500000001
 21
25.39999999999998
 31
0.0
  0
LINE
  5
97
330
1F
100
AcDbEntity
  8
외형선
  6
Continuous
370
    15
100
AcDbLine
 10
-82.25000000000003
 20
-25.40000000000002
 30
0.0
 11
8.950078388697676
 21
-25.40000000000002
 31
0.0
  0
LINE
  5
99
330
1F
100
AcDbEntity
  8
외형선
  6
Continuous
370
    15
100
AcDbLine
 10
-83.25000000000003
 20
-24.40000000000002
 30
0.0
 11
-82.25000000000003
 21
-25.40000000000002
 31
0.0
  0
LINE
  5
9A
330
1F
100
AcDbEntity
  8
외형선
  6
Continuous
370
    15
100
AcDbLine
 10
9.348086168819984
 20
-19.04731721774181
 30
0.0
 11
12.00000000000001
 21
-18.55535385898278
 31
0.0
  0
LINE
  5
9B
330
1F
100
AcDbEntity
  8
외형선
  6
Continuous
370
    15
100
AcDbLine
 10
12.0
 20
18.58856574300732
 30
0.0
 11
11.95233771412806
 21
18.59435100190333
 31
0.0
  0
SPLINE
  5
9C
330
1F
100
AcDbEntity
  8
0
  6
Continuous
 62
     1
370
    15
100
AcDbSpline
210
0.0
220
0.0
230
1.0
 70
     8
 71
     3
 72
    45
 73
    41
 74
     0
 42
0.000000001
 43
0.00000001
 40
0.0
 40
0.0
 40
0.0
 40
0.0
 40
0.0372705906902638
 40
0.0682986252287312
 40
0.0931440364066718
 40
0.1117939862235741
 40
0.1290500219994286
 40
0.1446003413567642
 40
0.1612796711765085
 40
0.1793623171608992
 40
0.2001733130524124
 40
0.2240504246310158
 40
0.2655518692992746
 40
0.3074117532606827
 40
0.3490545056853459
 40
0.3805389484466058
 40
0.4087408316131208
 40
0.4328844721704165
 40
0.4542326941202282
 40
0.4751376807215055
 40
0.4948735093726929
 40
0.5143581385671998
 40
0.5371563849648019
 40
0.5647203518468548
 40
0.5945313552355594
 40
0.6222323893126284
 40
0.6479757689943089
 40
0.6814144198788186
 40
0.7151306068714193
 40
0.747245077650442
 40
0.7746709333321345
 40
0.799996415602822
 40
0.8230361314531022
 40
0.8440267629284558
 40
0.8568722000910631
 40
0.871480383040748
 40
0.8929335999284645
 40
0.9214691247264547
 40
0.9571632267291085
 40
0.9999999999999999
 40
0.9999999999999999
 40
0.9999999999999999
 40
0.9999999999999999
 10
53.36111259209993
 20
17.37239474922765
 30
0.0
 10
52.85320045370564
 20
17.32986768810046
 30
0.0
 10
51.92244781075441
 20
17.25193654302839
 30
0.0
 10
50.64756371859367
 20
17.15740325788677
 30
0.0
 10
49.61910232163416
 20
17.08749663058146
 30
0.0
 10
48.77279850767455
 20
17.03460043565058
 30
0.0
 10
48.03627313420893
 20
16.9922745841719
 30
0.0
 10
47.33242161525467
 20
16.95388463021066
 30
0.0
 10
46.62736862810425
 20
16.91821161933417
 30
0.0
 10
45.86747791682092
 20
16.88305111176568
 30
0.0
 10
45.0029161982612
 20
16.84682951686538
 30
0.0
 10
43.81090910706983
 20
16.80329114497565
 30
0.0
 10
42.32475837361559
 20
16.76062760311756
 30
0.0
 10
40.58403024219783
 20
16.72801254578503
 30
0.0
 10
39.04961390174377
 20
16.71527937358269
 30
0.0
 10
37.82027567255815
 20
16.70700481301835
 30
0.0
 10
36.74143710523171
 20
16.70474686262322
 30
0.0
 10
35.71181356644908
 20
16.71624532178464
 30
0.0
 10
34.74931019312361
 20
16.74196691775967
 30
0.0
 10
33.88916318355484
 20
16.7686693986757
 30
0.0
 10
33.01736149786049
 20
16.79291636814518
 30
0.0
 10
32.15058469855998
 20
16.82119668918265
 30
0.0
 10
31.18451602408511
 20
16.85747928053707
 30
0.0
 10
30.07185091946672
 20
16.90594998626955
 30
0.0
 10
28.89244410233483
 20
16.96535186816039
 30
0.0
 10
27.7367417308498
 20
17.03158881368052
 30
0.0
 10
26.53460419827543
 20
17.10770276353528
 30
0.0
 10
25.20641770593155
 20
17.20166312416652
 30
0.0
 10
23.78611241827009
 20
17.30578730459784
 30
0.0
 10
22.46819836175576
 20
17.42019512176698
 30
0.0
 10
21.43071985790084
 20
17.5223973702955
 30
0.0
 10
20.44011579096439
 20
17.61935083710175
 30
0.0
 10
19.47946202273843
 20
17.71829104231613
 30
0.0
 10
18.69302277394123
 20
17.80313923401907
 30
0.0
 10
18.0321588201979
 20
17.87678644606136
 30
0.0
 10
17.35715795326677
 20
17.95401935311592
 30
0.0
 10
16.44625361001178
 20
18.06217234604387
 30
0.0
 10
15.23607284713024
 20
18.21195942439966
 30
0.0
 10
13.71957122956976
 20
18.4076953982123
 30
0.0
 10
12.60692353990247
 20
18.56064458886959
 30
0.0
 10
12.0
 20
18.64407482926016
 30
0.0
1001
PE_URL
1000

  0
SPLINE
  5
9D
330
1F
100
AcDbEntity
  8
0
  6
Continuous
 62
     1
370
    15
100
AcDbSpline
210
0.0
220
0.0
230
1.0
 70
     8
 71
     3
 72
    21
 73
    17
 74
     0
 42
0.000000001
 43
0.00000001
 40
0.0
 40
0.0
 40
0.0
 40
0.0
 40
0.0938782119904433
 40
0.1718595628427704
 40
0.2342793271406464
 40
0.2857044291951079
 40
0.341036793782967
 40
0.4017841238267554
 40
0.4690872919006893
 40
0.5525854647007039
 40
0.6353911446849341
 40
0.7062285434356252
 40
0.7656060896876403
 40
0.8194685458907061
 40
0.9294842164714658
 40
1.0
 40
1.0
 40
1.0
 40
1.0
 10
12.0
 20
-18.64407482926019
 30
0.0
 10
12.50567817727644
 20
-18.57505496115413
 30
0.0
 10
13.43140554940305
 20
-18.44870269997792
 30
0.0
 10
14.69442967912835
 20
-18.28232927012237
 30
0.0
 10
15.72621199276079
 20
-18.15099372558659
 30
0.0
 10
16.61039640436127
 20
-18.04261843005367
 30
0.0
 10
17.49035015701858
 20
-17.93839849337196
 30
0.0
 10
18.45473648907474
 20
-17.82892566347104
 30
0.0
 10
19.56896182342563
 20
-17.70836763382047
 30
0.0
 10
20.80053104835928
 20
-17.58287600344645
 30
0.0
 10
22.05069938458654
 20
-17.46416397949033
 30
0.0
 10
23.17279119726962
 20
-17.36488959863416
 30
0.0
 10
24.14217189393131
 20
-17.28464862544136
 30
0.0
 10
25.31798905930097
 20
-17.19347600611463
 30
0.0
 10
26.55281359112518
 20
-17.10460661007517
 30
0.0
 10
27.50484440525238
 20
-17.04844716429437
 30
0.0
 10
27.87670868304658
 20
-17.02651122331776
 30
0.0
1001
PE_URL
1000

  0
SPLINE
  5
9E
330
1F
100
AcDbEntity
  8
외형선
  6
Continuous
370
    15
100
AcDbSpline
210
0.0
220
0.0
230
1.0
 70
     8
 71
     3
 72
     8
 73
     4
 74
     0
 42
0.000000001
 43
0.00000001
 40
0.0
 40
0.0
 40
0.0
 40
0.0
 40
1.0
 40
1.0
 40
1.0
 40
1.0
 10
11.99999999999999
 20
-2.413882525700719
 30
0.0
 10
10.98297835410383
 20
-1.829263193627135
 30
0.0
 10
9.968240427615141
 20
-1.243146887593641
 30
0.0
 10
8.950160491986377
 20
-0.6558617983960716
 30
0.0
  0
LINE
  5
9F
330
1F
100
AcDbEntity
  8
외형선
  6
Continuous
370
    15
100
AcDbLine
 10
11.99999999999999
 20
-2.413882525700718
 30
0.0
 11
11.99999999999999
 21
-9.303237796938475
 31
0.0
  0
SPLINE
  5
A0
330
1F
100
AcDbEntity
  8
외형선
  6
Continuous
370
    15
100
AcDbSpline
210
0.0
220
0.0
230
1.0
 70
     8
 71
     3
 72
     8
 73
     4
 74
     0
 42
0.000000001
 43
0.00000001
 40
0.0
 40
0.0
 40
0.0
 40
0.0
 40
1.0
 40
1.0
 40
1.0
 40
1.0
 10
12.0
 20
-9.303237796938475
 30
0.0
 10
10.98295101479032
 20
-8.756756264582105
 30
0.0
 10
9.968185747666372
 20
-8.203228956292548
 30
0.0
 10
8.950078388697582
 20
-7.64296004049181
 30
0.0
  0
LINE
  5
A1
330
1F
100
AcDbEntity
  8
외형선
  6
Continuous
370
    15
100
AcDbLine
 10
8.950078388697676
 20
-25.40000000000002
 30
0.0
 11
8.950078388697582
 21
-7.642947225322597
 31
0.0
  0
LINE
  5
A2
330
1F
100
AcDbEntity
  8
외형선
  6
Continuous
370
    15
100
AcDbLine
 10
-82.25000000000003
 20
23.49499999999998
 30
0.0
 11
-82.25000000000003
 21
-25.40000000000004
 31
0.0
  0
LINE
  5
A3
330
1F
100
AcDbEntity
  8
외형선
  6
Continuous
370
    15
100
AcDbLine
 10
8.950078388697616
 20
-0.6558448719648673
 30
0.0
 11
8.950078388697676
 21
25.39999999999998
 31
0.0
  0
LINE
  5
A4
330
1F
100
AcDbEntity
  8
외형선
  6
Continuous
370
    15
100
AcDbLine
 10
-83.25000000000003
 20
23.49499999999998
 30
0.0
 11
-83.25000000000003
 21
-24.40000000000002
 31
0.0
  0
SPLINE
  5
A5
330
1F
100
AcDbEntity
  8
외형선
  6
Continuous
370
    15
100
AcDbSpline
210
0.0
220
0.0
230
1.0
 70
    24
 71
     3
 72
     8
 73
     4
 74
     0
 42
0.000000001
 43
0.00000001
 40
0.0
 40
0.0
 40
0.0
 40
0.0
 40
1.0
 40
1.0
 40
1.0
 40
1.0
 10
12.0
 20
-0.7526883584795738
 30
0.0
 10
12.0
 20
-1.204777485562897
 30
0.0
 10
12.0
 20
-1.761616704011291
 30
0.0
 10
12.0
 20
-2.413882525692599
 30
0.0
  0
SPLINE
  5
A6
330
1F
100
AcDbEntity
  8
외형선
  6
Continuous
370
    15
100
AcDbSpline
210
0.0
220
0.0
230
1.0
 70
     8
 71
     3
 72
    21
 73
    17
 74
     0
 42
0.000000001
 43
0.00000001
 40
0.0
 40
0.0
 40
0.0
 40
0.0
 40
0.0148947349382487
 40
0.0399303793350746
 40
0.075813544107498
 40
0.1227622208224158
 40
0.1808683151243207
 40
0.2501774540679381
 40
0.3706972193419507
 40
0.5001256268239173
 40
0.6295560762047927
 40
0.7500913012927654
 40
0.849519524310338
 40
0.9239798061769461
 40
0.9737686883652322
 40
1.0
 40
1.0
 40
1.0
 40
1.0
 10
9.4003028731013
 20
0.523647932193626
 30
0.0
 10
9.397265305016427
 20
0.52487647393478
 30
0.0
 10
9.389122075453244
 20
0.5281699959717033
 30
0.0
 10
9.375468191263556
 20
0.5318639045488952
 30
0.0
 10
9.356794577974084
 20
0.5367045860628357
 30
0.0
 10
9.333353248171074
 20
0.5420420001300316
 30
0.0
 10
9.305015303905467
 20
0.5481281300227827
 30
0.0
 10
9.265433513887853
 20
0.5561629796876325
 30
0.0
 10
9.215434446934394
 20
0.5657137390991297
 30
0.0
 10
9.15742655148637
 20
0.575917178902807
 30
0.0
 10
9.100523881161786
 20
0.5852167459536326
 30
0.0
 10
9.049632760968006
 20
0.5926049840172507
 30
0.0
 10
9.007465471886402
 20
0.5981865645837569
 30
0.0
 10
8.977736200258738
 20
0.6008375919908834
 30
0.0
 10
8.957208576720483
 20
0.6027016928431521
 30
0.0
 10
8.951968587683949
 20
0.6004045762897805
 30
0.0
 10
8.950160491986374
 20
0.5996119397922584
 30
0.0
  0
SPLINE
  5
A7
330
1F
100
AcDbEntity
  8
외형선
  6
Continuous
370
    15
100
AcDbSpline
210
0.0
220
0.0
230
1.0
 70
     8
 71
     3
 72
     8
 73
     4
 74
     0
 42
0.000000001
 43
0.00000001
 40
0.0
 40
0.0
 40
0.0
 40
0.0
 40
1.0
 40
1.0
 40
1.0
 40
1.0
 10
11.99999999999999
 20
-0.7526883584795699
 30
0.0
 10
11.13289619935
 20
-0.3273456381148274
 30
0.0
 10
10.26798106855975
 20
0.0980777900170151
 30
0.0
 10
9.40030287525967
 20
0.5236479361729444
 30
0.0
  0
SPLINE
  5
A8
330
1F
100
AcDbEntity
  8
외형선
  6
Continuous
370
    15
100
AcDbSpline
210
0.0
220
0.0
230
1.0
 70
     8
 71
     3
 72
    18
 73
    14
 74
     0
 42
0.000000001
 43
0.00000001
 40
0.0
 40
0.0
 40
0.0
 40
0.0
 40
0.249999999999995
 40
0.249999999999995
 40
0.3749999999999958
 40
0.3749999999999958
 40
0.4999999999999967
 40
0.4999999999999967
 40
0.6249999999999974
 40
0.6249999999999974
 40
0.7499999999999983
 40
0.7499999999999983
 40
1.0
 40
1.0
 40
1.0
 40
1.0
 10
9.242398843355572
 20
19.06179790808893
 30
0.0
 10
9.213670174045161
 20
19.06632322299585
 30
0.0
 10
9.183253648751124
 20
19.07432826780726
 30
0.0
 10
9.131412515339218
 20
19.0988450532735
 30
0.0
 10
9.113334642873626
 20
19.10905947067621
 30
0.0
 10
9.075223623290618
 20
19.13658812111785
 30
0.0
 10
9.054897720307025
 20
19.15445478237126
 30
0.0
 10
9.018278213155474
 20
19.19630512246806
 30
0.0
 10
9.002112148566638
 20
19.22041753453123
 30
0.0
 10
8.97853702796812
 20
19.26537238197773
 30
0.0
 10
8.97050740093934
 20
19.28648973584103
 30
0.0
 10
8.953243050107394
 20
19.34455097354079
 30
0.0
 10
8.95007838869767
 20
19.37749104883657
 30
0.0
 10
8.950078388697666
 20
19.40688776902049
 30
0.0
  0
SPLINE
  5
A9
330
1F
100
AcDbEntity
  8
외형선
  6
Continuous
370
    15
100
AcDbSpline
210
0.0
220
0.0
230
1.0
 70
     8
 71
     3
 72
    16
 73
    12
 74
     0
 42
0.000000001
 43
0.00000001
 40
0.0
 40
0.0
 40
0.0
 40
0.0
 40
0.3529684373982978
 40
0.4896396988018559
 40
0.6118800955682523
 40
0.7253832222783761
 40
0.8188504447959808
 40
0.8924034201424468
 40
0.9462955512573109
 40
0.9812069923851727
 40
1.0
 40
1.0
 40
1.0
 40
1.0
 10
9.242399289533608
 20
19.06179815944974
 30
0.0
 10
9.26725306444987
 20
19.05792240461325
 30
0.0
 10
9.301730353563274
 20
19.05254593683401
 30
0.0
 10
9.346652750847198
 20
19.0457804771965
 30
0.0
 10
9.37465535639224
 20
19.04160880749284
 30
0.0
 10
9.400122340560799
 20
19.03785585939069
 30
0.0
 10
9.422681953775648
 20
19.03455270272181
 30
0.0
 10
9.441326662610983
 20
19.0318351269565
 30
0.0
 10
9.456367802085087
 20
19.02962001643524
 30
0.0
 10
9.467224248242205
 20
19.02802833823843
 30
0.0
 10
9.474588321733448
 20
19.0268763050816
 30
0.0
 10
9.477165260747576
 20
19.02647316961712
 30
0.0
  0
SPLINE
  5
AA
330
1F
100
AcDbEntity
  8
외형선
  6
Continuous
370
    15
100
AcDbSpline
210
0.0
220
0.0
230
1.0
 70
     8
 71
     3
 72
     8
 73
     4
 74
     0
 42
0.000000001
 43
0.00000001
 40
0.0
 40
0.0
 40
0.0
 40
0.0
 40
1.0
 40
1.0
 40
1.0
 40
1.0
 10
12.00000000000001
 20
18.58602999787494
 30
0.0
 10
11.15849938369207
 20
18.74316142105563
 30
0.0
 10
10.31915076144845
 20
18.88996568720837
 30
0.0
 10
9.477160255695516
 20
19.0264738266024
 30
0.0
  0
SPLINE
  5
AB
330
1F
100
AcDbEntity
  8
외형선
  6
Continuous
370
    15
100
AcDbSpline
210
0.0
220
0.0
230
1.0
 70
    24
 71
     3
 72
    14
 73
    10
 74
     0
 42
0.000000001
 43
0.00000001
 40
0.0
 40
0.0
 40
0.0
 40
0.0
 40
0.25
 40
0.25
 40
0.5
 40
0.5
 40
0.75
 40
0.75
 40
1.0
 40
1.0
 40
1.0
 40
1.0
 10
12.0
 20
18.58602999787494
 30
0.0
 10
12.0
 20
17.59245334497321
 30
0.0
 10
12.0
 20
16.39576368792097
 30
0.0
 10
12.0
 20
13.63954679332131
 30
0.0
 10
12.0
 20
12.08037135390203
 30
0.0
 10
12.0
 20
8.700451179837952
 30
0.0
 10
12.0
 20
6.880682463538231
 30
0.0
 10
12.0
 20
3.118786175768409
 30
0.0
 10
12.0
 20
1.177802316400509
 30
0.0
 10
12.0
 20
-0.7526883584795709
 30
0.0
  0
LINE
  5
AC
330
1F
100
AcDbEntity
  8
외형선
  6
Continuous
370
    15
100
AcDbLine
 10
9.348639262418056
 20
-19.04200372783946
 30
0.0
 11
8.950108370534691
 21
-19.11054197489967
 31
0.0
  0
SPLINE
  5
AD
330
1F
100
AcDbEntity
  8
외형선
  6
Continuous
370
    15
100
AcDbSpline
210
0.0
220
0.0
230
1.0
 70
    24
 71
     3
 72
    16
 73
    12
 74
     0
 42
0.000000001
 43
0.00000001
 40
0.0
 40
0.0
 40
0.0
 40
0.0
 40
0.083261380291179
 40
0.1964349251013787
 40
0.3096084699115785
 40
0.4195869032833339
 40
0.5295653366550893
 40
0.642738881465289
 40
0.7559124262754888
 40
0.9029352886831834
 40
1.0
 40
1.0
 40
1.0
 40
1.0
 10
12.0
 20
-9.414336901917043
 30
0.0
 10
12.0
 20
-9.847276525659876
 30
0.0
 10
12.0
 20
-10.86869200383148
 30
0.0
 10
12.0
 20
-12.31305586443249
 30
0.0
 10
12.0
 20
-13.74281225083172
 30
0.0
 10
12.0
 20
-14.99083183117313
 30
0.0
 10
12.0
 20
-16.0709754032492
 30
0.0
 10
12.0
 20
-16.98140072987718
 30
0.0
 10
12.0
 20
-17.77268007879825
 30
0.0
 10
12.0
 20
-18.32802599456772
 30
0.0
 10
12.0
 20
-18.46476863282818
 30
0.0
 10
12.0
 20
-18.51914618472449
 30
0.0
  0
SPLINE
  5
AE
330
1F
100
AcDbEntity
  8
0
  6
Continuous
 62
     1
370
    15
100
AcDbSpline
210
0.0
220
0.0
230
1.0
 70
     8
 71
     3
 72
    38
 73
    34
 74
     0
 42
0.000000001
 43
0.00000001
 40
0.0
 40
0.0
 40
0.0
 40
0.0
 40
0.0625
 40
0.0625
 40
0.125
 40
0.125
 40
0.1875
 40
0.1875
 40
0.25
 40
0.25
 40
0.3125
 40
0.3125
 40
0.375
 40
0.375
 40
0.4375
 40
0.4375
 40
0.5
 40
0.5
 40
0.5625
 40
0.5625
 40
0.625
 40
0.625
 40
0.6875
 40
0.6875
 40
0.75
 40
0.75
 40
0.8125
 40
0.8125
 40
0.875
 40
0.875
 40
0.9375
 40
0.9375
 40
1.0
 40
1.0
 40
1.0
 40
1.0
 10
62.80000000000001
 20
-24.10309807849027
 30
0.0
 10
61.74395683675758
 20
-23.91048852296223
 30
0.0
 10
60.68416676238105
 20
-23.6967321350331
 30
0.0
 10
58.5653520005842
 20
-23.22846184838079
 30
0.0
 10
57.50834267563465
 20
-22.974126336527
 30
0.0
 10
55.39375400769609
 20
-22.42602871799304
 30
0.0
 10
54.33347869057748
 20
-22.13200554526766
 30
0.0
 10
52.21523787961496
 20
-21.50623827156959
 30
0.0
 10
51.15973792383426
 20
-21.17477941104008
 30
0.0
 10
49.04321705417581
 20
-20.47513496322107
 30
0.0
 10
47.98274425201652
 20
-20.10697000493881
 30
0.0
 10
45.86565082458678
 20
-19.33681862571915
 30
0.0
 10
44.81038749726751
 20
-18.93503696772649
 30
0.0
 10
42.69250630693263
 20
-18.09837982444975
 30
0.0
 10
41.63212395636404
 20
-17.66376191917272
 30
0.0
 10
39.51675030987576
 20
-16.76537604590014
 30
0.0
 10
38.46045065698046
 20
-16.30144976589457
 30
0.0
 10
36.34178225410641
 20
-15.34520923187899
 30
0.0
 10
35.28177820980174
 20
-14.85322746332297
 30
0.0
 10
33.16869519118083
 20
-13.84544819133282
 30
0.0
 10
32.11008719286448
 20
-13.32877984491896
 30
0.0
 10
29.9912053961433
 20
-12.27291066135126
 30
0.0
 10
28.93331068557431
 20
-11.73411088586579
 30
0.0
 10
26.81958579342578
 20
-10.63746129217618
 30
0.0
 10
25.75945727988114
 20
-10.07885898892653
 30
0.0
 10
23.64093610067431
 20
-8.945417160545087
 30
0.0
 10
22.58502361483007
 20
-8.371037870101066
 30
0.0
 10
20.46915434086141
 20
-7.208029086718978
 30
0.0
 10
19.40872133355727
 20
-6.619298957744035
 30
0.0
 10
17.29113445764509
 20
-5.431972354692581
 30
0.0
 10
16.23593182769943
 20
-4.833753632327301
 30
0.0
 10
14.11848946551564
 20
-3.628641940907285
 30
0.0
 10
13.05803986502422
 20
-3.022080553435571
 30
0.0
 10
11.99999999999829
 20
-2.413882525699744
 30
0.0
1001
PE_URL
1000

  0
SPLINE
  5
AF
330
1F
100
AcDbEntity
  8
외형선
  6
Continuous
370
    15
100
AcDbSpline
210
0.0
220
0.0
230
1.0
 70
    24
 71
     3
 72
     8
 73
     4
 74
     0
 42
0.000000001
 43
0.00000001
 40
0.0
 40
0.0
 40
0.0
 40
0.0
 40
1.0
 40
1.0
 40
1.0
 40
1.0
 10
12.0
 20
-0.7526883584795738
 30
0.0
 10
12.0
 20
-1.204777485562896
 30
0.0
 10
12.0
 20
-1.761616704011289
 30
0.0
 10
12.0
 20
-2.413882525692595
 30
0.0
  0
SPLINE
  5
B0
330
1F
100
AcDbEntity
  8
0
  6
Continuous
 62
     1
370
    15
100
AcDbSpline
210
0.0
220
0.0
230
1.0
 70
     8
 71
     3
 72
    38
 73
    34
 74
     0
 42
0.000000001
 43
0.00000001
 40
0.0
 40
0.0
 40
0.0
 40
0.0
 40
0.0625
 40
0.0625
 40
0.125
 40
0.125
 40
0.1875
 40
0.1875
 40
0.25
 40
0.25
 40
0.3125
 40
0.3125
 40
0.375
 40
0.375
 40
0.4375
 40
0.4375
 40
0.5
 40
0.5
 40
0.5625
 40
0.5625
 40
0.625
 40
0.625
 40
0.6875
 40
0.6875
 40
0.75
 40
0.75
 40
0.8125
 40
0.8125
 40
0.875
 40
0.875
 40
0.9375
 40
0.9375
 40
1.0
 40
1.0
 40
1.0
 40
1.0
 10
62.8
 20
-20.0398955149527
 30
0.0
 10
61.74395683675762
 20
-19.84679153746213
 30
0.0
 10
60.68416676238111
 20
-19.63606662379322
 30
0.0
 10
58.56535200058435
 20
-19.18090981230402
 30
0.0
 10
57.50834267563481
 20
-18.93664708859336
 30
0.0
 10
55.39375400769632
 20
-18.41567774149982
 30
0.0
 10
54.33347869057775
 20
-18.13872657700507
 30
0.0
 10
52.21523787961534
 20
-17.55399780924642
 30
0.0
 10
51.15973792383465
 20
-17.246481869276
 30
0.0
 10
49.04321705417627
 20
-16.60153661066586
 30
0.0
 10
47.98274425201701
 20
-16.26413066418431
 30
0.0
 10
45.86565082458732
 20
-15.56207787830598
 30
0.0
 10
44.81038749726812
 20
-15.19761352056186
 30
0.0
 10
42.6925063069333
 20
-14.44209871601338
 30
0.0
 10
41.63212395636475
 20
-14.05128471205736
 30
0.0
 10
39.51675030987654
 20
-13.24662278444654
 30
0.0
 10
38.46045065698127
 20
-12.83263030499449
 30
0.0
 10
36.34178225410729
 20
-11.98228954869317
 30
0.0
 10
35.28177820980267
 20
-11.5462395288037
 30
0.0
 10
33.16869519118181
 20
-10.65583586842357
 30
0.0
 10
32.11008719286552
 20
-10.20071197869293
 30
0.0
 10
29.99120539614441
 20
-9.273292001552019
 30
0.0
 10
28.93331068557545
 20
-8.801347705884158
 30
0.0
 10
26.81958579342699
 20
-7.843332007490064
 30
0.0
 10
25.75945727988238
 20
-7.35660447318443
 30
0.0
 10
23.64093610067562
 20
-6.371477857402376
 30
0.0
 10
22.58502361483141
 20
-5.87347635672399
 30
0.0
 10
20.46915434086283
 20
-4.86751868851918
 30
0.0
 10
19.40872133355871
 20
-4.359477843033147
 30
0.0
 10
17.2911344576466
 20
-3.337230739162502
 30
0.0
 10
16.235931827701
 20
-2.823346966970233
 30
0.0
 10
14.11848946551729
 20
-1.790433869975866
 30
0.0
 10
13.05803986502589
 20
-1.271691451427744
 30
0.0
 10
11.99999999999999
 20
-0.7526883584795699
 30
0.0
1001
PE_URL
1000

  0
LINE
  5
B1
330
1F
100
AcDbEntity
  8
0
  6
Continuous
 62
     1
370
    15
100
AcDbLine
 10
62.79999999999971
 20
-24.10309807849027
 30
0.0
 11
62.8
 21
-20.0398955149527
 31
0.0
1001
PE_URL
1000

  0
SPLINE
  5
B2
330
1F
100
AcDbEntity
  8
0
  6
Continuous
 62
     1
370
    15
100
AcDbSpline
210
0.0
220
0.0
230
1.0
 70
     8
 71
     3
 72
    38
 73
    34
 74
     0
 42
0.000000001
 43
0.00000001
 40
0.0
 40
0.0
 40
0.0
 40
0.0
 40
0.0624999999999999
 40
0.0624999999999999
 40
0.1249999999999999
 40
0.1249999999999999
 40
0.1874999999999998
 40
0.1874999999999998
 40
0.2499999999999998
 40
0.2499999999999998
 40
0.3124999999999997
 40
0.3124999999999997
 40
0.3749999999999997
 40
0.3749999999999997
 40
0.4374999999999996
 40
0.4374999999999996
 40
0.4999999999999996
 40
0.4999999999999996
 40
0.5624999999999996
 40
0.5624999999999996
 40
0.6249999999999997
 40
0.6249999999999997
 40
0.6874999999999997
 40
0.6874999999999997
 40
0.7499999999999998
 40
0.7499999999999998
 40
0.8124999999999998
 40
0.8124999999999998
 40
0.8749999999999999
 40
0.8749999999999999
 40
0.9374999999999999
 40
0.9374999999999999
 40
1.0
 40
1.0
 40
1.0
 40
1.0
 10
62.8
 20
-25.37853230683296
 30
0.0
 10
61.74395683675763
 20
-25.35343420748157
 30
0.0
 10
60.68416676238111
 20
-25.30628025492126
 30
0.0
 10
58.56535200058438
 20
-25.16808889419373
 30
0.0
 10
57.50834267563482
 20
-25.07712686422671
 30
0.0
 10
55.39375400769634
 20
-24.85187686306606
 30
0.0
 10
54.33347869057776
 20
-24.71746217696387
 30
0.0
 10
52.21523787961533
 20
-24.40602823059502
 30
0.0
 10
51.15973792383465
 20
-24.2291771874496
 30
0.0
 10
49.04321705417627
 20
-23.83345125809541
 30
0.0
 10
47.98274425201701
 20
-23.61456455744317
 30
0.0
 10
45.86565082458733
 20
-23.13644096799854
 30
0.0
 10
44.81038749726812
 20
-22.87735371018973
 30
0.0
 10
42.69250630693332
 20
-22.3193265161626
 30
0.0
 10
41.63212395636475
 20
-22.02053765629701
 30
0.0
 10
39.51675030987656
 20
-21.3857867684423
 30
0.0
 10
38.46045065698128
 20
-21.04972776272707
 30
0.0
 10
36.3417822541073
 20
-20.3409990860243
 30
0.0
 10
35.28177820980267
 20
-19.96856186230849
 30
0.0
 10
33.16869519118181
 20
-19.19053940088052
 30
0.0
 10
32.11008719286554
 20
-18.78428634820934
 30
0.0
 10
29.99120539614441
 20
-17.9396356498588
 30
0.0
 10
28.93331068557546
 20
-17.50156142277764
 30
0.0
 10
26.819585793427
 20
-16.59612808826978
 30
0.0
 10
25.75945727988238
 20
-16.12814108523147
 30
0.0
 10
23.64093610067562
 20
-15.16521359885538
 30
0.0
 10
22.58502361483142
 20
-14.67067721482608
 30
0.0
 10
20.46915434086284
 20
-13.65639366911645
 30
0.0
 10
19.40872133355874
 20
-13.13654597336374
 30
0.0
 10
17.29113445764661
 20
-12.07547714332233
 30
0.0
 10
16.235931827701
 20
-11.53460838914457
 30
0.0
 10
14.11848946551729
 20
-10.43259779016438
 30
0.0
 10
13.05803986502591
 20
-9.871744579937033
 30
0.0
 10
12.00000000000003
 20
-9.3032377969385
 30
0.0
1001
PE_URL
1000

  0
LINE
  5
B3
330
1F
100
AcDbEntity
  8
0
  6
Continuous
 62
     1
370
    15
100
AcDbLine
 10
62.8
 20
-25.37853230683295
 30
0.0
 11
62.79999999999993
 21
-24.10309807849024
 31
0.0
1001
PE_URL
1000

  0
SPLINE
  5
B4
330
1F
100
AcDbEntity
  8
0
  6
Continuous
 62
     1
370
    15
100
AcDbSpline
210
0.0
220
0.0
230
1.0
 70
     8
 71
     3
 72
    38
 73
    34
 74
     0
 42
0.000000001
 43
0.00000001
 40
0.0
 40
0.0
 40
0.0
 40
0.0
 40
0.0624999999999997
 40
0.0624999999999997
 40
0.1249999999999995
 40
0.1249999999999995
 40
0.1874999999999992
 40
0.1874999999999992
 40
0.2499999999999989
 40
0.2499999999999989
 40
0.3124999999999987
 40
0.3124999999999987
 40
0.3749999999999984
 40
0.3749999999999984
 40
0.4374999999999985
 40
0.4374999999999985
 40
0.4999999999999986
 40
0.4999999999999986
 40
0.5624999999999988
 40
0.5624999999999988
 40
0.6249999999999989
 40
0.6249999999999989
 40
0.6874999999999991
 40
0.6874999999999991
 40
0.7499999999999992
 40
0.7499999999999992
 40
0.8124999999999994
 40
0.8124999999999994
 40
0.8749999999999997
 40
0.8749999999999997
 40
0.9374999999999998
 40
0.9374999999999998
 40
1.0
 40
1.0
 40
1.0
 40
1.0
 10
62.8
 20
-0.0000000000000149
 30
0.0
 10
61.74395683675763
 20
0.4884631165532456
 30
0.0
 10
60.68416676238112
 20
0.9775034171039028
 30
0.0
 10
58.56535200058438
 20
1.952919846257184
 30
0.0
 10
57.50834267563482
 20
2.438986882687346
 30
0.0
 10
55.39375400769633
 20
3.406137308851567
 30
0.0
 10
54.33347869057775
 20
3.887627969339786
 30
0.0
 10
52.21523787961533
 20
4.84267195420869
 30
0.0
 10
51.15973792383465
 20
5.315862121491223
 30
0.0
 10
49.04321705417625
 20
6.253023983048873
 30
0.0
 10
47.98274425201701
 20
6.716903497757451
 30
0.0
 10
45.86565082458735
 20
7.631636087267315
 30
0.0
 10
44.8103874972681
 20
8.082307834670814
 30
0.0
 10
42.6925063069333
 20
8.969886494767795
 30
0.0
 10
41.63212395636477
 20
9.406463189606477
 30
0.0
 10
39.51675030987654
 20
10.26180299196129
 30
0.0
 10
38.46045065698128
 20
10.68075771912771
 30
0.0
 10
36.3417822541073
 20
11.50019412629343
 30
0.0
 10
35.28177820980268
 20
11.90035246524564
 30
0.0
 10
33.16869519118183
 20
12.67848107004752
 30
0.0
 10
32.11008719286554
 20
13.05713607595199
 30
0.0
 10
29.99120539614441
 20
13.79130219903387
 30
0.0
 10
28.93331068557545
 20
14.14654155921755
 30
0.0
 10
26.819585793427
 20
14.83165811483407
 30
0.0
 10
25.7594572798824
 20
15.16198722658617
 30
0.0
 10
23.64093610067563
 20
15.79555084702106
 30
0.0
 10
22.58502361483142
 20
16.09856411117919
 30
0.0
 10
20.46915434086285
 20
16.67653545334865
 30
0.0
 10
19.40872133355873
 20
16.95150844938837
 30
0.0
 10
17.29113445764662
 20
17.47125936906019
 30
0.0
 10
16.23593182770101
 20
17.71591260754008
 30
0.0
 10
14.11848946551729
 20
18.17459841906463
 30
0.0
 10
13.05803986502591
 20
18.38846471206107
 30
0.0
 10
11.99999999999999
 20
18.58602999787494
 30
0.0
1001
PE_URL
1000

  0
SPLINE
  5
B5
330
1F
100
AcDbEntity
  8
0
  6
Continuous
 62
     1
370
    15
100
AcDbSpline
210
0.0
220
0.0
230
1.0
 70
    24
 71
     3
 72
    14
 73
    10
 74
     0
 42
0.000000001
 43
0.00000001
 40
0.0
 40
0.0
 40
0.0
 40
0.0
 40
0.25
 40
0.25
 40
0.5
 40
0.5
 40
0.75
 40
0.75
 40
1.0
 40
1.0
 40
1.0
 40
1.0
 10
62.8
 20
-20.0398955149527
 30
0.0
 10
62.8
 20
-18.95557336052247
 30
0.0
 10
62.80000000000001
 20
-17.67202380632718
 30
0.0
 10
62.8
 20
-14.75713589577276
 30
0.0
 10
62.8
 20
-13.12620834487341
 30
0.0
 10
62.8
 20
-9.623740089790292
 30
0.0
 10
62.80000000000001
 20
-7.753210792117317
 30
0.0
 10
62.80000000000001
 20
-3.91365382569782
 30
0.0
 10
62.8
 20
-1.945765085460727
 30
0.0
 10
62.8
 20
-0.0000000000000149
 30
0.0
1001
PE_URL
1000

  0
SPLINE
  5
B6
330
1F
100
AcDbEntity
  8
외형선
  6
Continuous
370
    15
100
AcDbSpline
210
0.0
220
0.0
230
1.0
 70
    24
 71
     3
 72
    14
 73
    10
 74
     0
 42
0.000000001
 43
0.00000001
 40
0.0
 40
0.0
 40
0.0
 40
0.0
 40
0.25
 40
0.25
 40
0.5
 40
0.5
 40
0.75
 40
0.75
 40
1.0
 40
1.0
 40
1.0
 40
1.0
 10
12.0
 20
18.58602999787494
 30
0.0
 10
12.0
 20
17.59245334497321
 30
0.0
 10
12.0
 20
16.39576368792097
 30
0.0
 10
12.0
 20
13.63954679332131
 30
0.0
 10
12.0
 20
12.08037135390203
 30
0.0
 10
12.0
 20
8.700451179837952
 30
0.0
 10
12.0
 20
6.880682463538231
 30
0.0
 10
12.0
 20
3.118786175768409
 30
0.0
 10
12.0
 20
1.177802316400509
 30
0.0
 10
12.0
 20
-0.7526883584795709
 30
0.0
  0
SPLINE
  5
B7
330
1F
100
AcDbEntity
  8
0
  6
Continuous
 62
     1
370
    15
100
AcDbSpline
210
0.0
220
0.0
230
1.0
 70
    24
 71
     3
 72
    10
 73
     6
 74
     0
 42
0.000000001
 43
0.00000001
 40
0.0
 40
0.0
 40
0.0
 40
0.0
 40
0.5
 40
0.5
 40
1.0
 40
1.0
 40
1.0
 40
1.0
 10
57.80000000000003
 20
13.0232181369433
 30
0.0
 10
57.80000000000003
 20
13.7182076782803
 30
0.0
 10
57.80000000000003
 20
14.34397502627871
 30
0.0
 10
57.80000000000001
 20
15.44274489391831
 30
0.0
 10
57.80000000000001
 20
15.91573089349449
 30
0.0
 10
57.80000000000001
 20
16.30935131046914
 30
0.0
1001
PE_URL
1000

  0
SPLINE
  5
B8
330
1F
100
AcDbEntity
  8
0
  6
Continuous
 62
     1
370
    15
100
AcDbSpline
210
0.0
220
0.0
230
1.0
 70
     8
 71
     3
 72
    10
 73
     6
 74
     0
 42
0.000000001
 43
0.00000001
 40
0.0
 40
0.0
 40
0.0
 40
0.0
 40
0.5
 40
0.5
 40
1.0
 40
1.0
 40
1.0
 40
1.0
 10
57.80000000000003
 20
13.02321813694331
 30
0.0
 10
58.69431931368739
 20
12.47562514837289
 30
0.0
 10
59.56006898428245
 20
11.86799396800354
 30
0.0
 10
61.22914897846303
 20
10.52155934460765
 30
0.0
 10
62.03253921924454
 20
9.782881815653433
 30
0.0
 10
62.80000000000001
 20
8.96869967485274
 30
0.0
1001
PE_URL
1000

  0
SPLINE
  5
B9
330
1F
100
AcDbEntity
  8
0
  6
Continuous
 62
     1
370
    15
100
AcDbSpline
210
0.0
220
0.0
230
1.0
 70
     8
 71
     3
 72
     9
 73
     5
 74
     0
 42
0.000000001
 43
0.00000001
 40
0.0
 40
0.0
 40
0.0
 40
0.0
 40
0.7121000330674031
 40
0.9999999999999999
 40
0.9999999999999999
 40
0.9999999999999999
 40
0.9999999999999999
 10
62.8
 20
17.77999999999998
 30
0.0
 10
60.55661696124363
 20
17.75948553883354
 30
0.0
 10
57.40624070147449
 20
17.73067714083632
 30
0.0
 10
54.2557726413927
 20
17.41365629902726
 30
0.0
 10
53.34875299107294
 20
17.32238600915349
 30
0.0
1001
PE_URL
1000

  0
SPLINE
  5
BA
330
1F
100
AcDbEntity
  8
0
  6
Continuous
 62
     1
370
    15
100
AcDbSpline
210
0.0
220
0.0
230
1.0
 70
     8
 71
     3
 72
     8
 73
     4
 74
     0
 42
0.000000001
 43
0.00000001
 40
0.0
 40
0.0
 40
0.0
 40
0.0
 40
1.0
 40
1.0
 40
1.0
 40
1.0
 10
62.8
 20
17.77999999999999
 30
0.0
 10
61.12698159360296
 20
17.32658360122463
 30
0.0
 10
59.46025984458774
 20
16.836686499873
 30
0.0
 10
57.80000000000001
 20
16.30935131046914
 30
0.0
1001
PE_URL
1000

  0
SPLINE
  5
BB
330
1F
100
AcDbEntity
  8
0
  6
Continuous
 62
     1
370
    15
100
AcDbSpline
210
0.0
220
0.0
230
1.0
 70
    24
 71
     3
 72
    10
 73
     6
 74
     0
 42
0.000000001
 43
0.00000001
 40
0.0
 40
0.0
 40
0.0
 40
0.0
 40
0.5
 40
0.5
 40
1.0
 40
1.0
 40
1.0
 40
1.0
 10
62.8
 20
-0.0000000000000214
 30
0.0
 10
62.8
 20
1.585610116459086
 30
0.0
 10
62.80000000000001
 20
3.156497691851271
 30
0.0
 10
62.8
 20
6.176915321786713
 30
0.0
 10
62.80000000000001
 20
7.62587916243853
 30
0.0
 10
62.80000000000001
 20
8.968699674852743
 30
0.0
1001
PE_URL
1000

  0
SPLINE
  5
BC
330
1F
100
AcDbEntity
  8
외형선
  6
Continuous
370
    15
100
AcDbSpline
210
0.0
220
0.0
230
1.0
 70
    24
 71
     3
 72
    17
 73
    13
 74
     0
 42
0.000000001
 43
0.00000001
 40
0.0
 40
0.0
 40
0.0
 40
0.0
 40
0.077342091338505
 40
0.1824689847876049
 40
0.2875958782367048
 40
0.3897548330185953
 40
0.4919137878004859
 40
0.5970406812495859
 40
0.7021675746986857
 40
0.8387370955777599
 40
0.975732994753401
 40
1.0
 40
1.0
 40
1.0
 40
1.0
 10
12.0
 20
-9.41432690191704
 30
0.0
 10
12.0
 20
-9.847270594181182
 30
0.0
 10
12.0
 20
-10.86869107338544
 30
0.0
 10
12.0
 20
-12.31304320899851
 30
0.0
 10
12.0
 20
-13.74285878012632
 30
0.0
 10
12.0
 20
-14.99066366496196
 30
0.0
 10
12.0
 20
-16.07161130998379
 30
0.0
 10
12.0
 20
-16.97895043982856
 30
0.0
 10
12.0
 20
-17.78297112943403
 30
0.0
 10
12.0
 20
-18.35493759178781
 30
0.0
 10
12.0
 20
-18.64464358364296
 30
0.0
 10
12.0
 20
-18.62070258939358
 30
0.0
 10
12.0
 20
-18.61709992432229
 30
0.0
  0
LINE
  5
BD
330
1F
100
AcDbEntity
  8
0
  6
Continuous
 62
     1
370
    15
100
AcDbLine
 10
62.8
 20
9.024254227342023
 30
0.0
 11
62.8
 21
17.77999999999998
 31
0.0
1001
PE_URL
1000

  0
SPLINE
  5
BE
330
1F
100
AcDbEntity
  8
0
  6
Continuous
 62
     1
370
    15
100
AcDbSpline
210
0.0
220
0.0
230
1.0
 70
     8
 71
     3
 72
    14
 73
    10
 74
     0
 42
0.000000001
 43
0.00000001
 40
0.0
 40
0.0
 40
0.0
 40
0.0
 40
0.0342221326299083
 40
0.1971204506033987
 40
0.3600189576195706
 40
0.5200122093266478
 40
0.680006739081286
 40
0.840002638724866
 40
1.0
 40
1.0
 40
1.0
 40
1.0
 10
27.87322552870037
 20
17.02497201236259
 30
0.0
 10
28.27164835693241
 20
17.20257198319263
 30
0.0
 10
30.56657510159539
 20
18.22555283174948
 30
0.0
 10
34.75800748486685
 20
19.81462683425116
 30
0.0
 10
40.41370946455835
 20
21.71774142710336
 30
0.0
 10
46.03557335197682
 20
23.23263638865632
 30
0.0
 10
51.62366408922884
 20
24.36247375561896
 30
0.0
 10
57.21180865923588
 20
25.12749596175023
 30
0.0
 10
60.93726388083115
 20
25.29485327032633
 30
0.0
 10
62.8
 20
25.37853230683293
 30
0.0
1001
PE_URL
1000

  0
SPLINE
  5
BF
330
1F
100
AcDbEntity
  8
0
  6
Continuous
 62
     1
370
    15
100
AcDbSpline
210
0.0
220
0.0
230
1.0
 70
    24
 71
     3
 72
    14
 73
    10
 74
     0
 42
0.000000001
 43
0.00000001
 40
0.0
 40
0.0
 40
0.0
 40
0.0
 40
0.25
 40
0.25
 40
0.5
 40
0.5
 40
0.75
 40
0.75
 40
1.0
 40
1.0
 40
1.0
 40
1.0
 10
62.8
 20
17.77999999999998
 30
0.0
 10
62.8
 20
18.31888966145286
 30
0.0
 10
62.80000000000001
 20
18.90012989484098
 30
0.0
 10
62.8
 20
20.12433773570244
 30
0.0
 10
62.8
 20
20.76718330401999
 30
0.0
 10
62.8
 20
22.08103249361046
 30
0.0
 10
62.80000000000001
 20
22.75181509401219
 30
0.0
 10
62.80000000000001
 20
24.08266931494266
 30
0.0
 10
62.79999999999998
 20
24.74249878809514
 30
0.0
 10
62.79999999999998
 20
25.37853230683292
 30
0.0
1001
PE_URL
1000

  0
LINE
  5
C0
330
1F
100
AcDbEntity
  8
중심선
 62
     1
100
AcDbLine
 10
-90.25000000000003
 20
-0.0000000000000186
 30
0.0
 11
69.79999999999998
 21
0.0000000000000014
 31
0.0
  0
LINE
  5
C1
330
1F
100
AcDbEntity
  8
참조1
100
AcDbLine
 10
-10.22500000000002
 20
-0.0000000000000193
 30
0.0
 11
-10.22500000000002
 21
-40.00000000000002
 31
0.0
  0
LINE
  5
C2
330
1F
100
AcDbEntity
  8
참조1
100
AcDbLine
 10
-10.22500000000002
 20
-40.00000000000002
 30
0.0
 11
-23.00006253529964
 21
-40.00000000000001
 31
0.0
  0
CIRCLE
  5
C3
330
1F
100
AcDbEntity
  8
해칭선
100
AcDbCircle
 10
0.0
 20
0.0
 30
0.0
 40
2.999999999999993
  0
INSERT
  5
C4
330
1F
100
AcDbEntity
  8
0
  6
Continuous
 62
     7
100
AcDbBlockReference
 66
     1
  2
블럭10
 10
-24.16527293212523
 20
-52.04717430164395
 30
0.0
  0
ATTRIB
  5
C5
330
C4
100
AcDbEntity
  8
FORMAT
 62
     2
100
AcDbText
 10
-33.34656822086651
 20
-49.97180738881176
 30
0.0
 40
4.233333333333333
  1
E1030916 [ 2 FLUTE ]
 41
0.75
  7
SLDTEXTSTYLE0
 11
-33.34656822086651
 21
-52.08847405547843
 31
0.0
100
AcDbAttribute
  2
AUTOATTR0
 70
     0
 74
     1
  0
SEQEND
  5
C6
330
C4
100
AcDbEntity
  8
0
  6
Continuous
 62
     7
  0
HATCH
  5
C7
330
1F
100
AcDbEntity
  8
중심선
100
AcDbHatch
 10
0.0
 20
0.0
 30
0.0
210
0.0
220
0.0
230
1.0
  2
SOLID
 70
     1
 71
     0
 91
        1
 92
        0
 93
        4
 72
     1
 10
-18.45036362774439
 20
-35.80000000000001
 11
-21.89663887158168
 21
-35.80000000000001
 72
     1
 10
-21.89663887158168
 20
-35.80000000000001
 11
-24.02486873078572
 21
-38.33632558057261
 72
     1
 10
-24.02486873078572
 20
-38.33632558057261
 11
-20.57856040183527
 21
-38.33628615127012
 72
     1
 10
-20.57856040183527
 20
-38.33628615127012
 11
-18.45036362774439
 21
-35.80000000000001
 97
        0
 75
     0
 76
     1
 98
        1
 10
-2.849261314031164
 20
-0.0010749287239085
  0
HATCH
  5
C8
330
1F
100
AcDbEntity
  8
중심선
100
AcDbHatch
 10
0.0
 20
0.0
 30
0.0
210
0.0
220
0.0
230
1.0
  2
SOLID
 70
     1
 71
     0
 91
        1
 92
        0
 93
        4
 72
     1
 10
-13.43759963670841
 20
-35.80000000000001
 11
-16.8838748805457
 21
-35.80000000000001
 72
     1
 10
-16.8838748805457
 20
-35.80000000000001
 11
-21.41501288890311
 21
-41.20000000000003
 72
     1
 10
-21.41501288890311
 20
-41.20000000000003
 11
-17.96873764506583
 21
-41.20000000000003
 72
     1
 10
-17.96873764506583
 20
-41.20000000000003
 11
-13.43759963670841
 21
-35.80000000000001
 97
        0
 75
     0
 76
     1
 98
        1
 10
-2.849261314031164
 20
-0.0010749287239085
  0
HATCH
  5
C9
330
1F
100
AcDbEntity
  8
중심선
100
AcDbHatch
 10
0.0
 20
0.0
 30
0.0
210
0.0
220
0.0
230
1.0
  2
SOLID
 70
     1
 71
     0
 91
        1
 92
        0
 93
        4
 72
     1
 10
-8.424835645672545
 20
-35.80000000000004
 11
-11.87111088950966
 21
-35.80000000000001
 72
     1
 10
-11.87111088950966
 20
-35.80000000000001
 11
-18.91954779139891
 21
-44.20000000000003
 72
     1
 10
-18.91954779139891
 20
-44.20000000000003
 11
-15.47327254756163
 21
-44.20000000000003
 72
     1
 10
-15.47327254756163
 20
-44.20000000000003
 11
-8.424835645672545
 21
-35.80000000000004
 97
        0
 75
     0
 76
     1
 98
        1
 10
-2.849261314031164
 20
-0.0010749287239085
  0
HATCH
  5
CA
330
1F
100
AcDbEntity
  8
중심선
100
AcDbHatch
 10
0.0
 20
0.0
 30
0.0
210
0.0
220
0.0
230
1.0
  2
SOLID
 70
     1
 71
     0
 91
        1
 92
        0
 93
        6
 72
     3
 10
-3.624945214660346
 20
-40.00000000005129
 11
3.960054785062284
 21
1.540882976769353E-10
 40
0.3939339440162627
 50
17.09539180608437
 51
320.0019657685082
 73
     0
 72
     1
 10
-1.941945558959778
 20
-38.58789400463834
 11
0.3633563147412875
 21
-36.6535672945904
 72
     3
 10
-3.624945214713192
 20
-40.00000000000016
 11
6.600054785286829
 21
-1.278976924368180E-13
 40
0.636358354079598
 50
39.9987384933741
 51
368.4976242363725
 73
     1
 72
     1
 10
2.800387277187417
 20
-39.03999999993004
 11
-4.94487790787727
 21
-39.03999999993001
 72
     1
 10
-4.94487790787727
 20
-39.03999999993001
 11
-4.944902952323204
 21
-40.95999999992993
 72
     1
 10
-4.944902952323203
 20
-40.95999999992993
 11
-0.5035231828511666
 21
-40.9599999999299
 97
        0
 75
     0
 76
     1
 98
        1
 10
-2.849261314031164
 20
-0.0010749287239085
  0
DIMENSION
  5
CB
330
1F
100
AcDbEntity
  8
치수문자_일반주서
100
AcDbDimension
  2
_D
 10
-98.24999999999989
 20
-25.40000000000008
 30
0.0
 11
-98.25000000000011
 21
42.27499999999987
 31
0.0
 70
   160
  1
%%c<>
 71
     2
 42
50.79999999999995
 52
-270.0
  3
SLDDIMSTYLE2
100
AcDbAlignedDimension
 13
-68.64500000000004
 23
25.39999999999997
 33
0.0
 14
-82.25000000000003
 24
-25.40000000000002
 34
0.0
 50
90.0000000000002
100
AcDbRotatedDimension
1001
PE_URL
1000

1001
ACAD
1000
DSTYLE
1002
{
1070
   171
1070
     8
1070
   273
1070
     7
1070
    41
1040
4.0
1070
   140
1040
4.0
1002
}
1001
ACAD_DSTYLE_DIMFLIPARROW_SYMBOL
1070
   385
1070
     0
1001
ACAD_DSTYLE_DIMFLIPARROW_WHICH_SYMBOL
1070
   386
1070
     3
  0
DIMENSION
  5
DE
330
1F
100
AcDbEntity
  8
치수문자_일반주서
100
AcDbDimension
  2
_D_1
 10
12.00000000000001
 20
40.39999999999997
 30
0.0
 11
37.40000000000001
 21
40.39999999999997
 31
0.0
 70
   160
  1
<>
 71
     2
 42
50.79999999999999
  3
SLDDIMSTYLE2
100
AcDbAlignedDimension
 13
62.8
 23
25.37853230683292
 33
0.0
 14
12.00000000000001
 24
18.58602999787494
 34
0.0
 50
0.000000000000008
100
AcDbRotatedDimension
1001
PE_URL
1000

1001
ACAD
1000
DSTYLE
1002
{
1070
   171
1070
     8
1070
   273
1070
     7
1070
    41
1040
4.0
1070
   140
1040
4.0
1002
}
  0
DIMENSION
  5
F2
330
1F
100
AcDbEntity
  8
치수문자_일반주서
100
AcDbDimension
  2
_D_2
 10
-83.25000000000003
 20
55.39999999999997
 30
0.0
 11
-10.22500000000015
 21
55.39999999999997
 31
0.0
 70
   160
  1
<>
 71
     2
 42
146.05
  3
SLDDIMSTYLE2
100
AcDbAlignedDimension
 13
62.79999999999998
 23
25.37853230683292
 33
0.0
 14
-83.25000000000003
 24
23.49499999999998
 34
0.0
100
AcDbRotatedDimension
1001
PE_URL
1000

1001
ACAD
1000
DSTYLE
1002
{
1070
   171
1070
     8
1070
   273
1070
     7
1070
    41
1040
4.0
1070
   140
1040
4.0
1002
}
  0
DIMENSION
  5
106
330
1F
100
AcDbEntity
  8
치수문자_일반주서
100
AcDbDimension
  2
_D_3
 10
77.79999999999997
 20
25.37853230683298
 30
0.0
 11
77.79999999999991
 21
42.50353230683298
 31
0.0
 70
   160
  1
%%c<>
 71
     2
 42
50.75706461366586
 52
-270.0
  3
SLDDIMSTYLE2
100
AcDbAlignedDimension
 13
62.8
 23
-25.37853230683295
 33
0.0
 14
62.8
 24
25.37853230683292
 34
0.0
 50
90.0000000000002
100
AcDbRotatedDimension
1001
PE_URL
1000

1001
ACAD
1000
DSTYLE
1002
{
1070
   171
1070
     8
1070
   273
1070
     7
1070
    41
1040
4.0
1070
   140
1040
4.0
1002
}
1001
ACAD_DSTYLE_DIMFLIPARROW_SYMBOL
1070
   385
1070
     0
1001
ACAD_DSTYLE_DIMFLIPARROW_WHICH_SYMBOL
1070
   386
1070
     3
  0
LINE
  5
119
330
1F
100
AcDbEntity
  8
참조1
100
AcDbLine
 10
74.97227809435462
 20
7.439999999999987
 30
0.0
 11
74.97227809435462
 21
-7.440000000000017
 31
0.0
  0
LINE
  5
11A
330
1F
100
AcDbEntity
  8
참조1
100
AcDbLine
 10
87.67227809435462
 20
5.439999999999987
 30
0.0
 11
74.97227809435462
 21
5.439999999999987
 31
0.0
  0
SOLID
  5
11B
330
1F
100
AcDbEntity
  8
참조1
100
AcDbTrace
 10
74.97227809435462
 20
5.439999999999987
 30
0.0
 11
81.32227809435462
 21
4.423999999999987
 31
0.0
 12
81.32227809435462
 22
6.455999999999987
 32
0.0
 13
81.32227809435462
 23
6.455999999999987
 33
0.0
  0
LINE
  5
11C
330
1F
100
AcDbEntity
  8
참조1
100
AcDbLine
 10
87.67227809435462
 20
-5.440000000000017
 30
0.0
 11
74.97227809435462
 21
-5.440000000000017
 31
0.0
  0
SOLID
  5
11D
330
1F
100
AcDbEntity
  8
참조1
100
AcDbTrace
 10
74.97227809435462
 20
-5.440000000000017
 30
0.0
 11
81.32227809435462
 21
-6.456000000000017
 31
0.0
 12
81.32227809435462
 22
-4.424000000000017
 32
0.0
 13
81.32227809435462
 23
-4.424000000000017
 33
0.0
  0
MTEXT
  5
11E
330
1F
100
AcDbEntity
  8
참조1
100
AcDbMText
 10
84.35662822698062
 20
11.01029177718831
 30
0.0
 40
3.5
 41
0.0
 71
     1
 72
     1
  1
A
  7
SLDTEXTSTYLE0
 73
     1
 44
1.0
  0
MTEXT
  5
11F
330
1F
100
AcDbEntity
  8
참조1
100
AcDbMText
 10
84.35662822698062
 20
0.1302917771883108
 30
0.0
 40
3.5
 41
0.0
 71
     1
 72
     1
  1
A
  7
SLDTEXTSTYLE0
 73
     1
 44
1.0
  0
INSERT
  5
126
330
1F
100
AcDbEntity
  8
해칭선
100
AcDbBlockReference
  2
SW_DOWELSYMBOL_0
 10
0.0
 20
0.0
 30
0.0
  0
LINE
  5
1CB
330
1F
100
AcDbEntity
  8
외형선
  6
Continuous
370
    15
100
AcDbLine
 10
-60.83132499999994
 20
23.49499999999998
 30
0.0
 11
-47.72492500000004
 21
23.49499999999998
 31
0.0
1001
PE_URL
1000

  0
LINE
  5
1CC
330
1F
100
AcDbEntity
  8
외형선
  6
Continuous
370
    15
100
AcDbLine
 10
-60.83132499999994
 20
23.49499999999999
 30
0.0
 11
-62.73632499999991
 21
25.39999999999998
 31
0.0
1001
PE_URL
1000

  0
LINE
  5
1CD
330
1F
100
AcDbEntity
  8
외형선
  6
Continuous
370
    15
100
AcDbLine
 10
-47.72492500000004
 20
23.49499999999999
 30
0.0
 11
-45.81992500000001
 21
25.39999999999998
 31
0.0
1001
PE_URL
1000

  0
LINE
  5
1CE
330
1F
100
AcDbEntity
  8
외형선
  6
Continuous
370
    15
100
AcDbLine
 10
-83.25000000000003
 20
23.49499999999998
 30
0.0
 11
-70.55000000000001
 21
23.49499999999998
 31
0.0
1001
PE_URL
1000

  0
LINE
  5
1CF
330
1F
100
AcDbEntity
  8
외형선
  6
Continuous
370
    15
100
AcDbLine
 10
-70.55000000000001
 20
23.49499999999999
 30
0.0
 11
-68.64500000000004
 21
25.39999999999997
 31
0.0
1001
PE_URL
1000

  0
LINE
  5
1D2
330
1F
100
AcDbEntity
  8
외형선
  6
Continuous
370
    15
100
AcDbLine
 10
-62.73632499999991
 20
25.39999999999998
 30
0.0
 11
-68.64500000000004
 21
25.39999999999998
 31
0.0
  0
ENDSEC
  0
SECTION
  2
OBJECTS
  0
DICTIONARY
  5
C
330
0
100
AcDbDictionary
281
     1
  3
ACAD_DETAILVIEWSTYLE
350
1E1
  3
ACAD_GROUP
350
D
  3
ACAD_LAYOUT
350
1A
  3
ACAD_MLINESTYLE
350
17
  3
ACAD_PLOTSETTINGS
350
19
  3
ACAD_PLOTSTYLENAME
350
E
  3
ACAD_SCALELIST
350
47
  3
ACAD_SECTIONVIEWSTYLE
350
1E2
  3
AcDbVariableDictionary
350
1DC
  3
APPDATA
350
148
  3
DWGPROPS
350
1E3
  0
DICTIONARY
  5
17E
330
2
100
AcDbDictionary
280
     1
281
     1
  3
ACAD_LAYERSTATES
360
17F
  0
DICTIONARY
  5
1E1
102
{ACAD_REACTORS
330
C
102
}
330
C
100
AcDbDictionary
281
     1
  0
DICTIONARY
  5
D
102
{ACAD_REACTORS
330
C
102
}
330
C
100
AcDbDictionary
281
     1
  0
DICTIONARY
  5
1A
102
{ACAD_REACTORS
330
C
102
}
330
C
100
AcDbDictionary
281
     1
  3
Layout1
350
1E
  3
Layout2
350
26
  3
Model
350
22
  0
DICTIONARY
  5
17
102
{ACAD_REACTORS
330
C
102
}
330
C
100
AcDbDictionary
281
     1
  3
Standard
350
18
  0
DICTIONARY
  5
19
102
{ACAD_REACTORS
330
C
102
}
330
C
100
AcDbDictionary
281
     1
  0
ACDBDICTIONARYWDFLT
  5
E
102
{ACAD_REACTORS
330
C
102
}
330
C
100
AcDbDictionary
281
     1
  3
Normal
350
F
100
AcDbDictionaryWithDefault
340
F
  0
DICTIONARY
  5
47
102
{ACAD_REACTORS
330
C
102
}
330
C
100
AcDbDictionary
281
     1
  3
A0
350
48
  3
A1
350
49
  3
A2
350
4A
  3
A3
350
4B
  3
A4
350
4C
  3
A5
350
4D
  3
A6
350
4E
  3
A7
350
4F
  3
A8
350
50
  3
A9
350
51
  3
B0
350
52
  3
B1
350
53
  3
B2
350
54
  3
B3
350
55
  3
B4
350
56
  3
B5
350
57
  3
B6
350
58
  3
B7
350
59
  3
B8
350
5A
  3
B9
350
5B
  3
C0
350
5C
  3
C1
350
5D
  3
C2
350
5E
  3
C3
350
5F
  3
C4
350
60
  3
C5
350
61
  3
C6
350
62
  3
C7
350
63
  3
C8
350
64
  3
C9
350
65
  3
D0
350
66
  3
D1
350
67
  3
D2
350
68
  0
DICTIONARY
  5
1E2
102
{ACAD_REACTORS
330
C
102
}
330
C
100
AcDbDictionary
281
     1
  0
DICTIONARY
  5
1DC
102
{ACAD_REACTORS
330
C
102
}
330
C
100
AcDbDictionary
281
     1
  0
DICTIONARY
  5
148
102
{ACAD_REACTORS
330
C
102
}
330
C
100
AcDbDictionary
281
     1
  0
XRECORD
  5
1E3
102
{ACAD_REACTORS
330
C
102
}
330
C
100
AcDbXrecord
280
     1
  1
DWGPROPS COOKIE
  2

  3

  4

  6

  7

  8
120170442
  9

300
=
301
=
302
=
303
=
304
=
305
=
306
=
307
=
308
=
309
=
 40
0.0
 41
2458311.084872755
 42
2458321.314732222
  1

 90
        0
  0
DICTIONARY
  5
17F
102
{ACAD_REACTORS
330
17E
102
}
330
17E
100
AcDbDictionary
281
     1
  0
LAYOUT
  5
1E
102
{ACAD_REACTORS
330
1A
102
}
330
1A
100
AcDbPlotSettings
  1

  2
none_device
  4

  6

 40
0.0
 41
0.0
 42
0.0
 43
0.0
 44
0.0
 45
0.0
 46
0.0
 47
0.0
 48
0.0
 49
0.0
140
0.0
141
0.0
142
1.0
143
1.0
 70
   688
 72
     1
 73
     0
 74
     5
  7

 75
    16
147
1.0
148
0.0
149
0.0
100
AcDbLayout
  1
Layout1
 70
     1
 71
     1
 10
0.0
 20
0.0
 11
420.0
 21
297.0
 12
0.0
 22
0.0
 32
0.0
 14
1.000000000000000E+20
 24
1.000000000000000E+20
 34
1.000000000000000E+20
 15
-1.000000000000000E+20
 25
-1.000000000000000E+20
 35
-1.000000000000000E+20
146
0.0
 13
0.0
 23
0.0
 33
0.0
 16
1.0
 26
0.0
 36
0.0
 17
0.0
 27
1.0
 37
0.0
 76
     0
330
1B
  0
LAYOUT
  5
26
102
{ACAD_REACTORS
330
1A
102
}
330
1A
100
AcDbPlotSettings
  1

  2
none_device
  4

  6

 40
0.0
 41
0.0
 42
0.0
 43
0.0
 44
0.0
 45
0.0
 46
0.0
 47
0.0
 48
0.0
 49
0.0
140
0.0
141
0.0
142
1.0
143
1.0
 70
   688
 72
     1
 73
     0
 74
     5
  7

 75
    16
147
1.0
148
0.0
149
0.0
100
AcDbLayout
  1
Layout2
 70
     1
 71
     2
 10
0.0
 20
0.0
 11
0.0
 21
0.0
 12
0.0
 22
0.0
 32
0.0
 14
0.0
 24
0.0
 34
0.0
 15
0.0
 25
0.0
 35
0.0
146
0.0
 13
0.0
 23
0.0
 33
0.0
 16
1.0
 26
0.0
 36
0.0
 17
0.0
 27
1.0
 37
0.0
 76
     0
330
23
  0
LAYOUT
  5
22
102
{ACAD_REACTORS
330
1A
102
}
330
1A
100
AcDbPlotSettings
  1

  2
none_device
  4
ANSI_A_(11.00_x_8.50_Inches)
  6

 40
6.35
 41
19.05
 42
6.35000508
 43
19.05000254
 44
279.4
 45
215.9
 46
124.9314152981898
 47
18.72812411078889
 48
0.0
 49
0.0
140
0.0
141
0.0
142
0.0284893299622409
143
1.0
 70
  1696
 72
     0
 73
     0
 74
     0
  7

 75
     0
147
0.0235690232323232
148
0.0
149
0.0
100
AcDbLayout
  1
Model
 70
     1
 71
     0
 10
0.0
 20
0.0
 11
420.0
 21
297.0
 12
0.0
 22
0.0
 32
0.0
 14
-103.1250000000002
 24
-49.97180738881175
 34
0.0
 15
87.67227809435462
 25
60.27499999999998
 35
0.0
146
0.0
 13
0.0
 23
0.0
 33
0.0
 16
1.0
 26
0.0
 36
0.0
 17
0.0
 27
1.0
 37
0.0
 76
     0
330
1F
331
29
  0
MLINESTYLE
  5
18
102
{ACAD_REACTORS
330
17
102
}
330
17
100
AcDbMlineStyle
  2
Standard
 70
     0
  3

 62
   256
 51
90.0
 52
90.0
 71
     2
 49
0.5
 62
   256
  6
BYLAYER
 49
-0.5
 62
   256
  6
BYLAYER
  0
ACDBPLACEHOLDER
  5
F
102
{ACAD_REACTORS
330
E
102
}
330
E
  0
SCALE
  5
48
102
{ACAD_REACTORS
330
47
102
}
330
47
100
AcDbScale
 70
     0
300
1:1
140
1.0
141
1.0
290
     1
  0
SCALE
  5
49
102
{ACAD_REACTORS
330
47
102
}
330
47
100
AcDbScale
 70
     0
300
1:2
140
1.0
141
2.0
290
     0
  0
SCALE
  5
4A
102
{ACAD_REACTORS
330
47
102
}
330
47
100
AcDbScale
 70
     0
300
1:4
140
1.0
141
4.0
290
     0
  0
SCALE
  5
4B
102
{ACAD_REACTORS
330
47
102
}
330
47
100
AcDbScale
 70
     0
300
1:5
140
1.0
141
5.0
290
     0
  0
SCALE
  5
4C
102
{ACAD_REACTORS
330
47
102
}
330
47
100
AcDbScale
 70
     0
300
1:8
140
1.0
141
8.0
290
     0
  0
SCALE
  5
4D
102
{ACAD_REACTORS
330
47
102
}
330
47
100
AcDbScale
 70
     0
300
1:10
140
1.0
141
10.0
290
     0
  0
SCALE
  5
4E
102
{ACAD_REACTORS
330
47
102
}
330
47
100
AcDbScale
 70
     0
300
1:16
140
1.0
141
16.0
290
     0
  0
SCALE
  5
4F
102
{ACAD_REACTORS
330
47
102
}
330
47
100
AcDbScale
 70
     0
300
1:20
140
1.0
141
20.0
290
     0
  0
SCALE
  5
50
102
{ACAD_REACTORS
330
47
102
}
330
47
100
AcDbScale
 70
     0
300
1:30
140
1.0
141
30.0
290
     0
  0
SCALE
  5
51
102
{ACAD_REACTORS
330
47
102
}
330
47
100
AcDbScale
 70
     0
300
1:40
140
1.0
141
40.0
290
     0
  0
SCALE
  5
52
102
{ACAD_REACTORS
330
47
102
}
330
47
100
AcDbScale
 70
     0
300
1:50
140
1.0
141
50.0
290
     0
  0
SCALE
  5
53
102
{ACAD_REACTORS
330
47
102
}
330
47
100
AcDbScale
 70
     0
300
1:100
140
1.0
141
100.0
290
     0
  0
SCALE
  5
54
102
{ACAD_REACTORS
330
47
102
}
330
47
100
AcDbScale
 70
     0
300
2:1
140
2.0
141
1.0
290
     0
  0
SCALE
  5
55
102
{ACAD_REACTORS
330
47
102
}
330
47
100
AcDbScale
 70
     0
300
4:1
140
4.0
141
1.0
290
     0
  0
SCALE
  5
56
102
{ACAD_REACTORS
330
47
102
}
330
47
100
AcDbScale
 70
     0
300
8:1
140
8.0
141
1.0
290
     0
  0
SCALE
  5
57
102
{ACAD_REACTORS
330
47
102
}
330
47
100
AcDbScale
 70
     0
300
10:1
140
10.0
141
1.0
290
     0
  0
SCALE
  5
58
102
{ACAD_REACTORS
330
47
102
}
330
47
100
AcDbScale
 70
     0
300
100:1
140
100.0
141
1.0
290
     0
  0
SCALE
  5
59
102
{ACAD_REACTORS
330
47
102
}
330
47
100
AcDbScale
 70
     0
300
1/128" = 1'-0"
140
0.0078125
141
12.0
290
     0
  0
SCALE
  5
5A
102
{ACAD_REACTORS
330
47
102
}
330
47
100
AcDbScale
 70
     0
300
1/64" = 1'-0"
140
0.015625
141
12.0
290
     0
  0
SCALE
  5
5B
102
{ACAD_REACTORS
330
47
102
}
330
47
100
AcDbScale
 70
     0
300
1/32" = 1'-0"
140
0.03125
141
12.0
290
     0
  0
SCALE
  5
5C
102
{ACAD_REACTORS
330
47
102
}
330
47
100
AcDbScale
 70
     0
300
1/16" = 1'-0"
140
0.0625
141
12.0
290
     0
  0
SCALE
  5
5D
102
{ACAD_REACTORS
330
47
102
}
330
47
100
AcDbScale
 70
     0
300
3/32" = 1'-0"
140
0.09375
141
12.0
290
     0
  0
SCALE
  5
5E
102
{ACAD_REACTORS
330
47
102
}
330
47
100
AcDbScale
 70
     0
300
1/8" = 1'-0"
140
0.125
141
12.0
290
     0
  0
SCALE
  5
5F
102
{ACAD_REACTORS
330
47
102
}
330
47
100
AcDbScale
 70
     0
300
3/16" = 1'-0"
140
0.1875
141
12.0
290
     0
  0
SCALE
  5
60
102
{ACAD_REACTORS
330
47
102
}
330
47
100
AcDbScale
 70
     0
300
1/4" = 1'-0"
140
0.25
141
12.0
290
     0
  0
SCALE
  5
61
102
{ACAD_REACTORS
330
47
102
}
330
47
100
AcDbScale
 70
     0
300
3/8" = 1'-0"
140
0.375
141
12.0
290
     0
  0
SCALE
  5
62
102
{ACAD_REACTORS
330
47
102
}
330
47
100
AcDbScale
 70
     0
300
1/2" = 1'-0"
140
0.5
141
12.0
290
     0
  0
SCALE
  5
63
102
{ACAD_REACTORS
330
47
102
}
330
47
100
AcDbScale
 70
     0
300
3/4" = 1'-0"
140
0.75
141
12.0
290
     0
  0
SCALE
  5
64
102
{ACAD_REACTORS
330
47
102
}
330
47
100
AcDbScale
 70
     0
300
1" = 1'-0"
140
1.0
141
12.0
290
     0
  0
SCALE
  5
65
102
{ACAD_REACTORS
330
47
102
}
330
47
100
AcDbScale
 70
     0
300
1-1/2" = 1'-0"
140
1.5
141
12.0
290
     0
  0
SCALE
  5
66
102
{ACAD_REACTORS
330
47
102
}
330
47
100
AcDbScale
 70
     0
300
3" = 1'-0"
140
3.0
141
12.0
290
     0
  0
SCALE
  5
67
102
{ACAD_REACTORS
330
47
102
}
330
47
100
AcDbScale
 70
     0
300
6" = 1'-0"
140
6.0
141
12.0
290
     0
  0
SCALE
  5
68
102
{ACAD_REACTORS
330
47
102
}
330
47
100
AcDbScale
 70
     0
300
1'-0" = 1'-0"
140
12.0
141
12.0
290
     0
  0
ENDSEC
  0
EOF
