  0
SECTION
  2
HEADER
  9
$ACADVER
  1
AC1015
  9
$ACADMAINTVER
 70
     6
  9
$DWGCODEPAGE
  3
ANSI_949
  9
$INSBASE
 10
0.0
 20
0.0
 30
0.0
  9
$EXTMIN
 10
-71.97511233999985
 20
-49.97180738881174
 30
0.0
  9
$EXTMAX
 10
89.45089647534587
 20
52.64618701882803
 30
0.0
  9
$LIMMIN
 10
0.0
 20
0.0
  9
$LIMMAX
 10
420.0
 20
297.0
  9
$ORTHOMODE
 70
     1
  9
$REGENMODE
 70
     1
  9
$FILLMODE
 70
     1
  9
$QTEXTMODE
 70
     0
  9
$MIRRTEXT
 70
     1
  9
$LTSCALE
 40
1.0
  9
$ATTMODE
 70
     1
  9
$TEXTSIZE
 40
3.5
  9
$TRACEWID
 40
1.0
  9
$TEXTSTYLE
  7
Standard
  9
$CLAYER
  8
0
  9
$CELTYPE
  6
ByLayer
  9
$CECOLOR
 62
   256
  9
$CELTSCALE
 40
1.0
  9
$DISPSILH
 70
     0
  9
$DIMSCALE
 40
1.0
  9
$DIMASZ
 40
3.302
  9
$DIMEXO
 40
1.0
  9
$DIMDLI
 40
3.75
  9
$DIMRND
 40
0.0
  9
$DIMDLE
 40
0.0
  9
$DIMEXE
 40
1.0
  9
$DIMTP
 40
0.0
  9
$DIMTM
 40
0.0
  9
$DIMTXT
 40
3.5
  9
$DIMCEN
 40
2.5
  9
$DIMTSZ
 40
0.0
  9
$DIMTOL
 70
     0
  9
$DIMLIM
 70
     0
  9
$DIMTIH
 70
     1
  9
$DIMTOH
 70
     1
  9
$DIMSE1
 70
     0
  9
$DIMSE2
 70
     0
  9
$DIMTAD
 70
     1
  9
$DIMZIN
 70
     0
  9
$DIMBLK
  1

  9
$DIMASO
 70
     1
  9
$DIMSHO
 70
     1
  9
$DIMPOST
  1

  9
$DIMAPOST
  1

  9
$DIMALT
 70
     0
  9
$DIMALTD
 70
     3
  9
$DIMALTF
 40
0.0393700787401575
  9
$DIMLFAC
 40
1.0
  9
$DIMTOFL
 70
     1
  9
$DIMTVP
 40
0.0
  9
$DIMTIX
 70
     0
  9
$DIMSOXD
 70
     0
  9
$DIMSAH
 70
     0
  9
$DIMBLK1
  1

  9
$DIMBLK2
  1

  9
$DIMSTYLE
  2
ISO-25
  9
$DIMCLRD
 70
     0
  9
$DIMCLRE
 70
     0
  9
$DIMCLRT
 70
     0
  9
$DIMTFAC
 40
1.0
  9
$DIMGAP
 40
1.524
  9
$DIMJUST
 70
     0
  9
$DIMSD1
 70
     0
  9
$DIMSD2
 70
     0
  9
$DIMTOLJ
 70
     0
  9
$DIMTZIN
 70
     0
  9
$DIMALTZ
 70
     0
  9
$DIMALTTZ
 70
     0
  9
$DIMUPT
 70
     0
  9
$DIMDEC
 70
     2
  9
$DIMTDEC
 70
     2
  9
$DIMALTU
 70
     2
  9
$DIMALTTD
 70
     3
  9
$DIMTXSTY
  7
Standard
  9
$DIMAUNIT
 70
     0
  9
$DIMADEC
 70
     2
  9
$DIMALTRND
 40
0.0
  9
$DIMAZIN
 70
     0
  9
$DIMDSEP
 70
    44
  9
$DIMATFIT
 70
     3
  9
$DIMFRAC
 70
     0
  9
$DIMLDRBLK
  1

  9
$DIMLUNIT
 70
     2
  9
$DIMLWD
 70
    -2
  9
$DIMLWE
 70
    -2
  9
$DIMTMOVE
 70
     0
  9
$LUNITS
 70
     2
  9
$LUPREC
 70
     2
  9
$SKETCHINC
 40
1.0
  9
$FILLETRAD
 40
10.0
  9
$AUNITS
 70
     0
  9
$AUPREC
 70
     2
  9
$MENU
  1
.
  9
$ELEVATION
 40
0.0
  9
$PELEVATION
 40
0.0
  9
$THICKNESS
 40
0.0
  9
$LIMCHECK
 70
     0
  9
$CHAMFERA
 40
0.0
  9
$CHAMFERB
 40
0.0
  9
$CHAMFERC
 40
0.0
  9
$CHAMFERD
 40
0.0
  9
$SKPOLY
 70
     0
  9
$TDCREATE
 40
2458311.571143866
  9
$TDUCREATE
 40
2458311.196143866
  9
$TDUPDATE
 40
2458321.646721308
  9
$TDUUPDATE
 40
2458321.271721308
  9
$TDINDWG
 40
0.0004914583
  9
$TDUSRTIMER
 40
0.0004914468
  9
$USRTIMER
 70
     1
  9
$ANGBASE
 50
0.0
  9
$ANGDIR
 70
     0
  9
$PDMODE
 70
     0
  9
$PDSIZE
 40
-1.0
  9
$PLINEWID
 40
0.0
  9
$SPLFRAME
 70
     0
  9
$SPLINETYPE
 70
     6
  9
$SPLINESEGS
 70
     8
  9
$HANDSEED
  5
23E
  9
$SURFTAB1
 70
     6
  9
$SURFTAB2
 70
     6
  9
$SURFTYPE
 70
     6
  9
$SURFU
 70
     6
  9
$SURFV
 70
     6
  9
$UCSBASE
  2

  9
$UCSNAME
  2

  9
$UCSORG
 10
0.0
 20
0.0
 30
0.0
  9
$UCSXDIR
 10
1.0
 20
0.0
 30
0.0
  9
$UCSYDIR
 10
0.0
 20
1.0
 30
0.0
  9
$UCSORTHOREF
  2

  9
$UCSORTHOVIEW
 70
     0
  9
$UCSORGTOP
 10
0.0
 20
0.0
 30
0.0
  9
$UCSORGBOTTOM
 10
0.0
 20
0.0
 30
0.0
  9
$UCSORGLEFT
 10
0.0
 20
0.0
 30
0.0
  9
$UCSORGRIGHT
 10
0.0
 20
0.0
 30
0.0
  9
$UCSORGFRONT
 10
0.0
 20
0.0
 30
0.0
  9
$UCSORGBACK
 10
0.0
 20
0.0
 30
0.0
  9
$PUCSBASE
  2

  9
$PUCSNAME
  2

  9
$PUCSORG
 10
0.0
 20
0.0
 30
0.0
  9
$PUCSXDIR
 10
1.0
 20
0.0
 30
0.0
  9
$PUCSYDIR
 10
0.0
 20
1.0
 30
0.0
  9
$PUCSORTHOREF
  2

  9
$PUCSORTHOVIEW
 70
     0
  9
$PUCSORGTOP
 10
0.0
 20
0.0
 30
0.0
  9
$PUCSORGBOTTOM
 10
0.0
 20
0.0
 30
0.0
  9
$PUCSORGLEFT
 10
0.0
 20
0.0
 30
0.0
  9
$PUCSORGRIGHT
 10
0.0
 20
0.0
 30
0.0
  9
$PUCSORGFRONT
 10
0.0
 20
0.0
 30
0.0
  9
$PUCSORGBACK
 10
0.0
 20
0.0
 30
0.0
  9
$USERI1
 70
     0
  9
$USERI2
 70
     0
  9
$USERI3
 70
     0
  9
$USERI4
 70
     0
  9
$USERI5
 70
     0
  9
$USERR1
 40
0.0
  9
$USERR2
 40
0.0
  9
$USERR3
 40
0.0
  9
$USERR4
 40
0.0
  9
$USERR5
 40
0.0
  9
$WORLDVIEW
 70
     1
  9
$SHADEDGE
 70
     3
  9
$SHADEDIF
 70
    70
  9
$TILEMODE
 70
     1
  9
$MAXACTVP
 70
    64
  9
$PINSBASE
 10
0.0
 20
0.0
 30
0.0
  9
$PLIMCHECK
 70
     0
  9
$PEXTMIN
 10
1.000000000000000E+20
 20
1.000000000000000E+20
 30
1.000000000000000E+20
  9
$PEXTMAX
 10
-1.000000000000000E+20
 20
-1.000000000000000E+20
 30
-1.000000000000000E+20
  9
$PLIMMIN
 10
0.0
 20
0.0
  9
$PLIMMAX
 10
0.0
 20
0.0
  9
$UNITMODE
 70
     0
  9
$VISRETAIN
 70
     1
  9
$PLINEGEN
 70
     0
  9
$PSLTSCALE
 70
     1
  9
$TREEDEPTH
 70
  3020
  9
$CMLSTYLE
  2
Standard
  9
$CMLJUST
 70
     0
  9
$CMLSCALE
 40
20.0
  9
$PROXYGRAPHICS
 70
     1
  9
$MEASUREMENT
 70
     1
  9
$CELWEIGHT
370
    -1
  9
$ENDCAPS
280
     0
  9
$JOINSTYLE
280
     0
  9
$LWDISPLAY
290
     1
  9
$INSUNITS
 70
     4
  9
$HYPERLINKBASE
  1

  9
$STYLESHEET
  1

  9
$XEDIT
290
     1
  9
$CEPSNTYPE
380
     0
  9
$PSTYLEMODE
290
     1
  9
$FINGERPRINTGUID
  2
{9F025C0A-CECE-4839-BDD0-4959FE03D79C}
  9
$VERSIONGUID
  2
{FAEB1C32-E019-11D5-929B-00C0DF256EC4}
  9
$EXTNAMES
290
     1
  9
$PSVPSCALE
 40
0.0
  9
$OLESTARTUP
290
     0
  0
ENDSEC
  0
SECTION
  2
CLASSES
  0
CLASS
  1
ACDBDICTIONARYWDFLT
  2
AcDbDictionaryWithDefault
  3
ObjectDBX Classes
 90
        0
280
     0
281
     0
  0
CLASS
  1
VISUALSTYLE
  2
AcDbVisualStyle
  3
ObjectDBX Classes
 90
     4095
280
     0
281
     0
  0
CLASS
  1
MATERIAL
  2
AcDbMaterial
  3
ObjectDBX Classes
 90
     1153
280
     0
281
     0
  0
CLASS
  1
SCALE
  2
AcDbScale
  3
ObjectDBX Classes
 90
     1153
280
     0
281
     0
  0
CLASS
  1
SUN
  2
AcDbSun
  3
SCENEOE
 90
     1153
280
     0
281
     0
  0
CLASS
  1
ACDBPLACEHOLDER
  2
AcDbPlaceHolder
  3
ObjectDBX Classes
 90
        0
280
     0
281
     0
  0
CLASS
  1
LAYOUT
  2
AcDbLayout
  3
ObjectDBX Classes
 90
        0
280
     0
281
     0
  0
CLASS
  1
TABLESTYLE
  2
AcDbTableStyle
  3
ObjectDBX Classes
 90
     4095
280
     0
281
     0
  0
CLASS
  1
MLEADERSTYLE
  2
AcDbMLeaderStyle
  3
ACDB_MLEADERSTYLE_CLASS
 90
     4095
280
     0
281
     0
  0
CLASS
  1
DICTIONARYVAR
  2
AcDbDictionaryVar
  3
ObjectDBX Classes
 90
        0
280
     0
281
     0
  0
ENDSEC
  0
SECTION
  2
TABLES
  0
TABLE
  2
VPORT
  5
8
330
0
100
AcDbSymbolTable
 70
     1
  0
VPORT
  5
29
330
8
100
AcDbSymbolTableRecord
100
AcDbViewportTableRecord
  2
*Active
 70
     0
 10
0.0
 20
0.0
 11
1.0
 21
1.0
 12
8.737892067673002
 22
1.337189815008138
 13
0.0
 23
0.0
 14
10.0
 24
10.0
 15
10.0
 25
10.0
 16
0.0
 26
0.0
 36
1.0
 17
0.0
 27
0.0
 37
0.0
 40
104.6703542957925
 41
1.782762691853601
 42
50.0
 43
0.0
 44
0.0
 50
0.0
 51
0.0
 71
    16
 72
  2000
 73
     1
 74
     3
 75
     0
 76
     0
 77
     0
 78
     0
281
     0
 65
     1
110
0.0
120
0.0
130
0.0
111
1.0
121
0.0
131
0.0
112
0.0
122
1.0
132
0.0
 79
     0
146
0.0
  0
ENDTAB
  0
TABLE
  2
LTYPE
  5
5
330
0
100
AcDbSymbolTable
 70
     6
  0
LTYPE
  5
14
330
5
100
AcDbSymbolTableRecord
100
AcDbLinetypeTableRecord
  2
ByBlock
 70
     0
  3

 72
    65
 73
     0
 40
0.0
  0
LTYPE
  5
15
330
5
100
AcDbSymbolTableRecord
100
AcDbLinetypeTableRecord
  2
ByLayer
 70
     0
  3

 72
    65
 73
     0
 40
0.0
  0
LTYPE
  5
16
330
5
100
AcDbSymbolTableRecord
100
AcDbLinetypeTableRecord
  2
Continuous
 70
     0
  3
Solid line
 72
    65
 73
     0
 40
0.0
  0
LTYPE
  5
6A
330
5
100
AcDbSymbolTableRecord
100
AcDbLinetypeTableRecord
  2
HIDDEN
 70
     0
  3
Hidden __ __ __ __ __ __ __ __ __ __ __ __ __ __
 72
    65
 73
     2
 40
1.905
 49
1.27
 74
     0
 49
-0.635
 74
     0
  0
LTYPE
  5
6B
330
5
100
AcDbSymbolTableRecord
100
AcDbLinetypeTableRecord
  2
PHANTOM
 70
     0
  3
Phantom ______  __  __  ______  __  __  ______
 72
    65
 73
     6
 40
12.7
 49
6.35
 74
     0
 49
-1.27
 74
     0
 49
1.27
 74
     0
 49
-1.27
 74
     0
 49
1.27
 74
     0
 49
-1.27
 74
     0
  0
LTYPE
  5
6C
330
5
100
AcDbSymbolTableRecord
100
AcDbLinetypeTableRecord
  2
CENTER
 70
     0
  3
Center ____ _ ____ _ ____ _ ____ _ ____ _ ____
 72
    65
 73
     4
 40
10.16
 49
6.35
 74
     0
 49
-1.27
 74
     0
 49
1.27
 74
     0
 49
-1.27
 74
     0
  0
LTYPE
  5
6D
330
5
100
AcDbSymbolTableRecord
100
AcDbLinetypeTableRecord
  2
CENTERX2
 70
     0
  3
Center (2x) ________  __  ________  __  _____
 72
    65
 73
     4
 40
20.32
 49
12.7
 74
     0
 49
-2.54
 74
     0
 49
2.54
 74
     0
 49
-2.54
 74
     0
  0
LTYPE
  5
6E
330
5
100
AcDbSymbolTableRecord
100
AcDbLinetypeTableRecord
  2
DOT2
 70
     0
  3
Dot (.5x) ........................................
 72
    65
 73
     2
 40
0.635
 49
0.0
 74
     0
 49
-0.635
 74
     0
  0
ENDTAB
  0
TABLE
  2
LAYER
  5
2
102
{ACAD_XDICTIONARY
360
17E
102
}
330
0
100
AcDbSymbolTable
 70
    18
  0
LAYER
  5
10
330
2
100
AcDbSymbolTableRecord
100
AcDbLayerTableRecord
  2
0
 70
     0
 62
     7
  6
Continuous
370
    -3
390
F
  0
LAYER
  5
6F
330
2
100
AcDbSymbolTableRecord
100
AcDbLayerTableRecord
  2
FORMAT
 70
     0
 62
     2
  6
Continuous
370
    -3
390
F
  0
LAYER
  5
70
330
2
100
AcDbSymbolTableRecord
100
AcDbLayerTableRecord
  2
외형선
 70
     0
 62
     4
  6
Continuous
370
    30
390
F
  0
LAYER
  5
71
330
2
100
AcDbSymbolTableRecord
100
AcDbLayerTableRecord
  2
숨은선
 70
     0
 62
     2
  6
HIDDEN
370
    15
390
F
  0
LAYER
  5
72
330
2
100
AcDbSymbolTableRecord
100
AcDbLayerTableRecord
  2
중심선
 70
     0
 62
     1
  6
CENTERX2
370
    -3
390
F
  0
LAYER
  5
73
330
2
100
AcDbSymbolTableRecord
100
AcDbLayerTableRecord
  2
파단선
 70
     0
 62
     4
  6
Continuous
370
    -3
390
F
  0
LAYER
  5
74
330
2
100
AcDbSymbolTableRecord
100
AcDbLayerTableRecord
  2
해칭선
 70
     0
 62
   100
  6
Continuous
370
    -3
390
F
  0
LAYER
  5
75
330
2
100
AcDbSymbolTableRecord
100
AcDbLayerTableRecord
  2
가는실선
 70
     0
 62
     4
  6
Continuous
370
    -3
390
F
  0
LAYER
  5
76
330
2
100
AcDbSymbolTableRecord
100
AcDbLayerTableRecord
  2
치수_보조선
 70
     0
 62
     4
  6
Continuous
370
    -3
390
F
  0
LAYER
  5
77
330
2
100
AcDbSymbolTableRecord
100
AcDbLayerTableRecord
  2
치수문자_일반주서
 70
     0
 62
     7
  6
Continuous
370
    15
390
F
  0
LAYER
  5
78
330
2
100
AcDbSymbolTableRecord
100
AcDbLayerTableRecord
  2
개별주서
 70
     0
 62
   100
  6
Continuous
370
    30
390
F
  0
LAYER
  5
79
330
2
100
AcDbSymbolTableRecord
100
AcDbLayerTableRecord
  2
중간선
 70
     0
 62
     2
  6
Continuous
370
    15
390
F
  0
LAYER
  5
7A
330
2
100
AcDbSymbolTableRecord
100
AcDbLayerTableRecord
  2
윤곽선
 70
     0
 62
     3
  6
Continuous
370
    40
390
F
  0
LAYER
  5
7B
330
2
100
AcDbSymbolTableRecord
100
AcDbLayerTableRecord
  2
중심마크
 70
     0
 62
   100
  6
Continuous
370
    30
390
F
  0
LAYER
  5
7C
330
2
100
AcDbSymbolTableRecord
100
AcDbLayerTableRecord
  2
가상선
 70
     0
 62
     4
  6
PHANTOM
370
    -3
390
F
  0
LAYER
  5
7D
330
2
100
AcDbSymbolTableRecord
100
AcDbLayerTableRecord
  2
특수지정선
 70
     0
 62
     5
  6
CENTERX2
370
    60
390
F
  0
LAYER
  5
7E
330
2
100
AcDbSymbolTableRecord
100
AcDbLayerTableRecord
  2
참조1
 70
     0
 62
    -4
  6
Continuous
370
    -3
390
F
  0
LAYER
  5
19E
330
2
100
AcDbSymbolTableRecord
100
AcDbLayerTableRecord
  2
Defpoints
 70
     0
 62
     7
  6
Continuous
290
     0
370
    -3
390
F
  0
ENDTAB
  0
TABLE
  2
STYLE
  5
3
330
0
100
AcDbSymbolTable
 70
     2
  0
STYLE
  5
11
330
3
100
AcDbSymbolTableRecord
100
AcDbTextStyleTableRecord
  2
Standard
 70
     0
 40
0.0
 41
1.0
 50
0.0
 71
     0
 42
3.5
  3
txt
  4

  0
STYLE
  5
94
330
3
100
AcDbSymbolTableRecord
100
AcDbTextStyleTableRecord
  2
SLDTEXTSTYLE0
 70
     0
 40
0.0
 41
0.75
 50
0.0
 71
     0
 42
3.5
  3
TXT
  4

  0
ENDTAB
  0
TABLE
  2
VIEW
  5
6
330
0
100
AcDbSymbolTable
 70
     0
  0
ENDTAB
  0
TABLE
  2
UCS
  5
7
330
0
100
AcDbSymbolTable
 70
     0
  0
ENDTAB
  0
TABLE
  2
APPID
  5
9
330
0
100
AcDbSymbolTable
 70
     4
  0
APPID
  5
12
330
9
100
AcDbSymbolTableRecord
100
AcDbRegAppTableRecord
  2
ACAD
 70
     0
  0
APPID
  5
1A5
330
9
100
AcDbSymbolTableRecord
100
AcDbRegAppTableRecord
  2
PE_URL
 70
     0
  0
APPID
  5
23C
330
9
100
AcDbSymbolTableRecord
100
AcDbRegAppTableRecord
  2
ACAD_DSTYLE_DIMFLIPARROW_SYMBOL
 70
     0
  0
APPID
  5
23D
330
9
100
AcDbSymbolTableRecord
100
AcDbRegAppTableRecord
  2
ACAD_DSTYLE_DIMFLIPARROW_WHICH_SYMBOL
 70
     0
  0
ENDTAB
  0
TABLE
  2
DIMSTYLE
  5
A
330
0
100
AcDbSymbolTable
 70
     5
100
AcDbDimStyleTable
  0
DIMSTYLE
105
27
330
A
100
AcDbSymbolTableRecord
100
AcDbDimStyleTableRecord
  2
ISO-25
 70
     0
 41
2.5
 42
0.625
 43
3.75
 44
1.25
 73
     0
 74
     0
 77
     1
 78
     8
140
2.5
141
2.5
143
0.03937007874016
147
0.625
171
     3
172
     1
178
     0
271
     2
272
     2
274
     3
278
    44
283
     0
284
     8
340
11
  0
DIMSTYLE
105
BF
330
A
100
AcDbSymbolTableRecord
100
AcDbDimStyleTableRecord
  2
SLDDIMSTYLE0
 70
     0
 41
3.302
 44
0.0
 45
0.000000001
 73
     0
 74
     0
 77
     1
 78
     4
 79
     1
140
3.5
147
0.875
172
     1
173
     1
178
     0
271
     2
272
     2
276
     2
284
    12
289
     0
340
94
  0
DIMSTYLE
105
CD
330
A
100
AcDbSymbolTableRecord
100
AcDbDimStyleTableRecord
  2
SLDDIMSTYLE1
 70
     0
 41
3.302
 44
0.0
 45
0.000000001
 73
     0
 74
     0
 77
     1
 78
     4
 79
     1
140
3.5
143
0.0393700787401575
147
0.875
148
0.000000001
170
     1
172
     1
173
     1
178
     0
271
     2
272
     2
276
     2
284
    12
289
     0
340
94
  0
DIMSTYLE
105
E3
102
{ACAD_REACTORS
330
E2
330
1C4
330
CC
330
F6
330
BE
102
}
330
A
100
AcDbSymbolTableRecord
100
AcDbDimStyleTableRecord
  2
SLDDIMSTYLE2
 70
     0
 41
3.302
 44
0.0
 45
0.000000001
 73
     0
 74
     0
 77
     1
 78
     4
 79
     1
140
3.5
143
0.0393700787401575
147
0.875
148
0.000000001
170
     1
173
     1
178
     0
271
     2
272
     2
276
     2
284
    12
340
94
  0
DIMSTYLE
105
F7
330
A
100
AcDbSymbolTableRecord
100
AcDbDimStyleTableRecord
  2
SLDDIMSTYLE3
 70
     0
 41
3.302
 44
0.0
 45
0.000000001
 73
     0
 74
     0
 77
     1
 78
    12
 79
     3
140
3.5
143
0.0393700787401575
147
0.875
148
0.000000001
170
     1
173
     1
178
     0
271
     2
272
     2
276
     2
284
    12
340
94
  0
ENDTAB
  0
TABLE
  2
BLOCK_RECORD
  5
1
330
0
100
AcDbSymbolTable
 70
    12
  0
BLOCK_RECORD
  5
1F
330
1
100
AcDbSymbolTableRecord
100
AcDbBlockTableRecord
  2
*Model_Space
340
22
  0
BLOCK_RECORD
  5
1B
330
1
100
AcDbSymbolTableRecord
100
AcDbBlockTableRecord
  2
*Paper_Space
340
1E
  0
BLOCK_RECORD
  5
23
330
1
100
AcDbSymbolTableRecord
100
AcDbBlockTableRecord
  2
*Paper_Space0
340
26
  0
BLOCK_RECORD
  5
7F
330
1
100
AcDbSymbolTableRecord
100
AcDbBlockTableRecord
  2
블럭10
340
0
102
{BLKREFS
331
B7
102
}
  0
BLOCK_RECORD
  5
C0
330
1
100
AcDbSymbolTableRecord
100
AcDbBlockTableRecord
  2
_D
340
0
  0
BLOCK_RECORD
  5
CE
330
1
100
AcDbSymbolTableRecord
100
AcDbBlockTableRecord
  2
_D_1
340
0
  0
BLOCK_RECORD
  5
E4
330
1
100
AcDbSymbolTableRecord
100
AcDbBlockTableRecord
  2
_D_2
340
0
  0
BLOCK_RECORD
  5
F8
330
1
100
AcDbSymbolTableRecord
100
AcDbBlockTableRecord
  2
_D_3
340
0
  0
BLOCK_RECORD
  5
111
330
1
100
AcDbSymbolTableRecord
100
AcDbBlockTableRecord
  2
SW_DOWELSYMBOL_0
340
0
102
{BLKREFS
331
0
331
177
331
19C
102
}
  0
BLOCK_RECORD
  5
1D7
330
1
100
AcDbSymbolTableRecord
100
AcDbBlockTableRecord
  2
*D9
340
0
  0
BLOCK_RECORD
  5
1E9
330
1
100
AcDbSymbolTableRecord
100
AcDbBlockTableRecord
  2
*D10
340
0
  0
ENDTAB
  0
ENDSEC
  0
SECTION
  2
BLOCKS
  0
BLOCK
  5
20
330
1F
100
AcDbEntity
  8
0
100
AcDbBlockBegin
  2
*Model_Space
 70
     0
 10
0.0
 20
0.0
 30
0.0
  3
*Model_Space
  1

  0
ENDBLK
  5
21
330
1F
100
AcDbEntity
  8
0
100
AcDbBlockEnd
  0
BLOCK
  5
1C
330
1B
100
AcDbEntity
 67
     1
  8
0
100
AcDbBlockBegin
  2
*Paper_Space
 70
     0
 10
0.0
 20
0.0
 30
0.0
  3
*Paper_Space
  1

  0
ENDBLK
  5
1D
330
1B
100
AcDbEntity
 67
     1
  8
0
100
AcDbBlockEnd
  0
BLOCK
  5
24
330
23
100
AcDbEntity
  8
0
100
AcDbBlockBegin
  2
*Paper_Space0
 70
     0
 10
0.0
 20
0.0
 30
0.0
  3
*Paper_Space0
  1

  0
ENDBLK
  5
25
330
23
100
AcDbEntity
  8
0
100
AcDbBlockEnd
  0
BLOCK
  5
80
330
7F
100
AcDbEntity
  8
0
100
AcDbBlockBegin
  2
블럭10
 70
     2
 10
0.0
 20
0.0
 30
0.0
  3
블럭10
  1

  0
ELLIPSE
  5
82
330
7F
100
AcDbEntity
  8
중심선
100
AcDbEllipse
 10
20.54032771741204
 20
12.0471743016438
 30
0.0
 11
6.600054785286829
 21
-1.261213355974178E-13
 31
0.0
210
0.0
220
0.0
230
1.0
 40
0.636358354079598
 41
0.9219305317359503
 42
6.513795318482858
  0
ELLIPSE
  5
83
330
7F
100
AcDbEntity
  8
중심선
100
AcDbEllipse
 10
20.54032771746488
 20
12.04717430159265
 30
0.0
 11
3.960054785062283
 21
1.540847449632565E-10
 31
0.0
210
0.0
220
0.0
230
1.0
 40
0.3939339440162632
 41
1.131841032648279
 42
5.62031148352944
  0
LINE
  5
84
330
7F
100
AcDbEntity
  8
중심선
100
AcDbLine
 10
2.268634060543552
 20
16.24717430164393
 30
0.0
 11
5.714909304380834
 21
16.24717430164393
 31
0.0
  0
LINE
  5
85
330
7F
100
AcDbEntity
  8
중심선
100
AcDbLine
 10
5.245725140726316
 20
7.84717430164391
 30
0.0
 11
8.692000384563599
 21
7.84717430164391
 31
0.0
  0
LINE
  5
86
330
7F
100
AcDbEntity
  8
중심선
100
AcDbLine
 10
15.74043728645272
 20
16.24717430164393
 30
0.0
 11
8.692000384563599
 21
7.84717430164391
 31
0.0
  0
LINE
  5
87
330
7F
100
AcDbEntity
  8
중심선
100
AcDbLine
 10
0.1404042013395286
 20
13.71084872107135
 30
0.0
 11
3.58671253028996
 21
13.71088815037384
 31
0.0
  0
LINE
  5
88
330
7F
100
AcDbEntity
  8
중심선
100
AcDbLine
 10
2.750260043222114
 20
10.84717430164391
 30
0.0
 11
6.196535287059397
 21
10.84717430164391
 31
0.0
  0
LINE
  5
89
330
7F
100
AcDbEntity
  8
중심선
100
AcDbLine
 10
12.29416204261559
 20
16.24717430164393
 30
0.0
 11
5.245725140726316
 21
7.84717430164391
 31
0.0
  0
LINE
  5
8A
330
7F
100
AcDbEntity
  8
중심선
100
AcDbLine
 10
10.72767329541681
 20
16.24717430164393
 30
0.0
 11
6.196535287059397
 21
10.84717430164391
 31
0.0
  0
LINE
  5
8B
330
7F
100
AcDbEntity
  8
중심선
100
AcDbLine
 10
7.28139805157953
 20
16.24717430164393
 30
0.0
 11
2.750260043222114
 21
10.84717430164391
 31
0.0
  0
LINE
  5
8C
330
7F
100
AcDbEntity
  8
중심선
100
AcDbLine
 10
5.714909304380834
 20
16.24717430164393
 30
0.0
 11
3.58671253028996
 21
13.71088815037384
 31
0.0
  0
LINE
  5
8D
330
7F
100
AcDbEntity
  8
중심선
100
AcDbLine
 10
2.268634060543552
 20
16.24717430164393
 30
0.0
 11
0.1404042013395286
 21
13.71084872107135
 31
0.0
  0
LINE
  5
8E
330
7F
100
AcDbEntity
  8
중심선
100
AcDbLine
 10
7.28139805157953
 20
16.24717430164393
 30
0.0
 11
10.72767329541681
 21
16.24717430164393
 31
0.0
  0
LINE
  5
8F
330
7F
100
AcDbEntity
  8
중심선
100
AcDbLine
 10
12.29416204261559
 20
16.24717430164393
 30
0.0
 11
15.74043728645272
 21
16.24717430164393
 31
0.0
  0
LINE
  5
90
330
7F
100
AcDbEntity
  8
중심선
100
AcDbLine
 10
19.22036997980202
 20
11.08717430171403
 30
0.0
 11
23.66174974927406
 21
11.08717430171406
 31
0.0
  0
LINE
  5
91
330
7F
100
AcDbEntity
  8
중심선
100
AcDbLine
 10
19.22039502424796
 20
13.00717430171391
 30
0.0
 11
19.22036997980202
 21
11.08717430171403
 31
0.0
  0
LINE
  5
92
330
7F
100
AcDbEntity
  8
중심선
100
AcDbLine
 10
19.22039502424796
 20
13.00717430171391
 30
0.0
 11
26.96566020931264
 21
13.00717430171391
 31
0.0
  0
LINE
  5
93
330
7F
100
AcDbEntity
  8
중심선
100
AcDbLine
 10
22.22332737316547
 20
13.45928029700563
 30
0.0
 11
24.52862924686651
 21
15.39360700705356
 31
0.0
  0
ATTDEF
  5
95
330
7F
100
AcDbEntity
  8
FORMAT
 62
     2
100
AcDbText
 10
4.408487351596664
 20
2.075366912832191
 30
0.0
 40
4.233333333333333
  1
E1030960
 41
0.75
  7
SLDTEXTSTYLE0
 11
4.408487351596664
 21
-0.0412997538344756
 31
0.0
100
AcDbAttributeDefinition
  3

  2
AUTOATTR0
 70
     0
 74
     1
  0
ENDBLK
  5
81
330
7F
100
AcDbEntity
  8
0
100
AcDbBlockEnd
  0
BLOCK
  5
C1
330
C0
100
AcDbEntity
  8
0
100
AcDbBlockBegin
  2
_D
 70
     0
 10
0.0
 20
0.0
 30
0.0
  3
_D
  1

  0
LINE
  5
C3
330
C0
100
AcDbEntity
  8
치수문자_일반주서
 62
     0
370
    -2
100
AcDbLine
 10
-51.16261233999973
 20
11.11249999999999
 30
0.0
 11
-67.10011233999973
 21
11.11249999999993
 31
0.0
  0
LINE
  5
C4
330
C0
100
AcDbEntity
  8
치수문자_일반주서
 62
     0
370
    -2
100
AcDbLine
 10
-51.10011233999973
 20
-11.11250000000001
 30
0.0
 11
-67.10011233999965
 21
-11.11250000000007
 31
0.0
  0
LINE
  5
C5
330
C0
100
AcDbEntity
  8
치수문자_일반주서
 62
     0
370
    -2
100
AcDbLine
 10
-67.10011233999973
 20
11.11249999999993
 30
0.0
 11
-67.10011233999985
 21
47.86249999999993
 31
0.0
  0
LINE
  5
C6
330
C0
100
AcDbEntity
  8
치수문자_일반주서
 62
     0
370
    -2
100
AcDbLine
 10
-67.10011233999973
 20
11.11249999999993
 30
0.0
 11
-67.10011233999965
 21
-11.11250000000007
 31
0.0
  0
LINE
  5
C7
330
C0
100
AcDbEntity
  8
치수문자_일반주서
 62
     0
370
    -2
100
AcDbLine
 10
-67.10011233999974
 20
15.11249999999993
 30
0.0
 11
-67.10011233999975
 21
19.11249999999993
 31
0.0
  0
LINE
  5
C8
330
C0
100
AcDbEntity
  8
치수문자_일반주서
 62
     0
370
    -2
100
AcDbLine
 10
-67.10011233999964
 20
-15.11250000000007
 30
0.0
 11
-67.10011233999963
 21
-19.11250000000007
 31
0.0
  0
SOLID
  5
C9
330
C0
100
AcDbEntity
  8
치수문자_일반주서
 62
     0
100
AcDbTrace
 10
-67.76677900666641
 20
15.11249999999993
 30
0.0
 11
-66.43344567333307
 21
15.11249999999993
 31
0.0
 12
-67.10011233999973
 22
11.11249999999993
 32
0.0
 13
-67.10011233999973
 23
11.11249999999993
 33
0.0
  0
SOLID
  5
CA
330
C0
100
AcDbEntity
  8
치수문자_일반주서
 62
     0
100
AcDbTrace
 10
-66.43344567333297
 20
-15.11250000000007
 30
0.0
 11
-67.76677900666631
 21
-15.11250000000007
 31
0.0
 12
-67.10011233999965
 22
-11.11250000000007
 32
0.0
 13
-67.10011233999965
 23
-11.11250000000007
 33
0.0
  0
MTEXT
  5
CB
330
C0
100
AcDbEntity
  8
치수문자_일반주서
 62
     0
100
AcDbMText
 10
-71.9751123399998
 20
31.48749999999992
 30
0.0
 40
4.0
 41
0.0
 71
     2
 72
     1
  1
\A1;%%c22.23 [7/8]
  7
SLDTEXTSTYLE0
 11
-3.197042680585377E-15
 21
1.0
 31
0.0
 73
     1
 44
1.0
  0
POINT
  5
206
330
C0
100
AcDbEntity
  8
Defpoints
 62
     0
100
AcDbPoint
 10
-51.10011233999973
 20
11.11249999999999
 30
0.0
  0
POINT
  5
207
330
C0
100
AcDbEntity
  8
Defpoints
 62
     0
100
AcDbPoint
 10
-51.03761233999973
 20
-11.11250000000001
 30
0.0
  0
POINT
  5
208
330
C0
100
AcDbEntity
  8
Defpoints
 62
     0
100
AcDbPoint
 10
-67.10011233999967
 20
-11.11250000000007
 30
0.0
  0
ENDBLK
  5
C2
330
C0
100
AcDbEntity
  8
0
100
AcDbBlockEnd
  0
BLOCK
  5
CF
330
CE
100
AcDbEntity
  8
0
100
AcDbBlockBegin
  2
_D_1
 70
     0
 10
0.0
 20
0.0
 30
0.0
  3
_D_1
  1

  0
LINE
  5
D1
330
CE
100
AcDbEntity
  8
치수문자_일반주서
 62
     0
370
    -2
100
AcDbLine
 10
43.14988766000027
 20
11.95868701882795
 30
0.0
 11
43.14988766000027
 21
26.11249999999999
 31
0.0
  0
LINE
  5
D2
330
CE
100
AcDbEntity
  8
치수문자_일반주서
 62
     0
370
    -2
100
AcDbLine
 10
5.049887660000274
 20
5.5353493240694
 30
0.0
 11
5.049887660000273
 21
26.11249999999999
 31
0.0
  0
LINE
  5
D3
330
CE
100
AcDbEntity
  8
치수문자_일반주서
 62
     0
370
    -2
100
AcDbLine
 10
39.14988766000027
 20
26.11249999999999
 30
0.0
 11
9.049887660000273
 21
26.11249999999999
 31
0.0
  0
SOLID
  5
D4
330
CE
100
AcDbEntity
  8
치수문자_일반주서
 62
     0
100
AcDbTrace
 10
39.14988766000027
 20
25.44583333333332
 30
0.0
 11
39.14988766000027
 21
26.77916666666666
 31
0.0
 12
43.14988766000027
 22
26.11249999999999
 32
0.0
 13
43.14988766000027
 23
26.11249999999999
 33
0.0
  0
SOLID
  5
D5
330
CE
100
AcDbEntity
  8
치수문자_일반주서
 62
     0
100
AcDbTrace
 10
9.049887660000273
 20
26.77916666666666
 30
0.0
 11
9.049887660000273
 21
25.44583333333332
 31
0.0
 12
5.049887660000273
 22
26.11249999999999
 32
0.0
 13
5.049887660000273
 23
26.11249999999999
 33
0.0
  0
MTEXT
  5
D6
330
CE
100
AcDbEntity
  8
치수문자_일반주서
 62
     0
100
AcDbMText
 10
24.09988766000027
 20
30.98749999999999
 30
0.0
 40
4.0
 41
0.0
 71
     2
 72
     1
  1
\A1;38.10 [1 1/2]
  7
SLDTEXTSTYLE0
 73
     1
 44
1.0
  0
POINT
  5
D7
330
CE
100
AcDbEntity
  8
Defpoints
 62
     0
100
AcDbPoint
 10
43.14988766000027
 20
11.89618701882795
 30
0.0
  0
POINT
  5
D8
330
CE
100
AcDbEntity
  8
Defpoints
 62
     0
100
AcDbPoint
 10
5.049887660000274
 20
5.4728493240694
 30
0.0
  0
POINT
  5
D9
330
CE
100
AcDbEntity
  8
Defpoints
 62
     0
100
AcDbPoint
 10
5.049887660000274
 20
26.11249999999999
 30
0.0
  0
ENDBLK
  5
D0
330
CE
100
AcDbEntity
  8
0
100
AcDbBlockEnd
  0
BLOCK
  5
E5
330
E4
100
AcDbEntity
  8
0
100
AcDbBlockBegin
  2
_D_2
 70
     0
 10
0.0
 20
0.0
 30
0.0
  3
_D_2
  1

  0
LINE
  5
E7
330
E4
100
AcDbEntity
  8
치수문자_일반주서
 62
     0
370
    -2
100
AcDbLine
 10
43.14988766000027
 20
11.95868701882795
 30
0.0
 11
43.14988766000027
 21
41.1125
 31
0.0
  0
LINE
  5
E8
330
E4
100
AcDbEntity
  8
치수문자_일반주서
 62
     0
370
    -2
100
AcDbLine
 10
-52.10011233999973
 20
10.17499999999999
 30
0.0
 11
-52.10011233999974
 21
41.1125
 31
0.0
  0
LINE
  5
E9
330
E4
100
AcDbEntity
  8
치수문자_일반주서
 62
     0
370
    -2
100
AcDbLine
 10
39.14988766000027
 20
41.1125
 30
0.0
 11
-48.10011233999974
 21
41.1125
 31
0.0
  0
SOLID
  5
EA
330
E4
100
AcDbEntity
  8
치수문자_일반주서
 62
     0
100
AcDbTrace
 10
39.14988766000027
 20
40.44583333333333
 30
0.0
 11
39.14988766000027
 21
41.77916666666666
 31
0.0
 12
43.14988766000027
 22
41.1125
 32
0.0
 13
43.14988766000027
 23
41.1125
 33
0.0
  0
SOLID
  5
EB
330
E4
100
AcDbEntity
  8
치수문자_일반주서
 62
     0
100
AcDbTrace
 10
-48.10011233999974
 20
41.77916666666666
 30
0.0
 11
-48.10011233999974
 21
40.44583333333333
 31
0.0
 12
-52.10011233999974
 22
41.1125
 32
0.0
 13
-52.10011233999974
 23
41.1125
 33
0.0
  0
MTEXT
  5
EC
330
E4
100
AcDbEntity
  8
치수문자_일반주서
 62
     0
100
AcDbMText
 10
-4.475112339999733
 20
45.9875
 30
0.0
 40
4.0
 41
0.0
 71
     2
 72
     1
  1
\A1;95.25 [3 3/4]
  7
SLDTEXTSTYLE0
 73
     1
 44
1.0
  0
POINT
  5
ED
330
E4
100
AcDbEntity
  8
Defpoints
 62
     0
100
AcDbPoint
 10
43.14988766000027
 20
11.89618701882795
 30
0.0
  0
POINT
  5
EE
330
E4
100
AcDbEntity
  8
Defpoints
 62
     0
100
AcDbPoint
 10
-52.10011233999973
 20
10.11249999999999
 30
0.0
  0
POINT
  5
EF
330
E4
100
AcDbEntity
  8
Defpoints
 62
     0
100
AcDbPoint
 10
-52.10011233999973
 20
41.1125
 30
0.0
  0
ENDBLK
  5
E6
330
E4
100
AcDbEntity
  8
0
100
AcDbBlockEnd
  0
BLOCK
  5
F9
330
F8
100
AcDbEntity
  8
0
100
AcDbBlockBegin
  2
_D_3
 70
     0
 10
0.0
 20
0.0
 30
0.0
  3
_D_3
  1

  0
LINE
  5
FB
330
F8
100
AcDbEntity
  8
치수문자_일반주서
 62
     0
370
    -2
100
AcDbLine
 10
43.21238766000027
 20
-11.89618701882794
 30
0.0
 11
58.14988766000035
 21
-11.89618701882788
 31
0.0
  0
LINE
  5
FC
330
F8
100
AcDbEntity
  8
치수문자_일반주서
 62
     0
370
    -2
100
AcDbLine
 10
43.21238766000027
 20
11.89618701882795
 30
0.0
 11
58.14988766000026
 21
11.89618701882801
 31
0.0
  0
LINE
  5
FD
330
F8
100
AcDbEntity
  8
치수문자_일반주서
 62
     0
370
    -2
100
AcDbLine
 10
58.14988766000026
 20
11.89618701882801
 30
0.0
 11
58.14988766000012
 21
52.64618701882802
 31
0.0
  0
LINE
  5
FE
330
F8
100
AcDbEntity
  8
치수문자_일반주서
 62
     0
370
    -2
100
AcDbLine
 10
58.14988766000035
 20
-11.89618701882788
 30
0.0
 11
58.14988766000026
 21
11.89618701882801
 31
0.0
  0
LINE
  5
FF
330
F8
100
AcDbEntity
  8
치수문자_일반주서
 62
     0
370
    -2
100
AcDbLine
 10
58.14988766000036
 20
-15.89618701882788
 30
0.0
 11
58.14988766000037
 21
-19.89618701882788
 31
0.0
  0
LINE
  5
100
330
F8
100
AcDbEntity
  8
치수문자_일반주서
 62
     0
370
    -2
100
AcDbLine
 10
58.14988766000025
 20
15.89618701882801
 30
0.0
 11
58.14988766000023
 21
19.89618701882801
 31
0.0
  0
SOLID
  5
101
330
F8
100
AcDbEntity
  8
치수문자_일반주서
 62
     0
100
AcDbTrace
 10
58.81655432666702
 20
-15.89618701882788
 30
0.0
 11
57.4832209933337
 21
-15.89618701882788
 31
0.0
 12
58.14988766000035
 22
-11.89618701882788
 32
0.0
 13
58.14988766000035
 23
-11.89618701882788
 33
0.0
  0
SOLID
  5
102
330
F8
100
AcDbEntity
  8
치수문자_일반주서
 62
     0
100
AcDbTrace
 10
57.48322099333358
 20
15.89618701882801
 30
0.0
 11
58.81655432666691
 21
15.89618701882801
 31
0.0
 12
58.14988766000026
 22
11.89618701882801
 32
0.0
 13
58.14988766000026
 23
11.89618701882801
 33
0.0
  0
MTEXT
  5
103
330
F8
100
AcDbEntity
  8
치수문자_일반주서
 62
     0
100
AcDbMText
 10
53.27488766000018
 20
34.271187018828
 30
0.0
 40
4.0
 41
0.0
 71
     2
 72
     1
  1
\A1;%%c23.79 [15/16]
  7
SLDTEXTSTYLE0
 11
-3.583716705035991E-15
 21
1.0
 31
0.0
 73
     1
 44
1.0
  0
POINT
  5
104
330
F8
100
AcDbEntity
  8
Defpoints
 62
     0
100
AcDbPoint
 10
43.14988766000027
 20
-11.89618701882794
 30
0.0
  0
POINT
  5
209
330
F8
100
AcDbEntity
  8
Defpoints
 62
     0
100
AcDbPoint
 10
43.14988766000027
 20
11.89618701882795
 30
0.0
  0
POINT
  5
20A
330
F8
100
AcDbEntity
  8
Defpoints
 62
     0
100
AcDbPoint
 10
58.14988766000026
 20
11.89618701882801
 30
0.0
  0
ENDBLK
  5
FA
330
F8
100
AcDbEntity
  8
0
100
AcDbBlockEnd
  0
BLOCK
  5
112
330
111
100
AcDbEntity
  8
0
100
AcDbBlockBegin
  2
SW_DOWELSYMBOL_0
 70
     0
 10
0.0
 20
0.0
 30
0.0
  3
SW_DOWELSYMBOL_0
  1

  0
CIRCLE
  5
114
330
111
100
AcDbEntity
  8
해칭선
 62
     0
100
AcDbCircle
 10
0.0
 20
0.0
 30
0.0
 40
3.000000000000001
  0
HATCH
  5
115
330
111
100
AcDbEntity
  8
0
  6
Continuous
 62
     0
370
     0
100
AcDbHatch
 10
0.0
 20
0.0
 30
0.0
210
0.0
220
0.0
230
1.0
  2
SOLID
 70
     1
 71
     0
 91
        1
 92
        0
 93
        3
 72
     2
 10
0.0
 20
0.0
 40
3.000000000000001
 50
0.0
 51
90.0
 73
     1
 72
     1
 10
0.0
 20
3.000000000000001
 11
0.0
 21
0.0
 72
     1
 10
0.0
 20
0.0
 11
3.000000000000001
 21
0.0
 97
        0
 75
     0
 76
     1
 98
        1
 10
0.0
 20
0.0
  0
HATCH
  5
116
330
111
100
AcDbEntity
  8
0
  6
Continuous
 62
     0
370
     0
100
AcDbHatch
 10
0.0
 20
0.0
 30
0.0
210
0.0
220
0.0
230
1.0
  2
SOLID
 70
     1
 71
     0
 91
        1
 92
        0
 93
        3
 72
     2
 10
0.0
 20
0.0
 40
3.000000000000001
 50
180.0
 51
270.0000000000008
 73
     1
 72
     1
 10
0.0
 20
-3.000000000000001
 11
0.0
 21
0.0
 72
     1
 10
0.0
 20
0.0
 11
-3.000000000000001
 21
0.0
 97
        0
 75
     0
 76
     1
 98
        1
 10
0.0
 20
0.0
  0
ENDBLK
  5
113
330
111
100
AcDbEntity
  8
0
100
AcDbBlockEnd
  0
BLOCK
  5
1D8
330
1D7
100
AcDbEntity
  8
0
100
AcDbBlockBegin
  2
*D9
 70
     1
 10
0.0
 20
0.0
 30
0.0
  3
*D9
  1

  0
LINE
  5
1DA
330
1D7
100
AcDbEntity
  8
치수문자_일반주서
 62
     0
370
    -2
100
AcDbLine
 10
46.10000000000001
 20
8.882071521088088
 30
0.0
 11
46.10000000000001
 21
23.8653714551816
 31
0.0
  0
LINE
  5
1DB
330
1D7
100
AcDbEntity
  8
치수문자_일반주서
 62
     0
370
    -2
100
AcDbLine
 10
8.0
 20
6.457246315304582
 30
0.0
 11
8.0
 21
23.8653714551816
 31
0.0
  0
LINE
  5
1DC
330
1D7
100
AcDbEntity
  8
치수문자_일반주서
 62
     0
370
    -2
100
AcDbLine
 10
46.10000000000001
 20
23.8653714551816
 30
0.0
 11
82.35000000000001
 21
23.8653714551816
 31
0.0
  0
LINE
  5
1DD
330
1D7
100
AcDbEntity
  8
치수문자_일반주서
 62
     0
370
    -2
100
AcDbLine
 10
46.10000000000001
 20
23.8653714551816
 30
0.0
 11
8.0
 21
23.8653714551816
 31
0.0
  0
LINE
  5
1DE
330
1D7
100
AcDbEntity
  8
치수문자_일반주서
 62
     0
370
    -2
100
AcDbLine
 10
50.10000000000001
 20
23.8653714551816
 30
0.0
 11
54.10000000000001
 21
23.8653714551816
 31
0.0
  0
LINE
  5
1DF
330
1D7
100
AcDbEntity
  8
치수문자_일반주서
 62
     0
370
    -2
100
AcDbLine
 10
4.0
 20
23.8653714551816
 30
0.0
 11
0.0
 21
23.8653714551816
 31
0.0
  0
SOLID
  5
1E0
330
1D7
100
AcDbEntity
  8
치수문자_일반주서
 62
     0
100
AcDbTrace
 10
50.10000000000001
 20
24.53203812184826
 30
0.0
 11
50.10000000000001
 21
23.19870478851493
 31
0.0
 12
46.10000000000001
 22
23.8653714551816
 32
0.0
 13
46.10000000000001
 23
23.8653714551816
 33
0.0
  0
SOLID
  5
1E1
330
1D7
100
AcDbEntity
  8
치수문자_일반주서
 62
     0
100
AcDbTrace
 10
4.0
 20
23.19870478851493
 30
0.0
 11
4.0
 21
24.53203812184826
 31
0.0
 12
8.0
 22
23.8653714551816
 32
0.0
 13
8.0
 23
23.8653714551816
 33
0.0
  0
MTEXT
  5
1E2
330
1D7
100
AcDbEntity
  8
치수문자_일반주서
 62
     0
100
AcDbMText
 10
66.22500000000001
 20
28.7403714551816
 30
0.0
 40
4.0
 41
0.0
 71
     2
 72
     1
  1
\A1;38.10 [1 1/2]
  7
SLDTEXTSTYLE0
 73
     1
 44
1.0
  0
POINT
  5
1E3
330
1D7
100
AcDbEntity
  8
Defpoints
 62
     0
100
AcDbPoint
 10
46.10000000000001
 20
8.819571521088088
 30
0.0
  0
POINT
  5
1E4
330
1D7
100
AcDbEntity
  8
Defpoints
 62
     0
100
AcDbPoint
 10
8.0
 20
6.394746315304582
 30
0.0
  0
POINT
  5
1E5
330
1D7
100
AcDbEntity
  8
Defpoints
 62
     0
100
AcDbPoint
 10
8.0
 20
23.8653714551816
 30
0.0
  0
ENDBLK
  5
1D9
330
1D7
100
AcDbEntity
  8
0
100
AcDbBlockEnd
  0
BLOCK
  5
1EA
330
1E9
100
AcDbEntity
  8
0
100
AcDbBlockBegin
  2
*D10
 70
     1
 10
0.0
 20
0.0
 30
0.0
  3
*D10
  1

  0
LINE
  5
1EC
330
1E9
100
AcDbEntity
  8
치수문자_일반주서
 62
     0
370
    -2
100
AcDbLine
 10
125.4507900547294
 20
-26.15700050300035
 30
0.0
 11
125.4507900547294
 21
-11.17370056890684
 31
0.0
  0
LINE
  5
1ED
330
1E9
100
AcDbEntity
  8
치수문자_일반주서
 62
     0
370
    -2
100
AcDbLine
 10
87.35079005472943
 20
-28.58182570878385
 30
0.0
 11
87.35079005472943
 21
-11.17370056890684
 31
0.0
  0
LINE
  5
1EE
330
1E9
100
AcDbEntity
  8
치수문자_일반주서
 62
     0
370
    -2
100
AcDbLine
 10
125.4507900547294
 20
-11.17370056890684
 30
0.0
 11
161.7007900547295
 21
-11.17370056890684
 31
0.0
  0
LINE
  5
1EF
330
1E9
100
AcDbEntity
  8
치수문자_일반주서
 62
     0
370
    -2
100
AcDbLine
 10
125.4507900547294
 20
-11.17370056890684
 30
0.0
 11
87.35079005472943
 21
-11.17370056890684
 31
0.0
  0
LINE
  5
1F0
330
1E9
100
AcDbEntity
  8
치수문자_일반주서
 62
     0
370
    -2
100
AcDbLine
 10
129.4507900547295
 20
-11.17370056890684
 30
0.0
 11
133.4507900547295
 21
-11.17370056890684
 31
0.0
  0
LINE
  5
1F1
330
1E9
100
AcDbEntity
  8
치수문자_일반주서
 62
     0
370
    -2
100
AcDbLine
 10
83.35079005472943
 20
-11.17370056890684
 30
0.0
 11
79.35079005472943
 21
-11.17370056890684
 31
0.0
  0
SOLID
  5
1F2
330
1E9
100
AcDbEntity
  8
치수문자_일반주서
 62
     0
100
AcDbTrace
 10
129.4507900547295
 20
-10.50703390224017
 30
0.0
 11
129.4507900547295
 21
-11.8403672355735
 31
0.0
 12
125.4507900547294
 22
-11.17370056890684
 32
0.0
 13
125.4507900547294
 23
-11.17370056890684
 33
0.0
  0
SOLID
  5
1F3
330
1E9
100
AcDbEntity
  8
치수문자_일반주서
 62
     0
100
AcDbTrace
 10
83.35079005472943
 20
-11.8403672355735
 30
0.0
 11
83.35079005472943
 21
-10.50703390224017
 31
0.0
 12
87.35079005472943
 22
-11.17370056890684
 32
0.0
 13
87.35079005472943
 23
-11.17370056890684
 33
0.0
  0
MTEXT
  5
1F4
330
1E9
100
AcDbEntity
  8
치수문자_일반주서
 62
     0
100
AcDbMText
 10
145.5757900547295
 20
-6.298700568906838
 30
0.0
 40
4.0
 41
0.0
 71
     2
 72
     1
  1
\A1;38.10 [1 1/2]
  7
SLDTEXTSTYLE0
 73
     1
 44
1.0
  0
POINT
  5
1F5
330
1E9
100
AcDbEntity
  8
Defpoints
 62
     0
100
AcDbPoint
 10
125.4507900547294
 20
-26.21950050300035
 30
0.0
  0
POINT
  5
1F6
330
1E9
100
AcDbEntity
  8
Defpoints
 62
     0
100
AcDbPoint
 10
87.35079005472943
 20
-28.64432570878385
 30
0.0
  0
POINT
  5
1F7
330
1E9
100
AcDbEntity
  8
Defpoints
 62
     0
100
AcDbPoint
 10
87.35079005472943
 20
-11.17370056890684
 30
0.0
  0
ENDBLK
  5
1EB
330
1E9
100
AcDbEntity
  8
0
100
AcDbBlockEnd
  0
ENDSEC
  0
SECTION
  2
ENTITIES
  0
SPLINE
  5
96
330
1F
100
AcDbEntity
  8
0
  6
Continuous
 62
     1
370
    15
100
AcDbSpline
210
0.0
220
0.0
230
1.0
 70
     8
 71
     3
 72
    22
 73
    18
 74
     0
 42
0.000000001
 43
0.00000001
 40
0.0
 40
0.0
 40
0.0
 40
0.0
 40
0.1253930021524455
 40
0.2228263934980018
 40
0.2840948202630023
 40
0.3248572155374753
 40
0.3586913636327685
 40
0.3981022080414118
 40
0.4430810093554672
 40
0.4892283219688944
 40
0.5289943253767742
 40
0.5782591171725656
 40
0.6320753258061601
 40
0.702238600843285
 40
0.7874476204584259
 40
0.886160622432398
 40
1.0
 40
1.0
 40
1.0
 40
1.0
 10
12.30310178686855
 20
3.050976162205387
 30
0.0
 10
12.16437401418036
 20
3.116155458542025
 30
0.0
 10
11.91785141135968
 20
3.231980642436846
 30
0.0
 10
11.60397589810517
 20
3.382635945402934
 30
0.0
 10
11.38382853629559
 20
3.489404293987404
 30
0.0
 10
11.23432666338842
 20
3.56246119277789
 30
0.0
 10
11.10906136301961
 20
3.623997057244535
 30
0.0
 10
10.97881246636776
 20
3.688315769823802
 30
0.0
 10
10.83484488426469
 20
3.759833014233863
 30
0.0
 10
10.6904908815125
 20
3.832014564041137
 30
0.0
 10
10.54117482422254
 20
3.907033057015243
 30
0.0
 10
10.38457206679218
 20
3.986101235092905
 30
0.0
 10
10.18856297654309
 20
4.085640403516423
 30
0.0
 10
9.94816942180904
 20
4.208455574714699
 30
0.0
 10
9.656815971814545
 20
4.358413179787699
 30
0.0
 10
9.333480267537464
 20
4.527150002030049
 30
0.0
 10
9.116960100596355
 20
4.641645252370131
 30
0.0
 10
9.00099564473578
 20
4.702966927814431
 30
0.0
1001
PE_URL
1000

  0
SPLINE
  5
97
330
1F
100
AcDbEntity
  8
0
  6
Continuous
 62
     1
370
    15
100
AcDbSpline
210
0.0
220
0.0
230
1.0
 70
     8
 71
     3
 72
    14
 73
    10
 74
     0
 42
0.000000001
 43
0.00000001
 40
0.0
 40
0.0
 40
0.0
 40
0.0
 40
0.1216960423939296
 40
0.2358809277773835
 40
0.3478426110975978
 40
0.4635224529318559
 40
0.6287189504778216
 40
0.8070070060528076
 40
1.0
 40
1.0
 40
1.0
 40
1.0
 10
8.367120733349054
 20
9.46116941426171
 30
0.0
 10
8.258007976703894
 20
9.455050602608768
 30
0.0
 10
8.046516972037566
 20
9.443190636243395
 30
0.0
 10
7.678302609521032
 20
9.422656183719003
 30
0.0
 10
7.289331154581498
 20
9.40453354184168
 30
0.0
 10
6.835833207929582
 20
9.387765115383667
 30
0.0
 10
6.308815916427014
 20
9.368981430760082
 30
0.0
 10
5.690207507126622
 20
9.348473963927963
 30
0.0
 10
5.268889837773546
 20
9.337488829875525
 30
0.0
 10
5.049887660000274
 20
9.331778724518896
 30
0.0
1001
PE_URL
1000

  0
SPLINE
  5
98
330
1F
100
AcDbEntity
  8
0
  6
Continuous
 62
     1
370
    15
100
AcDbSpline
210
0.0
220
0.0
230
1.0
 70
     8
 71
     3
 72
    51
 73
    47
 74
     0
 42
0.000000001
 43
0.00000001
 40
0.0
 40
0.0
 40
0.0
 40
0.0
 40
0.0149604560946125
 40
0.0282159386052747
 40
0.0398697437058974
 40
0.0501049304878757
 40
0.05921703752805
 40
0.0676412473440556
 40
0.0828122300897542
 40
0.0964159659413457
 40
0.1083351433539504
 40
0.1209578655219661
 40
0.1351595065995862
 40
0.1611559954718634
 40
0.1898398495250641
 40
0.2191074350146283
 40
0.2486879460241634
 40
0.2753900058104981
 40
0.2984776563700545
 40
0.3200298476240362
 40
0.3422180488946561
 40
0.3907529157172763
 40
0.4410552295517157
 40
0.4929503682837814
 40
0.5206546080438552
 40
0.5485298874976359
 40
0.5735389017196688
 40
0.5957372213241003
 40
0.6173965597724278
 40
0.640418963948654
 40
0.6696356743502131
 40
0.7005760314547194
 40
0.7306233692589442
 40
0.7568408784387322
 40
0.7824375481358765
 40
0.8080836060577308
 40
0.8333354419900193
 40
0.8570805722395065
 40
0.8760321335511935
 40
0.8962604888400337
 40
0.9183945775350117
 40
0.9271530401977859
 40
0.9360596906051917
 40
0.954881894331779
 40
0.9759651738234919
 40
0.9999999999999999
 40
0.9999999999999999
 40
0.9999999999999999
 40
0.9999999999999999
 10
38.72653022978032
 20
8.143309946279253
 30
0.0
 10
38.65698142029476
 20
8.137064826147567
 30
0.0
 10
38.52580995559449
 20
8.12528631317284
 30
0.0
 10
38.31844151238517
 20
8.104764603223163
 30
0.0
 10
38.11736828643048
 20
8.085285095410272
 30
0.0
 10
37.92068840553085
 20
8.067607419101337
 30
0.0
 10
37.72813373873888
 20
8.052414787969445
 30
0.0
 10
37.48798715610552
 20
8.036628065465095
 30
0.0
 10
37.22791822329934
 20
8.023410788083824
 30
0.0
 10
36.93777054724382
 20
8.006521562191022
 30
0.0
 10
36.6627161318748
 20
7.990380666721831
 30
0.0
 10
36.38069976189013
 20
7.973782001444107
 30
0.0
 10
36.00134153253053
 20
7.952374098254572
 30
0.0
 10
35.52798507727368
 20
7.927926293945437
 30
0.0
 10
34.949559363684
 20
7.901805448088163
 30
0.0
 10
34.33074414327535
 20
7.878897809579818
 30
0.0
 10
33.71736981799503
 20
7.861205997258227
 30
0.0
 10
33.15089084417293
 20
7.848810321631153
 30
0.0
 10
32.64570798644151
 20
7.8410140600361
 30
0.0
 10
32.17663330847011
 20
7.836503110185848
 30
0.0
 10
31.53015694697027
 20
7.83400036093326
 30
0.0
 10
30.69084813892211
 20
7.838286238410255
 30
0.0
 10
29.63067612361599
 20
7.857241532521294
 30
0.0
 10
28.70385599606715
 20
7.886594549733953
 30
0.0
 10
27.94438469510212
 20
7.918383507011358
 30
0.0
 10
27.37755562684971
 20
7.946118033537053
 30
0.0
 10
26.84885299288141
 20
7.97553509164144
 30
0.0
 10
26.36377578054107
 20
8.005435118282362
 30
0.0
 10
25.89290895062622
 20
8.037085962278715
 30
0.0
 10
25.37292802745773
 20
8.074996335514633
 30
0.0
 10
24.78806806574535
 20
8.121558226185375
 30
0.0
 10
24.15312849235904
 20
8.176686554306025
 30
0.0
 10
23.53866041657444
 20
8.234554174829716
 30
0.0
 10
22.96209931713522
 20
8.292744070875308
 30
0.0
 10
22.41822292371217
 20
8.351022660800327
 30
0.0
 10
21.88661392183103
 20
8.411211267751378
 30
0.0
 10
21.37099173447577
 20
8.472550042061798
 30
0.0
 10
20.886612230194
 20
8.533116890653448
 30
0.0
 10
20.43349590127336
 20
8.591963600649033
 30
0.0
 10
19.99160977256134
 20
8.650644715140377
 30
0.0
 10
19.62477915861635
 20
8.70000662333889
 30
0.0
 10
19.33964131122653
 20
8.73838374860696
 30
0.0
 10
19.07631473483934
 20
8.775181712787004
 30
0.0
 10
18.73330678262817
 20
8.826164749610951
 30
0.0
 10
18.32014200286607
 20
8.892065739791192
 30
0.0
 10
18.06326841235001
 20
8.933192370405484
 30
0.0
 10
17.92642950907714
 20
8.95510090143533
 30
0.0
1001
PE_URL
1000

  0
SPLINE
  5
99
330
1F
100
AcDbEntity
  8
0
  6
Continuous
 62
     1
370
    15
100
AcDbSpline
210
0.0
220
0.0
230
1.0
 70
     8
 71
     3
 72
    25
 73
    21
 74
     0
 42
0.000000001
 43
0.00000001
 40
0.0
 40
0.0
 40
0.0
 40
0.0
 40
0.0567538090560863
 40
0.1065380849964011
 40
0.1509832475479654
 40
0.1933671504108571
 40
0.2336588819609348
 40
0.2713051566671812
 40
0.306377532204473
 40
0.3405688078488144
 40
0.4114701306591019
 40
0.4869517628095241
 40
0.5769723524364895
 40
0.6702607708986593
 40
0.7682486931579326
 40
0.8329361678818874
 40
0.8859361798314335
 40
0.9314289471032787
 40
0.9770756144467323
 40
1.0
 40
1.0
 40
1.0
 40
1.0
 10
17.92642950907713
 20
-8.955100901435314
 30
0.0
 10
18.06328108110439
 20
-8.933187235235064
 30
0.0
 10
18.32017845336928
 20
-8.892050964893842
 30
0.0
 10
18.73318713493327
 20
-8.826213247772909
 30
0.0
 10
19.14024742400505
 20
-8.765579152558683
 30
0.0
 10
19.530357592652
 20
-8.712624419184316
 30
0.0
 10
19.89468308313855
 20
-8.663707308954818
 30
0.0
 10
20.23948822824835
 20
-8.6176676085032
 30
0.0
 10
20.56569105267232
 20
-8.574738179418969
 30
0.0
 10
20.99253236386499
 20
-8.519626781166302
 30
0.0
 10
21.53511290695417
 20
-8.452396272286435
 30
0.0
 10
22.22313071716476
 20
-8.372307733682934
 30
0.0
 10
22.99324746521695
 20
-8.288788397621065
 30
0.0
 10
23.83251128795421
 20
-8.205686187726956
 30
0.0
 10
24.59600883440206
 20
-8.137503753730803
 30
0.0
 10
25.23825868506629
 20
-8.085463919759588
 30
0.0
 10
25.72440228983544
 20
-8.049101315901739
 30
0.0
 10
26.15407551080932
 20
-8.019376213107803
 30
0.0
 10
26.49427588868556
 20
-7.997155772300094
 30
0.0
 10
26.69878182836011
 20
-7.985154904211774
 30
0.0
 10
26.76715139264395
 20
-7.981142824545373
 30
0.0
1001
PE_URL
1000

  0
SPLINE
  5
9A
330
1F
100
AcDbEntity
  8
0
  6
Continuous
 62
     1
370
    15
100
AcDbSpline
210
0.0
220
0.0
230
1.0
 70
     8
 71
     3
 72
    15
 73
    11
 74
     0
 42
0.000000001
 43
0.00000001
 40
0.0
 40
0.0
 40
0.0
 40
0.0
 40
0.1155169113675535
 40
0.2184981654549687
 40
0.3094633219139665
 40
0.3905766628681057
 40
0.4920660164681276
 40
0.6269507549184217
 40
0.796056944202455
 40
1.0
 40
1.0
 40
1.0
 40
1.0
 10
5.049887660000274
 20
-9.331778724518884
 30
0.0
 10
5.176197328113531
 20
-9.334975142292409
 30
0.0
 10
5.415109799328759
 20
-9.341021109166656
 30
0.0
 10
5.759232408527662
 20
-9.35114595834812
 30
0.0
 10
6.068361599108602
 20
-9.36113782432239
 30
0.0
 10
6.377058748157898
 20
-9.371683501579307
 30
0.0
 10
6.734248821415071
 20
-9.384810347459574
 30
0.0
 10
7.183366965742843
 20
-9.403296366018912
 30
0.0
 10
7.740250542397221
 20
-9.428635793876552
 30
0.0
 10
8.145547894099177
 20
-9.449670117048555
 30
0.0
 10
8.367120733349054
 20
-9.461169414261695
 30
0.0
1001
PE_URL
1000

  0
SPLINE
  5
9B
330
1F
100
AcDbEntity
  8
0
  6
Continuous
 62
     1
370
    15
100
AcDbSpline
210
0.0
220
0.0
230
1.0
 70
     8
 71
     3
 72
    38
 73
    34
 74
     0
 42
0.000000001
 43
0.00000001
 40
0.0
 40
0.0
 40
0.0
 40
0.0
 40
0.0625
 40
0.0625
 40
0.125
 40
0.125
 40
0.1875
 40
0.1875
 40
0.25
 40
0.25
 40
0.3125
 40
0.3125
 40
0.375
 40
0.375
 40
0.4375
 40
0.4375
 40
0.5
 40
0.5
 40
0.5625
 40
0.5625
 40
0.625
 40
0.625
 40
0.6875
 40
0.6875
 40
0.75
 40
0.75
 40
0.8125
 40
0.8125
 40
0.875
 40
0.875
 40
0.9375
 40
0.9375
 40
1.0
 40
1.0
 40
1.0
 40
1.0
 10
43.14988766000027
 20
-11.89618701882793
 30
0.0
 10
42.35916991810571
 20
-11.87737374782263
 30
0.0
 10
41.56245693683096
 20
-11.83205685415058
 30
0.0
 10
39.97290409479685
 20
-11.68905064239196
 30
0.0
 10
39.18320262411167
 20
-11.59158763416431
 30
0.0
 10
37.59383735899172
 20
-11.34522424412724
 30
0.0
 10
36.79703406494295
 20
-11.19634475014675
 30
0.0
 10
35.21505570657798
 20
-10.85038957733268
 30
0.0
 10
34.41897366509514
 20
-10.65253202579138
 30
0.0
 10
32.82925012544464
 20
-10.21050062503755
 30
0.0
 10
32.03951881126347
 20
-9.96679711623862
 30
0.0
 10
30.45035799571203
 20
-9.4352370332595
 30
0.0
 10
29.65347290009141
 20
-9.147558708226136
 30
0.0
 10
28.07096827894358
 20
-8.534312174669138
 30
0.0
 10
27.27548755922081
 20
-8.20749082790995
 30
0.0
 10
25.68561020729815
 20
-7.518930741128072
 30
0.0
 10
24.89581920718103
 20
-7.157931768657816
 30
0.0
 10
23.30687970661247
 20
-6.404349004552438
 30
0.0
 10
22.50992132354605
 20
-6.012039943015075
 30
0.0
 10
20.92690706994367
 20
-5.204309582601846
 30
0.0
 10
20.13199803272744
 20
-4.787402461236161
 30
0.0
 10
18.54198375932589
 20
-3.934104689714349
 30
0.0
 10
17.75210323294477
 20
-3.498687988372768
 30
0.0
 10
16.1634019049376
 20
-2.612628252811436
 30
0.0
 10
15.36637875117125
 20
-2.162289774499845
 30
0.0
 10
13.78287151339937
 20
-1.256008257854691
 30
0.0
 10
12.98850449925539
 20
-0.7985715445403402
 30
0.0
 10
11.39837020001939
 20
0.1180951410658947
 30
0.0
 10
10.60837031021394
 20
0.5762098601961179
 30
0.0
 10
9.019924003915431
 20
1.489470765616281
 30
0.0
 10
8.222844598510676
 20
1.944340408131444
 30
0.0
 10
6.638861042231204
 20
2.841510376858885
 30
0.0
 10
5.845006372586785
 20
3.285130512476682
 30
0.0
 10
5.049887660000276
 20
3.720696866071459
 30
0.0
1001
PE_URL
1000

  0
SPLINE
  5
9C
330
1F
100
AcDbEntity
  8
0
  6
Continuous
 62
     1
370
    15
100
AcDbSpline
210
0.0
220
0.0
230
1.0
 70
     8
 71
     3
 72
    11
 73
     7
 74
     0
 42
0.000000001
 43
0.00000001
 40
0.0
 40
0.0
 40
0.0
 40
0.0
 40
0.1183089587622123
 40
0.4120467858235341
 40
0.7061744583487656
 40
0.9999999999999999
 40
0.9999999999999999
 40
0.9999999999999999
 40
0.9999999999999999
 10
13.56864529850965
 20
-1.130987917647286
 30
0.0
 10
13.23271135589246
 20
-0.9969761224051391
 30
0.0
 10
12.06271964307002
 20
-0.530239451998358
 30
0.0
 10
10.05770547495317
 20
0.2840388748925762
 30
0.0
 10
7.553631700396121
 20
1.293205968917956
 30
0.0
 10
5.884183047548835
 20
1.949085065782501
 30
0.0
 10
5.049887660000274
 20
2.276856096278318
 30
0.0
1001
PE_URL
1000

  0
SPLINE
  5
9D
330
1F
100
AcDbEntity
  8
외형선
  6
Continuous
370
    15
100
AcDbSpline
210
0.0
220
0.0
230
1.0
 70
    24
 71
     3
 72
    10
 73
     6
 74
     0
 42
0.000000001
 43
0.00000001
 40
0.0
 40
0.0
 40
0.0
 40
0.0
 40
0.5
 40
0.5
 40
1.0
 40
1.0
 40
1.0
 40
1.0
 10
5.049887660000274
 20
3.720696866071459
 30
0.0
 10
5.049887660000274
 20
3.704568192588563
 30
0.0
 10
5.049887660000274
 20
3.564134236139499
 30
0.0
 10
5.049887660000274
 20
3.058484297555247
 30
0.0
 10
5.049887660000274
 20
2.695460567714568
 30
0.0
 10
5.049887660000274
 20
2.276856096278318
 30
0.0
  0
SPLINE
  5
9E
330
1F
100
AcDbEntity
  8
0
  6
Continuous
 62
     1
370
    15
100
AcDbSpline
210
0.0
220
0.0
230
1.0
 70
     8
 71
     3
 72
    38
 73
    34
 74
     0
 42
0.000000001
 43
0.00000001
 40
0.0
 40
0.0
 40
0.0
 40
0.0
 40
0.0625000000000001
 40
0.0625000000000001
 40
0.1250000000000003
 40
0.1250000000000003
 40
0.1875000000000004
 40
0.1875000000000004
 40
0.2500000000000003
 40
0.2500000000000003
 40
0.3125000000000002
 40
0.3125000000000002
 40
0.3750000000000002
 40
0.3750000000000002
 40
0.4375000000000001
 40
0.4375000000000001
 40
0.5
 40
0.5
 40
0.5624999999999999
 40
0.5624999999999999
 40
0.6249999999999998
 40
0.6249999999999998
 40
0.6874999999999999
 40
0.6874999999999999
 40
0.7499999999999999
 40
0.7499999999999999
 40
0.8124999999999999
 40
0.8124999999999999
 40
0.8749999999999999
 40
0.8749999999999999
 40
0.9375
 40
0.9375
 40
1.0
 40
1.0
 40
1.0
 40
1.0
 10
43.14988766000027
 20
-11.2983272242923
 30
0.0
 10
42.35916991810565
 20
-11.15394912953595
 30
0.0
 10
41.56245693683081
 20
-10.98408052029738
 30
0.0
 10
39.97290409479657
 20
-10.59649702288933
 30
0.0
 10
39.1832026241113
 20
-10.37915990393248
 30
0.0
 10
37.59383735899121
 20
-9.898462622456316
 30
0.0
 10
36.79703406494237
 20
-9.63527998650261
 30
0.0
 10
35.21505570657725
 20
-9.06869332798094
 30
0.0
 10
34.41897366509433
 20
-8.764000026312834
 30
0.0
 10
32.8292501254437
 20
-8.117281543343607
 30
0.0
 10
32.03951881126245
 20
-7.775875466255691
 30
0.0
 10
30.45035799571085
 20
-7.058672606953649
 30
0.0
 10
29.65347290009019
 20
-6.683179453232253
 30
0.0
 10
28.07096827894222
 20
-5.906021869572912
 30
0.0
 10
27.27548755921936
 20
-5.502759694232797
 30
0.0
 10
25.68561020729658
 20
-4.673723852290254
 30
0.0
 10
24.89581920717937
 20
-4.24880117386043
 30
0.0
 10
23.30687970661064
 20
-3.380316535879049
 30
0.0
 10
22.50992132354416
 20
-2.93711534827047
 30
0.0
 10
20.92690706994166
 20
-2.041682503605633
 30
0.0
 10
20.13199803272532
 20
-1.587792954712759
 30
0.0
 10
18.54198375932364
 20
-0.6749242011702555
 30
0.0
 10
17.75210323294245
 20
-0.2169586259976901
 30
0.0
 10
16.16340190493513
 20
0.6996187193843738
 30
0.0
 10
15.36637875116871
 20
1.157878375202309
 30
0.0
 10
13.7828715133967
 20
2.065217092785028
 30
0.0
 10
12.98850449925263
 20
2.515804020713561
 30
0.0
 10
11.39837020001649
 20
3.404055133238385
 30
0.0
 10
10.60837031021098
 20
3.840661525026178
 30
0.0
 10
9.019924003912305
 20
4.696439041653475
 30
0.0
 10
8.222844598507479
 20
5.115315689804643
 30
0.0
 10
6.638861042227886
 20
5.926754362760464
 30
0.0
 10
5.845006372583368
 20
6.320525401006184
 30
0.0
 10
5.049887659996796
 20
6.6995766158256
 30
0.0
1001
PE_URL
1000

  0
SPLINE
  5
9F
330
1F
100
AcDbEntity
  8
0
  6
Continuous
 62
     1
370
    15
100
AcDbSpline
210
0.0
220
0.0
230
1.0
 70
     8
 71
     3
 72
    22
 73
    18
 74
     0
 42
0.000000001
 43
0.00000001
 40
0.0
 40
0.0
 40
0.0
 40
0.0
 40
0.066697114550551
 40
0.1333331799774767
 40
0.2000845016549309
 40
0.2667003458820574
 40
0.3334513717723862
 40
0.4000878806311284
 40
0.4667841143730044
 40
0.533482108927362
 40
0.6001177357283888
 40
0.6668693467771373
 40
0.7334851958169986
 40
0.8002359195044845
 40
0.8668728766008112
 40
0.9335682343196587
 40
1.0
 40
1.0
 40
1.0
 40
1.0
 10
43.14988766000027
 20
-9.393701022634062
 30
0.0
 10
42.46384475103407
 20
-9.259503382873273
 30
0.0
 10
41.09238688108179
 20
-8.99123093697584
 30
0.0
 10
39.03510207033182
 20
-8.473336554626423
 30
0.0
 10
36.97723906204917
 20
-7.879755217714255
 30
0.0
 10
34.91990618137667
 20
-7.203429605942425
 30
0.0
 10
32.86204532000282
 20
-6.45874256095541
 30
0.0
 10
30.80476151871088
 20
-5.647267563409678
 30
0.0
 10
28.74726643746938
 20
-4.781047059460477
 30
0.0
 10
26.68975993125811
 20
-3.867402289071335
 30
0.0
 10
24.63247414201795
 20
-2.913492517047993
 30
0.0
 10
22.57460879365468
 20
-1.933782690329246
 30
0.0
 10
20.51727680576835
 20
-0.9308972073709391
 30
0.0
 10
18.4594148414613
 20
0.0773947464757621
 30
0.0
 10
16.40214423854449
 20
1.08757509770645
 30
0.0
 10
14.34735643042132
 20
2.085929887281341
 30
0.0
 10
12.97811793879328
 20
2.732251399972567
 30
0.0
 10
12.29485424080451
 20
3.054772297209418
 30
0.0
1001
PE_URL
1000

  0
LINE
  5
A0
330
1F
100
AcDbEntity
  8
0
  6
Continuous
 62
     1
370
    15
100
AcDbLine
 10
43.14988765999998
 20
-11.2983272242923
 30
0.0
 11
43.14988766000027
 21
-9.393701022634062
 31
0.0
1001
PE_URL
1000

  0
LINE
  5
A1
330
1F
100
AcDbEntity
  8
외형선
  6
Continuous
370
    15
100
AcDbLine
 10
5.049887660000276
 20
3.72069686607146
 30
0.0
 11
5.049887660000274
 21
6.699576615820059
 31
0.0
  0
LINE
  5
A2
330
1F
100
AcDbEntity
  8
0
  6
Continuous
 62
     1
370
    15
100
AcDbLine
 10
43.14988766000027
 20
-11.89618701882794
 30
0.0
 11
43.14988765999993
 21
-11.29832722429228
 31
0.0
1001
PE_URL
1000

  0
SPLINE
  5
A3
330
1F
100
AcDbEntity
  8
0
  6
Continuous
 62
     1
370
    15
100
AcDbSpline
210
0.0
220
0.0
230
1.0
 70
     8
 71
     3
 72
    10
 73
     6
 74
     0
 42
0.000000001
 43
0.00000001
 40
0.0
 40
0.0
 40
0.0
 40
0.0
 40
0.5
 40
0.5
 40
1.0
 40
1.0
 40
1.0
 40
1.0
 10
43.14988766000027
 20
-3.181861326165451
 30
0.0
 10
42.29706349171542
 20
-2.511401489571594
 30
0.0
 10
41.4539776766209
 20
-1.822382940163758
 30
0.0
 10
39.78700060051212
 20
-0.4077661230110096
 30
0.0
 10
38.96310406763518
 20
0.3178220979647587
 30
0.0
 10
38.14988766000015
 20
1.063763798970369
 30
0.0
1001
PE_URL
1000

  0
LINE
  5
A4
330
1F
100
AcDbEntity
  8
0
  6
Continuous
 62
     1
370
    15
100
AcDbLine
 10
38.14988766000027
 20
2.937719435296598
 30
0.0
 11
43.14988766000027
 21
0.0000000000000117
 31
0.0
1001
PE_URL
1000

  0
LINE
  5
A5
330
1F
100
AcDbEntity
  8
0
  6
Continuous
 62
     1
370
    15
100
AcDbLine
 10
43.14988766000027
 20
0.0000000000000117
 30
0.0
 11
43.14988766000027
 21
-3.181861326165448
 31
0.0
1001
PE_URL
1000

  0
SPLINE
  5
A6
330
1F
100
AcDbEntity
  8
0
  6
Continuous
 62
     1
370
    15
100
AcDbSpline
210
0.0
220
0.0
230
1.0
 70
     8
 71
     3
 72
    22
 73
    18
 74
     0
 42
0.000000001
 43
0.00000001
 40
0.0
 40
0.0
 40
0.0
 40
0.0
 40
0.0592255649367575
 40
0.1183393545749302
 40
0.1775710588433072
 40
0.2466044121833543
 40
0.3157005025856766
 40
0.38479844589124
 40
0.4538308710298026
 40
0.5229851355027639
 40
0.5919967855196206
 40
0.661150116214039
 40
0.7301839412539372
 40
0.799279109824986
 40
0.8683779724161097
 40
0.949314358689977
 40
1.0
 40
1.0
 40
1.0
 40
1.0
 10
38.14988766000027
 20
2.287056819127254
 30
0.0
 10
37.56179485581269
 20
2.548817592454086
 30
0.0
 10
36.38671914396366
 20
3.071845122906676
 30
0.0
 10
34.6244445634773
 20
3.83169316701059
 30
0.0
 10
32.76360191307975
 20
4.6027843220911
 30
0.0
 10
30.80473172187258
 20
5.376751944957268
 30
0.0
 10
28.7472563108991
 20
6.134698422273605
 30
0.0
 10
26.68977003543861
 20
6.831703660547589
 30
0.0
 10
24.63242249157182
 20
7.461895662799301
 30
0.0
 10
22.57464134390894
 20
8.015994093103265
 30
0.0
 10
20.51721477835939
 20
8.492418835010438
 30
0.0
 10
18.45943796285452
 20
8.882654579441594
 30
0.0
 10
16.40209963017665
 20
9.185478734187551
 30
0.0
 10
14.3446121086264
 20
9.397459570581145
 30
0.0
 10
12.16898707265852
 20
9.518444400465103
 30
0.0
 10
10.17662037034694
 20
9.546488629629057
 30
0.0
 10
8.869669616530846
 20
9.473873812458084
 30
0.0
 10
8.366382755404462
 20
9.445910950583958
 30
0.0
1001
PE_URL
1000

  0
SPLINE
  5
A7
330
1F
100
AcDbEntity
  8
0
  6
Continuous
 62
     1
370
    15
100
AcDbSpline
210
0.0
220
0.0
230
1.0
 70
    24
 71
     3
 72
     8
 73
     4
 74
     0
 42
0.000000001
 43
0.00000001
 40
0.0
 40
0.0
 40
0.0
 40
0.0
 40
1.0
 40
1.0
 40
1.0
 40
1.0
 10
38.14988766000029
 20
1.063763798970682
 30
0.0
 10
38.14988766000029
 20
1.476383563775082
 30
0.0
 10
38.14988766000027
 20
1.884980928444357
 30
0.0
 10
38.14988766000027
 20
2.287056819127258
 30
0.0
1001
PE_URL
1000

  0
SPLINE
  5
A8
330
1F
100
AcDbEntity
  8
0
  6
Continuous
 62
     1
370
    15
100
AcDbSpline
210
0.0
220
0.0
230
1.0
 70
    24
 71
     3
 72
    10
 73
     6
 74
     0
 42
0.000000001
 43
0.00000001
 40
0.0
 40
0.0
 40
0.0
 40
0.0
 40
0.5
 40
0.5
 40
1.0
 40
1.0
 40
1.0
 40
1.0
 10
43.14988766000027
 20
-9.393701022634062
 30
0.0
 10
43.14988766000027
 20
-8.673600600326544
 30
0.0
 10
43.14988766000027
 20
-7.763726105261384
 30
0.0
 10
43.14988766000026
 20
-5.648355469887778
 30
0.0
 10
43.14988766000029
 20
-4.444691743829652
 30
0.0
 10
43.14988766000029
 20
-3.181861326165834
 30
0.0
1001
PE_URL
1000

  0
SPLINE
  5
A9
330
1F
100
AcDbEntity
  8
외형선
  6
Continuous
370
    15
100
AcDbSpline
210
0.0
220
0.0
230
1.0
 70
    24
 71
     3
 72
    17
 73
    13
 74
     0
 42
0.000000001
 43
0.00000001
 40
0.0
 40
0.0
 40
0.0
 40
0.0
 40
0.0147168007985352
 40
0.1038771660632317
 40
0.2336303134351742
 40
0.3633834608071167
 40
0.4969062178437184
 40
0.63042897488032
 40
0.7476700296538538
 40
0.8649110844273873
 40
0.9849066797860476
 40
1.0
 40
1.0
 40
1.0
 40
1.0
 10
5.049887660000274
 20
9.328819658044196
 30
0.0
 10
5.049887660000274
 20
9.32976926849671
 30
0.0
 10
5.049887660000274
 20
9.336472005322564
 30
0.0
 10
5.049887660000276
 20
9.302375728692779
 30
0.0
 10
5.049887660000274
 20
9.202064356563664
 30
0.0
 10
5.049887660000274
 20
8.992127148364835
 30
0.0
 10
5.049887660000274
 20
8.690542874290564
 30
0.0
 10
5.049887660000274
 20
8.310526755979875
 30
0.0
 10
5.049887660000274
 20
7.871970759596095
 30
0.0
 10
5.049887660000276
 20
7.377762898614409
 30
0.0
 10
5.049887660000274
 20
6.996039212627445
 30
0.0
 10
5.049887660000274
 20
6.760607021786204
 30
0.0
 10
5.049887660000274
 20
6.734302469484655
 30
0.0
  0
SPLINE
  5
AA
330
1F
100
AcDbEntity
  8
0
  6
Continuous
 62
     1
370
    15
100
AcDbSpline
210
0.0
220
0.0
230
1.0
 70
    24
 71
     3
 72
    10
 73
     6
 74
     0
 42
0.000000001
 43
0.00000001
 40
0.0
 40
0.0
 40
0.0
 40
0.0
 40
0.5
 40
0.5
 40
1.0
 40
1.0
 40
1.0
 40
1.0
 10
38.14988766000027
 20
2.287056819127256
 30
0.0
 10
38.14988766000027
 20
3.188794250093737
 30
0.0
 10
38.14988766000029
 20
4.044120285396535
 30
0.0
 10
38.14988766000027
 20
5.555794882897914
 30
0.0
 10
38.14988766000027
 20
6.210906821448631
 30
0.0
 10
38.14988766000026
 20
6.726131543537212
 30
0.0
1001
PE_URL
1000

  0
SPLINE
  5
AB
330
1F
100
AcDbEntity
  8
0
  6
Continuous
 62
     1
370
    15
100
AcDbSpline
210
0.0
220
0.0
230
1.0
 70
     8
 71
     3
 72
     9
 73
     5
 74
     0
 42
0.000000001
 43
0.00000001
 40
0.0
 40
0.0
 40
0.0
 40
0.0
 40
0.5210982801008308
 40
1.0
 40
1.0
 40
1.0
 40
1.0
 10
43.14988766000027
 20
8.334375000000005
 30
0.0
 10
42.38142710063267
 20
8.326026729767365
 30
0.0
 10
40.90673300028193
 20
8.31000620052857
 30
0.0
 10
39.43230749151125
 20
8.19474031959646
 30
0.0
 10
38.72620257949777
 20
8.13953929097238
 30
0.0
1001
PE_URL
1000

  0
SPLINE
  5
AC
330
1F
100
AcDbEntity
  8
0
  6
Continuous
 62
     1
370
    15
100
AcDbSpline
210
0.0
220
0.0
230
1.0
 70
     8
 71
     3
 72
     8
 73
     4
 74
     0
 42
0.000000001
 43
0.00000001
 40
0.0
 40
0.0
 40
0.0
 40
0.0
 40
1.0
 40
1.0
 40
1.0
 40
1.0
 10
43.14988766000027
 20
8.33437500000001
 30
0.0
 10
41.46809781596342
 20
7.878416132391715
 30
0.0
 10
39.80060138655423
 20
7.346731046284737
 30
0.0
 10
38.1498876600003
 20
6.726131543537262
 30
0.0
1001
PE_URL
1000

  0
SPLINE
  5
AD
330
1F
100
AcDbEntity
  8
0
  6
Continuous
 62
     1
370
    15
100
AcDbSpline
210
0.0
220
0.0
230
1.0
 70
     8
 71
     3
 72
    13
 73
     9
 74
     0
 42
0.000000001
 43
0.00000001
 40
0.0
 40
0.0
 40
0.0
 40
0.0
 40
0.1184647311662408
 40
0.2782639141876199
 40
0.4380716405182091
 40
0.6252564852873119
 40
0.8127136729235144
 40
1.0
 40
1.0
 40
1.0
 40
1.0
 10
17.92803575101924
 20
-8.946182239379638
 30
0.0
 10
17.4195674869768
 20
-9.024971415132157
 30
0.0
 10
16.22521733736067
 20
-9.210040711492999
 30
0.0
 10
14.34462445358126
 20
-9.39480020549713
 30
0.0
 10
12.16898400299151
 20
-9.522238590616025
 30
0.0
 10
9.875177845332534
 20
-9.53631131123284
 30
0.0
 10
7.462402398194269
 20
-9.43094201275632
 30
0.0
 10
5.853814766247649
 20
-9.252069309585936
 30
0.0
 10
5.049887660000267
 20
-9.162673735611273
 30
0.0
1001
PE_URL
1000

  0
SPLINE
  5
AE
330
1F
100
AcDbEntity
  8
외형선
  6
Continuous
370
    15
100
AcDbSpline
210
0.0
220
0.0
230
1.0
 70
    24
 71
     3
 72
    14
 73
    10
 74
     0
 42
0.000000001
 43
0.00000001
 40
0.0
 40
0.0
 40
0.0
 40
0.0
 40
0.25
 40
0.25
 40
0.4999999999999999
 40
0.4999999999999999
 40
0.75
 40
0.75
 40
1.0
 40
1.0
 40
1.0
 40
1.0
 10
5.049887660000274
 20
2.276856096278318
 30
0.0
 10
5.049887660000274
 20
1.224183879053059
 30
0.0
 10
5.049887660000274
 20
0.1296761400014211
 30
0.0
 10
5.049887660000274
 20
-2.04490931358097
 30
0.0
 10
5.049887660000274
 20
-3.123901817963513
 30
0.0
 10
5.049887660000274
 20
-5.157036083434207
 30
0.0
 10
5.049887660000274
 20
-6.110094505583987
 30
0.0
 10
5.049887660000274
 20
-7.804830415743826
 30
0.0
 10
5.049887660000276
 20
-8.546096668180883
 30
0.0
 10
5.049887660000274
 20
-9.162673735611271
 30
0.0
  0
LINE
  5
AF
330
1F
100
AcDbEntity
  8
0
  6
Continuous
 62
     1
370
    15
100
AcDbLine
 10
43.14988766000027
 20
0.0000000000000117
 30
0.0
 11
43.14988766000027
 21
8.33437500000001
 31
0.0
1001
PE_URL
1000

  0
SPLINE
  5
B0
330
1F
100
AcDbEntity
  8
외형선
  6
Continuous
370
    15
100
AcDbSpline
210
0.0
220
0.0
230
1.0
 70
    24
 71
     3
 72
    10
 73
     6
 74
     0
 42
0.000000001
 43
0.00000001
 40
0.0
 40
0.0
 40
0.0
 40
0.0
 40
0.4716888187986551
 40
0.944055446588953
 40
1.0
 40
1.0
 40
1.0
 40
1.0
 10
5.049887660000276
 20
-9.162673735611278
 30
0.0
 10
5.049887660000276
 20
-9.206968903911104
 30
0.0
 10
5.049887660000276
 20
-9.29562289193127
 30
0.0
 10
5.049887660000276
 20
-9.340541686474246
 30
0.0
 10
5.049887660000276
 20
-9.328906157496977
 30
0.0
 10
5.049887660000274
 20
-9.327674034279644
 30
0.0
  0
SPLINE
  5
B1
330
1F
100
AcDbEntity
  8
0
  6
Continuous
 62
     1
370
    15
100
AcDbSpline
210
0.0
220
0.0
230
1.0
 70
     8
 71
     3
 72
    16
 73
    12
 74
     0
 42
0.000000001
 43
0.00000001
 40
0.0
 40
0.0
 40
0.0
 40
0.0
 40
0.091417442011313
 40
0.205923367898008
 40
0.3206122424229041
 40
0.435143585306781
 40
0.5498006572517196
 40
0.6623155603923174
 40
0.7749015355694356
 40
0.8874384993651006
 40
1.0
 40
1.0
 40
1.0
 40
1.0
 10
26.76687851083339
 20
7.981029004487928
 30
0.0
 10
27.26625876657758
 20
8.192755218039167
 30
0.0
 10
28.39114327288315
 20
8.669681437013534
 30
0.0
 10
30.14119497076622
 20
9.330316971612977
 30
0.0
 10
32.0190862919082
 20
9.967060953654297
 30
0.0
 10
33.89630071490168
 20
10.52096660565846
 30
0.0
 10
35.76287896323021
 20
10.98412227386892
 30
0.0
 10
37.61786832392043
 20
11.35653983794561
 30
0.0
 10
39.4619878362404
 20
11.63369765426262
 30
0.0
 10
41.30588463619694
 20
11.82496837249026
 30
0.0
 10
42.53517531915657
 20
11.87244574495972
 30
0.0
 10
43.14988766000027
 20
11.89618701882795
 30
0.0
1001
PE_URL
1000

  0
SPLINE
  5
B2
330
1F
100
AcDbEntity
  8
0
  6
Continuous
 62
     1
370
    15
100
AcDbSpline
210
0.0
220
0.0
230
1.0
 70
    24
 71
     3
 72
    10
 73
     6
 74
     0
 42
0.000000001
 43
0.00000001
 40
0.0
 40
0.0
 40
0.0
 40
0.0
 40
0.5
 40
0.5
 40
1.0
 40
1.0
 40
1.0
 40
1.0
 10
43.14988766000027
 20
8.334375000000007
 30
0.0
 10
43.14988766000027
 20
8.839584057612086
 30
0.0
 10
43.14988766000027
 20
9.426683769949122
 30
0.0
 10
43.14988766000027
 20
10.65841738519019
 30
0.0
 10
43.14988766000027
 20
11.29990559501129
 30
0.0
 10
43.14988766000027
 20
11.89618701882795
 30
0.0
1001
PE_URL
1000

  0
LINE
  5
B3
330
1F
100
AcDbEntity
  8
중심선
 62
     1
100
AcDbLine
 10
-59.10011233999973
 20
0.0000000000000013
 30
0.0
 11
50.14988766000029
 21
0.000000000000014
 31
0.0
  0
LINE
  5
B4
330
1F
100
AcDbEntity
  8
참조1
100
AcDbLine
 10
-1.300112339999721
 20
0.0000000000000029
 30
0.0
 11
-1.300112339999715
 21
-40.0
 31
0.0
  0
LINE
  5
B5
330
1F
100
AcDbEntity
  8
참조1
100
AcDbLine
 10
-1.300112339999715
 20
-40.0
 30
0.0
 11
-21.2214441543084
 21
-39.99999999999999
 31
0.0
  0
INSERT
  5
B7
330
1F
100
AcDbEntity
  8
0
  6
Continuous
 62
     7
100
AcDbBlockReference
 66
     1
  2
블럭10
 10
-15.24038527212493
 20
-52.04717430164393
 30
0.0
  0
ATTRIB
  5
B8
330
B7
100
AcDbEntity
  8
FORMAT
 62
     2
100
AcDbText
 10
-24.42168056086621
 20
-49.97180738881174
 30
0.0
 40
4.233333333333333
  1
E1030960 [ 2 FLUTE ]
 41
0.75
  7
SLDTEXTSTYLE0
 11
-24.42168056086621
 21
-52.08847405547841
 31
0.0
100
AcDbAttribute
  2
AUTOATTR0
 70
     0
 74
     1
  0
SEQEND
  5
B9
330
B7
100
AcDbEntity
  8
0
  6
Continuous
 62
     7
  0
HATCH
  5
BA
330
1F
100
AcDbEntity
  8
중심선
100
AcDbHatch
 10
0.0
 20
0.0
 30
0.0
210
0.0
220
0.0
230
1.0
  2
SOLID
 70
     1
 71
     0
 91
        1
 92
        0
 93
        4
 72
     1
 10
-9.525475967744084
 20
-35.79999999999999
 11
-12.97175121158137
 21
-35.79999999999999
 72
     1
 10
-12.97175121158137
 20
-35.79999999999999
 11
-15.09998107078539
 21
-38.33632558057259
 72
     1
 10
-15.09998107078539
 20
-38.33632558057259
 11
-11.65367274183496
 21
-38.3362861512701
 72
     1
 10
-11.65367274183496
 20
-38.3362861512701
 11
-9.525475967744084
 21
-35.79999999999999
 97
        0
 75
     0
 76
     1
 98
        1
 10
1.309308827873336
 20
-0.0010749287238863
  0
HATCH
  5
BB
330
1F
100
AcDbEntity
  8
중심선
100
AcDbHatch
 10
0.0
 20
0.0
 30
0.0
210
0.0
220
0.0
230
1.0
  2
SOLID
 70
     1
 71
     0
 91
        1
 92
        0
 93
        4
 72
     1
 10
-4.512711976708104
 20
-35.79999999999999
 11
-7.958987220545387
 21
-35.79999999999999
 72
     1
 10
-7.958987220545387
 20
-35.79999999999999
 11
-12.4901252289028
 21
-41.20000000000001
 72
     1
 10
-12.4901252289028
 20
-41.20000000000001
 11
-9.04384998506552
 21
-41.20000000000001
 72
     1
 10
-9.04384998506552
 20
-41.20000000000001
 11
-4.512711976708104
 21
-35.79999999999999
 97
        0
 75
     0
 76
     1
 98
        1
 10
1.309308827873336
 20
-0.0010749287238863
  0
HATCH
  5
BC
330
1F
100
AcDbEntity
  8
중심선
100
AcDbHatch
 10
0.0
 20
0.0
 30
0.0
210
0.0
220
0.0
230
1.0
  2
SOLID
 70
     1
 71
     0
 91
        1
 92
        0
 93
        4
 72
     1
 10
0.5000520143277634
 20
-35.79999999999999
 11
-2.946223229509353
 21
-35.79999999999999
 72
     1
 10
-2.946223229509353
 20
-35.79999999999999
 11
-9.994660131398602
 21
-44.20000000000001
 72
     1
 10
-9.994660131398602
 20
-44.20000000000001
 11
-6.548384887561319
 21
-44.20000000000001
 72
     1
 10
-6.548384887561319
 20
-44.20000000000001
 11
0.5000520143277631
 21
-35.79999999999999
 97
        0
 75
     0
 76
     1
 98
        1
 10
1.309308827873336
 20
-0.0010749287238863
  0
HATCH
  5
BD
330
1F
100
AcDbEntity
  8
중심선
100
AcDbHatch
 10
0.0
 20
0.0
 30
0.0
210
0.0
220
0.0
230
1.0
  2
SOLID
 70
     1
 71
     0
 91
        1
 92
        0
 93
        6
 72
     3
 10
5.299942445339963
 20
-40.00000000005127
 11
3.960054785062284
 21
1.540882976769353E-10
 40
0.3939339440162627
 50
17.09539180608437
 51
320.0019657685081
 73
     0
 72
     1
 10
6.982942101040559
 20
-38.58789400463829
 11
9.288243974741595
 21
-36.65356729459035
 72
     3
 10
5.299942445287116
 20
-40.00000000000014
 11
6.60005478528683
 21
-1.278976924368180E-13
 40
0.636358354079598
 50
39.99873849337432
 51
368.4976242363725
 73
     1
 72
     1
 10
11.72527493718773
 20
-39.03999999993002
 11
3.980009752123038
 21
-39.03999999993002
 72
     1
 10
3.980009752123038
 20
-39.03999999993002
 11
3.979984707677104
 21
-40.95999999992991
 72
     1
 10
3.979984707677104
 20
-40.95999999992991
 11
8.421364477149142
 21
-40.95999999992988
 97
        0
 75
     0
 76
     1
 98
        1
 10
1.309308827873336
 20
-0.0010749287238863
  0
DIMENSION
  5
BE
330
1F
100
AcDbEntity
  8
치수문자_일반주서
100
AcDbDimension
  2
_D
 10
-67.10011233999965
 20
-11.11250000000007
 30
0.0
 11
-67.1001123399998
 21
31.48749999999993
 31
0.0
 70
   160
  1
%%c<>
 71
     2
 42
22.225
 52
-270.0
  3
SLDDIMSTYLE2
100
AcDbAlignedDimension
 13
-51.10011233999973
 23
11.11249999999999
 33
0.0
 14
-51.03761233999973
 24
-11.11250000000001
 34
0.0
 50
90.0000000000002
100
AcDbRotatedDimension
1001
PE_URL
1000

1001
ACAD
1000
DSTYLE
1002
{
1070
   171
1070
     8
1070
   273
1070
     7
1070
    41
1040
4.0
1070
   140
1040
4.0
1002
}
1001
ACAD_DSTYLE_DIMFLIPARROW_SYMBOL
1070
   385
1070
     0
1001
ACAD_DSTYLE_DIMFLIPARROW_WHICH_SYMBOL
1070
   386
1070
     3
  0
DIMENSION
  5
CC
330
1F
100
AcDbEntity
  8
치수문자_일반주서
100
AcDbDimension
  2
_D_1
 10
5.049887660000273
 20
26.11249999999999
 30
0.0
 11
24.09988766000027
 21
26.11249999999999
 31
0.0
 70
   160
  1
<>
 71
     2
 42
38.1
  3
SLDDIMSTYLE2
100
AcDbAlignedDimension
 13
43.14988766000027
 23
11.89618701882795
 33
0.0
 14
5.049887660000274
 24
5.4728493240694
 34
0.0
100
AcDbRotatedDimension
1001
PE_URL
1000

1001
ACAD
1000
DSTYLE
1002
{
1070
   171
1070
     8
1070
   273
1070
     7
1070
    41
1040
4.0
1070
   140
1040
4.0
1002
}
  0
DIMENSION
  5
E2
330
1F
100
AcDbEntity
  8
치수문자_일반주서
100
AcDbDimension
  2
_D_2
 10
-52.10011233999974
 20
41.1125
 30
0.0
 11
-4.475112339999733
 21
41.1125
 31
0.0
 70
   160
  1
<>
 71
     2
 42
95.25
  3
SLDDIMSTYLE2
100
AcDbAlignedDimension
 13
43.14988766000027
 23
11.89618701882795
 33
0.0
 14
-52.10011233999973
 24
10.11249999999999
 34
0.0
 50
0.000000000000008
100
AcDbRotatedDimension
1001
PE_URL
1000

1001
ACAD
1000
DSTYLE
1002
{
1070
   171
1070
     8
1070
   273
1070
     7
1070
    41
1040
4.0
1070
   140
1040
4.0
1002
}
  0
DIMENSION
  5
F6
330
1F
100
AcDbEntity
  8
치수문자_일반주서
100
AcDbDimension
  2
_D_3
 10
58.14988766000026
 20
11.89618701882801
 30
0.0
 11
58.14988766000018
 21
34.27118701882802
 31
0.0
 70
   160
  1
%%c<>
 71
     2
 42
23.79237403765589
 52
-270.0
  3
SLDDIMSTYLE2
100
AcDbAlignedDimension
 13
43.14988766000027
 23
-11.89618701882794
 33
0.0
 14
43.14988766000027
 24
11.89618701882795
 34
0.0
 50
90.0000000000002
100
AcDbRotatedDimension
1001
PE_URL
1000

1001
ACAD
1000
DSTYLE
1002
{
1070
   171
1070
     8
1070
   273
1070
     7
1070
    41
1040
4.0
1070
   140
1040
4.0
1002
}
1001
ACAD_DSTYLE_DIMFLIPARROW_SYMBOL
1070
   385
1070
     0
1001
ACAD_DSTYLE_DIMFLIPARROW_WHICH_SYMBOL
1070
   386
1070
     3
  0
LINE
  5
10A
330
1F
100
AcDbEntity
  8
참조1
100
AcDbLine
 10
76.75089647534587
 20
7.440000000000009
 30
0.0
 11
76.75089647534587
 21
-7.439999999999995
 31
0.0
  0
LINE
  5
10B
330
1F
100
AcDbEntity
  8
참조1
100
AcDbLine
 10
89.45089647534587
 20
5.440000000000009
 30
0.0
 11
76.75089647534587
 21
5.440000000000009
 31
0.0
  0
SOLID
  5
10C
330
1F
100
AcDbEntity
  8
참조1
100
AcDbTrace
 10
76.75089647534587
 20
5.440000000000009
 30
0.0
 11
83.10089647534586
 21
4.424000000000009
 31
0.0
 12
83.10089647534586
 22
6.456000000000009
 32
0.0
 13
83.10089647534586
 23
6.456000000000009
 33
0.0
  0
LINE
  5
10D
330
1F
100
AcDbEntity
  8
참조1
100
AcDbLine
 10
89.45089647534587
 20
-5.439999999999995
 30
0.0
 11
76.75089647534587
 21
-5.439999999999995
 31
0.0
  0
SOLID
  5
10E
330
1F
100
AcDbEntity
  8
참조1
100
AcDbTrace
 10
76.75089647534587
 20
-5.439999999999995
 30
0.0
 11
83.10089647534586
 21
-6.455999999999995
 31
0.0
 12
83.10089647534586
 22
-4.423999999999995
 32
0.0
 13
83.10089647534586
 23
-4.423999999999995
 33
0.0
  0
MTEXT
  5
10F
330
1F
100
AcDbEntity
  8
참조1
100
AcDbMText
 10
86.13524660797185
 20
11.01029177718834
 30
0.0
 40
3.5
 41
0.0
 71
     1
 72
     1
  1
A
  7
SLDTEXTSTYLE0
 73
     1
 44
1.0
  0
MTEXT
  5
110
330
1F
100
AcDbEntity
  8
참조1
100
AcDbMText
 10
86.13524660797185
 20
0.1302917771883338
 30
0.0
 40
3.5
 41
0.0
 71
     1
 72
     1
  1
A
  7
SLDTEXTSTYLE0
 73
     1
 44
1.0
  0
LINE
  5
183
330
1F
100
AcDbEntity
  8
외형선
  6
Continuous
370
    15
100
AcDbLine
 10
1.999999999999991
 20
11.11249999999999
 30
0.0
 11
-18.60703733999974
 21
11.11249999999999
 31
0.0
  0
LINE
  5
184
330
1F
100
AcDbEntity
  8
외형선
  6
Continuous
370
    15
100
AcDbLine
 10
-51.10011233999973
 20
-11.11250000000001
 30
0.0
 11
1.999999999999991
 21
-11.11250000000001
 31
0.0
  0
LINE
  5
185
330
1F
100
AcDbEntity
  8
외형선
  6
Continuous
370
    15
100
AcDbLine
 10
-51.10011233999973
 20
11.11249999999999
 30
0.0
 11
-52.10011233999973
 21
10.11249999999999
 31
0.0
  0
LINE
  5
186
330
1F
100
AcDbEntity
  8
외형선
  6
Continuous
370
    15
100
AcDbLine
 10
-52.10011233999973
 20
-10.11250000000001
 30
0.0
 11
-51.10011233999973
 21
-11.11250000000001
 31
0.0
  0
SPLINE
  5
187
330
1F
100
AcDbEntity
  8
외형선
  6
Continuous
370
    15
100
AcDbSpline
210
0.0
220
0.0
230
1.0
 70
     8
 71
     3
 72
     9
 73
     5
 74
     0
 42
0.000000001
 43
0.00000001
 40
0.0
 40
0.0
 40
0.0
 40
0.0
 40
0.4532296105446606
 40
1.0
 40
1.0
 40
1.0
 40
1.0
 10
5.049887660000274
 20
9.331778724518896
 30
0.0
 10
4.670023690363871
 20
9.333043010703511
 30
0.0
 10
3.831896699543699
 20
9.335832515526667
 30
0.0
 10
2.961605944627579
 20
9.354002715372244
 30
0.0
 10
2.485756729622715
 20
9.363937642618295
 30
0.0
  0
SPLINE
  5
188
330
1F
100
AcDbEntity
  8
외형선
  6
Continuous
370
    15
100
AcDbSpline
210
0.0
220
0.0
230
1.0
 70
     8
 71
     3
 72
    17
 73
    13
 74
     0
 42
0.000000001
 43
0.00000001
 40
0.0
 40
0.0
 40
0.0
 40
0.0
 40
0.0070801997622609
 40
0.0156204795691281
 40
0.0394629476657554
 40
0.128173538411997
 40
0.499846899053988
 40
0.8714155085394594
 40
0.9601566875853113
 40
0.9841234724266871
 40
0.9927736443398496
 40
1.0
 40
1.0
 40
1.0
 40
1.0
 10
2.48786499121026
 20
9.363540491220354
 30
0.0
 10
2.486878158375895
 20
9.3636741984901
 30
0.0
 10
2.4847009878659
 20
9.363969186166363
 30
0.0
 10
2.477844053858441
 20
9.36689533673992
 30
0.0
 10
2.455275038977121
 20
9.380879917913886
 30
0.0
 10
2.366265028076413
 20
9.454437923323288
 30
0.0
 10
2.224112501610159
 20
9.594182078201568
 30
0.0
 10
2.087856021789158
 20
9.73964291424108
 30
0.0
 10
2.016483980183112
 20
9.830174412414186
 30
0.0
 10
2.003090807268799
 20
9.852818360427895
 30
0.0
 10
2.000348132973635
 20
9.859610302276293
 30
0.0
 10
2.00010889258536
 20
9.861720785923955
 30
0.0
 10
1.999999999999994
 20
9.862681393045547
 30
0.0
  0
SPLINE
  5
189
330
1F
100
AcDbEntity
  8
외형선
  6
Continuous
370
    15
100
AcDbSpline
210
0.0
220
0.0
230
1.0
 70
     8
 71
     3
 72
     9
 73
     5
 74
     0
 42
0.000000001
 43
0.00000001
 40
0.0
 40
0.0
 40
0.0
 40
0.0
 40
0.5557258566730712
 40
1.0
 40
1.0
 40
1.0
 40
1.0
 10
2.0000429637213
 20
-9.3723934805432
 30
0.0
 10
2.574994164483891
 20
-9.358317732351223
 30
0.0
 10
3.609589179019673
 20
-9.332989149880296
 30
0.0
 10
4.606836472849104
 20
-9.329309020574376
 30
0.0
 10
5.049887660000274
 20
-9.327674034279644
 30
0.0
  0
SPLINE
  5
18A
330
1F
100
AcDbEntity
  8
외형선
  6
Continuous
370
    15
100
AcDbSpline
210
0.0
220
0.0
230
1.0
 70
     8
 71
     3
 72
    10
 73
     6
 74
     0
 42
0.000000001
 43
0.00000001
 40
0.0
 40
0.0
 40
0.0
 40
0.0
 40
0.5000000000000002
 40
0.5000000000000002
 40
1.0
 40
1.0
 40
1.0
 40
1.0
 10
5.04988766000026
 20
6.734302469484659
 30
0.0
 10
4.540866537794444
 20
6.953169626449464
 30
0.0
 10
4.031010037163456
 20
7.164386161360243
 30
0.0
 10
3.01442295622119
 20
7.569553701964461
 30
0.0
 10
2.508701378985855
 20
7.763399430092123
 30
0.0
 10
2.000117649860834
 20
7.94858503835807
 30
0.0
  0
LINE
  5
18B
330
1F
100
AcDbEntity
  8
외형선
  6
Continuous
370
    15
100
AcDbLine
 10
5.049887660000257
 20
7.407747411205941
 30
0.0
 11
5.049887660000257
 21
4.83194216973582
 31
0.0
  0
SPLINE
  5
18C
330
1F
100
AcDbEntity
  8
외형선
  6
Continuous
370
    15
100
AcDbSpline
210
0.0
220
0.0
230
1.0
 70
     8
 71
     3
 72
    10
 73
     6
 74
     0
 42
0.000000001
 43
0.00000001
 40
0.0
 40
0.0
 40
0.0
 40
0.0
 40
0.5
 40
0.5
 40
1.0
 40
1.0
 40
1.0
 40
1.0
 10
5.049887660000262
 20
3.72069686607146
 30
0.0
 10
4.540846912624668
 20
3.98511918980601
 30
0.0
 10
4.030970722528937
 20
4.24461704690955
 30
0.0
 10
3.014344688161255
 20
4.75133757867944
 30
0.0
 10
2.508603541152584
 20
4.99841272231027
 30
0.0
 10
2.000000000000024
 20
5.239304759082852
 30
0.0
  0
LINE
  5
18D
330
1F
100
AcDbEntity
  8
외형선
  6
Continuous
370
    15
100
AcDbLine
 10
1.999999999999998
 20
7.933153441985256
 30
0.0
 11
1.999999999999991
 21
11.11249999999999
 31
0.0
  0
LINE
  5
18E
330
1F
100
AcDbEntity
  8
외형선
  6
Continuous
370
    15
100
AcDbLine
 10
-51.10011233999973
 20
11.11249999999999
 30
0.0
 11
-51.10011233999973
 21
-11.11250000000001
 31
0.0
  0
LINE
  5
18F
330
1F
100
AcDbEntity
  8
외형선
  6
Continuous
370
    15
100
AcDbLine
 10
1.999999999999991
 20
-11.11250000000001
 30
0.0
 11
2.000000000000005
 21
5.219561333586435
 31
0.0
  0
LINE
  5
190
330
1F
100
AcDbEntity
  8
외형선
  6
Continuous
370
    15
100
AcDbLine
 10
-52.10011233999973
 20
10.11249999999999
 30
0.0
 11
-52.10011233999973
 21
-10.11250000000001
 31
0.0
  0
SPLINE
  5
191
330
1F
100
AcDbEntity
  8
외형선
  6
Continuous
370
    15
100
AcDbSpline
210
0.0
220
0.0
230
1.0
 70
    24
 71
     3
 72
    10
 73
     6
 74
     0
 42
0.000000001
 43
0.00000001
 40
0.0
 40
0.0
 40
0.0
 40
0.0
 40
0.5
 40
0.5
 40
1.0
 40
1.0
 40
1.0
 40
1.0
 10
5.049887660000257
 20
4.83194216973582
 30
0.0
 10
5.049887660000257
 20
4.74142819408358
 30
0.0
 10
5.049887660000257
 20
4.534468936711312
 30
0.0
 10
5.049887660000257
 20
3.926966611916773
 30
0.0
 10
5.049887660000257
 20
3.528777107320645
 30
0.0
 10
5.049887660000257
 20
3.091561556538155
 30
0.0
  0
SPLINE
  5
192
330
1F
100
AcDbEntity
  8
외형선
  6
Continuous
370
    15
100
AcDbSpline
210
0.0
220
0.0
230
1.0
 70
     8
 71
     3
 72
    10
 73
     6
 74
     0
 42
0.000000001
 43
0.00000001
 40
0.0
 40
0.0
 40
0.0
 40
0.0
 40
0.5
 40
0.5
 40
1.0
 40
1.0
 40
1.0
 40
1.0
 10
5.049887660000274
 20
2.276856096278318
 30
0.0
 10
4.540851641092517
 20
2.465467310955961
 30
0.0
 10
4.03098019495603
 20
2.650938410816589
 30
0.0
 10
3.014363545982868
 20
3.013865214707368
 30
0.0
 10
2.508627114103128
 20
3.191213916246322
 30
0.0
 10
2.000028346438577
 20
3.364521382648074
 30
0.0
  0
SPLINE
  5
193
330
1F
100
AcDbEntity
  8
외형선
  6
Continuous
370
    15
100
AcDbSpline
210
0.0
220
0.0
230
1.0
 70
     8
 71
     3
 72
    10
 73
     6
 74
     0
 42
0.000000001
 43
0.00000001
 40
0.0
 40
0.0
 40
0.0
 40
0.0
 40
0.5
 40
0.5
 40
1.0
 40
1.0
 40
1.0
 40
1.0
 10
5.049887660000253
 20
-9.162673735611273
 30
0.0
 10
4.540854079400803
 20
-9.069314330881271
 30
0.0
 10
4.030985079560936
 20
-8.967347129663901
 30
0.0
 10
3.014373270313812
 20
-8.747180565688874
 30
0.0
 10
2.50863926986191
 20
-8.629082168377986
 30
0.0
 10
2.000042963721293
 20
-8.50291358700274
 30
0.0
  0
SPLINE
  5
194
330
1F
100
AcDbEntity
  8
외형선
  6
Continuous
370
    15
100
AcDbSpline
210
0.0
220
0.0
230
1.0
 70
    24
 71
     3
 72
    14
 73
    10
 74
     0
 42
0.000000001
 43
0.00000001
 40
0.0
 40
0.0
 40
0.0
 40
0.0
 40
0.25
 40
0.25
 40
0.5
 40
0.5
 40
0.75
 40
0.75
 40
1.0
 40
1.0
 40
1.0
 40
1.0
 10
5.049887660000257
 20
3.091561556538155
 30
0.0
 10
5.049887660000257
 20
2.125667170529331
 30
0.0
 10
5.049887660000257
 20
1.105472076254886
 30
0.0
 10
5.049887660000257
 20
-0.9567277288386205
 30
0.0
 10
5.049887660000257
 20
-1.997772334493886
 30
0.0
 10
5.049887660000257
 20
-3.997095181905364
 30
0.0
 10
5.049887660000257
 20
-4.954308100860336
 30
0.0
 10
5.049887660000257
 20
-6.697082093066042
 30
0.0
 10
5.049887660000257
 20
-7.482131711942591
 30
0.0
 10
5.049887660000257
 20
-8.157726670497373
 30
0.0
  0
SPLINE
  5
195
330
1F
100
AcDbEntity
  8
외형선
  6
Continuous
370
    15
100
AcDbSpline
210
0.0
220
0.0
230
1.0
 70
    24
 71
     3
 72
    14
 73
    10
 74
     0
 42
0.000000001
 43
0.00000001
 40
0.0
 40
0.0
 40
0.0
 40
0.0
 40
0.0645453061697868
 40
0.2459794996461765
 40
0.4326847489935098
 40
0.6193899983408431
 40
0.7833284972982645
 40
0.9472669962556859
 40
1.0
 40
1.0
 40
1.0
 40
1.0
 10
5.049887660000257
 20
8.667629223472234
 30
0.0
 10
5.049887660000257
 20
8.671695037469144
 30
0.0
 10
5.049887660000257
 20
8.687189686917124
 30
0.0
 10
5.049887660000257
 20
8.62668881500686
 30
0.0
 10
5.049887660000257
 20
8.482849061680449
 30
0.0
 10
5.049887660000257
 20
8.25529289132252
 30
0.0
 10
5.049887660000257
 20
7.959356144952435
 30
0.0
 10
5.049887660000257
 20
7.703262200006991
 30
0.0
 10
5.049887660000257
 20
7.520666175398086
 30
0.0
 10
5.049887660000257
 20
7.476226381842709
 30
0.0
  0
SPLINE
  5
196
330
1F
100
AcDbEntity
  8
외형선
  6
Continuous
370
    15
100
AcDbSpline
210
0.0
220
0.0
230
1.0
 70
    24
 71
     3
 72
    10
 73
     6
 74
     0
 42
0.000000001
 43
0.00000001
 40
0.0
 40
0.0
 40
0.0
 40
0.0
 40
0.4045304211907553
 40
0.8090608423815105
 40
1.0
 40
1.0
 40
1.0
 40
1.0
 10
5.049887660000257
 20
-8.157726670497373
 30
0.0
 10
5.049887660000257
 20
-8.275613865264352
 30
0.0
 10
5.049887660000257
 20
-8.511388254798304
 30
0.0
 10
5.049887660000257
 20
-8.656934894240058
 30
0.0
 10
5.049887660000257
 20
-8.665032599112008
 30
0.0
 10
5.049887660000257
 20
-8.667629153162656
 30
0.0
  0
SPLINE
  5
197
330
1F
100
AcDbEntity
  8
외형선
  6
Continuous
370
    15
100
AcDbSpline
210
0.0
220
0.0
230
1.0
 70
    24
 71
     3
 72
    10
 73
     6
 74
     0
 42
0.000000001
 43
0.00000001
 40
0.0
 40
0.0
 40
0.0
 40
0.0
 40
0.5
 40
0.5
 40
1.0
 40
1.0
 40
1.0
 40
1.0
 10
5.049887660000257
 20
4.83194216973582
 30
0.0
 10
5.049887660000257
 20
4.74142819408358
 30
0.0
 10
5.049887660000257
 20
4.534468936711312
 30
0.0
 10
5.049887660000257
 20
3.926966611916773
 30
0.0
 10
5.049887660000257
 20
3.528777107320645
 30
0.0
 10
5.049887660000257
 20
3.091561556538155
 30
0.0
  0
SPLINE
  5
198
330
1F
100
AcDbEntity
  8
외형선
  6
Continuous
370
    15
100
AcDbSpline
210
0.0
220
0.0
230
1.0
 70
    24
 71
     3
 72
    14
 73
    10
 74
     0
 42
0.000000001
 43
0.00000001
 40
0.0
 40
0.0
 40
0.0
 40
0.0
 40
0.064673047972051
 40
0.2460824655495974
 40
0.4327622192046207
 40
0.6194419728596441
 40
0.7833580850574977
 40
0.9472741972553513
 40
1.0
 40
1.0
 40
1.0
 40
1.0
 10
5.049887660000257
 20
8.667610682784735
 30
0.0
 10
5.049887660000257
 20
8.671686820767244
 30
0.0
 10
5.049887660000257
 20
8.687196621466429
 30
0.0
 10
5.049887660000257
 20
8.626693433017502
 30
0.0
 10
5.049887660000257
 20
8.482847803717506
 30
0.0
 10
5.049887660000257
 20
8.255293183657551
 30
0.0
 10
5.049887660000257
 20
7.95935606873684
 30
0.0
 10
5.049887660000257
 20
7.703262205087386
 30
0.0
 10
5.049887660000257
 20
7.520666176392519
 30
0.0
 10
5.049887660000257
 20
7.476226381842709
 30
0.0
  0
SPLINE
  5
199
330
1F
100
AcDbEntity
  8
외형선
  6
Continuous
370
    15
100
AcDbSpline
210
0.0
220
0.0
230
1.0
 70
    24
 71
     3
 72
    14
 73
    10
 74
     0
 42
0.000000001
 43
0.00000001
 40
0.0
 40
0.0
 40
0.0
 40
0.0
 40
0.25
 40
0.25
 40
0.5
 40
0.5
 40
0.75
 40
0.75
 40
1.0
 40
1.0
 40
1.0
 40
1.0
 10
5.049887660000257
 20
3.091561556538155
 30
0.0
 10
5.049887660000257
 20
2.125667170529331
 30
0.0
 10
5.049887660000257
 20
1.105472076254886
 30
0.0
 10
5.049887660000257
 20
-0.9567277288386205
 30
0.0
 10
5.049887660000257
 20
-1.997772334493886
 30
0.0
 10
5.049887660000257
 20
-3.997095181905364
 30
0.0
 10
5.049887660000257
 20
-4.954308100860336
 30
0.0
 10
5.049887660000257
 20
-6.697082093066042
 30
0.0
 10
5.049887660000257
 20
-7.482131711942591
 30
0.0
 10
5.049887660000257
 20
-8.157726670497373
 30
0.0
  0
SPLINE
  5
19A
330
1F
100
AcDbEntity
  8
외형선
  6
Continuous
370
    15
100
AcDbSpline
210
0.0
220
0.0
230
1.0
 70
    24
 71
     3
 72
    10
 73
     6
 74
     0
 42
0.000000001
 43
0.00000001
 40
0.0
 40
0.0
 40
0.0
 40
0.0
 40
0.4048732201621056
 40
0.8097464403242113
 40
1.0
 40
1.0
 40
1.0
 40
1.0
 10
5.049887660000257
 20
-8.15772667049738
 30
0.0
 10
5.049887660000257
 20
-8.275609162642821
 30
0.0
 10
5.049887660000257
 20
-8.511374146933717
 30
0.0
 10
5.049887660000257
 20
-8.65685562985407
 30
0.0
 10
5.049887660000257
 20
-8.664966014305788
 30
0.0
 10
5.049887660000257
 20
-8.667558788760834
 30
0.0
  0
CIRCLE
  5
19B
330
1F
100
AcDbEntity
  8
해칭선
100
AcDbCircle
 10
0.0
 20
0.0
 30
0.0
 40
2.999999999999993
  0
INSERT
  5
19C
330
1F
100
AcDbEntity
  8
해칭선
100
AcDbBlockReference
  2
SW_DOWELSYMBOL_0
 10
0.0
 20
0.0
 30
0.0
  0
LINE
  5
235
330
1F
100
AcDbEntity
  8
외형선
  6
Continuous
370
    15
100
AcDbLine
 10
-32.09443733999971
 20
9.207499999999976
 30
0.0
 11
-20.51203733999971
 21
9.207499999999976
 31
0.0
1001
PE_URL
1000

  0
LINE
  5
236
330
1F
100
AcDbEntity
  8
외형선
  6
Continuous
370
    15
100
AcDbLine
 10
-32.09443733999971
 20
9.207499999999962
 30
0.0
 11
-33.99943733999986
 21
11.11249999999999
 31
0.0
1001
PE_URL
1000

  0
LINE
  5
237
330
1F
100
AcDbEntity
  8
외형선
  6
Continuous
370
    15
100
AcDbLine
 10
-20.51203733999971
 20
9.207499999999962
 30
0.0
 11
-18.60703733999974
 21
11.11249999999999
 31
0.0
1001
PE_URL
1000

  0
LINE
  5
23A
330
1F
100
AcDbEntity
  8
외형선
  6
Continuous
370
    15
100
AcDbLine
 10
-33.99943733999986
 20
11.11249999999999
 30
0.0
 11
-51.10011233999973
 21
11.11249999999999
 31
0.0
  0
ENDSEC
  0
SECTION
  2
OBJECTS
  0
DICTIONARY
  5
C
330
0
100
AcDbDictionary
281
     1
  3
ACAD_DETAILVIEWSTYLE
350
1FD
  3
ACAD_GROUP
350
D
  3
ACAD_LAYOUT
350
1A
  3
ACAD_MLINESTYLE
350
17
  3
ACAD_PLOTSETTINGS
350
19
  3
ACAD_PLOTSTYLENAME
350
E
  3
ACAD_SCALELIST
350
47
  3
ACAD_SECTIONVIEWSTYLE
350
1FE
  3
AcDbVariableDictionary
350
1F8
  3
APPDATA
350
139
  3
DWGPROPS
350
23B
  0
DICTIONARY
  5
17E
330
2
100
AcDbDictionary
280
     1
281
     1
  3
ACAD_LAYERSTATES
360
17F
  0
DICTIONARY
  5
1FD
102
{ACAD_REACTORS
330
C
102
}
330
C
100
AcDbDictionary
281
     1
  0
DICTIONARY
  5
D
102
{ACAD_REACTORS
330
C
102
}
330
C
100
AcDbDictionary
281
     1
  0
DICTIONARY
  5
1A
102
{ACAD_REACTORS
330
C
102
}
330
C
100
AcDbDictionary
281
     1
  3
Layout1
350
1E
  3
Layout2
350
26
  3
Model
350
22
  0
DICTIONARY
  5
17
102
{ACAD_REACTORS
330
C
102
}
330
C
100
AcDbDictionary
281
     1
  3
Standard
350
18
  0
DICTIONARY
  5
19
102
{ACAD_REACTORS
330
C
102
}
330
C
100
AcDbDictionary
281
     1
  0
ACDBDICTIONARYWDFLT
  5
E
102
{ACAD_REACTORS
330
C
102
}
330
C
100
AcDbDictionary
281
     1
  3
Normal
350
F
100
AcDbDictionaryWithDefault
340
F
  0
DICTIONARY
  5
47
102
{ACAD_REACTORS
330
C
102
}
330
C
100
AcDbDictionary
281
     1
  3
A0
350
48
  3
A1
350
49
  3
A2
350
4A
  3
A3
350
4B
  3
A4
350
4C
  3
A5
350
4D
  3
A6
350
4E
  3
A7
350
4F
  3
A8
350
50
  3
A9
350
51
  3
B0
350
52
  3
B1
350
53
  3
B2
350
54
  3
B3
350
55
  3
B4
350
56
  3
B5
350
57
  3
B6
350
58
  3
B7
350
59
  3
B8
350
5A
  3
B9
350
5B
  3
C0
350
5C
  3
C1
350
5D
  3
C2
350
5E
  3
C3
350
5F
  3
C4
350
60
  3
C5
350
61
  3
C6
350
62
  3
C7
350
63
  3
C8
350
64
  3
C9
350
65
  3
D0
350
66
  3
D1
350
67
  3
D2
350
68
  0
DICTIONARY
  5
1FE
102
{ACAD_REACTORS
330
C
102
}
330
C
100
AcDbDictionary
281
     1
  0
DICTIONARY
  5
1F8
102
{ACAD_REACTORS
330
C
102
}
330
C
100
AcDbDictionary
281
     1
  0
DICTIONARY
  5
139
102
{ACAD_REACTORS
330
C
102
}
330
C
100
AcDbDictionary
281
     1
  0
XRECORD
  5
23B
102
{ACAD_REACTORS
330
C
102
}
330
C
100
AcDbXrecord
280
     1
  1
DWGPROPS COOKIE
  2

  3

  4

  6

  7

  8
120170442
  9

300
=
301
=
302
=
303
=
304
=
305
=
306
=
307
=
308
=
309
=
 40
0.0
 41
2458311.196143866
 42
2458321.271721308
  1

 90
        0
  0
DICTIONARY
  5
17F
102
{ACAD_REACTORS
330
17E
102
}
330
17E
100
AcDbDictionary
281
     1
  0
LAYOUT
  5
1E
102
{ACAD_REACTORS
330
1A
102
}
330
1A
100
AcDbPlotSettings
  1

  2
none_device
  4

  6

 40
0.0
 41
0.0
 42
0.0
 43
0.0
 44
0.0
 45
0.0
 46
0.0
 47
0.0
 48
0.0
 49
0.0
140
0.0
141
0.0
142
1.0
143
1.0
 70
   688
 72
     1
 73
     0
 74
     5
  7

 75
    16
147
1.0
148
0.0
149
0.0
100
AcDbLayout
  1
Layout1
 70
     1
 71
     1
 10
0.0
 20
0.0
 11
420.0
 21
297.0
 12
0.0
 22
0.0
 32
0.0
 14
1.000000000000000E+20
 24
1.000000000000000E+20
 34
1.000000000000000E+20
 15
-1.000000000000000E+20
 25
-1.000000000000000E+20
 35
-1.000000000000000E+20
146
0.0
 13
0.0
 23
0.0
 33
0.0
 16
1.0
 26
0.0
 36
0.0
 17
0.0
 27
1.0
 37
0.0
 76
     0
330
1B
  0
LAYOUT
  5
26
102
{ACAD_REACTORS
330
1A
102
}
330
1A
100
AcDbPlotSettings
  1

  2
none_device
  4

  6

 40
0.0
 41
0.0
 42
0.0
 43
0.0
 44
0.0
 45
0.0
 46
0.0
 47
0.0
 48
0.0
 49
0.0
140
0.0
141
0.0
142
1.0
143
1.0
 70
   688
 72
     1
 73
     0
 74
     5
  7

 75
    16
147
1.0
148
0.0
149
0.0
100
AcDbLayout
  1
Layout2
 70
     1
 71
     2
 10
0.0
 20
0.0
 11
0.0
 21
0.0
 12
0.0
 22
0.0
 32
0.0
 14
0.0
 24
0.0
 34
0.0
 15
0.0
 25
0.0
 35
0.0
146
0.0
 13
0.0
 23
0.0
 33
0.0
 16
1.0
 26
0.0
 36
0.0
 17
0.0
 27
1.0
 37
0.0
 76
     0
330
23
  0
LAYOUT
  5
22
102
{ACAD_REACTORS
330
1A
102
}
330
1A
100
AcDbPlotSettings
  1

  2
none_device
  4
ANSI_A_(11.00_x_8.50_Inches)
  6

 40
6.35
 41
19.05
 42
6.35000508
 43
19.05000254
 44
279.4
 45
215.9
 46
111.5354592427306
 47
94.67628593358968
 48
0.0
 49
0.0
140
0.0
141
0.0
142
0.0715194751484015
143
1.0
 70
  1696
 72
     0
 73
     0
 74
     0
  7

 75
     0
147
0.0235690232323232
148
0.0
149
0.0
100
AcDbLayout
  1
Model
 70
     1
 71
     0
 10
0.0
 20
0.0
 11
420.0
 21
297.0
 12
0.0
 22
0.0
 32
0.0
 14
-71.97511233999985
 24
-49.97180738881174
 34
0.0
 15
89.45089647534587
 25
52.64618701882803
 35
0.0
146
0.0
 13
0.0
 23
0.0
 33
0.0
 16
1.0
 26
0.0
 36
0.0
 17
0.0
 27
1.0
 37
0.0
 76
     0
330
1F
331
29
  0
MLINESTYLE
  5
18
102
{ACAD_REACTORS
330
17
102
}
330
17
100
AcDbMlineStyle
  2
Standard
 70
     0
  3

 62
   256
 51
90.0
 52
90.0
 71
     2
 49
0.5
 62
   256
  6
BYLAYER
 49
-0.5
 62
   256
  6
BYLAYER
  0
ACDBPLACEHOLDER
  5
F
102
{ACAD_REACTORS
330
E
102
}
330
E
  0
SCALE
  5
48
102
{ACAD_REACTORS
330
47
102
}
330
47
100
AcDbScale
 70
     0
300
1:1
140
1.0
141
1.0
290
     1
  0
SCALE
  5
49
102
{ACAD_REACTORS
330
47
102
}
330
47
100
AcDbScale
 70
     0
300
1:2
140
1.0
141
2.0
290
     0
  0
SCALE
  5
4A
102
{ACAD_REACTORS
330
47
102
}
330
47
100
AcDbScale
 70
     0
300
1:4
140
1.0
141
4.0
290
     0
  0
SCALE
  5
4B
102
{ACAD_REACTORS
330
47
102
}
330
47
100
AcDbScale
 70
     0
300
1:5
140
1.0
141
5.0
290
     0
  0
SCALE
  5
4C
102
{ACAD_REACTORS
330
47
102
}
330
47
100
AcDbScale
 70
     0
300
1:8
140
1.0
141
8.0
290
     0
  0
SCALE
  5
4D
102
{ACAD_REACTORS
330
47
102
}
330
47
100
AcDbScale
 70
     0
300
1:10
140
1.0
141
10.0
290
     0
  0
SCALE
  5
4E
102
{ACAD_REACTORS
330
47
102
}
330
47
100
AcDbScale
 70
     0
300
1:16
140
1.0
141
16.0
290
     0
  0
SCALE
  5
4F
102
{ACAD_REACTORS
330
47
102
}
330
47
100
AcDbScale
 70
     0
300
1:20
140
1.0
141
20.0
290
     0
  0
SCALE
  5
50
102
{ACAD_REACTORS
330
47
102
}
330
47
100
AcDbScale
 70
     0
300
1:30
140
1.0
141
30.0
290
     0
  0
SCALE
  5
51
102
{ACAD_REACTORS
330
47
102
}
330
47
100
AcDbScale
 70
     0
300
1:40
140
1.0
141
40.0
290
     0
  0
SCALE
  5
52
102
{ACAD_REACTORS
330
47
102
}
330
47
100
AcDbScale
 70
     0
300
1:50
140
1.0
141
50.0
290
     0
  0
SCALE
  5
53
102
{ACAD_REACTORS
330
47
102
}
330
47
100
AcDbScale
 70
     0
300
1:100
140
1.0
141
100.0
290
     0
  0
SCALE
  5
54
102
{ACAD_REACTORS
330
47
102
}
330
47
100
AcDbScale
 70
     0
300
2:1
140
2.0
141
1.0
290
     0
  0
SCALE
  5
55
102
{ACAD_REACTORS
330
47
102
}
330
47
100
AcDbScale
 70
     0
300
4:1
140
4.0
141
1.0
290
     0
  0
SCALE
  5
56
102
{ACAD_REACTORS
330
47
102
}
330
47
100
AcDbScale
 70
     0
300
8:1
140
8.0
141
1.0
290
     0
  0
SCALE
  5
57
102
{ACAD_REACTORS
330
47
102
}
330
47
100
AcDbScale
 70
     0
300
10:1
140
10.0
141
1.0
290
     0
  0
SCALE
  5
58
102
{ACAD_REACTORS
330
47
102
}
330
47
100
AcDbScale
 70
     0
300
100:1
140
100.0
141
1.0
290
     0
  0
SCALE
  5
59
102
{ACAD_REACTORS
330
47
102
}
330
47
100
AcDbScale
 70
     0
300
1/128" = 1'-0"
140
0.0078125
141
12.0
290
     0
  0
SCALE
  5
5A
102
{ACAD_REACTORS
330
47
102
}
330
47
100
AcDbScale
 70
     0
300
1/64" = 1'-0"
140
0.015625
141
12.0
290
     0
  0
SCALE
  5
5B
102
{ACAD_REACTORS
330
47
102
}
330
47
100
AcDbScale
 70
     0
300
1/32" = 1'-0"
140
0.03125
141
12.0
290
     0
  0
SCALE
  5
5C
102
{ACAD_REACTORS
330
47
102
}
330
47
100
AcDbScale
 70
     0
300
1/16" = 1'-0"
140
0.0625
141
12.0
290
     0
  0
SCALE
  5
5D
102
{ACAD_REACTORS
330
47
102
}
330
47
100
AcDbScale
 70
     0
300
3/32" = 1'-0"
140
0.09375
141
12.0
290
     0
  0
SCALE
  5
5E
102
{ACAD_REACTORS
330
47
102
}
330
47
100
AcDbScale
 70
     0
300
1/8" = 1'-0"
140
0.125
141
12.0
290
     0
  0
SCALE
  5
5F
102
{ACAD_REACTORS
330
47
102
}
330
47
100
AcDbScale
 70
     0
300
3/16" = 1'-0"
140
0.1875
141
12.0
290
     0
  0
SCALE
  5
60
102
{ACAD_REACTORS
330
47
102
}
330
47
100
AcDbScale
 70
     0
300
1/4" = 1'-0"
140
0.25
141
12.0
290
     0
  0
SCALE
  5
61
102
{ACAD_REACTORS
330
47
102
}
330
47
100
AcDbScale
 70
     0
300
3/8" = 1'-0"
140
0.375
141
12.0
290
     0
  0
SCALE
  5
62
102
{ACAD_REACTORS
330
47
102
}
330
47
100
AcDbScale
 70
     0
300
1/2" = 1'-0"
140
0.5
141
12.0
290
     0
  0
SCALE
  5
63
102
{ACAD_REACTORS
330
47
102
}
330
47
100
AcDbScale
 70
     0
300
3/4" = 1'-0"
140
0.75
141
12.0
290
     0
  0
SCALE
  5
64
102
{ACAD_REACTORS
330
47
102
}
330
47
100
AcDbScale
 70
     0
300
1" = 1'-0"
140
1.0
141
12.0
290
     0
  0
SCALE
  5
65
102
{ACAD_REACTORS
330
47
102
}
330
47
100
AcDbScale
 70
     0
300
1-1/2" = 1'-0"
140
1.5
141
12.0
290
     0
  0
SCALE
  5
66
102
{ACAD_REACTORS
330
47
102
}
330
47
100
AcDbScale
 70
     0
300
3" = 1'-0"
140
3.0
141
12.0
290
     0
  0
SCALE
  5
67
102
{ACAD_REACTORS
330
47
102
}
330
47
100
AcDbScale
 70
     0
300
6" = 1'-0"
140
6.0
141
12.0
290
     0
  0
SCALE
  5
68
102
{ACAD_REACTORS
330
47
102
}
330
47
100
AcDbScale
 70
     0
300
1'-0" = 1'-0"
140
12.0
141
12.0
290
     0
  0
ENDSEC
  0
EOF
