  0
SECTION
  2
HEADER
  9
$ACADVER
  1
AC1015
  9
$ACADMAINTVER
 70
     6
  9
$DWGCODEPAGE
  3
ANSI_949
  9
$INSBASE
 10
0.0
 20
0.0
 30
0.0
  9
$EXTMIN
 10
-65.58827283782728
 20
-49.97180738881174
 30
0.0
  9
$EXTMAX
 10
192.8191864972482
 20
45.93033999616129
 30
0.0
  9
$LIMMIN
 10
0.0
 20
0.0
  9
$LIMMAX
 10
420.0
 20
297.0
  9
$ORTHOMODE
 70
     1
  9
$REGENMODE
 70
     1
  9
$FILLMODE
 70
     1
  9
$QTEXTMODE
 70
     0
  9
$MIRRTEXT
 70
     1
  9
$LTSCALE
 40
1.0
  9
$ATTMODE
 70
     1
  9
$TEXTSIZE
 40
3.5
  9
$TRACEWID
 40
1.0
  9
$TEXTSTYLE
  7
Standard
  9
$CLAYER
  8
0
  9
$CELTYPE
  6
ByLayer
  9
$CECOLOR
 62
   256
  9
$CELTSCALE
 40
1.0
  9
$DISPSILH
 70
     0
  9
$DIMSCALE
 40
1.0
  9
$DIMASZ
 40
3.302
  9
$DIMEXO
 40
1.0
  9
$DIMDLI
 40
3.75
  9
$DIMRND
 40
0.0
  9
$DIMDLE
 40
0.0
  9
$DIMEXE
 40
1.0
  9
$DIMTP
 40
0.0
  9
$DIMTM
 40
0.0
  9
$DIMTXT
 40
3.5
  9
$DIMCEN
 40
2.5
  9
$DIMTSZ
 40
0.0
  9
$DIMTOL
 70
     0
  9
$DIMLIM
 70
     0
  9
$DIMTIH
 70
     1
  9
$DIMTOH
 70
     1
  9
$DIMSE1
 70
     0
  9
$DIMSE2
 70
     0
  9
$DIMTAD
 70
     1
  9
$DIMZIN
 70
     0
  9
$DIMBLK
  1

  9
$DIMASO
 70
     1
  9
$DIMSHO
 70
     1
  9
$DIMPOST
  1

  9
$DIMAPOST
  1

  9
$DIMALT
 70
     0
  9
$DIMALTD
 70
     3
  9
$DIMALTF
 40
0.0393700787401575
  9
$DIMLFAC
 40
1.0
  9
$DIMTOFL
 70
     1
  9
$DIMTVP
 40
0.0
  9
$DIMTIX
 70
     0
  9
$DIMSOXD
 70
     0
  9
$DIMSAH
 70
     0
  9
$DIMBLK1
  1

  9
$DIMBLK2
  1

  9
$DIMSTYLE
  2
ISO-25
  9
$DIMCLRD
 70
     0
  9
$DIMCLRE
 70
     0
  9
$DIMCLRT
 70
     0
  9
$DIMTFAC
 40
1.0
  9
$DIMGAP
 40
1.524
  9
$DIMJUST
 70
     0
  9
$DIMSD1
 70
     0
  9
$DIMSD2
 70
     0
  9
$DIMTOLJ
 70
     0
  9
$DIMTZIN
 70
     0
  9
$DIMALTZ
 70
     0
  9
$DIMALTTZ
 70
     0
  9
$DIMUPT
 70
     0
  9
$DIMDEC
 70
     2
  9
$DIMTDEC
 70
     2
  9
$DIMALTU
 70
     2
  9
$DIMALTTD
 70
     3
  9
$DIMTXSTY
  7
Standard
  9
$DIMAUNIT
 70
     0
  9
$DIMADEC
 70
     2
  9
$DIMALTRND
 40
0.0
  9
$DIMAZIN
 70
     0
  9
$DIMDSEP
 70
    44
  9
$DIMATFIT
 70
     3
  9
$DIMFRAC
 70
     0
  9
$DIMLDRBLK
  1

  9
$DIMLUNIT
 70
     2
  9
$DIMLWD
 70
    -2
  9
$DIMLWE
 70
    -2
  9
$DIMTMOVE
 70
     0
  9
$LUNITS
 70
     2
  9
$LUPREC
 70
     2
  9
$SKETCHINC
 40
1.0
  9
$FILLETRAD
 40
10.0
  9
$AUNITS
 70
     0
  9
$AUPREC
 70
     2
  9
$MENU
  1
.
  9
$ELEVATION
 40
0.0
  9
$PELEVATION
 40
0.0
  9
$THICKNESS
 40
0.0
  9
$LIMCHECK
 70
     0
  9
$CHAMFERA
 40
0.0
  9
$CHAMFERB
 40
0.0
  9
$CHAMFERC
 40
0.0
  9
$CHAMFERD
 40
0.0
  9
$SKPOLY
 70
     0
  9
$TDCREATE
 40
2458312.676739329
  9
$TDUCREATE
 40
2458312.301739329
  9
$TDUPDATE
 40
2458323.753119016
  9
$TDUUPDATE
 40
2458323.378119016
  9
$TDINDWG
 40
0.0018206713
  9
$TDUSRTIMER
 40
2458323.37807441
  9
$USRTIMER
 70
     1
  9
$ANGBASE
 50
0.0
  9
$ANGDIR
 70
     0
  9
$PDMODE
 70
     0
  9
$PDSIZE
 40
-1.0
  9
$PLINEWID
 40
0.0
  9
$SPLFRAME
 70
     0
  9
$SPLINETYPE
 70
     6
  9
$SPLINESEGS
 70
     8
  9
$HANDSEED
  5
5B4
  9
$SURFTAB1
 70
     6
  9
$SURFTAB2
 70
     6
  9
$SURFTYPE
 70
     6
  9
$SURFU
 70
     6
  9
$SURFV
 70
     6
  9
$UCSBASE
  2

  9
$UCSNAME
  2

  9
$UCSORG
 10
0.0
 20
0.0
 30
0.0
  9
$UCSXDIR
 10
1.0
 20
0.0
 30
0.0
  9
$UCSYDIR
 10
0.0
 20
1.0
 30
0.0
  9
$UCSORTHOREF
  2

  9
$UCSORTHOVIEW
 70
     0
  9
$UCSORGTOP
 10
0.0
 20
0.0
 30
0.0
  9
$UCSORGBOTTOM
 10
0.0
 20
0.0
 30
0.0
  9
$UCSORGLEFT
 10
0.0
 20
0.0
 30
0.0
  9
$UCSORGRIGHT
 10
0.0
 20
0.0
 30
0.0
  9
$UCSORGFRONT
 10
0.0
 20
0.0
 30
0.0
  9
$UCSORGBACK
 10
0.0
 20
0.0
 30
0.0
  9
$PUCSBASE
  2

  9
$PUCSNAME
  2

  9
$PUCSORG
 10
0.0
 20
0.0
 30
0.0
  9
$PUCSXDIR
 10
1.0
 20
0.0
 30
0.0
  9
$PUCSYDIR
 10
0.0
 20
1.0
 30
0.0
  9
$PUCSORTHOREF
  2

  9
$PUCSORTHOVIEW
 70
     0
  9
$PUCSORGTOP
 10
0.0
 20
0.0
 30
0.0
  9
$PUCSORGBOTTOM
 10
0.0
 20
0.0
 30
0.0
  9
$PUCSORGLEFT
 10
0.0
 20
0.0
 30
0.0
  9
$PUCSORGRIGHT
 10
0.0
 20
0.0
 30
0.0
  9
$PUCSORGFRONT
 10
0.0
 20
0.0
 30
0.0
  9
$PUCSORGBACK
 10
0.0
 20
0.0
 30
0.0
  9
$USERI1
 70
     0
  9
$USERI2
 70
     0
  9
$USERI3
 70
     0
  9
$USERI4
 70
     0
  9
$USERI5
 70
     0
  9
$USERR1
 40
0.0
  9
$USERR2
 40
0.0
  9
$USERR3
 40
0.0
  9
$USERR4
 40
0.0
  9
$USERR5
 40
0.0
  9
$WORLDVIEW
 70
     1
  9
$SHADEDGE
 70
     3
  9
$SHADEDIF
 70
    70
  9
$TILEMODE
 70
     1
  9
$MAXACTVP
 70
    64
  9
$PINSBASE
 10
0.0
 20
0.0
 30
0.0
  9
$PLIMCHECK
 70
     0
  9
$PEXTMIN
 10
1.000000000000000E+20
 20
1.000000000000000E+20
 30
1.000000000000000E+20
  9
$PEXTMAX
 10
-1.000000000000000E+20
 20
-1.000000000000000E+20
 30
-1.000000000000000E+20
  9
$PLIMMIN
 10
0.0
 20
0.0
  9
$PLIMMAX
 10
0.0
 20
0.0
  9
$UNITMODE
 70
     0
  9
$VISRETAIN
 70
     1
  9
$PLINEGEN
 70
     0
  9
$PSLTSCALE
 70
     1
  9
$TREEDEPTH
 70
  3020
  9
$CMLSTYLE
  2
Standard
  9
$CMLJUST
 70
     0
  9
$CMLSCALE
 40
20.0
  9
$PROXYGRAPHICS
 70
     1
  9
$MEASUREMENT
 70
     1
  9
$CELWEIGHT
370
    -1
  9
$ENDCAPS
280
     0
  9
$JOINSTYLE
280
     0
  9
$LWDISPLAY
290
     1
  9
$INSUNITS
 70
     4
  9
$HYPERLINKBASE
  1

  9
$STYLESHEET
  1

  9
$XEDIT
290
     1
  9
$CEPSNTYPE
380
     0
  9
$PSTYLEMODE
290
     1
  9
$FINGERPRINTGUID
  2
{96DBD550-CB75-4FB1-BCD2-40DC8821F4BD}
  9
$VERSIONGUID
  2
{FAEB1C32-E019-11D5-929B-00C0DF256EC4}
  9
$EXTNAMES
290
     1
  9
$PSVPSCALE
 40
0.0
  9
$OLESTARTUP
290
     0
  0
ENDSEC
  0
SECTION
  2
CLASSES
  0
CLASS
  1
ACDBDICTIONARYWDFLT
  2
AcDbDictionaryWithDefault
  3
ObjectDBX Classes
 90
        0
280
     0
281
     0
  0
CLASS
  1
VISUALSTYLE
  2
AcDbVisualStyle
  3
ObjectDBX Classes
 90
     4095
280
     0
281
     0
  0
CLASS
  1
MATERIAL
  2
AcDbMaterial
  3
ObjectDBX Classes
 90
     1153
280
     0
281
     0
  0
CLASS
  1
SCALE
  2
AcDbScale
  3
ObjectDBX Classes
 90
     1153
280
     0
281
     0
  0
CLASS
  1
SUN
  2
AcDbSun
  3
SCENEOE
 90
     1153
280
     0
281
     0
  0
CLASS
  1
ACDBPLACEHOLDER
  2
AcDbPlaceHolder
  3
ObjectDBX Classes
 90
        0
280
     0
281
     0
  0
CLASS
  1
LAYOUT
  2
AcDbLayout
  3
ObjectDBX Classes
 90
        0
280
     0
281
     0
  0
CLASS
  1
TABLESTYLE
  2
AcDbTableStyle
  3
ObjectDBX Classes
 90
     4095
280
     0
281
     0
  0
CLASS
  1
MLEADERSTYLE
  2
AcDbMLeaderStyle
  3
ACDB_MLEADERSTYLE_CLASS
 90
     4095
280
     0
281
     0
  0
CLASS
  1
RASTERVARIABLES
  2
AcDbRasterVariables
  3
ISM
 90
        0
280
     0
281
     0
  0
CLASS
  1
DIMASSOC
  2
AcDbDimAssoc
  3
"AcDbDimAssoc|Product Desc:     AcDim ARX App For Dimension|Company:          Autodesk, Inc.|WEB Address:      www.autodesk.com"
 90
        0
280
     0
281
     0
  0
ENDSEC
  0
SECTION
  2
TABLES
  0
TABLE
  2
VPORT
  5
8
330
0
100
AcDbSymbolTable
 70
     1
  0
VPORT
  5
29
330
8
100
AcDbSymbolTableRecord
100
AcDbViewportTableRecord
  2
*Active
 70
     0
 10
0.0
 20
0.0
 11
1.0
 21
1.0
 12
51.76899289398158
 22
16.71855688456262
 13
0.0
 23
0.0
 14
10.0
 24
10.0
 15
10.0
 25
10.0
 16
0.0
 26
0.0
 36
1.0
 17
0.0
 27
0.0
 37
0.0
 40
313.8731611148517
 41
1.632093933463796
 42
50.0
 43
0.0
 44
0.0
 50
0.0
 51
0.0
 71
    16
 72
  2000
 73
     1
 74
     3
 75
     0
 76
     0
 77
     0
 78
     0
281
     0
 65
     1
110
0.0
120
0.0
130
0.0
111
1.0
121
0.0
131
0.0
112
0.0
122
1.0
132
0.0
 79
     0
146
0.0
  0
ENDTAB
  0
TABLE
  2
LTYPE
  5
5
330
0
100
AcDbSymbolTable
 70
     6
  0
LTYPE
  5
14
330
5
100
AcDbSymbolTableRecord
100
AcDbLinetypeTableRecord
  2
ByBlock
 70
     0
  3

 72
    65
 73
     0
 40
0.0
  0
LTYPE
  5
15
330
5
100
AcDbSymbolTableRecord
100
AcDbLinetypeTableRecord
  2
ByLayer
 70
     0
  3

 72
    65
 73
     0
 40
0.0
  0
LTYPE
  5
16
330
5
100
AcDbSymbolTableRecord
100
AcDbLinetypeTableRecord
  2
Continuous
 70
     0
  3
Solid line
 72
    65
 73
     0
 40
0.0
  0
LTYPE
  5
6A
330
5
100
AcDbSymbolTableRecord
100
AcDbLinetypeTableRecord
  2
HIDDEN
 70
     0
  3
Hidden __ __ __ __ __ __ __ __ __ __ __ __ __ __
 72
    65
 73
     2
 40
1.905
 49
1.27
 74
     0
 49
-0.635
 74
     0
  0
LTYPE
  5
6B
330
5
100
AcDbSymbolTableRecord
100
AcDbLinetypeTableRecord
  2
PHANTOM
 70
     0
  3
Phantom ______  __  __  ______  __  __  ______
 72
    65
 73
     6
 40
12.7
 49
6.35
 74
     0
 49
-1.27
 74
     0
 49
1.27
 74
     0
 49
-1.27
 74
     0
 49
1.27
 74
     0
 49
-1.27
 74
     0
  0
LTYPE
  5
6C
330
5
100
AcDbSymbolTableRecord
100
AcDbLinetypeTableRecord
  2
CENTER
 70
     0
  3
Center ____ _ ____ _ ____ _ ____ _ ____ _ ____
 72
    65
 73
     4
 40
10.16
 49
6.35
 74
     0
 49
-1.27
 74
     0
 49
1.27
 74
     0
 49
-1.27
 74
     0
  0
LTYPE
  5
6D
330
5
100
AcDbSymbolTableRecord
100
AcDbLinetypeTableRecord
  2
CENTERX2
 70
     0
  3
Center (2x) ________  __  ________  __  _____
 72
    65
 73
     4
 40
20.32
 49
12.7
 74
     0
 49
-2.54
 74
     0
 49
2.54
 74
     0
 49
-2.54
 74
     0
  0
LTYPE
  5
6E
330
5
100
AcDbSymbolTableRecord
100
AcDbLinetypeTableRecord
  2
DOT2
 70
     0
  3
Dot (.5x) ........................................
 72
    65
 73
     2
 40
0.635
 49
0.0
 74
     0
 49
-0.635
 74
     0
  0
ENDTAB
  0
TABLE
  2
LAYER
  5
2
102
{ACAD_XDICTIONARY
360
1F1
102
}
330
0
100
AcDbSymbolTable
 70
    18
  0
LAYER
  5
10
330
2
100
AcDbSymbolTableRecord
100
AcDbLayerTableRecord
  2
0
 70
     0
 62
     7
  6
Continuous
370
    -3
390
F
  0
LAYER
  5
6F
330
2
100
AcDbSymbolTableRecord
100
AcDbLayerTableRecord
  2
FORMAT
 70
     0
 62
     2
  6
Continuous
370
    -3
390
F
  0
LAYER
  5
70
330
2
100
AcDbSymbolTableRecord
100
AcDbLayerTableRecord
  2
외형선
 70
     0
 62
     4
  6
Continuous
370
    30
390
F
  0
LAYER
  5
71
330
2
100
AcDbSymbolTableRecord
100
AcDbLayerTableRecord
  2
숨은선
 70
     0
 62
     2
  6
HIDDEN
370
    15
390
F
  0
LAYER
  5
72
330
2
100
AcDbSymbolTableRecord
100
AcDbLayerTableRecord
  2
중심선
 70
     0
 62
     1
  6
CENTERX2
370
    -3
390
F
  0
LAYER
  5
73
330
2
100
AcDbSymbolTableRecord
100
AcDbLayerTableRecord
  2
파단선
 70
     0
 62
     4
  6
Continuous
370
    -3
390
F
  0
LAYER
  5
74
330
2
100
AcDbSymbolTableRecord
100
AcDbLayerTableRecord
  2
해칭선
 70
     0
 62
   100
  6
Continuous
370
    -3
390
F
  0
LAYER
  5
75
330
2
100
AcDbSymbolTableRecord
100
AcDbLayerTableRecord
  2
가는실선
 70
     0
 62
     4
  6
Continuous
370
    -3
390
F
  0
LAYER
  5
76
330
2
100
AcDbSymbolTableRecord
100
AcDbLayerTableRecord
  2
치수_보조선
 70
     0
 62
     4
  6
Continuous
370
    -3
390
F
  0
LAYER
  5
77
330
2
100
AcDbSymbolTableRecord
100
AcDbLayerTableRecord
  2
치수문자_일반주서
 70
     0
 62
     7
  6
Continuous
370
    15
390
F
  0
LAYER
  5
78
330
2
100
AcDbSymbolTableRecord
100
AcDbLayerTableRecord
  2
개별주서
 70
     0
 62
   100
  6
Continuous
370
    30
390
F
  0
LAYER
  5
79
330
2
100
AcDbSymbolTableRecord
100
AcDbLayerTableRecord
  2
중간선
 70
     0
 62
     2
  6
Continuous
370
    15
390
F
  0
LAYER
  5
7A
330
2
100
AcDbSymbolTableRecord
100
AcDbLayerTableRecord
  2
윤곽선
 70
     0
 62
     3
  6
Continuous
370
    40
390
F
  0
LAYER
  5
7B
330
2
100
AcDbSymbolTableRecord
100
AcDbLayerTableRecord
  2
중심마크
 70
     0
 62
   100
  6
Continuous
370
    30
390
F
  0
LAYER
  5
7C
330
2
100
AcDbSymbolTableRecord
100
AcDbLayerTableRecord
  2
가상선
 70
     0
 62
     4
  6
PHANTOM
370
    -3
390
F
  0
LAYER
  5
7D
330
2
100
AcDbSymbolTableRecord
100
AcDbLayerTableRecord
  2
특수지정선
 70
     0
 62
     5
  6
CENTERX2
370
    60
390
F
  0
LAYER
  5
7E
330
2
100
AcDbSymbolTableRecord
100
AcDbLayerTableRecord
  2
참조1
 70
     0
 62
    -4
  6
Continuous
370
    -3
390
F
  0
LAYER
  5
153
330
2
100
AcDbSymbolTableRecord
100
AcDbLayerTableRecord
  2
Defpoints
 70
     0
 62
     7
  6
Continuous
290
     0
370
    -3
390
F
  0
ENDTAB
  0
TABLE
  2
STYLE
  5
3
330
0
100
AcDbSymbolTable
 70
     2
  0
STYLE
  5
11
330
3
100
AcDbSymbolTableRecord
100
AcDbTextStyleTableRecord
  2
Standard
 70
     0
 40
0.0
 41
1.0
 50
0.0
 71
     0
 42
3.5
  3
txt
  4

  0
STYLE
  5
94
330
3
100
AcDbSymbolTableRecord
100
AcDbTextStyleTableRecord
  2
SLDTEXTSTYLE0
 70
     0
 40
0.0
 41
0.75
 50
0.0
 71
     0
 42
3.5
  3
TXT
  4

  0
ENDTAB
  0
TABLE
  2
VIEW
  5
6
330
0
100
AcDbSymbolTable
 70
     0
  0
ENDTAB
  0
TABLE
  2
UCS
  5
7
330
0
100
AcDbSymbolTable
 70
     0
  0
ENDTAB
  0
TABLE
  2
APPID
  5
9
330
0
100
AcDbSymbolTable
 70
     1
  0
APPID
  5
12
330
9
100
AcDbSymbolTableRecord
100
AcDbRegAppTableRecord
  2
ACAD
 70
     0
  0
ENDTAB
  0
TABLE
  2
DIMSTYLE
  5
A
330
0
100
AcDbSymbolTable
 70
     4
100
AcDbDimStyleTable
  0
DIMSTYLE
105
27
330
A
100
AcDbSymbolTableRecord
100
AcDbDimStyleTableRecord
  2
ISO-25
 70
     0
 41
2.5
 42
0.625
 43
3.75
 44
1.25
 73
     0
 74
     0
 77
     1
 78
     8
140
2.5
141
2.5
143
0.03937007874016
147
0.625
171
     3
172
     1
178
     0
271
     2
272
     2
274
     3
278
    44
283
     0
284
     8
340
11
  0
DIMSTYLE
105
D3
330
A
100
AcDbSymbolTableRecord
100
AcDbDimStyleTableRecord
  2
SLDDIMSTYLE0
 70
     0
 41
3.302
 44
0.0
 45
0.000000001
 73
     0
 74
     0
 77
     1
 78
     4
 79
     1
140
3.5
143
0.0393700787401575
147
0.875
148
0.000000001
170
     1
173
     1
178
     0
271
     2
272
     2
276
     2
284
    12
340
94
  0
DIMSTYLE
105
FB
102
{ACAD_REACTORS
330
FA
330
D2
330
E7
330
4B4
102
}
330
A
100
AcDbSymbolTableRecord
100
AcDbDimStyleTableRecord
  2
SLDDIMSTYLE1
 70
     0
 41
3.302
 44
0.0
 45
0.000000001
 73
     0
 74
     0
 77
     1
 78
     4
 79
     1
140
3.5
143
0.0393700787401575
147
0.875
148
0.000000001
170
     1
172
     1
173
     1
178
     0
271
     2
272
     2
276
     2
284
    12
289
     0
340
94
  0
DIMSTYLE
105
110
330
A
100
AcDbSymbolTableRecord
100
AcDbDimStyleTableRecord
  2
SLDDIMSTYLE2
 70
     0
 41
3.302
 44
0.0
 45
0.000000001
 73
     0
 74
     0
 77
     1
 78
     8
 79
     2
140
3.5
143
0.0393700787401575
147
0.875
148
0.000000001
170
     1
172
     1
173
     1
178
     0
271
     2
272
     2
276
     2
284
    12
289
     0
340
94
341
111
343
111
344
111
  0
ENDTAB
  0
TABLE
  2
BLOCK_RECORD
  5
1
330
0
100
AcDbSymbolTable
 70
    29
  0
BLOCK_RECORD
  5
1F
330
1
100
AcDbSymbolTableRecord
100
AcDbBlockTableRecord
  2
*Model_Space
340
22
  0
BLOCK_RECORD
  5
1B
330
1
100
AcDbSymbolTableRecord
100
AcDbBlockTableRecord
  2
*Paper_Space
340
1E
  0
BLOCK_RECORD
  5
23
330
1
100
AcDbSymbolTableRecord
100
AcDbBlockTableRecord
  2
*Paper_Space0
340
26
  0
BLOCK_RECORD
  5
7F
330
1
100
AcDbSymbolTableRecord
100
AcDbBlockTableRecord
  2
블럭10
340
0
102
{BLKREFS
331
CB
102
}
  0
BLOCK_RECORD
  5
D4
330
1
100
AcDbSymbolTableRecord
100
AcDbBlockTableRecord
  2
_D
340
0
  0
BLOCK_RECORD
  5
E8
330
1
100
AcDbSymbolTableRecord
100
AcDbBlockTableRecord
  2
_D_1
340
0
  0
BLOCK_RECORD
  5
FC
330
1
100
AcDbSymbolTableRecord
100
AcDbBlockTableRecord
  2
_D_2
340
0
  0
BLOCK_RECORD
  5
111
330
1
100
AcDbSymbolTableRecord
100
AcDbBlockTableRecord
  2
_NONE
340
0
  0
BLOCK_RECORD
  5
114
330
1
100
AcDbSymbolTableRecord
100
AcDbBlockTableRecord
  2
_D_3
340
0
  0
BLOCK_RECORD
  5
127
330
1
100
AcDbSymbolTableRecord
100
AcDbBlockTableRecord
  2
SW_DOWELSYMBOL_0
340
0
102
{BLKREFS
331
12D
102
}
  0
BLOCK_RECORD
  5
1DD
330
1
100
AcDbSymbolTableRecord
100
AcDbBlockTableRecord
  2
*D8
340
0
  0
BLOCK_RECORD
  5
1F5
330
1
100
AcDbSymbolTableRecord
100
AcDbBlockTableRecord
  2
*D9
340
0
  0
BLOCK_RECORD
  5
1FF
330
1
100
AcDbSymbolTableRecord
100
AcDbBlockTableRecord
  2
*D10
340
0
  0
BLOCK_RECORD
  5
209
330
1
100
AcDbSymbolTableRecord
100
AcDbBlockTableRecord
  2
*D11
340
0
  0
BLOCK_RECORD
  5
29D
330
1
100
AcDbSymbolTableRecord
100
AcDbBlockTableRecord
  2
*D12
340
0
  0
BLOCK_RECORD
  5
2B3
330
1
100
AcDbSymbolTableRecord
100
AcDbBlockTableRecord
  2
*D13
340
0
  0
BLOCK_RECORD
  5
2BD
330
1
100
AcDbSymbolTableRecord
100
AcDbBlockTableRecord
  2
*D14
340
0
  0
BLOCK_RECORD
  5
2C7
330
1
100
AcDbSymbolTableRecord
100
AcDbBlockTableRecord
  2
*D15
340
0
  0
BLOCK_RECORD
  5
356
330
1
100
AcDbSymbolTableRecord
100
AcDbBlockTableRecord
  2
*D16
340
0
  0
BLOCK_RECORD
  5
36D
330
1
100
AcDbSymbolTableRecord
100
AcDbBlockTableRecord
  2
*D17
340
0
  0
BLOCK_RECORD
  5
377
330
1
100
AcDbSymbolTableRecord
100
AcDbBlockTableRecord
  2
*D18
340
0
  0
BLOCK_RECORD
  5
381
330
1
100
AcDbSymbolTableRecord
100
AcDbBlockTableRecord
  2
*D19
340
0
  0
BLOCK_RECORD
  5
410
330
1
100
AcDbSymbolTableRecord
100
AcDbBlockTableRecord
  2
*D20
340
0
  0
BLOCK_RECORD
  5
427
330
1
100
AcDbSymbolTableRecord
100
AcDbBlockTableRecord
  2
*D21
340
0
  0
BLOCK_RECORD
  5
431
330
1
100
AcDbSymbolTableRecord
100
AcDbBlockTableRecord
  2
*D22
340
0
  0
BLOCK_RECORD
  5
43B
330
1
100
AcDbSymbolTableRecord
100
AcDbBlockTableRecord
  2
*D23
340
0
  0
BLOCK_RECORD
  5
485
330
1
100
AcDbSymbolTableRecord
100
AcDbBlockTableRecord
  2
*D24
340
0
  0
BLOCK_RECORD
  5
48F
330
1
100
AcDbSymbolTableRecord
100
AcDbBlockTableRecord
  2
*D25
340
0
  0
BLOCK_RECORD
  5
499
330
1
100
AcDbSymbolTableRecord
100
AcDbBlockTableRecord
  2
*D26
340
0
  0
BLOCK_RECORD
  5
4A3
330
1
100
AcDbSymbolTableRecord
100
AcDbBlockTableRecord
  2
*D27
340
0
  0
BLOCK_RECORD
  5
4B7
330
1
100
AcDbSymbolTableRecord
100
AcDbBlockTableRecord
  2
*D28
340
0
  0
ENDTAB
  0
ENDSEC
  0
SECTION
  2
BLOCKS
  0
BLOCK
  5
20
330
1F
100
AcDbEntity
  8
0
100
AcDbBlockBegin
  2
*Model_Space
 70
     0
 10
0.0
 20
0.0
 30
0.0
  3
*Model_Space
  1
*Model_Space
  0
ENDBLK
  5
21
330
1F
100
AcDbEntity
  8
0
100
AcDbBlockEnd
  0
BLOCK
  5
1C
330
1B
100
AcDbEntity
 67
     1
  8
0
100
AcDbBlockBegin
  2
*Paper_Space
 70
     0
 10
0.0
 20
0.0
 30
0.0
  3
*Paper_Space
  1
*Paper_Space
  0
ENDBLK
  5
1D
330
1B
100
AcDbEntity
 67
     1
  8
0
100
AcDbBlockEnd
  0
BLOCK
  5
24
330
23
100
AcDbEntity
  8
0
100
AcDbBlockBegin
  2
*Paper_Space0
 70
     0
 10
0.0
 20
0.0
 30
0.0
  3
*Paper_Space0
  1
*Paper_Space0
  0
ENDBLK
  5
25
330
23
100
AcDbEntity
  8
0
100
AcDbBlockEnd
  0
BLOCK
  5
80
330
7F
100
AcDbEntity
  8
0
100
AcDbBlockBegin
  2
블럭10
 70
     2
 10
0.0
 20
0.0
 30
0.0
  3
블럭10
  1
블럭10
  0
ELLIPSE
  5
82
330
7F
100
AcDbEntity
  8
중심선
100
AcDbEllipse
 10
20.54032771741204
 20
12.0471743016438
 30
0.0
 11
6.600054785286829
 21
-1.261213355974178E-13
 31
0.0
210
0.0
220
0.0
230
1.0
 40
0.636358354079598
 41
0.9219305317359503
 42
6.513795318482858
  0
ELLIPSE
  5
83
330
7F
100
AcDbEntity
  8
중심선
100
AcDbEllipse
 10
20.54032771746488
 20
12.04717430159265
 30
0.0
 11
3.960054785062283
 21
1.540847449632565E-10
 31
0.0
210
0.0
220
0.0
230
1.0
 40
0.3939339440162632
 41
1.131841032648279
 42
5.62031148352944
  0
LINE
  5
84
330
7F
100
AcDbEntity
  8
중심선
100
AcDbLine
 10
2.268634060543552
 20
16.24717430164393
 30
0.0
 11
5.714909304380834
 21
16.24717430164393
 31
0.0
  0
LINE
  5
85
330
7F
100
AcDbEntity
  8
중심선
100
AcDbLine
 10
5.245725140726316
 20
7.84717430164391
 30
0.0
 11
8.692000384563599
 21
7.84717430164391
 31
0.0
  0
LINE
  5
86
330
7F
100
AcDbEntity
  8
중심선
100
AcDbLine
 10
15.74043728645272
 20
16.24717430164393
 30
0.0
 11
8.692000384563599
 21
7.84717430164391
 31
0.0
  0
LINE
  5
87
330
7F
100
AcDbEntity
  8
중심선
100
AcDbLine
 10
0.1404042013395286
 20
13.71084872107135
 30
0.0
 11
3.58671253028996
 21
13.71088815037384
 31
0.0
  0
LINE
  5
88
330
7F
100
AcDbEntity
  8
중심선
100
AcDbLine
 10
2.750260043222114
 20
10.84717430164391
 30
0.0
 11
6.196535287059397
 21
10.84717430164391
 31
0.0
  0
LINE
  5
89
330
7F
100
AcDbEntity
  8
중심선
100
AcDbLine
 10
12.29416204261559
 20
16.24717430164393
 30
0.0
 11
5.245725140726316
 21
7.84717430164391
 31
0.0
  0
LINE
  5
8A
330
7F
100
AcDbEntity
  8
중심선
100
AcDbLine
 10
10.72767329541681
 20
16.24717430164393
 30
0.0
 11
6.196535287059397
 21
10.84717430164391
 31
0.0
  0
LINE
  5
8B
330
7F
100
AcDbEntity
  8
중심선
100
AcDbLine
 10
7.28139805157953
 20
16.24717430164393
 30
0.0
 11
2.750260043222114
 21
10.84717430164391
 31
0.0
  0
LINE
  5
8C
330
7F
100
AcDbEntity
  8
중심선
100
AcDbLine
 10
5.714909304380834
 20
16.24717430164393
 30
0.0
 11
3.58671253028996
 21
13.71088815037384
 31
0.0
  0
LINE
  5
8D
330
7F
100
AcDbEntity
  8
중심선
100
AcDbLine
 10
2.268634060543552
 20
16.24717430164393
 30
0.0
 11
0.1404042013395286
 21
13.71084872107135
 31
0.0
  0
LINE
  5
8E
330
7F
100
AcDbEntity
  8
중심선
100
AcDbLine
 10
7.28139805157953
 20
16.24717430164393
 30
0.0
 11
10.72767329541681
 21
16.24717430164393
 31
0.0
  0
LINE
  5
8F
330
7F
100
AcDbEntity
  8
중심선
100
AcDbLine
 10
12.29416204261559
 20
16.24717430164393
 30
0.0
 11
15.74043728645272
 21
16.24717430164393
 31
0.0
  0
LINE
  5
90
330
7F
100
AcDbEntity
  8
중심선
100
AcDbLine
 10
19.22036997980202
 20
11.08717430171403
 30
0.0
 11
23.66174974927406
 21
11.08717430171406
 31
0.0
  0
LINE
  5
91
330
7F
100
AcDbEntity
  8
중심선
100
AcDbLine
 10
19.22039502424796
 20
13.00717430171391
 30
0.0
 11
19.22036997980202
 21
11.08717430171403
 31
0.0
  0
LINE
  5
92
330
7F
100
AcDbEntity
  8
중심선
100
AcDbLine
 10
19.22039502424796
 20
13.00717430171391
 30
0.0
 11
26.96566020931264
 21
13.00717430171391
 31
0.0
  0
LINE
  5
93
330
7F
100
AcDbEntity
  8
중심선
100
AcDbLine
 10
22.22332737316547
 20
13.45928029700563
 30
0.0
 11
24.52862924686651
 21
15.39360700705356
 31
0.0
  0
ATTDEF
  5
95
330
7F
100
AcDbEntity
  8
FORMAT
 62
     2
100
AcDbText
 10
4.408487351596664
 20
2.075366912832191
 30
0.0
 40
4.233333333333333
  1
E2036064
 41
0.75
  7
SLDTEXTSTYLE0
 11
4.408487351596664
 21
-0.0412997538344756
 31
0.0
100
AcDbAttributeDefinition
  3

  2
AUTOATTR0
 70
     0
 74
     1
  0
ENDBLK
  5
81
330
7F
100
AcDbEntity
  8
0
100
AcDbBlockEnd
  0
BLOCK
  5
D5
330
D4
100
AcDbEntity
  8
0
100
AcDbBlockBegin
  2
_D
 70
     0
 10
0.0
 20
0.0
 30
0.0
  3
_D
  1
_D
  0
LINE
  5
D7
330
D4
100
AcDbEntity
  8
치수문자_일반주서
 62
     0
370
    -2
100
AcDbLine
 10
164.4
 20
12.76250000000002
 30
0.0
 11
164.4
 21
25.83413479835852
 31
0.0
  0
LINE
  5
D8
330
D4
100
AcDbEntity
  8
치수문자_일반주서
 62
     0
370
    -2
100
AcDbLine
 10
11.99999999999995
 20
11.28009954510407
 30
0.0
 11
11.99999999999994
 21
25.83413479835852
 31
0.0
  0
LINE
  5
D9
330
D4
100
AcDbEntity
  8
치수문자_일반주서
 62
     0
370
    -2
100
AcDbLine
 10
161.098
 20
25.83413479835852
 30
0.0
 11
15.30199999999994
 21
25.83413479835852
 31
0.0
  0
SOLID
  5
DA
330
D4
100
AcDbEntity
  8
치수문자_일반주서
 62
     0
100
AcDbTrace
 10
161.098
 20
25.28380146502518
 30
0.0
 11
161.098
 21
26.38446813169185
 31
0.0
 12
164.4
 22
25.83413479835852
 32
0.0
 13
164.4
 23
25.83413479835852
 33
0.0
  0
SOLID
  5
DB
330
D4
100
AcDbEntity
  8
치수문자_일반주서
 62
     0
100
AcDbTrace
 10
15.30199999999994
 20
26.38446813169185
 30
0.0
 11
15.30199999999994
 21
25.28380146502518
 31
0.0
 12
11.99999999999994
 22
25.83413479835852
 32
0.0
 13
11.99999999999994
 23
25.83413479835852
 33
0.0
  0
MTEXT
  5
DC
330
D4
100
AcDbEntity
  8
치수문자_일반주서
 62
     0
100
AcDbMText
 10
88.19999999999999
 20
30.20913479835852
 30
0.0
 40
3.5
 41
0.0
 71
     2
 72
     1
  1
\A1;152.40 [6]
  7
SLDTEXTSTYLE0
 73
     1
 44
1.0
  0
POINT
  5
DD
330
D4
100
AcDbEntity
  8
Defpoints
 62
     0
100
AcDbPoint
 10
164.4
 20
12.70000000000002
 30
0.0
  0
POINT
  5
DE
330
D4
100
AcDbEntity
  8
Defpoints
 62
     0
100
AcDbPoint
 10
11.99999999999995
 20
11.21759954510407
 30
0.0
  0
POINT
  5
DF
330
D4
100
AcDbEntity
  8
Defpoints
 62
     0
100
AcDbPoint
 10
11.99999999999995
 20
25.83413479835852
 30
0.0
  0
ENDBLK
  5
D6
330
D4
100
AcDbEntity
  8
0
100
AcDbBlockEnd
  0
BLOCK
  5
E9
330
E8
100
AcDbEntity
  8
0
100
AcDbBlockBegin
  2
_D_1
 70
     0
 10
0.0
 20
0.0
 30
0.0
  3
_D_1
  1
_D_1
  0
LINE
  5
EB
330
E8
100
AcDbEntity
  8
치수문자_일반주서
 62
     0
370
    -2
100
AcDbLine
 10
164.4
 20
12.76250000000002
 30
0.0
 11
164.4
 21
41.55533999616129
 31
0.0
  0
LINE
  5
EC
330
E8
100
AcDbEntity
  8
치수문자_일반주서
 62
     0
370
    -2
100
AcDbLine
 10
-51.50000000000004
 20
12.76249999999998
 30
0.0
 11
-51.50000000000004
 21
41.55533999616129
 31
0.0
  0
LINE
  5
ED
330
E8
100
AcDbEntity
  8
치수문자_일반주서
 62
     0
370
    -2
100
AcDbLine
 10
161.098
 20
41.55533999616129
 30
0.0
 11
-48.19800000000004
 21
41.55533999616129
 31
0.0
  0
SOLID
  5
EE
330
E8
100
AcDbEntity
  8
치수문자_일반주서
 62
     0
100
AcDbTrace
 10
161.098
 20
41.00500666282796
 30
0.0
 11
161.098
 21
42.10567332949463
 31
0.0
 12
164.4
 22
41.55533999616129
 32
0.0
 13
164.4
 23
41.55533999616129
 33
0.0
  0
SOLID
  5
EF
330
E8
100
AcDbEntity
  8
치수문자_일반주서
 62
     0
100
AcDbTrace
 10
-48.19800000000004
 20
42.10567332949463
 30
0.0
 11
-48.19800000000004
 21
41.00500666282796
 31
0.0
 12
-51.50000000000004
 22
41.55533999616129
 32
0.0
 13
-51.50000000000004
 23
41.55533999616129
 33
0.0
  0
MTEXT
  5
F0
330
E8
100
AcDbEntity
  8
치수문자_일반주서
 62
     0
100
AcDbMText
 10
56.44999999999998
 20
45.93033999616129
 30
0.0
 40
3.5
 41
0.0
 71
     2
 72
     1
  1
\A1;215.90 [8 1/2]
  7
SLDTEXTSTYLE0
 73
     1
 44
1.0
  0
POINT
  5
F1
330
E8
100
AcDbEntity
  8
Defpoints
 62
     0
100
AcDbPoint
 10
164.4
 20
12.70000000000002
 30
0.0
  0
POINT
  5
F2
330
E8
100
AcDbEntity
  8
Defpoints
 62
     0
100
AcDbPoint
 10
-51.50000000000004
 20
12.69999999999998
 30
0.0
  0
POINT
  5
F3
330
E8
100
AcDbEntity
  8
Defpoints
 62
     0
100
AcDbPoint
 10
-51.50000000000004
 20
41.55533999616129
 30
0.0
  0
ENDBLK
  5
EA
330
E8
100
AcDbEntity
  8
0
100
AcDbBlockEnd
  0
BLOCK
  5
FD
330
FC
100
AcDbEntity
  8
0
100
AcDbBlockBegin
  2
_D_2
 70
     0
 10
0.0
 20
0.0
 30
0.0
  3
_D_2
  1
_D_2
  0
LINE
  5
FF
330
FC
100
AcDbEntity
  8
치수문자_일반주서
 62
     0
370
    -2
100
AcDbLine
 10
-51.56250000000004
 20
12.69999999999998
 30
0.0
 11
-61.21327283782729
 21
12.69999999999994
 31
0.0
  0
LINE
  5
100
330
FC
100
AcDbEntity
  8
치수문자_일반주서
 62
     0
370
    -2
100
AcDbLine
 10
-49.02250000000005
 20
-12.69999999999999
 30
0.0
 11
-61.2132728378272
 21
-12.70000000000004
 31
0.0
  0
LINE
  5
101
330
FC
100
AcDbEntity
  8
치수문자_일반주서
 62
     0
370
    -2
100
AcDbLine
 10
-61.21327283782728
 20
9.397999999999943
 30
0.0
 11
-61.21327283782722
 21
-9.398000000000037
 31
0.0
  0
SOLID
  5
102
330
FC
100
AcDbEntity
  8
치수문자_일반주서
 62
     0
100
AcDbTrace
 10
-60.66293950449394
 20
9.397999999999945
 30
0.0
 11
-61.76360617116061
 21
9.397999999999941
 31
0.0
 12
-61.21327283782729
 22
12.69999999999994
 32
0.0
 13
-61.21327283782729
 23
12.69999999999994
 33
0.0
  0
SOLID
  5
103
330
FC
100
AcDbEntity
  8
치수문자_일반주서
 62
     0
100
AcDbTrace
 10
-61.76360617116055
 20
-9.398000000000039
 30
0.0
 11
-60.66293950449388
 21
-9.398000000000035
 31
0.0
 12
-61.2132728378272
 22
-12.70000000000004
 32
0.0
 13
-61.2132728378272
 23
-12.70000000000004
 33
0.0
  0
MTEXT
  5
104
330
FC
100
AcDbEntity
  8
치수문자_일반주서
 62
     0
100
AcDbMText
 10
-65.58827283782725
 20
-0.0000000000000268
 30
0.0
 40
3.5
 41
0.0
 71
     2
 72
     1
  1
\A1;%%c25.40 [1]
  7
SLDTEXTSTYLE0
 11
-3.356894814614649E-15
 21
1.0
 31
0.0
 73
     1
 44
1.0
  0
POINT
  5
105
330
FC
100
AcDbEntity
  8
Defpoints
 62
     0
100
AcDbPoint
 10
-51.50000000000004
 20
12.69999999999998
 30
0.0
  0
POINT
  5
106
330
FC
100
AcDbEntity
  8
Defpoints
 62
     0
100
AcDbPoint
 10
-48.96000000000005
 20
-12.69999999999999
 30
0.0
  0
POINT
  5
107
330
FC
100
AcDbEntity
  8
Defpoints
 62
     0
100
AcDbPoint
 10
-61.2132728378272
 20
-12.70000000000004
 30
0.0
  0
ENDBLK
  5
FE
330
FC
100
AcDbEntity
  8
0
100
AcDbBlockEnd
  0
BLOCK
  5
112
330
111
100
AcDbEntity
  8
0
100
AcDbBlockBegin
  2
_NONE
 70
     0
 10
0.0
 20
0.0
 30
0.0
  3
_NONE
  1
_NONE
  0
ENDBLK
  5
113
330
111
100
AcDbEntity
  8
0
100
AcDbBlockEnd
  0
BLOCK
  5
115
330
114
100
AcDbEntity
  8
0
100
AcDbBlockBegin
  2
_D_3
 70
     0
 10
0.0
 20
0.0
 30
0.0
  3
_D_3
  1
_D_3
  0
LINE
  5
117
330
114
100
AcDbEntity
  8
치수문자_일반주서
100
AcDbLine
 10
-8.884833931663604
 20
-2.238291502344711
 30
0.0
 11
-8.884833931663604
 21
-2.949228987909211
 31
0.0
  0
LINE
  5
118
330
114
100
AcDbEntity
  8
치수문자_일반주서
100
AcDbLine
 10
-8.884833931663604
 20
-2.949228987909211
 30
0.0
 11
-3.328583940604301
 21
-2.949228987909211
 31
0.0
  0
LINE
  5
119
330
114
100
AcDbEntity
  8
치수문자_일반주서
100
AcDbLine
 10
-3.328583940604301
 20
-2.949228987909211
 30
0.0
 11
-3.328583940604301
 21
-2.238291502344711
 31
0.0
  0
LINE
  5
11A
330
114
100
AcDbEntity
  8
치수문자_일반주서
100
AcDbLine
 10
-8.884833931663604
 20
8.590441359792548
 30
0.0
 11
-8.884833931663604
 21
9.301378845357048
 31
0.0
  0
LINE
  5
11B
330
114
100
AcDbEntity
  8
치수문자_일반주서
100
AcDbLine
 10
-8.884833931663604
 20
9.301378845357048
 30
0.0
 11
-3.328583940604301
 21
9.301378845357048
 31
0.0
  0
LINE
  5
11C
330
114
100
AcDbEntity
  8
치수문자_일반주서
100
AcDbLine
 10
-3.328583940604301
 20
9.301378845357048
 30
0.0
 11
-3.328583940604301
 21
8.590441359792548
 31
0.0
  0
MTEXT
  5
11D
330
114
100
AcDbEntity
  8
치수문자_일반주서
100
AcDbMText
 10
-7.840320855183196
 20
-1.34961960173334
 30
0.0
 40
3.5
 41
0.0
 71
     1
 72
     1
  1
0.00
  7
SLDTEXTSTYLE0
 11
6.123233995736766E-17
 21
1.0
 31
0.0
 73
     1
 44
1.0
  0
MTEXT
  5
11E
330
114
100
AcDbEntity
  8
치수문자_일반주서
100
AcDbMText
 10
-2.603689304822725
 20
-0.7561994836398495
 30
0.0
 40
3.5
 41
0.0
 71
     1
 72
     1
  1
%%c
  7
SLDTEXTSTYLE0
 11
6.123233995736766E-17
 21
1.0
 31
0.0
 73
     1
 44
1.0
  0
MTEXT
  5
11F
330
114
100
AcDbEntity
  8
치수문자_일반주서
100
AcDbMText
 10
-2.603689304822725
 20
4.522237914734231
 30
0.0
 40
3.5
 41
0.0
 71
     1
 72
     1
  1
0
  7
SLDTEXTSTYLE0
 11
6.123233995736766E-17
 21
1.0
 31
0.0
 73
     1
 44
1.0
  0
ENDBLK
  5
116
330
114
100
AcDbEntity
  8
0
100
AcDbBlockEnd
  0
BLOCK
  5
128
330
127
100
AcDbEntity
  8
0
100
AcDbBlockBegin
  2
SW_DOWELSYMBOL_0
 70
     0
 10
0.0
 20
0.0
 30
0.0
  3
SW_DOWELSYMBOL_0
  1
SW_DOWELSYMBOL_0
  0
CIRCLE
  5
12A
330
127
100
AcDbEntity
  8
해칭선
 62
     0
100
AcDbCircle
 10
0.0
 20
0.0
 30
0.0
 40
3.000000000000001
  0
HATCH
  5
12B
330
127
100
AcDbEntity
  8
0
  6
Continuous
 62
     0
370
     0
100
AcDbHatch
 10
0.0
 20
0.0
 30
0.0
210
0.0
220
0.0
230
1.0
  2
SOLID
 70
     1
 71
     0
 91
        1
 92
        0
 93
        3
 72
     2
 10
0.0
 20
0.0
 40
3.000000000000001
 50
0.0
 51
90.0
 73
     1
 72
     1
 10
0.0
 20
3.000000000000001
 11
0.0
 21
0.0
 72
     1
 10
0.0
 20
0.0
 11
3.000000000000001
 21
0.0
 97
        0
 75
     0
 76
     1
 98
        1
 10
0.0
 20
0.0
  0
HATCH
  5
12C
330
127
100
AcDbEntity
  8
0
  6
Continuous
 62
     0
370
     0
100
AcDbHatch
 10
0.0
 20
0.0
 30
0.0
210
0.0
220
0.0
230
1.0
  2
SOLID
 70
     1
 71
     0
 91
        1
 92
        0
 93
        3
 72
     2
 10
0.0
 20
0.0
 40
3.000000000000001
 50
180.0
 51
270.0000000000007
 73
     1
 72
     1
 10
0.0
 20
-3.000000000000001
 11
0.0
 21
0.0
 72
     1
 10
0.0
 20
0.0
 11
-3.000000000000001
 21
0.0
 97
        0
 75
     0
 76
     1
 98
        1
 10
0.0
 20
0.0
  0
ENDBLK
  5
129
330
127
100
AcDbEntity
  8
0
100
AcDbBlockEnd
  0
BLOCK
  5
1DE
330
1DD
100
AcDbEntity
  8
0
100
AcDbBlockBegin
  2
*D8
 70
     1
 10
0.0
 20
0.0
 30
0.0
  3
*D8
  1
*D9
  0
LINE
  5
1DF
330
1DD
100
AcDbEntity
  8
치수문자_일반주서
 62
     0
370
    -2
100
AcDbLine
 10
173.5357728378272
 20
25.654
 30
0.0
 11
202.546544452832
 21
25.65399999999999
 31
0.0
  0
LINE
  5
1E0
330
1DD
100
AcDbEntity
  8
치수문자_일반주서
 62
     0
370
    -2
100
AcDbLine
 10
173.5357728378272
 20
6.603999999999997
 30
0.0
 11
202.546544452832
 21
6.603999999999999
 31
0.0
  0
LINE
  5
1E1
330
1DD
100
AcDbEntity
  8
치수문자_일반주서
 62
     0
370
    -2
100
AcDbLine
 10
202.546544452832
 20
25.65399999999999
 30
0.0
 11
202.546544452832
 21
61.94162012429228
 31
0.0
  0
LINE
  5
1E2
330
1DD
100
AcDbEntity
  8
치수문자_일반주서
 62
     0
370
    -2
100
AcDbLine
 10
202.546544452832
 20
25.65399999999999
 30
0.0
 11
202.546544452832
 21
6.603999999999999
 31
0.0
  0
MTEXT
  5
1E3
330
1DD
100
AcDbEntity
  8
치수문자_일반주서
 62
     0
100
AcDbMText
 10
199.921544452832
 20
49.47287012429228
 30
0.0
 40
3.5
 41
0.0
 71
     5
 72
     1
  1
\A1;19.05 [3/4]
  7
SLDTEXTSTYLE0
 11
0.0
 21
1.0
 31
0.0
 73
     1
 44
1.0
  0
POINT
  5
1E4
330
1DD
100
AcDbEntity
  8
Defpoints
 62
     0
100
AcDbPoint
 10
173.4732728378272
 20
25.654
 30
0.0
  0
POINT
  5
1E5
330
1DD
100
AcDbEntity
  8
Defpoints
 62
     0
100
AcDbPoint
 10
173.4732728378272
 20
6.603999999999997
 30
0.0
  0
POINT
  5
1E6
330
1DD
100
AcDbEntity
  8
Defpoints
 62
     0
100
AcDbPoint
 10
202.546544452832
 20
6.603999999999996
 30
0.0
  0
ENDBLK
  5
1EB
330
1DD
100
AcDbEntity
  8
0
100
AcDbBlockEnd
  0
BLOCK
  5
1F6
330
1F5
100
AcDbEntity
  8
0
100
AcDbBlockBegin
  2
*D9
 70
     1
 10
0.0
 20
0.0
 30
0.0
  3
*D9
  1
*D10
  0
LINE
  5
1F8
330
1F5
100
AcDbEntity
  8
치수문자_일반주서
 62
     0
370
    -2
100
AcDbLine
 10
173.4732728378272
 20
25.7165
 30
0.0
 11
173.4732728378272
 21
38.79981057025607
 31
0.0
  0
LINE
  5
1F9
330
1F5
100
AcDbEntity
  8
치수문자_일반주서
 62
     0
370
    -2
100
AcDbLine
 10
71.87327283782724
 20
25.70927367922916
 30
0.0
 11
71.87327283782724
 21
38.79981057025607
 31
0.0
  0
LINE
  5
1FA
330
1F5
100
AcDbEntity
  8
치수문자_일반주서
 62
     0
370
    -2
100
AcDbLine
 10
173.4732728378272
 20
38.79981057025607
 30
0.0
 11
71.87327283782724
 21
38.79981057025607
 31
0.0
  0
MTEXT
  5
1FB
330
1F5
100
AcDbEntity
  8
치수문자_일반주서
 62
     0
100
AcDbMText
 10
122.6732728378272
 20
43.17481057025607
 30
0.0
 40
3.5
 41
0.0
 71
     2
 72
     1
  1
\A1;101.6 [4]
  7
SLDTEXTSTYLE0
 73
     1
 44
1.0
  0
POINT
  5
1FC
330
1F5
100
AcDbEntity
  8
Defpoints
 62
     0
100
AcDbPoint
 10
173.4732728378272
 20
25.654
 30
0.0
  0
POINT
  5
1FD
330
1F5
100
AcDbEntity
  8
Defpoints
 62
     0
100
AcDbPoint
 10
71.87327283782724
 20
25.64677367922916
 30
0.0
  0
POINT
  5
1FE
330
1F5
100
AcDbEntity
  8
Defpoints
 62
     0
100
AcDbPoint
 10
71.87327283782724
 20
38.79981057025607
 30
0.0
  0
ENDBLK
  5
1F7
330
1F5
100
AcDbEntity
  8
0
100
AcDbBlockEnd
  0
BLOCK
  5
200
330
1FF
100
AcDbEntity
  8
0
100
AcDbBlockBegin
  2
*D10
 70
     1
 10
0.0
 20
0.0
 30
0.0
  3
*D10
  1
*D11
  0
LINE
  5
202
330
1FF
100
AcDbEntity
  8
치수문자_일반주서
 62
     0
370
    -2
100
AcDbLine
 10
173.4732728378272
 20
25.7165
 30
0.0
 11
173.4732728378272
 21
54.52101576805885
 31
0.0
  0
LINE
  5
203
330
1FF
100
AcDbEntity
  8
치수문자_일반주서
 62
     0
370
    -2
100
AcDbLine
 10
14.72327283782724
 20
23.81149999999999
 30
0.0
 11
14.72327283782724
 21
54.52101576805885
 31
0.0
  0
LINE
  5
204
330
1FF
100
AcDbEntity
  8
치수문자_일반주서
 62
     0
370
    -2
100
AcDbLine
 10
173.4732728378272
 20
54.52101576805885
 30
0.0
 11
14.72327283782724
 21
54.52101576805885
 31
0.0
  0
MTEXT
  5
205
330
1FF
100
AcDbEntity
  8
치수문자_일반주서
 62
     0
100
AcDbMText
 10
94.09827283782724
 20
58.89601576805885
 30
0.0
 40
3.5
 41
0.0
 71
     2
 72
     1
  1
\A1;158.75 [6 1/4]
  7
SLDTEXTSTYLE0
 73
     1
 44
1.0
  0
POINT
  5
206
330
1FF
100
AcDbEntity
  8
Defpoints
 62
     0
100
AcDbPoint
 10
173.4732728378272
 20
25.654
 30
0.0
  0
POINT
  5
207
330
1FF
100
AcDbEntity
  8
Defpoints
 62
     0
100
AcDbPoint
 10
14.72327283782724
 20
23.74899999999999
 30
0.0
  0
POINT
  5
208
330
1FF
100
AcDbEntity
  8
Defpoints
 62
     0
100
AcDbPoint
 10
14.72327283782724
 20
54.52101576805885
 30
0.0
  0
ENDBLK
  5
201
330
1FF
100
AcDbEntity
  8
0
100
AcDbBlockEnd
  0
BLOCK
  5
20A
330
209
100
AcDbEntity
  8
0
100
AcDbBlockBegin
  2
*D11
 70
     1
 10
0.0
 20
0.0
 30
0.0
  3
*D11
  1
*D12
  0
LINE
  5
20C
330
209
100
AcDbEntity
  8
치수문자_일반주서
 62
     0
370
    -2
100
AcDbLine
 10
16.56577283782723
 20
25.65399999999999
 30
0.0
 11
4.375000000000003
 21
25.65399999999995
 31
0.0
  0
LINE
  5
20D
330
209
100
AcDbEntity
  8
치수문자_일반주서
 62
     0
370
    -2
100
AcDbLine
 10
16.56577283782723
 20
6.603999999999976
 30
0.0
 11
4.375000000000069
 21
6.603999999999933
 31
0.0
  0
LINE
  5
20E
330
209
100
AcDbEntity
  8
치수문자_일반주서
 62
     0
370
    -2
100
AcDbLine
 10
4.375000000000003
 20
25.65399999999995
 30
0.0
 11
4.375000000000069
 21
6.603999999999933
 31
0.0
  0
MTEXT
  5
20F
330
209
100
AcDbEntity
  8
치수문자_일반주서
 62
     0
100
AcDbMText
 10
0.0000000000000355
 20
16.12899999999997
 30
0.0
 40
3.5
 41
0.0
 71
     2
 72
     1
  1
\A1;%%c19.05 [3/4]
  7
SLDTEXTSTYLE0
 11
-3.496765431890253E-15
 21
1.0
 31
0.0
 73
     1
 44
1.0
  0
POINT
  5
210
330
209
100
AcDbEntity
  8
Defpoints
 62
     0
100
AcDbPoint
 10
16.62827283782723
 20
25.65399999999999
 30
0.0
  0
POINT
  5
211
330
209
100
AcDbEntity
  8
Defpoints
 62
     0
100
AcDbPoint
 10
16.62827283782723
 20
6.603999999999976
 30
0.0
  0
POINT
  5
212
330
209
100
AcDbEntity
  8
Defpoints
 62
     0
100
AcDbPoint
 10
4.375000000000071
 20
6.60399999999993
 30
0.0
  0
ENDBLK
  5
20B
330
209
100
AcDbEntity
  8
0
100
AcDbBlockEnd
  0
BLOCK
  5
29E
330
29D
100
AcDbEntity
  8
0
100
AcDbBlockBegin
  2
*D12
 70
     1
 10
0.0
 20
0.0
 30
0.0
  3
*D12
  1
*D14
  0
LINE
  5
29F
330
29D
100
AcDbEntity
  8
치수문자_일반주서
 62
     0
370
    -2
100
AcDbLine
 10
173.5357728378272
 20
25.654
 30
0.0
 11
202.546544452832
 21
25.65399999999999
 31
0.0
  0
LINE
  5
2A0
330
29D
100
AcDbEntity
  8
치수문자_일반주서
 62
     0
370
    -2
100
AcDbLine
 10
173.5357728378272
 20
6.603999999999997
 30
0.0
 11
202.546544452832
 21
6.603999999999999
 31
0.0
  0
LINE
  5
2A1
330
29D
100
AcDbEntity
  8
치수문자_일반주서
 62
     0
370
    -2
100
AcDbLine
 10
202.546544452832
 20
25.65399999999999
 30
0.0
 11
202.546544452832
 21
61.94162012429228
 31
0.0
  0
LINE
  5
2A2
330
29D
100
AcDbEntity
  8
치수문자_일반주서
 62
     0
370
    -2
100
AcDbLine
 10
202.546544452832
 20
25.65399999999999
 30
0.0
 11
202.546544452832
 21
6.603999999999999
 31
0.0
  0
MTEXT
  5
2A3
330
29D
100
AcDbEntity
  8
치수문자_일반주서
 62
     0
100
AcDbMText
 10
199.921544452832
 20
49.47287012429228
 30
0.0
 40
3.5
 41
0.0
 71
     5
 72
     1
  1
\A1;19.05 [3/4]
  7
SLDTEXTSTYLE0
 11
0.0
 21
1.0
 31
0.0
 73
     1
 44
1.0
  0
POINT
  5
2A4
330
29D
100
AcDbEntity
  8
Defpoints
 62
     0
100
AcDbPoint
 10
173.4732728378272
 20
25.654
 30
0.0
  0
POINT
  5
2A5
330
29D
100
AcDbEntity
  8
Defpoints
 62
     0
100
AcDbPoint
 10
173.4732728378272
 20
6.603999999999997
 30
0.0
  0
POINT
  5
2A6
330
29D
100
AcDbEntity
  8
Defpoints
 62
     0
100
AcDbPoint
 10
202.546544452832
 20
6.603999999999996
 30
0.0
  0
ENDBLK
  5
2AB
330
29D
100
AcDbEntity
  8
0
100
AcDbBlockEnd
  0
BLOCK
  5
2B4
330
2B3
100
AcDbEntity
  8
0
100
AcDbBlockBegin
  2
*D13
 70
     1
 10
0.0
 20
0.0
 30
0.0
  3
*D13
  1
*D15
  0
LINE
  5
2B6
330
2B3
100
AcDbEntity
  8
치수문자_일반주서
 62
     0
370
    -2
100
AcDbLine
 10
173.4732728378272
 20
25.7165
 30
0.0
 11
173.4732728378272
 21
38.79981057025607
 31
0.0
  0
LINE
  5
2B7
330
2B3
100
AcDbEntity
  8
치수문자_일반주서
 62
     0
370
    -2
100
AcDbLine
 10
71.87327283782724
 20
25.70927367922916
 30
0.0
 11
71.87327283782724
 21
38.79981057025607
 31
0.0
  0
LINE
  5
2B8
330
2B3
100
AcDbEntity
  8
치수문자_일반주서
 62
     0
370
    -2
100
AcDbLine
 10
173.4732728378272
 20
38.79981057025607
 30
0.0
 11
71.87327283782724
 21
38.79981057025607
 31
0.0
  0
MTEXT
  5
2B9
330
2B3
100
AcDbEntity
  8
치수문자_일반주서
 62
     0
100
AcDbMText
 10
122.6732728378272
 20
43.17481057025607
 30
0.0
 40
3.5
 41
0.0
 71
     2
 72
     1
  1
\A1;101.6 [4]
  7
SLDTEXTSTYLE0
 73
     1
 44
1.0
  0
POINT
  5
2BA
330
2B3
100
AcDbEntity
  8
Defpoints
 62
     0
100
AcDbPoint
 10
173.4732728378272
 20
25.654
 30
0.0
  0
POINT
  5
2BB
330
2B3
100
AcDbEntity
  8
Defpoints
 62
     0
100
AcDbPoint
 10
71.87327283782724
 20
25.64677367922916
 30
0.0
  0
POINT
  5
2BC
330
2B3
100
AcDbEntity
  8
Defpoints
 62
     0
100
AcDbPoint
 10
71.87327283782724
 20
38.79981057025607
 30
0.0
  0
ENDBLK
  5
2B5
330
2B3
100
AcDbEntity
  8
0
100
AcDbBlockEnd
  0
BLOCK
  5
2BE
330
2BD
100
AcDbEntity
  8
0
100
AcDbBlockBegin
  2
*D14
 70
     1
 10
0.0
 20
0.0
 30
0.0
  3
*D14
  1
*D16
  0
LINE
  5
2C0
330
2BD
100
AcDbEntity
  8
치수문자_일반주서
 62
     0
370
    -2
100
AcDbLine
 10
173.4732728378272
 20
25.7165
 30
0.0
 11
173.4732728378272
 21
54.52101576805885
 31
0.0
  0
LINE
  5
2C1
330
2BD
100
AcDbEntity
  8
치수문자_일반주서
 62
     0
370
    -2
100
AcDbLine
 10
14.72327283782724
 20
23.81149999999999
 30
0.0
 11
14.72327283782724
 21
54.52101576805885
 31
0.0
  0
LINE
  5
2C2
330
2BD
100
AcDbEntity
  8
치수문자_일반주서
 62
     0
370
    -2
100
AcDbLine
 10
173.4732728378272
 20
54.52101576805885
 30
0.0
 11
14.72327283782724
 21
54.52101576805885
 31
0.0
  0
MTEXT
  5
2C3
330
2BD
100
AcDbEntity
  8
치수문자_일반주서
 62
     0
100
AcDbMText
 10
94.09827283782724
 20
58.89601576805885
 30
0.0
 40
3.5
 41
0.0
 71
     2
 72
     1
  1
\A1;158.75 [6 1/4]
  7
SLDTEXTSTYLE0
 73
     1
 44
1.0
  0
POINT
  5
2C4
330
2BD
100
AcDbEntity
  8
Defpoints
 62
     0
100
AcDbPoint
 10
173.4732728378272
 20
25.654
 30
0.0
  0
POINT
  5
2C5
330
2BD
100
AcDbEntity
  8
Defpoints
 62
     0
100
AcDbPoint
 10
14.72327283782724
 20
23.74899999999999
 30
0.0
  0
POINT
  5
2C6
330
2BD
100
AcDbEntity
  8
Defpoints
 62
     0
100
AcDbPoint
 10
14.72327283782724
 20
54.52101576805885
 30
0.0
  0
ENDBLK
  5
2BF
330
2BD
100
AcDbEntity
  8
0
100
AcDbBlockEnd
  0
BLOCK
  5
2C8
330
2C7
100
AcDbEntity
  8
0
100
AcDbBlockBegin
  2
*D15
 70
     1
 10
0.0
 20
0.0
 30
0.0
  3
*D15
  1
*D17
  0
LINE
  5
2CA
330
2C7
100
AcDbEntity
  8
치수문자_일반주서
 62
     0
370
    -2
100
AcDbLine
 10
16.56577283782723
 20
25.65399999999999
 30
0.0
 11
4.375000000000003
 21
25.65399999999995
 31
0.0
  0
LINE
  5
2CB
330
2C7
100
AcDbEntity
  8
치수문자_일반주서
 62
     0
370
    -2
100
AcDbLine
 10
16.56577283782723
 20
6.603999999999976
 30
0.0
 11
4.375000000000069
 21
6.603999999999933
 31
0.0
  0
LINE
  5
2CC
330
2C7
100
AcDbEntity
  8
치수문자_일반주서
 62
     0
370
    -2
100
AcDbLine
 10
4.375000000000003
 20
25.65399999999995
 30
0.0
 11
4.375000000000069
 21
6.603999999999933
 31
0.0
  0
MTEXT
  5
2CD
330
2C7
100
AcDbEntity
  8
치수문자_일반주서
 62
     0
100
AcDbMText
 10
0.0000000000000355
 20
16.12899999999997
 30
0.0
 40
3.5
 41
0.0
 71
     2
 72
     1
  1
\A1;%%c19.05 [3/4]
  7
SLDTEXTSTYLE0
 11
-3.496765431890253E-15
 21
1.0
 31
0.0
 73
     1
 44
1.0
  0
POINT
  5
2CE
330
2C7
100
AcDbEntity
  8
Defpoints
 62
     0
100
AcDbPoint
 10
16.62827283782723
 20
25.65399999999999
 30
0.0
  0
POINT
  5
2CF
330
2C7
100
AcDbEntity
  8
Defpoints
 62
     0
100
AcDbPoint
 10
16.62827283782723
 20
6.603999999999976
 30
0.0
  0
POINT
  5
2D0
330
2C7
100
AcDbEntity
  8
Defpoints
 62
     0
100
AcDbPoint
 10
4.375000000000071
 20
6.60399999999993
 30
0.0
  0
ENDBLK
  5
2C9
330
2C7
100
AcDbEntity
  8
0
100
AcDbBlockEnd
  0
BLOCK
  5
357
330
356
100
AcDbEntity
  8
0
100
AcDbBlockBegin
  2
*D16
 70
     1
 10
0.0
 20
0.0
 30
0.0
  3
*D16
  1
*D19
  0
LINE
  5
358
330
356
100
AcDbEntity
  8
치수문자_일반주서
 62
     0
370
    -2
100
AcDbLine
 10
198.6182728378272
 20
24.67500000000005
 30
0.0
 11
226.615676120352
 21
24.67500000000005
 31
0.0
  0
LINE
  5
359
330
356
100
AcDbEntity
  8
치수문자_일반주서
 62
     0
370
    -2
100
AcDbLine
 10
198.6182728378272
 20
2.450000000000044
 30
0.0
 11
226.615676120352
 21
2.450000000000045
 31
0.0
  0
LINE
  5
35A
330
356
100
AcDbEntity
  8
치수문자_일반주서
 62
     0
370
    -2
100
AcDbLine
 10
226.615676120352
 20
24.67500000000005
 30
0.0
 11
226.615676120352
 21
57.52900000000005
 31
0.0
  0
LINE
  5
35B
330
356
100
AcDbEntity
  8
치수문자_일반주서
 62
     0
370
    -2
100
AcDbLine
 10
226.615676120352
 20
24.67500000000005
 30
0.0
 11
226.615676120352
 21
2.450000000000045
 31
0.0
  0
MTEXT
  5
35C
330
356
100
AcDbEntity
  8
치수문자_일반주서
 62
     0
100
AcDbMText
 10
223.990676120352
 20
44.40400000000005
 30
0.0
 40
3.5
 41
0.0
 71
     5
 72
     1
  1
\A1;22.23 [7/8]
  7
SLDTEXTSTYLE0
 11
0.0
 21
1.0
 31
0.0
 73
     1
 44
1.0
  0
POINT
  5
35D
330
356
100
AcDbEntity
  8
Defpoints
 62
     0
100
AcDbPoint
 10
198.5557728378272
 20
24.67500000000005
 30
0.0
  0
POINT
  5
35E
330
356
100
AcDbEntity
  8
Defpoints
 62
     0
100
AcDbPoint
 10
198.5557728378272
 20
2.450000000000044
 30
0.0
  0
POINT
  5
35F
330
356
100
AcDbEntity
  8
Defpoints
 62
     0
100
AcDbPoint
 10
226.615676120352
 20
2.450000000000042
 30
0.0
  0
ENDBLK
  5
360
330
356
100
AcDbEntity
  8
0
100
AcDbBlockEnd
  0
BLOCK
  5
36E
330
36D
100
AcDbEntity
  8
0
100
AcDbBlockBegin
  2
*D17
 70
     1
 10
0.0
 20
0.0
 30
0.0
  3
*D17
  1
*D20
  0
LINE
  5
370
330
36D
100
AcDbEntity
  8
치수문자_일반주서
 62
     0
370
    -2
100
AcDbLine
 10
198.5557728378272
 20
24.73750000000005
 30
0.0
 11
198.5557728378272
 21
37.81497268430733
 31
0.0
  0
LINE
  5
371
330
36D
100
AcDbEntity
  8
치수문자_일반주서
 62
     0
370
    -2
100
AcDbLine
 10
71.55577283782723
 20
23.85661885905994
 30
0.0
 11
71.55577283782723
 21
37.81497268430733
 31
0.0
  0
LINE
  5
372
330
36D
100
AcDbEntity
  8
치수문자_일반주서
 62
     0
370
    -2
100
AcDbLine
 10
198.5557728378272
 20
37.81497268430733
 30
0.0
 11
71.55577283782723
 21
37.81497268430733
 31
0.0
  0
MTEXT
  5
373
330
36D
100
AcDbEntity
  8
치수문자_일반주서
 62
     0
100
AcDbMText
 10
135.0557728378272
 20
42.18997268430733
 30
0.0
 40
3.5
 41
0.0
 71
     2
 72
     1
  1
\A1;127 [5]
  7
SLDTEXTSTYLE0
 73
     1
 44
1.0
  0
POINT
  5
374
330
36D
100
AcDbEntity
  8
Defpoints
 62
     0
100
AcDbPoint
 10
198.5557728378272
 20
24.67500000000005
 30
0.0
  0
POINT
  5
375
330
36D
100
AcDbEntity
  8
Defpoints
 62
     0
100
AcDbPoint
 10
71.55577283782723
 20
23.79411885905994
 30
0.0
  0
POINT
  5
376
330
36D
100
AcDbEntity
  8
Defpoints
 62
     0
100
AcDbPoint
 10
71.55577283782723
 20
37.81497268430733
 30
0.0
  0
ENDBLK
  5
36F
330
36D
100
AcDbEntity
  8
0
100
AcDbBlockEnd
  0
BLOCK
  5
378
330
377
100
AcDbEntity
  8
0
100
AcDbBlockBegin
  2
*D18
 70
     1
 10
0.0
 20
0.0
 30
0.0
  3
*D18
  1
*D21
  0
LINE
  5
37A
330
377
100
AcDbEntity
  8
치수문자_일반주서
 62
     0
370
    -2
100
AcDbLine
 10
198.5557728378272
 20
24.73750000000005
 30
0.0
 11
198.5557728378272
 21
53.5361778821101
 31
0.0
  0
LINE
  5
37B
330
377
100
AcDbEntity
  8
치수문자_일반주서
 62
     0
370
    -2
100
AcDbLine
 10
14.40577283782725
 20
22.51500000000004
 30
0.0
 11
14.40577283782724
 21
53.5361778821101
 31
0.0
  0
LINE
  5
37C
330
377
100
AcDbEntity
  8
치수문자_일반주서
 62
     0
370
    -2
100
AcDbLine
 10
198.5557728378272
 20
53.5361778821101
 30
0.0
 11
14.40577283782724
 21
53.5361778821101
 31
0.0
  0
MTEXT
  5
37D
330
377
100
AcDbEntity
  8
치수문자_일반주서
 62
     0
100
AcDbMText
 10
106.4807728378273
 20
57.9111778821101
 30
0.0
 40
3.5
 41
0.0
 71
     2
 72
     1
  1
\A1;184.15 [7 1/4]
  7
SLDTEXTSTYLE0
 73
     1
 44
1.0
  0
POINT
  5
37E
330
377
100
AcDbEntity
  8
Defpoints
 62
     0
100
AcDbPoint
 10
198.5557728378272
 20
24.67500000000005
 30
0.0
  0
POINT
  5
37F
330
377
100
AcDbEntity
  8
Defpoints
 62
     0
100
AcDbPoint
 10
14.40577283782725
 20
22.45250000000004
 30
0.0
  0
POINT
  5
380
330
377
100
AcDbEntity
  8
Defpoints
 62
     0
100
AcDbPoint
 10
14.40577283782725
 20
53.5361778821101
 30
0.0
  0
ENDBLK
  5
379
330
377
100
AcDbEntity
  8
0
100
AcDbBlockEnd
  0
BLOCK
  5
382
330
381
100
AcDbEntity
  8
0
100
AcDbBlockBegin
  2
*D19
 70
     1
 10
0.0
 20
0.0
 30
0.0
  3
*D19
  1
*D22
  0
LINE
  5
384
330
381
100
AcDbEntity
  8
치수문자_일반주서
 62
     0
370
    -2
100
AcDbLine
 10
16.56577283782723
 20
24.67500000000002
 30
0.0
 11
4.375000000000004
 21
24.67499999999998
 31
0.0
  0
LINE
  5
385
330
381
100
AcDbEntity
  8
치수문자_일반주서
 62
     0
370
    -2
100
AcDbLine
 10
16.56577283782723
 20
2.450000000000027
 30
0.0
 11
4.375000000000082
 21
2.449999999999982
 31
0.0
  0
LINE
  5
386
330
381
100
AcDbEntity
  8
치수문자_일반주서
 62
     0
370
    -2
100
AcDbLine
 10
4.375000000000004
 20
24.67499999999998
 30
0.0
 11
4.375000000000082
 21
2.449999999999982
 31
0.0
  0
MTEXT
  5
387
330
381
100
AcDbEntity
  8
치수문자_일반주서
 62
     0
100
AcDbMText
 10
0.0000000000000426
 20
13.56250000000001
 30
0.0
 40
3.5
 41
0.0
 71
     2
 72
     1
  1
\A1;%%c22.23 [7/8]
  7
SLDTEXTSTYLE0
 11
-3.476783915136599E-15
 21
1.0
 31
0.0
 73
     1
 44
1.0
  0
POINT
  5
388
330
381
100
AcDbEntity
  8
Defpoints
 62
     0
100
AcDbPoint
 10
16.62827283782723
 20
24.67500000000002
 30
0.0
  0
POINT
  5
389
330
381
100
AcDbEntity
  8
Defpoints
 62
     0
100
AcDbPoint
 10
16.62827283782723
 20
2.450000000000028
 30
0.0
  0
POINT
  5
38A
330
381
100
AcDbEntity
  8
Defpoints
 62
     0
100
AcDbPoint
 10
4.375000000000085
 20
2.449999999999982
 30
0.0
  0
ENDBLK
  5
383
330
381
100
AcDbEntity
  8
0
100
AcDbBlockEnd
  0
BLOCK
  5
411
330
410
100
AcDbEntity
  8
0
100
AcDbBlockBegin
  2
*D20
 70
     1
 10
0.0
 20
0.0
 30
0.0
  3
*D20
  1
*D24
  0
LINE
  5
412
330
410
100
AcDbEntity
  8
치수문자_일반주서
 62
     0
370
    -2
100
AcDbLine
 10
198.6182728378272
 20
24.67500000000005
 30
0.0
 11
226.615676120352
 21
24.67500000000005
 31
0.0
  0
LINE
  5
413
330
410
100
AcDbEntity
  8
치수문자_일반주서
 62
     0
370
    -2
100
AcDbLine
 10
198.6182728378272
 20
2.450000000000044
 30
0.0
 11
226.615676120352
 21
2.450000000000045
 31
0.0
  0
LINE
  5
414
330
410
100
AcDbEntity
  8
치수문자_일반주서
 62
     0
370
    -2
100
AcDbLine
 10
226.615676120352
 20
24.67500000000005
 30
0.0
 11
226.615676120352
 21
57.52900000000005
 31
0.0
  0
LINE
  5
415
330
410
100
AcDbEntity
  8
치수문자_일반주서
 62
     0
370
    -2
100
AcDbLine
 10
226.615676120352
 20
24.67500000000005
 30
0.0
 11
226.615676120352
 21
2.450000000000045
 31
0.0
  0
MTEXT
  5
416
330
410
100
AcDbEntity
  8
치수문자_일반주서
 62
     0
100
AcDbMText
 10
223.990676120352
 20
44.40400000000005
 30
0.0
 40
3.5
 41
0.0
 71
     5
 72
     1
  1
\A1;22.23 [7/8]
  7
SLDTEXTSTYLE0
 11
0.0
 21
1.0
 31
0.0
 73
     1
 44
1.0
  0
POINT
  5
417
330
410
100
AcDbEntity
  8
Defpoints
 62
     0
100
AcDbPoint
 10
198.5557728378272
 20
24.67500000000005
 30
0.0
  0
POINT
  5
418
330
410
100
AcDbEntity
  8
Defpoints
 62
     0
100
AcDbPoint
 10
198.5557728378272
 20
2.450000000000044
 30
0.0
  0
POINT
  5
419
330
410
100
AcDbEntity
  8
Defpoints
 62
     0
100
AcDbPoint
 10
226.615676120352
 20
2.450000000000042
 30
0.0
  0
ENDBLK
  5
41A
330
410
100
AcDbEntity
  8
0
100
AcDbBlockEnd
  0
BLOCK
  5
428
330
427
100
AcDbEntity
  8
0
100
AcDbBlockBegin
  2
*D21
 70
     1
 10
0.0
 20
0.0
 30
0.0
  3
*D21
  1
*D25
  0
LINE
  5
42A
330
427
100
AcDbEntity
  8
치수문자_일반주서
 62
     0
370
    -2
100
AcDbLine
 10
198.5557728378272
 20
24.73750000000005
 30
0.0
 11
198.5557728378272
 21
37.81497268430733
 31
0.0
  0
LINE
  5
42B
330
427
100
AcDbEntity
  8
치수문자_일반주서
 62
     0
370
    -2
100
AcDbLine
 10
71.55577283782723
 20
23.85661885905994
 30
0.0
 11
71.55577283782723
 21
37.81497268430733
 31
0.0
  0
LINE
  5
42C
330
427
100
AcDbEntity
  8
치수문자_일반주서
 62
     0
370
    -2
100
AcDbLine
 10
198.5557728378272
 20
37.81497268430733
 30
0.0
 11
71.55577283782723
 21
37.81497268430733
 31
0.0
  0
MTEXT
  5
42D
330
427
100
AcDbEntity
  8
치수문자_일반주서
 62
     0
100
AcDbMText
 10
135.0557728378272
 20
42.18997268430733
 30
0.0
 40
3.5
 41
0.0
 71
     2
 72
     1
  1
\A1;127 [5]
  7
SLDTEXTSTYLE0
 73
     1
 44
1.0
  0
POINT
  5
42E
330
427
100
AcDbEntity
  8
Defpoints
 62
     0
100
AcDbPoint
 10
198.5557728378272
 20
24.67500000000005
 30
0.0
  0
POINT
  5
42F
330
427
100
AcDbEntity
  8
Defpoints
 62
     0
100
AcDbPoint
 10
71.55577283782723
 20
23.79411885905994
 30
0.0
  0
POINT
  5
430
330
427
100
AcDbEntity
  8
Defpoints
 62
     0
100
AcDbPoint
 10
71.55577283782723
 20
37.81497268430733
 30
0.0
  0
ENDBLK
  5
429
330
427
100
AcDbEntity
  8
0
100
AcDbBlockEnd
  0
BLOCK
  5
432
330
431
100
AcDbEntity
  8
0
100
AcDbBlockBegin
  2
*D22
 70
     1
 10
0.0
 20
0.0
 30
0.0
  3
*D22
  1
*D26
  0
LINE
  5
434
330
431
100
AcDbEntity
  8
치수문자_일반주서
 62
     0
370
    -2
100
AcDbLine
 10
198.5557728378272
 20
24.73750000000005
 30
0.0
 11
198.5557728378272
 21
53.5361778821101
 31
0.0
  0
LINE
  5
435
330
431
100
AcDbEntity
  8
치수문자_일반주서
 62
     0
370
    -2
100
AcDbLine
 10
14.40577283782725
 20
22.51500000000004
 30
0.0
 11
14.40577283782724
 21
53.5361778821101
 31
0.0
  0
LINE
  5
436
330
431
100
AcDbEntity
  8
치수문자_일반주서
 62
     0
370
    -2
100
AcDbLine
 10
198.5557728378272
 20
53.5361778821101
 30
0.0
 11
14.40577283782724
 21
53.5361778821101
 31
0.0
  0
MTEXT
  5
437
330
431
100
AcDbEntity
  8
치수문자_일반주서
 62
     0
100
AcDbMText
 10
106.4807728378273
 20
57.9111778821101
 30
0.0
 40
3.5
 41
0.0
 71
     2
 72
     1
  1
\A1;184.15 [7 1/4]
  7
SLDTEXTSTYLE0
 73
     1
 44
1.0
  0
POINT
  5
438
330
431
100
AcDbEntity
  8
Defpoints
 62
     0
100
AcDbPoint
 10
198.5557728378272
 20
24.67500000000005
 30
0.0
  0
POINT
  5
439
330
431
100
AcDbEntity
  8
Defpoints
 62
     0
100
AcDbPoint
 10
14.40577283782725
 20
22.45250000000004
 30
0.0
  0
POINT
  5
43A
330
431
100
AcDbEntity
  8
Defpoints
 62
     0
100
AcDbPoint
 10
14.40577283782725
 20
53.5361778821101
 30
0.0
  0
ENDBLK
  5
433
330
431
100
AcDbEntity
  8
0
100
AcDbBlockEnd
  0
BLOCK
  5
43C
330
43B
100
AcDbEntity
  8
0
100
AcDbBlockBegin
  2
*D23
 70
     1
 10
0.0
 20
0.0
 30
0.0
  3
*D23
  1
*D27
  0
LINE
  5
43E
330
43B
100
AcDbEntity
  8
치수문자_일반주서
 62
     0
370
    -2
100
AcDbLine
 10
16.56577283782723
 20
24.67500000000002
 30
0.0
 11
4.375000000000004
 21
24.67499999999998
 31
0.0
  0
LINE
  5
43F
330
43B
100
AcDbEntity
  8
치수문자_일반주서
 62
     0
370
    -2
100
AcDbLine
 10
16.56577283782723
 20
2.450000000000027
 30
0.0
 11
4.375000000000082
 21
2.449999999999982
 31
0.0
  0
LINE
  5
440
330
43B
100
AcDbEntity
  8
치수문자_일반주서
 62
     0
370
    -2
100
AcDbLine
 10
4.375000000000004
 20
24.67499999999998
 30
0.0
 11
4.375000000000082
 21
2.449999999999982
 31
0.0
  0
MTEXT
  5
441
330
43B
100
AcDbEntity
  8
치수문자_일반주서
 62
     0
100
AcDbMText
 10
0.0000000000000426
 20
13.56250000000001
 30
0.0
 40
3.5
 41
0.0
 71
     2
 72
     1
  1
\A1;%%c22.23 [7/8]
  7
SLDTEXTSTYLE0
 11
-3.476783915136599E-15
 21
1.0
 31
0.0
 73
     1
 44
1.0
  0
POINT
  5
442
330
43B
100
AcDbEntity
  8
Defpoints
 62
     0
100
AcDbPoint
 10
16.62827283782723
 20
24.67500000000002
 30
0.0
  0
POINT
  5
443
330
43B
100
AcDbEntity
  8
Defpoints
 62
     0
100
AcDbPoint
 10
16.62827283782723
 20
2.450000000000028
 30
0.0
  0
POINT
  5
444
330
43B
100
AcDbEntity
  8
Defpoints
 62
     0
100
AcDbPoint
 10
4.375000000000085
 20
2.449999999999982
 30
0.0
  0
ENDBLK
  5
43D
330
43B
100
AcDbEntity
  8
0
100
AcDbBlockEnd
  0
BLOCK
  5
486
330
485
100
AcDbEntity
  8
0
100
AcDbBlockBegin
  2
*D24
 70
     1
 10
0.0
 20
0.0
 30
0.0
  3
*D24
  1
*D28
  0
LINE
  5
488
330
485
100
AcDbEntity
  8
치수문자_일반주서
 62
     0
370
    -2
100
AcDbLine
 10
332.6712749254471
 20
-79.47502896805324
 30
0.0
 11
332.6712749254471
 21
-66.39755628374596
 31
0.0
  0
LINE
  5
489
330
485
100
AcDbEntity
  8
치수문자_일반주서
 62
     0
370
    -2
100
AcDbLine
 10
205.6712749254471
 20
-80.35591010899334
 30
0.0
 11
205.6712749254471
 21
-66.39755628374596
 31
0.0
  0
LINE
  5
48A
330
485
100
AcDbEntity
  8
치수문자_일반주서
 62
     0
370
    -2
100
AcDbLine
 10
329.3692749254471
 20
-66.39755628374596
 30
0.0
 11
208.9732749254471
 21
-66.39755628374596
 31
0.0
  0
SOLID
  5
48B
330
485
100
AcDbEntity
  8
치수문자_일반주서
 62
     0
100
AcDbTrace
 10
329.3692749254471
 20
-66.94788961707928
 30
0.0
 11
329.3692749254471
 21
-65.84722295041263
 31
0.0
 12
332.6712749254471
 22
-66.39755628374596
 32
0.0
 13
332.6712749254471
 23
-66.39755628374596
 33
0.0
  0
SOLID
  5
48C
330
485
100
AcDbEntity
  8
치수문자_일반주서
 62
     0
100
AcDbTrace
 10
208.9732749254471
 20
-65.84722295041263
 30
0.0
 11
208.9732749254471
 21
-66.94788961707928
 31
0.0
 12
205.6712749254471
 22
-66.39755628374596
 32
0.0
 13
205.6712749254471
 23
-66.39755628374596
 33
0.0
  0
MTEXT
  5
48D
330
485
100
AcDbEntity
  8
치수문자_일반주서
 62
     0
100
AcDbMText
 10
269.1712749254471
 20
-62.02255628374596
 30
0.0
 40
3.5
 41
0.0
 71
     2
 72
     1
  1
\A1;127.00 [5.00]
  7
SLDTEXTSTYLE0
 73
     1
 44
1.0
  0
POINT
  5
48E
330
485
100
AcDbEntity
  8
Defpoints
 62
     0
100
AcDbPoint
 10
332.6712749254471
 20
-79.53752896805324
 30
0.0
  0
POINT
  5
4B2
330
485
100
AcDbEntity
  8
Defpoints
 62
     0
100
AcDbPoint
 10
205.6712749254471
 20
-80.41841010899334
 30
0.0
  0
POINT
  5
4B3
330
485
100
AcDbEntity
  8
Defpoints
 62
     0
100
AcDbPoint
 10
205.6712749254471
 20
-66.39755628374596
 30
0.0
  0
ENDBLK
  5
487
330
485
100
AcDbEntity
  8
0
100
AcDbBlockEnd
  0
BLOCK
  5
490
330
48F
100
AcDbEntity
  8
0
100
AcDbBlockBegin
  2
*D25
 70
     1
 10
0.0
 20
0.0
 30
0.0
  3
*D25
  1
*D29
  0
LINE
  5
492
330
48F
100
AcDbEntity
  8
치수문자_일반주서
 62
     0
370
    -2
100
AcDbLine
 10
332.6712749254471
 20
-79.47502896805324
 30
0.0
 11
332.6712749254471
 21
-50.67635108594317
 31
0.0
  0
LINE
  5
493
330
48F
100
AcDbEntity
  8
치수문자_일반주서
 62
     0
370
    -2
100
AcDbLine
 10
148.5212749254471
 20
-81.69752896805323
 30
0.0
 11
148.5212749254471
 21
-50.67635108594317
 31
0.0
  0
LINE
  5
494
330
48F
100
AcDbEntity
  8
치수문자_일반주서
 62
     0
370
    -2
100
AcDbLine
 10
329.3692749254471
 20
-50.67635108594317
 30
0.0
 11
151.8232749254471
 21
-50.67635108594317
 31
0.0
  0
SOLID
  5
495
330
48F
100
AcDbEntity
  8
치수문자_일반주서
 62
     0
100
AcDbTrace
 10
329.3692749254471
 20
-51.22668441927651
 30
0.0
 11
329.3692749254471
 21
-50.12601775260984
 31
0.0
 12
332.6712749254471
 22
-50.67635108594317
 32
0.0
 13
332.6712749254471
 23
-50.67635108594317
 33
0.0
  0
SOLID
  5
496
330
48F
100
AcDbEntity
  8
치수문자_일반주서
 62
     0
100
AcDbTrace
 10
151.8232749254471
 20
-50.12601775260984
 30
0.0
 11
151.8232749254471
 21
-51.22668441927651
 31
0.0
 12
148.5212749254471
 22
-50.67635108594317
 32
0.0
 13
148.5212749254471
 23
-50.67635108594317
 33
0.0
  0
MTEXT
  5
497
330
48F
100
AcDbEntity
  8
치수문자_일반주서
 62
     0
100
AcDbMText
 10
240.5962749254471
 20
-46.30135108594317
 30
0.0
 40
3.5
 41
0.0
 71
     2
 72
     1
  1
\A1;184.15 [7.25]
  7
SLDTEXTSTYLE0
 73
     1
 44
1.0
  0
POINT
  5
498
330
48F
100
AcDbEntity
  8
Defpoints
 62
     0
100
AcDbPoint
 10
332.6712749254471
 20
-79.53752896805324
 30
0.0
  0
POINT
  5
4B0
330
48F
100
AcDbEntity
  8
Defpoints
 62
     0
100
AcDbPoint
 10
148.5212749254471
 20
-81.76002896805323
 30
0.0
  0
POINT
  5
4B1
330
48F
100
AcDbEntity
  8
Defpoints
 62
     0
100
AcDbPoint
 10
148.5212749254471
 20
-50.67635108594317
 30
0.0
  0
ENDBLK
  5
491
330
48F
100
AcDbEntity
  8
0
100
AcDbBlockEnd
  0
BLOCK
  5
49A
330
499
100
AcDbEntity
  8
0
100
AcDbBlockBegin
  2
*D26
 70
     1
 10
0.0
 20
0.0
 30
0.0
  3
*D26
  1
*D30
  0
LINE
  5
49C
330
499
100
AcDbEntity
  8
치수문자_일반주서
 62
     0
370
    -2
100
AcDbLine
 10
150.6812749254471
 20
-79.53752896805325
 30
0.0
 11
138.4905020876199
 21
-79.5375289680533
 31
0.0
  0
LINE
  5
49D
330
499
100
AcDbEntity
  8
치수문자_일반주서
 62
     0
370
    -2
100
AcDbLine
 10
150.6812749254471
 20
-101.7625289680532
 30
0.0
 11
138.49050208762
 21
-101.7625289680533
 31
0.0
  0
LINE
  5
49E
330
499
100
AcDbEntity
  8
치수문자_일반주서
 62
     0
370
    -2
100
AcDbLine
 10
138.4905020876199
 20
-79.5375289680533
 30
0.0
 11
138.49050208762
 21
-101.7625289680533
 31
0.0
  0
MTEXT
  5
49F
330
499
100
AcDbEntity
  8
치수문자_일반주서
 62
     0
100
AcDbMText
 10
134.1155020876199
 20
-90.65002896805326
 30
0.0
 40
3.5
 41
0.0
 71
     2
 72
     1
  1
\A1;%%c22.23 [7/8]
  7
SLDTEXTSTYLE0
 11
-3.836451216702454E-15
 21
1.0
 31
0.0
 73
     1
 44
1.0
  0
POINT
  5
4A0
330
499
100
AcDbEntity
  8
Defpoints
 62
     0
100
AcDbPoint
 10
150.7437749254471
 20
-79.53752896805325
 30
0.0
  0
POINT
  5
4A1
330
499
100
AcDbEntity
  8
Defpoints
 62
     0
100
AcDbPoint
 10
150.7437749254471
 20
-101.7625289680532
 30
0.0
  0
POINT
  5
4A2
330
499
100
AcDbEntity
  8
Defpoints
 62
     0
100
AcDbPoint
 10
138.4905020876199
 20
-101.7625289680533
 30
0.0
  0
ENDBLK
  5
49B
330
499
100
AcDbEntity
  8
0
100
AcDbBlockEnd
  0
BLOCK
  5
4A4
330
4A3
100
AcDbEntity
  8
0
100
AcDbBlockBegin
  2
*D27
 70
     1
 10
0.0
 20
0.0
 30
0.0
  3
*D27
  1
*D31
  0
LINE
  5
4A6
330
4A3
100
AcDbEntity
  8
치수문자_일반주서
 62
     0
370
    -2
100
AcDbLine
 10
332.7337749254471
 20
-79.53752896805324
 30
0.0
 11
360.7311782079719
 21
-79.53752896805324
 31
0.0
  0
LINE
  5
4A7
330
4A3
100
AcDbEntity
  8
치수문자_일반주서
 62
     0
370
    -2
100
AcDbLine
 10
332.7337749254471
 20
-101.7625289680532
 30
0.0
 11
360.7311782079719
 21
-101.7625289680532
 31
0.0
  0
LINE
  5
4A8
330
4A3
100
AcDbEntity
  8
치수문자_일반주서
 62
     0
370
    -2
100
AcDbLine
 10
360.7311782079719
 20
-79.53752896805324
 30
0.0
 11
360.7311782079719
 21
-46.68352896805323
 31
0.0
  0
LINE
  5
4A9
330
4A3
100
AcDbEntity
  8
치수문자_일반주서
 62
     0
370
    -2
100
AcDbLine
 10
360.7311782079719
 20
-79.53752896805324
 30
0.0
 11
360.7311782079719
 21
-101.7625289680532
 31
0.0
  0
MTEXT
  5
4AA
330
4A3
100
AcDbEntity
  8
치수문자_일반주서
 62
     0
100
AcDbMText
 10
358.1061782079719
 20
-59.80852896805323
 30
0.0
 40
3.5
 41
0.0
 71
     5
 72
     1
  1
\A1;22.23 [7/8]
  7
SLDTEXTSTYLE0
 11
0.0
 21
1.0
 31
0.0
 73
     1
 44
1.0
  0
POINT
  5
4AB
330
4A3
100
AcDbEntity
  8
Defpoints
 62
     0
100
AcDbPoint
 10
332.6712749254471
 20
-79.53752896805324
 30
0.0
  0
POINT
  5
4AC
330
4A3
100
AcDbEntity
  8
Defpoints
 62
     0
100
AcDbPoint
 10
332.6712749254471
 20
-101.7625289680532
 30
0.0
  0
POINT
  5
4AD
330
4A3
100
AcDbEntity
  8
Defpoints
 62
     0
100
AcDbPoint
 10
360.7311782079719
 20
-101.7625289680532
 30
0.0
  0
ENDBLK
  5
4A5
330
4A3
100
AcDbEntity
  8
0
100
AcDbBlockEnd
  0
BLOCK
  5
4B8
330
4B7
100
AcDbEntity
  8
0
100
AcDbBlockBegin
  2
*D28
 70
     1
 10
0.0
 20
0.0
 30
0.0
  3
*D28
  1
*D32
  0
LINE
  5
4BA
330
4B7
100
AcDbEntity
  8
치수문자_일반주서
 62
     0
370
    -2
100
AcDbLine
 10
164.4625
 20
12.70000000000002
 30
0.0
 11
192.2688531639149
 21
12.70000000000002
 31
0.0
  0
LINE
  5
4BB
330
4B7
100
AcDbEntity
  8
치수문자_일반주서
 62
     0
370
    -2
100
AcDbLine
 10
164.4625
 20
-12.69999999999998
 30
0.0
 11
192.2688531639149
 21
-12.69999999999998
 31
0.0
  0
LINE
  5
4BC
330
4B7
100
AcDbEntity
  8
치수문자_일반주서
 62
     0
370
    -2
100
AcDbLine
 10
192.2688531639149
 20
9.39800000000002
 30
0.0
 11
192.2688531639149
 21
-9.39799999999998
 31
0.0
  0
SOLID
  5
4BD
330
4B7
100
AcDbEntity
  8
치수문자_일반주서
 62
     0
100
AcDbTrace
 10
192.8191864972482
 20
9.39800000000002
 30
0.0
 11
191.7185198305815
 21
9.39800000000002
 31
0.0
 12
192.2688531639149
 22
12.70000000000002
 32
0.0
 13
192.2688531639149
 23
12.70000000000002
 33
0.0
  0
SOLID
  5
4BE
330
4B7
100
AcDbEntity
  8
치수문자_일반주서
 62
     0
100
AcDbTrace
 10
191.7185198305815
 20
-9.39799999999998
 30
0.0
 11
192.8191864972482
 21
-9.39799999999998
 31
0.0
 12
192.2688531639149
 22
-12.69999999999998
 32
0.0
 13
192.2688531639149
 23
-12.69999999999998
 33
0.0
  0
MTEXT
  5
4BF
330
4B7
100
AcDbEntity
  8
치수문자_일반주서
 62
     0
100
AcDbMText
 10
189.6438531639149
 20
0.0000000000000195
 30
0.0
 40
3.5
 41
0.0
 71
     5
 72
     1
  1
\A1;25.40 [1]
  7
SLDTEXTSTYLE0
 11
0.0
 21
1.0
 31
0.0
 73
     1
 44
1.0
  0
POINT
  5
4C0
330
4B7
100
AcDbEntity
  8
Defpoints
 62
     0
100
AcDbPoint
 10
164.4
 20
12.70000000000002
 30
0.0
  0
POINT
  5
4C1
330
4B7
100
AcDbEntity
  8
Defpoints
 62
     0
100
AcDbPoint
 10
164.4
 20
-12.69999999999998
 30
0.0
  0
POINT
  5
4C2
330
4B7
100
AcDbEntity
  8
Defpoints
 62
     0
100
AcDbPoint
 10
192.2688531639149
 20
-12.69999999999998
 30
0.0
  0
ENDBLK
  5
4B9
330
4B7
100
AcDbEntity
  8
0
100
AcDbBlockEnd
  0
ENDSEC
  0
SECTION
  2
ENTITIES
  0
LINE
  5
96
330
1F
100
AcDbEntity
  8
외형선
  6
Continuous
370
    15
100
AcDbLine
 10
-48.96000000000004
 20
-12.7
 30
0.0
 11
11.50005737522731
 21
-12.7
 31
0.0
  0
LINE
  5
97
330
1F
100
AcDbEntity
  8
외형선
  6
Continuous
370
    15
100
AcDbLine
 10
11.50005737522731
 20
12.7
 30
0.0
 11
-14.06992500000002
 21
12.7
 31
0.0
  0
LINE
  5
99
330
1F
100
AcDbEntity
  8
외형선
  6
Continuous
370
    15
100
AcDbLine
 10
-51.50000000000004
 20
-10.16000000000001
 30
0.0
 11
-48.96000000000004
 21
-12.7
 31
0.0
  0
LINE
  5
9A
330
1F
100
AcDbEntity
  8
0
  6
Continuous
 62
     1
370
    15
100
AcDbLine
 10
146.0403926712248
 20
-3.734731445864974
 30
0.0
 11
146.1803343022361
 21
-3.810122814115104
 31
0.0
  0
LINE
  5
9B
330
1F
100
AcDbEntity
  8
0
  6
Continuous
 62
     1
370
    15
100
AcDbLine
 10
62.62805608875896
 20
-12.70000000000001
 30
0.0
 11
70.37262724119094
 21
-12.70000000000001
 31
0.0
  0
LINE
  5
9C
330
1F
100
AcDbEntity
  8
0
  6
Continuous
 62
     1
370
    15
100
AcDbLine
 10
139.4764459969634
 20
12.70000000000001
 30
0.0
 11
131.7338088997084
 21
12.70000000000001
 31
0.0
  0
LINE
  5
9D
330
1F
100
AcDbEntity
  8
0
  6
Continuous
 62
     1
370
    15
100
AcDbLine
 10
131.7338088997082
 20
-12.70000000000001
 30
0.0
 11
139.4764459969634
 21
-12.70000000000001
 31
0.0
  0
LINE
  5
9E
330
1F
100
AcDbEntity
  8
0
  6
Continuous
 62
     1
370
    15
100
AcDbLine
 10
70.37262724119091
 20
12.70000000000001
 30
0.0
 11
62.62805608875892
 21
12.70000000000001
 31
0.0
  0
LINE
  5
9F
330
1F
100
AcDbEntity
  8
0
  6
Continuous
 62
     1
370
    15
100
AcDbLine
 10
28.07709380015945
 20
-12.70000000000001
 30
0.0
 11
35.81987518618691
 21
-12.70000000000001
 31
0.0
  0
LINE
  5
A0
330
1F
100
AcDbEntity
  8
0
  6
Continuous
 62
     1
370
    15
100
AcDbLine
 10
104.9258958570676
 20
12.70000000000001
 30
0.0
 11
97.1794530777554
 21
12.70000000000001
 31
0.0
  0
LINE
  5
A1
330
1F
100
AcDbEntity
  8
0
  6
Continuous
 62
     1
370
    15
100
AcDbLine
 10
97.17945307775551
 20
-12.70000000000001
 30
0.0
 11
104.9258958570675
 21
-12.70000000000001
 31
0.0
  0
LINE
  5
A2
330
1F
100
AcDbEntity
  8
0
  6
Continuous
 62
     1
370
    15
100
AcDbLine
 10
35.8198751861868
 20
12.70000000000001
 30
0.0
 11
28.07709380015936
 21
12.70000000000001
 31
0.0
  0
LINE
  5
A3
330
1F
100
AcDbEntity
  8
외형선
  6
Continuous
370
    15
100
AcDbLine
 10
11.50005737522731
 20
-5.697537463971888
 30
0.0
 11
11.50005737522731
 21
8.689702645250904
 31
0.0
  0
SPLINE
  5
A4
330
1F
100
AcDbEntity
  8
외형선
  6
Continuous
370
    15
100
AcDbSpline
210
0.0
220
0.0
230
1.0
 70
     8
 71
     3
 72
     8
 73
     4
 74
     0
 42
0.000000001
 43
0.00000001
 40
0.0
 40
0.0
 40
0.0
 40
0.0
 40
1.0
 40
1.0
 40
1.0
 40
1.0
 10
11.99999999999996
 20
-5.954448794446042
 30
0.0
 10
11.83317879155033
 20
-5.869286659304741
 30
0.0
 10
11.6666995905565
 20
-5.783668237577245
 30
0.0
 10
11.5000573752273
 20
-5.697529853171564
 30
0.0
  0
LINE
  5
A5
330
1F
100
AcDbEntity
  8
외형선
  6
Continuous
370
    15
100
AcDbLine
 10
11.99999999999994
 20
-9.457127536950228
 30
0.0
 11
11.99999999999996
 21
-5.954448794446026
 31
0.0
  0
SPLINE
  5
A6
330
1F
100
AcDbEntity
  8
외형선
  6
Continuous
370
    15
100
AcDbSpline
210
0.0
220
0.0
230
1.0
 70
     8
 71
     3
 72
     8
 73
     4
 74
     0
 42
0.000000001
 43
0.00000001
 40
0.0
 40
0.0
 40
0.0
 40
0.0
 40
1.0
 40
1.0
 40
1.0
 40
1.0
 10
11.99999999999998
 20
-9.45712753695831
 30
0.0
 10
11.83317879155035
 20
-9.392774614786429
 30
0.0
 10
11.66669959055648
 20
-9.327648561522508
 30
0.0
 10
11.5000573752273
 20
-9.261701398514955
 30
0.0
  0
LINE
  5
A7
330
1F
100
AcDbEntity
  8
외형선
  6
Continuous
370
    15
100
AcDbLine
 10
11.50005737522731
 20
-12.7
 30
0.0
 11
11.50005737522731
 21
-9.261698976814198
 31
0.0
  0
SPLINE
  5
A8
330
1F
100
AcDbEntity
  8
외형선
  6
Continuous
370
    15
100
AcDbSpline
210
0.0
220
0.0
230
1.0
 70
     8
 71
     3
 72
     8
 73
     4
 74
     0
 42
0.000000001
 43
0.00000001
 40
0.0
 40
0.0
 40
0.0
 40
0.0
 40
1.0
 40
1.0
 40
1.0
 40
1.0
 10
11.99999999999996
 20
-11.21759954510405
 30
0.0
 10
11.83317879155033
 20
-11.26280472210165
 30
0.0
 10
11.6666995905565
 20
-11.30700982443285
 30
0.0
 10
11.5000573752273
 20
-11.35024905331234
 30
0.0
  0
LINE
  5
A9
330
1F
100
AcDbEntity
  8
외형선
  6
Continuous
370
    15
100
AcDbLine
 10
11.50005737522731
 20
11.3502452328853
 30
0.0
 11
11.50005737522731
 21
12.7
 31
0.0
  0
SPLINE
  5
AA
330
1F
100
AcDbEntity
  8
외형선
  6
Continuous
370
    15
100
AcDbSpline
210
0.0
220
0.0
230
1.0
 70
     8
 71
     3
 72
     8
 73
     4
 74
     0
 42
0.000000001
 43
0.00000001
 40
0.0
 40
0.0
 40
0.0
 40
0.0
 40
1.0
 40
1.0
 40
1.0
 40
1.0
 10
11.99999999999996
 20
11.21759954510405
 30
0.0
 10
11.83317879155033
 20
11.26280472210165
 30
0.0
 10
11.6666995905565
 20
11.30700982443285
 30
0.0
 10
11.5000573752273
 20
11.35024905331233
 30
0.0
  0
LINE
  5
AB
330
1F
100
AcDbEntity
  8
외형선
  6
Continuous
370
    15
100
AcDbLine
 10
11.99999999999994
 20
8.47659948031312
 30
0.0
 11
11.99999999999996
 21
11.21759954510406
 31
0.0
  0
SPLINE
  5
AC
330
1F
100
AcDbEntity
  8
외형선
  6
Continuous
370
    15
100
AcDbSpline
210
0.0
220
0.0
230
1.0
 70
     8
 71
     3
 72
     8
 73
     4
 74
     0
 42
0.000000001
 43
0.00000001
 40
0.0
 40
0.0
 40
0.0
 40
0.0
 40
1.0
 40
1.0
 40
1.0
 40
1.0
 10
11.99999999999998
 20
8.476599480316764
 30
0.0
 10
11.83317879155035
 20
8.548396407111362
 30
0.0
 10
11.66669959055648
 20
8.619411915259118
 30
0.0
 10
11.5000573752273
 20
8.689700064141903
 30
0.0
  0
LINE
  5
AD
330
1F
100
AcDbEntity
  8
외형선
  6
Continuous
370
    15
100
AcDbLine
 10
-48.96000000000004
 20
-0.0000000000000029
 30
0.0
 11
-48.96000000000004
 21
10.795
 31
0.0
  0
LINE
  5
AE
330
1F
100
AcDbEntity
  8
외형선
  6
Continuous
370
    15
100
AcDbLine
 10
-48.96000000000004
 20
-12.7
 30
0.0
 11
-48.96000000000004
 21
-0.0000000000000029
 31
0.0
  0
LINE
  5
AF
330
1F
100
AcDbEntity
  8
외형선
  6
Continuous
370
    15
100
AcDbLine
 10
-51.50000000000004
 20
-0.0000000000000029
 30
0.0
 11
-51.50000000000004
 21
10.79499999999999
 31
0.0
  0
LINE
  5
B0
330
1F
100
AcDbEntity
  8
외형선
  6
Continuous
370
    15
100
AcDbLine
 10
-51.50000000000004
 20
-10.16000000000001
 30
0.0
 11
-51.50000000000004
 21
-0.0000000000000029
 31
0.0
  0
SPLINE
  5
B1
330
1F
100
AcDbEntity
  8
외형선
  6
Continuous
370
    15
100
AcDbSpline
210
0.0
220
0.0
230
1.0
 70
    24
 71
     3
 72
    30
 73
    26
 74
     0
 42
0.000000001
 43
0.00000001
 40
0.0
 40
0.0
 40
0.0
 40
0.0
 40
0.0625
 40
0.0625
 40
0.1249999999999999
 40
0.1249999999999999
 40
0.1874999999999999
 40
0.1874999999999999
 40
0.2499999999999999
 40
0.2499999999999999
 40
0.3124999999999999
 40
0.3124999999999999
 40
0.3749999999999999
 40
0.3749999999999999
 40
0.4374999999999999
 40
0.4374999999999999
 40
0.4999999999999999
 40
0.4999999999999999
 40
0.6249999999999999
 40
0.6249999999999999
 40
0.75
 40
0.75
 40
0.875
 40
0.875
 40
1.0
 40
1.0
 40
1.0
 40
1.0
 10
11.99999999999999
 20
-5.954448794446043
 30
0.0
 10
12.0
 20
-5.874676246414007
 30
0.0
 10
11.99999999999999
 20
-5.754887929416221
 30
0.0
 10
11.99999999999996
 20
-5.426406777350922
 30
0.0
 10
11.99999999999998
 20
-5.217610122610609
 30
0.0
 10
11.99999999999998
 20
-4.710477530582248
 30
0.0
 10
11.99999999999999
 20
-4.412107527330244
 30
0.0
 10
11.99999999999999
 20
-3.735943575248107
 30
0.0
 10
11.99999999999999
 20
-3.358219060268159
 30
0.0
 10
12.0
 20
-2.543773623179589
 30
0.0
 10
11.99999999999999
 20
-2.107210706566762
 30
0.0
 10
11.99999999999999
 20
-1.202304404705251
 30
0.0
 10
11.99999999999998
 20
-0.7341462218637067
 30
0.0
 10
12.0
 20
0.2053608229673791
 30
0.0
 10
12.0
 20
0.6765666849307261
 30
0.0
 10
12.00000000000002
 20
1.597380174924651
 30
0.0
 10
12.0
 20
2.046923906678002
 30
0.0
 10
12.0
 20
3.33648229433868
 30
0.0
 10
11.99999999999999
 20
4.114102385965271
 30
0.0
 10
11.99999999999999
 20
5.451965570736046
 30
0.0
 10
11.99999999999998
 20
6.01421267597123
 30
0.0
 10
11.99999999999998
 20
6.948556007876552
 30
0.0
 10
11.99999999999999
 20
7.322015033504855
 30
0.0
 10
12.0
 20
7.928542160813289
 30
0.0
 10
11.99999999999999
 20
8.223067073452832
 30
0.0
 10
11.99999999999998
 20
8.476599480313105
 30
0.0
  0
SPLINE
  5
B2
330
1F
100
AcDbEntity
  8
외형선
  6
Continuous
370
    15
100
AcDbSpline
210
0.0
220
0.0
230
1.0
 70
    24
 71
     3
 72
    10
 73
     6
 74
     0
 42
0.000000001
 43
0.00000001
 40
0.0
 40
0.0
 40
0.0
 40
0.0
 40
0.3477792203101747
 40
0.6976669361194977
 40
1.0
 40
1.0
 40
1.0
 40
1.0
 10
11.99999999999996
 20
-11.21759954510407
 30
0.0
 10
11.99999999999995
 20
-11.02525331000213
 30
0.0
 10
11.99999999999992
 20
-10.63939469430333
 30
0.0
 10
11.99999999999994
 20
-10.09404249517657
 30
0.0
 10
11.99999999999995
 20
-9.760930645710989
 30
0.0
 10
11.99999999999995
 20
-9.60651862879898
 30
0.0
  0
SPLINE
  5
B3
330
1F
100
AcDbEntity
  8
0
  6
Continuous
 62
     1
370
    15
100
AcDbSpline
210
0.0
220
0.0
230
1.0
 70
     8
 71
     3
 72
    28
 73
    24
 74
     0
 42
0.000000001
 43
0.00000001
 40
0.0
 40
0.0
 40
0.0
 40
0.0
 40
0.0176390842655685
 40
0.0679196200923373
 40
0.1182094532299793
 40
0.1685043753920814
 40
0.2203953961119963
 40
0.2722794045288091
 40
0.3241480518862327
 40
0.3760172026142969
 40
0.4279015007918646
 40
0.4788655496920172
 40
0.5298291375475691
 40
0.5807865279444784
 40
0.6317320045229079
 40
0.6835990182052913
 40
0.73548191528339
 40
0.7873726269455044
 40
0.8392627724492957
 40
0.8911439734156745
 40
0.9420856977185845
 40
0.9930314468970317
 40
1.0
 40
1.0
 40
1.0
 40
1.0
 10
35.81987518618678
 20
12.64859174377012
 30
0.0
 10
36.30502960354018
 20
12.66245552936016
 30
0.0
 10
38.17312565754474
 20
12.7158382921011
 30
0.0
 10
41.42452130539365
 20
12.34381714670725
 30
0.0
 10
45.57430392401269
 20
11.54462481471526
 30
0.0
 10
49.76840923771301
 20
10.29228556524632
 30
0.0
 10
54.00660725843206
 20
8.655827852937357
 30
0.0
 10
58.28794588560944
 20
6.673442348279036
 30
0.0
 10
62.56834011797469
 20
4.439454401159441
 30
0.0
 10
66.84874352746581
 20
2.037667353334656
 30
0.0
 10
71.10465139648284
 20
-0.4260102867875206
 30
0.0
 10
75.33559681581212
 20
-2.858839028863517
 30
0.0
 10
79.54107059541784
 20
-5.172871119800481
 30
0.0
 10
83.74593946250448
 20
-7.298348771148461
 30
0.0
 10
87.9753950286204
 20
-9.169280031889688
 30
0.0
 10
92.23026952834587
 20
-10.71095768660814
 30
0.0
 10
96.51151945006251
 20
-11.85699510100555
 30
0.0
 10
100.7935077643909
 20
-12.55613346300878
 30
0.0
 10
105.0754373511093
 20
-12.77848751394911
 30
0.0
 10
109.3311531650417
 20
-12.52965656500892
 30
0.0
 10
113.5604667648279
 20
-11.7831526066907
 30
0.0
 10
116.5545459028126
 20
-11.04376779156717
 30
0.0
 10
118.1475782839951
 20
-10.45917838161263
 30
0.0
 10
118.3392603090858
 20
-10.38883751266965
 30
0.0
  0
SPLINE
  5
B4
330
1F
100
AcDbEntity
  8
0
  6
Continuous
 62
     1
370
    15
100
AcDbSpline
210
0.0
220
0.0
230
1.0
 70
     8
 71
     3
 72
    28
 73
    24
 74
     0
 42
0.000000001
 43
0.00000001
 40
0.0
 40
0.0
 40
0.0
 40
0.0
 40
0.0164013393094089
 40
0.0673704346243565
 40
0.1192658261895453
 40
0.1711523816523044
 40
0.2230230139238455
 40
0.2749013555678801
 40
0.3267930306897698
 40
0.377762591799521
 40
0.4287302731647911
 40
0.4796903410312549
 40
0.5306373656361872
 40
0.5825135110958631
 40
0.6344040070475999
 40
0.6863004944432558
 40
0.7381945892355386
 40
0.7900779173637127
 40
0.8410229402901727
 40
0.8919772282980389
 40
0.9429419155165489
 40
0.9939112778813458
 40
1.0
 40
1.0
 40
1.0
 40
1.0
 10
131.7338088997082
 20
-12.64941089457617
 30
0.0
 10
131.2827072132629
 20
-12.66356837490508
 30
0.0
 10
129.4297538597423
 20
-12.72172189425807
 30
0.0
 10
126.1493849334236
 20
-12.34846118756573
 30
0.0
 10
121.8929184119166
 20
-11.52840569878962
 30
0.0
 10
117.6117919522622
 20
-10.23457791462643
 30
0.0
 10
113.3315494679572
 20
-8.563028674614536
 30
0.0
 10
109.0509443922199
 20
-6.565920131054632
 30
0.0
 10
104.7948326172454
 20
-4.334939464525093
 30
0.0
 10
100.5638325792071
 20
-1.957229059439654
 30
0.0
 10
96.35846154126048
 20
0.4773987365026839
 30
0.0
 10
92.15381113533488
 20
2.89446753153817
 30
0.0
 10
87.92452105838555
 20
5.220355323750775
 30
0.0
 10
83.66945017315405
 20
7.366499759305332
 30
0.0
 10
79.38798235940078
 20
9.247175314614871
 30
0.0
 10
75.10593223868005
 20
10.77884639180778
 30
0.0
 10
70.82412494343856
 20
11.90326480895871
 30
0.0
 10
66.56862941963428
 20
12.57492101874363
 30
0.0
 10
62.33942204958097
 20
12.77480875921015
 30
0.0
 10
58.13518144642619
 20
12.51800886621053
 30
0.0
 10
53.93010948235989
 20
11.76832122658508
 30
0.0
 10
50.95896971887525
 20
11.03311827241085
 30
0.0
 10
49.38960866177677
 20
10.45574690636408
 30
0.0
 10
49.22214066023037
 20
10.39413506224152
 30
0.0
  0
LINE
  5
B5
330
1F
100
AcDbEntity
  8
0
  6
Continuous
 62
     1
370
    15
100
AcDbLine
 10
164.4
 20
-11.50215313554798
 30
0.0
 11
164.4
 21
1.088153135548122
 31
0.0
  0
SPLINE
  5
B6
330
1F
100
AcDbEntity
  8
0
  6
Continuous
 62
     1
370
    15
100
AcDbSpline
210
0.0
220
0.0
230
1.0
 70
     8
 71
     3
 72
    16
 73
    12
 74
     0
 42
0.000000001
 43
0.00000001
 40
0.0
 40
0.0
 40
0.0
 40
0.0
 40
0.113503482670565
 40
0.2270278565288558
 40
0.3405590060911182
 40
0.4540827923300405
 40
0.5675851018029517
 40
0.6790382735430408
 40
0.7905070757275049
 40
0.9019964894684994
 40
0.9999999999999999
 40
0.9999999999999999
 40
0.9999999999999999
 40
0.9999999999999999
 10
12.0
 20
-5.954448794446046
 30
0.0
 10
13.40825851519425
 20
-6.651445705426432
 30
0.0
 10
16.2250347463783
 20
-8.045567815021816
 30
0.0
 10
20.45063736870673
 20
-9.781937617635446
 30
0.0
 10
24.67652602331061
 20
-11.17426653873391
 30
0.0
 10
28.90208228754441
 20
-12.15153161231994
 30
0.0
 10
33.10172796955336
 20
-12.67913900566422
 30
0.0
 10
37.27549791000049
 20
-12.74911172801386
 30
0.0
 10
41.42452581255633
 20
-12.35690507135464
 30
0.0
 10
45.40682710779798
 20
-11.59381684713179
 30
0.0
 10
48.00614567754024
 20
-10.77649080082069
 30
0.0
 10
49.22214066023052
 20
-10.39413506224153
 30
0.0
  0
SPLINE
  5
B7
330
1F
100
AcDbEntity
  8
0
  6
Continuous
 62
     1
370
    15
100
AcDbSpline
210
0.0
220
0.0
230
1.0
 70
     8
 71
     3
 72
    22
 73
    18
 74
     0
 42
0.000000001
 43
0.00000001
 40
0.0
 40
0.0
 40
0.0
 40
0.0
 40
0.0025181077555693
 40
0.074502457671559
 40
0.1451832985009938
 40
0.2158697237818993
 40
0.2865725327053103
 40
0.3572837931628583
 40
0.4292812722714453
 40
0.5012677570136809
 40
0.5732321515434965
 40
0.645202630782827
 40
0.7171928680055428
 40
0.7879050361139508
 40
0.8586155804084665
 40
0.9293165437508192
 40
1.0
 40
1.0
 40
1.0
 40
1.0
 10
104.9258958570676
 20
12.69190328023587
 30
0.0
 10
104.9758189493353
 20
12.69458942576088
 30
0.0
 10
106.4528776892876
 20
12.77406356376579
 30
0.0
 10
109.3311507836884
 20
12.48938539199686
 30
0.0
 10
113.560457639364
 20
11.81454261778097
 30
0.0
 10
117.7645000229895
 20
10.65924048253174
 30
0.0
 10
121.9693884151363
 20
9.130228227514596
 30
0.0
 10
126.2003256041969
 20
7.253340640890734
 30
0.0
 10
130.4568472417707
 20
5.095913914963289
 30
0.0
 10
134.7380808841463
 20
2.733046637361179
 30
0.0
 10
139.0183879952171
 20
0.2667255771456795
 30
0.0
 10
143.2988916702782
 20
-2.209663089104116
 30
0.0
 10
147.5549057250276
 20
-4.587643514287517
 30
0.0
 10
151.7858828301563
 20
-6.783556878117669
 30
0.0
 10
155.991310481259
 20
-8.711058459713136
 30
0.0
 10
160.1960670776524
 20
-10.35121827216459
 30
0.0
 10
162.9988047099862
 20
-11.11853985258795
 30
0.0
 10
164.4
 20
-11.50215313554798
 30
0.0
  0
SPLINE
  5
B8
330
1F
100
AcDbEntity
  8
외형선
  6
Continuous
370
    15
100
AcDbSpline
210
0.0
220
0.0
230
1.0
 70
    24
 71
     3
 72
    30
 73
    26
 74
     0
 42
0.000000001
 43
0.00000001
 40
0.0
 40
0.0
 40
0.0
 40
0.0
 40
0.125
 40
0.125
 40
0.2500000000000001
 40
0.2500000000000001
 40
0.3750000000000001
 40
0.3750000000000001
 40
0.5000000000000001
 40
0.5000000000000001
 40
0.5625
 40
0.5625
 40
0.625
 40
0.625
 40
0.6875
 40
0.6875
 40
0.75
 40
0.75
 40
0.8125
 40
0.8125
 40
0.875
 40
0.875
 40
0.9375
 40
0.9375
 40
1.0
 40
1.0
 40
1.0
 40
1.0
 10
11.99999999999999
 20
8.476599480316771
 30
0.0
 10
11.99999999999999
 20
8.223067073456757
 30
0.0
 10
12.0
 20
7.928542160816717
 30
0.0
 10
11.99999999999999
 20
7.322015033509099
 30
0.0
 10
11.99999999999998
 20
6.948556007881223
 30
0.0
 10
11.99999999999999
 20
6.014212675976685
 30
0.0
 10
12.0
 20
5.451965570741864
 30
0.0
 10
12.00000000000002
 20
4.114102385971538
 30
0.0
 10
11.99999999999998
 20
3.336482294345037
 30
0.0
 10
11.99999999999996
 20
2.046923906684142
 30
0.0
 10
12.00000000000003
 20
1.597380174930669
 30
0.0
 10
12.0
 20
0.6765666849363663
 30
0.0
 10
11.99999999999998
 20
0.2053608229727639
 30
0.0
 10
12.0
 20
-0.7341462218589118
 30
0.0
 10
12.00000000000002
 20
-1.202304404700795
 30
0.0
 10
11.99999999999999
 20
-2.10721070656304
 30
0.0
 10
11.99999999999998
 20
-2.543773623176261
 30
0.0
 10
11.99999999999999
 20
-3.358219060265605
 30
0.0
 10
12.0
 20
-3.735943575245922
 30
0.0
 10
12.0
 20
-4.412107527328752
 30
0.0
 10
12.0
 20
-4.710477530581075
 30
0.0
 10
11.99999999999999
 20
-5.217610122609954
 30
0.0
 10
11.99999999999999
 20
-5.426406777350474
 30
0.0
 10
11.99999999999999
 20
-5.754887929416078
 30
0.0
 10
11.99999999999999
 20
-5.874676246413959
 30
0.0
 10
11.99999999999999
 20
-5.954448794446043
 30
0.0
  0
SPLINE
  5
B9
330
1F
100
AcDbEntity
  8
0
  6
Continuous
 62
     1
370
    15
100
AcDbSpline
210
0.0
220
0.0
230
1.0
 70
     8
 71
     3
 72
    18
 73
    14
 74
     0
 42
0.000000001
 43
0.00000001
 40
0.0
 40
0.0
 40
0.0
 40
0.0
 40
0.0929257638878417
 40
0.1858788601596243
 40
0.278844323301387
 40
0.3718071362057236
 40
0.464752292827577
 40
0.5560149510969822
 40
0.6472900140963745
 40
0.7385849694761294
 40
0.8298895689620325
 40
0.9228535094193802
 40
1.0
 40
1.0
 40
1.0
 40
1.0
 10
164.3999999999999
 20
1.088153135548123
 30
0.0
 10
162.9733397266672
 20
1.905015234139292
 30
0.0
 10
160.119599554435
 20
3.538979696104735
 30
0.0
 10
155.8382344549862
 20
5.844917906128503
 30
0.0
 10
151.5562114427882
 20
7.933268024398644
 30
0.0
 10
147.2743387694915
 20
9.721237611735173
 30
0.0
 10
143.0187322317477
 20
11.13377967759309
 30
0.0
 10
138.7894892576511
 20
12.12615952238565
 30
0.0
 10
134.5853497116833
 20
12.66996522751255
 30
0.0
 10
130.3803601050456
 20
12.75520194327325
 30
0.0
 10
126.1493961862148
 20
12.3624723865089
 30
0.0
 10
122.1355190354313
 20
11.59543212239801
 30
0.0
 10
119.5237288212572
 20
10.76530640617801
 30
0.0
 10
118.339260309086
 20
10.38883751266964
 30
0.0
  0
SPLINE
  5
BA
330
1F
100
AcDbEntity
  8
0
  6
Continuous
 62
     1
370
    15
100
AcDbSpline
210
0.0
220
0.0
230
1.0
 70
     8
 71
     3
 72
    20
 73
    16
 74
     0
 42
0.000000001
 43
0.00000001
 40
0.0
 40
0.0
 40
0.0
 40
0.0
 40
0.0056973666278163
 40
0.0887401503373342
 40
0.1717998821670984
 40
0.2548672333195356
 40
0.3383340198131722
 40
0.4217885590662404
 40
0.5052207419400155
 40
0.5886572954373334
 40
0.672114671253042
 40
0.7540912748290067
 40
0.836068951220536
 40
0.9180408159847152
 40
1.0
 40
1.0
 40
1.0
 40
1.0
 10
62.62805608875896
 20
-12.68521112476841
 30
0.0
 10
62.53191327676276
 20
-12.69008194665609
 30
0.0
 10
61.03442713136609
 20
-12.76594813095053
 30
0.0
 10
58.13517914941368
 20
-12.48016130831046
 30
0.0
 10
53.93010822901636
 20
-11.7999056960884
 30
0.0
 10
49.71780493812566
 20
-10.63730908020331
 30
0.0
 10
45.49883072527719
 20
-9.096680599069902
 30
0.0
 10
41.27380446083859
 20
-7.215493135459757
 30
0.0
 10
37.04961938871105
 20
-5.069708714432722
 30
0.0
 10
32.82531461724488
 20
-2.737173815186849
 30
0.0
 10
28.62526586756353
 20
-0.3190815746861296
 30
0.0
 10
24.44988062114397
 20
2.0972351311248
 30
0.0
 10
20.29952504609792
 20
4.418824879376161
 30
0.0
 10
16.14951693473026
 20
6.605138745863598
 30
0.0
 10
13.38310098031418
 20
7.852811406390047
 30
0.0
 10
12.0
 20
8.476599480316754
 30
0.0
  0
SPLINE
  5
BB
330
1F
100
AcDbEntity
  8
0
  6
Continuous
 62
     1
370
    15
100
AcDbSpline
210
0.0
220
0.0
230
1.0
 70
     8
 71
     3
 72
    25
 73
    21
 74
     0
 42
0.000000001
 43
0.00000001
 40
0.0
 40
0.0
 40
0.0
 40
0.0
 40
0.0588561694271604
 40
0.1177231717843364
 40
0.1765936876194387
 40
0.2354603852720866
 40
0.2943159463485739
 40
0.3521089462177326
 40
0.4099100511076423
 40
0.4677218439274266
 40
0.5255394869481239
 40
0.5851919604581507
 40
0.6448363728196542
 40
0.704463126534718
 40
0.7640904589106631
 40
0.8237352043730678
 40
0.8823220568728358
 40
0.9409083793685599
 40
0.9994875774382775
 40
1.0
 40
1.0
 40
1.0
 40
1.0
 10
11.99999999999996
 20
11.21759954510408
 30
0.0
 10
13.40825851483434
 20
10.79641866413562
 30
0.0
 10
16.22503474529858
 20
9.953979380622783
 30
0.0
 10
20.45063737302665
 20
8.213793351464826
 30
0.0
 10
24.67652600711059
 20
6.201069330255804
 30
0.0
 10
28.90208234801543
 20
3.952386532770275
 30
0.0
 10
33.10172774563596
 20
1.574790305686975
 30
0.0
 10
37.27549872894919
 20
-0.8455591355166867
 30
0.0
 10
41.42452275362297
 20
-3.220942221485481
 30
0.0
 10
45.57430353594747
 20
-5.482148324712983
 30
0.0
 10
49.76840934667562
 20
-7.570780240370388
 30
0.0
 10
54.00660722383123
 20
-9.403327761280622
 30
0.0
 10
58.28794591356952
 20
-10.89972315686666
 30
0.0
 10
62.56834004074673
 20
-11.98446757737159
 30
0.0
 10
66.84874380846554
 20
-12.61748815502647
 30
0.0
 10
71.10465035723558
 20
-12.76987300672069
 30
0.0
 10
75.33560061728195
 20
-12.46106318317004
 30
0.0
 10
79.54105640069275
 20
-11.65602159105394
 30
0.0
 10
82.35688376372252
 20
-10.94299031523426
 30
0.0
 10
83.77074453370338
 20
-10.41514909782732
 30
0.0
 10
83.78300505642946
 20
-10.41057183719517
 30
0.0
  0
SPLINE
  5
BC
330
1F
100
AcDbEntity
  8
0
  6
Continuous
 62
     1
370
    15
100
AcDbSpline
210
0.0
220
0.0
230
1.0
 70
     8
 71
     3
 72
    13
 73
     9
 74
     0
 42
0.000000001
 43
0.00000001
 40
0.0
 40
0.0
 40
0.0
 40
0.0
 40
0.1533578715165326
 40
0.3251459763910142
 40
0.4938842639636539
 40
0.6626186766787854
 40
0.8313302266603226
 40
1.0
 40
1.0
 40
1.0
 40
1.0
 10
139.4764459969634
 20
12.67706415788117
 30
0.0
 10
140.7504653343518
 20
12.64939899367799
 30
0.0
 10
143.4516130309113
 20
12.59074392277807
 30
0.0
 10
147.5549081440044
 20
11.91953620645735
 30
0.0
 10
151.785882187141
 20
10.83161760218033
 30
0.0
 10
155.9913106527036
 20
9.340352606767336
 30
0.0
 10
160.1960670348062
 20
7.52613004751319
 30
0.0
 10
162.9988046957053
 20
6.098171208014717
 30
0.0
 10
164.4
 20
5.38428019761257
 30
0.0
  0
LINE
  5
BD
330
1F
100
AcDbEntity
  8
0
  6
Continuous
 62
     1
370
    15
100
AcDbLine
 10
164.4
 20
1.088153135548123
 30
0.0
 11
164.4
 21
5.384280197612569
 31
0.0
  0
LINE
  5
BE
330
1F
100
AcDbEntity
  8
0
  6
Continuous
 62
     1
370
    15
100
AcDbLine
 10
11.99999999999995
 20
-11.21759954510408
 30
0.0
 11
14.66526579493189
 21
-10.37039576638193
 31
0.0
  0
SPLINE
  5
BF
330
1F
100
AcDbEntity
  8
0
  6
Continuous
 62
     1
370
    15
100
AcDbSpline
210
0.0
220
0.0
230
1.0
 70
     8
 71
     3
 72
    28
 73
    24
 74
     0
 42
0.000000001
 43
0.00000001
 40
0.0
 40
0.0
 40
0.0
 40
0.0
 40
0.0091773049297056
 40
0.0601410150899127
 40
0.1111042642085837
 40
0.1620613159098041
 40
0.2130064538717318
 40
0.2648731228124833
 40
0.3167556750433788
 40
0.3686460418063491
 40
0.4205358424147597
 40
0.4724166985452088
 40
0.5233580842565569
 40
0.5743034948166903
 40
0.6252607134628967
 40
0.6762240233334756
 40
0.7281143419895022
 40
0.7799967367406856
 40
0.8318632105433046
 40
0.8837340697427399
 40
0.9356191689970571
 40
0.9865831330334893
 40
1.0
 40
1.0
 40
1.0
 40
1.0
 10
70.37262724119091
 20
12.66503964845739
 30
0.0
 10
70.62507010151032
 20
12.6760889330752
 30
0.0
 10
72.27938691762336
 20
12.74849746673752
 30
0.0
 10
75.33560309625454
 20
12.42702426807602
 30
0.0
 10
79.54106891261193
 20
11.69079677611256
 30
0.0
 10
83.74593991397043
 20
10.48619547467862
 30
0.0
 10
87.975394901584
 20
8.901476431846703
 30
0.0
 10
92.23026957654756
 20
6.97233973960513
 30
0.0
 10
96.51151938535335
 20
4.769547475770438
 30
0.0
 10
100.7935079750418
 20
2.386255580547242
 30
0.0
 10
105.0754365732947
 20
-0.0870640809843782
 30
0.0
 10
109.3311560429128
 20
-2.542297910973016
 30
0.0
 10
113.560456240909
 20
-4.888514596185162
 30
0.0
 10
117.7645003979522
 20
-7.042373053805576
 30
0.0
 10
121.9693883141189
 20
-8.939641522645967
 30
0.0
 10
126.2003256340071
 20
-10.52093413864122
 30
0.0
 10
130.4568472253596
 20
-11.7204654515505
 30
0.0
 10
134.7380809196971
 20
-12.4851388109084
 30
0.0
 10
139.0183878694568
 20
-12.77630727108619
 30
0.0
 10
143.2988921378823
 20
-12.59299018463266
 30
0.0
 10
147.5549039929657
 20
-11.90841005778204
 30
0.0
 10
150.7530932397177
 20
-11.14389477076903
 30
0.0
 10
152.5240440175479
 20
-10.50716508319893
 30
0.0
 10
152.8931074580198
 20
-10.37447158765574
 30
0.0
  0
LINE
  5
C0
330
1F
100
AcDbEntity
  8
0
  6
Continuous
 62
     1
370
    15
100
AcDbLine
 10
164.4
 20
5.34236889003205
 30
0.0
 11
164.4
 21
12.70000000000002
 31
0.0
  0
SPLINE
  5
C1
330
1F
100
AcDbEntity
  8
0
  6
Continuous
 62
     1
370
    15
100
AcDbSpline
210
0.0
220
0.0
230
1.0
 70
     8
 71
     3
 72
    10
 73
     6
 74
     0
 42
0.000000001
 43
0.00000001
 40
0.0
 40
0.0
 40
0.0
 40
0.0
 40
0.3719707200142376
 40
0.744050848292759
 40
1.0
 40
1.0
 40
1.0
 40
1.0
 10
164.3999999999999
 20
12.70000000000002
 30
0.0
 10
162.973339605944
 20
12.53362206576694
 30
0.0
 10
160.11959919223
 20
12.2942371723526
 30
0.0
 10
156.2838724743597
 20
11.4871428379098
 30
0.0
 10
153.8748773728226
 20
10.69663698493374
 30
0.0
 10
152.8931074580198
 20
10.37447158765573
 30
0.0
  0
SPLINE
  5
C2
330
1F
100
AcDbEntity
  8
0
  6
Continuous
 62
     1
370
    15
100
AcDbSpline
210
0.0
220
0.0
230
1.0
 70
     8
 71
     3
 72
    28
 73
    24
 74
     0
 42
0.000000001
 43
0.00000001
 40
0.0
 40
0.0
 40
0.0
 40
0.0
 40
0.0099517709086565
 40
0.0609099501797238
 40
0.1118550866726467
 40
0.1637293095868156
 40
0.215617882461212
 40
0.2675124465574827
 40
0.3194046181390509
 40
0.3712860234555262
 40
0.4222291583441596
 40
0.4731815579708327
 40
0.5241443564227515
 40
0.5751118298476948
 40
0.6263243840396918
 40
0.6775294237160634
 40
0.7287207462321826
 40
0.7799147504233062
 40
0.8311215305239118
 40
0.8814197560753415
 40
0.9317186398721348
 40
0.9820139578400146
 40
0.9999999999999999
 40
0.9999999999999999
 40
0.9999999999999999
 40
0.9999999999999999
 10
97.17945307775551
 20
-12.66359537777158
 30
0.0
 10
96.90572464946297
 20
-12.67496428577949
 30
0.0
 10
95.23036605418329
 20
-12.74454784298911
 30
0.0
 10
92.15381466119322
 20
-12.42001241881175
 30
0.0
 10
87.92452009449832
 20
-11.67102241791942
 30
0.0
 10
83.66945043366664
 20
-10.44197845051562
 30
0.0
 10
79.3879822888687
 20
-8.822580509490386
 30
0.0
 10
75.10593226023195
 20
-6.866946846774286
 30
0.0
 10
70.82412492776638
 20
-4.652856309874442
 30
0.0
 10
66.56862946042452
 20
-2.277174068701136
 30
0.0
 10
62.33942190486035
 20
0.1682077474117325
 30
0.0
 10
58.13518198580301
 20
2.592422154404477
 30
0.0
 10
53.93010746909182
 20
4.922288803985196
 30
0.0
 10
49.71780514245128
 20
7.076392345426421
 30
0.0
 10
45.49883067190824
 20
8.974806972482469
 30
0.0
 10
41.27380446960491
 20
10.54610226984142
 30
0.0
 10
37.0496194069895
 20
11.72955656923945
 30
0.0
 10
32.82531453535024
 20
12.48200893545812
 30
0.0
 10
28.6252661746323
 20
12.77183969288297
 30
0.0
 10
24.44987949682029
 20
12.60648954793859
 30
0.0
 10
20.29952924482457
 20
11.97042000079469
 30
0.0
 10
17.03795940551094
 20
11.20830531108787
 30
0.0
 10
15.15995285146581
 20
10.54509299844936
 30
0.0
 10
14.66526579493192
 20
10.37039576638192
 30
0.0
  0
LINE
  5
C3
330
1F
100
AcDbEntity
  8
외형선
  6
Continuous
370
    15
100
AcDbLine
 10
11.99999999999996
 20
-9.60651862879898
 30
0.0
 11
11.99999999999995
 21
-11.21759954510408
 31
0.0
  0
SPLINE
  5
C4
330
1F
100
AcDbEntity
  8
0
  6
Continuous
 62
     1
370
    15
100
AcDbSpline
210
0.0
220
0.0
230
1.0
 70
     8
 71
     3
 72
    26
 73
    22
 74
     0
 42
0.000000001
 43
0.00000001
 40
0.0
 40
0.0
 40
0.0
 40
0.0
 40
0.0530930196578947
 40
0.1062016556393702
 40
0.1593173574166326
 40
0.2124315449840367
 40
0.265535644656397
 40
0.3176784509870234
 40
0.3698283447447046
 40
0.4219896039891727
 40
0.4741563733816975
 40
0.5272712051751125
 40
0.5803769932349685
 40
0.6334664839397481
 40
0.6865638651722004
 40
0.7396748931931658
 40
0.7918421393257614
 40
0.8440074615435561
 40
0.8961649913602097
 40
0.9483091714241898
 40
1.0
 40
1.0
 40
1.0
 40
1.0
 10
164.4
 20
-12.69999999999998
 30
0.0
 10
162.9733397266172
 20
-12.53643793091077
 30
0.0
 10
160.1195995542849
 20
-12.3026855960184
 30
0.0
 10
155.8382344555868
 20
-11.3595670655334
 30
0.0
 10
151.5562114405355
 20
-10.02177074672623
 30
0.0
 10
147.2743387779002
 20
-8.29635841225836
 30
0.0
 10
143.018732200612
 20
-6.272360947520144
 30
0.0
 10
138.7894893715194
 20
-4.028092491839332
 30
0.0
 10
134.5853492863582
 20
-1.651020071662701
 30
0.0
 10
130.3803616928984
 20
0.7862545865737617
 30
0.0
 10
126.1493902140739
 20
3.20958451156503
 30
0.0
 10
121.8929169868
 20
5.528599178173653
 30
0.0
 10
117.611792332736
 20
7.652568566938582
 30
0.0
 10
113.3315493705774
 20
9.487944142254396
 30
0.0
 10
109.0509444012592
 20
10.96476144123949
 30
0.0
 10
104.7948326782119
 20
12.02138901119357
 30
0.0
 10
100.5638323317278
 20
12.62643741781025
 30
0.0
 10
96.35846247196412
 20
12.76997411096306
 30
0.0
 10
92.15380766092355
 20
12.4404870090169
 30
0.0
 10
87.96226797527024
 20
11.68936658804345
 30
0.0
 10
85.1720319022491
 20
10.83559420925357
 30
0.0
 10
83.78300505642946
 20
10.41057183719516
 30
0.0
  0
SPLINE
  5
C5
330
1F
100
AcDbEntity
  8
0
  6
Continuous
 62
     1
370
    15
100
AcDbSpline
210
0.0
220
0.0
230
1.0
 70
     8
 71
     3
 72
    11
 73
     7
 74
     0
 42
0.000000001
 43
0.00000001
 40
0.0
 40
0.0
 40
0.0
 40
0.0
 40
0.2256100317416278
 40
0.483765533034185
 40
0.741902732959371
 40
1.0
 40
1.0
 40
1.0
 40
1.0
 10
28.07709380015942
 20
-12.67515111626116
 30
0.0
 10
26.86802785686588
 20
-12.65220573873501
 30
0.0
 10
24.27548165661215
 20
-12.6030049886446
 30
0.0
 10
20.29952545557486
 20
-11.97442325045811
 30
0.0
 10
16.14951683238249
 20
-10.96061131222818
 30
0.0
 10
13.38310094620002
 20
-9.958262950109106
 30
0.0
 10
12.0
 20
-9.457127536958332
 30
0.0
  0
LINE
  5
C6
330
1F
100
AcDbEntity
  8
0
  6
Continuous
 62
     1
370
    15
100
AcDbLine
 10
164.4
 20
-12.69999999999998
 30
0.0
 11
164.4
 21
-11.50215313554798
 31
0.0
  0
LINE
  5
C7
330
1F
100
AcDbEntity
  8
중심선
100
AcDbLine
 10
-54.50000000000004
 20
-0.0000000000000068
 30
0.0
 11
167.4
 21
0.0000000000000208
 31
0.0
  0
LINE
  5
C8
330
1F
100
AcDbEntity
  8
참조1
100
AcDbLine
 10
72.10560364977731
 20
0.0010749287238892
 30
0.0
 11
72.10560364977731
 21
-39.99892507127611
 31
0.0
  0
LINE
  5
C9
330
1F
100
AcDbEntity
  8
참조1
100
AcDbLine
 10
72.10560364977731
 20
-39.99892507127611
 30
0.0
 11
-21.63450316453139
 21
-39.9989250712761
 31
0.0
  0
CIRCLE
  5
CA
330
1F
100
AcDbEntity
  8
해칭선
100
AcDbCircle
 10
0.0
 20
0.0
 30
0.0
 40
3.000000000000001
  0
INSERT
  5
CB
330
1F
100
AcDbEntity
  8
0
  6
Continuous
 62
     7
100
AcDbBlockReference
 66
     1
  2
블럭10
 10
42.50972706787476
 20
-52.04717430164393
 30
0.0
  0
ATTRIB
  5
CC
330
CB
100
AcDbEntity
  8
FORMAT
 62
     2
100
AcDbText
 10
33.32843177913349
 20
-49.97180738881174
 30
0.0
 40
4.233333333333333
  1
E1036064 [ 4 FLUTE ]
 41
0.75
  7
SLDTEXTSTYLE0
 11
33.32843177913349
 21
-52.08847405547841
 31
0.0
100
AcDbAttribute
  2
AUTOATTR0
 70
     0
 74
     1
  0
SEQEND
  5
CD
330
CB
100
AcDbEntity
  8
0
  6
Continuous
 62
     7
  0
HATCH
  5
CE
330
1F
100
AcDbEntity
  8
중심선
100
AcDbHatch
 10
0.0
 20
0.0
 30
0.0
210
0.0
220
0.0
230
1.0
  2
SOLID
 70
     1
 71
     0
 91
        1
 92
        0
 93
        4
 72
     1
 10
48.22463637225561
 20
-35.8
 11
44.77836112841833
 21
-35.8
 72
     1
 10
44.77836112841833
 20
-35.8
 11
42.65013126921436
 21
-38.3363255805726
 72
     1
 10
42.65013126921436
 20
-38.3363255805726
 11
46.09643959816468
 21
-38.33628615127011
 72
     1
 10
46.09643959816468
 20
-38.33628615127011
 11
48.22463637225561
 21
-35.8
 97
        0
 75
     0
 76
     1
 98
        1
 10
-15.65560364977733
 20
-0.001074928723896
  0
HATCH
  5
CF
330
1F
100
AcDbEntity
  8
중심선
100
AcDbHatch
 10
0.0
 20
0.0
 30
0.0
210
0.0
220
0.0
230
1.0
  2
SOLID
 70
     1
 71
     0
 91
        1
 92
        0
 93
        4
 72
     1
 10
53.23740036329156
 20
-35.80000000000003
 11
49.79112511945427
 21
-35.79999999999998
 72
     1
 10
49.79112511945427
 20
-35.79999999999998
 11
45.25998711109686
 21
-41.20000000000002
 72
     1
 10
45.25998711109686
 20
-41.20000000000002
 11
48.70626235493415
 21
-41.20000000000002
 72
     1
 10
48.70626235493415
 20
-41.20000000000002
 11
53.23740036329156
 21
-35.80000000000003
 97
        0
 75
     0
 76
     1
 98
        1
 10
-15.65560364977733
 20
-0.001074928723896
  0
HATCH
  5
D0
330
1F
100
AcDbEntity
  8
중심선
100
AcDbHatch
 10
0.0
 20
0.0
 30
0.0
210
0.0
220
0.0
230
1.0
  2
SOLID
 70
     1
 71
     0
 91
        1
 92
        0
 93
        4
 72
     1
 10
58.25016435432757
 20
-35.79999999999998
 11
54.80388911049034
 21
-35.8
 72
     1
 10
54.80388911049034
 20
-35.8
 11
47.75545220860106
 21
-44.20000000000002
 72
     1
 10
47.75545220860106
 20
-44.20000000000002
 11
51.20172745243834
 21
-44.20000000000002
 72
     1
 10
51.20172745243834
 20
-44.20000000000002
 11
58.25016435432757
 21
-35.79999999999998
 97
        0
 75
     0
 76
     1
 98
        1
 10
-15.65560364977733
 20
-0.001074928723896
  0
HATCH
  5
D1
330
1F
100
AcDbEntity
  8
중심선
100
AcDbHatch
 10
0.0
 20
0.0
 30
0.0
210
0.0
220
0.0
230
1.0
  2
SOLID
 70
     1
 71
     0
 91
        1
 92
        0
 93
        6
 72
     3
 10
63.05005478533966
 20
-40.00000000005127
 11
3.960054785062276
 21
1.540882976769353E-10
 40
0.3939339440162635
 50
17.09539180608447
 51
320.0019657685077
 73
     0
 72
     1
 10
64.73305444104028
 20
-38.58789400463827
 11
67.03835631474126
 21
-36.65356729459044
 72
     3
 10
63.05005478528681
 20
-40.00000000000015
 11
6.600054785286837
 21
-1.278976924368180E-13
 40
0.6363583540795974
 50
39.9987384933739
 51
368.4976242363725
 73
     1
 72
     1
 10
69.4753872771874
 20
-39.03999999993002
 11
61.73012209212277
 21
-39.03999999993002
 72
     1
 10
61.73012209212276
 20
-39.03999999993002
 11
61.7300970476768
 21
-40.95999999992991
 72
     1
 10
61.7300970476768
 20
-40.95999999992991
 11
66.1714768171488
 21
-40.95999999992988
 97
        0
 75
     0
 76
     1
 98
        1
 10
-15.65560364977733
 20
-0.001074928723896
  0
DIMENSION
  5
D2
330
1F
100
AcDbEntity
  8
치수문자_일반주서
100
AcDbDimension
  2
_D
 10
11.99999999999994
 20
25.83413479835852
 30
0.0
 11
88.19999999999999
 21
25.83413479835852
 31
0.0
 70
   160
  1
<>
 71
     2
 42
152.4
  3
SLDDIMSTYLE1
100
AcDbAlignedDimension
 13
164.4
 23
12.70000000000002
 33
0.0
 14
11.99999999999995
 24
11.21759954510407
 34
0.0
 50
0.000000000000004
100
AcDbRotatedDimension
1001
ACAD
1000
DSTYLE
1002
{
1070
   171
1070
     6
1070
   273
1070
     7
1002
}
  0
DIMENSION
  5
E7
330
1F
100
AcDbEntity
  8
치수문자_일반주서
100
AcDbDimension
  2
_D_1
 10
-51.50000000000004
 20
41.55533999616129
 30
0.0
 11
56.44999999999998
 21
41.55533999616129
 31
0.0
 70
   160
  1
<>
 71
     2
 42
215.9
  3
SLDDIMSTYLE1
100
AcDbAlignedDimension
 13
164.4
 23
12.70000000000002
 33
0.0
 14
-51.50000000000004
 24
12.69999999999998
 34
0.0
 50
0.0000000000000038
100
AcDbRotatedDimension
1001
ACAD
1000
DSTYLE
1002
{
1070
   171
1070
     6
1070
   273
1070
     7
1002
}
  0
DIMENSION
  5
FA
330
1F
100
AcDbEntity
  8
치수문자_일반주서
100
AcDbDimension
  2
_D_2
 10
-61.2132728378272
 20
-12.70000000000004
 30
0.0
 11
-61.21327283782725
 21
-0.0000000000000123
 31
0.0
 70
   160
  1
%%c<>
 71
     2
 42
25.39999999999998
 52
-270.0
  3
SLDDIMSTYLE1
100
AcDbAlignedDimension
 13
-51.50000000000004
 23
12.69999999999998
 33
0.0
 14
-48.96000000000005
 24
-12.69999999999999
 34
0.0
 50
90.0000000000002
100
AcDbRotatedDimension
1001
ACAD
1000
DSTYLE
1002
{
1070
   171
1070
     6
1070
   273
1070
     7
1002
}
  0
LINE
  5
120
330
1F
100
AcDbEntity
  8
참조1
100
AcDbLine
 10
76.33783746512287
 20
7.441074928723896
 30
0.0
 11
76.33783746512287
 21
-7.438925071276109
 31
0.0
  0
LINE
  5
121
330
1F
100
AcDbEntity
  8
참조1
100
AcDbLine
 10
89.03783746512288
 20
5.441074928723896
 30
0.0
 11
76.33783746512287
 21
5.441074928723896
 31
0.0
  0
SOLID
  5
122
330
1F
100
AcDbEntity
  8
참조1
100
AcDbTrace
 10
76.33783746512287
 20
5.441074928723896
 30
0.0
 11
82.68783746512287
 21
4.425074928723896
 31
0.0
 12
82.68783746512287
 22
6.457074928723896
 32
0.0
 13
82.68783746512287
 23
6.457074928723896
 33
0.0
  0
LINE
  5
123
330
1F
100
AcDbEntity
  8
참조1
100
AcDbLine
 10
89.03783746512288
 20
-5.438925071276109
 30
0.0
 11
76.33783746512287
 21
-5.438925071276109
 31
0.0
  0
SOLID
  5
124
330
1F
100
AcDbEntity
  8
참조1
100
AcDbTrace
 10
76.33783746512287
 20
-5.438925071276109
 30
0.0
 11
82.68783746512287
 21
-6.454925071276109
 31
0.0
 12
82.68783746512287
 22
-4.422925071276109
 32
0.0
 13
82.68783746512287
 23
-4.422925071276109
 33
0.0
  0
MTEXT
  5
125
330
1F
100
AcDbEntity
  8
참조1
100
AcDbMText
 10
85.72218759774887
 20
11.01136670591222
 30
0.0
 40
3.5
 41
0.0
 71
     1
 72
     1
  1
A
  7
SLDTEXTSTYLE0
 73
     1
 44
1.0
  0
MTEXT
  5
126
330
1F
100
AcDbEntity
  8
참조1
100
AcDbMText
 10
85.72218759774887
 20
0.1313667059122201
 30
0.0
 40
3.5
 41
0.0
 71
     1
 72
     1
  1
A
  7
SLDTEXTSTYLE0
 73
     1
 44
1.0
  0
INSERT
  5
12D
330
1F
100
AcDbEntity
  8
해칭선
100
AcDbBlockReference
  2
SW_DOWELSYMBOL_0
 10
0.0
 20
0.0
 30
0.0
  0
DIMENSION
  5
4B4
330
1F
100
AcDbEntity
  8
치수문자_일반주서
100
AcDbDimension
  2
*D28
 10
192.2688531639149
 20
-12.69999999999998
 30
0.0
 11
189.6438531639149
 21
0.0000000000000195
 31
0.0
 70
    32
 71
     5
 42
25.4
  3
SLDDIMSTYLE1
100
AcDbAlignedDimension
 13
164.4
 23
12.70000000000002
 33
0.0
 14
164.4
 24
-12.69999999999998
 34
0.0
 50
90.0
100
AcDbRotatedDimension
1001
ACAD
1000
DSTYLE
1002
{
1070
   171
1070
     6
1070
   273
1070
     7
1002
}
  0
LINE
  5
4F9
330
1F
100
AcDbEntity
  8
외형선
  6
Continuous
370
    15
100
AcDbLine
 10
-48.96000000000004
 20
10.795
 30
0.0
 11
-48.96000000000004
 21
-12.7
 31
0.0
  0
LINE
  5
550
330
1F
100
AcDbEntity
  8
외형선
  6
Continuous
370
    15
100
AcDbLine
 10
-36.89500000000005
 20
12.69999999999999
 30
0.0
 11
-30.98632499999992
 21
12.69999999999999
 31
0.0
  0
LINE
  5
552
330
1F
100
AcDbEntity
  8
외형선
  6
Continuous
370
    15
100
AcDbLine
 10
-29.08132499999995
 20
10.79499999999999
 30
0.0
 11
-15.97492500000006
 21
10.79499999999999
 31
0.0
  0
LINE
  5
553
330
1F
100
AcDbEntity
  8
외형선
  6
Continuous
370
    15
100
AcDbLine
 10
-29.08132499999995
 20
10.795
 30
0.0
 11
-30.98632499999992
 21
12.69999999999999
 31
0.0
  0
LINE
  5
554
330
1F
100
AcDbEntity
  8
외형선
  6
Continuous
370
    15
100
AcDbLine
 10
-15.97492500000006
 20
10.795
 30
0.0
 11
-14.06992500000003
 21
12.69999999999999
 31
0.0
  0
LINE
  5
555
330
1F
100
AcDbEntity
  8
외형선
  6
Continuous
370
    15
100
AcDbLine
 10
-51.50000000000004
 20
10.79499999999999
 30
0.0
 11
-38.80000000000003
 21
10.79499999999999
 31
0.0
  0
LINE
  5
556
330
1F
100
AcDbEntity
  8
외형선
  6
Continuous
370
    15
100
AcDbLine
 10
-38.80000000000003
 20
10.795
 30
0.0
 11
-36.89500000000005
 21
12.69999999999999
 31
0.0
  0
LINE
  5
557
330
1F
100
AcDbEntity
  8
외형선
  6
Continuous
370
    15
100
AcDbLine
 10
-30.98632499999995
 20
12.7
 30
0.0
 11
-36.89500000000004
 21
12.7
 31
0.0
  0
ENDSEC
  0
SECTION
  2
OBJECTS
  0
DICTIONARY
  5
C
330
0
100
AcDbDictionary
281
     1
  3
ACAD_GROUP
350
D
  3
ACAD_IMAGE_VARS
350
151
  3
ACAD_LAYOUT
350
1A
  3
ACAD_MLINESTYLE
350
17
  3
ACAD_PLOTSETTINGS
350
19
  3
ACAD_PLOTSTYLENAME
350
E
  3
ACAD_SCALELIST
350
47
  3
APPDATA
350
14F
  3
DWGPROPS
350
5B3
  0
DICTIONARY
  5
1F1
330
2
100
AcDbDictionary
280
     1
281
     1
  3
ACAD_LAYERSTATES
360
1F2
  0
DICTIONARY
  5
D
102
{ACAD_REACTORS
330
C
102
}
330
C
100
AcDbDictionary
281
     1
  0
RASTERVARIABLES
  5
151
102
{ACAD_REACTORS
330
C
102
}
330
C
100
AcDbRasterVariables
 90
        0
 70
     1
 71
     1
 72
     1
  0
DICTIONARY
  5
1A
102
{ACAD_REACTORS
330
C
102
}
330
C
100
AcDbDictionary
281
     1
  3
Layout1
350
1E
  3
Layout2
350
26
  3
Model
350
22
  0
DICTIONARY
  5
17
102
{ACAD_REACTORS
330
C
102
}
330
C
100
AcDbDictionary
281
     1
  3
Standard
350
18
  0
DICTIONARY
  5
19
102
{ACAD_REACTORS
330
C
102
}
330
C
100
AcDbDictionary
281
     1
  0
ACDBDICTIONARYWDFLT
  5
E
102
{ACAD_REACTORS
330
C
102
}
330
C
100
AcDbDictionary
281
     1
  3
Normal
350
F
100
AcDbDictionaryWithDefault
340
F
  0
DICTIONARY
  5
47
102
{ACAD_REACTORS
330
C
102
}
330
C
100
AcDbDictionary
281
     1
  3
A0
350
48
  3
A1
350
49
  3
A2
350
4A
  3
A3
350
4B
  3
A4
350
4C
  3
A5
350
4D
  3
A6
350
4E
  3
A7
350
4F
  3
A8
350
50
  3
A9
350
51
  3
B0
350
52
  3
B1
350
53
  3
B2
350
54
  3
B3
350
55
  3
B4
350
56
  3
B5
350
57
  3
B6
350
58
  3
B7
350
59
  3
B8
350
5A
  3
B9
350
5B
  3
C0
350
5C
  3
C1
350
5D
  3
C2
350
5E
  3
C3
350
5F
  3
C4
350
60
  3
C5
350
61
  3
C6
350
62
  3
C7
350
63
  3
C8
350
64
  3
C9
350
65
  3
D0
350
66
  3
D1
350
67
  3
D2
350
68
  0
DICTIONARY
  5
14F
102
{ACAD_REACTORS
330
C
102
}
330
C
100
AcDbDictionary
281
     1
  0
XRECORD
  5
5B3
102
{ACAD_REACTORS
330
C
102
}
330
C
100
AcDbXrecord
280
     1
  1
DWGPROPS COOKIE
  2

  3

  4

  6

  7

  8
12016016
  9

300
=
301
=
302
=
303
=
304
=
305
=
306
=
307
=
308
=
309
=
 40
0.0
 41
2458312.301739329
 42
2458323.378119016
  1

 90
        0
  0
DICTIONARY
  5
1F2
102
{ACAD_REACTORS
330
1F1
102
}
330
1F1
100
AcDbDictionary
281
     1
  0
LAYOUT
  5
1E
102
{ACAD_REACTORS
330
1A
102
}
330
1A
100
AcDbPlotSettings
  1

  2
none_device
  4

  6

 40
0.0
 41
0.0
 42
0.0
 43
0.0
 44
0.0
 45
0.0
 46
0.0
 47
0.0
 48
0.0
 49
0.0
140
0.0
141
0.0
142
1.0
143
1.0
 70
   688
 72
     1
 73
     0
 74
     5
  7

 75
    16
147
1.0
148
0.0
149
0.0
100
AcDbLayout
  1
Layout1
 70
     1
 71
     1
 10
0.0
 20
0.0
 11
420.0
 21
297.0
 12
0.0
 22
0.0
 32
0.0
 14
1.000000000000000E+20
 24
1.000000000000000E+20
 34
1.000000000000000E+20
 15
-1.000000000000000E+20
 25
-1.000000000000000E+20
 35
-1.000000000000000E+20
146
0.0
 13
0.0
 23
0.0
 33
0.0
 16
1.0
 26
0.0
 36
0.0
 17
0.0
 27
1.0
 37
0.0
 76
     0
330
1B
  0
LAYOUT
  5
26
102
{ACAD_REACTORS
330
1A
102
}
330
1A
100
AcDbPlotSettings
  1

  2
none_device
  4

  6

 40
0.0
 41
0.0
 42
0.0
 43
0.0
 44
0.0
 45
0.0
 46
0.0
 47
0.0
 48
0.0
 49
0.0
140
0.0
141
0.0
142
1.0
143
1.0
 70
   688
 72
     1
 73
     0
 74
     5
  7

 75
    16
147
1.0
148
0.0
149
0.0
100
AcDbLayout
  1
Layout2
 70
     1
 71
     2
 10
0.0
 20
0.0
 11
0.0
 21
0.0
 12
0.0
 22
0.0
 32
0.0
 14
0.0
 24
0.0
 34
0.0
 15
0.0
 25
0.0
 35
0.0
146
0.0
 13
0.0
 23
0.0
 33
0.0
 16
1.0
 26
0.0
 36
0.0
 17
0.0
 27
1.0
 37
0.0
 76
     0
330
23
  0
LAYOUT
  5
22
102
{ACAD_REACTORS
330
1A
102
}
330
1A
100
AcDbPlotSettings
  1

  2
none_device
  4
ANSI_A_(11.00_x_8.50_Inches)
  6

 40
6.35
 41
19.05
 42
6.35000508
 43
19.05000254
 44
279.4
 45
215.9
 46
26.08263009465182
 47
88.44986296409232
 48
0.0
 49
0.0
140
0.0
141
0.0
142
0.0216834668157272
143
1.0
 70
  1696
 72
     0
 73
     0
 74
     0
  7

 75
     0
147
0.0235690232323232
148
0.0
149
0.0
100
AcDbLayout
  1
Model
 70
     1
 71
     0
 10
0.0
 20
0.0
 11
420.0
 21
297.0
 12
0.0
 22
0.0
 32
0.0
 14
-65.58827283782728
 24
-49.97180738881174
 34
0.0
 15
192.8191864972482
 25
45.93033999616129
 35
0.0
146
0.0
 13
0.0
 23
0.0
 33
0.0
 16
1.0
 26
0.0
 36
0.0
 17
0.0
 27
1.0
 37
0.0
 76
     0
330
1F
331
29
  0
MLINESTYLE
  5
18
102
{ACAD_REACTORS
330
17
102
}
330
17
100
AcDbMlineStyle
  2
Standard
 70
     0
  3

 62
   256
 51
90.0
 52
90.0
 71
     2
 49
0.5
 62
   256
  6
BYLAYER
 49
-0.5
 62
   256
  6
BYLAYER
  0
ACDBPLACEHOLDER
  5
F
102
{ACAD_REACTORS
330
E
102
}
330
E
  0
SCALE
  5
48
102
{ACAD_REACTORS
330
47
102
}
330
47
100
AcDbScale
 70
     0
300
1:1
140
1.0
141
1.0
290
     1
  0
SCALE
  5
49
102
{ACAD_REACTORS
330
47
102
}
330
47
100
AcDbScale
 70
     0
300
1:2
140
1.0
141
2.0
290
     0
  0
SCALE
  5
4A
102
{ACAD_REACTORS
330
47
102
}
330
47
100
AcDbScale
 70
     0
300
1:4
140
1.0
141
4.0
290
     0
  0
SCALE
  5
4B
102
{ACAD_REACTORS
330
47
102
}
330
47
100
AcDbScale
 70
     0
300
1:5
140
1.0
141
5.0
290
     0
  0
SCALE
  5
4C
102
{ACAD_REACTORS
330
47
102
}
330
47
100
AcDbScale
 70
     0
300
1:8
140
1.0
141
8.0
290
     0
  0
SCALE
  5
4D
102
{ACAD_REACTORS
330
47
102
}
330
47
100
AcDbScale
 70
     0
300
1:10
140
1.0
141
10.0
290
     0
  0
SCALE
  5
4E
102
{ACAD_REACTORS
330
47
102
}
330
47
100
AcDbScale
 70
     0
300
1:16
140
1.0
141
16.0
290
     0
  0
SCALE
  5
4F
102
{ACAD_REACTORS
330
47
102
}
330
47
100
AcDbScale
 70
     0
300
1:20
140
1.0
141
20.0
290
     0
  0
SCALE
  5
50
102
{ACAD_REACTORS
330
47
102
}
330
47
100
AcDbScale
 70
     0
300
1:30
140
1.0
141
30.0
290
     0
  0
SCALE
  5
51
102
{ACAD_REACTORS
330
47
102
}
330
47
100
AcDbScale
 70
     0
300
1:40
140
1.0
141
40.0
290
     0
  0
SCALE
  5
52
102
{ACAD_REACTORS
330
47
102
}
330
47
100
AcDbScale
 70
     0
300
1:50
140
1.0
141
50.0
290
     0
  0
SCALE
  5
53
102
{ACAD_REACTORS
330
47
102
}
330
47
100
AcDbScale
 70
     0
300
1:100
140
1.0
141
100.0
290
     0
  0
SCALE
  5
54
102
{ACAD_REACTORS
330
47
102
}
330
47
100
AcDbScale
 70
     0
300
2:1
140
2.0
141
1.0
290
     0
  0
SCALE
  5
55
102
{ACAD_REACTORS
330
47
102
}
330
47
100
AcDbScale
 70
     0
300
4:1
140
4.0
141
1.0
290
     0
  0
SCALE
  5
56
102
{ACAD_REACTORS
330
47
102
}
330
47
100
AcDbScale
 70
     0
300
8:1
140
8.0
141
1.0
290
     0
  0
SCALE
  5
57
102
{ACAD_REACTORS
330
47
102
}
330
47
100
AcDbScale
 70
     0
300
10:1
140
10.0
141
1.0
290
     0
  0
SCALE
  5
58
102
{ACAD_REACTORS
330
47
102
}
330
47
100
AcDbScale
 70
     0
300
100:1
140
100.0
141
1.0
290
     0
  0
SCALE
  5
59
102
{ACAD_REACTORS
330
47
102
}
330
47
100
AcDbScale
 70
     0
300
1/128" = 1'-0"
140
0.0078125
141
12.0
290
     0
  0
SCALE
  5
5A
102
{ACAD_REACTORS
330
47
102
}
330
47
100
AcDbScale
 70
     0
300
1/64" = 1'-0"
140
0.015625
141
12.0
290
     0
  0
SCALE
  5
5B
102
{ACAD_REACTORS
330
47
102
}
330
47
100
AcDbScale
 70
     0
300
1/32" = 1'-0"
140
0.03125
141
12.0
290
     0
  0
SCALE
  5
5C
102
{ACAD_REACTORS
330
47
102
}
330
47
100
AcDbScale
 70
     0
300
1/16" = 1'-0"
140
0.0625
141
12.0
290
     0
  0
SCALE
  5
5D
102
{ACAD_REACTORS
330
47
102
}
330
47
100
AcDbScale
 70
     0
300
3/32" = 1'-0"
140
0.09375
141
12.0
290
     0
  0
SCALE
  5
5E
102
{ACAD_REACTORS
330
47
102
}
330
47
100
AcDbScale
 70
     0
300
1/8" = 1'-0"
140
0.125
141
12.0
290
     0
  0
SCALE
  5
5F
102
{ACAD_REACTORS
330
47
102
}
330
47
100
AcDbScale
 70
     0
300
3/16" = 1'-0"
140
0.1875
141
12.0
290
     0
  0
SCALE
  5
60
102
{ACAD_REACTORS
330
47
102
}
330
47
100
AcDbScale
 70
     0
300
1/4" = 1'-0"
140
0.25
141
12.0
290
     0
  0
SCALE
  5
61
102
{ACAD_REACTORS
330
47
102
}
330
47
100
AcDbScale
 70
     0
300
3/8" = 1'-0"
140
0.375
141
12.0
290
     0
  0
SCALE
  5
62
102
{ACAD_REACTORS
330
47
102
}
330
47
100
AcDbScale
 70
     0
300
1/2" = 1'-0"
140
0.5
141
12.0
290
     0
  0
SCALE
  5
63
102
{ACAD_REACTORS
330
47
102
}
330
47
100
AcDbScale
 70
     0
300
3/4" = 1'-0"
140
0.75
141
12.0
290
     0
  0
SCALE
  5
64
102
{ACAD_REACTORS
330
47
102
}
330
47
100
AcDbScale
 70
     0
300
1" = 1'-0"
140
1.0
141
12.0
290
     0
  0
SCALE
  5
65
102
{ACAD_REACTORS
330
47
102
}
330
47
100
AcDbScale
 70
     0
300
1-1/2" = 1'-0"
140
1.5
141
12.0
290
     0
  0
SCALE
  5
66
102
{ACAD_REACTORS
330
47
102
}
330
47
100
AcDbScale
 70
     0
300
3" = 1'-0"
140
3.0
141
12.0
290
     0
  0
SCALE
  5
67
102
{ACAD_REACTORS
330
47
102
}
330
47
100
AcDbScale
 70
     0
300
6" = 1'-0"
140
6.0
141
12.0
290
     0
  0
SCALE
  5
68
102
{ACAD_REACTORS
330
47
102
}
330
47
100
AcDbScale
 70
     0
300
1'-0" = 1'-0"
140
12.0
141
12.0
290
     0
  0
ENDSEC
  0
EOF
