  0
SECTION
  2
HEADER
  9
$ACADVER
  1
AC1015
  9
$ACADMAINTVER
 70
     6
  9
$DWGCODEPAGE
  3
ANSI_949
  9
$INSBASE
 10
0.0
 20
0.0
 30
0.0
  9
$EXTMIN
 10
-59.76125000000005
 20
-49.97180738881174
 30
0.0
  9
$EXTMAX
 10
81.41936447236121
 20
46.23162932046442
 30
0.0
  9
$LIMMIN
 10
0.0
 20
0.0
  9
$LIMMAX
 10
420.0
 20
297.0
  9
$ORTHOMODE
 70
     1
  9
$REGENMODE
 70
     1
  9
$FILLMODE
 70
     1
  9
$QTEXTMODE
 70
     0
  9
$MIRRTEXT
 70
     1
  9
$LTSCALE
 40
1.0
  9
$ATTMODE
 70
     1
  9
$TEXTSIZE
 40
3.5
  9
$TRACEWID
 40
1.0
  9
$TEXTSTYLE
  7
Standard
  9
$CLAYER
  8
0
  9
$CELTYPE
  6
ByLayer
  9
$CECOLOR
 62
   256
  9
$CELTSCALE
 40
1.0
  9
$DISPSILH
 70
     0
  9
$DIMSCALE
 40
1.0
  9
$DIMASZ
 40
3.302
  9
$DIMEXO
 40
1.0
  9
$DIMDLI
 40
3.75
  9
$DIMRND
 40
0.0
  9
$DIMDLE
 40
0.0
  9
$DIMEXE
 40
1.0
  9
$DIMTP
 40
0.0
  9
$DIMTM
 40
0.0
  9
$DIMTXT
 40
3.5
  9
$DIMCEN
 40
2.5
  9
$DIMTSZ
 40
0.0
  9
$DIMTOL
 70
     0
  9
$DIMLIM
 70
     0
  9
$DIMTIH
 70
     1
  9
$DIMTOH
 70
     1
  9
$DIMSE1
 70
     0
  9
$DIMSE2
 70
     0
  9
$DIMTAD
 70
     1
  9
$DIMZIN
 70
     0
  9
$DIMBLK
  1

  9
$DIMASO
 70
     1
  9
$DIMSHO
 70
     1
  9
$DIMPOST
  1

  9
$DIMAPOST
  1

  9
$DIMALT
 70
     0
  9
$DIMALTD
 70
     3
  9
$DIMALTF
 40
0.0393700787401575
  9
$DIMLFAC
 40
1.0
  9
$DIMTOFL
 70
     1
  9
$DIMTVP
 40
0.0
  9
$DIMTIX
 70
     0
  9
$DIMSOXD
 70
     0
  9
$DIMSAH
 70
     0
  9
$DIMBLK1
  1

  9
$DIMBLK2
  1

  9
$DIMSTYLE
  2
ISO-25
  9
$DIMCLRD
 70
     0
  9
$DIMCLRE
 70
     0
  9
$DIMCLRT
 70
     0
  9
$DIMTFAC
 40
1.0
  9
$DIMGAP
 40
1.524
  9
$DIMJUST
 70
     0
  9
$DIMSD1
 70
     0
  9
$DIMSD2
 70
     0
  9
$DIMTOLJ
 70
     0
  9
$DIMTZIN
 70
     0
  9
$DIMALTZ
 70
     0
  9
$DIMALTTZ
 70
     0
  9
$DIMUPT
 70
     0
  9
$DIMDEC
 70
     2
  9
$DIMTDEC
 70
     2
  9
$DIMALTU
 70
     2
  9
$DIMALTTD
 70
     3
  9
$DIMTXSTY
  7
Standard
  9
$DIMAUNIT
 70
     0
  9
$DIMADEC
 70
     2
  9
$DIMALTRND
 40
0.0
  9
$DIMAZIN
 70
     0
  9
$DIMDSEP
 70
    44
  9
$DIMATFIT
 70
     3
  9
$DIMFRAC
 70
     0
  9
$DIMLDRBLK
  1

  9
$DIMLUNIT
 70
     2
  9
$DIMLWD
 70
    -2
  9
$DIMLWE
 70
    -2
  9
$DIMTMOVE
 70
     0
  9
$LUNITS
 70
     2
  9
$LUPREC
 70
     2
  9
$SKETCHINC
 40
1.0
  9
$FILLETRAD
 40
10.0
  9
$AUNITS
 70
     0
  9
$AUPREC
 70
     2
  9
$MENU
  1
.
  9
$ELEVATION
 40
0.0
  9
$PELEVATION
 40
0.0
  9
$THICKNESS
 40
0.0
  9
$LIMCHECK
 70
     0
  9
$CHAMFERA
 40
0.0
  9
$CHAMFERB
 40
0.0
  9
$CHAMFERC
 40
0.0
  9
$CHAMFERD
 40
0.0
  9
$SKPOLY
 70
     0
  9
$TDCREATE
 40
2458313.470601065
  9
$TDUCREATE
 40
2458313.095601065
  9
$TDUPDATE
 40
2458319.391348102
  9
$TDUUPDATE
 40
2458319.016348102
  9
$TDINDWG
 40
0.0026445023
  9
$TDUSRTIMER
 40
2458319.016266725
  9
$USRTIMER
 70
     1
  9
$ANGBASE
 50
0.0
  9
$ANGDIR
 70
     0
  9
$PDMODE
 70
     0
  9
$PDSIZE
 40
-1.0
  9
$PLINEWID
 40
0.0
  9
$SPLFRAME
 70
     0
  9
$SPLINETYPE
 70
     6
  9
$SPLINESEGS
 70
     8
  9
$HANDSEED
  5
3F7
  9
$SURFTAB1
 70
     6
  9
$SURFTAB2
 70
     6
  9
$SURFTYPE
 70
     6
  9
$SURFU
 70
     6
  9
$SURFV
 70
     6
  9
$UCSBASE
  2

  9
$UCSNAME
  2

  9
$UCSORG
 10
0.0
 20
0.0
 30
0.0
  9
$UCSXDIR
 10
1.0
 20
0.0
 30
0.0
  9
$UCSYDIR
 10
0.0
 20
1.0
 30
0.0
  9
$UCSORTHOREF
  2

  9
$UCSORTHOVIEW
 70
     0
  9
$UCSORGTOP
 10
0.0
 20
0.0
 30
0.0
  9
$UCSORGBOTTOM
 10
0.0
 20
0.0
 30
0.0
  9
$UCSORGLEFT
 10
0.0
 20
0.0
 30
0.0
  9
$UCSORGRIGHT
 10
0.0
 20
0.0
 30
0.0
  9
$UCSORGFRONT
 10
0.0
 20
0.0
 30
0.0
  9
$UCSORGBACK
 10
0.0
 20
0.0
 30
0.0
  9
$PUCSBASE
  2

  9
$PUCSNAME
  2

  9
$PUCSORG
 10
0.0
 20
0.0
 30
0.0
  9
$PUCSXDIR
 10
1.0
 20
0.0
 30
0.0
  9
$PUCSYDIR
 10
0.0
 20
1.0
 30
0.0
  9
$PUCSORTHOREF
  2

  9
$PUCSORTHOVIEW
 70
     0
  9
$PUCSORGTOP
 10
0.0
 20
0.0
 30
0.0
  9
$PUCSORGBOTTOM
 10
0.0
 20
0.0
 30
0.0
  9
$PUCSORGLEFT
 10
0.0
 20
0.0
 30
0.0
  9
$PUCSORGRIGHT
 10
0.0
 20
0.0
 30
0.0
  9
$PUCSORGFRONT
 10
0.0
 20
0.0
 30
0.0
  9
$PUCSORGBACK
 10
0.0
 20
0.0
 30
0.0
  9
$USERI1
 70
     0
  9
$USERI2
 70
     0
  9
$USERI3
 70
     0
  9
$USERI4
 70
     0
  9
$USERI5
 70
     0
  9
$USERR1
 40
0.0
  9
$USERR2
 40
0.0
  9
$USERR3
 40
0.0
  9
$USERR4
 40
0.0
  9
$USERR5
 40
0.0
  9
$WORLDVIEW
 70
     1
  9
$SHADEDGE
 70
     3
  9
$SHADEDIF
 70
    70
  9
$TILEMODE
 70
     1
  9
$MAXACTVP
 70
    64
  9
$PINSBASE
 10
0.0
 20
0.0
 30
0.0
  9
$PLIMCHECK
 70
     0
  9
$PEXTMIN
 10
1.000000000000000E+20
 20
1.000000000000000E+20
 30
1.000000000000000E+20
  9
$PEXTMAX
 10
-1.000000000000000E+20
 20
-1.000000000000000E+20
 30
-1.000000000000000E+20
  9
$PLIMMIN
 10
0.0
 20
0.0
  9
$PLIMMAX
 10
0.0
 20
0.0
  9
$UNITMODE
 70
     0
  9
$VISRETAIN
 70
     1
  9
$PLINEGEN
 70
     0
  9
$PSLTSCALE
 70
     1
  9
$TREEDEPTH
 70
  3020
  9
$CMLSTYLE
  2
Standard
  9
$CMLJUST
 70
     0
  9
$CMLSCALE
 40
20.0
  9
$PROXYGRAPHICS
 70
     1
  9
$MEASUREMENT
 70
     1
  9
$CELWEIGHT
370
    -1
  9
$ENDCAPS
280
     0
  9
$JOINSTYLE
280
     0
  9
$LWDISPLAY
290
     1
  9
$INSUNITS
 70
     4
  9
$HYPERLINKBASE
  1

  9
$STYLESHEET
  1

  9
$XEDIT
290
     1
  9
$CEPSNTYPE
380
     0
  9
$PSTYLEMODE
290
     1
  9
$FINGERPRINTGUID
  2
{D7D047BB-18C0-486F-8D4A-2E0C6DDD6726}
  9
$VERSIONGUID
  2
{FAEB1C32-E019-11D5-929B-00C0DF256EC4}
  9
$EXTNAMES
290
     1
  9
$PSVPSCALE
 40
0.0
  9
$OLESTARTUP
290
     0
  0
ENDSEC
  0
SECTION
  2
CLASSES
  0
CLASS
  1
ACDBDICTIONARYWDFLT
  2
AcDbDictionaryWithDefault
  3
ObjectDBX Classes
 90
        0
280
     0
281
     0
  0
CLASS
  1
VISUALSTYLE
  2
AcDbVisualStyle
  3
ObjectDBX Classes
 90
     4095
280
     0
281
     0
  0
CLASS
  1
MATERIAL
  2
AcDbMaterial
  3
ObjectDBX Classes
 90
     1153
280
     0
281
     0
  0
CLASS
  1
SCALE
  2
AcDbScale
  3
ObjectDBX Classes
 90
     1153
280
     0
281
     0
  0
CLASS
  1
SUN
  2
AcDbSun
  3
SCENEOE
 90
     1153
280
     0
281
     0
  0
CLASS
  1
ACDBPLACEHOLDER
  2
AcDbPlaceHolder
  3
ObjectDBX Classes
 90
        0
280
     0
281
     0
  0
CLASS
  1
LAYOUT
  2
AcDbLayout
  3
ObjectDBX Classes
 90
        0
280
     0
281
     0
  0
CLASS
  1
TABLESTYLE
  2
AcDbTableStyle
  3
ObjectDBX Classes
 90
     4095
280
     0
281
     0
  0
CLASS
  1
MLEADERSTYLE
  2
AcDbMLeaderStyle
  3
ACDB_MLEADERSTYLE_CLASS
 90
     4095
280
     0
281
     0
  0
CLASS
  1
RASTERVARIABLES
  2
AcDbRasterVariables
  3
ISM
 90
        0
280
     0
281
     0
  0
ENDSEC
  0
SECTION
  2
TABLES
  0
TABLE
  2
VPORT
  5
8
330
0
100
AcDbSymbolTable
 70
     1
  0
VPORT
  5
29
330
8
100
AcDbSymbolTableRecord
100
AcDbViewportTableRecord
  2
*Active
 70
     0
 10
0.0
 20
0.0
 11
1.0
 21
1.0
 12
7.105128481105499
 22
-6.991842690629355
 13
0.0
 23
0.0
 14
10.0
 24
10.0
 15
10.0
 25
10.0
 16
0.0
 26
0.0
 36
1.0
 17
0.0
 27
0.0
 37
0.0
 40
152.1893706522808
 41
1.632093933463796
 42
50.0
 43
0.0
 44
0.0
 50
0.0
 51
0.0
 71
    16
 72
  2000
 73
     1
 74
     3
 75
     0
 76
     0
 77
     0
 78
     0
281
     0
 65
     1
110
0.0
120
0.0
130
0.0
111
1.0
121
0.0
131
0.0
112
0.0
122
1.0
132
0.0
 79
     0
146
0.0
  0
ENDTAB
  0
TABLE
  2
LTYPE
  5
5
330
0
100
AcDbSymbolTable
 70
     6
  0
LTYPE
  5
14
330
5
100
AcDbSymbolTableRecord
100
AcDbLinetypeTableRecord
  2
ByBlock
 70
     0
  3

 72
    65
 73
     0
 40
0.0
  0
LTYPE
  5
15
330
5
100
AcDbSymbolTableRecord
100
AcDbLinetypeTableRecord
  2
ByLayer
 70
     0
  3

 72
    65
 73
     0
 40
0.0
  0
LTYPE
  5
16
330
5
100
AcDbSymbolTableRecord
100
AcDbLinetypeTableRecord
  2
Continuous
 70
     0
  3
Solid line
 72
    65
 73
     0
 40
0.0
  0
LTYPE
  5
6A
330
5
100
AcDbSymbolTableRecord
100
AcDbLinetypeTableRecord
  2
HIDDEN
 70
     0
  3
Hidden __ __ __ __ __ __ __ __ __ __ __ __ __ __
 72
    65
 73
     2
 40
1.905
 49
1.27
 74
     0
 49
-0.635
 74
     0
  0
LTYPE
  5
6B
330
5
100
AcDbSymbolTableRecord
100
AcDbLinetypeTableRecord
  2
PHANTOM
 70
     0
  3
Phantom ______  __  __  ______  __  __  ______
 72
    65
 73
     6
 40
12.7
 49
6.35
 74
     0
 49
-1.27
 74
     0
 49
1.27
 74
     0
 49
-1.27
 74
     0
 49
1.27
 74
     0
 49
-1.27
 74
     0
  0
LTYPE
  5
6C
330
5
100
AcDbSymbolTableRecord
100
AcDbLinetypeTableRecord
  2
CENTER
 70
     0
  3
Center ____ _ ____ _ ____ _ ____ _ ____ _ ____
 72
    65
 73
     4
 40
10.16
 49
6.35
 74
     0
 49
-1.27
 74
     0
 49
1.27
 74
     0
 49
-1.27
 74
     0
  0
LTYPE
  5
6D
330
5
100
AcDbSymbolTableRecord
100
AcDbLinetypeTableRecord
  2
CENTERX2
 70
     0
  3
Center (2x) ________  __  ________  __  _____
 72
    65
 73
     4
 40
20.32
 49
12.7
 74
     0
 49
-2.54
 74
     0
 49
2.54
 74
     0
 49
-2.54
 74
     0
  0
LTYPE
  5
6E
330
5
100
AcDbSymbolTableRecord
100
AcDbLinetypeTableRecord
  2
DOT2
 70
     0
  3
Dot (.5x) ........................................
 72
    65
 73
     2
 40
0.635
 49
0.0
 74
     0
 49
-0.635
 74
     0
  0
ENDTAB
  0
TABLE
  2
LAYER
  5
2
102
{ACAD_XDICTIONARY
360
1DF
102
}
330
0
100
AcDbSymbolTable
 70
    18
  0
LAYER
  5
10
330
2
100
AcDbSymbolTableRecord
100
AcDbLayerTableRecord
  2
0
 70
     0
 62
     7
  6
Continuous
370
    -3
390
F
  0
LAYER
  5
6F
330
2
100
AcDbSymbolTableRecord
100
AcDbLayerTableRecord
  2
FORMAT
 70
     0
 62
     2
  6
Continuous
370
    -3
390
F
  0
LAYER
  5
70
330
2
100
AcDbSymbolTableRecord
100
AcDbLayerTableRecord
  2
외형선
 70
     0
 62
     4
  6
Continuous
370
    30
390
F
  0
LAYER
  5
71
330
2
100
AcDbSymbolTableRecord
100
AcDbLayerTableRecord
  2
숨은선
 70
     0
 62
     2
  6
HIDDEN
370
    15
390
F
  0
LAYER
  5
72
330
2
100
AcDbSymbolTableRecord
100
AcDbLayerTableRecord
  2
중심선
 70
     0
 62
     1
  6
CENTERX2
370
    -3
390
F
  0
LAYER
  5
73
330
2
100
AcDbSymbolTableRecord
100
AcDbLayerTableRecord
  2
파단선
 70
     0
 62
     4
  6
Continuous
370
    -3
390
F
  0
LAYER
  5
74
330
2
100
AcDbSymbolTableRecord
100
AcDbLayerTableRecord
  2
해칭선
 70
     0
 62
   100
  6
Continuous
370
    -3
390
F
  0
LAYER
  5
75
330
2
100
AcDbSymbolTableRecord
100
AcDbLayerTableRecord
  2
가는실선
 70
     0
 62
     4
  6
Continuous
370
    -3
390
F
  0
LAYER
  5
76
330
2
100
AcDbSymbolTableRecord
100
AcDbLayerTableRecord
  2
치수_보조선
 70
     0
 62
     4
  6
Continuous
370
    -3
390
F
  0
LAYER
  5
77
330
2
100
AcDbSymbolTableRecord
100
AcDbLayerTableRecord
  2
치수문자_일반주서
 70
     0
 62
     7
  6
Continuous
370
    15
390
F
  0
LAYER
  5
78
330
2
100
AcDbSymbolTableRecord
100
AcDbLayerTableRecord
  2
개별주서
 70
     0
 62
   100
  6
Continuous
370
    30
390
F
  0
LAYER
  5
79
330
2
100
AcDbSymbolTableRecord
100
AcDbLayerTableRecord
  2
중간선
 70
     0
 62
     2
  6
Continuous
370
    15
390
F
  0
LAYER
  5
7A
330
2
100
AcDbSymbolTableRecord
100
AcDbLayerTableRecord
  2
윤곽선
 70
     0
 62
     3
  6
Continuous
370
    40
390
F
  0
LAYER
  5
7B
330
2
100
AcDbSymbolTableRecord
100
AcDbLayerTableRecord
  2
중심마크
 70
     0
 62
   100
  6
Continuous
370
    30
390
F
  0
LAYER
  5
7C
330
2
100
AcDbSymbolTableRecord
100
AcDbLayerTableRecord
  2
가상선
 70
     0
 62
     4
  6
PHANTOM
370
    -3
390
F
  0
LAYER
  5
7D
330
2
100
AcDbSymbolTableRecord
100
AcDbLayerTableRecord
  2
특수지정선
 70
     0
 62
     5
  6
CENTERX2
370
    60
390
F
  0
LAYER
  5
7E
330
2
100
AcDbSymbolTableRecord
100
AcDbLayerTableRecord
  2
참조1
 70
     0
 62
    -4
  6
Continuous
370
    -3
390
F
  0
LAYER
  5
154
330
2
100
AcDbSymbolTableRecord
100
AcDbLayerTableRecord
  2
Defpoints
 70
     0
 62
     7
  6
Continuous
290
     0
370
    -3
390
F
  0
ENDTAB
  0
TABLE
  2
STYLE
  5
3
330
0
100
AcDbSymbolTable
 70
     2
  0
STYLE
  5
11
330
3
100
AcDbSymbolTableRecord
100
AcDbTextStyleTableRecord
  2
Standard
 70
     0
 40
0.0
 41
1.0
 50
0.0
 71
     0
 42
3.5
  3
txt
  4

  0
STYLE
  5
94
330
3
100
AcDbSymbolTableRecord
100
AcDbTextStyleTableRecord
  2
SLDTEXTSTYLE0
 70
     0
 40
0.0
 41
0.75
 50
0.0
 71
     0
 42
3.5
  3
TXT
  4

  0
ENDTAB
  0
TABLE
  2
VIEW
  5
6
330
0
100
AcDbSymbolTable
 70
     0
  0
ENDTAB
  0
TABLE
  2
UCS
  5
7
330
0
100
AcDbSymbolTable
 70
     0
  0
ENDTAB
  0
TABLE
  2
APPID
  5
9
330
0
100
AcDbSymbolTable
 70
     1
  0
APPID
  5
12
330
9
100
AcDbSymbolTableRecord
100
AcDbRegAppTableRecord
  2
ACAD
 70
     0
  0
ENDTAB
  0
TABLE
  2
DIMSTYLE
  5
A
330
0
100
AcDbSymbolTable
 70
     3
100
AcDbDimStyleTable
  0
DIMSTYLE
105
27
330
A
100
AcDbSymbolTableRecord
100
AcDbDimStyleTableRecord
  2
ISO-25
 70
     0
 41
2.5
 42
0.625
 43
3.75
 44
1.25
 73
     0
 74
     0
 77
     1
 78
     8
140
2.5
141
2.5
143
0.03937007874016
147
0.625
171
     3
172
     1
178
     0
271
     2
272
     2
274
     3
278
    44
283
     0
284
     8
340
11
  0
DIMSTYLE
105
D1
102
{ACAD_REACTORS
330
D0
330
10D
330
E5
330
FA
102
}
330
A
100
AcDbSymbolTableRecord
100
AcDbDimStyleTableRecord
  2
SLDDIMSTYLE0
 70
     0
 41
3.302
 44
0.0
 45
0.000000001
 73
     0
 74
     0
 77
     1
 78
    12
 79
     3
140
3.5
143
0.0393700787401575
147
0.875
148
0.000000001
170
     1
172
     1
173
     1
178
     0
271
     2
272
     2
276
     2
284
    12
289
     0
340
94
  0
DIMSTYLE
105
E6
330
A
100
AcDbSymbolTableRecord
100
AcDbDimStyleTableRecord
  2
SLDDIMSTYLE1
 70
     0
 41
3.302
 44
0.0
 45
0.000000001
 73
     0
 74
     0
 77
     1
 78
    12
 79
     3
140
3.5
143
0.0393700787401575
147
0.875
148
0.000000001
170
     1
173
     1
178
     0
271
     2
272
     2
276
     2
284
    12
340
94
  0
ENDTAB
  0
TABLE
  2
BLOCK_RECORD
  5
1
330
0
100
AcDbSymbolTable
 70
    19
  0
BLOCK_RECORD
  5
1F
330
1
100
AcDbSymbolTableRecord
100
AcDbBlockTableRecord
  2
*Model_Space
340
22
  0
BLOCK_RECORD
  5
1B
330
1
100
AcDbSymbolTableRecord
100
AcDbBlockTableRecord
  2
*Paper_Space
340
1E
  0
BLOCK_RECORD
  5
23
330
1
100
AcDbSymbolTableRecord
100
AcDbBlockTableRecord
  2
*Paper_Space0
340
26
  0
BLOCK_RECORD
  5
7F
330
1
100
AcDbSymbolTableRecord
100
AcDbBlockTableRecord
  2
블럭10
340
0
102
{BLKREFS
331
C9
102
}
  0
BLOCK_RECORD
  5
D2
330
1
100
AcDbSymbolTableRecord
100
AcDbBlockTableRecord
  2
_D
340
0
  0
BLOCK_RECORD
  5
E7
330
1
100
AcDbSymbolTableRecord
100
AcDbBlockTableRecord
  2
_D_1
340
0
  0
BLOCK_RECORD
  5
FB
330
1
100
AcDbSymbolTableRecord
100
AcDbBlockTableRecord
  2
_D_2
340
0
  0
BLOCK_RECORD
  5
10E
330
1
100
AcDbSymbolTableRecord
100
AcDbBlockTableRecord
  2
_D_3
340
0
  0
BLOCK_RECORD
  5
128
330
1
100
AcDbSymbolTableRecord
100
AcDbBlockTableRecord
  2
SW_DOWELSYMBOL_0
340
0
102
{BLKREFS
331
12E
102
}
  0
BLOCK_RECORD
  5
1E3
330
1
100
AcDbSymbolTableRecord
100
AcDbBlockTableRecord
  2
*D7
340
0
  0
BLOCK_RECORD
  5
1F2
330
1
100
AcDbSymbolTableRecord
100
AcDbBlockTableRecord
  2
*D8
340
0
  0
BLOCK_RECORD
  5
201
330
1
100
AcDbSymbolTableRecord
100
AcDbBlockTableRecord
  2
*D9
340
0
  0
BLOCK_RECORD
  5
240
330
1
100
AcDbSymbolTableRecord
100
AcDbBlockTableRecord
  2
*D10
340
0
  0
BLOCK_RECORD
  5
24F
330
1
100
AcDbSymbolTableRecord
100
AcDbBlockTableRecord
  2
*D11
340
0
  0
BLOCK_RECORD
  5
25E
330
1
100
AcDbSymbolTableRecord
100
AcDbBlockTableRecord
  2
*D12
340
0
  0
BLOCK_RECORD
  5
2FD
330
1
100
AcDbSymbolTableRecord
100
AcDbBlockTableRecord
  2
*D13
340
0
  0
BLOCK_RECORD
  5
30C
330
1
100
AcDbSymbolTableRecord
100
AcDbBlockTableRecord
  2
*D14
340
0
  0
BLOCK_RECORD
  5
31B
330
1
100
AcDbSymbolTableRecord
100
AcDbBlockTableRecord
  2
*D15
340
0
  0
BLOCK_RECORD
  5
357
330
1
100
AcDbSymbolTableRecord
100
AcDbBlockTableRecord
  2
*D16
340
0
  0
BLOCK_RECORD
  5
366
330
1
100
AcDbSymbolTableRecord
100
AcDbBlockTableRecord
  2
*D17
340
0
  0
BLOCK_RECORD
  5
375
330
1
100
AcDbSymbolTableRecord
100
AcDbBlockTableRecord
  2
*D18
340
0
  0
ENDTAB
  0
ENDSEC
  0
SECTION
  2
BLOCKS
  0
BLOCK
  5
20
330
1F
100
AcDbEntity
  8
0
100
AcDbBlockBegin
  2
*Model_Space
 70
     0
 10
0.0
 20
0.0
 30
0.0
  3
*Model_Space
  1
*Model_Space
  0
ENDBLK
  5
21
330
1F
100
AcDbEntity
  8
0
100
AcDbBlockEnd
  0
BLOCK
  5
1C
330
1B
100
AcDbEntity
 67
     1
  8
0
100
AcDbBlockBegin
  2
*Paper_Space
 70
     0
 10
0.0
 20
0.0
 30
0.0
  3
*Paper_Space
  1
*Paper_Space
  0
ENDBLK
  5
1D
330
1B
100
AcDbEntity
 67
     1
  8
0
100
AcDbBlockEnd
  0
BLOCK
  5
24
330
23
100
AcDbEntity
  8
0
100
AcDbBlockBegin
  2
*Paper_Space0
 70
     0
 10
0.0
 20
0.0
 30
0.0
  3
*Paper_Space0
  1
*Paper_Space0
  0
ENDBLK
  5
25
330
23
100
AcDbEntity
  8
0
100
AcDbBlockEnd
  0
BLOCK
  5
80
330
7F
100
AcDbEntity
  8
0
100
AcDbBlockBegin
  2
블럭10
 70
     2
 10
0.0
 20
0.0
 30
0.0
  3
블럭10
  1
블럭10
  0
ELLIPSE
  5
82
330
7F
100
AcDbEntity
  8
중심선
100
AcDbEllipse
 10
20.54032771741204
 20
12.0471743016438
 30
0.0
 11
6.600054785286829
 21
-1.261213355974178E-13
 31
0.0
210
0.0
220
0.0
230
1.0
 40
0.636358354079598
 41
0.9219305317359503
 42
6.513795318482858
  0
ELLIPSE
  5
83
330
7F
100
AcDbEntity
  8
중심선
100
AcDbEllipse
 10
20.54032771746488
 20
12.04717430159265
 30
0.0
 11
3.960054785062283
 21
1.540847449632565E-10
 31
0.0
210
0.0
220
0.0
230
1.0
 40
0.3939339440162632
 41
1.131841032648279
 42
5.62031148352944
  0
LINE
  5
84
330
7F
100
AcDbEntity
  8
중심선
100
AcDbLine
 10
2.268634060543552
 20
16.24717430164393
 30
0.0
 11
5.714909304380834
 21
16.24717430164393
 31
0.0
  0
LINE
  5
85
330
7F
100
AcDbEntity
  8
중심선
100
AcDbLine
 10
5.245725140726316
 20
7.84717430164391
 30
0.0
 11
8.692000384563599
 21
7.84717430164391
 31
0.0
  0
LINE
  5
86
330
7F
100
AcDbEntity
  8
중심선
100
AcDbLine
 10
15.74043728645272
 20
16.24717430164393
 30
0.0
 11
8.692000384563599
 21
7.84717430164391
 31
0.0
  0
LINE
  5
87
330
7F
100
AcDbEntity
  8
중심선
100
AcDbLine
 10
0.1404042013395286
 20
13.71084872107135
 30
0.0
 11
3.58671253028996
 21
13.71088815037384
 31
0.0
  0
LINE
  5
88
330
7F
100
AcDbEntity
  8
중심선
100
AcDbLine
 10
2.750260043222114
 20
10.84717430164391
 30
0.0
 11
6.196535287059397
 21
10.84717430164391
 31
0.0
  0
LINE
  5
89
330
7F
100
AcDbEntity
  8
중심선
100
AcDbLine
 10
12.29416204261559
 20
16.24717430164393
 30
0.0
 11
5.245725140726316
 21
7.84717430164391
 31
0.0
  0
LINE
  5
8A
330
7F
100
AcDbEntity
  8
중심선
100
AcDbLine
 10
10.72767329541681
 20
16.24717430164393
 30
0.0
 11
6.196535287059397
 21
10.84717430164391
 31
0.0
  0
LINE
  5
8B
330
7F
100
AcDbEntity
  8
중심선
100
AcDbLine
 10
7.28139805157953
 20
16.24717430164393
 30
0.0
 11
2.750260043222114
 21
10.84717430164391
 31
0.0
  0
LINE
  5
8C
330
7F
100
AcDbEntity
  8
중심선
100
AcDbLine
 10
5.714909304380834
 20
16.24717430164393
 30
0.0
 11
3.58671253028996
 21
13.71088815037384
 31
0.0
  0
LINE
  5
8D
330
7F
100
AcDbEntity
  8
중심선
100
AcDbLine
 10
2.268634060543552
 20
16.24717430164393
 30
0.0
 11
0.1404042013395286
 21
13.71084872107135
 31
0.0
  0
LINE
  5
8E
330
7F
100
AcDbEntity
  8
중심선
100
AcDbLine
 10
7.28139805157953
 20
16.24717430164393
 30
0.0
 11
10.72767329541681
 21
16.24717430164393
 31
0.0
  0
LINE
  5
8F
330
7F
100
AcDbEntity
  8
중심선
100
AcDbLine
 10
12.29416204261559
 20
16.24717430164393
 30
0.0
 11
15.74043728645272
 21
16.24717430164393
 31
0.0
  0
LINE
  5
90
330
7F
100
AcDbEntity
  8
중심선
100
AcDbLine
 10
19.22036997980202
 20
11.08717430171403
 30
0.0
 11
23.66174974927406
 21
11.08717430171406
 31
0.0
  0
LINE
  5
91
330
7F
100
AcDbEntity
  8
중심선
100
AcDbLine
 10
19.22039502424796
 20
13.00717430171391
 30
0.0
 11
19.22036997980202
 21
11.08717430171403
 31
0.0
  0
LINE
  5
92
330
7F
100
AcDbEntity
  8
중심선
100
AcDbLine
 10
19.22039502424796
 20
13.00717430171391
 30
0.0
 11
26.96566020931264
 21
13.00717430171391
 31
0.0
  0
LINE
  5
93
330
7F
100
AcDbEntity
  8
중심선
100
AcDbLine
 10
22.22332737316547
 20
13.45928029700563
 30
0.0
 11
24.52862924686651
 21
15.39360700705356
 31
0.0
  0
ATTDEF
  5
95
330
7F
100
AcDbEntity
  8
FORMAT
 62
     2
100
AcDbText
 10
4.408487351596664
 20
2.075366912832191
 30
0.0
 40
4.233333333333333
  1
E1053015
 41
0.75
  7
SLDTEXTSTYLE0
 11
4.408487351596664
 21
-0.0412997538344756
 31
0.0
100
AcDbAttributeDefinition
  3

  2
AUTOATTR0
 70
     0
 74
     1
  0
ENDBLK
  5
81
330
7F
100
AcDbEntity
  8
0
100
AcDbBlockEnd
  0
BLOCK
  5
D3
330
D2
100
AcDbEntity
  8
0
100
AcDbBlockBegin
  2
_D
 70
     0
 10
0.0
 20
0.0
 30
0.0
  3
_D
  1
_D
  0
LINE
  5
D5
330
D2
100
AcDbEntity
  8
치수문자_일반주서
 62
     0
370
    -2
100
AcDbLine
 10
42.925
 20
2.976562500000005
 30
0.0
 11
56.87444755968243
 21
2.976562500000057
 31
0.0
  0
LINE
  5
D6
330
D2
100
AcDbEntity
  8
치수문자_일반주서
 62
     0
370
    -2
100
AcDbLine
 10
42.925
 20
-2.976562499999994
 30
0.0
 11
56.87444755968245
 21
-2.976562499999943
 31
0.0
  0
LINE
  5
D7
330
D2
100
AcDbEntity
  8
치수문자_일반주서
 62
     0
370
    -2
100
AcDbLine
 10
56.87444755968243
 20
2.976562500000057
 30
0.0
 11
56.87444755968227
 21
46.23162932046442
 31
0.0
  0
LINE
  5
D8
330
D2
100
AcDbEntity
  8
치수문자_일반주서
 62
     0
370
    -2
100
AcDbLine
 10
56.87444755968243
 20
2.976562500000057
 30
0.0
 11
56.87444755968245
 21
-2.976562499999943
 31
0.0
  0
LINE
  5
D9
330
D2
100
AcDbEntity
  8
치수문자_일반주서
 62
     0
370
    -2
100
AcDbLine
 10
56.87444755968242
 20
6.278562500000056
 30
0.0
 11
56.8744475596824
 21
9.580562500000056
 31
0.0
  0
LINE
  5
DA
330
D2
100
AcDbEntity
  8
치수문자_일반주서
 62
     0
370
    -2
100
AcDbLine
 10
56.87444755968247
 20
-6.278562499999943
 30
0.0
 11
56.87444755968248
 21
-9.580562499999942
 31
0.0
  0
SOLID
  5
DB
330
D2
100
AcDbEntity
  8
치수문자_일반주서
 62
     0
100
AcDbTrace
 10
56.32411422634908
 20
6.278562500000055
 30
0.0
 11
57.42478089301575
 21
6.278562500000058
 31
0.0
 12
56.87444755968243
 22
2.976562500000057
 32
0.0
 13
56.87444755968243
 23
2.976562500000057
 33
0.0
  0
SOLID
  5
DC
330
D2
100
AcDbEntity
  8
치수문자_일반주서
 62
     0
100
AcDbTrace
 10
57.4247808930158
 20
-6.278562499999941
 30
0.0
 11
56.32411422634913
 21
-6.278562499999945
 31
0.0
 12
56.87444755968245
 22
-2.976562499999943
 32
0.0
 13
56.87444755968245
 23
-2.976562499999943
 33
0.0
  0
MTEXT
  5
DD
330
D2
100
AcDbEntity
  8
치수문자_일반주서
 62
     0
100
AcDbMText
 10
52.49944755968233
 20
30.91912932046441
 30
0.0
 40
3.5
 41
0.0
 71
     2
 72
     1
  1
\A1;%%c5.95 [15/64]
  7
SLDTEXTSTYLE0
 11
-3.580687802255624E-15
 21
1.0
 31
0.0
 73
     1
 44
1.0
  0
POINT
  5
DE
330
D2
100
AcDbEntity
  8
Defpoints
 62
     0
100
AcDbPoint
 10
42.8625
 20
2.976562500000005
 30
0.0
  0
POINT
  5
DF
330
D2
100
AcDbEntity
  8
Defpoints
 62
     0
100
AcDbPoint
 10
42.8625
 20
-2.976562499999994
 30
0.0
  0
POINT
  5
E0
330
D2
100
AcDbEntity
  8
Defpoints
 62
     0
100
AcDbPoint
 10
56.87444755968245
 20
-2.976562499999942
 30
0.0
  0
ENDBLK
  5
D4
330
D2
100
AcDbEntity
  8
0
100
AcDbBlockEnd
  0
BLOCK
  5
E8
330
E7
100
AcDbEntity
  8
0
100
AcDbBlockBegin
  2
_D_1
 70
     0
 10
0.0
 20
0.0
 30
0.0
  3
_D_1
  1
_D_1
  0
LINE
  5
EA
330
E7
100
AcDbEntity
  8
치수문자_일반주서
 62
     0
370
    -2
100
AcDbLine
 10
42.8625
 20
3.039062500000005
 30
0.0
 11
42.8625
 21
18.68945534234424
 31
0.0
  0
LINE
  5
EB
330
E7
100
AcDbEntity
  8
치수문자_일반주서
 62
     0
370
    -2
100
AcDbLine
 10
26.98749999999998
 20
3.038257814020726
 30
0.0
 11
26.98749999999998
 21
18.68945534234424
 31
0.0
  0
LINE
  5
EC
330
E7
100
AcDbEntity
  8
치수문자_일반주서
 62
     0
370
    -2
100
AcDbLine
 10
26.98749999999998
 20
18.68945534234424
 30
0.0
 11
-5.210250000000023
 21
18.68945534234424
 31
0.0
  0
LINE
  5
ED
330
E7
100
AcDbEntity
  8
치수문자_일반주서
 62
     0
370
    -2
100
AcDbLine
 10
42.8625
 20
18.68945534234424
 30
0.0
 11
26.98749999999998
 21
18.68945534234424
 31
0.0
  0
LINE
  5
EE
330
E7
100
AcDbEntity
  8
치수문자_일반주서
 62
     0
370
    -2
100
AcDbLine
 10
46.1645
 20
18.68945534234424
 30
0.0
 11
49.4665
 21
18.68945534234424
 31
0.0
  0
LINE
  5
EF
330
E7
100
AcDbEntity
  8
치수문자_일반주서
 62
     0
370
    -2
100
AcDbLine
 10
23.68549999999998
 20
18.68945534234424
 30
0.0
 11
20.38349999999998
 21
18.68945534234424
 31
0.0
  0
SOLID
  5
F0
330
E7
100
AcDbEntity
  8
치수문자_일반주서
 62
     0
100
AcDbTrace
 10
46.1645
 20
19.23978867567757
 30
0.0
 11
46.1645
 21
18.1391220090109
 31
0.0
 12
42.8625
 22
18.68945534234424
 32
0.0
 13
42.8625
 23
18.68945534234424
 33
0.0
  0
SOLID
  5
F1
330
E7
100
AcDbEntity
  8
치수문자_일반주서
 62
     0
100
AcDbTrace
 10
23.68549999999998
 20
18.1391220090109
 30
0.0
 11
23.68549999999998
 21
19.23978867567757
 31
0.0
 12
26.98749999999998
 22
18.68945534234424
 32
0.0
 13
26.98749999999998
 23
18.68945534234424
 33
0.0
  0
MTEXT
  5
F2
330
E7
100
AcDbEntity
  8
치수문자_일반주서
 62
     0
100
AcDbMText
 10
7.477249999999977
 20
23.06445534234424
 30
0.0
 40
3.5
 41
0.0
 71
     2
 72
     1
  1
\A1;15.88 [5/8]
  7
SLDTEXTSTYLE0
 73
     1
 44
1.0
  0
POINT
  5
F3
330
E7
100
AcDbEntity
  8
Defpoints
 62
     0
100
AcDbPoint
 10
42.8625
 20
2.976562500000005
 30
0.0
  0
POINT
  5
26A
330
E7
100
AcDbEntity
  8
Defpoints
 62
     0
100
AcDbPoint
 10
26.98749999999998
 20
2.975757814020726
 30
0.0
  0
POINT
  5
26B
330
E7
100
AcDbEntity
  8
Defpoints
 62
     0
100
AcDbPoint
 10
26.98749999999998
 20
18.68945534234424
 30
0.0
  0
ENDBLK
  5
E9
330
E7
100
AcDbEntity
  8
0
100
AcDbBlockEnd
  0
BLOCK
  5
FC
330
FB
100
AcDbEntity
  8
0
100
AcDbBlockBegin
  2
_D_2
 70
     0
 10
0.0
 20
0.0
 30
0.0
  3
_D_2
  1
_D_2
  0
LINE
  5
FE
330
FB
100
AcDbEntity
  8
치수문자_일반주서
 62
     0
370
    -2
100
AcDbLine
 10
42.8625
 20
3.039062500000005
 30
0.0
 11
42.8625
 21
28.74110164276397
 31
0.0
  0
LINE
  5
FF
330
FB
100
AcDbEntity
  8
치수문자_일반주서
 62
     0
370
    -2
100
AcDbLine
 10
-42.8625
 20
3.0390625
 30
0.0
 11
-42.8625
 21
28.74110164276397
 31
0.0
  0
LINE
  5
100
330
FB
100
AcDbEntity
  8
치수문자_일반주서
 62
     0
370
    -2
100
AcDbLine
 10
39.5605
 20
28.74110164276397
 30
0.0
 11
-39.5605
 21
28.74110164276397
 31
0.0
  0
SOLID
  5
101
330
FB
100
AcDbEntity
  8
치수문자_일반주서
 62
     0
100
AcDbTrace
 10
39.5605
 20
28.19076830943063
 30
0.0
 11
39.5605
 21
29.2914349760973
 31
0.0
 12
42.8625
 22
28.74110164276397
 32
0.0
 13
42.8625
 23
28.74110164276397
 33
0.0
  0
SOLID
  5
102
330
FB
100
AcDbEntity
  8
치수문자_일반주서
 62
     0
100
AcDbTrace
 10
-39.5605
 20
29.2914349760973
 30
0.0
 11
-39.5605
 21
28.19076830943063
 31
0.0
 12
-42.8625
 22
28.74110164276397
 32
0.0
 13
-42.8625
 23
28.74110164276397
 33
0.0
  0
MTEXT
  5
103
330
FB
100
AcDbEntity
  8
치수문자_일반주서
 62
     0
100
AcDbMText
 10
0.8883518995633608
 20
33.11610164276397
 30
0.0
 40
3.5
 41
0.0
 71
     2
 72
     1
  1
\A1;85.73 [3 3/8]
  7
SLDTEXTSTYLE0
 73
     1
 44
1.0
  0
POINT
  5
104
330
FB
100
AcDbEntity
  8
Defpoints
 62
     0
100
AcDbPoint
 10
42.8625
 20
2.976562500000005
 30
0.0
  0
POINT
  5
105
330
FB
100
AcDbEntity
  8
Defpoints
 62
     0
100
AcDbPoint
 10
-42.8625
 20
2.9765625
 30
0.0
  0
POINT
  5
106
330
FB
100
AcDbEntity
  8
Defpoints
 62
     0
100
AcDbPoint
 10
-42.8625
 20
28.74110164276397
 30
0.0
  0
ENDBLK
  5
FD
330
FB
100
AcDbEntity
  8
0
100
AcDbBlockEnd
  0
BLOCK
  5
10F
330
10E
100
AcDbEntity
  8
0
100
AcDbBlockBegin
  2
_D_3
 70
     0
 10
0.0
 20
0.0
 30
0.0
  3
_D_3
  1
_D_3
  0
LINE
  5
111
330
10E
100
AcDbEntity
  8
치수문자_일반주서
 62
     0
370
    -2
100
AcDbLine
 10
-19.38479051085746
 20
4.762500000000017
 30
0.0
 11
-55.38625000000002
 21
4.762499999999882
 31
0.0
  0
LINE
  5
112
330
10E
100
AcDbEntity
  8
치수문자_일반주서
 62
     0
370
    -2
100
AcDbLine
 10
-19.38479051085746
 20
-4.762500000000003
 30
0.0
 11
-55.38624999999998
 21
-4.762500000000138
 31
0.0
  0
LINE
  5
113
330
10E
100
AcDbEntity
  8
치수문자_일반주서
 62
     0
370
    -2
100
AcDbLine
 10
-55.38625
 20
1.460499999999882
 30
0.0
 11
-55.38625
 21
-1.460500000000138
 31
0.0
  0
SOLID
  5
114
330
10E
100
AcDbEntity
  8
치수문자_일반주서
 62
     0
100
AcDbTrace
 10
-54.83591666666667
 20
1.460499999999884
 30
0.0
 11
-55.93658333333334
 21
1.46049999999988
 31
0.0
 12
-55.38625000000002
 22
4.762499999999882
 32
0.0
 13
-55.38625000000002
 23
4.762499999999882
 33
0.0
  0
SOLID
  5
115
330
10E
100
AcDbEntity
  8
치수문자_일반주서
 62
     0
100
AcDbTrace
 10
-55.93658333333333
 20
-1.46050000000014
 30
0.0
 11
-54.83591666666666
 21
-1.460500000000136
 31
0.0
 12
-55.38624999999998
 22
-4.762500000000138
 32
0.0
 13
-55.38624999999998
 23
-4.762500000000138
 33
0.0
  0
MTEXT
  5
116
330
10E
100
AcDbEntity
  8
치수문자_일반주서
 62
     0
100
AcDbMText
 10
-59.76125
 20
-0.0000000000000154
 30
0.0
 40
3.5
 41
0.0
 71
     2
 72
     1
  1
\A1;%%c9.53 [3/8]
  7
SLDTEXTSTYLE0
 11
-3.729883127349599E-15
 21
1.0
 31
0.0
 73
     1
 44
1.0
  0
POINT
  5
117
330
10E
100
AcDbEntity
  8
Defpoints
 62
     0
100
AcDbPoint
 10
-19.32229051085746
 20
4.762500000000017
 30
0.0
  0
POINT
  5
118
330
10E
100
AcDbEntity
  8
Defpoints
 62
     0
100
AcDbPoint
 10
-19.32229051085746
 20
-4.762500000000003
 30
0.0
  0
POINT
  5
119
330
10E
100
AcDbEntity
  8
Defpoints
 62
     0
100
AcDbPoint
 10
-55.38624999999998
 20
-4.762500000000138
 30
0.0
  0
ENDBLK
  5
110
330
10E
100
AcDbEntity
  8
0
100
AcDbBlockEnd
  0
BLOCK
  5
129
330
128
100
AcDbEntity
  8
0
100
AcDbBlockBegin
  2
SW_DOWELSYMBOL_0
 70
     0
 10
0.0
 20
0.0
 30
0.0
  3
SW_DOWELSYMBOL_0
  1
SW_DOWELSYMBOL_0
  0
CIRCLE
  5
12B
330
128
100
AcDbEntity
  8
해칭선
 62
     0
100
AcDbCircle
 10
0.0
 20
0.0
 30
0.0
 40
3.000000000000008
  0
HATCH
  5
12C
330
128
100
AcDbEntity
  8
0
  6
Continuous
 62
     0
370
     0
100
AcDbHatch
 10
0.0
 20
0.0
 30
0.0
210
0.0
220
0.0
230
1.0
  2
SOLID
 70
     1
 71
     0
 91
        1
 92
        0
 93
        3
 72
     2
 10
0.0
 20
0.0
 40
3.000000000000008
 50
0.0
 51
90.0
 73
     1
 72
     1
 10
0.0
 20
3.000000000000008
 11
0.0
 21
0.0
 72
     1
 10
0.0
 20
0.0
 11
3.00000000000001
 21
0.0
 97
        0
 75
     0
 76
     1
 98
        1
 10
0.0
 20
0.0
  0
HATCH
  5
12D
330
128
100
AcDbEntity
  8
0
  6
Continuous
 62
     0
370
     0
100
AcDbHatch
 10
0.0
 20
0.0
 30
0.0
210
0.0
220
0.0
230
1.0
  2
SOLID
 70
     1
 71
     0
 91
        1
 92
        0
 93
        3
 72
     2
 10
0.0
 20
0.0
 40
3.000000000000008
 50
180.0
 51
270.0000000000007
 73
     1
 72
     1
 10
0.0
 20
-3.000000000000008
 11
0.0
 21
0.0
 72
     1
 10
0.0
 20
0.0
 11
-3.00000000000001
 21
0.0
 97
        0
 75
     0
 76
     1
 98
        1
 10
0.0
 20
0.0
  0
ENDBLK
  5
12A
330
128
100
AcDbEntity
  8
0
100
AcDbBlockEnd
  0
BLOCK
  5
1E4
330
1E3
100
AcDbEntity
  8
0
100
AcDbBlockBegin
  2
*D7
 70
     1
 10
0.0
 20
0.0
 30
0.0
  3
*D7
  1
*D8
  0
LINE
  5
1E6
330
1E3
100
AcDbEntity
  8
치수문자_일반주서
 62
     0
370
    -2
100
AcDbLine
 10
85.6125
 20
12.16024999999995
 30
0.0
 11
99.95049357813399
 21
12.16025
 31
0.0
  0
LINE
  5
1E7
330
1E3
100
AcDbEntity
  8
치수문자_일반주서
 62
     0
370
    -2
100
AcDbLine
 10
85.61249999999995
 20
6.603999999999946
 30
0.0
 11
99.950493578134
 21
6.603999999999999
 31
0.0
  0
LINE
  5
1E8
330
1E3
100
AcDbEntity
  8
치수문자_일반주서
 62
     0
370
    -2
100
AcDbLine
 10
99.95049357813399
 20
12.16025
 30
0.0
 11
99.95049357813387
 21
52.67747903243341
 31
0.0
  0
LINE
  5
1E9
330
1E3
100
AcDbEntity
  8
치수문자_일반주서
 62
     0
370
    -2
100
AcDbLine
 10
99.95049357813399
 20
12.16025
 30
0.0
 11
99.950493578134
 21
6.603999999999999
 31
0.0
  0
LINE
  5
1EA
330
1E3
100
AcDbEntity
  8
치수문자_일반주서
 62
     0
370
    -2
100
AcDbLine
 10
99.95049357813397
 20
15.46225
 30
0.0
 11
99.95049357813396
 21
18.76425
 31
0.0
  0
LINE
  5
1EB
330
1E3
100
AcDbEntity
  8
치수문자_일반주서
 62
     0
370
    -2
100
AcDbLine
 10
99.95049357813402
 20
3.302
 30
0.0
 11
99.95049357813403
 21
0.0
 31
0.0
  0
SOLID
  5
1EC
330
1E3
100
AcDbEntity
  8
치수문자_일반주서
 62
     0
100
AcDbTrace
 10
99.40016024480065
 20
15.46225
 30
0.0
 11
100.5008269114673
 21
15.46225
 31
0.0
 12
99.95049357813399
 22
12.16025
 32
0.0
 13
99.95049357813399
 23
12.16025
 33
0.0
  0
SOLID
  5
1ED
330
1E3
100
AcDbEntity
  8
치수문자_일반주서
 62
     0
100
AcDbTrace
 10
100.5008269114673
 20
3.302000000000001
 30
0.0
 11
99.40016024480069
 21
3.301999999999998
 31
0.0
 12
99.950493578134
 22
6.603999999999999
 32
0.0
 13
99.950493578134
 23
6.603999999999999
 33
0.0
  0
MTEXT
  5
1EE
330
1E3
100
AcDbEntity
  8
치수문자_일반주서
 62
     0
100
AcDbMText
 10
95.57549357813392
 20
38.2399790324334
 30
0.0
 40
3.5
 41
0.0
 71
     2
 72
     1
  1
\A1;%%c5.56 [7/32]
  7
SLDTEXTSTYLE0
 11
-2.557634144468302E-15
 21
1.0
 31
0.0
 73
     1
 44
1.0
  0
POINT
  5
1EF
330
1E3
100
AcDbEntity
  8
Defpoints
 62
     0
100
AcDbPoint
 10
85.55
 20
12.16024999999995
 30
0.0
  0
POINT
  5
1F0
330
1E3
100
AcDbEntity
  8
Defpoints
 62
     0
100
AcDbPoint
 10
85.54999999999995
 20
6.603999999999946
 30
0.0
  0
POINT
  5
1F1
330
1E3
100
AcDbEntity
  8
Defpoints
 62
     0
100
AcDbPoint
 10
99.95049357813403
 20
6.604
 30
0.0
  0
ENDBLK
  5
1E5
330
1E3
100
AcDbEntity
  8
0
100
AcDbBlockEnd
  0
BLOCK
  5
1F3
330
1F2
100
AcDbEntity
  8
0
100
AcDbBlockBegin
  2
*D8
 70
     1
 10
0.0
 20
0.0
 30
0.0
  3
*D8
  1
*D9
  0
LINE
  5
1F5
330
1F2
100
AcDbEntity
  8
치수문자_일반주서
 62
     0
370
    -2
100
AcDbLine
 10
85.55
 20
12.22274999999995
 30
0.0
 11
85.55
 21
23.6653281504347
 31
0.0
  0
LINE
  5
1F6
330
1F2
100
AcDbEntity
  8
치수문자_일반주서
 62
     0
370
    -2
100
AcDbLine
 10
71.26250000000005
 20
12.21236795157438
 30
0.0
 11
71.26250000000005
 21
23.6653281504347
 31
0.0
  0
LINE
  5
1F7
330
1F2
100
AcDbEntity
  8
치수문자_일반주서
 62
     0
370
    -2
100
AcDbLine
 10
71.26250000000005
 20
23.6653281504347
 30
0.0
 11
37.53350000000005
 21
23.6653281504347
 31
0.0
  0
LINE
  5
1F8
330
1F2
100
AcDbEntity
  8
치수문자_일반주서
 62
     0
370
    -2
100
AcDbLine
 10
85.55
 20
23.6653281504347
 30
0.0
 11
71.26250000000005
 21
23.6653281504347
 31
0.0
  0
LINE
  5
1F9
330
1F2
100
AcDbEntity
  8
치수문자_일반주서
 62
     0
370
    -2
100
AcDbLine
 10
88.852
 20
23.6653281504347
 30
0.0
 11
92.154
 21
23.6653281504347
 31
0.0
  0
LINE
  5
1FA
330
1F2
100
AcDbEntity
  8
치수문자_일반주서
 62
     0
370
    -2
100
AcDbLine
 10
67.96050000000005
 20
23.6653281504347
 30
0.0
 11
64.65850000000006
 21
23.6653281504347
 31
0.0
  0
SOLID
  5
1FB
330
1F2
100
AcDbEntity
  8
치수문자_일반주서
 62
     0
100
AcDbTrace
 10
88.852
 20
24.21566148376803
 30
0.0
 11
88.852
 21
23.11499481710137
 31
0.0
 12
85.55
 22
23.6653281504347
 32
0.0
 13
85.55
 23
23.6653281504347
 33
0.0
  0
SOLID
  5
1FC
330
1F2
100
AcDbEntity
  8
치수문자_일반주서
 62
     0
100
AcDbTrace
 10
67.96050000000005
 20
23.11499481710137
 30
0.0
 11
67.96050000000005
 21
24.21566148376803
 31
0.0
 12
71.26250000000005
 22
23.6653281504347
 32
0.0
 13
71.26250000000005
 23
23.6653281504347
 33
0.0
  0
MTEXT
  5
1FD
330
1F2
100
AcDbEntity
  8
치수문자_일반주서
 62
     0
100
AcDbMText
 10
51.09600000000004
 20
28.0403281504347
 30
0.0
 40
3.5
 41
0.0
 71
     2
 72
     1
  1
\A1;14.29 [9/16]
  7
SLDTEXTSTYLE0
 73
     1
 44
1.0
  0
POINT
  5
1FE
330
1F2
100
AcDbEntity
  8
Defpoints
 62
     0
100
AcDbPoint
 10
85.55
 20
12.16024999999995
 30
0.0
  0
POINT
  5
1FF
330
1F2
100
AcDbEntity
  8
Defpoints
 62
     0
100
AcDbPoint
 10
71.26250000000005
 20
12.14986795157438
 30
0.0
  0
POINT
  5
200
330
1F2
100
AcDbEntity
  8
Defpoints
 62
     0
100
AcDbPoint
 10
71.26250000000005
 20
23.6653281504347
 30
0.0
  0
ENDBLK
  5
1F4
330
1F2
100
AcDbEntity
  8
0
100
AcDbBlockEnd
  0
BLOCK
  5
202
330
201
100
AcDbEntity
  8
0
100
AcDbBlockBegin
  2
*D9
 70
     1
 10
0.0
 20
0.0
 30
0.0
  3
*D9
  1
*D10
  0
LINE
  5
204
330
201
100
AcDbEntity
  8
치수문자_일반주서
 62
     0
370
    -2
100
AcDbLine
 10
85.55
 20
12.22274999999995
 30
0.0
 11
85.54999999999998
 21
36.00690241403007
 31
0.0
  0
LINE
  5
205
330
201
100
AcDbEntity
  8
치수문자_일반주서
 62
     0
370
    -2
100
AcDbLine
 10
3.000000000000007
 20
13.25462499999994
 30
0.0
 11
2.999999999999993
 21
36.00690241403007
 31
0.0
  0
LINE
  5
206
330
201
100
AcDbEntity
  8
치수문자_일반주서
 62
     0
370
    -2
100
AcDbLine
 10
82.24799999999999
 20
36.00690241403007
 30
0.0
 11
6.301999999999992
 21
36.00690241403007
 31
0.0
  0
SOLID
  5
207
330
201
100
AcDbEntity
  8
치수문자_일반주서
 62
     0
100
AcDbTrace
 10
82.24799999999999
 20
35.45656908069673
 30
0.0
 11
82.24799999999999
 21
36.5572357473634
 31
0.0
 12
85.54999999999998
 22
36.00690241403007
 32
0.0
 13
85.54999999999998
 23
36.00690241403007
 33
0.0
  0
SOLID
  5
208
330
201
100
AcDbEntity
  8
치수문자_일반주서
 62
     0
100
AcDbTrace
 10
6.301999999999992
 20
36.5572357473634
 30
0.0
 11
6.301999999999992
 21
35.45656908069673
 31
0.0
 12
2.999999999999993
 22
36.00690241403007
 32
0.0
 13
2.999999999999993
 23
36.00690241403007
 33
0.0
  0
MTEXT
  5
209
330
201
100
AcDbEntity
  8
치수문자_일반주서
 62
     0
100
AcDbMText
 10
42.87973557786248
 20
40.38190241403007
 30
0.0
 40
3.5
 41
0.0
 71
     2
 72
     1
  1
\A1;82.55 [3 1/4]
  7
SLDTEXTSTYLE0
 73
     1
 44
1.0
  0
POINT
  5
20A
330
201
100
AcDbEntity
  8
Defpoints
 62
     0
100
AcDbPoint
 10
85.55
 20
12.16024999999995
 30
0.0
  0
POINT
  5
20B
330
201
100
AcDbEntity
  8
Defpoints
 62
     0
100
AcDbPoint
 10
3.000000000000007
 20
13.19212499999994
 30
0.0
  0
POINT
  5
20C
330
201
100
AcDbEntity
  8
Defpoints
 62
     0
100
AcDbPoint
 10
3.000000000000007
 20
36.00690241403007
 30
0.0
  0
ENDBLK
  5
203
330
201
100
AcDbEntity
  8
0
100
AcDbBlockEnd
  0
BLOCK
  5
241
330
240
100
AcDbEntity
  8
0
100
AcDbBlockBegin
  2
*D10
 70
     1
 10
0.0
 20
0.0
 30
0.0
  3
*D10
  1
*D11
  0
LINE
  5
243
330
240
100
AcDbEntity
  8
치수문자_일반주서
 62
     0
370
    -2
100
AcDbLine
 10
178.1283719875851
 20
-46.77580930783073
 30
0.0
 11
192.4663655657191
 21
-46.77580930783067
 31
0.0
  0
LINE
  5
244
330
240
100
AcDbEntity
  8
치수문자_일반주서
 62
     0
370
    -2
100
AcDbLine
 10
178.128371987585
 20
-52.33205930783073
 30
0.0
 11
192.4663655657192
 21
-52.33205930783068
 31
0.0
  0
LINE
  5
245
330
240
100
AcDbEntity
  8
치수문자_일반주서
 62
     0
370
    -2
100
AcDbLine
 10
192.4663655657191
 20
-46.77580930783067
 30
0.0
 11
192.4663655657189
 21
-6.258580275397264
 31
0.0
  0
LINE
  5
246
330
240
100
AcDbEntity
  8
치수문자_일반주서
 62
     0
370
    -2
100
AcDbLine
 10
192.4663655657191
 20
-46.77580930783067
 30
0.0
 11
192.4663655657192
 21
-52.33205930783068
 31
0.0
  0
LINE
  5
247
330
240
100
AcDbEntity
  8
치수문자_일반주서
 62
     0
370
    -2
100
AcDbLine
 10
192.4663655657191
 20
-43.47380930783067
 30
0.0
 11
192.4663655657191
 21
-40.17180930783067
 31
0.0
  0
LINE
  5
248
330
240
100
AcDbEntity
  8
치수문자_일반주서
 62
     0
370
    -2
100
AcDbLine
 10
192.4663655657192
 20
-55.63405930783068
 30
0.0
 11
192.4663655657192
 21
-58.93605930783067
 31
0.0
  0
SOLID
  5
249
330
240
100
AcDbEntity
  8
치수문자_일반주서
 62
     0
100
AcDbTrace
 10
191.9160322323858
 20
-43.47380930783067
 30
0.0
 11
193.0166988990524
 21
-43.47380930783067
 31
0.0
 12
192.4663655657191
 22
-46.77580930783067
 32
0.0
 13
192.4663655657191
 23
-46.77580930783067
 33
0.0
  0
SOLID
  5
24A
330
240
100
AcDbEntity
  8
치수문자_일반주서
 62
     0
100
AcDbTrace
 10
193.0166988990525
 20
-55.63405930783068
 30
0.0
 11
191.9160322323859
 21
-55.63405930783068
 31
0.0
 12
192.4663655657192
 22
-52.33205930783068
 32
0.0
 13
192.4663655657192
 23
-52.33205930783068
 33
0.0
  0
MTEXT
  5
24B
330
240
100
AcDbEntity
  8
치수문자_일반주서
 62
     0
100
AcDbMText
 10
188.091365565719
 20
-20.69608027539729
 30
0.0
 40
3.5
 41
0.0
 71
     2
 72
     1
  1
\A1;%%c5.56 [7/32]
  7
SLDTEXTSTYLE0
 11
-5.115268288936599E-15
 21
1.0
 31
0.0
 73
     1
 44
1.0
  0
POINT
  5
24C
330
240
100
AcDbEntity
  8
Defpoints
 62
     0
100
AcDbPoint
 10
178.0658719875851
 20
-46.77580930783073
 30
0.0
  0
POINT
  5
24D
330
240
100
AcDbEntity
  8
Defpoints
 62
     0
100
AcDbPoint
 10
178.065871987585
 20
-52.33205930783073
 30
0.0
  0
POINT
  5
24E
330
240
100
AcDbEntity
  8
Defpoints
 62
     0
100
AcDbPoint
 10
192.4663655657191
 20
-52.33205930783068
 30
0.0
  0
ENDBLK
  5
242
330
240
100
AcDbEntity
  8
0
100
AcDbBlockEnd
  0
BLOCK
  5
250
330
24F
100
AcDbEntity
  8
0
100
AcDbBlockBegin
  2
*D11
 70
     1
 10
0.0
 20
0.0
 30
0.0
  3
*D11
  1
*D12
  0
LINE
  5
252
330
24F
100
AcDbEntity
  8
치수문자_일반주서
 62
     0
370
    -2
100
AcDbLine
 10
178.0658719875851
 20
-46.71330930783073
 30
0.0
 11
178.0658719875851
 21
-35.27073115739597
 31
0.0
  0
LINE
  5
253
330
24F
100
AcDbEntity
  8
치수문자_일반주서
 62
     0
370
    -2
100
AcDbLine
 10
163.7783719875851
 20
-46.72369135625629
 30
0.0
 11
163.7783719875851
 21
-35.27073115739597
 31
0.0
  0
LINE
  5
254
330
24F
100
AcDbEntity
  8
치수문자_일반주서
 62
     0
370
    -2
100
AcDbLine
 10
163.7783719875851
 20
-35.27073115739597
 30
0.0
 11
130.0493719875851
 21
-35.27073115739597
 31
0.0
  0
LINE
  5
255
330
24F
100
AcDbEntity
  8
치수문자_일반주서
 62
     0
370
    -2
100
AcDbLine
 10
178.0658719875851
 20
-35.27073115739597
 30
0.0
 11
163.7783719875851
 21
-35.27073115739597
 31
0.0
  0
LINE
  5
256
330
24F
100
AcDbEntity
  8
치수문자_일반주서
 62
     0
370
    -2
100
AcDbLine
 10
181.3678719875851
 20
-35.27073115739597
 30
0.0
 11
184.6698719875851
 21
-35.27073115739597
 31
0.0
  0
LINE
  5
257
330
24F
100
AcDbEntity
  8
치수문자_일반주서
 62
     0
370
    -2
100
AcDbLine
 10
160.4763719875851
 20
-35.27073115739597
 30
0.0
 11
157.1743719875851
 21
-35.27073115739597
 31
0.0
  0
SOLID
  5
258
330
24F
100
AcDbEntity
  8
치수문자_일반주서
 62
     0
100
AcDbTrace
 10
181.3678719875851
 20
-34.72039782406264
 30
0.0
 11
181.3678719875851
 21
-35.82106449072931
 31
0.0
 12
178.0658719875851
 22
-35.27073115739597
 32
0.0
 13
178.0658719875851
 23
-35.27073115739597
 33
0.0
  0
SOLID
  5
259
330
24F
100
AcDbEntity
  8
치수문자_일반주서
 62
     0
100
AcDbTrace
 10
160.4763719875851
 20
-35.82106449072931
 30
0.0
 11
160.4763719875851
 21
-34.72039782406264
 31
0.0
 12
163.7783719875851
 22
-35.27073115739597
 32
0.0
 13
163.7783719875851
 23
-35.27073115739597
 33
0.0
  0
MTEXT
  5
25A
330
24F
100
AcDbEntity
  8
치수문자_일반주서
 62
     0
100
AcDbMText
 10
143.6118719875851
 20
-30.89573115739597
 30
0.0
 40
3.5
 41
0.0
 71
     2
 72
     1
  1
\A1;14.29 [9/16]
  7
SLDTEXTSTYLE0
 73
     1
 44
1.0
  0
POINT
  5
25B
330
24F
100
AcDbEntity
  8
Defpoints
 62
     0
100
AcDbPoint
 10
178.0658719875851
 20
-46.77580930783073
 30
0.0
  0
POINT
  5
25C
330
24F
100
AcDbEntity
  8
Defpoints
 62
     0
100
AcDbPoint
 10
163.7783719875851
 20
-46.78619135625629
 30
0.0
  0
POINT
  5
25D
330
24F
100
AcDbEntity
  8
Defpoints
 62
     0
100
AcDbPoint
 10
163.7783719875851
 20
-35.27073115739597
 30
0.0
  0
ENDBLK
  5
251
330
24F
100
AcDbEntity
  8
0
100
AcDbBlockEnd
  0
BLOCK
  5
25F
330
25E
100
AcDbEntity
  8
0
100
AcDbBlockBegin
  2
*D12
 70
     1
 10
0.0
 20
0.0
 30
0.0
  3
*D12
  1
*D13
  0
LINE
  5
261
330
25E
100
AcDbEntity
  8
치수문자_일반주서
 62
     0
370
    -2
100
AcDbLine
 10
178.0658719875851
 20
-46.71330930783073
 30
0.0
 11
178.0658719875851
 21
-22.92915689380061
 31
0.0
  0
LINE
  5
262
330
25E
100
AcDbEntity
  8
치수문자_일반주서
 62
     0
370
    -2
100
AcDbLine
 10
95.51587198758509
 20
-45.68143430783073
 30
0.0
 11
95.51587198758509
 21
-22.92915689380061
 31
0.0
  0
LINE
  5
263
330
25E
100
AcDbEntity
  8
치수문자_일반주서
 62
     0
370
    -2
100
AcDbLine
 10
174.7638719875851
 20
-22.92915689380061
 30
0.0
 11
98.81787198758508
 21
-22.92915689380061
 31
0.0
  0
SOLID
  5
264
330
25E
100
AcDbEntity
  8
치수문자_일반주서
 62
     0
100
AcDbTrace
 10
174.7638719875851
 20
-23.47949022713394
 30
0.0
 11
174.7638719875851
 21
-22.37882356046727
 31
0.0
 12
178.0658719875851
 22
-22.92915689380061
 32
0.0
 13
178.0658719875851
 23
-22.92915689380061
 33
0.0
  0
SOLID
  5
265
330
25E
100
AcDbEntity
  8
치수문자_일반주서
 62
     0
100
AcDbTrace
 10
98.81787198758508
 20
-22.37882356046727
 30
0.0
 11
98.81787198758508
 21
-23.47949022713394
 31
0.0
 12
95.51587198758509
 22
-22.92915689380061
 32
0.0
 13
95.51587198758509
 23
-22.92915689380061
 33
0.0
  0
MTEXT
  5
266
330
25E
100
AcDbEntity
  8
치수문자_일반주서
 62
     0
100
AcDbMText
 10
135.3956075654476
 20
-18.55415689380061
 30
0.0
 40
3.5
 41
0.0
 71
     2
 72
     1
  1
\A1;82.55 [3 1/4]
  7
SLDTEXTSTYLE0
 73
     1
 44
1.0
  0
POINT
  5
267
330
25E
100
AcDbEntity
  8
Defpoints
 62
     0
100
AcDbPoint
 10
178.0658719875851
 20
-46.77580930783073
 30
0.0
  0
POINT
  5
268
330
25E
100
AcDbEntity
  8
Defpoints
 62
     0
100
AcDbPoint
 10
95.51587198758509
 20
-45.74393430783073
 30
0.0
  0
POINT
  5
269
330
25E
100
AcDbEntity
  8
Defpoints
 62
     0
100
AcDbPoint
 10
95.51587198758509
 20
-22.92915689380061
 30
0.0
  0
ENDBLK
  5
260
330
25E
100
AcDbEntity
  8
0
100
AcDbBlockEnd
  0
BLOCK
  5
2FE
330
2FD
100
AcDbEntity
  8
0
100
AcDbBlockBegin
  2
*D13
 70
     1
 10
0.0
 20
0.0
 30
0.0
  3
*D13
  1
*D15
  0
LINE
  5
300
330
2FD
100
AcDbEntity
  8
치수문자_일반주서
 62
     0
370
    -2
100
AcDbLine
 10
88.7875
 20
12.55712499999995
 30
0.0
 11
102.7369475596824
 21
12.557125
 31
0.0
  0
LINE
  5
301
330
2FD
100
AcDbEntity
  8
치수문자_일반주서
 62
     0
370
    -2
100
AcDbLine
 10
88.7875
 20
6.603999999999948
 30
0.0
 11
102.7369475596824
 21
6.603999999999999
 31
0.0
  0
LINE
  5
302
330
2FD
100
AcDbEntity
  8
치수문자_일반주서
 62
     0
370
    -2
100
AcDbLine
 10
102.7369475596824
 20
12.557125
 30
0.0
 11
102.7369475596823
 21
53.84344182046437
 31
0.0
  0
LINE
  5
303
330
2FD
100
AcDbEntity
  8
치수문자_일반주서
 62
     0
370
    -2
100
AcDbLine
 10
102.7369475596824
 20
12.557125
 30
0.0
 11
102.7369475596824
 21
6.603999999999999
 31
0.0
  0
LINE
  5
304
330
2FD
100
AcDbEntity
  8
치수문자_일반주서
 62
     0
370
    -2
100
AcDbLine
 10
102.7369475596824
 20
15.859125
 30
0.0
 11
102.7369475596824
 21
19.161125
 31
0.0
  0
LINE
  5
305
330
2FD
100
AcDbEntity
  8
치수문자_일반주서
 62
     0
370
    -2
100
AcDbLine
 10
102.7369475596824
 20
3.302
 30
0.0
 11
102.7369475596824
 21
0.0
 31
0.0
  0
SOLID
  5
306
330
2FD
100
AcDbEntity
  8
치수문자_일반주서
 62
     0
100
AcDbTrace
 10
102.1866142263491
 20
15.859125
 30
0.0
 11
103.2872808930157
 21
15.859125
 31
0.0
 12
102.7369475596824
 22
12.557125
 32
0.0
 13
102.7369475596824
 23
12.557125
 33
0.0
  0
SOLID
  5
307
330
2FD
100
AcDbEntity
  8
치수문자_일반주서
 62
     0
100
AcDbTrace
 10
103.2872808930158
 20
3.302000000000001
 30
0.0
 11
102.1866142263491
 21
3.301999999999998
 31
0.0
 12
102.7369475596824
 22
6.603999999999999
 32
0.0
 13
102.7369475596824
 23
6.603999999999999
 33
0.0
  0
MTEXT
  5
308
330
2FD
100
AcDbEntity
  8
치수문자_일반주서
 62
     0
100
AcDbMText
 10
98.36194755968233
 20
40.49969182046436
 30
0.0
 40
3.5
 41
0.0
 71
     2
 72
     1
  1
\A1;%%c5.95 [0.23]
  7
SLDTEXTSTYLE0
 11
-2.387125201503749E-15
 21
1.0
 31
0.0
 73
     1
 44
1.0
  0
POINT
  5
309
330
2FD
100
AcDbEntity
  8
Defpoints
 62
     0
100
AcDbPoint
 10
88.725
 20
12.55712499999995
 30
0.0
  0
POINT
  5
30A
330
2FD
100
AcDbEntity
  8
Defpoints
 62
     0
100
AcDbPoint
 10
88.725
 20
6.603999999999948
 30
0.0
  0
POINT
  5
30B
330
2FD
100
AcDbEntity
  8
Defpoints
 62
     0
100
AcDbPoint
 10
102.7369475596824
 20
6.604
 30
0.0
  0
ENDBLK
  5
2FF
330
2FD
100
AcDbEntity
  8
0
100
AcDbBlockEnd
  0
BLOCK
  5
30D
330
30C
100
AcDbEntity
  8
0
100
AcDbBlockBegin
  2
*D14
 70
     1
 10
0.0
 20
0.0
 30
0.0
  3
*D14
  1
*D16
  0
LINE
  5
30F
330
30C
100
AcDbEntity
  8
치수문자_일반주서
 62
     0
370
    -2
100
AcDbLine
 10
88.725
 20
12.61962499999995
 30
0.0
 11
88.725
 21
28.27001784234418
 31
0.0
  0
LINE
  5
310
330
30C
100
AcDbEntity
  8
치수문자_일반주서
 62
     0
370
    -2
100
AcDbLine
 10
72.84999999999997
 20
12.61882031402067
 30
0.0
 11
72.84999999999997
 21
28.27001784234418
 31
0.0
  0
LINE
  5
311
330
30C
100
AcDbEntity
  8
치수문자_일반주서
 62
     0
370
    -2
100
AcDbLine
 10
72.84999999999997
 20
28.27001784234418
 30
0.0
 11
40.43349999999997
 21
28.27001784234418
 31
0.0
  0
LINE
  5
312
330
30C
100
AcDbEntity
  8
치수문자_일반주서
 62
     0
370
    -2
100
AcDbLine
 10
88.725
 20
28.27001784234418
 30
0.0
 11
72.84999999999997
 21
28.27001784234418
 31
0.0
  0
LINE
  5
313
330
30C
100
AcDbEntity
  8
치수문자_일반주서
 62
     0
370
    -2
100
AcDbLine
 10
92.02699999999999
 20
28.27001784234418
 30
0.0
 11
95.32899999999998
 21
28.27001784234418
 31
0.0
  0
LINE
  5
314
330
30C
100
AcDbEntity
  8
치수문자_일반주서
 62
     0
370
    -2
100
AcDbLine
 10
69.54799999999997
 20
28.27001784234418
 30
0.0
 11
66.24599999999998
 21
28.27001784234418
 31
0.0
  0
SOLID
  5
315
330
30C
100
AcDbEntity
  8
치수문자_일반주서
 62
     0
100
AcDbTrace
 10
92.02699999999999
 20
28.82035117567752
 30
0.0
 11
92.02699999999999
 21
27.71968450901085
 31
0.0
 12
88.725
 22
28.27001784234418
 32
0.0
 13
88.725
 23
28.27001784234418
 33
0.0
  0
SOLID
  5
316
330
30C
100
AcDbEntity
  8
치수문자_일반주서
 62
     0
100
AcDbTrace
 10
69.54799999999997
 20
27.71968450901085
 30
0.0
 11
69.54799999999997
 21
28.82035117567752
 31
0.0
 12
72.84999999999997
 22
28.27001784234418
 32
0.0
 13
72.84999999999997
 23
28.27001784234418
 33
0.0
  0
MTEXT
  5
317
330
30C
100
AcDbEntity
  8
치수문자_일반주서
 62
     0
100
AcDbMText
 10
53.33974999999997
 20
32.64501784234418
 30
0.0
 40
3.5
 41
0.0
 71
     2
 72
     1
  1
\A1;15.88 [0.63]
  7
SLDTEXTSTYLE0
 73
     1
 44
1.0
  0
POINT
  5
318
330
30C
100
AcDbEntity
  8
Defpoints
 62
     0
100
AcDbPoint
 10
88.725
 20
12.55712499999995
 30
0.0
  0
POINT
  5
319
330
30C
100
AcDbEntity
  8
Defpoints
 62
     0
100
AcDbPoint
 10
72.84999999999997
 20
12.55632031402067
 30
0.0
  0
POINT
  5
31A
330
30C
100
AcDbEntity
  8
Defpoints
 62
     0
100
AcDbPoint
 10
72.84999999999997
 20
28.27001784234418
 30
0.0
  0
ENDBLK
  5
30E
330
30C
100
AcDbEntity
  8
0
100
AcDbBlockEnd
  0
BLOCK
  5
31C
330
31B
100
AcDbEntity
  8
0
100
AcDbBlockBegin
  2
*D15
 70
     1
 10
0.0
 20
0.0
 30
0.0
  3
*D15
  1
*D17
  0
LINE
  5
31E
330
31B
100
AcDbEntity
  8
치수문자_일반주서
 62
     0
370
    -2
100
AcDbLine
 10
88.725
 20
12.61962499999995
 30
0.0
 11
88.725
 21
38.32166414276391
 31
0.0
  0
LINE
  5
31F
330
31B
100
AcDbEntity
  8
치수문자_일반주서
 62
     0
370
    -2
100
AcDbLine
 10
3.000000000000007
 20
13.45306249999994
 30
0.0
 11
3.000000000000007
 21
38.32166414276391
 31
0.0
  0
LINE
  5
320
330
31B
100
AcDbEntity
  8
치수문자_일반주서
 62
     0
370
    -2
100
AcDbLine
 10
85.423
 20
38.32166414276391
 30
0.0
 11
6.302000000000007
 21
38.32166414276391
 31
0.0
  0
SOLID
  5
321
330
31B
100
AcDbEntity
  8
치수문자_일반주서
 62
     0
100
AcDbTrace
 10
85.423
 20
37.77133080943057
 30
0.0
 11
85.423
 21
38.87199747609724
 31
0.0
 12
88.725
 22
38.32166414276391
 32
0.0
 13
88.725
 23
38.32166414276391
 33
0.0
  0
SOLID
  5
322
330
31B
100
AcDbEntity
  8
치수문자_일반주서
 62
     0
100
AcDbTrace
 10
6.302000000000007
 20
38.87199747609724
 30
0.0
 11
6.302000000000007
 21
37.77133080943057
 31
0.0
 12
3.000000000000007
 22
38.32166414276391
 32
0.0
 13
3.000000000000007
 23
38.32166414276391
 33
0.0
  0
MTEXT
  5
323
330
31B
100
AcDbEntity
  8
치수문자_일반주서
 62
     0
100
AcDbMText
 10
46.75085189956336
 20
42.69666414276391
 30
0.0
 40
3.5
 41
0.0
 71
     2
 72
     1
  1
\A1;85.73 [3.38]
  7
SLDTEXTSTYLE0
 73
     1
 44
1.0
  0
POINT
  5
324
330
31B
100
AcDbEntity
  8
Defpoints
 62
     0
100
AcDbPoint
 10
88.725
 20
12.55712499999995
 30
0.0
  0
POINT
  5
325
330
31B
100
AcDbEntity
  8
Defpoints
 62
     0
100
AcDbPoint
 10
3.000000000000007
 20
13.39056249999994
 30
0.0
  0
POINT
  5
326
330
31B
100
AcDbEntity
  8
Defpoints
 62
     0
100
AcDbPoint
 10
3.000000000000007
 20
38.32166414276391
 30
0.0
  0
ENDBLK
  5
31D
330
31B
100
AcDbEntity
  8
0
100
AcDbBlockEnd
  0
BLOCK
  5
358
330
357
100
AcDbEntity
  8
0
100
AcDbBlockBegin
  2
*D16
 70
     1
 10
0.0
 20
0.0
 30
0.0
  3
*D16
  1
*D18
  0
LINE
  5
35A
330
357
100
AcDbEntity
  8
치수문자_일반주서
 62
     0
370
    -2
100
AcDbLine
 10
167.7605785993827
 20
-35.08877521500183
 30
0.0
 11
181.7100261590651
 21
-35.08877521500178
 31
0.0
  0
LINE
  5
35B
330
357
100
AcDbEntity
  8
치수문자_일반주서
 62
     0
370
    -2
100
AcDbLine
 10
167.7605785993827
 20
-41.04190021500182
 30
0.0
 11
181.7100261590652
 21
-41.04190021500177
 31
0.0
  0
LINE
  5
35C
330
357
100
AcDbEntity
  8
치수문자_일반주서
 62
     0
370
    -2
100
AcDbLine
 10
181.7100261590651
 20
-35.08877521500178
 30
0.0
 11
181.7100261590649
 21
6.197541605462597
 31
0.0
  0
LINE
  5
35D
330
357
100
AcDbEntity
  8
치수문자_일반주서
 62
     0
370
    -2
100
AcDbLine
 10
181.7100261590651
 20
-35.08877521500178
 30
0.0
 11
181.7100261590652
 21
-41.04190021500177
 31
0.0
  0
LINE
  5
35E
330
357
100
AcDbEntity
  8
치수문자_일반주서
 62
     0
370
    -2
100
AcDbLine
 10
181.7100261590651
 20
-31.78677521500178
 30
0.0
 11
181.7100261590651
 21
-28.48477521500178
 31
0.0
  0
LINE
  5
35F
330
357
100
AcDbEntity
  8
치수문자_일반주서
 62
     0
370
    -2
100
AcDbLine
 10
181.7100261590652
 20
-44.34390021500177
 30
0.0
 11
181.7100261590652
 21
-47.64590021500177
 31
0.0
  0
SOLID
  5
360
330
357
100
AcDbEntity
  8
치수문자_일반주서
 62
     0
100
AcDbTrace
 10
181.1596928257318
 20
-31.78677521500179
 30
0.0
 11
182.2603594923984
 21
-31.78677521500178
 31
0.0
 12
181.7100261590651
 22
-35.08877521500178
 32
0.0
 13
181.7100261590651
 23
-35.08877521500178
 33
0.0
  0
SOLID
  5
361
330
357
100
AcDbEntity
  8
치수문자_일반주서
 62
     0
100
AcDbTrace
 10
182.2603594923985
 20
-44.34390021500177
 30
0.0
 11
181.1596928257319
 21
-44.34390021500177
 31
0.0
 12
181.7100261590652
 22
-41.04190021500177
 32
0.0
 13
181.7100261590652
 23
-41.04190021500177
 33
0.0
  0
MTEXT
  5
362
330
357
100
AcDbEntity
  8
치수문자_일반주서
 62
     0
100
AcDbMText
 10
177.335026159065
 20
-7.146208394537425
 30
0.0
 40
3.5
 41
0.0
 71
     2
 72
     1
  1
\A1;%%c5.95 [0.23]
  7
SLDTEXTSTYLE0
 11
-4.774250403007503E-15
 21
1.0
 31
0.0
 73
     1
 44
1.0
  0
POINT
  5
363
330
357
100
AcDbEntity
  8
Defpoints
 62
     0
100
AcDbPoint
 10
167.6980785993827
 20
-35.08877521500183
 30
0.0
  0
POINT
  5
364
330
357
100
AcDbEntity
  8
Defpoints
 62
     0
100
AcDbPoint
 10
167.6980785993827
 20
-41.04190021500182
 30
0.0
  0
POINT
  5
365
330
357
100
AcDbEntity
  8
Defpoints
 62
     0
100
AcDbPoint
 10
181.7100261590651
 20
-41.04190021500177
 30
0.0
  0
ENDBLK
  5
359
330
357
100
AcDbEntity
  8
0
100
AcDbBlockEnd
  0
BLOCK
  5
367
330
366
100
AcDbEntity
  8
0
100
AcDbBlockBegin
  2
*D17
 70
     1
 10
0.0
 20
0.0
 30
0.0
  3
*D17
  1
*D19
  0
LINE
  5
369
330
366
100
AcDbEntity
  8
치수문자_일반주서
 62
     0
370
    -2
100
AcDbLine
 10
167.6980785993827
 20
-35.02627521500183
 30
0.0
 11
167.6980785993827
 21
-19.37588237265759
 31
0.0
  0
LINE
  5
36A
330
366
100
AcDbEntity
  8
치수문자_일반주서
 62
     0
370
    -2
100
AcDbLine
 10
151.8230785993826
 20
-35.02707990098111
 30
0.0
 11
151.8230785993826
 21
-19.37588237265759
 31
0.0
  0
LINE
  5
36B
330
366
100
AcDbEntity
  8
치수문자_일반주서
 62
     0
370
    -2
100
AcDbLine
 10
151.8230785993826
 20
-19.37588237265759
 30
0.0
 11
119.4065785993826
 21
-19.37588237265759
 31
0.0
  0
LINE
  5
36C
330
366
100
AcDbEntity
  8
치수문자_일반주서
 62
     0
370
    -2
100
AcDbLine
 10
167.6980785993827
 20
-19.37588237265759
 30
0.0
 11
151.8230785993826
 21
-19.37588237265759
 31
0.0
  0
LINE
  5
36D
330
366
100
AcDbEntity
  8
치수문자_일반주서
 62
     0
370
    -2
100
AcDbLine
 10
171.0000785993826
 20
-19.37588237265759
 30
0.0
 11
174.3020785993826
 21
-19.37588237265759
 31
0.0
  0
LINE
  5
36E
330
366
100
AcDbEntity
  8
치수문자_일반주서
 62
     0
370
    -2
100
AcDbLine
 10
148.5210785993826
 20
-19.37588237265759
 30
0.0
 11
145.2190785993826
 21
-19.37588237265759
 31
0.0
  0
SOLID
  5
36F
330
366
100
AcDbEntity
  8
치수문자_일반주서
 62
     0
100
AcDbTrace
 10
171.0000785993826
 20
-18.82554903932426
 30
0.0
 11
171.0000785993826
 21
-19.92621570599093
 31
0.0
 12
167.6980785993827
 22
-19.37588237265759
 32
0.0
 13
167.6980785993827
 23
-19.37588237265759
 33
0.0
  0
SOLID
  5
370
330
366
100
AcDbEntity
  8
치수문자_일반주서
 62
     0
100
AcDbTrace
 10
148.5210785993826
 20
-19.92621570599093
 30
0.0
 11
148.5210785993826
 21
-18.82554903932426
 31
0.0
 12
151.8230785993826
 22
-19.37588237265759
 32
0.0
 13
151.8230785993826
 23
-19.37588237265759
 33
0.0
  0
MTEXT
  5
371
330
366
100
AcDbEntity
  8
치수문자_일반주서
 62
     0
100
AcDbMText
 10
132.3128285993826
 20
-15.00088237265759
 30
0.0
 40
3.5
 41
0.0
 71
     2
 72
     1
  1
\A1;15.88 [0.63]
  7
SLDTEXTSTYLE0
 73
     1
 44
1.0
  0
POINT
  5
372
330
366
100
AcDbEntity
  8
Defpoints
 62
     0
100
AcDbPoint
 10
167.6980785993827
 20
-35.08877521500183
 30
0.0
  0
POINT
  5
373
330
366
100
AcDbEntity
  8
Defpoints
 62
     0
100
AcDbPoint
 10
151.8230785993826
 20
-35.08957990098111
 30
0.0
  0
POINT
  5
374
330
366
100
AcDbEntity
  8
Defpoints
 62
     0
100
AcDbPoint
 10
151.8230785993826
 20
-19.37588237265759
 30
0.0
  0
ENDBLK
  5
368
330
366
100
AcDbEntity
  8
0
100
AcDbBlockEnd
  0
BLOCK
  5
376
330
375
100
AcDbEntity
  8
0
100
AcDbBlockBegin
  2
*D18
 70
     1
 10
0.0
 20
0.0
 30
0.0
  3
*D18
  1
*D20
  0
LINE
  5
378
330
375
100
AcDbEntity
  8
치수문자_일반주서
 62
     0
370
    -2
100
AcDbLine
 10
167.6980785993827
 20
-35.02627521500183
 30
0.0
 11
167.6980785993827
 21
-9.324236072237866
 31
0.0
  0
LINE
  5
379
330
375
100
AcDbEntity
  8
치수문자_일반주서
 62
     0
370
    -2
100
AcDbLine
 10
81.97307859938266
 20
-34.19283771500183
 30
0.0
 11
81.97307859938266
 21
-9.324236072237866
 31
0.0
  0
LINE
  5
37A
330
375
100
AcDbEntity
  8
치수문자_일반주서
 62
     0
370
    -2
100
AcDbLine
 10
164.3960785993827
 20
-9.324236072237866
 30
0.0
 11
85.27507859938265
 21
-9.324236072237866
 31
0.0
  0
SOLID
  5
37B
330
375
100
AcDbEntity
  8
치수문자_일반주서
 62
     0
100
AcDbTrace
 10
164.3960785993827
 20
-9.874569405571199
 30
0.0
 11
164.3960785993827
 21
-8.773902738904534
 31
0.0
 12
167.6980785993827
 22
-9.324236072237866
 32
0.0
 13
167.6980785993827
 23
-9.324236072237866
 33
0.0
  0
SOLID
  5
37C
330
375
100
AcDbEntity
  8
치수문자_일반주서
 62
     0
100
AcDbTrace
 10
85.27507859938265
 20
-8.773902738904534
 30
0.0
 11
85.27507859938265
 21
-9.874569405571199
 31
0.0
 12
81.97307859938266
 22
-9.324236072237866
 32
0.0
 13
81.97307859938266
 23
-9.324236072237866
 33
0.0
  0
MTEXT
  5
37D
330
375
100
AcDbEntity
  8
치수문자_일반주서
 62
     0
100
AcDbMText
 10
125.723930498946
 20
-4.949236072237866
 30
0.0
 40
3.5
 41
0.0
 71
     2
 72
     1
  1
\A1;85.73 [3.38]
  7
SLDTEXTSTYLE0
 73
     1
 44
1.0
  0
POINT
  5
37E
330
375
100
AcDbEntity
  8
Defpoints
 62
     0
100
AcDbPoint
 10
167.6980785993827
 20
-35.08877521500183
 30
0.0
  0
POINT
  5
37F
330
375
100
AcDbEntity
  8
Defpoints
 62
     0
100
AcDbPoint
 10
81.97307859938266
 20
-34.25533771500183
 30
0.0
  0
POINT
  5
380
330
375
100
AcDbEntity
  8
Defpoints
 62
     0
100
AcDbPoint
 10
81.97307859938266
 20
-9.324236072237866
 30
0.0
  0
ENDBLK
  5
377
330
375
100
AcDbEntity
  8
0
100
AcDbBlockEnd
  0
ENDSEC
  0
SECTION
  2
ENTITIES
  0
LINE
  5
96
330
1F
100
AcDbEntity
  8
0
  6
Continuous
 62
     1
370
    15
100
AcDbLine
 10
35.20610637784099
 20
-2.976562500000002
 30
0.0
 11
37.02282428315518
 21
-2.976562500000002
 31
0.0
  0
LINE
  5
97
330
1F
100
AcDbEntity
  8
0
  6
Continuous
 62
     1
370
    15
100
AcDbLine
 10
28.92240740168197
 20
2.976562499999999
 30
0.0
 11
27.10682963338543
 21
2.976562499999999
 31
0.0
  0
LINE
  5
98
330
1F
100
AcDbEntity
  8
0
  6
Continuous
 62
     1
370
    15
100
AcDbLine
 10
37.02282428315518
 20
2.976562499999999
 30
0.0
 11
35.20610637784103
 21
2.976562499999999
 31
0.0
  0
LINE
  5
99
330
1F
100
AcDbEntity
  8
0
  6
Continuous
 62
     1
370
    15
100
AcDbLine
 10
27.10682963338542
 20
-2.976562500000002
 30
0.0
 11
28.92240740168194
 21
-2.976562500000002
 31
0.0
  0
LINE
  5
9A
330
1F
100
AcDbEntity
  8
외형선
  6
Continuous
370
    15
100
AcDbLine
 10
19.32229051085745
 20
-4.76250000000001
 30
0.0
 11
25.9875
 21
-2.976562500000001
 31
0.0
  0
LINE
  5
9B
330
1F
100
AcDbEntity
  8
외형선
  6
Continuous
370
    15
100
AcDbLine
 10
25.9875
 20
2.976562499999998
 30
0.0
 11
19.32229051085745
 21
4.762500000000006
 31
0.0
  0
LINE
  5
9C
330
1F
100
AcDbEntity
  8
외형선
  6
Continuous
370
    15
100
AcDbLine
 10
-19.32229051085746
 20
-4.762500000000006
 30
0.0
 11
19.32229051085745
 21
-4.762500000000006
 31
0.0
  0
LINE
  5
9D
330
1F
100
AcDbEntity
  8
외형선
  6
Continuous
370
    15
100
AcDbLine
 10
19.32229051085745
 20
4.762500000000002
 30
0.0
 11
4.838700000000017
 21
4.762500000000002
 31
0.0
  0
LINE
  5
A0
330
1F
100
AcDbEntity
  8
외형선
  6
Continuous
370
    15
100
AcDbLine
 10
25.9875
 20
-2.976562500000001
 30
0.0
 11
26.48763203953559
 21
-2.976562500000001
 31
0.0
  0
LINE
  5
A1
330
1F
100
AcDbEntity
  8
외형선
  6
Continuous
370
    15
100
AcDbLine
 10
26.48763203953559
 20
2.976562499999998
 30
0.0
 11
25.9875
 21
2.976562499999998
 31
0.0
  0
SPLINE
  5
A2
330
1F
100
AcDbEntity
  8
0
  6
Continuous
 62
     1
370
    15
100
AcDbSpline
210
0.0
220
0.0
230
1.0
 70
     8
 71
     3
 72
    18
 73
    14
 74
     0
 42
0.000000001
 43
0.00000001
 40
0.0
 40
0.0
 40
0.0
 40
0.0
 40
0.0963675051634153
 40
0.1927448419704409
 40
0.2891338008937853
 40
0.385536159194804
 40
0.4819397553206568
 40
0.5783298255868055
 40
0.6747081163129567
 40
0.7806926516302992
 40
0.8866733254528655
 40
0.9926497691609536
 40
1.0
 40
1.0
 40
1.0
 40
1.0
 10
26.98750000000002
 20
1.091005204689906
 30
0.0
 10
27.4108042291849
 20
0.8572184134456486
 30
0.0
 10
28.25745587406559
 20
0.3896209794689333
 30
0.0
 10
29.52753823443465
 20
-0.3529355591586842
 30
0.0
 10
30.79779997899244
 20
-1.069489799884709
 30
0.0
 10
32.06822310581421
 20
-1.722748455235725
 30
0.0
 10
33.33865197283243
 20
-2.271567647382518
 30
0.0
 10
34.60894515575189
 20
-2.683636042079169
 30
0.0
 10
35.92122872965505
 20
-2.940790935983111
 30
0.0
 10
37.27588688226944
 20
-3.012661290073278
 30
0.0
 10
38.67262718025525
 20
-2.848533201301677
 30
0.0
 10
39.63607030447996
 20
-2.639112117124336
 30
0.0
 10
40.13391999219036
 20
-2.446904564700477
 30
0.0
 10
40.1662099198922
 20
-2.434438215670392
 30
0.0
  0
SPLINE
  5
A3
330
1F
100
AcDbEntity
  8
외형선
  6
Continuous
370
    15
100
AcDbSpline
210
0.0
220
0.0
230
1.0
 70
    24
 71
     3
 72
    14
 73
    10
 74
     0
 42
0.000000001
 43
0.00000001
 40
0.0
 40
0.0
 40
0.0
 40
0.0
 40
0.1526334011608561
 40
0.3100016299195067
 40
0.4578346325320867
 40
0.6099548022353498
 40
0.7577878048479246
 40
0.9099079745511826
 40
1.0
 40
1.0
 40
1.0
 40
1.0
 10
26.98749999999998
 20
2.975757814020726
 30
0.0
 10
26.98749999999999
 20
2.87616825021921
 30
0.0
 10
26.98750000000002
 20
2.67389976333077
 30
0.0
 10
26.9875
 20
2.365273826465682
 30
0.0
 10
26.98750000000011
 20
2.06182058253575
 30
0.0
 10
26.98749999999998
 20
1.775653759122161
 30
0.0
 10
26.98750000000002
 20
1.508640985370126
 30
0.0
 10
26.98750000000003
 20
1.296806799890621
 30
0.0
 10
26.9875
 20
1.189969199659426
 30
0.0
 10
26.98749999999999
 20
1.150230425181634
 30
0.0
  0
SPLINE
  5
A4
330
1F
100
AcDbEntity
  8
0
  6
Continuous
 62
     1
370
    15
100
AcDbSpline
210
0.0
220
0.0
230
1.0
 70
     8
 71
     3
 72
    46
 73
    42
 74
     0
 42
0.000000001
 43
0.00000001
 40
0.0
 40
0.0
 40
0.0
 40
0.0
 40
0.062500000000003
 40
0.062500000000003
 40
0.1250000000000059
 40
0.1250000000000059
 40
0.1562500000000084
 40
0.1562500000000084
 40
0.1875000000000109
 40
0.1875000000000109
 40
0.2500000000000158
 40
0.2500000000000158
 40
0.3125000000000208
 40
0.3125000000000208
 40
0.3750000000000257
 40
0.3750000000000257
 40
0.4062500000000272
 40
0.4062500000000272
 40
0.4375000000000287
 40
0.4375000000000287
 40
0.5000000000000296
 40
0.5000000000000296
 40
0.5312500000000291
 40
0.5312500000000291
 40
0.5625000000000286
 40
0.5625000000000286
 40
0.6250000000000256
 40
0.6250000000000256
 40
0.6875000000000228
 40
0.6875000000000228
 40
0.7500000000000199
 40
0.7500000000000199
 40
0.7812500000000173
 40
0.7812500000000173
 40
0.8125000000000149
 40
0.8125000000000149
 40
0.8750000000000099
 40
0.8750000000000099
 40
0.937500000000005
 40
0.937500000000005
 40
1.0
 40
1.0
 40
1.0
 40
1.0
 10
42.86250000000001
 20
-2.976562499999994
 30
0.0
 10
42.53462297896174
 20
-2.94930371605482
 30
0.0
 10
42.20050298953671
 20
-2.914519722837805
 30
0.0
 10
41.53813804322549
 20
-2.809565348038069
 30
0.0
 10
41.21054680211063
 20
-2.739637478432438
 30
0.0
 10
40.71237931620013
 20
-2.609581405342049
 30
0.0
 10
40.54623086443627
 20
-2.562107071476455
 30
0.0
 10
40.21604937927115
 20
-2.45961863155171
 30
0.0
 10
40.05257827298549
 20
-2.404686556659216
 30
0.0
 10
39.55661483704021
 20
-2.228417458948674
 30
0.0
 10
39.22228017196286
 20
-2.09586488541369
 30
0.0
 10
38.56462562656709
 20
-1.808122303862692
 30
0.0
 10
38.23261662685696
 20
-1.651721889019015
 30
0.0
 10
37.56941374463263
 20
-1.32055877243796
 30
0.0
 10
37.24227980987451
 20
-1.146560081572566
 30
0.0
 10
36.74429585439542
 20
-0.8753026896531421
 30
0.0
 10
36.57801988398452
 20
-0.7833355596421676
 30
0.0
 10
36.24721183599339
 20
-0.5975909220576885
 30
0.0
 10
36.08367902536249
 20
-0.50400720423023
 30
0.0
 10
35.5887066944638
 20
-0.2205374924917297
 30
0.0
 10
35.2542824177666
 20
-0.0281747713342018
 30
0.0
 10
34.75979364856845
 20
0.2574978962243732
 30
0.0
 10
34.59609993236842
 20
0.3522552473697989
 30
0.0
 10
34.26505862472934
 20
0.5410904205821725
 30
0.0
 10
34.0987465799048
 20
0.6349668793702832
 30
0.0
 10
33.6008985578264
 20
0.9130108973279465
 30
0.0
 10
33.27384584769118
 20
1.092984082607086
 30
0.0
 10
32.61035635444586
 20
1.438952809763997
 30
0.0
 10
32.27914459576412
 20
1.603973919116198
 30
0.0
 10
31.62074245766636
 20
1.911672197858399
 30
0.0
 10
31.28635374608026
 20
2.055403450258597
 30
0.0
 10
30.79079615022052
 20
2.249823668495291
 30
0.0
 10
30.6273516888742
 20
2.311047162007474
 30
0.0
 10
30.29688488682439
 20
2.426633182877325
 30
0.0
 10
30.13067384321392
 20
2.480878145416919
 30
0.0
 10
29.63256309902108
 20
2.631784953177559
 30
0.0
 10
29.30521543228869
 20
2.716289343458012
 30
0.0
 10
28.64245885984922
 20
2.851530100982471
 30
0.0
 10
28.30929564325515
 20
2.901932537284463
 30
0.0
 10
27.65269207226074
 20
2.966107892578531
 30
0.0
 10
27.31846405778445
 20
2.980198359542826
 30
0.0
 10
26.98750000000005
 20
2.975757814020527
 30
0.0
  0
LINE
  5
A5
330
1F
100
AcDbEntity
  8
0
  6
Continuous
 62
     1
370
    15
100
AcDbLine
 10
42.8625
 20
-2.695817141144058
 30
0.0
 11
42.8625
 21
0.2550358911440909
 31
0.0
  0
SPLINE
  5
A6
330
1F
100
AcDbEntity
  8
0
  6
Continuous
 62
     1
370
    15
100
AcDbSpline
210
0.0
220
0.0
230
1.0
 70
     8
 71
     3
 72
    18
 73
    14
 74
     0
 42
0.000000001
 43
0.00000001
 40
0.0
 40
0.0
 40
0.0
 40
0.0
 40
0.0434085167494975
 40
0.13453411349547
 40
0.22567237794011
 40
0.316811812617606
 40
0.4079384600210129
 40
0.4990539711114652
 40
0.5992511735142643
 40
0.6994447252809343
 40
0.7996342779204175
 40
0.8998194845437841
 40
1.0
 40
1.0
 40
1.0
 40
1.0
 10
28.92240740168197
 20
2.954064816148913
 30
0.0
 10
29.12410150962063
 20
2.958742816708777
 30
0.0
 10
29.74920321870169
 20
2.973241138821106
 30
0.0
 10
30.79780097380568
 20
2.8039708297282
 30
0.0
 10
32.06822283801993
 20
2.466061845839582
 30
0.0
 10
33.33865204910797
 20
1.969497471297733
 30
0.0
 10
34.60894511841247
 20
1.356618521534053
 30
0.0
 10
35.92122880641173
 20
0.6380357228751105
 30
0.0
 10
37.27588658581721
 20
-0.1481420066821089
 30
0.0
 10
38.672628277619
 20
-0.9490118349476464
 30
0.0
 10
40.06932263643847
 20
-1.676846005045301
 30
0.0
 10
41.46594005227752
 20
-2.296450386229105
 30
0.0
 10
42.39698728363577
 20
-2.562696967384801
 30
0.0
 10
42.86250000000003
 20
-2.695817141144058
 30
0.0
  0
SPLINE
  5
A7
330
1F
100
AcDbEntity
  8
0
  6
Continuous
 62
     1
370
    15
100
AcDbSpline
210
0.0
220
0.0
230
1.0
 70
     8
 71
     3
 72
    16
 73
    12
 74
     0
 42
0.000000001
 43
0.00000001
 40
0.0
 40
0.0
 40
0.0
 40
0.0
 40
0.1179613768269736
 40
0.2359062622427624
 40
0.3538368301843454
 40
0.4717552708619789
 40
0.5896637883054868
 40
0.7075645978770009
 40
0.8254599237561563
 40
0.9551656425605115
 40
1.0
 40
1.0
 40
1.0
 40
1.0
 10
42.86250000000002
 20
0.255035891144091
 30
0.0
 10
42.43900444028665
 20
0.4970612642689824
 30
0.0
 10
41.59207252701361
 20
0.9810781745289456
 30
0.0
 10
40.32180165457773
 20
1.643785584799208
 30
0.0
 10
39.05171341568962
 20
2.208264699476518
 30
0.0
 10
37.78178040120116
 20
2.639312803312108
 30
0.0
 10
36.51198356004113
 20
2.910360520476429
 30
0.0
 10
35.24225579451694
 20
3.00847546813567
 30
0.0
 10
33.93030851744734
 20
2.911534516158305
 30
0.0
 10
32.88026552406406
 20
2.714716963459928
 30
0.0
 10
32.25360646893951
 20
2.488356890479084
 30
0.0
 10
32.09263566684762
 20
2.430211456831664
 30
0.0
  0
SPLINE
  5
A8
330
1F
100
AcDbEntity
  8
0
  6
Continuous
 62
     1
370
    15
100
AcDbSpline
210
0.0
220
0.0
230
1.0
 70
     8
 71
     3
 72
    12
 73
     8
 74
     0
 42
0.000000001
 43
0.00000001
 40
0.0
 40
0.0
 40
0.0
 40
0.0
 40
0.2487616163013925
 40
0.497548611858486
 40
0.7463656085703877
 40
0.9952171942325945
 40
1.0
 40
1.0
 40
1.0
 40
1.0
 10
26.98750000000005
 20
-2.769410038211353
 30
0.0
 10
27.41080421334885
 20
-2.842506964872493
 30
0.0
 10
28.2574558265558
 20
-2.988708275718246
 30
0.0
 10
29.52753842450611
 20
-2.986858032821339
 30
0.0
 10
30.79779926608904
 20
-2.800327473314519
 30
0.0
 10
31.65286635525456
 20
-2.600083023917496
 30
0.0
 10
32.08449638191367
 20
-2.433355453127537
 30
0.0
 10
32.09263566684759
 20
-2.430211456831668
 30
0.0
  0
SPLINE
  5
A9
330
1F
100
AcDbEntity
  8
외형선
  6
Continuous
370
    15
100
AcDbSpline
210
0.0
220
0.0
230
1.0
 70
    24
 71
     3
 72
    21
 73
    17
 74
     0
 42
0.000000001
 43
0.00000001
 40
0.0
 40
0.0
 40
0.0
 40
0.0
 40
0.0042036528780549
 40
0.0800325592024448
 40
0.1580605089472573
 40
0.2338894152716448
 40
0.3119173650164542
 40
0.3877462713409072
 40
0.4657742210856559
 40
0.5416031274100007
 40
0.6196310771547637
 40
0.6954599834791949
 40
0.7734879332240523
 40
0.8493168395482568
 40
0.9273447892932553
 40
1.0
 40
1.0
 40
1.0
 40
1.0
 10
26.98750000000003
 20
0.135085328567956
 30
0.0
 10
26.98750000000003
 20
0.1352242786247446
 30
0.0
 10
26.98749999999985
 20
0.1378697227108087
 30
0.0
 10
26.98750000000007
 20
0.0947909513316165
 30
0.0
 10
26.9875
 20
0.0051821332725508
 30
0.0
 10
26.9875
 20
-0.1384234929516753
 30
0.0
 10
26.98750000000002
 20
-0.321752943456186
 30
0.0
 10
26.98749999999999
 20
-0.5449630415336507
 30
0.0
 10
26.98749999999988
 20
-0.797172251951938
 30
0.0
 10
26.98750000000006
 20
-1.075924129706467
 30
0.0
 10
26.98749999999998
 20
-1.368286890665702
 30
0.0
 10
26.98749999999998
 20
-1.671203251698233
 30
0.0
 10
26.9875000000001
 20
-1.970847555207198
 30
0.0
 10
26.98749999999998
 20
-2.263372532574513
 30
0.0
 10
26.9875
 20
-2.534267417452363
 30
0.0
 10
26.98750000000002
 20
-2.692914733939353
 30
0.0
 10
26.98750000000002
 20
-2.769410038211347
 30
0.0
  0
SPLINE
  5
AA
330
1F
100
AcDbEntity
  8
0
  6
Continuous
 62
     1
370
    15
100
AcDbSpline
210
0.0
220
0.0
230
1.0
 70
     8
 71
     3
 72
    13
 73
     9
 74
     0
 42
0.000000001
 43
0.00000001
 40
0.0
 40
0.0
 40
0.0
 40
0.0
 40
0.1501067622953544
 40
0.3200908040075601
 40
0.4900727514389414
 40
0.6600520012155359
 40
0.8300279510532201
 40
0.9999999999999999
 40
0.9999999999999999
 40
0.9999999999999999
 40
0.9999999999999999
 10
35.206106377841
 20
-2.974076513466501
 30
0.0
 10
34.79496793659049
 20
-2.958500754167526
 30
0.0
 10
33.91824771289164
 20
-2.925286678793444
 30
0.0
 10
32.57553655923898
 20
-2.626764391883772
 30
0.0
 10
31.17850528326868
 20
-2.140339217500154
 30
0.0
 10
29.78146766592473
 20
-1.493570147342374
 30
0.0
 10
28.38447087865094
 20
-0.7385954205703932
 30
0.0
 10
27.4531533972723
 20
-0.2000577400306473
 30
0.0
 10
26.98750000000006
 20
0.0692080103890908
 30
0.0
  0
LINE
  5
AB
330
1F
100
AcDbEntity
  8
외형선
  6
Continuous
370
    15
100
AcDbLine
 10
26.98749999999998
 20
0.0692080103890466
 30
0.0
 11
26.9875
 21
1.091005204689913
 31
0.0
  0
LINE
  5
AC
330
1F
100
AcDbEntity
  8
0
  6
Continuous
 62
     1
370
    15
100
AcDbLine
 10
42.8625
 20
-2.976562499999994
 30
0.0
 11
42.8625
 21
-2.695817141144058
 31
0.0
  0
SPLINE
  5
AD
330
1F
100
AcDbEntity
  8
0
  6
Continuous
 62
     1
370
    15
100
AcDbSpline
210
0.0
220
0.0
230
1.0
 70
     8
 71
     3
 72
    12
 73
     8
 74
     0
 42
0.000000001
 43
0.00000001
 40
0.0
 40
0.0
 40
0.0
 40
0.0
 40
0.043334673495746
 40
0.2825161522165421
 40
0.5216880842435918
 40
0.7608496414856114
 40
1.0
 40
1.0
 40
1.0
 40
1.0
 10
37.02282428315518
 20
2.960409093595353
 30
0.0
 10
37.10717941090284
 20
2.965489554116593
 30
0.0
 10
37.65712439002774
 20
2.998611118032142
 30
0.0
 10
38.67263103021171
 20
2.848144305093501
 30
0.0
 10
40.06932190246051
 20
2.504057830529952
 30
0.0
 10
41.46594023575866
 20
1.964585768794052
 30
0.0
 10
42.39698734479518
 20
1.496152047991904
 30
0.0
 10
42.86250000000002
 20
1.261940671315445
 30
0.0
  0
LINE
  5
AE
330
1F
100
AcDbEntity
  8
0
  6
Continuous
 62
     1
370
    15
100
AcDbLine
 10
42.8625
 20
0.2550358911440914
 30
0.0
 11
42.8625
 21
1.261940671315445
 31
0.0
  0
SPLINE
  5
AF
330
1F
100
AcDbEntity
  8
0
  6
Continuous
 62
     1
370
    15
100
AcDbSpline
210
0.0
220
0.0
230
1.0
 70
     8
 71
     3
 72
    10
 73
     6
 74
     0
 42
0.000000001
 43
0.00000001
 40
0.0
 40
0.0
 40
0.0
 40
0.0
 40
0.4711876207820426
 40
0.9423093678941724
 40
1.0
 40
1.0
 40
1.0
 40
1.0
 10
42.86250000000001
 20
2.976562500000005
 30
0.0
 10
42.43900496034938
 20
2.924686854936947
 30
0.0
 10
41.59207408712906
 20
2.842833359220624
 30
0.0
 10
40.69331782083115
 20
2.633112278034721
 30
0.0
 10
40.21805822656076
 20
2.453980540295392
 30
0.0
 10
40.16620991989223
 20
2.434438215670389
 30
0.0
  0
LINE
  5
B0
330
1F
100
AcDbEntity
  8
외형선
  6
Continuous
370
    15
100
AcDbLine
 10
27.10682963338542
 20
-2.968066134809882
 30
0.0
 11
26.98750000000003
 21
-2.97575781402053
 31
0.0
  0
LINE
  5
B1
330
1F
100
AcDbEntity
  8
0
  6
Continuous
 62
     1
370
    15
100
AcDbLine
 10
42.8625
 20
1.257413839865744
 30
0.0
 11
42.8625
 21
2.976562500000005
 31
0.0
  0
LINE
  5
B2
330
1F
100
AcDbEntity
  8
외형선
  6
Continuous
370
    15
100
AcDbLine
 10
26.98749999999998
 20
-2.975757814020729
 30
0.0
 11
26.98750000000002
 21
-2.769410038211347
 31
0.0
  0
LINE
  5
B3
330
1F
100
AcDbEntity
  8
외형선
  6
Continuous
370
    15
100
AcDbLine
 10
25.9875
 20
-0.0000000000000017
 30
0.0
 11
25.9875
 21
2.976562499999999
 31
0.0
  0
LINE
  5
B4
330
1F
100
AcDbEntity
  8
외형선
  6
Continuous
370
    15
100
AcDbLine
 10
25.9875
 20
-2.976562500000003
 30
0.0
 11
25.9875
 21
-0.0000000000000017
 31
0.0
  0
LINE
  5
B5
330
1F
100
AcDbEntity
  8
외형선
  6
Continuous
370
    15
100
AcDbLine
 10
19.32229051085745
 20
-0.0000000000000017
 30
0.0
 11
19.32229051085745
 21
4.76250000000001
 31
0.0
  0
LINE
  5
B6
330
1F
100
AcDbEntity
  8
외형선
  6
Continuous
370
    15
100
AcDbLine
 10
19.32229051085745
 20
-4.76250000000002
 30
0.0
 11
19.32229051085745
 21
-0.0000000000000017
 31
0.0
  0
SPLINE
  5
BB
330
1F
100
AcDbEntity
  8
외형선
  6
Continuous
370
    15
100
AcDbSpline
210
0.0
220
0.0
230
1.0
 70
     8
 71
     3
 72
     8
 73
     4
 74
     0
 42
0.000000001
 43
0.00000001
 40
0.0
 40
0.0
 40
0.0
 40
0.0
 40
1.0
 40
1.0
 40
1.0
 40
1.0
 10
26.98750000000005
 20
2.975757814020527
 30
0.0
 10
26.82005426575085
 20
2.9735111942201
 30
0.0
 10
26.65450234598786
 20
2.966585749860733
 30
0.0
 10
26.48763203953559
 20
2.954985949891573
 30
0.0
  0
LINE
  5
BC
330
1F
100
AcDbEntity
  8
외형선
  6
Continuous
370
    15
100
AcDbLine
 10
26.48763203953559
 20
1.354690211658341
 30
0.0
 11
26.48763203953559
 21
2.976562499999998
 31
0.0
  0
SPLINE
  5
BD
330
1F
100
AcDbEntity
  8
외형선
  6
Continuous
370
    15
100
AcDbSpline
210
0.0
220
0.0
230
1.0
 70
     8
 71
     3
 72
     8
 73
     4
 74
     0
 42
0.000000001
 43
0.00000001
 40
0.0
 40
0.0
 40
0.0
 40
0.0
 40
1.0
 40
1.0
 40
1.0
 40
1.0
 10
26.98749999999999
 20
1.091005204689904
 30
0.0
 10
26.82005426575078
 20
1.180905367869992
 30
0.0
 10
26.65450234598784
 20
1.268747898898684
 30
0.0
 10
26.48763203953559
 20
1.354687001331125
 30
0.0
  0
SPLINE
  5
BE
330
1F
100
AcDbEntity
  8
외형선
  6
Continuous
370
    15
100
AcDbSpline
210
0.0
220
0.0
230
1.0
 70
     8
 71
     3
 72
     8
 73
     4
 74
     0
 42
0.000000001
 43
0.00000001
 40
0.0
 40
0.0
 40
0.0
 40
0.0
 40
1.0
 40
1.0
 40
1.0
 40
1.0
 10
26.98750000000005
 20
0.0692080103890857
 30
0.0
 10
26.82005426575085
 20
0.1658066033651047
 30
0.0
 10
26.65450234598786
 20
0.2619317919278751
 30
0.0
 10
26.48763203953559
 20
0.3577462122086618
 30
0.0
  0
LINE
  5
BF
330
1F
100
AcDbEntity
  8
외형선
  6
Continuous
370
    15
100
AcDbLine
 10
26.48763203953559
 20
-2.650422371404849
 30
0.0
 11
26.48763203953559
 21
0.3577534972408713
 31
0.0
  0
SPLINE
  5
C0
330
1F
100
AcDbEntity
  8
외형선
  6
Continuous
370
    15
100
AcDbSpline
210
0.0
220
0.0
230
1.0
 70
     8
 71
     3
 72
     8
 73
     4
 74
     0
 42
0.000000001
 43
0.00000001
 40
0.0
 40
0.0
 40
0.0
 40
0.0
 40
1.0
 40
1.0
 40
1.0
 40
1.0
 10
26.98749999999999
 20
-2.769410038211347
 30
0.0
 10
26.82005426575078
 20
-2.733993994874082
 30
0.0
 10
26.65450234598784
 20
-2.694349280241795
 30
0.0
 10
26.48763203953559
 20
-2.65042401227251
 30
0.0
  0
SPLINE
  5
C1
330
1F
100
AcDbEntity
  8
외형선
  6
Continuous
370
    15
100
AcDbSpline
210
0.0
220
0.0
230
1.0
 70
     8
 71
     3
 72
     8
 73
     4
 74
     0
 42
0.000000001
 43
0.00000001
 40
0.0
 40
0.0
 40
0.0
 40
0.0
 40
1.0
 40
1.0
 40
1.0
 40
1.0
 10
26.98750000000005
 20
-2.97575781402053
 30
0.0
 10
26.82005426575085
 20
-2.973511194220103
 30
0.0
 10
26.65450234598786
 20
-2.966585749860736
 30
0.0
 10
26.48763203953559
 20
-2.954985949891576
 30
0.0
  0
LINE
  5
C2
330
1F
100
AcDbEntity
  8
외형선
  6
Continuous
370
    15
100
AcDbLine
 10
26.48763203953559
 20
-2.976562500000001
 30
0.0
 11
26.48763203953559
 21
-2.954985067917973
 31
0.0
  0
SPLINE
  5
C3
330
1F
100
AcDbEntity
  8
외형선
  6
Continuous
370
    15
100
AcDbSpline
210
0.0
220
0.0
230
1.0
 70
    24
 71
     3
 72
    14
 73
    10
 74
     0
 42
0.000000001
 43
0.00000001
 40
0.0
 40
0.0
 40
0.0
 40
0.0
 40
0.0819775697087418
 40
0.2356541215499423
 40
0.3893306733911427
 40
0.543007225232341
 40
0.6966837770735413
 40
0.8503603289147371
 40
1.0
 40
1.0
 40
1.0
 40
1.0
 10
26.98749999999999
 20
-2.769410038211346
 30
0.0
 10
26.98749999999999
 20
-2.68281878264683
 30
0.0
 10
26.98750000000003
 20
-2.433902080962921
 30
0.0
 10
26.98749999999999
 20
-1.940999254353991
 30
0.0
 10
26.98750000000002
 20
-1.331655205905172
 30
0.0
 10
26.9875
 20
-0.7547600883971524
 30
0.0
 10
26.98750000000007
 20
-0.2830335707011777
 30
0.0
 10
26.98749999999993
 20
0.047555404798833
 30
0.0
 10
26.98749999999996
 20
0.1055153411347958
 30
0.0
 10
26.98749999999998
 20
0.1341096105931066
 30
0.0
  0
SPLINE
  5
C4
330
1F
100
AcDbEntity
  8
외형선
  6
Continuous
370
    15
100
AcDbSpline
210
0.0
220
0.0
230
1.0
 70
    24
 71
     3
 72
    14
 73
    10
 74
     0
 42
0.000000001
 43
0.00000001
 40
0.0
 40
0.0
 40
0.0
 40
0.0
 40
0.1076519390136271
 40
0.255523616594484
 40
0.4076835828427234
 40
0.5555552604235146
 40
0.707715226671685
 40
0.8518759961220933
 40
1.0
 40
1.0
 40
1.0
 40
1.0
 10
26.9875
 20
1.150240425181625
 30
0.0
 10
26.98750000000002
 20
1.198489123121323
 30
0.0
 10
26.98750000000007
 20
1.313012669157647
 30
0.0
 10
26.98749999999999
 20
1.536445098179326
 30
0.0
 10
26.98749999999995
 20
1.803650831439669
 30
0.0
 10
26.98750000000002
 20
2.094012510324538
 30
0.0
 10
26.98749999999992
 20
2.389562398287884
 30
0.0
 10
26.9875000000001
 20
2.688615396512419
 30
0.0
 10
26.98750000000003
 20
2.879182344203187
 30
0.0
 10
26.98749999999998
 20
2.975757814000381
 30
0.0
  0
LINE
  5
C5
330
1F
100
AcDbEntity
  8
중심선
 48
0.8
100
AcDbLine
 10
-45.8625
 20
-0.0000000000000056
 30
0.0
 11
45.8625
 21
0.0000000000000056
 31
0.0
  0
LINE
  5
C6
330
1F
100
AcDbEntity
  8
참조1
100
AcDbLine
 10
3.368380657015613
 20
0.0010749287238892
 30
0.0
 11
3.368380657015616
 21
-39.99892507127611
 31
0.0
  0
LINE
  5
C7
330
1F
100
AcDbEntity
  8
참조1
100
AcDbLine
 10
3.368380657015616
 20
-39.99892507127611
 30
0.0
 11
-29.25297615729306
 21
-39.9989250712761
 31
0.0
  0
CIRCLE
  5
C8
330
1F
100
AcDbEntity
  8
해칭선
100
AcDbCircle
 10
0.0
 20
0.0
 30
0.0
 40
3.000000000000008
  0
INSERT
  5
C9
330
1F
100
AcDbEntity
  8
0
  6
Continuous
 62
     7
100
AcDbBlockReference
 66
     1
  2
블럭10
 10
-13.9402729321252
 20
-52.04717430164393
 30
0.0
  0
ATTRIB
  5
CA
330
C9
100
AcDbEntity
  8
FORMAT
 62
     2
100
AcDbText
 10
-23.12156822086648
 20
-49.97180738881174
 30
0.0
 40
4.233333333333333
  1
E1051015 [ 4 FLUTE ]
 41
0.75
  7
SLDTEXTSTYLE0
 11
-23.12156822086648
 21
-52.08847405547841
 31
0.0
100
AcDbAttribute
  2
AUTOATTR0
 70
     0
 74
     1
  0
SEQEND
  5
CB
330
C9
100
AcDbEntity
  8
0
  6
Continuous
 62
     7
  0
HATCH
  5
CC
330
1F
100
AcDbEntity
  8
중심선
100
AcDbHatch
 10
0.0
 20
0.0
 30
0.0
210
0.0
220
0.0
230
1.0
  2
SOLID
 70
     1
 71
     0
 91
        1
 92
        0
 93
        4
 72
     1
 10
-8.225363627744365
 20
-35.8
 11
-11.67163887158165
 21
-35.8
 72
     1
 10
-11.67163887158165
 20
-35.8
 11
-13.79986873078567
 21
-38.33632558057257
 72
     1
 10
-13.79986873078567
 20
-38.33632558057257
 11
-10.35356040183524
 21
-38.33628615127008
 72
     1
 10
-10.35356040183524
 20
-38.33628615127008
 11
-8.225363627744365
 21
-35.8
 97
        0
 75
     0
 76
     1
 98
        1
 10
-3.368380657015607
 20
-0.0010749287238949
  0
HATCH
  5
CD
330
1F
100
AcDbEntity
  8
중심선
100
AcDbHatch
 10
0.0
 20
0.0
 30
0.0
210
0.0
220
0.0
230
1.0
  2
SOLID
 70
     1
 71
     0
 91
        1
 92
        0
 93
        4
 72
     1
 10
-3.212599636708385
 20
-35.8
 11
-6.658874880545695
 21
-35.8
 72
     1
 10
-6.658874880545695
 20
-35.8
 11
-11.19001288890308
 21
-41.20000000000002
 72
     1
 10
-11.19001288890308
 20
-41.20000000000002
 11
-7.743737645065802
 21
-41.20000000000002
 72
     1
 10
-7.743737645065801
 20
-41.20000000000002
 11
-3.212599636708385
 21
-35.8
 97
        0
 75
     0
 76
     1
 98
        1
 10
-3.368380657015607
 20
-0.0010749287238949
  0
HATCH
  5
CE
330
1F
100
AcDbEntity
  8
중심선
100
AcDbHatch
 10
0.0
 20
0.0
 30
0.0
210
0.0
220
0.0
230
1.0
  2
SOLID
 70
     1
 71
     0
 91
        1
 92
        0
 93
        4
 72
     1
 10
1.800164354327511
 20
-35.79999999999998
 11
-1.646110889509577
 21
-35.79999999999998
 72
     1
 10
-1.646110889509577
 20
-35.79999999999998
 11
-8.69454779139888
 21
-44.20000000000002
 72
     1
 10
-8.694547791398882
 20
-44.20000000000002
 11
-5.2482725475616
 21
-44.20000000000002
 72
     1
 10
-5.2482725475616
 20
-44.20000000000002
 11
1.80016435432751
 21
-35.79999999999998
 97
        0
 75
     0
 76
     1
 98
        1
 10
-3.368380657015607
 20
-0.0010749287238949
  0
HATCH
  5
CF
330
1F
100
AcDbEntity
  8
중심선
100
AcDbHatch
 10
0.0
 20
0.0
 30
0.0
210
0.0
220
0.0
230
1.0
  2
SOLID
 70
     1
 71
     0
 91
        1
 92
        0
 93
        6
 72
     3
 10
6.600054785339683
 20
-40.00000000005127
 11
3.960054785062283
 21
1.540882976769353E-10
 40
0.3939339440162628
 50
17.09539180608436
 51
320.0019657685078
 73
     0
 72
     1
 10
8.283054441040278
 20
-38.5878940046383
 11
10.58835631474134
 21
-36.65356729459038
 72
     3
 10
6.600054785286837
 20
-40.00000000000015
 11
6.600054785286829
 21
-1.278976924368180E-13
 40
0.636358354079598
 50
39.99873849337385
 51
368.4976242363724
 73
     1
 72
     1
 10
13.02538727718744
 20
-39.03999999993002
 11
5.280122092122758
 21
-39.03999999993002
 72
     1
 10
5.280122092122758
 20
-39.03999999993002
 11
5.280097047676824
 21
-40.95999999992991
 72
     1
 10
5.280097047676824
 20
-40.95999999992991
 11
9.721476817148861
 21
-40.95999999992988
 97
        0
 75
     0
 76
     1
 98
        1
 10
-3.368380657015607
 20
-0.0010749287238949
  0
DIMENSION
  5
D0
330
1F
100
AcDbEntity
  8
치수문자_일반주서
100
AcDbDimension
  2
_D
 10
56.87444755968245
 20
-2.976562499999943
 30
0.0
 11
56.87444755968233
 21
30.91912932046443
 31
0.0
 70
   160
  1
%%c<>
 71
     2
 42
5.953124999999999
 52
-270.0
  3
SLDDIMSTYLE0
100
AcDbAlignedDimension
 13
42.8625
 23
2.976562500000005
 33
0.0
 14
42.8625
 24
-2.976562499999994
 34
0.0
 50
90.0000000000002
100
AcDbRotatedDimension
1001
ACAD
1000
DSTYLE
1002
{
1070
   171
1070
     7
1070
   273
1070
     7
1002
}
  0
DIMENSION
  5
E5
330
1F
100
AcDbEntity
  8
치수문자_일반주서
100
AcDbDimension
  2
_D_1
 10
26.98749999999998
 20
18.68945534234424
 30
0.0
 11
7.477249999999977
 21
18.68945534234424
 31
0.0
 70
   160
  1
<>
 71
     2
 42
15.87500000000002
  3
SLDDIMSTYLE0
100
AcDbAlignedDimension
 13
42.8625
 23
2.976562500000005
 33
0.0
 14
26.98749999999998
 24
2.975757814020726
 34
0.0
 50
0.0000000000000256
100
AcDbRotatedDimension
1001
ACAD
1000
DSTYLE
1002
{
1070
   171
1070
     7
1070
   273
1070
     7
1002
}
  0
DIMENSION
  5
FA
330
1F
100
AcDbEntity
  8
치수문자_일반주서
100
AcDbDimension
  2
_D_2
 10
-42.8625
 20
28.74110164276397
 30
0.0
 11
0.8883518995633608
 21
28.74110164276397
 31
0.0
 70
   160
  1
<>
 71
     2
 42
85.725
  3
SLDDIMSTYLE0
100
AcDbAlignedDimension
 13
42.8625
 23
2.976562500000005
 33
0.0
 14
-42.8625
 24
2.9765625
 34
0.0
100
AcDbRotatedDimension
1001
ACAD
1000
DSTYLE
1002
{
1070
   171
1070
     7
1070
   273
1070
     7
1002
}
  0
DIMENSION
  5
10D
330
1F
100
AcDbEntity
  8
치수문자_일반주서
100
AcDbDimension
  2
_D_3
 10
-55.38624999999998
 20
-4.762500000000138
 30
0.0
 11
-55.38625
 21
0.0000000000000009
 31
0.0
 70
   160
  1
%%c<>
 71
     2
 42
9.52500000000002
 52
-270.0
  3
SLDDIMSTYLE0
100
AcDbAlignedDimension
 13
-19.32229051085746
 23
4.762500000000017
 33
0.0
 14
-19.32229051085746
 24
-4.762500000000003
 34
0.0
 50
90.0000000000002
100
AcDbRotatedDimension
1001
ACAD
1000
DSTYLE
1002
{
1070
   171
1070
     7
1070
   273
1070
     7
1002
}
  0
LINE
  5
121
330
1F
100
AcDbEntity
  8
참조1
100
AcDbLine
 10
68.7193644723612
 20
7.441074928723896
 30
0.0
 11
68.7193644723612
 21
-7.438925071276109
 31
0.0
  0
LINE
  5
122
330
1F
100
AcDbEntity
  8
참조1
100
AcDbLine
 10
81.41936447236121
 20
5.441074928723896
 30
0.0
 11
68.7193644723612
 21
5.441074928723896
 31
0.0
  0
SOLID
  5
123
330
1F
100
AcDbEntity
  8
참조1
100
AcDbTrace
 10
68.7193644723612
 20
5.441074928723896
 30
0.0
 11
75.0693644723612
 21
4.425074928723896
 31
0.0
 12
75.0693644723612
 22
6.457074928723896
 32
0.0
 13
75.0693644723612
 23
6.457074928723896
 33
0.0
  0
LINE
  5
124
330
1F
100
AcDbEntity
  8
참조1
100
AcDbLine
 10
81.41936447236121
 20
-5.438925071276109
 30
0.0
 11
68.7193644723612
 21
-5.438925071276109
 31
0.0
  0
SOLID
  5
125
330
1F
100
AcDbEntity
  8
참조1
100
AcDbTrace
 10
68.7193644723612
 20
-5.438925071276109
 30
0.0
 11
75.0693644723612
 21
-6.454925071276109
 31
0.0
 12
75.0693644723612
 22
-4.422925071276109
 32
0.0
 13
75.0693644723612
 23
-4.422925071276109
 33
0.0
  0
MTEXT
  5
126
330
1F
100
AcDbEntity
  8
참조1
100
AcDbMText
 10
78.1037146049872
 20
11.01136670591223
 30
0.0
 40
3.5
 41
0.0
 71
     1
 72
     1
  1
A
  7
SLDTEXTSTYLE0
 73
     1
 44
1.0
  0
MTEXT
  5
127
330
1F
100
AcDbEntity
  8
참조1
100
AcDbMText
 10
78.1037146049872
 20
0.1313667059122219
 30
0.0
 40
3.5
 41
0.0
 71
     1
 72
     1
  1
A
  7
SLDTEXTSTYLE0
 73
     1
 44
1.0
  0
INSERT
  5
12E
330
1F
100
AcDbEntity
  8
해칭선
100
AcDbBlockReference
  2
SW_DOWELSYMBOL_0
 10
0.0
 20
0.0
 30
0.0
  0
LINE
  5
328
330
1F
100
AcDbEntity
  8
0
  6
Continuous
 62
     1
370
    15
100
AcDbLine
 10
-35.20610637784098
 20
2.976562500000008
 30
0.0
 11
-37.02282428315517
 21
2.976562500000008
 31
0.0
  0
LINE
  5
329
330
1F
100
AcDbEntity
  8
0
  6
Continuous
 62
     1
370
    15
100
AcDbLine
 10
-28.92240740168198
 20
-2.976562499999992
 30
0.0
 11
-27.10682963338543
 21
-2.976562499999992
 31
0.0
  0
LINE
  5
32A
330
1F
100
AcDbEntity
  8
0
  6
Continuous
 62
     1
370
    15
100
AcDbLine
 10
-37.02282428315517
 20
-2.976562499999992
 30
0.0
 11
-35.20610637784104
 21
-2.976562499999992
 31
0.0
  0
LINE
  5
32B
330
1F
100
AcDbEntity
  8
0
  6
Continuous
 62
     1
370
    15
100
AcDbLine
 10
-27.1068296333854
 20
2.976562500000008
 30
0.0
 11
-28.92240740168195
 21
2.976562500000008
 31
0.0
  0
LINE
  5
32C
330
1F
100
AcDbEntity
  8
외형선
  6
Continuous
370
    15
100
AcDbLine
 10
-19.32229051085746
 20
4.76250000000001
 30
0.0
 11
-25.9875
 21
2.976562500000008
 31
0.0
  0
LINE
  5
32D
330
1F
100
AcDbEntity
  8
외형선
  6
Continuous
370
    15
100
AcDbLine
 10
-25.9875
 20
-2.976562499999992
 30
0.0
 11
-19.32229051085746
 21
-4.762500000000003
 31
0.0
  0
LINE
  5
330
330
1F
100
AcDbEntity
  8
외형선
  6
Continuous
370
    15
100
AcDbLine
 10
-25.9875
 20
2.976562500000008
 30
0.0
 11
-26.48763203953557
 21
2.976562500000008
 31
0.0
  0
LINE
  5
331
330
1F
100
AcDbEntity
  8
외형선
  6
Continuous
370
    15
100
AcDbLine
 10
-26.48763203953557
 20
-2.976562499999992
 30
0.0
 11
-25.9875
 21
-2.976562499999992
 31
0.0
  0
SPLINE
  5
332
330
1F
100
AcDbEntity
  8
0
  6
Continuous
 62
     1
370
    15
100
AcDbSpline
210
0.0
220
0.0
230
1.0
 70
     8
 71
     3
 72
    18
 73
    14
 74
     0
 42
0.000000001
 43
0.00000001
 40
0.0
 40
0.0
 40
0.0
 40
0.0
 40
0.0963675051634153
 40
0.1927448419704409
 40
0.2891338008937853
 40
0.385536159194804
 40
0.4819397553206568
 40
0.5783298255868055
 40
0.6747081163129567
 40
0.7806926516302992
 40
0.8866733254528655
 40
0.9926497691609536
 40
1.0
 40
1.0
 40
1.0
 40
1.0
 10
-26.98750000000003
 20
-1.091005204689899
 30
0.0
 10
-27.4108042291849
 20
-0.8572184134456432
 30
0.0
 10
-28.2574558740656
 20
-0.3896209794689224
 30
0.0
 10
-29.52753823443466
 20
0.3529355591586881
 30
0.0
 10
-30.79779997899244
 20
1.069489799884714
 30
0.0
 10
-32.0682231058142
 20
1.722748455235731
 30
0.0
 10
-33.33865197283244
 20
2.271567647382526
 30
0.0
 10
-34.6089451557519
 20
2.68363604207918
 30
0.0
 10
-35.92122872965506
 20
2.940790935983117
 30
0.0
 10
-37.27588688226943
 20
3.01266129007329
 30
0.0
 10
-38.67262718025525
 20
2.848533201301685
 30
0.0
 10
-39.63607030447996
 20
2.639112117124342
 30
0.0
 10
-40.13391999219037
 20
2.446904564700482
 30
0.0
 10
-40.16620991989221
 20
2.434438215670398
 30
0.0
  0
SPLINE
  5
333
330
1F
100
AcDbEntity
  8
외형선
  6
Continuous
370
    15
100
AcDbSpline
210
0.0
220
0.0
230
1.0
 70
    24
 71
     3
 72
    14
 73
    10
 74
     0
 42
0.000000001
 43
0.00000001
 40
0.0
 40
0.0
 40
0.0
 40
0.0
 40
0.1526334011608561
 40
0.3100016299195067
 40
0.4578346325320867
 40
0.6099548022353498
 40
0.7577878048479246
 40
0.9099079745511826
 40
1.0
 40
1.0
 40
1.0
 40
1.0
 10
-26.98749999999997
 20
-2.975757814020717
 30
0.0
 10
-26.9875
 20
-2.876168250219201
 30
0.0
 10
-26.98750000000003
 20
-2.673899763330759
 30
0.0
 10
-26.9875
 20
-2.365273826465674
 30
0.0
 10
-26.98750000000011
 20
-2.061820582535737
 30
0.0
 10
-26.98749999999997
 20
-1.775653759122157
 30
0.0
 10
-26.98750000000003
 20
-1.508640985370114
 30
0.0
 10
-26.98750000000003
 20
-1.296806799890611
 30
0.0
 10
-26.9875
 20
-1.189969199659423
 30
0.0
 10
-26.9875
 20
-1.150230425181625
 30
0.0
  0
SPLINE
  5
334
330
1F
100
AcDbEntity
  8
0
  6
Continuous
 62
     1
370
    15
100
AcDbSpline
210
0.0
220
0.0
230
1.0
 70
     8
 71
     3
 72
    46
 73
    42
 74
     0
 42
0.000000001
 43
0.00000001
 40
0.0
 40
0.0
 40
0.0
 40
0.0
 40
0.062500000000003
 40
0.062500000000003
 40
0.1250000000000059
 40
0.1250000000000059
 40
0.1562500000000084
 40
0.1562500000000084
 40
0.1875000000000109
 40
0.1875000000000109
 40
0.2500000000000158
 40
0.2500000000000158
 40
0.3125000000000208
 40
0.3125000000000208
 40
0.3750000000000257
 40
0.3750000000000257
 40
0.4062500000000272
 40
0.4062500000000272
 40
0.4375000000000287
 40
0.4375000000000287
 40
0.5000000000000296
 40
0.5000000000000296
 40
0.5312500000000291
 40
0.5312500000000291
 40
0.5625000000000286
 40
0.5625000000000286
 40
0.6250000000000256
 40
0.6250000000000256
 40
0.6875000000000228
 40
0.6875000000000228
 40
0.7500000000000199
 40
0.7500000000000199
 40
0.7812500000000173
 40
0.7812500000000173
 40
0.8125000000000149
 40
0.8125000000000149
 40
0.8750000000000099
 40
0.8750000000000099
 40
0.937500000000005
 40
0.937500000000005
 40
1.0
 40
1.0
 40
1.0
 40
1.0
 10
-42.8625
 20
2.9765625
 30
0.0
 10
-42.53462297896174
 20
2.949303716054829
 30
0.0
 10
-42.2005029895367
 20
2.914519722837817
 30
0.0
 10
-41.53813804322549
 20
2.809565348038078
 30
0.0
 10
-41.21054680211064
 20
2.73963747843245
 30
0.0
 10
-40.71237931620014
 20
2.609581405342056
 30
0.0
 10
-40.54623086443625
 20
2.562107071476462
 30
0.0
 10
-40.21604937927115
 20
2.459618631551721
 30
0.0
 10
-40.05257827298549
 20
2.404686556659222
 30
0.0
 10
-39.55661483704021
 20
2.228417458948684
 30
0.0
 10
-39.22228017196288
 20
2.095864885413697
 30
0.0
 10
-38.56462562656709
 20
1.808122303862696
 30
0.0
 10
-38.23261662685697
 20
1.651721889019022
 30
0.0
 10
-37.56941374463263
 20
1.32055877243797
 30
0.0
 10
-37.24227980987452
 20
1.146560081572574
 30
0.0
 10
-36.74429585439542
 20
0.875302689653147
 30
0.0
 10
-36.57801988398451
 20
0.7833355596421757
 30
0.0
 10
-36.24721183599338
 20
0.5975909220576984
 30
0.0
 10
-36.08367902536249
 20
0.5040072042302416
 30
0.0
 10
-35.5887066944638
 20
0.2205374924917368
 30
0.0
 10
-35.25428241776659
 20
0.0281747713342074
 30
0.0
 10
-34.75979364856845
 20
-0.2574978962243645
 30
0.0
 10
-34.5960999323684
 20
-0.3522552473697897
 30
0.0
 10
-34.26505862472935
 20
-0.5410904205821648
 30
0.0
 10
-34.09874657990478
 20
-0.6349668793702744
 30
0.0
 10
-33.6008985578264
 20
-0.913010897327943
 30
0.0
 10
-33.27384584769119
 20
-1.092984082607081
 30
0.0
 10
-32.61035635444587
 20
-1.438952809763989
 30
0.0
 10
-32.27914459576412
 20
-1.603973919116193
 30
0.0
 10
-31.62074245766637
 20
-1.911672197858387
 30
0.0
 10
-31.28635374608025
 20
-2.055403450258587
 30
0.0
 10
-30.79079615022052
 20
-2.249823668495281
 30
0.0
 10
-30.62735168887421
 20
-2.311047162007462
 30
0.0
 10
-30.2968848868244
 20
-2.426633182877317
 30
0.0
 10
-30.13067384321393
 20
-2.480878145416909
 30
0.0
 10
-29.63256309902108
 20
-2.63178495317755
 30
0.0
 10
-29.3052154322887
 20
-2.716289343458008
 30
0.0
 10
-28.64245885984921
 20
-2.851530100982465
 30
0.0
 10
-28.30929564325514
 20
-2.901932537284459
 30
0.0
 10
-27.65269207226073
 20
-2.966107892578527
 30
0.0
 10
-27.31846405778445
 20
-2.980198359542818
 30
0.0
 10
-26.98750000000005
 20
-2.975757814020518
 30
0.0
  0
LINE
  5
335
330
1F
100
AcDbEntity
  8
0
  6
Continuous
 62
     1
370
    15
100
AcDbLine
 10
-42.8625
 20
2.695817141144069
 30
0.0
 11
-42.8625
 21
-0.2550358911440821
 31
0.0
  0
SPLINE
  5
336
330
1F
100
AcDbEntity
  8
0
  6
Continuous
 62
     1
370
    15
100
AcDbSpline
210
0.0
220
0.0
230
1.0
 70
     8
 71
     3
 72
    18
 73
    14
 74
     0
 42
0.000000001
 43
0.00000001
 40
0.0
 40
0.0
 40
0.0
 40
0.0
 40
0.0434085167494975
 40
0.13453411349547
 40
0.22567237794011
 40
0.316811812617606
 40
0.4079384600210129
 40
0.4990539711114652
 40
0.5992511735142643
 40
0.6994447252809343
 40
0.7996342779204175
 40
0.8998194845437841
 40
1.0
 40
1.0
 40
1.0
 40
1.0
 10
-28.92240740168198
 20
-2.954064816148907
 30
0.0
 10
-29.12410150962062
 20
-2.95874281670877
 30
0.0
 10
-29.74920321870168
 20
-2.973241138821102
 30
0.0
 10
-30.79780097380568
 20
-2.803970829728193
 30
0.0
 10
-32.06822283801993
 20
-2.466061845839576
 30
0.0
 10
-33.33865204910798
 20
-1.969497471297721
 30
0.0
 10
-34.60894511841248
 20
-1.356618521534045
 30
0.0
 10
-35.92122880641175
 20
-0.638035722875102
 30
0.0
 10
-37.27588658581722
 20
0.1481420066821147
 30
0.0
 10
-38.67262827761901
 20
0.949011834947655
 30
0.0
 10
-40.06932263643846
 20
1.676846005045306
 30
0.0
 10
-41.4659400522775
 20
2.296450386229111
 30
0.0
 10
-42.39698728363577
 20
2.56269696738481
 30
0.0
 10
-42.86250000000003
 20
2.695817141144069
 30
0.0
  0
SPLINE
  5
337
330
1F
100
AcDbEntity
  8
0
  6
Continuous
 62
     1
370
    15
100
AcDbSpline
210
0.0
220
0.0
230
1.0
 70
     8
 71
     3
 72
    16
 73
    12
 74
     0
 42
0.000000001
 43
0.00000001
 40
0.0
 40
0.0
 40
0.0
 40
0.0
 40
0.1179613768269736
 40
0.2359062622427624
 40
0.3538368301843454
 40
0.4717552708619789
 40
0.5896637883054868
 40
0.7075645978770009
 40
0.8254599237561563
 40
0.9551656425605115
 40
1.0
 40
1.0
 40
1.0
 40
1.0
 10
-42.86250000000003
 20
-0.2550358911440821
 30
0.0
 10
-42.43900444028667
 20
-0.4970612642689713
 30
0.0
 10
-41.5920725270136
 20
-0.9810781745289386
 30
0.0
 10
-40.32180165457773
 20
-1.643785584799197
 30
0.0
 10
-39.0517134156896
 20
-2.208264699476508
 30
0.0
 10
-37.78178040120115
 20
-2.639312803312101
 30
0.0
 10
-36.51198356004112
 20
-2.910360520476423
 30
0.0
 10
-35.24225579451694
 20
-3.008475468135664
 30
0.0
 10
-33.93030851744733
 20
-2.911534516158298
 30
0.0
 10
-32.88026552406406
 20
-2.71471696345992
 30
0.0
 10
-32.25360646893951
 20
-2.488356890479074
 30
0.0
 10
-32.09263566684761
 20
-2.430211456831656
 30
0.0
  0
SPLINE
  5
338
330
1F
100
AcDbEntity
  8
0
  6
Continuous
 62
     1
370
    15
100
AcDbSpline
210
0.0
220
0.0
230
1.0
 70
     8
 71
     3
 72
    12
 73
     8
 74
     0
 42
0.000000001
 43
0.00000001
 40
0.0
 40
0.0
 40
0.0
 40
0.0
 40
0.2487616163013925
 40
0.497548611858486
 40
0.7463656085703877
 40
0.9952171942325945
 40
1.0
 40
1.0
 40
1.0
 40
1.0
 10
-26.98750000000005
 20
2.769410038211362
 30
0.0
 10
-27.41080421334884
 20
2.842506964872499
 30
0.0
 10
-28.25745582655581
 20
2.988708275718253
 30
0.0
 10
-29.52753842450612
 20
2.986858032821346
 30
0.0
 10
-30.79779926608903
 20
2.800327473314525
 30
0.0
 10
-31.65286635525455
 20
2.600083023917506
 30
0.0
 10
-32.08449638191367
 20
2.433355453127547
 30
0.0
 10
-32.09263566684758
 20
2.430211456831679
 30
0.0
  0
SPLINE
  5
339
330
1F
100
AcDbEntity
  8
외형선
  6
Continuous
370
    15
100
AcDbSpline
210
0.0
220
0.0
230
1.0
 70
    24
 71
     3
 72
    21
 73
    17
 74
     0
 42
0.000000001
 43
0.00000001
 40
0.0
 40
0.0
 40
0.0
 40
0.0
 40
0.0042036528780549
 40
0.0800325592024448
 40
0.1580605089472573
 40
0.2338894152716448
 40
0.3119173650164542
 40
0.3877462713409072
 40
0.4657742210856559
 40
0.5416031274100007
 40
0.6196310771547637
 40
0.6954599834791949
 40
0.7734879332240523
 40
0.8493168395482568
 40
0.9273447892932553
 40
1.0
 40
1.0
 40
1.0
 40
1.0
 10
-26.98750000000003
 20
-0.135085328567946
 30
0.0
 10
-26.98750000000003
 20
-0.1352242786247399
 30
0.0
 10
-26.98749999999986
 20
-0.1378697227108032
 30
0.0
 10
-26.98750000000005
 20
-0.0947909513316102
 30
0.0
 10
-26.9875
 20
-0.0051821332725407
 30
0.0
 10
-26.9875
 20
0.138423492951681
 30
0.0
 10
-26.98750000000003
 20
0.321752943456197
 30
0.0
 10
-26.9875
 20
0.544963041533656
 30
0.0
 10
-26.98749999999988
 20
0.7971722519519421
 30
0.0
 10
-26.98750000000005
 20
1.075924129706472
 30
0.0
 10
-26.98749999999997
 20
1.368286890665708
 30
0.0
 10
-26.98749999999997
 20
1.671203251698238
 30
0.0
 10
-26.98750000000011
 20
1.970847555207208
 30
0.0
 10
-26.98749999999997
 20
2.263372532574522
 30
0.0
 10
-26.9875
 20
2.53426741745237
 30
0.0
 10
-26.98750000000003
 20
2.692914733939361
 30
0.0
 10
-26.98750000000003
 20
2.769410038211355
 30
0.0
  0
SPLINE
  5
33A
330
1F
100
AcDbEntity
  8
0
  6
Continuous
 62
     1
370
    15
100
AcDbSpline
210
0.0
220
0.0
230
1.0
 70
     8
 71
     3
 72
    13
 73
     9
 74
     0
 42
0.000000001
 43
0.00000001
 40
0.0
 40
0.0
 40
0.0
 40
0.0
 40
0.1501067622953544
 40
0.3200908040075601
 40
0.4900727514389414
 40
0.6600520012155359
 40
0.8300279510532201
 40
0.9999999999999999
 40
0.9999999999999999
 40
0.9999999999999999
 40
0.9999999999999999
 10
-35.20610637784101
 20
2.974076513466507
 30
0.0
 10
-34.79496793659048
 20
2.958500754167531
 30
0.0
 10
-33.91824771289164
 20
2.925286678793448
 30
0.0
 10
-32.57553655923898
 20
2.626764391883782
 30
0.0
 10
-31.17850528326868
 20
2.140339217500163
 30
0.0
 10
-29.78146766592472
 20
1.493570147342382
 30
0.0
 10
-28.38447087865096
 20
0.7385954205703985
 30
0.0
 10
-27.45315339727232
 20
0.2000577400306514
 30
0.0
 10
-26.98750000000005
 20
-0.0692080103890828
 30
0.0
  0
LINE
  5
33B
330
1F
100
AcDbEntity
  8
외형선
  6
Continuous
370
    15
100
AcDbLine
 10
-26.98749999999997
 20
-0.0692080103890402
 30
0.0
 11
-26.9875
 21
-1.091005204689907
 31
0.0
  0
LINE
  5
33C
330
1F
100
AcDbEntity
  8
0
  6
Continuous
 62
     1
370
    15
100
AcDbLine
 10
-42.8625
 20
2.9765625
 30
0.0
 11
-42.8625
 21
2.695817141144069
 31
0.0
  0
SPLINE
  5
33D
330
1F
100
AcDbEntity
  8
0
  6
Continuous
 62
     1
370
    15
100
AcDbSpline
210
0.0
220
0.0
230
1.0
 70
     8
 71
     3
 72
    12
 73
     8
 74
     0
 42
0.000000001
 43
0.00000001
 40
0.0
 40
0.0
 40
0.0
 40
0.0
 40
0.043334673495746
 40
0.2825161522165421
 40
0.5216880842435918
 40
0.7608496414856114
 40
1.0
 40
1.0
 40
1.0
 40
1.0
 10
-37.02282428315517
 20
-2.960409093595345
 30
0.0
 10
-37.10717941090284
 20
-2.965489554116587
 30
0.0
 10
-37.65712439002773
 20
-2.998611118032137
 30
0.0
 10
-38.67263103021172
 20
-2.848144305093491
 30
0.0
 10
-40.06932190246052
 20
-2.504057830529944
 30
0.0
 10
-41.46594023575865
 20
-1.964585768794045
 30
0.0
 10
-42.39698734479519
 20
-1.496152047991899
 30
0.0
 10
-42.86250000000003
 20
-1.261940671315436
 30
0.0
  0
LINE
  5
33E
330
1F
100
AcDbEntity
  8
0
  6
Continuous
 62
     1
370
    15
100
AcDbLine
 10
-42.8625
 20
-0.2550358911440821
 30
0.0
 11
-42.8625
 21
-1.261940671315436
 31
0.0
  0
SPLINE
  5
33F
330
1F
100
AcDbEntity
  8
0
  6
Continuous
 62
     1
370
    15
100
AcDbSpline
210
0.0
220
0.0
230
1.0
 70
     8
 71
     3
 72
    10
 73
     6
 74
     0
 42
0.000000001
 43
0.00000001
 40
0.0
 40
0.0
 40
0.0
 40
0.0
 40
0.4711876207820426
 40
0.9423093678941724
 40
1.0
 40
1.0
 40
1.0
 40
1.0
 10
-42.8625
 20
-2.976562499999992
 30
0.0
 10
-42.43900496034938
 20
-2.924686854936943
 30
0.0
 10
-41.59207408712906
 20
-2.842833359220613
 30
0.0
 10
-40.69331782083115
 20
-2.633112278034715
 30
0.0
 10
-40.21805822656076
 20
-2.453980540295383
 30
0.0
 10
-40.16620991989224
 20
-2.434438215670383
 30
0.0
  0
LINE
  5
340
330
1F
100
AcDbEntity
  8
외형선
  6
Continuous
370
    15
100
AcDbLine
 10
-27.1068296333854
 20
2.968066134809888
 30
0.0
 11
-26.98750000000003
 21
2.97575781402054
 31
0.0
  0
LINE
  5
341
330
1F
100
AcDbEntity
  8
0
  6
Continuous
 62
     1
370
    15
100
AcDbLine
 10
-42.8625
 20
-1.257413839865741
 30
0.0
 11
-42.8625
 21
-2.976562499999992
 31
0.0
  0
LINE
  5
342
330
1F
100
AcDbEntity
  8
외형선
  6
Continuous
370
    15
100
AcDbLine
 10
-26.98749999999997
 20
2.975757814020739
 30
0.0
 11
-26.98750000000003
 21
2.769410038211355
 31
0.0
  0
LINE
  5
343
330
1F
100
AcDbEntity
  8
외형선
  6
Continuous
370
    15
100
AcDbLine
 10
-25.9875
 20
0.0000000000000074
 30
0.0
 11
-25.9875
 21
-2.976562499999992
 31
0.0
  0
LINE
  5
344
330
1F
100
AcDbEntity
  8
외형선
  6
Continuous
370
    15
100
AcDbLine
 10
-25.9875
 20
2.976562500000008
 30
0.0
 11
-25.9875
 21
0.0000000000000074
 31
0.0
  0
LINE
  5
345
330
1F
100
AcDbEntity
  8
외형선
  6
Continuous
370
    15
100
AcDbLine
 10
-19.32229051085746
 20
0.0000000000000003
 30
0.0
 11
-19.32229051085746
 21
-4.76250000000001
 31
0.0
  0
LINE
  5
346
330
1F
100
AcDbEntity
  8
외형선
  6
Continuous
370
    15
100
AcDbLine
 10
-19.32229051085746
 20
4.762500000000017
 30
0.0
 11
-19.32229051085746
 21
0.0000000000000003
 31
0.0
  0
SPLINE
  5
347
330
1F
100
AcDbEntity
  8
외형선
  6
Continuous
370
    15
100
AcDbSpline
210
0.0
220
0.0
230
1.0
 70
     8
 71
     3
 72
     8
 73
     4
 74
     0
 42
0.000000001
 43
0.00000001
 40
0.0
 40
0.0
 40
0.0
 40
0.0
 40
1.0
 40
1.0
 40
1.0
 40
1.0
 10
-26.98750000000005
 20
-2.975757814020518
 30
0.0
 10
-26.82005426575084
 20
-2.973511194220094
 30
0.0
 10
-26.65450234598786
 20
-2.966585749860726
 30
0.0
 10
-26.48763203953557
 20
-2.954985949891565
 30
0.0
  0
LINE
  5
348
330
1F
100
AcDbEntity
  8
외형선
  6
Continuous
370
    15
100
AcDbLine
 10
-26.48763203953557
 20
-1.354690211658329
 30
0.0
 11
-26.48763203953557
 21
-2.976562499999992
 31
0.0
  0
SPLINE
  5
349
330
1F
100
AcDbEntity
  8
외형선
  6
Continuous
370
    15
100
AcDbSpline
210
0.0
220
0.0
230
1.0
 70
     8
 71
     3
 72
     8
 73
     4
 74
     0
 42
0.000000001
 43
0.00000001
 40
0.0
 40
0.0
 40
0.0
 40
0.0
 40
1.0
 40
1.0
 40
1.0
 40
1.0
 10
-26.9875
 20
-1.091005204689899
 30
0.0
 10
-26.82005426575078
 20
-1.180905367869982
 30
0.0
 10
-26.65450234598784
 20
-1.268747898898674
 30
0.0
 10
-26.48763203953557
 20
-1.354687001331122
 30
0.0
  0
SPLINE
  5
34A
330
1F
100
AcDbEntity
  8
외형선
  6
Continuous
370
    15
100
AcDbSpline
210
0.0
220
0.0
230
1.0
 70
     8
 71
     3
 72
     8
 73
     4
 74
     0
 42
0.000000001
 43
0.00000001
 40
0.0
 40
0.0
 40
0.0
 40
0.0
 40
1.0
 40
1.0
 40
1.0
 40
1.0
 10
-26.98750000000005
 20
-0.0692080103890757
 30
0.0
 10
-26.82005426575084
 20
-0.1658066033650979
 30
0.0
 10
-26.65450234598786
 20
-0.2619317919278711
 30
0.0
 10
-26.48763203953557
 20
-0.3577462122086527
 30
0.0
  0
LINE
  5
34B
330
1F
100
AcDbEntity
  8
외형선
  6
Continuous
370
    15
100
AcDbLine
 10
-26.48763203953557
 20
2.650422371404858
 30
0.0
 11
-26.48763203953557
 21
-0.357753497240864
 31
0.0
  0
SPLINE
  5
34C
330
1F
100
AcDbEntity
  8
외형선
  6
Continuous
370
    15
100
AcDbSpline
210
0.0
220
0.0
230
1.0
 70
     8
 71
     3
 72
     8
 73
     4
 74
     0
 42
0.000000001
 43
0.00000001
 40
0.0
 40
0.0
 40
0.0
 40
0.0
 40
1.0
 40
1.0
 40
1.0
 40
1.0
 10
-26.9875
 20
2.769410038211355
 30
0.0
 10
-26.82005426575078
 20
2.733993994874091
 30
0.0
 10
-26.65450234598784
 20
2.694349280241803
 30
0.0
 10
-26.48763203953557
 20
2.650424012272517
 30
0.0
  0
SPLINE
  5
34D
330
1F
100
AcDbEntity
  8
외형선
  6
Continuous
370
    15
100
AcDbSpline
210
0.0
220
0.0
230
1.0
 70
     8
 71
     3
 72
     8
 73
     4
 74
     0
 42
0.000000001
 43
0.00000001
 40
0.0
 40
0.0
 40
0.0
 40
0.0
 40
1.0
 40
1.0
 40
1.0
 40
1.0
 10
-26.98750000000005
 20
2.97575781402054
 30
0.0
 10
-26.82005426575084
 20
2.973511194220109
 30
0.0
 10
-26.65450234598786
 20
2.966585749860748
 30
0.0
 10
-26.48763203953557
 20
2.954985949891587
 30
0.0
  0
LINE
  5
34E
330
1F
100
AcDbEntity
  8
외형선
  6
Continuous
370
    15
100
AcDbLine
 10
-26.48763203953557
 20
2.976562500000008
 30
0.0
 11
-26.48763203953557
 21
2.954985067917982
 31
0.0
  0
SPLINE
  5
34F
330
1F
100
AcDbEntity
  8
외형선
  6
Continuous
370
    15
100
AcDbSpline
210
0.0
220
0.0
230
1.0
 70
    24
 71
     3
 72
    14
 73
    10
 74
     0
 42
0.000000001
 43
0.00000001
 40
0.0
 40
0.0
 40
0.0
 40
0.0
 40
0.0819775697087418
 40
0.2356541215499423
 40
0.3893306733911427
 40
0.543007225232341
 40
0.6966837770735413
 40
0.8503603289147371
 40
1.0
 40
1.0
 40
1.0
 40
1.0
 10
-26.9875
 20
2.769410038211355
 30
0.0
 10
-26.9875
 20
2.682818782646841
 30
0.0
 10
-26.98750000000003
 20
2.433902080962931
 30
0.0
 10
-26.9875
 20
1.940999254353997
 30
0.0
 10
-26.98750000000003
 20
1.331655205905179
 30
0.0
 10
-26.9875
 20
0.7547600883971558
 30
0.0
 10
-26.98750000000005
 20
0.2830335707011858
 30
0.0
 10
-26.98749999999994
 20
-0.047555404798828
 30
0.0
 10
-26.98749999999997
 20
-0.1055153411347899
 30
0.0
 10
-26.98749999999997
 20
-0.1341096105930998
 30
0.0
  0
SPLINE
  5
350
330
1F
100
AcDbEntity
  8
외형선
  6
Continuous
370
    15
100
AcDbSpline
210
0.0
220
0.0
230
1.0
 70
    24
 71
     3
 72
    14
 73
    10
 74
     0
 42
0.000000001
 43
0.00000001
 40
0.0
 40
0.0
 40
0.0
 40
0.0
 40
0.1076519390136271
 40
0.255523616594484
 40
0.4076835828427234
 40
0.5555552604235146
 40
0.707715226671685
 40
0.8518759961220933
 40
1.0
 40
1.0
 40
1.0
 40
1.0
 10
-26.9875
 20
-1.150240425181614
 30
0.0
 10
-26.98750000000003
 20
-1.198489123121312
 30
0.0
 10
-26.98750000000005
 20
-1.313012669157636
 30
0.0
 10
-26.9875
 20
-1.536445098179321
 30
0.0
 10
-26.98749999999994
 20
-1.803650831439661
 30
0.0
 10
-26.98750000000003
 20
-2.094012510324532
 30
0.0
 10
-26.98749999999991
 20
-2.389562398287878
 30
0.0
 10
-26.98750000000011
 20
-2.68861539651241
 30
0.0
 10
-26.98750000000003
 20
-2.879182344203179
 30
0.0
 10
-26.98749999999997
 20
-2.975757814000374
 30
0.0
  0
LINE
  5
3CE
330
1F
100
AcDbEntity
  8
외형선
  6
Continuous
370
    15
100
AcDbLine
 10
-3.568700000000035
 20
3.49250000000002
 30
0.0
 11
3.568700000000035
 21
3.49250000000002
 31
0.0
  0
LINE
  5
3CF
330
1F
100
AcDbEntity
  8
외형선
  6
Continuous
370
    15
100
AcDbLine
 10
-3.568700000000035
 20
3.49250000000002
 30
0.0
 11
-4.838700000000017
 21
4.762500000000002
 31
0.0
  0
LINE
  5
3D0
330
1F
100
AcDbEntity
  8
외형선
  6
Continuous
370
    15
100
AcDbLine
 10
3.568700000000035
 20
3.49250000000002
 30
0.0
 11
4.838700000000017
 21
4.762500000000002
 31
0.0
  0
LINE
  5
3D2
330
1F
100
AcDbEntity
  8
외형선
  6
Continuous
370
    15
100
AcDbLine
 10
-4.83870000000001
 20
4.762500000000002
 30
0.0
 11
-19.32229051085747
 21
4.762500000000002
 31
0.0
  0
ENDSEC
  0
SECTION
  2
OBJECTS
  0
DICTIONARY
  5
C
330
0
100
AcDbDictionary
281
     1
  3
ACAD_GROUP
350
D
  3
ACAD_IMAGE_VARS
350
152
  3
ACAD_LAYOUT
350
1A
  3
ACAD_MLINESTYLE
350
17
  3
ACAD_PLOTSETTINGS
350
19
  3
ACAD_PLOTSTYLENAME
350
E
  3
ACAD_SCALELIST
350
47
  3
APPDATA
350
150
  3
DWGPROPS
350
3F6
  0
DICTIONARY
  5
1DF
330
2
100
AcDbDictionary
280
     1
281
     1
  3
ACAD_LAYERSTATES
360
1E0
  0
DICTIONARY
  5
D
102
{ACAD_REACTORS
330
C
102
}
330
C
100
AcDbDictionary
281
     1
  0
RASTERVARIABLES
  5
152
102
{ACAD_REACTORS
330
C
102
}
330
C
100
AcDbRasterVariables
 90
        0
 70
     1
 71
     1
 72
     1
  0
DICTIONARY
  5
1A
102
{ACAD_REACTORS
330
C
102
}
330
C
100
AcDbDictionary
281
     1
  3
Layout1
350
1E
  3
Layout2
350
26
  3
Model
350
22
  0
DICTIONARY
  5
17
102
{ACAD_REACTORS
330
C
102
}
330
C
100
AcDbDictionary
281
     1
  3
Standard
350
18
  0
DICTIONARY
  5
19
102
{ACAD_REACTORS
330
C
102
}
330
C
100
AcDbDictionary
281
     1
  0
ACDBDICTIONARYWDFLT
  5
E
102
{ACAD_REACTORS
330
C
102
}
330
C
100
AcDbDictionary
281
     1
  3
Normal
350
F
100
AcDbDictionaryWithDefault
340
F
  0
DICTIONARY
  5
47
102
{ACAD_REACTORS
330
C
102
}
330
C
100
AcDbDictionary
281
     1
  3
A0
350
48
  3
A1
350
49
  3
A2
350
4A
  3
A3
350
4B
  3
A4
350
4C
  3
A5
350
4D
  3
A6
350
4E
  3
A7
350
4F
  3
A8
350
50
  3
A9
350
51
  3
B0
350
52
  3
B1
350
53
  3
B2
350
54
  3
B3
350
55
  3
B4
350
56
  3
B5
350
57
  3
B6
350
58
  3
B7
350
59
  3
B8
350
5A
  3
B9
350
5B
  3
C0
350
5C
  3
C1
350
5D
  3
C2
350
5E
  3
C3
350
5F
  3
C4
350
60
  3
C5
350
61
  3
C6
350
62
  3
C7
350
63
  3
C8
350
64
  3
C9
350
65
  3
D0
350
66
  3
D1
350
67
  3
D2
350
68
  0
DICTIONARY
  5
150
102
{ACAD_REACTORS
330
C
102
}
330
C
100
AcDbDictionary
281
     1
  0
XRECORD
  5
3F6
102
{ACAD_REACTORS
330
C
102
}
330
C
100
AcDbXrecord
280
     1
  1
DWGPROPS COOKIE
  2

  3

  4

  6

  7

  8
12017012
  9

300
=
301
=
302
=
303
=
304
=
305
=
306
=
307
=
308
=
309
=
 40
0.0
 41
2458313.095601065
 42
2458319.016348102
  1

 90
        0
  0
DICTIONARY
  5
1E0
102
{ACAD_REACTORS
330
1DF
102
}
330
1DF
100
AcDbDictionary
281
     1
  0
LAYOUT
  5
1E
102
{ACAD_REACTORS
330
1A
102
}
330
1A
100
AcDbPlotSettings
  1

  2
none_device
  4

  6

 40
0.0
 41
0.0
 42
0.0
 43
0.0
 44
0.0
 45
0.0
 46
0.0
 47
0.0
 48
0.0
 49
0.0
140
0.0
141
0.0
142
1.0
143
1.0
 70
   688
 72
     1
 73
     0
 74
     5
  7

 75
    16
147
1.0
148
0.0
149
0.0
100
AcDbLayout
  1
Layout1
 70
     1
 71
     1
 10
0.0
 20
0.0
 11
420.0
 21
297.0
 12
0.0
 22
0.0
 32
0.0
 14
1.000000000000000E+20
 24
1.000000000000000E+20
 34
1.000000000000000E+20
 15
-1.000000000000000E+20
 25
-1.000000000000000E+20
 35
-1.000000000000000E+20
146
0.0
 13
0.0
 23
0.0
 33
0.0
 16
1.0
 26
0.0
 36
0.0
 17
0.0
 27
1.0
 37
0.0
 76
     0
330
1B
  0
LAYOUT
  5
26
102
{ACAD_REACTORS
330
1A
102
}
330
1A
100
AcDbPlotSettings
  1

  2
none_device
  4

  6

 40
0.0
 41
0.0
 42
0.0
 43
0.0
 44
0.0
 45
0.0
 46
0.0
 47
0.0
 48
0.0
 49
0.0
140
0.0
141
0.0
142
1.0
143
1.0
 70
   688
 72
     1
 73
     0
 74
     5
  7

 75
    16
147
1.0
148
0.0
149
0.0
100
AcDbLayout
  1
Layout2
 70
     1
 71
     2
 10
0.0
 20
0.0
 11
0.0
 21
0.0
 12
0.0
 22
0.0
 32
0.0
 14
0.0
 24
0.0
 34
0.0
 15
0.0
 25
0.0
 35
0.0
146
0.0
 13
0.0
 23
0.0
 33
0.0
 16
1.0
 26
0.0
 36
0.0
 17
0.0
 27
1.0
 37
0.0
 76
     0
330
23
  0
LAYOUT
  5
22
102
{ACAD_REACTORS
330
1A
102
}
330
1A
100
AcDbPlotSettings
  1

  2
none_device
  4
ANSI_A_(11.00_x_8.50_Inches)
  6

 40
6.35
 41
19.05
 42
6.35000508
 43
19.05000254
 44
279.4
 45
215.9
 46
84.2288102664152
 47
81.34974045730497
 48
0.0
 49
0.0
140
0.0
141
0.0
142
0.0558995861883415
143
1.0
 70
  1696
 72
     0
 73
     0
 74
     0
  7

 75
     0
147
0.0235690232323232
148
0.0
149
0.0
100
AcDbLayout
  1
Model
 70
     1
 71
     0
 10
0.0
 20
0.0
 11
420.0
 21
297.0
 12
0.0
 22
0.0
 32
0.0
 14
-59.76125000000005
 24
-49.97180738881174
 34
0.0
 15
81.41936447236121
 25
46.23162932046442
 35
0.0
146
0.0
 13
0.0
 23
0.0
 33
0.0
 16
1.0
 26
0.0
 36
0.0
 17
0.0
 27
1.0
 37
0.0
 76
     0
330
1F
331
29
  0
MLINESTYLE
  5
18
102
{ACAD_REACTORS
330
17
102
}
330
17
100
AcDbMlineStyle
  2
Standard
 70
     0
  3

 62
   256
 51
90.0
 52
90.0
 71
     2
 49
0.5
 62
   256
  6
BYLAYER
 49
-0.5
 62
   256
  6
BYLAYER
  0
ACDBPLACEHOLDER
  5
F
102
{ACAD_REACTORS
330
E
102
}
330
E
  0
SCALE
  5
48
102
{ACAD_REACTORS
330
47
102
}
330
47
100
AcDbScale
 70
     0
300
1:1
140
1.0
141
1.0
290
     1
  0
SCALE
  5
49
102
{ACAD_REACTORS
330
47
102
}
330
47
100
AcDbScale
 70
     0
300
1:2
140
1.0
141
2.0
290
     0
  0
SCALE
  5
4A
102
{ACAD_REACTORS
330
47
102
}
330
47
100
AcDbScale
 70
     0
300
1:4
140
1.0
141
4.0
290
     0
  0
SCALE
  5
4B
102
{ACAD_REACTORS
330
47
102
}
330
47
100
AcDbScale
 70
     0
300
1:5
140
1.0
141
5.0
290
     0
  0
SCALE
  5
4C
102
{ACAD_REACTORS
330
47
102
}
330
47
100
AcDbScale
 70
     0
300
1:8
140
1.0
141
8.0
290
     0
  0
SCALE
  5
4D
102
{ACAD_REACTORS
330
47
102
}
330
47
100
AcDbScale
 70
     0
300
1:10
140
1.0
141
10.0
290
     0
  0
SCALE
  5
4E
102
{ACAD_REACTORS
330
47
102
}
330
47
100
AcDbScale
 70
     0
300
1:16
140
1.0
141
16.0
290
     0
  0
SCALE
  5
4F
102
{ACAD_REACTORS
330
47
102
}
330
47
100
AcDbScale
 70
     0
300
1:20
140
1.0
141
20.0
290
     0
  0
SCALE
  5
50
102
{ACAD_REACTORS
330
47
102
}
330
47
100
AcDbScale
 70
     0
300
1:30
140
1.0
141
30.0
290
     0
  0
SCALE
  5
51
102
{ACAD_REACTORS
330
47
102
}
330
47
100
AcDbScale
 70
     0
300
1:40
140
1.0
141
40.0
290
     0
  0
SCALE
  5
52
102
{ACAD_REACTORS
330
47
102
}
330
47
100
AcDbScale
 70
     0
300
1:50
140
1.0
141
50.0
290
     0
  0
SCALE
  5
53
102
{ACAD_REACTORS
330
47
102
}
330
47
100
AcDbScale
 70
     0
300
1:100
140
1.0
141
100.0
290
     0
  0
SCALE
  5
54
102
{ACAD_REACTORS
330
47
102
}
330
47
100
AcDbScale
 70
     0
300
2:1
140
2.0
141
1.0
290
     0
  0
SCALE
  5
55
102
{ACAD_REACTORS
330
47
102
}
330
47
100
AcDbScale
 70
     0
300
4:1
140
4.0
141
1.0
290
     0
  0
SCALE
  5
56
102
{ACAD_REACTORS
330
47
102
}
330
47
100
AcDbScale
 70
     0
300
8:1
140
8.0
141
1.0
290
     0
  0
SCALE
  5
57
102
{ACAD_REACTORS
330
47
102
}
330
47
100
AcDbScale
 70
     0
300
10:1
140
10.0
141
1.0
290
     0
  0
SCALE
  5
58
102
{ACAD_REACTORS
330
47
102
}
330
47
100
AcDbScale
 70
     0
300
100:1
140
100.0
141
1.0
290
     0
  0
SCALE
  5
59
102
{ACAD_REACTORS
330
47
102
}
330
47
100
AcDbScale
 70
     0
300
1/128" = 1'-0"
140
0.0078125
141
12.0
290
     0
  0
SCALE
  5
5A
102
{ACAD_REACTORS
330
47
102
}
330
47
100
AcDbScale
 70
     0
300
1/64" = 1'-0"
140
0.015625
141
12.0
290
     0
  0
SCALE
  5
5B
102
{ACAD_REACTORS
330
47
102
}
330
47
100
AcDbScale
 70
     0
300
1/32" = 1'-0"
140
0.03125
141
12.0
290
     0
  0
SCALE
  5
5C
102
{ACAD_REACTORS
330
47
102
}
330
47
100
AcDbScale
 70
     0
300
1/16" = 1'-0"
140
0.0625
141
12.0
290
     0
  0
SCALE
  5
5D
102
{ACAD_REACTORS
330
47
102
}
330
47
100
AcDbScale
 70
     0
300
3/32" = 1'-0"
140
0.09375
141
12.0
290
     0
  0
SCALE
  5
5E
102
{ACAD_REACTORS
330
47
102
}
330
47
100
AcDbScale
 70
     0
300
1/8" = 1'-0"
140
0.125
141
12.0
290
     0
  0
SCALE
  5
5F
102
{ACAD_REACTORS
330
47
102
}
330
47
100
AcDbScale
 70
     0
300
3/16" = 1'-0"
140
0.1875
141
12.0
290
     0
  0
SCALE
  5
60
102
{ACAD_REACTORS
330
47
102
}
330
47
100
AcDbScale
 70
     0
300
1/4" = 1'-0"
140
0.25
141
12.0
290
     0
  0
SCALE
  5
61
102
{ACAD_REACTORS
330
47
102
}
330
47
100
AcDbScale
 70
     0
300
3/8" = 1'-0"
140
0.375
141
12.0
290
     0
  0
SCALE
  5
62
102
{ACAD_REACTORS
330
47
102
}
330
47
100
AcDbScale
 70
     0
300
1/2" = 1'-0"
140
0.5
141
12.0
290
     0
  0
SCALE
  5
63
102
{ACAD_REACTORS
330
47
102
}
330
47
100
AcDbScale
 70
     0
300
3/4" = 1'-0"
140
0.75
141
12.0
290
     0
  0
SCALE
  5
64
102
{ACAD_REACTORS
330
47
102
}
330
47
100
AcDbScale
 70
     0
300
1" = 1'-0"
140
1.0
141
12.0
290
     0
  0
SCALE
  5
65
102
{ACAD_REACTORS
330
47
102
}
330
47
100
AcDbScale
 70
     0
300
1-1/2" = 1'-0"
140
1.5
141
12.0
290
     0
  0
SCALE
  5
66
102
{ACAD_REACTORS
330
47
102
}
330
47
100
AcDbScale
 70
     0
300
3" = 1'-0"
140
3.0
141
12.0
290
     0
  0
SCALE
  5
67
102
{ACAD_REACTORS
330
47
102
}
330
47
100
AcDbScale
 70
     0
300
6" = 1'-0"
140
6.0
141
12.0
290
     0
  0
SCALE
  5
68
102
{ACAD_REACTORS
330
47
102
}
330
47
100
AcDbScale
 70
     0
300
1'-0" = 1'-0"
140
12.0
141
12.0
290
     0
  0
ENDSEC
  0
EOF
