  0
SECTION
  2
HEADER
  9
$ACADVER
  1
AC1015
  9
$ACADMAINTVER
 70
     6
  9
$DWGCODEPAGE
  3
ANSI_949
  9
$INSBASE
 10
0.0
 20
0.0
 30
0.0
  9
$EXTMIN
 10
-61.34875000000005
 20
-49.97180738881174
 30
0.0
  9
$EXTMAX
 10
81.41936447236121
 20
55.22550576061924
 30
0.0
  9
$LIMMIN
 10
0.0
 20
0.0
  9
$LIMMAX
 10
420.0
 20
297.0
  9
$ORTHOMODE
 70
     1
  9
$REGENMODE
 70
     1
  9
$FILLMODE
 70
     1
  9
$QTEXTMODE
 70
     0
  9
$MIRRTEXT
 70
     1
  9
$LTSCALE
 40
1.0
  9
$ATTMODE
 70
     1
  9
$TEXTSIZE
 40
3.5
  9
$TRACEWID
 40
1.0
  9
$TEXTSTYLE
  7
Standard
  9
$CLAYER
  8
0
  9
$CELTYPE
  6
ByLayer
  9
$CECOLOR
 62
   256
  9
$CELTSCALE
 40
1.0
  9
$DISPSILH
 70
     0
  9
$DIMSCALE
 40
1.0
  9
$DIMASZ
 40
3.302
  9
$DIMEXO
 40
1.0
  9
$DIMDLI
 40
3.75
  9
$DIMRND
 40
0.0
  9
$DIMDLE
 40
0.0
  9
$DIMEXE
 40
1.0
  9
$DIMTP
 40
0.0
  9
$DIMTM
 40
0.0
  9
$DIMTXT
 40
3.5
  9
$DIMCEN
 40
2.5
  9
$DIMTSZ
 40
0.0
  9
$DIMTOL
 70
     0
  9
$DIMLIM
 70
     0
  9
$DIMTIH
 70
     1
  9
$DIMTOH
 70
     1
  9
$DIMSE1
 70
     0
  9
$DIMSE2
 70
     0
  9
$DIMTAD
 70
     1
  9
$DIMZIN
 70
     0
  9
$DIMBLK
  1

  9
$DIMASO
 70
     1
  9
$DIMSHO
 70
     1
  9
$DIMPOST
  1

  9
$DIMAPOST
  1

  9
$DIMALT
 70
     0
  9
$DIMALTD
 70
     3
  9
$DIMALTF
 40
0.0393700787401575
  9
$DIMLFAC
 40
1.0
  9
$DIMTOFL
 70
     1
  9
$DIMTVP
 40
0.0
  9
$DIMTIX
 70
     0
  9
$DIMSOXD
 70
     0
  9
$DIMSAH
 70
     0
  9
$DIMBLK1
  1

  9
$DIMBLK2
  1

  9
$DIMSTYLE
  2
ISO-25
  9
$DIMCLRD
 70
     0
  9
$DIMCLRE
 70
     0
  9
$DIMCLRT
 70
     0
  9
$DIMTFAC
 40
1.0
  9
$DIMGAP
 40
1.524
  9
$DIMJUST
 70
     0
  9
$DIMSD1
 70
     0
  9
$DIMSD2
 70
     0
  9
$DIMTOLJ
 70
     0
  9
$DIMTZIN
 70
     0
  9
$DIMALTZ
 70
     0
  9
$DIMALTTZ
 70
     0
  9
$DIMUPT
 70
     0
  9
$DIMDEC
 70
     2
  9
$DIMTDEC
 70
     2
  9
$DIMALTU
 70
     2
  9
$DIMALTTD
 70
     3
  9
$DIMTXSTY
  7
Standard
  9
$DIMAUNIT
 70
     0
  9
$DIMADEC
 70
     2
  9
$DIMALTRND
 40
0.0
  9
$DIMAZIN
 70
     0
  9
$DIMDSEP
 70
    44
  9
$DIMATFIT
 70
     3
  9
$DIMFRAC
 70
     0
  9
$DIMLDRBLK
  1

  9
$DIMLUNIT
 70
     2
  9
$DIMLWD
 70
    -2
  9
$DIMLWE
 70
    -2
  9
$DIMTMOVE
 70
     0
  9
$LUNITS
 70
     2
  9
$LUPREC
 70
     2
  9
$SKETCHINC
 40
1.0
  9
$FILLETRAD
 40
10.0
  9
$AUNITS
 70
     0
  9
$AUPREC
 70
     2
  9
$MENU
  1
.
  9
$ELEVATION
 40
0.0
  9
$PELEVATION
 40
0.0
  9
$THICKNESS
 40
0.0
  9
$LIMCHECK
 70
     0
  9
$CHAMFERA
 40
0.0
  9
$CHAMFERB
 40
0.0
  9
$CHAMFERC
 40
0.0
  9
$CHAMFERD
 40
0.0
  9
$SKPOLY
 70
     0
  9
$TDCREATE
 40
2458313.471659838
  9
$TDUCREATE
 40
2458313.096659838
  9
$TDUPDATE
 40
2458319.390966921
  9
$TDUUPDATE
 40
2458319.015966921
  9
$TDINDWG
 40
0.0021045486
  9
$TDUSRTIMER
 40
2458319.015878738
  9
$USRTIMER
 70
     1
  9
$ANGBASE
 50
0.0
  9
$ANGDIR
 70
     0
  9
$PDMODE
 70
     0
  9
$PDSIZE
 40
-1.0
  9
$PLINEWID
 40
0.0
  9
$SPLFRAME
 70
     0
  9
$SPLINETYPE
 70
     6
  9
$SPLINESEGS
 70
     8
  9
$HANDSEED
  5
3E3
  9
$SURFTAB1
 70
     6
  9
$SURFTAB2
 70
     6
  9
$SURFTYPE
 70
     6
  9
$SURFU
 70
     6
  9
$SURFV
 70
     6
  9
$UCSBASE
  2

  9
$UCSNAME
  2

  9
$UCSORG
 10
0.0
 20
0.0
 30
0.0
  9
$UCSXDIR
 10
1.0
 20
0.0
 30
0.0
  9
$UCSYDIR
 10
0.0
 20
1.0
 30
0.0
  9
$UCSORTHOREF
  2

  9
$UCSORTHOVIEW
 70
     0
  9
$UCSORGTOP
 10
0.0
 20
0.0
 30
0.0
  9
$UCSORGBOTTOM
 10
0.0
 20
0.0
 30
0.0
  9
$UCSORGLEFT
 10
0.0
 20
0.0
 30
0.0
  9
$UCSORGRIGHT
 10
0.0
 20
0.0
 30
0.0
  9
$UCSORGFRONT
 10
0.0
 20
0.0
 30
0.0
  9
$UCSORGBACK
 10
0.0
 20
0.0
 30
0.0
  9
$PUCSBASE
  2

  9
$PUCSNAME
  2

  9
$PUCSORG
 10
0.0
 20
0.0
 30
0.0
  9
$PUCSXDIR
 10
1.0
 20
0.0
 30
0.0
  9
$PUCSYDIR
 10
0.0
 20
1.0
 30
0.0
  9
$PUCSORTHOREF
  2

  9
$PUCSORTHOVIEW
 70
     0
  9
$PUCSORGTOP
 10
0.0
 20
0.0
 30
0.0
  9
$PUCSORGBOTTOM
 10
0.0
 20
0.0
 30
0.0
  9
$PUCSORGLEFT
 10
0.0
 20
0.0
 30
0.0
  9
$PUCSORGRIGHT
 10
0.0
 20
0.0
 30
0.0
  9
$PUCSORGFRONT
 10
0.0
 20
0.0
 30
0.0
  9
$PUCSORGBACK
 10
0.0
 20
0.0
 30
0.0
  9
$USERI1
 70
     0
  9
$USERI2
 70
     0
  9
$USERI3
 70
     0
  9
$USERI4
 70
     0
  9
$USERI5
 70
     0
  9
$USERR1
 40
0.0
  9
$USERR2
 40
0.0
  9
$USERR3
 40
0.0
  9
$USERR4
 40
0.0
  9
$USERR5
 40
0.0
  9
$WORLDVIEW
 70
     1
  9
$SHADEDGE
 70
     3
  9
$SHADEDIF
 70
    70
  9
$TILEMODE
 70
     1
  9
$MAXACTVP
 70
    64
  9
$PINSBASE
 10
0.0
 20
0.0
 30
0.0
  9
$PLIMCHECK
 70
     0
  9
$PEXTMIN
 10
1.000000000000000E+20
 20
1.000000000000000E+20
 30
1.000000000000000E+20
  9
$PEXTMAX
 10
-1.000000000000000E+20
 20
-1.000000000000000E+20
 30
-1.000000000000000E+20
  9
$PLIMMIN
 10
0.0
 20
0.0
  9
$PLIMMAX
 10
0.0
 20
0.0
  9
$UNITMODE
 70
     0
  9
$VISRETAIN
 70
     1
  9
$PLINEGEN
 70
     0
  9
$PSLTSCALE
 70
     1
  9
$TREEDEPTH
 70
  3020
  9
$CMLSTYLE
  2
Standard
  9
$CMLJUST
 70
     0
  9
$CMLSCALE
 40
20.0
  9
$PROXYGRAPHICS
 70
     1
  9
$MEASUREMENT
 70
     1
  9
$CELWEIGHT
370
    -1
  9
$ENDCAPS
280
     0
  9
$JOINSTYLE
280
     0
  9
$LWDISPLAY
290
     1
  9
$INSUNITS
 70
     4
  9
$HYPERLINKBASE
  1

  9
$STYLESHEET
  1

  9
$XEDIT
290
     1
  9
$CEPSNTYPE
380
     0
  9
$PSTYLEMODE
290
     1
  9
$FINGERPRINTGUID
  2
{2A274288-B83B-4564-BEF9-DC9207483424}
  9
$VERSIONGUID
  2
{FAEB1C32-E019-11D5-929B-00C0DF256EC4}
  9
$EXTNAMES
290
     1
  9
$PSVPSCALE
 40
0.0
  9
$OLESTARTUP
290
     0
  0
ENDSEC
  0
SECTION
  2
CLASSES
  0
CLASS
  1
ACDBDICTIONARYWDFLT
  2
AcDbDictionaryWithDefault
  3
ObjectDBX Classes
 90
        0
280
     0
281
     0
  0
CLASS
  1
VISUALSTYLE
  2
AcDbVisualStyle
  3
ObjectDBX Classes
 90
     4095
280
     0
281
     0
  0
CLASS
  1
MATERIAL
  2
AcDbMaterial
  3
ObjectDBX Classes
 90
     1153
280
     0
281
     0
  0
CLASS
  1
SCALE
  2
AcDbScale
  3
ObjectDBX Classes
 90
     1153
280
     0
281
     0
  0
CLASS
  1
SUN
  2
AcDbSun
  3
SCENEOE
 90
     1153
280
     0
281
     0
  0
CLASS
  1
ACDBPLACEHOLDER
  2
AcDbPlaceHolder
  3
ObjectDBX Classes
 90
        0
280
     0
281
     0
  0
CLASS
  1
LAYOUT
  2
AcDbLayout
  3
ObjectDBX Classes
 90
        0
280
     0
281
     0
  0
CLASS
  1
TABLESTYLE
  2
AcDbTableStyle
  3
ObjectDBX Classes
 90
     4095
280
     0
281
     0
  0
CLASS
  1
MLEADERSTYLE
  2
AcDbMLeaderStyle
  3
ACDB_MLEADERSTYLE_CLASS
 90
     4095
280
     0
281
     0
  0
CLASS
  1
RASTERVARIABLES
  2
AcDbRasterVariables
  3
ISM
 90
        0
280
     0
281
     0
  0
ENDSEC
  0
SECTION
  2
TABLES
  0
TABLE
  2
VPORT
  5
8
330
0
100
AcDbSymbolTable
 70
     1
  0
VPORT
  5
29
330
8
100
AcDbSymbolTableRecord
100
AcDbViewportTableRecord
  2
*Active
 70
     0
 10
0.0
 20
0.0
 11
1.0
 21
1.0
 12
6.825011110704374
 22
3.882230024799991
 13
0.0
 23
0.0
 14
10.0
 24
10.0
 15
10.0
 25
10.0
 16
0.0
 26
0.0
 36
1.0
 17
0.0
 27
0.0
 37
0.0
 40
133.4627490440965
 41
1.632093933463796
 42
50.0
 43
0.0
 44
0.0
 50
0.0
 51
0.0
 71
    16
 72
  2000
 73
     1
 74
     3
 75
     0
 76
     0
 77
     0
 78
     0
281
     0
 65
     1
110
0.0
120
0.0
130
0.0
111
1.0
121
0.0
131
0.0
112
0.0
122
1.0
132
0.0
 79
     0
146
0.0
  0
ENDTAB
  0
TABLE
  2
LTYPE
  5
5
330
0
100
AcDbSymbolTable
 70
     6
  0
LTYPE
  5
14
330
5
100
AcDbSymbolTableRecord
100
AcDbLinetypeTableRecord
  2
ByBlock
 70
     0
  3

 72
    65
 73
     0
 40
0.0
  0
LTYPE
  5
15
330
5
100
AcDbSymbolTableRecord
100
AcDbLinetypeTableRecord
  2
ByLayer
 70
     0
  3

 72
    65
 73
     0
 40
0.0
  0
LTYPE
  5
16
330
5
100
AcDbSymbolTableRecord
100
AcDbLinetypeTableRecord
  2
Continuous
 70
     0
  3
Solid line
 72
    65
 73
     0
 40
0.0
  0
LTYPE
  5
6A
330
5
100
AcDbSymbolTableRecord
100
AcDbLinetypeTableRecord
  2
HIDDEN
 70
     0
  3
Hidden __ __ __ __ __ __ __ __ __ __ __ __ __ __
 72
    65
 73
     2
 40
1.905
 49
1.27
 74
     0
 49
-0.635
 74
     0
  0
LTYPE
  5
6B
330
5
100
AcDbSymbolTableRecord
100
AcDbLinetypeTableRecord
  2
PHANTOM
 70
     0
  3
Phantom ______  __  __  ______  __  __  ______
 72
    65
 73
     6
 40
12.7
 49
6.35
 74
     0
 49
-1.27
 74
     0
 49
1.27
 74
     0
 49
-1.27
 74
     0
 49
1.27
 74
     0
 49
-1.27
 74
     0
  0
LTYPE
  5
6C
330
5
100
AcDbSymbolTableRecord
100
AcDbLinetypeTableRecord
  2
CENTER
 70
     0
  3
Center ____ _ ____ _ ____ _ ____ _ ____ _ ____
 72
    65
 73
     4
 40
10.16
 49
6.35
 74
     0
 49
-1.27
 74
     0
 49
1.27
 74
     0
 49
-1.27
 74
     0
  0
LTYPE
  5
6D
330
5
100
AcDbSymbolTableRecord
100
AcDbLinetypeTableRecord
  2
CENTERX2
 70
     0
  3
Center (2x) ________  __  ________  __  _____
 72
    65
 73
     4
 40
20.32
 49
12.7
 74
     0
 49
-2.54
 74
     0
 49
2.54
 74
     0
 49
-2.54
 74
     0
  0
LTYPE
  5
6E
330
5
100
AcDbSymbolTableRecord
100
AcDbLinetypeTableRecord
  2
DOT2
 70
     0
  3
Dot (.5x) ........................................
 72
    65
 73
     2
 40
0.635
 49
0.0
 74
     0
 49
-0.635
 74
     0
  0
ENDTAB
  0
TABLE
  2
LAYER
  5
2
102
{ACAD_XDICTIONARY
360
1D7
102
}
330
0
100
AcDbSymbolTable
 70
    18
  0
LAYER
  5
10
330
2
100
AcDbSymbolTableRecord
100
AcDbLayerTableRecord
  2
0
 70
     0
 62
     7
  6
Continuous
370
    -3
390
F
  0
LAYER
  5
6F
330
2
100
AcDbSymbolTableRecord
100
AcDbLayerTableRecord
  2
FORMAT
 70
     0
 62
     2
  6
Continuous
370
    -3
390
F
  0
LAYER
  5
70
330
2
100
AcDbSymbolTableRecord
100
AcDbLayerTableRecord
  2
외형선
 70
     0
 62
     4
  6
Continuous
370
    30
390
F
  0
LAYER
  5
71
330
2
100
AcDbSymbolTableRecord
100
AcDbLayerTableRecord
  2
숨은선
 70
     0
 62
     2
  6
HIDDEN
370
    15
390
F
  0
LAYER
  5
72
330
2
100
AcDbSymbolTableRecord
100
AcDbLayerTableRecord
  2
중심선
 70
     0
 62
     1
  6
CENTERX2
370
    -3
390
F
  0
LAYER
  5
73
330
2
100
AcDbSymbolTableRecord
100
AcDbLayerTableRecord
  2
파단선
 70
     0
 62
     4
  6
Continuous
370
    -3
390
F
  0
LAYER
  5
74
330
2
100
AcDbSymbolTableRecord
100
AcDbLayerTableRecord
  2
해칭선
 70
     0
 62
   100
  6
Continuous
370
    -3
390
F
  0
LAYER
  5
75
330
2
100
AcDbSymbolTableRecord
100
AcDbLayerTableRecord
  2
가는실선
 70
     0
 62
     4
  6
Continuous
370
    -3
390
F
  0
LAYER
  5
76
330
2
100
AcDbSymbolTableRecord
100
AcDbLayerTableRecord
  2
치수_보조선
 70
     0
 62
     4
  6
Continuous
370
    -3
390
F
  0
LAYER
  5
77
330
2
100
AcDbSymbolTableRecord
100
AcDbLayerTableRecord
  2
치수문자_일반주서
 70
     0
 62
     7
  6
Continuous
370
    15
390
F
  0
LAYER
  5
78
330
2
100
AcDbSymbolTableRecord
100
AcDbLayerTableRecord
  2
개별주서
 70
     0
 62
   100
  6
Continuous
370
    30
390
F
  0
LAYER
  5
79
330
2
100
AcDbSymbolTableRecord
100
AcDbLayerTableRecord
  2
중간선
 70
     0
 62
     2
  6
Continuous
370
    15
390
F
  0
LAYER
  5
7A
330
2
100
AcDbSymbolTableRecord
100
AcDbLayerTableRecord
  2
윤곽선
 70
     0
 62
     3
  6
Continuous
370
    40
390
F
  0
LAYER
  5
7B
330
2
100
AcDbSymbolTableRecord
100
AcDbLayerTableRecord
  2
중심마크
 70
     0
 62
   100
  6
Continuous
370
    30
390
F
  0
LAYER
  5
7C
330
2
100
AcDbSymbolTableRecord
100
AcDbLayerTableRecord
  2
가상선
 70
     0
 62
     4
  6
PHANTOM
370
    -3
390
F
  0
LAYER
  5
7D
330
2
100
AcDbSymbolTableRecord
100
AcDbLayerTableRecord
  2
특수지정선
 70
     0
 62
     5
  6
CENTERX2
370
    60
390
F
  0
LAYER
  5
7E
330
2
100
AcDbSymbolTableRecord
100
AcDbLayerTableRecord
  2
참조1
 70
     0
 62
    -4
  6
Continuous
370
    -3
390
F
  0
LAYER
  5
153
330
2
100
AcDbSymbolTableRecord
100
AcDbLayerTableRecord
  2
Defpoints
 70
     0
 62
     7
  6
Continuous
290
     0
370
    -3
390
F
  0
ENDTAB
  0
TABLE
  2
STYLE
  5
3
330
0
100
AcDbSymbolTable
 70
     2
  0
STYLE
  5
11
330
3
100
AcDbSymbolTableRecord
100
AcDbTextStyleTableRecord
  2
Standard
 70
     0
 40
0.0
 41
1.0
 50
0.0
 71
     0
 42
3.5
  3
txt
  4

  0
STYLE
  5
94
330
3
100
AcDbSymbolTableRecord
100
AcDbTextStyleTableRecord
  2
SLDTEXTSTYLE0
 70
     0
 40
0.0
 41
0.75
 50
0.0
 71
     0
 42
3.5
  3
TXT
  4

  0
ENDTAB
  0
TABLE
  2
VIEW
  5
6
330
0
100
AcDbSymbolTable
 70
     0
  0
ENDTAB
  0
TABLE
  2
UCS
  5
7
330
0
100
AcDbSymbolTable
 70
     0
  0
ENDTAB
  0
TABLE
  2
APPID
  5
9
330
0
100
AcDbSymbolTable
 70
     1
  0
APPID
  5
12
330
9
100
AcDbSymbolTableRecord
100
AcDbRegAppTableRecord
  2
ACAD
 70
     0
  0
ENDTAB
  0
TABLE
  2
DIMSTYLE
  5
A
330
0
100
AcDbSymbolTable
 70
     4
100
AcDbDimStyleTable
  0
DIMSTYLE
105
27
330
A
100
AcDbSymbolTableRecord
100
AcDbDimStyleTableRecord
  2
ISO-25
 70
     0
 41
2.5
 42
0.625
 43
3.75
 44
1.25
 73
     0
 74
     0
 77
     1
 78
     8
140
2.5
141
2.5
143
0.03937007874016
147
0.625
171
     3
172
     1
178
     0
271
     2
272
     2
274
     3
278
    44
283
     0
284
     8
340
11
  0
DIMSTYLE
105
D0
330
A
100
AcDbSymbolTableRecord
100
AcDbDimStyleTableRecord
  2
SLDDIMSTYLE0
 70
     0
 41
3.302
 44
0.0
 45
0.000000001
 73
     0
 74
     0
 77
     1
 78
    12
 79
     3
140
3.5
143
0.0393700787401575
147
0.875
148
0.000000001
170
     1
173
     1
178
     0
271
     2
272
     2
276
     2
284
    12
340
94
  0
DIMSTYLE
105
F8
330
A
100
AcDbSymbolTableRecord
100
AcDbDimStyleTableRecord
  2
SLDDIMSTYLE1
 70
     0
 41
3.302
 44
0.0
 45
0.000000001
 73
     0
 74
     0
 77
     1
 78
     4
 79
     1
140
3.5
143
0.0393700787401575
147
0.875
148
0.000000001
170
     1
173
     1
178
     0
271
     2
272
     2
276
     2
284
    12
340
94
  0
DIMSTYLE
105
10C
102
{ACAD_REACTORS
330
10B
330
CF
330
E3
330
F7
102
}
330
A
100
AcDbSymbolTableRecord
100
AcDbDimStyleTableRecord
  2
SLDDIMSTYLE2
 70
     0
 41
3.302
 44
0.0
 45
0.000000001
 73
     0
 74
     0
 77
     1
 78
    12
 79
     3
140
3.5
143
0.0393700787401575
147
0.875
148
0.000000001
170
     1
172
     1
173
     1
178
     0
271
     2
272
     2
276
     2
284
    12
289
     0
340
94
  0
ENDTAB
  0
TABLE
  2
BLOCK_RECORD
  5
1
330
0
100
AcDbSymbolTable
 70
    19
  0
BLOCK_RECORD
  5
1F
330
1
100
AcDbSymbolTableRecord
100
AcDbBlockTableRecord
  2
*Model_Space
340
22
  0
BLOCK_RECORD
  5
1B
330
1
100
AcDbSymbolTableRecord
100
AcDbBlockTableRecord
  2
*Paper_Space
340
1E
  0
BLOCK_RECORD
  5
23
330
1
100
AcDbSymbolTableRecord
100
AcDbBlockTableRecord
  2
*Paper_Space0
340
26
  0
BLOCK_RECORD
  5
7F
330
1
100
AcDbSymbolTableRecord
100
AcDbBlockTableRecord
  2
블럭10
340
0
102
{BLKREFS
331
C8
102
}
  0
BLOCK_RECORD
  5
D1
330
1
100
AcDbSymbolTableRecord
100
AcDbBlockTableRecord
  2
_D
340
0
  0
BLOCK_RECORD
  5
E4
330
1
100
AcDbSymbolTableRecord
100
AcDbBlockTableRecord
  2
_D_1
340
0
  0
BLOCK_RECORD
  5
F9
330
1
100
AcDbSymbolTableRecord
100
AcDbBlockTableRecord
  2
_D_2
340
0
  0
BLOCK_RECORD
  5
10D
330
1
100
AcDbSymbolTableRecord
100
AcDbBlockTableRecord
  2
_D_3
340
0
  0
BLOCK_RECORD
  5
127
330
1
100
AcDbSymbolTableRecord
100
AcDbBlockTableRecord
  2
SW_DOWELSYMBOL_0
340
0
102
{BLKREFS
331
12D
102
}
  0
BLOCK_RECORD
  5
1DB
330
1
100
AcDbSymbolTableRecord
100
AcDbBlockTableRecord
  2
*D7
340
0
  0
BLOCK_RECORD
  5
1EA
330
1
100
AcDbSymbolTableRecord
100
AcDbBlockTableRecord
  2
*D8
340
0
  0
BLOCK_RECORD
  5
1F9
330
1
100
AcDbSymbolTableRecord
100
AcDbBlockTableRecord
  2
*D9
340
0
  0
BLOCK_RECORD
  5
231
330
1
100
AcDbSymbolTableRecord
100
AcDbBlockTableRecord
  2
*D10
340
0
  0
BLOCK_RECORD
  5
240
330
1
100
AcDbSymbolTableRecord
100
AcDbBlockTableRecord
  2
*D11
340
0
  0
BLOCK_RECORD
  5
24F
330
1
100
AcDbSymbolTableRecord
100
AcDbBlockTableRecord
  2
*D12
340
0
  0
BLOCK_RECORD
  5
2EA
330
1
100
AcDbSymbolTableRecord
100
AcDbBlockTableRecord
  2
*D13
340
0
  0
BLOCK_RECORD
  5
2F9
330
1
100
AcDbSymbolTableRecord
100
AcDbBlockTableRecord
  2
*D14
340
0
  0
BLOCK_RECORD
  5
308
330
1
100
AcDbSymbolTableRecord
100
AcDbBlockTableRecord
  2
*D15
340
0
  0
BLOCK_RECORD
  5
343
330
1
100
AcDbSymbolTableRecord
100
AcDbBlockTableRecord
  2
*D16
340
0
  0
BLOCK_RECORD
  5
352
330
1
100
AcDbSymbolTableRecord
100
AcDbBlockTableRecord
  2
*D17
340
0
  0
BLOCK_RECORD
  5
361
330
1
100
AcDbSymbolTableRecord
100
AcDbBlockTableRecord
  2
*D18
340
0
  0
ENDTAB
  0
ENDSEC
  0
SECTION
  2
BLOCKS
  0
BLOCK
  5
20
330
1F
100
AcDbEntity
  8
0
100
AcDbBlockBegin
  2
*Model_Space
 70
     0
 10
0.0
 20
0.0
 30
0.0
  3
*Model_Space
  1
*Model_Space
  0
ENDBLK
  5
21
330
1F
100
AcDbEntity
  8
0
100
AcDbBlockEnd
  0
BLOCK
  5
1C
330
1B
100
AcDbEntity
 67
     1
  8
0
100
AcDbBlockBegin
  2
*Paper_Space
 70
     0
 10
0.0
 20
0.0
 30
0.0
  3
*Paper_Space
  1
*Paper_Space
  0
ENDBLK
  5
1D
330
1B
100
AcDbEntity
 67
     1
  8
0
100
AcDbBlockEnd
  0
BLOCK
  5
24
330
23
100
AcDbEntity
  8
0
100
AcDbBlockBegin
  2
*Paper_Space0
 70
     0
 10
0.0
 20
0.0
 30
0.0
  3
*Paper_Space0
  1
*Paper_Space0
  0
ENDBLK
  5
25
330
23
100
AcDbEntity
  8
0
100
AcDbBlockEnd
  0
BLOCK
  5
80
330
7F
100
AcDbEntity
  8
0
100
AcDbBlockBegin
  2
블럭10
 70
     2
 10
0.0
 20
0.0
 30
0.0
  3
블럭10
  1
블럭10
  0
ELLIPSE
  5
82
330
7F
100
AcDbEntity
  8
중심선
100
AcDbEllipse
 10
20.54032771741204
 20
12.0471743016438
 30
0.0
 11
6.600054785286829
 21
-1.261213355974178E-13
 31
0.0
210
0.0
220
0.0
230
1.0
 40
0.636358354079598
 41
0.9219305317359503
 42
6.513795318482858
  0
ELLIPSE
  5
83
330
7F
100
AcDbEntity
  8
중심선
100
AcDbEllipse
 10
20.54032771746488
 20
12.04717430159265
 30
0.0
 11
3.960054785062283
 21
1.540847449632565E-10
 31
0.0
210
0.0
220
0.0
230
1.0
 40
0.3939339440162632
 41
1.131841032648279
 42
5.62031148352944
  0
LINE
  5
84
330
7F
100
AcDbEntity
  8
중심선
100
AcDbLine
 10
2.268634060543552
 20
16.24717430164393
 30
0.0
 11
5.714909304380834
 21
16.24717430164393
 31
0.0
  0
LINE
  5
85
330
7F
100
AcDbEntity
  8
중심선
100
AcDbLine
 10
5.245725140726316
 20
7.84717430164391
 30
0.0
 11
8.692000384563599
 21
7.84717430164391
 31
0.0
  0
LINE
  5
86
330
7F
100
AcDbEntity
  8
중심선
100
AcDbLine
 10
15.74043728645272
 20
16.24717430164393
 30
0.0
 11
8.692000384563599
 21
7.84717430164391
 31
0.0
  0
LINE
  5
87
330
7F
100
AcDbEntity
  8
중심선
100
AcDbLine
 10
0.1404042013395286
 20
13.71084872107135
 30
0.0
 11
3.58671253028996
 21
13.71088815037384
 31
0.0
  0
LINE
  5
88
330
7F
100
AcDbEntity
  8
중심선
100
AcDbLine
 10
2.750260043222114
 20
10.84717430164391
 30
0.0
 11
6.196535287059397
 21
10.84717430164391
 31
0.0
  0
LINE
  5
89
330
7F
100
AcDbEntity
  8
중심선
100
AcDbLine
 10
12.29416204261559
 20
16.24717430164393
 30
0.0
 11
5.245725140726316
 21
7.84717430164391
 31
0.0
  0
LINE
  5
8A
330
7F
100
AcDbEntity
  8
중심선
100
AcDbLine
 10
10.72767329541681
 20
16.24717430164393
 30
0.0
 11
6.196535287059397
 21
10.84717430164391
 31
0.0
  0
LINE
  5
8B
330
7F
100
AcDbEntity
  8
중심선
100
AcDbLine
 10
7.28139805157953
 20
16.24717430164393
 30
0.0
 11
2.750260043222114
 21
10.84717430164391
 31
0.0
  0
LINE
  5
8C
330
7F
100
AcDbEntity
  8
중심선
100
AcDbLine
 10
5.714909304380834
 20
16.24717430164393
 30
0.0
 11
3.58671253028996
 21
13.71088815037384
 31
0.0
  0
LINE
  5
8D
330
7F
100
AcDbEntity
  8
중심선
100
AcDbLine
 10
2.268634060543552
 20
16.24717430164393
 30
0.0
 11
0.1404042013395286
 21
13.71084872107135
 31
0.0
  0
LINE
  5
8E
330
7F
100
AcDbEntity
  8
중심선
100
AcDbLine
 10
7.28139805157953
 20
16.24717430164393
 30
0.0
 11
10.72767329541681
 21
16.24717430164393
 31
0.0
  0
LINE
  5
8F
330
7F
100
AcDbEntity
  8
중심선
100
AcDbLine
 10
12.29416204261559
 20
16.24717430164393
 30
0.0
 11
15.74043728645272
 21
16.24717430164393
 31
0.0
  0
LINE
  5
90
330
7F
100
AcDbEntity
  8
중심선
100
AcDbLine
 10
19.22036997980202
 20
11.08717430171403
 30
0.0
 11
23.66174974927406
 21
11.08717430171406
 31
0.0
  0
LINE
  5
91
330
7F
100
AcDbEntity
  8
중심선
100
AcDbLine
 10
19.22039502424796
 20
13.00717430171391
 30
0.0
 11
19.22036997980202
 21
11.08717430171403
 31
0.0
  0
LINE
  5
92
330
7F
100
AcDbEntity
  8
중심선
100
AcDbLine
 10
19.22039502424796
 20
13.00717430171391
 30
0.0
 11
26.96566020931264
 21
13.00717430171391
 31
0.0
  0
LINE
  5
93
330
7F
100
AcDbEntity
  8
중심선
100
AcDbLine
 10
22.22332737316547
 20
13.45928029700563
 30
0.0
 11
24.52862924686651
 21
15.39360700705356
 31
0.0
  0
ATTDEF
  5
95
330
7F
100
AcDbEntity
  8
FORMAT
 62
     2
100
AcDbText
 10
4.408487351596664
 20
2.075366912832191
 30
0.0
 40
4.233333333333333
  1
E1053020
 41
0.75
  7
SLDTEXTSTYLE0
 11
4.408487351596664
 21
-0.0412997538344756
 31
0.0
100
AcDbAttributeDefinition
  3

  2
AUTOATTR0
 70
     0
 74
     1
  0
ENDBLK
  5
81
330
7F
100
AcDbEntity
  8
0
100
AcDbBlockEnd
  0
BLOCK
  5
D2
330
D1
100
AcDbEntity
  8
0
100
AcDbBlockBegin
  2
_D
 70
     0
 10
0.0
 20
0.0
 30
0.0
  3
_D
  1
_D
  0
LINE
  5
D4
330
D1
100
AcDbEntity
  8
치수문자_일반주서
 62
     0
370
    -2
100
AcDbLine
 10
44.51250000000002
 20
3.968750000000006
 30
0.0
 11
56.51365197754374
 21
3.96875000000005
 31
0.0
  0
LINE
  5
D5
330
D1
100
AcDbEntity
  8
치수문자_일반주서
 62
     0
370
    -2
100
AcDbLine
 10
44.51250000000002
 20
-3.968749999999994
 30
0.0
 11
56.51365197754377
 21
-3.96874999999995
 31
0.0
  0
LINE
  5
D6
330
D1
100
AcDbEntity
  8
치수문자_일반주서
 62
     0
370
    -2
100
AcDbLine
 10
56.51365197754374
 20
3.96875000000005
 30
0.0
 11
56.51365197754355
 21
55.22550576061924
 31
0.0
  0
LINE
  5
D7
330
D1
100
AcDbEntity
  8
치수문자_일반주서
 62
     0
370
    -2
100
AcDbLine
 10
56.51365197754374
 20
3.96875000000005
 30
0.0
 11
56.51365197754377
 21
-3.96874999999995
 31
0.0
  0
LINE
  5
D8
330
D1
100
AcDbEntity
  8
치수문자_일반주서
 62
     0
370
    -2
100
AcDbLine
 10
56.51365197754372
 20
7.270750000000049
 30
0.0
 11
56.51365197754371
 21
10.57275000000005
 31
0.0
  0
LINE
  5
D9
330
D1
100
AcDbEntity
  8
치수문자_일반주서
 62
     0
370
    -2
100
AcDbLine
 10
56.51365197754378
 20
-7.27074999999995
 30
0.0
 11
56.51365197754379
 21
-10.57274999999995
 31
0.0
  0
SOLID
  5
DA
330
D1
100
AcDbEntity
  8
치수문자_일반주서
 62
     0
100
AcDbTrace
 10
55.96331864421039
 20
7.270750000000048
 30
0.0
 11
57.06398531087706
 21
7.270750000000051
 31
0.0
 12
56.51365197754374
 22
3.96875000000005
 32
0.0
 13
56.51365197754374
 23
3.96875000000005
 33
0.0
  0
SOLID
  5
DB
330
D1
100
AcDbEntity
  8
치수문자_일반주서
 62
     0
100
AcDbTrace
 10
57.06398531087711
 20
-7.270749999999948
 30
0.0
 11
55.96331864421045
 21
-7.270749999999952
 31
0.0
 12
56.51365197754377
 22
-3.96874999999995
 32
0.0
 13
56.51365197754377
 23
-3.96874999999995
 33
0.0
  0
MTEXT
  5
DC
330
D1
100
AcDbEntity
  8
치수문자_일반주서
 62
     0
100
AcDbMText
 10
52.1386519775436
 20
41.22550576061923
 30
0.0
 40
3.5
 41
0.0
 71
     2
 72
     1
  1
\A1;%%c7.94 [5/16]
  7
SLDTEXTSTYLE0
 11
-3.580687802255623E-15
 21
1.0
 31
0.0
 73
     1
 44
1.0
  0
POINT
  5
DD
330
D1
100
AcDbEntity
  8
Defpoints
 62
     0
100
AcDbPoint
 10
44.45000000000002
 20
3.968750000000005
 30
0.0
  0
POINT
  5
DE
330
D1
100
AcDbEntity
  8
Defpoints
 62
     0
100
AcDbPoint
 10
44.45000000000002
 20
-3.968749999999995
 30
0.0
  0
POINT
  5
25B
330
D1
100
AcDbEntity
  8
Defpoints
 62
     0
100
AcDbPoint
 10
56.51365197754377
 20
-3.96874999999995
 30
0.0
  0
ENDBLK
  5
D3
330
D1
100
AcDbEntity
  8
0
100
AcDbBlockEnd
  0
BLOCK
  5
E5
330
E4
100
AcDbEntity
  8
0
100
AcDbBlockBegin
  2
_D_1
 70
     0
 10
0.0
 20
0.0
 30
0.0
  3
_D_1
  1
_D_1
  0
LINE
  5
E7
330
E4
100
AcDbEntity
  8
치수문자_일반주서
 62
     0
370
    -2
100
AcDbLine
 10
44.45000000000002
 20
4.031250000000005
 30
0.0
 11
44.45000000000002
 21
19.04622330062147
 31
0.0
  0
LINE
  5
E8
330
E4
100
AcDbEntity
  8
치수문자_일반주서
 62
     0
370
    -2
100
AcDbLine
 10
25.4
 20
4.02220681819054
 30
0.0
 11
25.4
 21
19.04622330062147
 31
0.0
  0
LINE
  5
E9
330
E4
100
AcDbEntity
  8
치수문자_일반주서
 62
     0
370
    -2
100
AcDbLine
 10
25.4
 20
19.04622330062147
 30
0.0
 11
-6.360250000000001
 21
19.04622330062147
 31
0.0
  0
LINE
  5
EA
330
E4
100
AcDbEntity
  8
치수문자_일반주서
 62
     0
370
    -2
100
AcDbLine
 10
44.45000000000002
 20
19.04622330062147
 30
0.0
 11
25.4
 21
19.04622330062147
 31
0.0
  0
LINE
  5
EB
330
E4
100
AcDbEntity
  8
치수문자_일반주서
 62
     0
370
    -2
100
AcDbLine
 10
47.75200000000002
 20
19.04622330062147
 30
0.0
 11
51.05400000000002
 21
19.04622330062147
 31
0.0
  0
LINE
  5
EC
330
E4
100
AcDbEntity
  8
치수문자_일반주서
 62
     0
370
    -2
100
AcDbLine
 10
22.098
 20
19.04622330062147
 30
0.0
 11
18.796
 21
19.04622330062147
 31
0.0
  0
SOLID
  5
ED
330
E4
100
AcDbEntity
  8
치수문자_일반주서
 62
     0
100
AcDbTrace
 10
47.75200000000002
 20
19.5965566339548
 30
0.0
 11
47.75200000000002
 21
18.49588996728814
 31
0.0
 12
44.45000000000002
 22
19.04622330062147
 32
0.0
 13
44.45000000000002
 23
19.04622330062147
 33
0.0
  0
SOLID
  5
EE
330
E4
100
AcDbEntity
  8
치수문자_일반주서
 62
     0
100
AcDbTrace
 10
22.098
 20
18.49588996728814
 30
0.0
 11
22.098
 21
19.5965566339548
 31
0.0
 12
25.4
 22
19.04622330062147
 32
0.0
 13
25.4
 23
19.04622330062147
 33
0.0
  0
MTEXT
  5
EF
330
E4
100
AcDbEntity
  8
치수문자_일반주서
 62
     0
100
AcDbMText
 10
6.108499999999999
 20
23.42122330062147
 30
0.0
 40
3.5
 41
0.0
 71
     2
 72
     1
  1
\A1;19.05 [3/4]
  7
SLDTEXTSTYLE0
 73
     1
 44
1.0
  0
POINT
  5
F0
330
E4
100
AcDbEntity
  8
Defpoints
 62
     0
100
AcDbPoint
 10
44.45000000000002
 20
3.968750000000005
 30
0.0
  0
POINT
  5
25C
330
E4
100
AcDbEntity
  8
Defpoints
 62
     0
100
AcDbPoint
 10
25.4
 20
3.95970681819054
 30
0.0
  0
POINT
  5
25D
330
E4
100
AcDbEntity
  8
Defpoints
 62
     0
100
AcDbPoint
 10
25.4
 20
19.04622330062147
 30
0.0
  0
ENDBLK
  5
E6
330
E4
100
AcDbEntity
  8
0
100
AcDbBlockEnd
  0
BLOCK
  5
FA
330
F9
100
AcDbEntity
  8
0
100
AcDbBlockBegin
  2
_D_2
 70
     0
 10
0.0
 20
0.0
 30
0.0
  3
_D_2
  1
_D_2
  0
LINE
  5
FC
330
F9
100
AcDbEntity
  8
치수문자_일반주서
 62
     0
370
    -2
100
AcDbLine
 10
44.45000000000002
 20
4.031250000000005
 30
0.0
 11
44.45000000000002
 21
32.23579047621222
 31
0.0
  0
LINE
  5
FD
330
F9
100
AcDbEntity
  8
치수문자_일반주서
 62
     0
370
    -2
100
AcDbLine
 10
-44.45
 20
4.03125
 30
0.0
 11
-44.45
 21
32.23579047621222
 31
0.0
  0
LINE
  5
FE
330
F9
100
AcDbEntity
  8
치수문자_일반주서
 62
     0
370
    -2
100
AcDbLine
 10
41.14800000000002
 20
32.23579047621222
 30
0.0
 11
-41.148
 21
32.23579047621222
 31
0.0
  0
SOLID
  5
FF
330
F9
100
AcDbEntity
  8
치수문자_일반주서
 62
     0
100
AcDbTrace
 10
41.14800000000002
 20
31.68545714287889
 30
0.0
 11
41.14800000000002
 21
32.78612380954556
 31
0.0
 12
44.45000000000002
 22
32.23579047621222
 32
0.0
 13
44.45000000000002
 23
32.23579047621222
 33
0.0
  0
SOLID
  5
100
330
F9
100
AcDbEntity
  8
치수문자_일반주서
 62
     0
100
AcDbTrace
 10
-41.148
 20
32.78612380954556
 30
0.0
 11
-41.148
 21
31.68545714287889
 31
0.0
 12
-44.45
 22
32.23579047621222
 32
0.0
 13
-44.45
 23
32.23579047621222
 33
0.0
  0
MTEXT
  5
101
330
F9
100
AcDbEntity
  8
치수문자_일반주서
 62
     0
100
AcDbMText
 10
1.075737392006189
 20
36.61079047621222
 30
0.0
 40
3.5
 41
0.0
 71
     2
 72
     1
  1
\A1;88.9 [3 1/2]
  7
SLDTEXTSTYLE0
 73
     1
 44
1.0
  0
POINT
  5
102
330
F9
100
AcDbEntity
  8
Defpoints
 62
     0
100
AcDbPoint
 10
44.45000000000002
 20
3.968750000000005
 30
0.0
  0
POINT
  5
103
330
F9
100
AcDbEntity
  8
Defpoints
 62
     0
100
AcDbPoint
 10
-44.45
 20
3.96875
 30
0.0
  0
POINT
  5
104
330
F9
100
AcDbEntity
  8
Defpoints
 62
     0
100
AcDbPoint
 10
-44.45
 20
32.23579047621222
 30
0.0
  0
ENDBLK
  5
FB
330
F9
100
AcDbEntity
  8
0
100
AcDbBlockEnd
  0
BLOCK
  5
10E
330
10D
100
AcDbEntity
  8
0
100
AcDbBlockBegin
  2
_D_3
 70
     0
 10
0.0
 20
0.0
 30
0.0
  3
_D_3
  1
_D_3
  0
LINE
  5
110
330
10D
100
AcDbEntity
  8
치수문자_일반주서
 62
     0
370
    -2
100
AcDbLine
 10
-21.5001846714922
 20
4.762500000000002
 30
0.0
 11
-56.97375000000002
 21
4.76249999999987
 31
0.0
  0
LINE
  5
111
330
10D
100
AcDbEntity
  8
치수문자_일반주서
 62
     0
370
    -2
100
AcDbLine
 10
-21.50018467149216
 20
-4.762500000000006
 30
0.0
 11
-56.97374999999999
 21
-4.762500000000138
 31
0.0
  0
LINE
  5
112
330
10D
100
AcDbEntity
  8
치수문자_일반주서
 62
     0
370
    -2
100
AcDbLine
 10
-56.97375000000001
 20
1.46049999999987
 30
0.0
 11
-56.97375
 21
-1.460500000000138
 31
0.0
  0
SOLID
  5
113
330
10D
100
AcDbEntity
  8
치수문자_일반주서
 62
     0
100
AcDbTrace
 10
-56.42341666666668
 20
1.460499999999872
 30
0.0
 11
-57.52408333333334
 21
1.460499999999868
 31
0.0
 12
-56.97375000000002
 22
4.76249999999987
 32
0.0
 13
-56.97375000000002
 23
4.76249999999987
 33
0.0
  0
SOLID
  5
114
330
10D
100
AcDbEntity
  8
치수문자_일반주서
 62
     0
100
AcDbTrace
 10
-57.52408333333334
 20
-1.46050000000014
 30
0.0
 11
-56.42341666666667
 21
-1.460500000000136
 31
0.0
 12
-56.97374999999999
 22
-4.762500000000138
 32
0.0
 13
-56.97374999999999
 23
-4.762500000000138
 33
0.0
  0
MTEXT
  5
115
330
10D
100
AcDbEntity
  8
치수문자_일반주서
 62
     0
100
AcDbMText
 10
-61.34875000000001
 20
-0.0000000000000156
 30
0.0
 40
3.5
 41
0.0
 71
     2
 72
     1
  1
\A1;%%c9.53 [3/8]
  7
SLDTEXTSTYLE0
 11
-3.729883127349604E-15
 21
1.0
 31
0.0
 73
     1
 44
1.0
  0
POINT
  5
116
330
10D
100
AcDbEntity
  8
Defpoints
 62
     0
100
AcDbPoint
 10
-21.4376846714922
 20
4.762500000000002
 30
0.0
  0
POINT
  5
117
330
10D
100
AcDbEntity
  8
Defpoints
 62
     0
100
AcDbPoint
 10
-21.43768467149216
 20
-4.762500000000006
 30
0.0
  0
POINT
  5
118
330
10D
100
AcDbEntity
  8
Defpoints
 62
     0
100
AcDbPoint
 10
-56.97374999999999
 20
-4.762500000000138
 30
0.0
  0
ENDBLK
  5
10F
330
10D
100
AcDbEntity
  8
0
100
AcDbBlockEnd
  0
BLOCK
  5
128
330
127
100
AcDbEntity
  8
0
100
AcDbBlockBegin
  2
SW_DOWELSYMBOL_0
 70
     0
 10
0.0
 20
0.0
 30
0.0
  3
SW_DOWELSYMBOL_0
  1
SW_DOWELSYMBOL_0
  0
CIRCLE
  5
12A
330
127
100
AcDbEntity
  8
해칭선
 62
     0
100
AcDbCircle
 10
0.0
 20
0.0
 30
0.0
 40
3.000000000000008
  0
HATCH
  5
12B
330
127
100
AcDbEntity
  8
0
  6
Continuous
 62
     0
370
     0
100
AcDbHatch
 10
0.0
 20
0.0
 30
0.0
210
0.0
220
0.0
230
1.0
  2
SOLID
 70
     1
 71
     0
 91
        1
 92
        0
 93
        3
 72
     2
 10
0.0
 20
0.0
 40
3.000000000000008
 50
0.0
 51
90.0
 73
     1
 72
     1
 10
0.0
 20
3.000000000000008
 11
0.0
 21
0.0
 72
     1
 10
0.0
 20
0.0
 11
3.00000000000001
 21
0.0
 97
        0
 75
     0
 76
     1
 98
        1
 10
0.0
 20
0.0
  0
HATCH
  5
12C
330
127
100
AcDbEntity
  8
0
  6
Continuous
 62
     0
370
     0
100
AcDbHatch
 10
0.0
 20
0.0
 30
0.0
210
0.0
220
0.0
230
1.0
  2
SOLID
 70
     1
 71
     0
 91
        1
 92
        0
 93
        3
 72
     2
 10
0.0
 20
0.0
 40
3.000000000000008
 50
180.0
 51
270.0000000000007
 73
     1
 72
     1
 10
0.0
 20
-3.000000000000008
 11
0.0
 21
0.0
 72
     1
 10
0.0
 20
0.0
 11
-3.00000000000001
 21
0.0
 97
        0
 75
     0
 76
     1
 98
        1
 10
0.0
 20
0.0
  0
ENDBLK
  5
129
330
127
100
AcDbEntity
  8
0
100
AcDbBlockEnd
  0
BLOCK
  5
1DC
330
1DB
100
AcDbEntity
  8
0
100
AcDbBlockBegin
  2
*D7
 70
     1
 10
0.0
 20
0.0
 30
0.0
  3
*D7
  1
*D8
  0
LINE
  5
1DE
330
1DB
100
AcDbEntity
  8
치수문자_일반주서
 62
     0
370
    -2
100
AcDbLine
 10
91.96250000000003
 20
14.14462499999995
 30
0.0
 11
104.353095663637
 21
14.144625
 31
0.0
  0
LINE
  5
1DF
330
1DB
100
AcDbEntity
  8
치수문자_일반주서
 62
     0
370
    -2
100
AcDbLine
 10
91.96250000000003
 20
6.60399999999995
 30
0.0
 11
104.3530956636371
 21
6.603999999999992
 31
0.0
  0
LINE
  5
1E0
330
1DB
100
AcDbEntity
  8
치수문자_일반주서
 62
     0
370
    -2
100
AcDbLine
 10
104.353095663637
 20
14.144625
 30
0.0
 11
104.3530956636369
 21
64.8510429725882
 31
0.0
  0
LINE
  5
1E1
330
1DB
100
AcDbEntity
  8
치수문자_일반주서
 62
     0
370
    -2
100
AcDbLine
 10
104.353095663637
 20
14.144625
 30
0.0
 11
104.3530956636371
 21
6.603999999999992
 31
0.0
  0
LINE
  5
1E2
330
1DB
100
AcDbEntity
  8
치수문자_일반주서
 62
     0
370
    -2
100
AcDbLine
 10
104.353095663637
 20
17.446625
 30
0.0
 11
104.353095663637
 21
20.748625
 31
0.0
  0
LINE
  5
1E3
330
1DB
100
AcDbEntity
  8
치수문자_일반주서
 62
     0
370
    -2
100
AcDbLine
 10
104.3530956636371
 20
3.301999999999992
 30
0.0
 11
104.3530956636371
 21
-0.0000000000000071
 31
0.0
  0
SOLID
  5
1E4
330
1DB
100
AcDbEntity
  8
치수문자_일반주서
 62
     0
100
AcDbTrace
 10
103.8027623303037
 20
17.44662499999999
 30
0.0
 11
104.9034289969703
 21
17.446625
 31
0.0
 12
104.353095663637
 22
14.144625
 32
0.0
 13
104.353095663637
 23
14.144625
 33
0.0
  0
SOLID
  5
1E5
330
1DB
100
AcDbEntity
  8
치수문자_일반주서
 62
     0
100
AcDbTrace
 10
104.9034289969704
 20
3.301999999999995
 30
0.0
 11
103.8027623303038
 21
3.30199999999999
 31
0.0
 12
104.3530956636371
 22
6.603999999999992
 32
0.0
 13
104.3530956636371
 23
6.603999999999992
 33
0.0
  0
MTEXT
  5
1E6
330
1DB
100
AcDbEntity
  8
치수문자_일반주서
 62
     0
100
AcDbMText
 10
99.9780956636369
 20
49.5385429725882
 30
0.0
 40
3.5
 41
0.0
 71
     2
 72
     1
  1
\A1;%%c7.54 [19/64]
  7
SLDTEXTSTYLE0
 11
-3.769145055005918E-15
 21
1.0
 31
0.0
 73
     1
 44
1.0
  0
POINT
  5
1E7
330
1DB
100
AcDbEntity
  8
Defpoints
 62
     0
100
AcDbPoint
 10
91.90000000000003
 20
14.14462499999995
 30
0.0
  0
POINT
  5
1E8
330
1DB
100
AcDbEntity
  8
Defpoints
 62
     0
100
AcDbPoint
 10
91.90000000000003
 20
6.60399999999995
 30
0.0
  0
POINT
  5
1E9
330
1DB
100
AcDbEntity
  8
Defpoints
 62
     0
100
AcDbPoint
 10
104.3530956636371
 20
6.603999999999997
 30
0.0
  0
ENDBLK
  5
1DD
330
1DB
100
AcDbEntity
  8
0
100
AcDbBlockEnd
  0
BLOCK
  5
1EB
330
1EA
100
AcDbEntity
  8
0
100
AcDbBlockBegin
  2
*D8
 70
     1
 10
0.0
 20
0.0
 30
0.0
  3
*D8
  1
*D9
  0
LINE
  5
1ED
330
1EA
100
AcDbEntity
  8
치수문자_일반주서
 62
     0
370
    -2
100
AcDbLine
 10
91.90000000000002
 20
14.20712499999995
 30
0.0
 11
91.90000000000002
 21
29.46363016074425
 31
0.0
  0
LINE
  5
1EE
330
1EA
100
AcDbEntity
  8
치수문자_일반주서
 62
     0
370
    -2
100
AcDbLine
 10
72.85000000000002
 20
14.1709686672756
 30
0.0
 11
72.85000000000002
 21
29.46363016074425
 31
0.0
  0
LINE
  5
1EF
330
1EA
100
AcDbEntity
  8
치수문자_일반주서
 62
     0
370
    -2
100
AcDbLine
 10
72.85000000000002
 20
29.46363016074425
 30
0.0
 11
41.30850000000002
 21
29.46363016074425
 31
0.0
  0
LINE
  5
1F0
330
1EA
100
AcDbEntity
  8
치수문자_일반주서
 62
     0
370
    -2
100
AcDbLine
 10
91.90000000000002
 20
29.46363016074425
 30
0.0
 11
72.85000000000002
 21
29.46363016074425
 31
0.0
  0
LINE
  5
1F1
330
1EA
100
AcDbEntity
  8
치수문자_일반주서
 62
     0
370
    -2
100
AcDbLine
 10
95.20200000000003
 20
29.46363016074425
 30
0.0
 11
98.50400000000002
 21
29.46363016074425
 31
0.0
  0
LINE
  5
1F2
330
1EA
100
AcDbEntity
  8
치수문자_일반주서
 62
     0
370
    -2
100
AcDbLine
 10
69.54800000000003
 20
29.46363016074425
 30
0.0
 11
66.24600000000004
 21
29.46363016074425
 31
0.0
  0
SOLID
  5
1F3
330
1EA
100
AcDbEntity
  8
치수문자_일반주서
 62
     0
100
AcDbTrace
 10
95.20200000000003
 20
30.01396349407758
 30
0.0
 11
95.20200000000003
 21
28.91329682741091
 31
0.0
 12
91.90000000000002
 22
29.46363016074425
 32
0.0
 13
91.90000000000002
 23
29.46363016074425
 33
0.0
  0
SOLID
  5
1F4
330
1EA
100
AcDbEntity
  8
치수문자_일반주서
 62
     0
100
AcDbTrace
 10
69.54800000000003
 20
28.91329682741091
 30
0.0
 11
69.54800000000003
 21
30.01396349407758
 31
0.0
 12
72.85000000000002
 22
29.46363016074425
 32
0.0
 13
72.85000000000002
 23
29.46363016074425
 33
0.0
  0
MTEXT
  5
1F5
330
1EA
100
AcDbEntity
  8
치수문자_일반주서
 62
     0
100
AcDbMText
 10
53.77725000000002
 20
33.83863016074424
 30
0.0
 40
3.5
 41
0.0
 71
     2
 72
     1
  1
\A1;19.05 [3/4]
  7
SLDTEXTSTYLE0
 73
     1
 44
1.0
  0
POINT
  5
1F6
330
1EA
100
AcDbEntity
  8
Defpoints
 62
     0
100
AcDbPoint
 10
91.90000000000002
 20
14.14462499999995
 30
0.0
  0
POINT
  5
1F7
330
1EA
100
AcDbEntity
  8
Defpoints
 62
     0
100
AcDbPoint
 10
72.85000000000002
 20
14.1084686672756
 30
0.0
  0
POINT
  5
1F8
330
1EA
100
AcDbEntity
  8
Defpoints
 62
     0
100
AcDbPoint
 10
72.85000000000002
 20
29.46363016074425
 30
0.0
  0
ENDBLK
  5
1EC
330
1EA
100
AcDbEntity
  8
0
100
AcDbBlockEnd
  0
BLOCK
  5
1FA
330
1F9
100
AcDbEntity
  8
0
100
AcDbBlockBegin
  2
*D9
 70
     1
 10
0.0
 20
0.0
 30
0.0
  3
*D9
  1
*D10
  0
LINE
  5
1FC
330
1F9
100
AcDbEntity
  8
치수문자_일반주서
 62
     0
370
    -2
100
AcDbLine
 10
91.90000000000002
 20
14.20712499999995
 30
0.0
 11
91.9
 21
43.76583922868297
 31
0.0
  0
LINE
  5
1FD
330
1F9
100
AcDbEntity
  8
치수문자_일반주서
 62
     0
370
    -2
100
AcDbLine
 10
3.000000000000007
 20
14.24681249999994
 30
0.0
 11
2.999999999999993
 21
43.76583922868297
 31
0.0
  0
LINE
  5
1FE
330
1F9
100
AcDbEntity
  8
치수문자_일반주서
 62
     0
370
    -2
100
AcDbLine
 10
88.59800000000001
 20
43.76583922868297
 30
0.0
 11
6.301999999999992
 21
43.76583922868297
 31
0.0
  0
SOLID
  5
1FF
330
1F9
100
AcDbEntity
  8
치수문자_일반주서
 62
     0
100
AcDbTrace
 10
88.59800000000001
 20
43.21550589534964
 30
0.0
 11
88.59800000000001
 21
44.31617256201631
 31
0.0
 12
91.9
 22
43.76583922868297
 32
0.0
 13
91.9
 23
43.76583922868297
 33
0.0
  0
SOLID
  5
200
330
1F9
100
AcDbEntity
  8
치수문자_일반주서
 62
     0
100
AcDbTrace
 10
6.301999999999992
 20
44.31617256201631
 30
0.0
 11
6.301999999999992
 21
43.21550589534964
 31
0.0
 12
2.999999999999993
 22
43.76583922868297
 32
0.0
 13
2.999999999999993
 23
43.76583922868297
 33
0.0
  0
MTEXT
  5
201
330
1F9
100
AcDbEntity
  8
치수문자_일반주서
 62
     0
100
AcDbMText
 10
45.18172079936718
 20
48.14083922868297
 30
0.0
 40
3.5
 41
0.0
 71
     2
 72
     1
  1
\A1;88.9 [3 1/2]
  7
SLDTEXTSTYLE0
 73
     1
 44
1.0
  0
POINT
  5
202
330
1F9
100
AcDbEntity
  8
Defpoints
 62
     0
100
AcDbPoint
 10
91.90000000000002
 20
14.14462499999995
 30
0.0
  0
POINT
  5
203
330
1F9
100
AcDbEntity
  8
Defpoints
 62
     0
100
AcDbPoint
 10
3.000000000000007
 20
14.18431249999994
 30
0.0
  0
POINT
  5
204
330
1F9
100
AcDbEntity
  8
Defpoints
 62
     0
100
AcDbPoint
 10
3.000000000000007
 20
43.76583922868297
 30
0.0
  0
ENDBLK
  5
1FB
330
1F9
100
AcDbEntity
  8
0
100
AcDbBlockEnd
  0
BLOCK
  5
232
330
231
100
AcDbEntity
  8
0
100
AcDbBlockBegin
  2
*D10
 70
     1
 10
0.0
 20
0.0
 30
0.0
  3
*D10
  1
*D11
  0
LINE
  5
234
330
231
100
AcDbEntity
  8
치수문자_일반주서
 62
     0
370
    -2
100
AcDbLine
 10
183.7076271453927
 20
-38.46681296365625
 30
0.0
 11
196.0982228090297
 21
-38.46681296365621
 31
0.0
  0
LINE
  5
235
330
231
100
AcDbEntity
  8
치수문자_일반주서
 62
     0
370
    -2
100
AcDbLine
 10
183.7076271453927
 20
-46.00743796365625
 30
0.0
 11
196.0982228090298
 21
-46.00743796365621
 31
0.0
  0
LINE
  5
236
330
231
100
AcDbEntity
  8
치수문자_일반주서
 62
     0
370
    -2
100
AcDbLine
 10
196.0982228090297
 20
-38.46681296365621
 30
0.0
 11
196.0982228090296
 21
12.23960500893201
 31
0.0
  0
LINE
  5
237
330
231
100
AcDbEntity
  8
치수문자_일반주서
 62
     0
370
    -2
100
AcDbLine
 10
196.0982228090297
 20
-38.46681296365621
 30
0.0
 11
196.0982228090298
 21
-46.00743796365621
 31
0.0
  0
LINE
  5
238
330
231
100
AcDbEntity
  8
치수문자_일반주서
 62
     0
370
    -2
100
AcDbLine
 10
196.0982228090297
 20
-35.16481296365621
 30
0.0
 11
196.0982228090297
 21
-31.86281296365621
 31
0.0
  0
LINE
  5
239
330
231
100
AcDbEntity
  8
치수문자_일반주서
 62
     0
370
    -2
100
AcDbLine
 10
196.0982228090298
 20
-49.30943796365621
 30
0.0
 11
196.0982228090298
 21
-52.61143796365621
 31
0.0
  0
SOLID
  5
23A
330
231
100
AcDbEntity
  8
치수문자_일반주서
 62
     0
100
AcDbTrace
 10
195.5478894756964
 20
-35.16481296365621
 30
0.0
 11
196.6485561423631
 21
-35.16481296365621
 31
0.0
 12
196.0982228090297
 22
-38.46681296365621
 32
0.0
 13
196.0982228090297
 23
-38.46681296365621
 33
0.0
  0
SOLID
  5
23B
330
231
100
AcDbEntity
  8
치수문자_일반주서
 62
     0
100
AcDbTrace
 10
196.6485561423631
 20
-49.30943796365621
 30
0.0
 11
195.5478894756965
 21
-49.30943796365621
 31
0.0
 12
196.0982228090298
 22
-46.00743796365621
 32
0.0
 13
196.0982228090298
 23
-46.00743796365621
 33
0.0
  0
MTEXT
  5
23C
330
231
100
AcDbEntity
  8
치수문자_일반주서
 62
     0
100
AcDbMText
 10
191.7232228090296
 20
-3.072894991068007
 30
0.0
 40
3.5
 41
0.0
 71
     2
 72
     1
  1
\A1;%%c7.54 [19/64]
  7
SLDTEXTSTYLE0
 11
-3.769145055005923E-15
 21
1.0
 31
0.0
 73
     1
 44
1.0
  0
POINT
  5
23D
330
231
100
AcDbEntity
  8
Defpoints
 62
     0
100
AcDbPoint
 10
183.6451271453927
 20
-38.46681296365625
 30
0.0
  0
POINT
  5
23E
330
231
100
AcDbEntity
  8
Defpoints
 62
     0
100
AcDbPoint
 10
183.6451271453927
 20
-46.00743796365625
 30
0.0
  0
POINT
  5
23F
330
231
100
AcDbEntity
  8
Defpoints
 62
     0
100
AcDbPoint
 10
196.0982228090298
 20
-46.0074379636562
 30
0.0
  0
ENDBLK
  5
233
330
231
100
AcDbEntity
  8
0
100
AcDbBlockEnd
  0
BLOCK
  5
241
330
240
100
AcDbEntity
  8
0
100
AcDbBlockBegin
  2
*D11
 70
     1
 10
0.0
 20
0.0
 30
0.0
  3
*D11
  1
*D12
  0
LINE
  5
243
330
240
100
AcDbEntity
  8
치수문자_일반주서
 62
     0
370
    -2
100
AcDbLine
 10
183.6451271453927
 20
-38.40431296365625
 30
0.0
 11
183.6451271453927
 21
-23.14780780291195
 31
0.0
  0
LINE
  5
244
330
240
100
AcDbEntity
  8
치수문자_일반주서
 62
     0
370
    -2
100
AcDbLine
 10
164.5951271453927
 20
-38.44046929638061
 30
0.0
 11
164.5951271453927
 21
-23.14780780291195
 31
0.0
  0
LINE
  5
245
330
240
100
AcDbEntity
  8
치수문자_일반주서
 62
     0
370
    -2
100
AcDbLine
 10
164.5951271453927
 20
-23.14780780291195
 30
0.0
 11
133.0536271453927
 21
-23.14780780291195
 31
0.0
  0
LINE
  5
246
330
240
100
AcDbEntity
  8
치수문자_일반주서
 62
     0
370
    -2
100
AcDbLine
 10
183.6451271453927
 20
-23.14780780291195
 30
0.0
 11
164.5951271453927
 21
-23.14780780291195
 31
0.0
  0
LINE
  5
247
330
240
100
AcDbEntity
  8
치수문자_일반주서
 62
     0
370
    -2
100
AcDbLine
 10
186.9471271453927
 20
-23.14780780291195
 30
0.0
 11
190.2491271453927
 21
-23.14780780291195
 31
0.0
  0
LINE
  5
248
330
240
100
AcDbEntity
  8
치수문자_일반주서
 62
     0
370
    -2
100
AcDbLine
 10
161.2931271453927
 20
-23.14780780291195
 30
0.0
 11
157.9911271453927
 21
-23.14780780291195
 31
0.0
  0
SOLID
  5
249
330
240
100
AcDbEntity
  8
치수문자_일반주서
 62
     0
100
AcDbTrace
 10
186.9471271453927
 20
-22.59747446957862
 30
0.0
 11
186.9471271453927
 21
-23.69814113624529
 31
0.0
 12
183.6451271453927
 22
-23.14780780291195
 32
0.0
 13
183.6451271453927
 23
-23.14780780291195
 33
0.0
  0
SOLID
  5
24A
330
240
100
AcDbEntity
  8
치수문자_일반주서
 62
     0
100
AcDbTrace
 10
161.2931271453927
 20
-23.69814113624529
 30
0.0
 11
161.2931271453927
 21
-22.59747446957862
 31
0.0
 12
164.5951271453927
 22
-23.14780780291195
 32
0.0
 13
164.5951271453927
 23
-23.14780780291195
 33
0.0
  0
MTEXT
  5
24B
330
240
100
AcDbEntity
  8
치수문자_일반주서
 62
     0
100
AcDbMText
 10
145.5223771453927
 20
-18.77280780291195
 30
0.0
 40
3.5
 41
0.0
 71
     2
 72
     1
  1
\A1;19.05 [3/4]
  7
SLDTEXTSTYLE0
 73
     1
 44
1.0
  0
POINT
  5
24C
330
240
100
AcDbEntity
  8
Defpoints
 62
     0
100
AcDbPoint
 10
183.6451271453927
 20
-38.46681296365625
 30
0.0
  0
POINT
  5
24D
330
240
100
AcDbEntity
  8
Defpoints
 62
     0
100
AcDbPoint
 10
164.5951271453927
 20
-38.50296929638061
 30
0.0
  0
POINT
  5
24E
330
240
100
AcDbEntity
  8
Defpoints
 62
     0
100
AcDbPoint
 10
164.5951271453927
 20
-23.14780780291195
 30
0.0
  0
ENDBLK
  5
242
330
240
100
AcDbEntity
  8
0
100
AcDbBlockEnd
  0
BLOCK
  5
250
330
24F
100
AcDbEntity
  8
0
100
AcDbBlockBegin
  2
*D12
 70
     1
 10
0.0
 20
0.0
 30
0.0
  3
*D12
  1
*D13
  0
LINE
  5
252
330
24F
100
AcDbEntity
  8
치수문자_일반주서
 62
     0
370
    -2
100
AcDbLine
 10
183.6451271453927
 20
-38.40431296365625
 30
0.0
 11
183.6451271453927
 21
-8.84559873497323
 31
0.0
  0
LINE
  5
253
330
24F
100
AcDbEntity
  8
치수문자_일반주서
 62
     0
370
    -2
100
AcDbLine
 10
94.74512714539273
 20
-38.36462546365625
 30
0.0
 11
94.74512714539273
 21
-8.84559873497323
 31
0.0
  0
LINE
  5
254
330
24F
100
AcDbEntity
  8
치수문자_일반주서
 62
     0
370
    -2
100
AcDbLine
 10
180.3431271453927
 20
-8.84559873497323
 30
0.0
 11
98.04712714539272
 21
-8.84559873497323
 31
0.0
  0
SOLID
  5
255
330
24F
100
AcDbEntity
  8
치수문자_일반주서
 62
     0
100
AcDbTrace
 10
180.3431271453927
 20
-9.395932068306562
 30
0.0
 11
180.3431271453927
 21
-8.295265401639897
 31
0.0
 12
183.6451271453927
 22
-8.84559873497323
 32
0.0
 13
183.6451271453927
 23
-8.84559873497323
 33
0.0
  0
SOLID
  5
256
330
24F
100
AcDbEntity
  8
치수문자_일반주서
 62
     0
100
AcDbTrace
 10
98.04712714539272
 20
-8.295265401639897
 30
0.0
 11
98.04712714539272
 21
-9.395932068306562
 31
0.0
 12
94.74512714539273
 22
-8.84559873497323
 32
0.0
 13
94.74512714539273
 23
-8.84559873497323
 33
0.0
  0
MTEXT
  5
257
330
24F
100
AcDbEntity
  8
치수문자_일반주서
 62
     0
100
AcDbMText
 10
136.9268479447599
 20
-4.47059873497323
 30
0.0
 40
3.5
 41
0.0
 71
     2
 72
     1
  1
\A1;88.9 [3 1/2]
  7
SLDTEXTSTYLE0
 73
     1
 44
1.0
  0
POINT
  5
258
330
24F
100
AcDbEntity
  8
Defpoints
 62
     0
100
AcDbPoint
 10
183.6451271453927
 20
-38.46681296365625
 30
0.0
  0
POINT
  5
259
330
24F
100
AcDbEntity
  8
Defpoints
 62
     0
100
AcDbPoint
 10
94.74512714539273
 20
-38.42712546365625
 30
0.0
  0
POINT
  5
25A
330
24F
100
AcDbEntity
  8
Defpoints
 62
     0
100
AcDbPoint
 10
94.74512714539273
 20
-8.84559873497323
 30
0.0
  0
ENDBLK
  5
251
330
24F
100
AcDbEntity
  8
0
100
AcDbBlockEnd
  0
BLOCK
  5
2EB
330
2EA
100
AcDbEntity
  8
0
100
AcDbBlockBegin
  2
*D13
 70
     1
 10
0.0
 20
0.0
 30
0.0
  3
*D13
  1
*D15
  0
LINE
  5
2ED
330
2EA
100
AcDbEntity
  8
치수문자_일반주서
 62
     0
370
    -2
100
AcDbLine
 10
91.96250000000002
 20
14.54149999999995
 30
0.0
 11
103.9636519775437
 21
14.5415
 31
0.0
  0
LINE
  5
2EE
330
2EA
100
AcDbEntity
  8
치수문자_일반주서
 62
     0
370
    -2
100
AcDbLine
 10
91.96250000000002
 20
6.603999999999955
 30
0.0
 11
103.9636519775438
 21
6.603999999999999
 31
0.0
  0
LINE
  5
2EF
330
2EA
100
AcDbEntity
  8
치수문자_일반주서
 62
     0
370
    -2
100
AcDbLine
 10
103.9636519775437
 20
14.5415
 30
0.0
 11
103.9636519775435
 21
65.79825576061918
 31
0.0
  0
LINE
  5
2F0
330
2EA
100
AcDbEntity
  8
치수문자_일반주서
 62
     0
370
    -2
100
AcDbLine
 10
103.9636519775437
 20
14.5415
 30
0.0
 11
103.9636519775438
 21
6.603999999999999
 31
0.0
  0
LINE
  5
2F1
330
2EA
100
AcDbEntity
  8
치수문자_일반주서
 62
     0
370
    -2
100
AcDbLine
 10
103.9636519775437
 20
17.8435
 30
0.0
 11
103.9636519775437
 21
21.1455
 31
0.0
  0
LINE
  5
2F2
330
2EA
100
AcDbEntity
  8
치수문자_일반주서
 62
     0
370
    -2
100
AcDbLine
 10
103.9636519775438
 20
3.302
 30
0.0
 11
103.9636519775438
 21
0.0
 31
0.0
  0
SOLID
  5
2F3
330
2EA
100
AcDbEntity
  8
치수문자_일반주서
 62
     0
100
AcDbTrace
 10
103.4133186442104
 20
17.8435
 30
0.0
 11
104.513985310877
 21
17.8435
 31
0.0
 12
103.9636519775437
 22
14.5415
 32
0.0
 13
103.9636519775437
 23
14.5415
 33
0.0
  0
SOLID
  5
2F4
330
2EA
100
AcDbEntity
  8
치수문자_일반주서
 62
     0
100
AcDbTrace
 10
104.5139853108771
 20
3.302000000000001
 30
0.0
 11
103.4133186442104
 21
3.301999999999998
 31
0.0
 12
103.9636519775438
 22
6.603999999999999
 32
0.0
 13
103.9636519775438
 23
6.603999999999999
 33
0.0
  0
MTEXT
  5
2F5
330
2EA
100
AcDbEntity
  8
치수문자_일반주서
 62
     0
100
AcDbMText
 10
99.5886519775436
 20
51.79825576061918
 30
0.0
 40
3.5
 41
0.0
 71
     2
 72
     1
  1
\A1;%%c7.94 [5/16]
  7
SLDTEXTSTYLE0
 11
-3.580687802255624E-15
 21
1.0
 31
0.0
 73
     1
 44
1.0
  0
POINT
  5
2F6
330
2EA
100
AcDbEntity
  8
Defpoints
 62
     0
100
AcDbPoint
 10
91.90000000000002
 20
14.54149999999995
 30
0.0
  0
POINT
  5
2F7
330
2EA
100
AcDbEntity
  8
Defpoints
 62
     0
100
AcDbPoint
 10
91.90000000000002
 20
6.603999999999955
 30
0.0
  0
POINT
  5
2F8
330
2EA
100
AcDbEntity
  8
Defpoints
 62
     0
100
AcDbPoint
 10
103.9636519775438
 20
6.604
 30
0.0
  0
ENDBLK
  5
2EC
330
2EA
100
AcDbEntity
  8
0
100
AcDbBlockEnd
  0
BLOCK
  5
2FA
330
2F9
100
AcDbEntity
  8
0
100
AcDbBlockBegin
  2
*D14
 70
     1
 10
0.0
 20
0.0
 30
0.0
  3
*D14
  1
*D16
  0
LINE
  5
2FC
330
2F9
100
AcDbEntity
  8
치수문자_일반주서
 62
     0
370
    -2
100
AcDbLine
 10
91.90000000000002
 20
14.60399999999995
 30
0.0
 11
91.90000000000002
 21
29.61897330062142
 31
0.0
  0
LINE
  5
2FD
330
2F9
100
AcDbEntity
  8
치수문자_일반주서
 62
     0
370
    -2
100
AcDbLine
 10
72.85
 20
14.59495681819049
 30
0.0
 11
72.85
 21
29.61897330062142
 31
0.0
  0
LINE
  5
2FE
330
2F9
100
AcDbEntity
  8
치수문자_일반주서
 62
     0
370
    -2
100
AcDbLine
 10
72.85
 20
29.61897330062142
 30
0.0
 11
41.08975
 21
29.61897330062142
 31
0.0
  0
LINE
  5
2FF
330
2F9
100
AcDbEntity
  8
치수문자_일반주서
 62
     0
370
    -2
100
AcDbLine
 10
91.90000000000002
 20
29.61897330062142
 30
0.0
 11
72.85
 21
29.61897330062142
 31
0.0
  0
LINE
  5
300
330
2F9
100
AcDbEntity
  8
치수문자_일반주서
 62
     0
370
    -2
100
AcDbLine
 10
95.20200000000003
 20
29.61897330062142
 30
0.0
 11
98.50400000000002
 21
29.61897330062142
 31
0.0
  0
LINE
  5
301
330
2F9
100
AcDbEntity
  8
치수문자_일반주서
 62
     0
370
    -2
100
AcDbLine
 10
69.548
 20
29.61897330062142
 30
0.0
 11
66.24600000000001
 21
29.61897330062142
 31
0.0
  0
SOLID
  5
302
330
2F9
100
AcDbEntity
  8
치수문자_일반주서
 62
     0
100
AcDbTrace
 10
95.20200000000003
 20
30.16930663395475
 30
0.0
 11
95.20200000000003
 21
29.06863996728809
 31
0.0
 12
91.90000000000002
 22
29.61897330062142
 32
0.0
 13
91.90000000000002
 23
29.61897330062142
 33
0.0
  0
SOLID
  5
303
330
2F9
100
AcDbEntity
  8
치수문자_일반주서
 62
     0
100
AcDbTrace
 10
69.548
 20
29.06863996728809
 30
0.0
 11
69.548
 21
30.16930663395475
 31
0.0
 12
72.85
 22
29.61897330062142
 32
0.0
 13
72.85
 23
29.61897330062142
 33
0.0
  0
MTEXT
  5
304
330
2F9
100
AcDbEntity
  8
치수문자_일반주서
 62
     0
100
AcDbMText
 10
53.5585
 20
33.99397330062142
 30
0.0
 40
3.5
 41
0.0
 71
     2
 72
     1
  1
\A1;19.05 [3/4]
  7
SLDTEXTSTYLE0
 73
     1
 44
1.0
  0
POINT
  5
305
330
2F9
100
AcDbEntity
  8
Defpoints
 62
     0
100
AcDbPoint
 10
91.90000000000002
 20
14.54149999999995
 30
0.0
  0
POINT
  5
306
330
2F9
100
AcDbEntity
  8
Defpoints
 62
     0
100
AcDbPoint
 10
72.85
 20
14.53245681819049
 30
0.0
  0
POINT
  5
307
330
2F9
100
AcDbEntity
  8
Defpoints
 62
     0
100
AcDbPoint
 10
72.85
 20
29.61897330062142
 30
0.0
  0
ENDBLK
  5
2FB
330
2F9
100
AcDbEntity
  8
0
100
AcDbBlockEnd
  0
BLOCK
  5
309
330
308
100
AcDbEntity
  8
0
100
AcDbBlockBegin
  2
*D15
 70
     1
 10
0.0
 20
0.0
 30
0.0
  3
*D15
  1
*D17
  0
LINE
  5
30B
330
308
100
AcDbEntity
  8
치수문자_일반주서
 62
     0
370
    -2
100
AcDbLine
 10
91.90000000000002
 20
14.60399999999995
 30
0.0
 11
91.9
 21
42.80854047621217
 31
0.0
  0
LINE
  5
30C
330
308
100
AcDbEntity
  8
치수문자_일반주서
 62
     0
370
    -2
100
AcDbLine
 10
3.000000000000007
 20
14.44524999999995
 30
0.0
 11
2.999999999999993
 21
42.80854047621217
 31
0.0
  0
LINE
  5
30D
330
308
100
AcDbEntity
  8
치수문자_일반주서
 62
     0
370
    -2
100
AcDbLine
 10
88.59800000000001
 20
42.80854047621217
 30
0.0
 11
6.301999999999992
 21
42.80854047621217
 31
0.0
  0
SOLID
  5
30E
330
308
100
AcDbEntity
  8
치수문자_일반주서
 62
     0
100
AcDbTrace
 10
88.59800000000001
 20
42.25820714287884
 30
0.0
 11
88.59800000000001
 21
43.35887380954551
 31
0.0
 12
91.9
 22
42.80854047621217
 32
0.0
 13
91.9
 23
42.80854047621217
 33
0.0
  0
SOLID
  5
30F
330
308
100
AcDbEntity
  8
치수문자_일반주서
 62
     0
100
AcDbTrace
 10
6.301999999999992
 20
43.35887380954551
 30
0.0
 11
6.301999999999992
 21
42.25820714287884
 31
0.0
 12
2.999999999999993
 22
42.80854047621217
 32
0.0
 13
2.999999999999993
 23
42.80854047621217
 33
0.0
  0
MTEXT
  5
310
330
308
100
AcDbEntity
  8
치수문자_일반주서
 62
     0
100
AcDbMText
 10
48.52573739200619
 20
47.18354047621217
 30
0.0
 40
3.5
 41
0.0
 71
     2
 72
     1
  1
\A1;88.9 [3 1/2]
  7
SLDTEXTSTYLE0
 73
     1
 44
1.0
  0
POINT
  5
311
330
308
100
AcDbEntity
  8
Defpoints
 62
     0
100
AcDbPoint
 10
91.90000000000002
 20
14.54149999999995
 30
0.0
  0
POINT
  5
312
330
308
100
AcDbEntity
  8
Defpoints
 62
     0
100
AcDbPoint
 10
3.000000000000007
 20
14.38274999999995
 30
0.0
  0
POINT
  5
313
330
308
100
AcDbEntity
  8
Defpoints
 62
     0
100
AcDbPoint
 10
3.000000000000007
 20
42.80854047621217
 30
0.0
  0
ENDBLK
  5
30A
330
308
100
AcDbEntity
  8
0
100
AcDbBlockEnd
  0
BLOCK
  5
344
330
343
100
AcDbEntity
  8
0
100
AcDbBlockBegin
  2
*D16
 70
     1
 10
0.0
 20
0.0
 30
0.0
  3
*D16
  1
*D18
  0
LINE
  5
346
330
343
100
AcDbEntity
  8
치수문자_일반주서
 62
     0
370
    -2
100
AcDbLine
 10
184.009778861014
 20
-30.97076688322935
 30
0.0
 11
196.0109308385577
 21
-30.9707668832293
 31
0.0
  0
LINE
  5
347
330
343
100
AcDbEntity
  8
치수문자_일반주서
 62
     0
370
    -2
100
AcDbLine
 10
184.009778861014
 20
-38.90826688322935
 30
0.0
 11
196.0109308385577
 21
-38.9082668832293
 31
0.0
  0
LINE
  5
348
330
343
100
AcDbEntity
  8
치수문자_일반주서
 62
     0
370
    -2
100
AcDbLine
 10
196.0109308385577
 20
-30.9707668832293
 30
0.0
 11
196.0109308385575
 21
20.28598887738989
 31
0.0
  0
LINE
  5
349
330
343
100
AcDbEntity
  8
치수문자_일반주서
 62
     0
370
    -2
100
AcDbLine
 10
196.0109308385577
 20
-30.9707668832293
 30
0.0
 11
196.0109308385577
 21
-38.9082668832293
 31
0.0
  0
LINE
  5
34A
330
343
100
AcDbEntity
  8
치수문자_일반주서
 62
     0
370
    -2
100
AcDbLine
 10
196.0109308385577
 20
-27.6687668832293
 30
0.0
 11
196.0109308385577
 21
-24.3667668832293
 31
0.0
  0
LINE
  5
34B
330
343
100
AcDbEntity
  8
치수문자_일반주서
 62
     0
370
    -2
100
AcDbLine
 10
196.0109308385577
 20
-42.2102668832293
 30
0.0
 11
196.0109308385577
 21
-45.5122668832293
 31
0.0
  0
SOLID
  5
34C
330
343
100
AcDbEntity
  8
치수문자_일반주서
 62
     0
100
AcDbTrace
 10
195.4605975052244
 20
-27.66876688322931
 30
0.0
 11
196.561264171891
 21
-27.6687668832293
 31
0.0
 12
196.0109308385577
 22
-30.9707668832293
 32
0.0
 13
196.0109308385577
 23
-30.9707668832293
 33
0.0
  0
SOLID
  5
34D
330
343
100
AcDbEntity
  8
치수문자_일반주서
 62
     0
100
AcDbTrace
 10
196.5612641718911
 20
-42.2102668832293
 30
0.0
 11
195.4605975052244
 21
-42.2102668832293
 31
0.0
 12
196.0109308385577
 22
-38.9082668832293
 32
0.0
 13
196.0109308385577
 23
-38.9082668832293
 33
0.0
  0
MTEXT
  5
34E
330
343
100
AcDbEntity
  8
치수문자_일반주서
 62
     0
100
AcDbMText
 10
191.6359308385576
 20
6.285988877389874
 30
0.0
 40
3.5
 41
0.0
 71
     2
 72
     1
  1
\A1;%%c7.94 [5/16]
  7
SLDTEXTSTYLE0
 11
-3.580687802255621E-15
 21
1.0
 31
0.0
 73
     1
 44
1.0
  0
POINT
  5
34F
330
343
100
AcDbEntity
  8
Defpoints
 62
     0
100
AcDbPoint
 10
183.947278861014
 20
-30.97076688322935
 30
0.0
  0
POINT
  5
350
330
343
100
AcDbEntity
  8
Defpoints
 62
     0
100
AcDbPoint
 10
183.947278861014
 20
-38.90826688322935
 30
0.0
  0
POINT
  5
351
330
343
100
AcDbEntity
  8
Defpoints
 62
     0
100
AcDbPoint
 10
196.0109308385577
 20
-38.9082668832293
 30
0.0
  0
ENDBLK
  5
345
330
343
100
AcDbEntity
  8
0
100
AcDbBlockEnd
  0
BLOCK
  5
353
330
352
100
AcDbEntity
  8
0
100
AcDbBlockBegin
  2
*D17
 70
     1
 10
0.0
 20
0.0
 30
0.0
  3
*D17
  1
*D19
  0
LINE
  5
355
330
352
100
AcDbEntity
  8
치수문자_일반주서
 62
     0
370
    -2
100
AcDbLine
 10
183.947278861014
 20
-30.90826688322935
 30
0.0
 11
183.947278861014
 21
-15.89329358260788
 31
0.0
  0
LINE
  5
356
330
352
100
AcDbEntity
  8
치수문자_일반주서
 62
     0
370
    -2
100
AcDbLine
 10
164.8972788610139
 20
-30.91731006503881
 30
0.0
 11
164.8972788610139
 21
-15.89329358260788
 31
0.0
  0
LINE
  5
357
330
352
100
AcDbEntity
  8
치수문자_일반주서
 62
     0
370
    -2
100
AcDbLine
 10
164.8972788610139
 20
-15.89329358260788
 30
0.0
 11
133.137028861014
 21
-15.89329358260788
 31
0.0
  0
LINE
  5
358
330
352
100
AcDbEntity
  8
치수문자_일반주서
 62
     0
370
    -2
100
AcDbLine
 10
183.947278861014
 20
-15.89329358260788
 30
0.0
 11
164.8972788610139
 21
-15.89329358260788
 31
0.0
  0
LINE
  5
359
330
352
100
AcDbEntity
  8
치수문자_일반주서
 62
     0
370
    -2
100
AcDbLine
 10
187.2492788610139
 20
-15.89329358260788
 30
0.0
 11
190.5512788610139
 21
-15.89329358260788
 31
0.0
  0
LINE
  5
35A
330
352
100
AcDbEntity
  8
치수문자_일반주서
 62
     0
370
    -2
100
AcDbLine
 10
161.595278861014
 20
-15.89329358260788
 30
0.0
 11
158.293278861014
 21
-15.89329358260788
 31
0.0
  0
SOLID
  5
35B
330
352
100
AcDbEntity
  8
치수문자_일반주서
 62
     0
100
AcDbTrace
 10
187.2492788610139
 20
-15.34296024927455
 30
0.0
 11
187.2492788610139
 21
-16.44362691594122
 31
0.0
 12
183.947278861014
 22
-15.89329358260788
 32
0.0
 13
183.947278861014
 23
-15.89329358260788
 33
0.0
  0
SOLID
  5
35C
330
352
100
AcDbEntity
  8
치수문자_일반주서
 62
     0
100
AcDbTrace
 10
161.595278861014
 20
-16.44362691594122
 30
0.0
 11
161.595278861014
 21
-15.34296024927455
 31
0.0
 12
164.8972788610139
 22
-15.89329358260788
 32
0.0
 13
164.8972788610139
 23
-15.89329358260788
 33
0.0
  0
MTEXT
  5
35D
330
352
100
AcDbEntity
  8
치수문자_일반주서
 62
     0
100
AcDbMText
 10
145.605778861014
 20
-11.51829358260788
 30
0.0
 40
3.5
 41
0.0
 71
     2
 72
     1
  1
\A1;19.05 [3/4]
  7
SLDTEXTSTYLE0
 73
     1
 44
1.0
  0
POINT
  5
35E
330
352
100
AcDbEntity
  8
Defpoints
 62
     0
100
AcDbPoint
 10
183.947278861014
 20
-30.97076688322935
 30
0.0
  0
POINT
  5
35F
330
352
100
AcDbEntity
  8
Defpoints
 62
     0
100
AcDbPoint
 10
164.8972788610139
 20
-30.97981006503881
 30
0.0
  0
POINT
  5
360
330
352
100
AcDbEntity
  8
Defpoints
 62
     0
100
AcDbPoint
 10
164.8972788610139
 20
-15.89329358260788
 30
0.0
  0
ENDBLK
  5
354
330
352
100
AcDbEntity
  8
0
100
AcDbBlockEnd
  0
BLOCK
  5
362
330
361
100
AcDbEntity
  8
0
100
AcDbBlockBegin
  2
*D18
 70
     1
 10
0.0
 20
0.0
 30
0.0
  3
*D18
  1
*D20
  0
LINE
  5
364
330
361
100
AcDbEntity
  8
치수문자_일반주서
 62
     0
370
    -2
100
AcDbLine
 10
183.947278861014
 20
-30.90826688322935
 30
0.0
 11
183.947278861014
 21
-2.703726407017129
 31
0.0
  0
LINE
  5
365
330
361
100
AcDbEntity
  8
치수문자_일반주서
 62
     0
370
    -2
100
AcDbLine
 10
95.04727886101395
 20
-31.06701688322935
 30
0.0
 11
95.04727886101395
 21
-2.703726407017129
 31
0.0
  0
LINE
  5
366
330
361
100
AcDbEntity
  8
치수문자_일반주서
 62
     0
370
    -2
100
AcDbLine
 10
180.645278861014
 20
-2.703726407017129
 30
0.0
 11
98.34927886101394
 21
-2.703726407017129
 31
0.0
  0
SOLID
  5
367
330
361
100
AcDbEntity
  8
치수문자_일반주서
 62
     0
100
AcDbTrace
 10
180.645278861014
 20
-3.254059740350462
 30
0.0
 11
180.645278861014
 21
-2.153393073683796
 31
0.0
 12
183.947278861014
 22
-2.703726407017129
 32
0.0
 13
183.947278861014
 23
-2.703726407017129
 33
0.0
  0
SOLID
  5
368
330
361
100
AcDbEntity
  8
치수문자_일반주서
 62
     0
100
AcDbTrace
 10
98.34927886101394
 20
-2.153393073683796
 30
0.0
 11
98.34927886101394
 21
-3.254059740350462
 31
0.0
 12
95.04727886101395
 22
-2.703726407017129
 32
0.0
 13
95.04727886101395
 23
-2.703726407017129
 33
0.0
  0
MTEXT
  5
369
330
361
100
AcDbEntity
  8
치수문자_일반주서
 62
     0
100
AcDbMText
 10
140.5730162530201
 20
1.671273592982871
 30
0.0
 40
3.5
 41
0.0
 71
     2
 72
     1
  1
\A1;88.9 [3 1/2]
  7
SLDTEXTSTYLE0
 73
     1
 44
1.0
  0
POINT
  5
36A
330
361
100
AcDbEntity
  8
Defpoints
 62
     0
100
AcDbPoint
 10
183.947278861014
 20
-30.97076688322935
 30
0.0
  0
POINT
  5
36B
330
361
100
AcDbEntity
  8
Defpoints
 62
     0
100
AcDbPoint
 10
95.04727886101395
 20
-31.12951688322935
 30
0.0
  0
POINT
  5
36C
330
361
100
AcDbEntity
  8
Defpoints
 62
     0
100
AcDbPoint
 10
95.04727886101395
 20
-2.703726407017129
 30
0.0
  0
ENDBLK
  5
363
330
361
100
AcDbEntity
  8
0
100
AcDbBlockEnd
  0
ENDSEC
  0
SECTION
  2
ENTITIES
  0
LINE
  5
96
330
1F
100
AcDbEntity
  8
0
  6
Continuous
 62
     1
370
    15
100
AcDbLine
 10
27.90126634353825
 20
-1.160455971212154
 30
0.0
 11
27.95770134423393
 21
-1.190448150720201
 31
0.0
  0
LINE
  5
97
330
1F
100
AcDbEntity
  8
0
  6
Continuous
 62
     1
370
    15
100
AcDbLine
 10
34.24161700122506
 20
-3.968750000000004
 30
0.0
 11
36.66211902153678
 21
-3.968750000000004
 31
0.0
  0
LINE
  5
98
330
1F
100
AcDbEntity
  8
0
  6
Continuous
 62
     1
370
    15
100
AcDbLine
 10
25.86351803901132
 20
3.96875
 30
0.0
 11
25.40000000000001
 21
3.96875
 31
0.0
  0
LINE
  5
99
330
1F
100
AcDbEntity
  8
0
  6
Continuous
 62
     1
370
    15
100
AcDbLine
 10
36.66211902153678
 20
3.96875
 30
0.0
 11
34.24161700122509
 21
3.96875
 31
0.0
  0
LINE
  5
9A
330
1F
100
AcDbEntity
  8
외형선
  6
Continuous
370
    15
100
AcDbLine
 10
25.40000000000001
 20
-3.968750000000004
 30
0.0
 11
25.86351803901126
 21
-3.968750000000004
 31
0.0
  0
LINE
  5
9B
330
1F
100
AcDbEntity
  8
외형선
  6
Continuous
370
    15
100
AcDbLine
 10
21.43768467149219
 20
-4.76250000000001
 30
0.0
 11
24.40000000000001
 21
-3.968750000000002
 31
0.0
  0
LINE
  5
9C
330
1F
100
AcDbEntity
  8
외형선
  6
Continuous
370
    15
100
AcDbLine
 10
24.40000000000001
 20
3.968749999999998
 30
0.0
 11
21.43768467149219
 21
4.762500000000006
 31
0.0
  0
LINE
  5
9D
330
1F
100
AcDbEntity
  8
외형선
  6
Continuous
370
    15
100
AcDbLine
 10
-21.43768467149216
 20
-4.762500000000006
 30
0.0
 11
21.43768467149219
 21
-4.762500000000006
 31
0.0
  0
LINE
  5
9E
330
1F
100
AcDbEntity
  8
외형선
  6
Continuous
370
    15
100
AcDbLine
 10
21.43768467149219
 20
4.762500000000002
 30
0.0
 11
4.838700000000014
 21
4.762500000000002
 31
0.0
  0
LINE
  5
A1
330
1F
100
AcDbEntity
  8
외형선
  6
Continuous
370
    15
100
AcDbLine
 10
24.40000000000001
 20
-3.968750000000002
 30
0.0
 11
25.40000000000001
 21
-3.968750000000002
 31
0.0
  0
LINE
  5
A2
330
1F
100
AcDbEntity
  8
외형선
  6
Continuous
370
    15
100
AcDbLine
 10
25.40000000000001
 20
3.968749999999998
 30
0.0
 11
24.40000000000001
 21
3.968749999999998
 31
0.0
  0
LINE
  5
A3
330
1F
100
AcDbEntity
  8
0
  6
Continuous
 62
     1
370
    15
100
AcDbLine
 10
44.45000000000001
 20
-3.594422854858744
 30
0.0
 11
44.45000000000001
 21
0.3400478548587878
 31
0.0
  0
SPLINE
  5
A4
330
1F
100
AcDbEntity
  8
0
  6
Continuous
 62
     1
370
    15
100
AcDbSpline
210
0.0
220
0.0
230
1.0
 70
     8
 71
     3
 72
    20
 73
    16
 74
     0
 42
0.000000001
 43
0.00000001
 40
0.0
 40
0.0
 40
0.0
 40
0.0
 40
0.0570316566684652
 40
0.1390044453455097
 40
0.2209831775289144
 40
0.3029715329619674
 40
0.384973173150387
 40
0.4669917344790572
 40
0.5490240129851559
 40
0.6242210396773904
 40
0.6993692943253618
 40
0.7744949845309899
 40
0.8496244750082058
 40
0.9247841039863521
 40
1.0
 40
1.0
 40
1.0
 40
1.0
 10
25.86351803901132
 20
3.948138539223607
 30
0.0
 10
26.21685100855431
 20
3.947220282846128
 30
0.0
 10
27.07803681872846
 20
3.944982197440714
 30
0.0
 10
28.44711857050078
 20
3.717599211260688
 30
0.0
 10
29.97083966985117
 20
3.309229963711008
 30
0.0
 10
31.49477460008695
 20
2.731714072084351
 30
0.0
 10
33.01900827915642
 20
2.022335484279058
 30
0.0
 10
34.54356717226258
 20
1.21340088089054
 30
0.0
 10
36.02607355138838
 20
0.369271660953649
 30
0.0
 10
37.46582876307503
 20
-0.4658458826133654
 30
0.0
 10
38.86258178542617
 20
-1.257230200113195
 30
0.0
 10
40.25883868932827
 20
-1.997497824220182
 30
0.0
 10
41.65518393474612
 20
-2.652740114517807
 30
0.0
 10
43.05217908789371
 20
-3.209512977294823
 30
0.0
 10
43.98394348108588
 20
-3.466087560916979
 30
0.0
 10
44.45000000000002
 20
-3.594422854858744
 30
0.0
  0
SPLINE
  5
A5
330
1F
100
AcDbEntity
  8
0
  6
Continuous
 62
     1
370
    15
100
AcDbSpline
210
0.0
220
0.0
230
1.0
 70
     8
 71
     3
 72
    17
 73
    13
 74
     0
 42
0.000000001
 43
0.00000001
 40
0.0
 40
0.0
 40
0.0
 40
0.0
 40
0.1060257731596091
 40
0.2120275947187481
 40
0.3180101476649365
 40
0.4239781513773124
 40
0.5299363527832731
 40
0.6358895174043054
 40
0.7418424203268345
 40
0.8584123871238254
 40
0.9749824029790266
 40
0.9999999999999999
 40
0.9999999999999999
 40
0.9999999999999999
 40
0.9999999999999999
 10
44.45000000000001
 20
0.3400478548587879
 30
0.0
 10
43.94173412964974
 20
0.6306879361341245
 30
0.0
 10
42.92531720802285
 20
1.211902442053397
 30
0.0
 10
41.40093216317636
 20
2.019989872344524
 30
0.0
 10
39.87687407986461
 20
2.730331101012569
 30
0.0
 10
38.35306641363991
 20
3.306594526139729
 30
0.0
 10
36.82943518697405
 20
3.721342800660376
 30
0.0
 10
35.30586188565685
 20
3.952931432041044
 30
0.0
 10
33.73153757823628
 20
3.996157622907573
 30
0.0
 10
32.10586060183338
 20
3.806275429240467
 30
0.0
 10
30.86830709600178
 20
3.539264773378021
 30
0.0
 10
30.18955133319203
 20
3.288352380015045
 30
0.0
 10
30.06961966823426
 20
3.244017815590877
 30
0.0
  0
SPLINE
  5
A6
330
1F
100
AcDbEntity
  8
0
  6
Continuous
 62
     1
370
    15
100
AcDbSpline
210
0.0
220
0.0
230
1.0
 70
     8
 71
     3
 72
    18
 73
    14
 74
     0
 42
0.000000001
 43
0.00000001
 40
0.0
 40
0.0
 40
0.0
 40
0.0
 40
0.0985926046919974
 40
0.1971879186268309
 40
0.2957903812982746
 40
0.394404418631694
 40
0.4930344346166519
 40
0.5916848030278488
 40
0.6903516701996305
 40
0.7807972262596641
 40
0.8711841202308145
 40
0.9615438741191094
 40
1.0
 40
1.0
 40
1.0
 40
1.0
 10
25.4
 20
0.2677657119112536
 30
0.0
 10
25.90783882101683
 20
-0.0260991480048598
 30
0.0
 10
26.92353041803922
 20
-0.6138369429992042
 30
0.0
 10
28.44711851027741
 20
-1.468925976583952
 30
0.0
 10
29.97083968674528
 20
-2.251196735341495
 30
0.0
 10
31.49477459274173
 20
-2.923572849312233
 30
0.0
 10
33.0190082916429
 20
-3.452751224268164
 30
0.0
 10
34.54356712965144
 20
-3.813098492044288
 30
0.0
 10
36.02607370379933
 20
-3.981266083831924
 30
0.0
 10
37.46582824714427
 20
-3.970242329761983
 30
0.0
 10
38.86258371479177
 20
-3.78824927721578
 30
0.0
 10
39.99149923618266
 20
-3.538904193014913
 30
0.0
 10
40.65493418512161
 20
-3.306589534360603
 30
0.0
 10
40.85299313527509
 20
-3.237235338486662
 30
0.0
  0
SPLINE
  5
A7
330
1F
100
AcDbEntity
  8
외형선
  6
Continuous
370
    15
100
AcDbSpline
210
0.0
220
0.0
230
1.0
 70
    24
 71
     3
 72
    20
 73
    16
 74
     0
 42
0.000000001
 43
0.00000001
 40
0.0
 40
0.0
 40
0.0
 40
0.0
 40
0.1205740684637018
 40
0.1973771332107404
 40
0.2764074920384521
 40
0.3532105567854918
 40
0.4322409156132051
 40
0.509043980360244
 40
0.5880743391879562
 40
0.6648774039349952
 40
0.7439077627627076
 40
0.8207108275097483
 40
0.8997411863374619
 40
0.9765442510844513
 40
1.0
 40
1.0
 40
1.0
 40
1.0
 10
25.4
 20
3.809208064497077
 30
0.0
 10
25.4
 20
3.628069381066028
 30
0.0
 10
25.39999999999998
 20
3.331549287610349
 30
0.0
 10
25.39999999999997
 20
2.866305750720707
 30
0.0
 10
25.40000000000007
 20
2.466846278819183
 30
0.0
 10
25.39999999999997
 20
2.063462495138477
 30
0.0
 10
25.40000000000001
 20
1.675877359828633
 30
0.0
 10
25.40000000000003
 20
1.307796806569046
 30
0.0
 10
25.39999999999996
 20
0.9763720484416757
 30
0.0
 10
25.40000000000008
 20
0.6848751436537496
 30
0.0
 10
25.39999999999998
 20
0.4472696325421142
 30
0.0
 10
25.40000000000001
 20
0.2642791436700478
 30
0.0
 10
25.40000000000007
 20
0.1507984553053082
 30
0.0
 10
25.4
 20
0.0997928720294379
 30
0.0
 10
25.40000000000007
 20
0.1096945533498404
 30
0.0
 10
25.40000000000006
 20
0.1120110713935794
 30
0.0
  0
SPLINE
  5
A8
330
1F
100
AcDbEntity
  8
0
  6
Continuous
 62
     1
370
    15
100
AcDbSpline
210
0.0
220
0.0
230
1.0
 70
     8
 71
     3
 72
    48
 73
    44
 74
     0
 42
0.000000001
 43
0.00000001
 40
0.0
 40
0.0
 40
0.0
 40
0.0
 40
0.0624999999999985
 40
0.0624999999999985
 40
0.1249999999999971
 40
0.1249999999999971
 40
0.1562499999999964
 40
0.1562499999999964
 40
0.1874999999999956
 40
0.1874999999999956
 40
0.2499999999999926
 40
0.2499999999999926
 40
0.2812499999999919
 40
0.2812499999999919
 40
0.3124999999999912
 40
0.3124999999999912
 40
0.3749999999999913
 40
0.3749999999999913
 40
0.4374999999999916
 40
0.4374999999999916
 40
0.4999999999999918
 40
0.4999999999999918
 40
0.562499999999992
 40
0.562499999999992
 40
0.593749999999992
 40
0.593749999999992
 40
0.6249999999999921
 40
0.6249999999999921
 40
0.6874999999999923
 40
0.6874999999999923
 40
0.7187499999999923
 40
0.7187499999999923
 40
0.7499999999999925
 40
0.7499999999999925
 40
0.8124999999999943
 40
0.8124999999999943
 40
0.8749999999999962
 40
0.8749999999999962
 40
0.9374999999999981
 40
0.9374999999999981
 40
0.9687499999999991
 40
0.9687499999999991
 40
1.0
 40
1.0
 40
1.0
 40
1.0
 10
44.45000000000002
 20
-3.968749999999995
 30
0.0
 10
44.0560146295907
 20
-3.934570150437695
 30
0.0
 10
43.65580431212508
 20
-3.895059326824175
 30
0.0
 10
42.86078311713774
 20
-3.777605985202357
 30
0.0
 10
42.4673766039863
 20
-3.699926657460126
 30
0.0
 10
41.86999590022431
 20
-3.555797980604112
 30
0.0
 10
41.67066130233494
 20
-3.503214816266581
 30
0.0
 10
41.27381656539826
 20
-3.389590468898255
 30
0.0
 10
41.0772708154093
 20
-3.328663372139118
 30
0.0
 10
40.48297437763053
 20
-3.133187179331394
 30
0.0
 10
40.08240817899911
 20
-2.985974830947168
 30
0.0
 10
39.48843209264887
 20
-2.744760458124534
 30
0.0
 10
39.29180399128702
 20
-2.661024182229585
 30
0.0
 10
38.89479004688306
 20
-2.486584358407519
 30
0.0
 10
38.69542411113961
 20
-2.396014725843801
 30
0.0
 10
38.09811094581032
 20
-2.115757112038547
 30
0.0
 10
37.70483122406338
 20
-1.918182742512861
 30
0.0
 10
36.90956089060594
 20
-1.504436445408768
 30
0.0
 10
36.51001339139258
 20
-1.288618676009352
 30
0.0
 10
35.72146013642868
 20
-0.8482259022371336
 30
0.0
 10
35.32116860968117
 20
-0.621558828891588
 30
0.0
 10
34.52641697459346
 20
-0.1653495597527097
 30
0.0
 10
34.13285101679926
 20
0.0639922253560776
 30
0.0
 10
33.53541818645731
 20
0.4071684597040452
 30
0.0
 10
33.33612008150023
 20
0.5212219965857153
 30
0.0
 10
32.93945470566092
 20
0.7473744221119919
 30
0.0
 10
32.74295371090226
 20
0.8593127965518264
 30
0.0
 10
32.1483520690926
 20
1.192454916490782
 30
0.0
 10
31.74779634304812
 20
1.410431439196794
 30
0.0
 10
31.15415572815179
 20
1.723928573959546
 30
0.0
 10
30.95740768629894
 20
1.826213969109152
 30
0.0
 10
30.56023470255308
 20
2.026598111954201
 30
0.0
 10
30.3608425867421
 20
2.124511670540796
 30
0.0
 10
29.76361236588918
 20
2.409745612506167
 30
0.0
 10
29.37042677142912
 20
2.588019545645951
 30
0.0
 10
28.57492774231601
 20
2.918334726956848
 30
0.0
 10
28.17601093345998
 20
3.069783446085216
 30
0.0
 10
27.38689503347236
 20
3.339591196506396
 30
0.0
 10
26.98653274593967
 20
3.459070207686348
 30
0.0
 10
26.39068648827448
 20
3.610978602007048
 30
0.0
 10
26.19388292475919
 20
3.657018868844741
 30
0.0
 10
25.7982102773728
 20
3.740039136820734
 30
0.0
 10
25.59915651352849
 20
3.777011740594042
 30
0.0
 10
25.40000000000001
 20
3.809208064497081
 30
0.0
  0
SPLINE
  5
A9
330
1F
100
AcDbEntity
  8
0
  6
Continuous
 62
     1
370
    15
100
AcDbSpline
210
0.0
220
0.0
230
1.0
 70
     8
 71
     3
 72
    13
 73
     9
 74
     0
 42
0.000000001
 43
0.00000001
 40
0.0
 40
0.0
 40
0.0
 40
0.0
 40
0.0519515628040015
 40
0.2415611118696746
 40
0.4311707407321033
 40
0.6207804387820862
 40
0.8103901954087915
 40
1.0
 40
1.0
 40
1.0
 40
1.0
 10
34.24161700122507
 20
-3.948246025874218
 30
0.0
 10
34.08853223652671
 20
-3.95404754904938
 30
0.0
 10
33.3767283181277
 20
-3.981023106916953
 30
0.0
 10
32.10585139309154
 20
-3.806163070661378
 30
0.0
 10
30.42942279102923
 20
-3.410275041356024
 30
0.0
 10
28.75294090276619
 20
-2.795295733585097
 30
0.0
 10
27.07647241133323
 20
-2.023883313042661
 30
0.0
 10
25.95882418423195
 20
-1.417268874506068
 30
0.0
 10
25.40000000000001
 20
-1.113961616874824
 30
0.0
  0
LINE
  5
AA
330
1F
100
AcDbEntity
  8
외형선
  6
Continuous
370
    15
100
AcDbLine
 10
25.4
 20
-1.113961616874829
 30
0.0
 11
25.4
 21
0.267765711911241
 31
0.0
  0
LINE
  5
AB
330
1F
100
AcDbEntity
  8
0
  6
Continuous
 62
     1
370
    15
100
AcDbLine
 10
44.45000000000002
 20
-3.968749999999995
 30
0.0
 11
44.45000000000001
 21
-3.594422854858744
 31
0.0
  0
LINE
  5
AC
330
1F
100
AcDbEntity
  8
외형선
  6
Continuous
370
    15
100
AcDbLine
 10
25.4
 20
3.809208064497077
 30
0.0
 11
25.40000000000001
 21
3.96875
 31
0.0
  0
SPLINE
  5
AD
330
1F
100
AcDbEntity
  8
0
  6
Continuous
 62
     1
370
    15
100
AcDbSpline
210
0.0
220
0.0
230
1.0
 70
     8
 71
     3
 72
    13
 73
     9
 74
     0
 42
0.000000001
 43
0.00000001
 40
0.0
 40
0.0
 40
0.0
 40
0.0
 40
0.1032241956695411
 40
0.2825613689059266
 40
0.4618446933427033
 40
0.6411370869184411
 40
0.8205014043676971
 40
0.9999999999999999
 40
0.9999999999999999
 40
0.9999999999999999
 40
0.9999999999999999
 10
36.6621190215368
 20
3.948735749092368
 30
0.0
 10
36.93011736210468
 20
3.951318785423782
 30
0.0
 10
37.66372422127363
 20
3.958389475362354
 30
0.0
 10
38.86257644047208
 20
3.788453854370141
 30
0.0
 10
40.25884012088964
 20
3.462858929403131
 30
0.0
 10
41.65518355282682
 20
2.985946454822215
 30
0.0
 10
43.05217918347293
 20
2.392969076826651
 30
0.0
 10
43.98394351295357
 20
1.919440461255095
 30
0.0
 10
44.45000000000002
 20
1.682587561753927
 30
0.0
  0
LINE
  5
AE
330
1F
100
AcDbEntity
  8
0
  6
Continuous
 62
     1
370
    15
100
AcDbLine
 10
44.45000000000001
 20
0.3400478548587876
 30
0.0
 11
44.45000000000001
 21
1.682587561753927
 31
0.0
  0
SPLINE
  5
AF
330
1F
100
AcDbEntity
  8
0
  6
Continuous
 62
     1
370
    15
100
AcDbSpline
210
0.0
220
0.0
230
1.0
 70
     8
 71
     3
 72
    11
 73
     7
 74
     0
 42
0.000000001
 43
0.00000001
 40
0.0
 40
0.0
 40
0.0
 40
0.0
 40
0.3262646214121874
 40
0.6525382083050106
 40
0.9788354519401525
 40
1.0
 40
1.0
 40
1.0
 40
1.0
 10
25.4
 20
-3.959706818190545
 30
0.0
 10
25.90783858761592
 20
-3.961570855939596
 30
0.0
 10
26.9235297178301
 20
-3.965298982659905
 30
0.0
 10
28.44712131128821
 20
-3.709184251978786
 30
0.0
 10
29.49581802294313
 20
-3.460763047550216
 30
0.0
 10
30.03667505416604
 20
-3.256462164742917
 30
0.0
 10
30.0696196682342
 20
-3.244017815590881
 30
0.0
  0
SPLINE
  5
B0
330
1F
100
AcDbEntity
  8
외형선
  6
Continuous
370
    15
100
AcDbSpline
210
0.0
220
0.0
230
1.0
 70
    24
 71
     3
 72
    16
 73
    12
 74
     0
 42
0.000000001
 43
0.00000001
 40
0.0
 40
0.0
 40
0.0
 40
0.0
 40
0.0416487016056807
 40
0.1682396010566738
 40
0.2985016451676227
 40
0.4250925446186182
 40
0.5553545887295689
 40
0.6819454881804801
 40
0.812207532291511
 40
0.9053886821460843
 40
1.0
 40
1.0
 40
1.0
 40
1.0
 10
25.4
 20
-1.175338429887913
 30
0.0
 10
25.39999999999998
 20
-1.199149455965686
 30
0.0
 10
25.39999999999994
 20
-1.295333907668453
 30
0.0
 10
25.40000000000006
 20
-1.521194867759328
 30
0.0
 10
25.40000000000001
 20
-1.8411597711975
 30
0.0
 10
25.40000000000001
 20
-2.203794134478092
 30
0.0
 10
25.40000000000004
 20
-2.587225144938107
 30
0.0
 10
25.40000000000004
 20
-2.988957114464501
 30
0.0
 10
25.40000000000006
 20
-3.354743268587183
 30
0.0
 10
25.40000000000001
 20
-3.681735459713166
 30
0.0
 10
25.4
 20
-3.86658045836214
 30
0.0
 10
25.4
 20
-3.959706818190545
 30
0.0
  0
SPLINE
  5
B1
330
1F
100
AcDbEntity
  8
0
  6
Continuous
 62
     1
370
    15
100
AcDbSpline
210
0.0
220
0.0
230
1.0
 70
     8
 71
     3
 72
    10
 73
     6
 74
     0
 42
0.000000001
 43
0.00000001
 40
0.0
 40
0.0
 40
0.0
 40
0.0
 40
0.4238897900791194
 40
0.8476838219421675
 40
1.0
 40
1.0
 40
1.0
 40
1.0
 10
44.45000000000002
 20
3.968750000000005
 30
0.0
 10
43.94173472312143
 20
3.908293970087209
 30
0.0
 10
42.92531898830389
 20
3.81658170024027
 30
0.0
 10
41.72633128740533
 20
3.547910008079875
 30
0.0
 10
41.03561080492556
 20
3.302198358872462
 30
0.0
 10
40.85299313527511
 20
3.237235338486657
 30
0.0
  0
LINE
  5
B2
330
1F
100
AcDbEntity
  8
0
  6
Continuous
 62
     1
370
    15
100
AcDbLine
 10
44.45000000000001
 20
1.682587561753927
 30
0.0
 11
44.45000000000002
 21
3.968750000000005
 31
0.0
  0
LINE
  5
B3
330
1F
100
AcDbEntity
  8
외형선
  6
Continuous
370
    15
100
AcDbLine
 10
25.40000000000001
 20
-3.968750000000004
 30
0.0
 11
25.4
 21
-3.959706818190545
 31
0.0
  0
LINE
  5
B4
330
1F
100
AcDbEntity
  8
외형선
  6
Continuous
370
    15
100
AcDbLine
 10
24.40000000000001
 20
-0.0000000000000019
 30
0.0
 11
24.40000000000001
 21
3.968749999999998
 31
0.0
  0
LINE
  5
B5
330
1F
100
AcDbEntity
  8
외형선
  6
Continuous
370
    15
100
AcDbLine
 10
24.40000000000001
 20
-3.968750000000002
 30
0.0
 11
24.40000000000001
 21
-0.0000000000000019
 31
0.0
  0
LINE
  5
B6
330
1F
100
AcDbEntity
  8
외형선
  6
Continuous
370
    15
100
AcDbLine
 10
21.43768467149219
 20
-0.0000000000000019
 30
0.0
 11
21.43768467149219
 21
4.762500000000006
 31
0.0
  0
LINE
  5
B7
330
1F
100
AcDbEntity
  8
외형선
  6
Continuous
370
    15
100
AcDbLine
 10
21.43768467149219
 20
-4.76250000000001
 30
0.0
 11
21.43768467149219
 21
-0.0000000000000019
 31
0.0
  0
SPLINE
  5
BC
330
1F
100
AcDbEntity
  8
외형선
  6
Continuous
370
    15
100
AcDbSpline
210
0.0
220
0.0
230
1.0
 70
     8
 71
     3
 72
     8
 73
     4
 74
     0
 42
0.000000001
 43
0.00000001
 40
0.0
 40
0.0
 40
0.0
 40
0.0
 40
1.0
 40
1.0
 40
1.0
 40
1.0
 10
25.39999999999998
 20
3.809208064497082
 30
0.0
 10
25.23313213626176
 20
3.836184494716405
 30
0.0
 10
25.06619376771207
 20
3.859809413751779
 30
0.0
 10
24.89984371695954
 20
3.879999999547137
 30
0.0
  0
LINE
  5
BD
330
1F
100
AcDbEntity
  8
외형선
  6
Continuous
370
    15
100
AcDbLine
 10
24.89984371695956
 20
0.554366174503313
 30
0.0
 11
24.89984371695954
 21
3.880006752215638
 31
0.0
  0
SPLINE
  5
BE
330
1F
100
AcDbEntity
  8
외형선
  6
Continuous
370
    15
100
AcDbSpline
210
0.0
220
0.0
230
1.0
 70
     8
 71
     3
 72
     8
 73
     4
 74
     0
 42
0.000000001
 43
0.00000001
 40
0.0
 40
0.0
 40
0.0
 40
0.0
 40
1.0
 40
1.0
 40
1.0
 40
1.0
 10
25.40000000000001
 20
0.2677657119112418
 30
0.0
 10
25.23313213626179
 20
0.3636565873702856
 30
0.0
 10
25.06619376771208
 20
0.4593249142585154
 30
0.0
 10
24.89984371695954
 20
0.5543939519471648
 30
0.0
  0
SPLINE
  5
BF
330
1F
100
AcDbEntity
  8
외형선
  6
Continuous
370
    15
100
AcDbSpline
210
0.0
220
0.0
230
1.0
 70
     8
 71
     3
 72
     8
 73
     4
 74
     0
 42
0.000000001
 43
0.00000001
 40
0.0
 40
0.0
 40
0.0
 40
0.0
 40
1.0
 40
1.0
 40
1.0
 40
1.0
 10
25.39999999999998
 20
-1.113961616874815
 30
0.0
 10
25.23313213626176
 20
-1.021715318630653
 30
0.0
 10
25.06619376771207
 20
-0.9284750114715293
 30
0.0
 10
24.89984371695954
 20
-0.8346116258561108
 30
0.0
  0
LINE
  5
C0
330
1F
100
AcDbEntity
  8
외형선
  6
Continuous
370
    15
100
AcDbLine
 10
24.89984371695956
 20
-3.929841562590858
 30
0.0
 11
24.89984371695954
 21
-0.8345802329680582
 31
0.0
  0
SPLINE
  5
C1
330
1F
100
AcDbEntity
  8
외형선
  6
Continuous
370
    15
100
AcDbSpline
210
0.0
220
0.0
230
1.0
 70
     8
 71
     3
 72
     8
 73
     4
 74
     0
 42
0.000000001
 43
0.00000001
 40
0.0
 40
0.0
 40
0.0
 40
0.0
 40
1.0
 40
1.0
 40
1.0
 40
1.0
 10
25.40000000000001
 20
-3.959706818190544
 30
0.0
 10
25.23313213626179
 20
-3.953222426867649
 30
0.0
 10
25.06619376771208
 20
-3.943249317574957
 30
0.0
 10
24.89984371695954
 20
-3.929837644043887
 30
0.0
  0
SPLINE
  5
C2
330
1F
100
AcDbEntity
  8
외형선
  6
Continuous
370
    15
100
AcDbSpline
210
0.0
220
0.0
230
1.0
 70
    24
 71
     3
 72
    20
 73
    16
 74
     0
 42
0.000000001
 43
0.00000001
 40
0.0
 40
0.0
 40
0.0
 40
0.0
 40
0.0661293595514437
 40
0.1441551799242985
 40
0.2221810002971732
 40
0.3002068206700478
 40
0.3782326410429114
 40
0.4562584614157749
 40
0.5342842817886393
 40
0.6123101021615035
 40
0.6903359225343619
 40
0.7683617429072204
 40
0.8463875632800925
 40
0.9244133836529644
 40
1.0
 40
1.0
 40
1.0
 40
1.0
 10
25.40000000000004
 20
0.1091218995114311
 30
0.0
 10
25.40000000000004
 20
0.1119474515183443
 30
0.0
 10
25.40000000000001
 20
0.118106863324309
 30
0.0
 10
25.39999999999998
 20
0.208200661933515
 30
0.0
 10
25.4
 20
0.3621548193036139
 30
0.0
 10
25.40000000000006
 20
0.577019350398982
 30
0.0
 10
25.40000000000004
 20
0.8466895446050297
 30
0.0
 10
25.40000000000006
 20
1.162069924749156
 30
0.0
 10
25.40000000000004
 20
1.51576622482228
 30
0.0
 10
25.40000000000006
 20
1.896458912025287
 30
0.0
 10
25.40000000000001
 20
2.29417859152599
 30
0.0
 10
25.40000000000003
 20
2.697414776322456
 30
0.0
 10
25.40000000000001
 20
3.093838497360003
 30
0.0
 10
25.39999999999996
 20
3.471941290509673
 30
0.0
 10
25.4
 20
3.6979822373793
 30
0.0
 10
25.4
 20
3.809208064497118
 30
0.0
  0
SPLINE
  5
C3
330
1F
100
AcDbEntity
  8
외형선
  6
Continuous
370
    15
100
AcDbSpline
210
0.0
220
0.0
230
1.0
 70
    24
 71
     3
 72
    15
 73
    11
 74
     0
 42
0.000000001
 43
0.00000001
 40
0.0
 40
0.0
 40
0.0
 40
0.0
 40
0.1312587478650808
 40
0.2625174957301615
 40
0.3910283533397017
 40
0.5195392109492423
 40
0.6480500685588156
 40
0.7765609261683886
 40
0.9050717837779434
 40
1.0
 40
1.0
 40
1.0
 40
1.0
 10
25.40000000000001
 20
-3.959706818190544
 30
0.0
 10
25.40000000000003
 20
-3.829802564282227
 30
0.0
 10
25.40000000000001
 20
-3.56999405646559
 30
0.0
 10
25.40000000000007
 20
-3.162320149537423
 30
0.0
 10
25.39999999999998
 20
-2.757416528328132
 30
0.0
 10
25.39999999999998
 20
-2.364365500694884
 30
0.0
 10
25.4
 20
-1.992081707333007
 30
0.0
 10
25.40000000000007
 20
-1.652239351379503
 30
0.0
 10
25.40000000000004
 20
-1.373832278801818
 30
0.0
 10
25.40000000000004
 20
-1.234523740681862
 30
0.0
 10
25.40000000000004
 20
-1.175338429887941
 30
0.0
  0
LINE
  5
C4
330
1F
100
AcDbEntity
  8
중심선
 48
0.8
100
AcDbLine
 10
-47.45
 20
-0.0000000000000058
 30
0.0
 11
47.45000000000001
 21
0.0000000000000058
 31
0.0
  0
LINE
  5
C5
330
1F
100
AcDbEntity
  8
참조1
100
AcDbLine
 10
4.955880657015618
 20
0.0010749287238892
 30
0.0
 11
4.955880657015622
 21
-39.99892507127611
 31
0.0
  0
LINE
  5
C6
330
1F
100
AcDbEntity
  8
참조1
100
AcDbLine
 10
4.955880657015622
 20
-39.99892507127611
 30
0.0
 11
-29.25297615729306
 21
-39.9989250712761
 31
0.0
  0
CIRCLE
  5
C7
330
1F
100
AcDbEntity
  8
해칭선
100
AcDbCircle
 10
0.0
 20
0.0
 30
0.0
 40
3.000000000000008
  0
INSERT
  5
C8
330
1F
100
AcDbEntity
  8
0
  6
Continuous
 62
     7
100
AcDbBlockReference
 66
     1
  2
블럭10
 10
-13.9402729321252
 20
-52.04717430164393
 30
0.0
  0
ATTRIB
  5
C9
330
C8
100
AcDbEntity
  8
FORMAT
 62
     2
100
AcDbText
 10
-23.12156822086648
 20
-49.97180738881174
 30
0.0
 40
4.233333333333333
  1
E1051020 [ 4 FLUTE ]
 41
0.75
  7
SLDTEXTSTYLE0
 11
-23.12156822086648
 21
-52.08847405547841
 31
0.0
100
AcDbAttribute
  2
AUTOATTR0
 70
     0
 74
     1
  0
SEQEND
  5
CA
330
C8
100
AcDbEntity
  8
0
  6
Continuous
 62
     7
  0
HATCH
  5
CB
330
1F
100
AcDbEntity
  8
중심선
100
AcDbHatch
 10
0.0
 20
0.0
 30
0.0
210
0.0
220
0.0
230
1.0
  2
SOLID
 70
     1
 71
     0
 91
        1
 92
        0
 93
        4
 72
     1
 10
-8.22536362774435
 20
-35.8
 11
-11.67163887158163
 21
-35.8
 72
     1
 10
-11.67163887158163
 20
-35.8
 11
-13.79986873078565
 21
-38.3363255805726
 72
     1
 10
-13.79986873078565
 20
-38.3363255805726
 11
-10.35356040183522
 21
-38.33628615127011
 72
     1
 10
-10.35356040183522
 20
-38.33628615127011
 11
-8.22536362774435
 21
-35.8
 97
        0
 75
     0
 76
     1
 98
        1
 10
-4.955880657015612
 20
-0.0010749287238951
  0
HATCH
  5
CC
330
1F
100
AcDbEntity
  8
중심선
100
AcDbHatch
 10
0.0
 20
0.0
 30
0.0
210
0.0
220
0.0
230
1.0
  2
SOLID
 70
     1
 71
     0
 91
        1
 92
        0
 93
        4
 72
     1
 10
-3.212599636708343
 20
-35.79999999999998
 11
-6.658874880545653
 21
-35.8
 72
     1
 10
-6.658874880545653
 20
-35.8
 11
-11.19001288890307
 21
-41.20000000000002
 72
     1
 10
-11.19001288890307
 20
-41.20000000000002
 11
-7.743737645065787
 21
-41.20000000000002
 72
     1
 10
-7.743737645065787
 20
-41.20000000000002
 11
-3.212599636708343
 21
-35.79999999999998
 97
        0
 75
     0
 76
     1
 98
        1
 10
-4.955880657015612
 20
-0.0010749287238951
  0
HATCH
  5
CD
330
1F
100
AcDbEntity
  8
중심선
100
AcDbHatch
 10
0.0
 20
0.0
 30
0.0
210
0.0
220
0.0
230
1.0
  2
SOLID
 70
     1
 71
     0
 91
        1
 92
        0
 93
        4
 72
     1
 10
1.800164354327524
 20
-35.79999999999998
 11
-1.646110889509591
 21
-35.79999999999998
 72
     1
 10
-1.646110889509591
 20
-35.79999999999998
 11
-8.694547791398868
 21
-44.20000000000002
 72
     1
 10
-8.694547791398868
 20
-44.20000000000002
 11
-5.248272547561585
 21
-44.20000000000002
 72
     1
 10
-5.248272547561585
 20
-44.20000000000002
 11
1.800164354327524
 21
-35.79999999999998
 97
        0
 75
     0
 76
     1
 98
        1
 10
-4.955880657015612
 20
-0.0010749287238951
  0
HATCH
  5
CE
330
1F
100
AcDbEntity
  8
중심선
100
AcDbHatch
 10
0.0
 20
0.0
 30
0.0
210
0.0
220
0.0
230
1.0
  2
SOLID
 70
     1
 71
     0
 91
        1
 92
        0
 93
        6
 72
     3
 10
6.600054785339696
 20
-40.00000000005127
 11
3.960054785062283
 21
1.540882976769353E-10
 40
0.3939339440162628
 50
17.09539180608436
 51
320.0019657685087
 73
     0
 72
     1
 10
8.283054441040292
 20
-38.58789400463833
 11
10.58835631474133
 21
-36.65356729459038
 72
     3
 10
6.600054785286849
 20
-40.00000000000015
 11
6.600054785286831
 21
-1.278976924368180E-13
 40
0.6363583540795978
 50
39.99873849337411
 51
368.4976242363724
 73
     1
 72
     1
 10
13.02538727718746
 20
-39.03999999993002
 11
5.280122092122772
 21
-39.03999999993002
 72
     1
 10
5.280122092122772
 20
-39.03999999993002
 11
5.280097047676838
 21
-40.95999999992991
 72
     1
 10
5.280097047676838
 20
-40.95999999992991
 11
9.721476817148876
 21
-40.95999999992988
 97
        0
 75
     0
 76
     1
 98
        1
 10
-4.955880657015612
 20
-0.0010749287238951
  0
DIMENSION
  5
CF
330
1F
100
AcDbEntity
  8
치수문자_일반주서
100
AcDbDimension
  2
_D
 10
56.51365197754377
 20
-3.96874999999995
 30
0.0
 11
56.5136519775436
 21
41.22550576061924
 31
0.0
 70
   160
  1
%%c<>
 71
     2
 42
7.9375
 52
-270.0
  3
SLDDIMSTYLE2
100
AcDbAlignedDimension
 13
44.45000000000002
 23
3.968750000000005
 33
0.0
 14
44.45000000000002
 24
-3.968749999999995
 34
0.0
 50
90.0000000000002
100
AcDbRotatedDimension
1001
ACAD
1000
DSTYLE
1002
{
1070
   171
1070
     6
1070
   273
1070
     7
1002
}
  0
DIMENSION
  5
E3
330
1F
100
AcDbEntity
  8
치수문자_일반주서
100
AcDbDimension
  2
_D_1
 10
25.4
 20
19.04622330062147
 30
0.0
 11
6.108499999999999
 21
19.04622330062147
 31
0.0
 70
   160
  1
<>
 71
     2
 42
19.05000000000002
  3
SLDDIMSTYLE2
100
AcDbAlignedDimension
 13
44.45000000000002
 23
3.968750000000005
 33
0.0
 14
25.4
 24
3.95970681819054
 34
0.0
 50
0.0000000000000855
100
AcDbRotatedDimension
1001
ACAD
1000
DSTYLE
1002
{
1070
   171
1070
     6
1070
   273
1070
     7
1002
}
  0
DIMENSION
  5
F7
330
1F
100
AcDbEntity
  8
치수문자_일반주서
100
AcDbDimension
  2
_D_2
 10
-44.45
 20
32.23579047621222
 30
0.0
 11
1.075737392006189
 21
32.23579047621222
 31
0.0
 70
   160
  1
<>
 71
     2
 42
88.90000000000002
  3
SLDDIMSTYLE2
100
AcDbAlignedDimension
 13
44.45000000000002
 23
3.968750000000005
 33
0.0
 14
-44.45
 24
3.96875
 34
0.0
100
AcDbRotatedDimension
1001
ACAD
1000
DSTYLE
1002
{
1070
   171
1070
     6
1070
   273
1070
     7
1002
}
  0
DIMENSION
  5
10B
330
1F
100
AcDbEntity
  8
치수문자_일반주서
100
AcDbDimension
  2
_D_3
 10
-56.97374999999999
 20
-4.762500000000138
 30
0.0
 11
-56.97375000000001
 21
0.0000000000000007
 31
0.0
 70
   160
  1
%%c<>
 71
     2
 42
9.525000000000007
 52
-270.0
  3
SLDDIMSTYLE2
100
AcDbAlignedDimension
 13
-21.4376846714922
 23
4.762500000000002
 33
0.0
 14
-21.43768467149216
 24
-4.762500000000006
 34
0.0
 50
90.0000000000002
100
AcDbRotatedDimension
1001
ACAD
1000
DSTYLE
1002
{
1070
   171
1070
     6
1070
   273
1070
     7
1002
}
  0
LINE
  5
120
330
1F
100
AcDbEntity
  8
참조1
100
AcDbLine
 10
68.7193644723612
 20
7.441074928723896
 30
0.0
 11
68.7193644723612
 21
-7.438925071276109
 31
0.0
  0
LINE
  5
121
330
1F
100
AcDbEntity
  8
참조1
100
AcDbLine
 10
81.41936447236121
 20
5.441074928723896
 30
0.0
 11
68.7193644723612
 21
5.441074928723896
 31
0.0
  0
SOLID
  5
122
330
1F
100
AcDbEntity
  8
참조1
100
AcDbTrace
 10
68.7193644723612
 20
5.441074928723896
 30
0.0
 11
75.0693644723612
 21
4.425074928723896
 31
0.0
 12
75.0693644723612
 22
6.457074928723896
 32
0.0
 13
75.0693644723612
 23
6.457074928723896
 33
0.0
  0
LINE
  5
123
330
1F
100
AcDbEntity
  8
참조1
100
AcDbLine
 10
81.41936447236121
 20
-5.438925071276109
 30
0.0
 11
68.7193644723612
 21
-5.438925071276109
 31
0.0
  0
SOLID
  5
124
330
1F
100
AcDbEntity
  8
참조1
100
AcDbTrace
 10
68.7193644723612
 20
-5.438925071276109
 30
0.0
 11
75.0693644723612
 21
-6.454925071276109
 31
0.0
 12
75.0693644723612
 22
-4.422925071276109
 32
0.0
 13
75.0693644723612
 23
-4.422925071276109
 33
0.0
  0
MTEXT
  5
125
330
1F
100
AcDbEntity
  8
참조1
100
AcDbMText
 10
78.1037146049872
 20
11.01136670591223
 30
0.0
 40
3.5
 41
0.0
 71
     1
 72
     1
  1
A
  7
SLDTEXTSTYLE0
 73
     1
 44
1.0
  0
MTEXT
  5
126
330
1F
100
AcDbEntity
  8
참조1
100
AcDbMText
 10
78.1037146049872
 20
0.1313667059122219
 30
0.0
 40
3.5
 41
0.0
 71
     1
 72
     1
  1
A
  7
SLDTEXTSTYLE0
 73
     1
 44
1.0
  0
INSERT
  5
12D
330
1F
100
AcDbEntity
  8
해칭선
100
AcDbBlockReference
  2
SW_DOWELSYMBOL_0
 10
0.0
 20
0.0
 30
0.0
  0
LINE
  5
315
330
1F
100
AcDbEntity
  8
0
  6
Continuous
 62
     1
370
    15
100
AcDbLine
 10
-27.90126634353824
 20
1.160455971212158
 30
0.0
 11
-27.95770134423391
 21
1.190448150720208
 31
0.0
  0
LINE
  5
316
330
1F
100
AcDbEntity
  8
0
  6
Continuous
 62
     1
370
    15
100
AcDbLine
 10
-34.24161700122507
 20
3.968750000000014
 30
0.0
 11
-36.66211902153678
 21
3.968750000000014
 31
0.0
  0
LINE
  5
317
330
1F
100
AcDbEntity
  8
0
  6
Continuous
 62
     1
370
    15
100
AcDbLine
 10
-25.86351803901131
 20
-3.968749999999993
 30
0.0
 11
-25.40000000000002
 21
-3.968749999999993
 31
0.0
  0
LINE
  5
318
330
1F
100
AcDbEntity
  8
0
  6
Continuous
 62
     1
370
    15
100
AcDbLine
 10
-36.66211902153678
 20
-3.968749999999993
 30
0.0
 11
-34.24161700122509
 21
-3.968749999999993
 31
0.0
  0
LINE
  5
319
330
1F
100
AcDbEntity
  8
외형선
  6
Continuous
370
    15
100
AcDbLine
 10
-25.40000000000002
 20
3.968750000000014
 30
0.0
 11
-25.86351803901125
 21
3.968750000000014
 31
0.0
  0
LINE
  5
31A
330
1F
100
AcDbEntity
  8
외형선
  6
Continuous
370
    15
100
AcDbLine
 10
-21.43768467149219
 20
4.762500000000017
 30
0.0
 11
-24.40000000000002
 21
3.968750000000007
 31
0.0
  0
LINE
  5
31B
330
1F
100
AcDbEntity
  8
외형선
  6
Continuous
370
    15
100
AcDbLine
 10
-24.40000000000002
 20
-3.968749999999993
 30
0.0
 11
-21.43768467149219
 21
-4.762499999999996
 31
0.0
  0
LINE
  5
31E
330
1F
100
AcDbEntity
  8
외형선
  6
Continuous
370
    15
100
AcDbLine
 10
-24.40000000000002
 20
3.968750000000007
 30
0.0
 11
-25.40000000000002
 21
3.968750000000007
 31
0.0
  0
LINE
  5
31F
330
1F
100
AcDbEntity
  8
외형선
  6
Continuous
370
    15
100
AcDbLine
 10
-25.40000000000002
 20
-3.968749999999993
 30
0.0
 11
-24.40000000000002
 21
-3.968749999999993
 31
0.0
  0
LINE
  5
320
330
1F
100
AcDbEntity
  8
0
  6
Continuous
 62
     1
370
    15
100
AcDbLine
 10
-44.45
 20
3.594422854858749
 30
0.0
 11
-44.45
 21
-0.3400478548587812
 31
0.0
  0
SPLINE
  5
321
330
1F
100
AcDbEntity
  8
0
  6
Continuous
 62
     1
370
    15
100
AcDbSpline
210
0.0
220
0.0
230
1.0
 70
     8
 71
     3
 72
    20
 73
    16
 74
     0
 42
0.000000001
 43
0.00000001
 40
0.0
 40
0.0
 40
0.0
 40
0.0
 40
0.0570316566684652
 40
0.1390044453455097
 40
0.2209831775289144
 40
0.3029715329619674
 40
0.384973173150387
 40
0.4669917344790572
 40
0.5490240129851559
 40
0.6242210396773904
 40
0.6993692943253618
 40
0.7744949845309899
 40
0.8496244750082058
 40
0.9247841039863521
 40
1.0
 40
1.0
 40
1.0
 40
1.0
 10
-25.86351803901131
 20
-3.948138539223599
 30
0.0
 10
-26.21685100855431
 20
-3.947220282846125
 30
0.0
 10
-27.07803681872845
 20
-3.944982197440709
 30
0.0
 10
-28.44711857050079
 20
-3.717599211260683
 30
0.0
 10
-29.97083966985117
 20
-3.309229963710997
 30
0.0
 10
-31.49477460008696
 20
-2.731714072084344
 30
0.0
 10
-33.01900827915641
 20
-2.022335484279054
 30
0.0
 10
-34.54356717226257
 20
-1.213400880890532
 30
0.0
 10
-36.02607355138839
 20
-0.3692716609536432
 30
0.0
 10
-37.46582876307504
 20
0.4658458826133726
 30
0.0
 10
-38.86258178542617
 20
1.257230200113199
 30
0.0
 10
-40.25883868932827
 20
1.99749782422019
 30
0.0
 10
-41.65518393474612
 20
2.652740114517812
 30
0.0
 10
-43.05217908789372
 20
3.209512977294828
 30
0.0
 10
-43.98394348108589
 20
3.466087560916989
 30
0.0
 10
-44.45000000000003
 20
3.594422854858749
 30
0.0
  0
SPLINE
  5
322
330
1F
100
AcDbEntity
  8
0
  6
Continuous
 62
     1
370
    15
100
AcDbSpline
210
0.0
220
0.0
230
1.0
 70
     8
 71
     3
 72
    17
 73
    13
 74
     0
 42
0.000000001
 43
0.00000001
 40
0.0
 40
0.0
 40
0.0
 40
0.0
 40
0.1060257731596091
 40
0.2120275947187481
 40
0.3180101476649365
 40
0.4239781513773124
 40
0.5299363527832731
 40
0.6358895174043054
 40
0.7418424203268345
 40
0.8584123871238254
 40
0.9749824029790266
 40
0.9999999999999999
 40
0.9999999999999999
 40
0.9999999999999999
 40
0.9999999999999999
 10
-44.45
 20
-0.3400478548587812
 30
0.0
 10
-43.94173412964973
 20
-0.6306879361341159
 30
0.0
 10
-42.92531720802283
 20
-1.211902442053386
 30
0.0
 10
-41.40093216317636
 20
-2.019989872344517
 30
0.0
 10
-39.87687407986461
 20
-2.730331101012567
 30
0.0
 10
-38.35306641363992
 20
-3.306594526139726
 30
0.0
 10
-36.82943518697404
 20
-3.721342800660366
 30
0.0
 10
-35.30586188565685
 20
-3.952931432041034
 30
0.0
 10
-33.73153757823628
 20
-3.996157622907567
 30
0.0
 10
-32.10586060183338
 20
-3.806275429240465
 30
0.0
 10
-30.86830709600177
 20
-3.539264773378015
 30
0.0
 10
-30.18955133319203
 20
-3.288352380015034
 30
0.0
 10
-30.06961966823427
 20
-3.244017815590873
 30
0.0
  0
SPLINE
  5
323
330
1F
100
AcDbEntity
  8
0
  6
Continuous
 62
     1
370
    15
100
AcDbSpline
210
0.0
220
0.0
230
1.0
 70
     8
 71
     3
 72
    18
 73
    14
 74
     0
 42
0.000000001
 43
0.00000001
 40
0.0
 40
0.0
 40
0.0
 40
0.0
 40
0.0985926046919974
 40
0.1971879186268309
 40
0.2957903812982746
 40
0.394404418631694
 40
0.4930344346166519
 40
0.5916848030278488
 40
0.6903516701996305
 40
0.7807972262596641
 40
0.8711841202308145
 40
0.9615438741191094
 40
1.0
 40
1.0
 40
1.0
 40
1.0
 10
-25.39999999999999
 20
-0.2677657119112452
 30
0.0
 10
-25.90783882101682
 20
0.0260991480048674
 30
0.0
 10
-26.92353041803922
 20
0.613836942999214
 30
0.0
 10
-28.44711851027741
 20
1.468925976583961
 30
0.0
 10
-29.97083968674526
 20
2.251196735341502
 30
0.0
 10
-31.49477459274173
 20
2.923572849312237
 30
0.0
 10
-33.01900829164289
 20
3.452751224268169
 30
0.0
 10
-34.54356712965144
 20
3.813098492044297
 30
0.0
 10
-36.02607370379933
 20
3.981266083831933
 30
0.0
 10
-37.46582824714427
 20
3.970242329761987
 30
0.0
 10
-38.86258371479177
 20
3.788249277215783
 30
0.0
 10
-39.99149923618266
 20
3.538904193014922
 30
0.0
 10
-40.6549341851216
 20
3.306589534360612
 30
0.0
 10
-40.8529931352751
 20
3.23723533848667
 30
0.0
  0
SPLINE
  5
324
330
1F
100
AcDbEntity
  8
외형선
  6
Continuous
370
    15
100
AcDbSpline
210
0.0
220
0.0
230
1.0
 70
    24
 71
     3
 72
    20
 73
    16
 74
     0
 42
0.000000001
 43
0.00000001
 40
0.0
 40
0.0
 40
0.0
 40
0.0
 40
0.1205740684637018
 40
0.1973771332107404
 40
0.2764074920384521
 40
0.3532105567854918
 40
0.4322409156132051
 40
0.509043980360244
 40
0.5880743391879562
 40
0.6648774039349952
 40
0.7439077627627076
 40
0.8207108275097483
 40
0.8997411863374619
 40
0.9765442510844513
 40
1.0
 40
1.0
 40
1.0
 40
1.0
 10
-25.39999999999999
 20
-3.809208064497071
 30
0.0
 10
-25.39999999999999
 20
-3.62806938106602
 30
0.0
 10
-25.39999999999999
 20
-3.331549287610343
 30
0.0
 10
-25.39999999999996
 20
-2.866305750720699
 30
0.0
 10
-25.40000000000005
 20
-2.466846278819176
 30
0.0
 10
-25.39999999999996
 20
-2.063462495138467
 30
0.0
 10
-25.40000000000002
 20
-1.675877359828625
 30
0.0
 10
-25.40000000000002
 20
-1.307796806569037
 30
0.0
 10
-25.39999999999996
 20
-0.9763720484416679
 30
0.0
 10
-25.40000000000008
 20
-0.6848751436537411
 30
0.0
 10
-25.39999999999999
 20
-0.4472696325421025
 30
0.0
 10
-25.40000000000002
 20
-0.2642791436700377
 30
0.0
 10
-25.40000000000005
 20
-0.1507984553052991
 30
0.0
 10
-25.39999999999999
 20
-0.0997928720294324
 30
0.0
 10
-25.40000000000005
 20
-0.1096945533498327
 30
0.0
 10
-25.40000000000005
 20
-0.1120110713935744
 30
0.0
  0
SPLINE
  5
325
330
1F
100
AcDbEntity
  8
0
  6
Continuous
 62
     1
370
    15
100
AcDbSpline
210
0.0
220
0.0
230
1.0
 70
     8
 71
     3
 72
    48
 73
    44
 74
     0
 42
0.000000001
 43
0.00000001
 40
0.0
 40
0.0
 40
0.0
 40
0.0
 40
0.0624999999999985
 40
0.0624999999999985
 40
0.1249999999999971
 40
0.1249999999999971
 40
0.1562499999999964
 40
0.1562499999999964
 40
0.1874999999999956
 40
0.1874999999999956
 40
0.2499999999999926
 40
0.2499999999999926
 40
0.2812499999999919
 40
0.2812499999999919
 40
0.3124999999999912
 40
0.3124999999999912
 40
0.3749999999999913
 40
0.3749999999999913
 40
0.4374999999999916
 40
0.4374999999999916
 40
0.4999999999999918
 40
0.4999999999999918
 40
0.562499999999992
 40
0.562499999999992
 40
0.593749999999992
 40
0.593749999999992
 40
0.6249999999999921
 40
0.6249999999999921
 40
0.6874999999999923
 40
0.6874999999999923
 40
0.7187499999999923
 40
0.7187499999999923
 40
0.7499999999999925
 40
0.7499999999999925
 40
0.8124999999999943
 40
0.8124999999999943
 40
0.8749999999999962
 40
0.8749999999999962
 40
0.9374999999999981
 40
0.9374999999999981
 40
0.9687499999999991
 40
0.9687499999999991
 40
1.0
 40
1.0
 40
1.0
 40
1.0
 10
-44.45
 20
3.96875
 30
0.0
 10
-44.05601462959071
 20
3.9345701504377
 30
0.0
 10
-43.65580431212508
 20
3.895059326824182
 30
0.0
 10
-42.86078311713773
 20
3.777605985202364
 30
0.0
 10
-42.4673766039863
 20
3.699926657460132
 30
0.0
 10
-41.86999590022431
 20
3.555797980604119
 30
0.0
 10
-41.67066130233495
 20
3.503214816266592
 30
0.0
 10
-41.27381656539826
 20
3.389590468898263
 30
0.0
 10
-41.07727081540931
 20
3.328663372139125
 30
0.0
 10
-40.48297437763053
 20
3.133187179331401
 30
0.0
 10
-40.0824081789991
 20
2.985974830947171
 30
0.0
 10
-39.48843209264886
 20
2.744760458124539
 30
0.0
 10
-39.29180399128701
 20
2.661024182229596
 30
0.0
 10
-38.89479004688305
 20
2.486584358407526
 30
0.0
 10
-38.69542411113962
 20
2.396014725843813
 30
0.0
 10
-38.09811094581032
 20
2.115757112038551
 30
0.0
 10
-37.70483122406337
 20
1.918182742512869
 30
0.0
 10
-36.90956089060593
 20
1.504436445408771
 30
0.0
 10
-36.51001339139258
 20
1.288618676009364
 30
0.0
 10
-35.72146013642869
 20
0.8482259022371396
 30
0.0
 10
-35.32116860968118
 20
0.621558828891594
 30
0.0
 10
-34.52641697459346
 20
0.1653495597527127
 30
0.0
 10
-34.13285101679925
 20
-0.063992225356074
 30
0.0
 10
-33.53541818645731
 20
-0.4071684597040387
 30
0.0
 10
-33.33612008150023
 20
-0.5212219965857087
 30
0.0
 10
-32.93945470566094
 20
-0.7473744221119886
 30
0.0
 10
-32.74295371090226
 20
-0.8593127965518191
 30
0.0
 10
-32.14835206909261
 20
-1.192454916490775
 30
0.0
 10
-31.74779634304811
 20
-1.410431439196785
 30
0.0
 10
-31.15415572815179
 20
-1.72392857395954
 30
0.0
 10
-30.95740768629894
 20
-1.826213969109148
 30
0.0
 10
-30.56023470255307
 20
-2.026598111954193
 30
0.0
 10
-30.36084258674209
 20
-2.124511670540791
 30
0.0
 10
-29.76361236588919
 20
-2.409745612506157
 30
0.0
 10
-29.37042677142911
 20
-2.588019545645942
 30
0.0
 10
-28.57492774231601
 20
-2.918334726956843
 30
0.0
 10
-28.17601093345998
 20
-3.069783446085211
 30
0.0
 10
-27.38689503347236
 20
-3.33959119650639
 30
0.0
 10
-26.98653274593967
 20
-3.459070207686345
 30
0.0
 10
-26.39068648827448
 20
-3.610978602007044
 30
0.0
 10
-26.19388292475919
 20
-3.657018868844737
 30
0.0
 10
-25.7982102773728
 20
-3.740039136820727
 30
0.0
 10
-25.59915651352848
 20
-3.777011740594034
 30
0.0
 10
-25.40000000000002
 20
-3.809208064497078
 30
0.0
  0
SPLINE
  5
326
330
1F
100
AcDbEntity
  8
0
  6
Continuous
 62
     1
370
    15
100
AcDbSpline
210
0.0
220
0.0
230
1.0
 70
     8
 71
     3
 72
    13
 73
     9
 74
     0
 42
0.000000001
 43
0.00000001
 40
0.0
 40
0.0
 40
0.0
 40
0.0
 40
0.0519515628040015
 40
0.2415611118696746
 40
0.4311707407321033
 40
0.6207804387820862
 40
0.8103901954087915
 40
1.0
 40
1.0
 40
1.0
 40
1.0
 10
-34.24161700122507
 20
3.948246025874226
 30
0.0
 10
-34.08853223652672
 20
3.954047549049385
 30
0.0
 10
-33.37672831812769
 20
3.981023106916957
 30
0.0
 10
-32.10585139309156
 20
3.806163070661384
 30
0.0
 10
-30.42942279102924
 20
3.41027504135603
 30
0.0
 10
-28.75294090276618
 20
2.795295733585107
 30
0.0
 10
-27.07647241133323
 20
2.023883313042667
 30
0.0
 10
-25.95882418423194
 20
1.417268874506078
 30
0.0
 10
-25.40000000000002
 20
1.113961616874832
 30
0.0
  0
LINE
  5
327
330
1F
100
AcDbEntity
  8
외형선
  6
Continuous
370
    15
100
AcDbLine
 10
-25.39999999999999
 20
1.113961616874832
 30
0.0
 11
-25.39999999999999
 21
-0.2677657119112381
 31
0.0
  0
LINE
  5
328
330
1F
100
AcDbEntity
  8
0
  6
Continuous
 62
     1
370
    15
100
AcDbLine
 10
-44.45
 20
3.96875
 30
0.0
 11
-44.45
 21
3.594422854858749
 31
0.0
  0
LINE
  5
329
330
1F
100
AcDbEntity
  8
외형선
  6
Continuous
370
    15
100
AcDbLine
 10
-25.39999999999999
 20
-3.809208064497071
 30
0.0
 11
-25.40000000000002
 21
-3.968749999999993
 31
0.0
  0
SPLINE
  5
32A
330
1F
100
AcDbEntity
  8
0
  6
Continuous
 62
     1
370
    15
100
AcDbSpline
210
0.0
220
0.0
230
1.0
 70
     8
 71
     3
 72
    13
 73
     9
 74
     0
 42
0.000000001
 43
0.00000001
 40
0.0
 40
0.0
 40
0.0
 40
0.0
 40
0.1032241956695411
 40
0.2825613689059266
 40
0.4618446933427033
 40
0.6411370869184411
 40
0.8205014043676971
 40
0.9999999999999999
 40
0.9999999999999999
 40
0.9999999999999999
 40
0.9999999999999999
 10
-36.66211902153681
 20
-3.948735749092357
 30
0.0
 10
-36.9301173621047
 20
-3.951318785423773
 30
0.0
 10
-37.66372422127363
 20
-3.958389475362345
 30
0.0
 10
-38.86257644047207
 20
-3.788453854370132
 30
0.0
 10
-40.25884012088964
 20
-3.462858929403126
 30
0.0
 10
-41.65518355282681
 20
-2.985946454822205
 30
0.0
 10
-43.05217918347292
 20
-2.392969076826645
 30
0.0
 10
-43.98394351295356
 20
-1.919440461255085
 30
0.0
 10
-44.45000000000003
 20
-1.68258756175392
 30
0.0
  0
LINE
  5
32B
330
1F
100
AcDbEntity
  8
0
  6
Continuous
 62
     1
370
    15
100
AcDbLine
 10
-44.45
 20
-0.3400478548587812
 30
0.0
 11
-44.45
 21
-1.68258756175392
 31
0.0
  0
SPLINE
  5
32C
330
1F
100
AcDbEntity
  8
0
  6
Continuous
 62
     1
370
    15
100
AcDbSpline
210
0.0
220
0.0
230
1.0
 70
     8
 71
     3
 72
    11
 73
     7
 74
     0
 42
0.000000001
 43
0.00000001
 40
0.0
 40
0.0
 40
0.0
 40
0.0
 40
0.3262646214121874
 40
0.6525382083050106
 40
0.9788354519401525
 40
1.0
 40
1.0
 40
1.0
 40
1.0
 10
-25.39999999999999
 20
3.959706818190554
 30
0.0
 10
-25.90783858761593
 20
3.961570855939605
 30
0.0
 10
-26.92352971783011
 20
3.96529898265991
 30
0.0
 10
-28.4471213112882
 20
3.709184251978797
 30
0.0
 10
-29.49581802294314
 20
3.460763047550223
 30
0.0
 10
-30.03667505416605
 20
3.256462164742928
 30
0.0
 10
-30.06961966823421
 20
3.244017815590887
 30
0.0
  0
SPLINE
  5
32D
330
1F
100
AcDbEntity
  8
외형선
  6
Continuous
370
    15
100
AcDbSpline
210
0.0
220
0.0
230
1.0
 70
    24
 71
     3
 72
    16
 73
    12
 74
     0
 42
0.000000001
 43
0.00000001
 40
0.0
 40
0.0
 40
0.0
 40
0.0
 40
0.0416487016056807
 40
0.1682396010566738
 40
0.2985016451676227
 40
0.4250925446186182
 40
0.5553545887295689
 40
0.6819454881804801
 40
0.812207532291511
 40
0.9053886821460843
 40
1.0
 40
1.0
 40
1.0
 40
1.0
 10
-25.39999999999999
 20
1.175338429887923
 30
0.0
 10
-25.39999999999999
 20
1.199149455965696
 30
0.0
 10
-25.39999999999993
 20
1.295333907668464
 30
0.0
 10
-25.40000000000005
 20
1.521194867759334
 30
0.0
 10
-25.40000000000002
 20
1.841159771197511
 30
0.0
 10
-25.40000000000002
 20
2.203794134478102
 30
0.0
 10
-25.40000000000005
 20
2.587225144938117
 30
0.0
 10
-25.40000000000005
 20
2.988957114464512
 30
0.0
 10
-25.40000000000005
 20
3.354743268587193
 30
0.0
 10
-25.40000000000002
 20
3.681735459713174
 30
0.0
 10
-25.39999999999999
 20
3.866580458362151
 30
0.0
 10
-25.39999999999999
 20
3.959706818190554
 30
0.0
  0
SPLINE
  5
32E
330
1F
100
AcDbEntity
  8
0
  6
Continuous
 62
     1
370
    15
100
AcDbSpline
210
0.0
220
0.0
230
1.0
 70
     8
 71
     3
 72
    10
 73
     6
 74
     0
 42
0.000000001
 43
0.00000001
 40
0.0
 40
0.0
 40
0.0
 40
0.0
 40
0.4238897900791194
 40
0.8476838219421675
 40
1.0
 40
1.0
 40
1.0
 40
1.0
 10
-44.45
 20
-3.96875
 30
0.0
 10
-43.94173472312143
 20
-3.9082939700872
 30
0.0
 10
-42.92531898830389
 20
-3.816581700240263
 30
0.0
 10
-41.72633128740533
 20
-3.547910008079867
 30
0.0
 10
-41.03561080492555
 20
-3.302198358872452
 30
0.0
 10
-40.8529931352751
 20
-3.237235338486649
 30
0.0
  0
LINE
  5
32F
330
1F
100
AcDbEntity
  8
0
  6
Continuous
 62
     1
370
    15
100
AcDbLine
 10
-44.45
 20
-1.68258756175392
 30
0.0
 11
-44.45
 21
-3.96875
 31
0.0
  0
LINE
  5
330
330
1F
100
AcDbEntity
  8
외형선
  6
Continuous
370
    15
100
AcDbLine
 10
-25.40000000000002
 20
3.968750000000014
 30
0.0
 11
-25.39999999999999
 21
3.959706818190554
 31
0.0
  0
LINE
  5
331
330
1F
100
AcDbEntity
  8
외형선
  6
Continuous
370
    15
100
AcDbLine
 10
-24.40000000000002
 20
0.0000000000000072
 30
0.0
 11
-24.40000000000002
 21
-3.968749999999993
 31
0.0
  0
LINE
  5
332
330
1F
100
AcDbEntity
  8
외형선
  6
Continuous
370
    15
100
AcDbLine
 10
-24.40000000000002
 20
3.968750000000007
 30
0.0
 11
-24.40000000000002
 21
0.0000000000000072
 31
0.0
  0
LINE
  5
333
330
1F
100
AcDbEntity
  8
외형선
  6
Continuous
370
    15
100
AcDbLine
 10
-21.43768467149219
 20
0.0000000000000072
 30
0.0
 11
-21.43768467149219
 21
-4.762499999999996
 31
0.0
  0
LINE
  5
334
330
1F
100
AcDbEntity
  8
외형선
  6
Continuous
370
    15
100
AcDbLine
 10
-21.43768467149219
 20
4.762500000000017
 30
0.0
 11
-21.43768467149219
 21
0.0000000000000072
 31
0.0
  0
SPLINE
  5
335
330
1F
100
AcDbEntity
  8
외형선
  6
Continuous
370
    15
100
AcDbSpline
210
0.0
220
0.0
230
1.0
 70
     8
 71
     3
 72
     8
 73
     4
 74
     0
 42
0.000000001
 43
0.00000001
 40
0.0
 40
0.0
 40
0.0
 40
0.0
 40
1.0
 40
1.0
 40
1.0
 40
1.0
 10
-25.39999999999999
 20
-3.809208064497078
 30
0.0
 10
-25.23313213626177
 20
-3.836184494716399
 30
0.0
 10
-25.06619376771205
 20
-3.859809413751769
 30
0.0
 10
-24.89984371695955
 20
-3.879999999547131
 30
0.0
  0
LINE
  5
336
330
1F
100
AcDbEntity
  8
외형선
  6
Continuous
370
    15
100
AcDbLine
 10
-24.89984371695955
 20
-0.5543661745033076
 30
0.0
 11
-24.89984371695955
 21
-3.880006752215628
 31
0.0
  0
SPLINE
  5
337
330
1F
100
AcDbEntity
  8
외형선
  6
Continuous
370
    15
100
AcDbSpline
210
0.0
220
0.0
230
1.0
 70
     8
 71
     3
 72
     8
 73
     4
 74
     0
 42
0.000000001
 43
0.00000001
 40
0.0
 40
0.0
 40
0.0
 40
0.0
 40
1.0
 40
1.0
 40
1.0
 40
1.0
 10
-25.40000000000002
 20
-0.2677657119112381
 30
0.0
 10
-25.23313213626177
 20
-0.3636565873702792
 30
0.0
 10
-25.06619376771208
 20
-0.4593249142585093
 30
0.0
 10
-24.89984371695955
 20
-0.5543939519471549
 30
0.0
  0
SPLINE
  5
338
330
1F
100
AcDbEntity
  8
외형선
  6
Continuous
370
    15
100
AcDbSpline
210
0.0
220
0.0
230
1.0
 70
     8
 71
     3
 72
     8
 73
     4
 74
     0
 42
0.000000001
 43
0.00000001
 40
0.0
 40
0.0
 40
0.0
 40
0.0
 40
1.0
 40
1.0
 40
1.0
 40
1.0
 10
-25.39999999999999
 20
1.113961616874818
 30
0.0
 10
-25.23313213626177
 20
1.021715318630662
 30
0.0
 10
-25.06619376771205
 20
0.9284750114715338
 30
0.0
 10
-24.89984371695955
 20
0.8346116258561197
 30
0.0
  0
LINE
  5
339
330
1F
100
AcDbEntity
  8
외형선
  6
Continuous
370
    15
100
AcDbLine
 10
-24.89984371695955
 20
3.929841562590866
 30
0.0
 11
-24.89984371695955
 21
0.8345802329680653
 31
0.0
  0
SPLINE
  5
33A
330
1F
100
AcDbEntity
  8
외형선
  6
Continuous
370
    15
100
AcDbSpline
210
0.0
220
0.0
230
1.0
 70
     8
 71
     3
 72
     8
 73
     4
 74
     0
 42
0.000000001
 43
0.00000001
 40
0.0
 40
0.0
 40
0.0
 40
0.0
 40
1.0
 40
1.0
 40
1.0
 40
1.0
 10
-25.40000000000002
 20
3.959706818190554
 30
0.0
 10
-25.23313213626177
 20
3.953222426867654
 30
0.0
 10
-25.06619376771208
 20
3.943249317574967
 30
0.0
 10
-24.89984371695955
 20
3.929837644043893
 30
0.0
  0
SPLINE
  5
33B
330
1F
100
AcDbEntity
  8
외형선
  6
Continuous
370
    15
100
AcDbSpline
210
0.0
220
0.0
230
1.0
 70
    24
 71
     3
 72
    20
 73
    16
 74
     0
 42
0.000000001
 43
0.00000001
 40
0.0
 40
0.0
 40
0.0
 40
0.0
 40
0.0661293595514437
 40
0.1441551799242985
 40
0.2221810002971732
 40
0.3002068206700478
 40
0.3782326410429114
 40
0.4562584614157749
 40
0.5342842817886393
 40
0.6123101021615035
 40
0.6903359225343619
 40
0.7683617429072204
 40
0.8463875632800925
 40
0.9244133836529644
 40
1.0
 40
1.0
 40
1.0
 40
1.0
 10
-25.40000000000005
 20
-0.1091218995114217
 30
0.0
 10
-25.40000000000005
 20
-0.1119474515183326
 30
0.0
 10
-25.40000000000002
 20
-0.1181068633243
 30
0.0
 10
-25.39999999999999
 20
-0.2082006619335103
 30
0.0
 10
-25.39999999999999
 20
-0.3621548193036047
 30
0.0
 10
-25.40000000000005
 20
-0.5770193503989772
 30
0.0
 10
-25.40000000000005
 20
-0.8466895446050201
 30
0.0
 10
-25.40000000000005
 20
-1.162069924749147
 30
0.0
 10
-25.40000000000005
 20
-1.515766224822272
 30
0.0
 10
-25.40000000000005
 20
-1.896458912025281
 30
0.0
 10
-25.40000000000002
 20
-2.294178591525984
 30
0.0
 10
-25.40000000000002
 20
-2.697414776322447
 30
0.0
 10
-25.40000000000002
 20
-3.093838497359997
 30
0.0
 10
-25.39999999999996
 20
-3.471941290509669
 30
0.0
 10
-25.39999999999999
 20
-3.697982237379293
 30
0.0
 10
-25.39999999999999
 20
-3.809208064497113
 30
0.0
  0
SPLINE
  5
33C
330
1F
100
AcDbEntity
  8
외형선
  6
Continuous
370
    15
100
AcDbSpline
210
0.0
220
0.0
230
1.0
 70
    24
 71
     3
 72
    15
 73
    11
 74
     0
 42
0.000000001
 43
0.00000001
 40
0.0
 40
0.0
 40
0.0
 40
0.0
 40
0.1312587478650808
 40
0.2625174957301615
 40
0.3910283533397017
 40
0.5195392109492423
 40
0.6480500685588156
 40
0.7765609261683886
 40
0.9050717837779434
 40
1.0
 40
1.0
 40
1.0
 40
1.0
 10
-25.40000000000002
 20
3.959706818190554
 30
0.0
 10
-25.40000000000002
 20
3.829802564282232
 30
0.0
 10
-25.40000000000002
 20
3.569994056465596
 30
0.0
 10
-25.40000000000005
 20
3.162320149537429
 30
0.0
 10
-25.39999999999999
 20
2.757416528328136
 30
0.0
 10
-25.39999999999999
 20
2.364365500694888
 30
0.0
 10
-25.39999999999999
 20
1.992081707333014
 30
0.0
 10
-25.40000000000005
 20
1.652239351379507
 30
0.0
 10
-25.40000000000005
 20
1.373832278801828
 30
0.0
 10
-25.40000000000005
 20
1.234523740681865
 30
0.0
 10
-25.40000000000005
 20
1.175338429887944
 30
0.0
  0
LINE
  5
3BA
330
1F
100
AcDbEntity
  8
외형선
  6
Continuous
370
    15
100
AcDbLine
 10
-3.568700000000039
 20
3.49250000000002
 30
0.0
 11
3.568700000000032
 21
3.49250000000002
 31
0.0
  0
LINE
  5
3BB
330
1F
100
AcDbEntity
  8
외형선
  6
Continuous
370
    15
100
AcDbLine
 10
-3.568700000000039
 20
3.49250000000002
 30
0.0
 11
-4.838700000000021
 21
4.762500000000002
 31
0.0
  0
LINE
  5
3BC
330
1F
100
AcDbEntity
  8
외형선
  6
Continuous
370
    15
100
AcDbLine
 10
3.568700000000032
 20
3.49250000000002
 30
0.0
 11
4.838700000000014
 21
4.762500000000002
 31
0.0
  0
LINE
  5
3BE
330
1F
100
AcDbEntity
  8
외형선
  6
Continuous
370
    15
100
AcDbLine
 10
-4.838700000000024
 20
4.762500000000002
 30
0.0
 11
-21.4376846714922
 21
4.762500000000002
 31
0.0
  0
ENDSEC
  0
SECTION
  2
OBJECTS
  0
DICTIONARY
  5
C
330
0
100
AcDbDictionary
281
     1
  3
ACAD_GROUP
350
D
  3
ACAD_IMAGE_VARS
350
151
  3
ACAD_LAYOUT
350
1A
  3
ACAD_MLINESTYLE
350
17
  3
ACAD_PLOTSETTINGS
350
19
  3
ACAD_PLOTSTYLENAME
350
E
  3
ACAD_SCALELIST
350
47
  3
APPDATA
350
14F
  3
DWGPROPS
350
3E2
  0
DICTIONARY
  5
1D7
330
2
100
AcDbDictionary
280
     1
281
     1
  3
ACAD_LAYERSTATES
360
1D8
  0
DICTIONARY
  5
D
102
{ACAD_REACTORS
330
C
102
}
330
C
100
AcDbDictionary
281
     1
  0
RASTERVARIABLES
  5
151
102
{ACAD_REACTORS
330
C
102
}
330
C
100
AcDbRasterVariables
 90
        0
 70
     1
 71
     1
 72
     1
  0
DICTIONARY
  5
1A
102
{ACAD_REACTORS
330
C
102
}
330
C
100
AcDbDictionary
281
     1
  3
Layout1
350
1E
  3
Layout2
350
26
  3
Model
350
22
  0
DICTIONARY
  5
17
102
{ACAD_REACTORS
330
C
102
}
330
C
100
AcDbDictionary
281
     1
  3
Standard
350
18
  0
DICTIONARY
  5
19
102
{ACAD_REACTORS
330
C
102
}
330
C
100
AcDbDictionary
281
     1
  0
ACDBDICTIONARYWDFLT
  5
E
102
{ACAD_REACTORS
330
C
102
}
330
C
100
AcDbDictionary
281
     1
  3
Normal
350
F
100
AcDbDictionaryWithDefault
340
F
  0
DICTIONARY
  5
47
102
{ACAD_REACTORS
330
C
102
}
330
C
100
AcDbDictionary
281
     1
  3
A0
350
48
  3
A1
350
49
  3
A2
350
4A
  3
A3
350
4B
  3
A4
350
4C
  3
A5
350
4D
  3
A6
350
4E
  3
A7
350
4F
  3
A8
350
50
  3
A9
350
51
  3
B0
350
52
  3
B1
350
53
  3
B2
350
54
  3
B3
350
55
  3
B4
350
56
  3
B5
350
57
  3
B6
350
58
  3
B7
350
59
  3
B8
350
5A
  3
B9
350
5B
  3
C0
350
5C
  3
C1
350
5D
  3
C2
350
5E
  3
C3
350
5F
  3
C4
350
60
  3
C5
350
61
  3
C6
350
62
  3
C7
350
63
  3
C8
350
64
  3
C9
350
65
  3
D0
350
66
  3
D1
350
67
  3
D2
350
68
  0
DICTIONARY
  5
14F
102
{ACAD_REACTORS
330
C
102
}
330
C
100
AcDbDictionary
281
     1
  0
XRECORD
  5
3E2
102
{ACAD_REACTORS
330
C
102
}
330
C
100
AcDbXrecord
280
     1
  1
DWGPROPS COOKIE
  2

  3

  4

  6

  7

  8
12017012
  9

300
=
301
=
302
=
303
=
304
=
305
=
306
=
307
=
308
=
309
=
 40
0.0
 41
2458313.096659838
 42
2458319.015966921
  1

 90
        0
  0
DICTIONARY
  5
1D8
102
{ACAD_REACTORS
330
1D7
102
}
330
1D7
100
AcDbDictionary
281
     1
  0
LAYOUT
  5
1E
102
{ACAD_REACTORS
330
1A
102
}
330
1A
100
AcDbPlotSettings
  1

  2
none_device
  4

  6

 40
0.0
 41
0.0
 42
0.0
 43
0.0
 44
0.0
 45
0.0
 46
0.0
 47
0.0
 48
0.0
 49
0.0
140
0.0
141
0.0
142
1.0
143
1.0
 70
   688
 72
     1
 73
     0
 74
     5
  7

 75
    16
147
1.0
148
0.0
149
0.0
100
AcDbLayout
  1
Layout1
 70
     1
 71
     1
 10
0.0
 20
0.0
 11
420.0
 21
297.0
 12
0.0
 22
0.0
 32
0.0
 14
1.000000000000000E+20
 24
1.000000000000000E+20
 34
1.000000000000000E+20
 15
-1.000000000000000E+20
 25
-1.000000000000000E+20
 35
-1.000000000000000E+20
146
0.0
 13
0.0
 23
0.0
 33
0.0
 16
1.0
 26
0.0
 36
0.0
 17
0.0
 27
1.0
 37
0.0
 76
     0
330
1B
  0
LAYOUT
  5
26
102
{ACAD_REACTORS
330
1A
102
}
330
1A
100
AcDbPlotSettings
  1

  2
none_device
  4

  6

 40
0.0
 41
0.0
 42
0.0
 43
0.0
 44
0.0
 45
0.0
 46
0.0
 47
0.0
 48
0.0
 49
0.0
140
0.0
141
0.0
142
1.0
143
1.0
 70
   688
 72
     1
 73
     0
 74
     5
  7

 75
    16
147
1.0
148
0.0
149
0.0
100
AcDbLayout
  1
Layout2
 70
     1
 71
     2
 10
0.0
 20
0.0
 11
0.0
 21
0.0
 12
0.0
 22
0.0
 32
0.0
 14
0.0
 24
0.0
 34
0.0
 15
0.0
 25
0.0
 35
0.0
146
0.0
 13
0.0
 23
0.0
 33
0.0
 16
1.0
 26
0.0
 36
0.0
 17
0.0
 27
1.0
 37
0.0
 76
     0
330
23
  0
LAYOUT
  5
22
102
{ACAD_REACTORS
330
1A
102
}
330
1A
100
AcDbPlotSettings
  1

  2
none_device
  4
ANSI_A_(11.00_x_8.50_Inches)
  6

 40
6.35
 41
19.05
 42
6.35000508
 43
19.05000254
 44
279.4
 45
215.9
 46
76.40317549079084
 47
81.37206295025456
 48
0.0
 49
0.0
140
0.0
141
0.0
142
0.0509944409367187
143
1.0
 70
  1696
 72
     0
 73
     0
 74
     0
  7

 75
     0
147
0.0235690232323232
148
0.0
149
0.0
100
AcDbLayout
  1
Model
 70
     1
 71
     0
 10
0.0
 20
0.0
 11
420.0
 21
297.0
 12
0.0
 22
0.0
 32
0.0
 14
-61.34875000000005
 24
-49.97180738881174
 34
0.0
 15
81.41936447236121
 25
55.22550576061924
 35
0.0
146
0.0
 13
0.0
 23
0.0
 33
0.0
 16
1.0
 26
0.0
 36
0.0
 17
0.0
 27
1.0
 37
0.0
 76
     0
330
1F
331
29
  0
MLINESTYLE
  5
18
102
{ACAD_REACTORS
330
17
102
}
330
17
100
AcDbMlineStyle
  2
Standard
 70
     0
  3

 62
   256
 51
90.0
 52
90.0
 71
     2
 49
0.5
 62
   256
  6
BYLAYER
 49
-0.5
 62
   256
  6
BYLAYER
  0
ACDBPLACEHOLDER
  5
F
102
{ACAD_REACTORS
330
E
102
}
330
E
  0
SCALE
  5
48
102
{ACAD_REACTORS
330
47
102
}
330
47
100
AcDbScale
 70
     0
300
1:1
140
1.0
141
1.0
290
     1
  0
SCALE
  5
49
102
{ACAD_REACTORS
330
47
102
}
330
47
100
AcDbScale
 70
     0
300
1:2
140
1.0
141
2.0
290
     0
  0
SCALE
  5
4A
102
{ACAD_REACTORS
330
47
102
}
330
47
100
AcDbScale
 70
     0
300
1:4
140
1.0
141
4.0
290
     0
  0
SCALE
  5
4B
102
{ACAD_REACTORS
330
47
102
}
330
47
100
AcDbScale
 70
     0
300
1:5
140
1.0
141
5.0
290
     0
  0
SCALE
  5
4C
102
{ACAD_REACTORS
330
47
102
}
330
47
100
AcDbScale
 70
     0
300
1:8
140
1.0
141
8.0
290
     0
  0
SCALE
  5
4D
102
{ACAD_REACTORS
330
47
102
}
330
47
100
AcDbScale
 70
     0
300
1:10
140
1.0
141
10.0
290
     0
  0
SCALE
  5
4E
102
{ACAD_REACTORS
330
47
102
}
330
47
100
AcDbScale
 70
     0
300
1:16
140
1.0
141
16.0
290
     0
  0
SCALE
  5
4F
102
{ACAD_REACTORS
330
47
102
}
330
47
100
AcDbScale
 70
     0
300
1:20
140
1.0
141
20.0
290
     0
  0
SCALE
  5
50
102
{ACAD_REACTORS
330
47
102
}
330
47
100
AcDbScale
 70
     0
300
1:30
140
1.0
141
30.0
290
     0
  0
SCALE
  5
51
102
{ACAD_REACTORS
330
47
102
}
330
47
100
AcDbScale
 70
     0
300
1:40
140
1.0
141
40.0
290
     0
  0
SCALE
  5
52
102
{ACAD_REACTORS
330
47
102
}
330
47
100
AcDbScale
 70
     0
300
1:50
140
1.0
141
50.0
290
     0
  0
SCALE
  5
53
102
{ACAD_REACTORS
330
47
102
}
330
47
100
AcDbScale
 70
     0
300
1:100
140
1.0
141
100.0
290
     0
  0
SCALE
  5
54
102
{ACAD_REACTORS
330
47
102
}
330
47
100
AcDbScale
 70
     0
300
2:1
140
2.0
141
1.0
290
     0
  0
SCALE
  5
55
102
{ACAD_REACTORS
330
47
102
}
330
47
100
AcDbScale
 70
     0
300
4:1
140
4.0
141
1.0
290
     0
  0
SCALE
  5
56
102
{ACAD_REACTORS
330
47
102
}
330
47
100
AcDbScale
 70
     0
300
8:1
140
8.0
141
1.0
290
     0
  0
SCALE
  5
57
102
{ACAD_REACTORS
330
47
102
}
330
47
100
AcDbScale
 70
     0
300
10:1
140
10.0
141
1.0
290
     0
  0
SCALE
  5
58
102
{ACAD_REACTORS
330
47
102
}
330
47
100
AcDbScale
 70
     0
300
100:1
140
100.0
141
1.0
290
     0
  0
SCALE
  5
59
102
{ACAD_REACTORS
330
47
102
}
330
47
100
AcDbScale
 70
     0
300
1/128" = 1'-0"
140
0.0078125
141
12.0
290
     0
  0
SCALE
  5
5A
102
{ACAD_REACTORS
330
47
102
}
330
47
100
AcDbScale
 70
     0
300
1/64" = 1'-0"
140
0.015625
141
12.0
290
     0
  0
SCALE
  5
5B
102
{ACAD_REACTORS
330
47
102
}
330
47
100
AcDbScale
 70
     0
300
1/32" = 1'-0"
140
0.03125
141
12.0
290
     0
  0
SCALE
  5
5C
102
{ACAD_REACTORS
330
47
102
}
330
47
100
AcDbScale
 70
     0
300
1/16" = 1'-0"
140
0.0625
141
12.0
290
     0
  0
SCALE
  5
5D
102
{ACAD_REACTORS
330
47
102
}
330
47
100
AcDbScale
 70
     0
300
3/32" = 1'-0"
140
0.09375
141
12.0
290
     0
  0
SCALE
  5
5E
102
{ACAD_REACTORS
330
47
102
}
330
47
100
AcDbScale
 70
     0
300
1/8" = 1'-0"
140
0.125
141
12.0
290
     0
  0
SCALE
  5
5F
102
{ACAD_REACTORS
330
47
102
}
330
47
100
AcDbScale
 70
     0
300
3/16" = 1'-0"
140
0.1875
141
12.0
290
     0
  0
SCALE
  5
60
102
{ACAD_REACTORS
330
47
102
}
330
47
100
AcDbScale
 70
     0
300
1/4" = 1'-0"
140
0.25
141
12.0
290
     0
  0
SCALE
  5
61
102
{ACAD_REACTORS
330
47
102
}
330
47
100
AcDbScale
 70
     0
300
3/8" = 1'-0"
140
0.375
141
12.0
290
     0
  0
SCALE
  5
62
102
{ACAD_REACTORS
330
47
102
}
330
47
100
AcDbScale
 70
     0
300
1/2" = 1'-0"
140
0.5
141
12.0
290
     0
  0
SCALE
  5
63
102
{ACAD_REACTORS
330
47
102
}
330
47
100
AcDbScale
 70
     0
300
3/4" = 1'-0"
140
0.75
141
12.0
290
     0
  0
SCALE
  5
64
102
{ACAD_REACTORS
330
47
102
}
330
47
100
AcDbScale
 70
     0
300
1" = 1'-0"
140
1.0
141
12.0
290
     0
  0
SCALE
  5
65
102
{ACAD_REACTORS
330
47
102
}
330
47
100
AcDbScale
 70
     0
300
1-1/2" = 1'-0"
140
1.5
141
12.0
290
     0
  0
SCALE
  5
66
102
{ACAD_REACTORS
330
47
102
}
330
47
100
AcDbScale
 70
     0
300
3" = 1'-0"
140
3.0
141
12.0
290
     0
  0
SCALE
  5
67
102
{ACAD_REACTORS
330
47
102
}
330
47
100
AcDbScale
 70
     0
300
6" = 1'-0"
140
6.0
141
12.0
290
     0
  0
SCALE
  5
68
102
{ACAD_REACTORS
330
47
102
}
330
47
100
AcDbScale
 70
     0
300
1'-0" = 1'-0"
140
12.0
141
12.0
290
     0
  0
ENDSEC
  0
EOF
