  0
SECTION
  2
HEADER
  9
$ACADVER
  1
AC1015
  9
$ACADMAINTVER
 70
     6
  9
$DWGCODEPAGE
  3
ANSI_949
  9
$INSBASE
 10
0.0
 20
0.0
 30
0.0
  9
$EXTMIN
 10
-68.96875000000007
 20
-49.97180738881174
 30
0.0
  9
$EXTMAX
 10
81.41936447236121
 20
43.70087500000007
 30
0.0
  9
$LIMMIN
 10
0.0
 20
0.0
  9
$LIMMAX
 10
420.0
 20
297.0
  9
$ORTHOMODE
 70
     1
  9
$REGENMODE
 70
     1
  9
$FILLMODE
 70
     1
  9
$QTEXTMODE
 70
     0
  9
$MIRRTEXT
 70
     1
  9
$LTSCALE
 40
1.0
  9
$ATTMODE
 70
     1
  9
$TEXTSIZE
 40
3.5
  9
$TRACEWID
 40
1.0
  9
$TEXTSTYLE
  7
Standard
  9
$CLAYER
  8
0
  9
$CELTYPE
  6
ByLayer
  9
$CECOLOR
 62
   256
  9
$CELTSCALE
 40
1.0
  9
$DISPSILH
 70
     0
  9
$DIMSCALE
 40
1.0
  9
$DIMASZ
 40
3.302
  9
$DIMEXO
 40
1.0
  9
$DIMDLI
 40
3.75
  9
$DIMRND
 40
0.0
  9
$DIMDLE
 40
0.0
  9
$DIMEXE
 40
1.0
  9
$DIMTP
 40
0.0
  9
$DIMTM
 40
0.0
  9
$DIMTXT
 40
3.5
  9
$DIMCEN
 40
2.5
  9
$DIMTSZ
 40
0.0
  9
$DIMTOL
 70
     0
  9
$DIMLIM
 70
     0
  9
$DIMTIH
 70
     1
  9
$DIMTOH
 70
     1
  9
$DIMSE1
 70
     0
  9
$DIMSE2
 70
     0
  9
$DIMTAD
 70
     1
  9
$DIMZIN
 70
     0
  9
$DIMBLK
  1

  9
$DIMASO
 70
     1
  9
$DIMSHO
 70
     1
  9
$DIMPOST
  1

  9
$DIMAPOST
  1

  9
$DIMALT
 70
     0
  9
$DIMALTD
 70
     3
  9
$DIMALTF
 40
0.0393700787401575
  9
$DIMLFAC
 40
1.0
  9
$DIMTOFL
 70
     1
  9
$DIMTVP
 40
0.0
  9
$DIMTIX
 70
     0
  9
$DIMSOXD
 70
     0
  9
$DIMSAH
 70
     0
  9
$DIMBLK1
  1

  9
$DIMBLK2
  1

  9
$DIMSTYLE
  2
ISO-25
  9
$DIMCLRD
 70
     0
  9
$DIMCLRE
 70
     0
  9
$DIMCLRT
 70
     0
  9
$DIMTFAC
 40
1.0
  9
$DIMGAP
 40
1.524
  9
$DIMJUST
 70
     0
  9
$DIMSD1
 70
     0
  9
$DIMSD2
 70
     0
  9
$DIMTOLJ
 70
     0
  9
$DIMTZIN
 70
     0
  9
$DIMALTZ
 70
     0
  9
$DIMALTTZ
 70
     0
  9
$DIMUPT
 70
     0
  9
$DIMDEC
 70
     2
  9
$DIMTDEC
 70
     2
  9
$DIMALTU
 70
     2
  9
$DIMALTTD
 70
     3
  9
$DIMTXSTY
  7
Standard
  9
$DIMAUNIT
 70
     0
  9
$DIMADEC
 70
     2
  9
$DIMALTRND
 40
0.0
  9
$DIMAZIN
 70
     0
  9
$DIMDSEP
 70
    44
  9
$DIMATFIT
 70
     3
  9
$DIMFRAC
 70
     0
  9
$DIMLDRBLK
  1

  9
$DIMLUNIT
 70
     2
  9
$DIMLWD
 70
    -2
  9
$DIMLWE
 70
    -2
  9
$DIMTMOVE
 70
     0
  9
$LUNITS
 70
     2
  9
$LUPREC
 70
     2
  9
$SKETCHINC
 40
1.0
  9
$FILLETRAD
 40
10.0
  9
$AUNITS
 70
     0
  9
$AUPREC
 70
     2
  9
$MENU
  1
.
  9
$ELEVATION
 40
0.0
  9
$PELEVATION
 40
0.0
  9
$THICKNESS
 40
0.0
  9
$LIMCHECK
 70
     0
  9
$CHAMFERA
 40
0.0
  9
$CHAMFERB
 40
0.0
  9
$CHAMFERC
 40
0.0
  9
$CHAMFERD
 40
0.0
  9
$SKPOLY
 70
     0
  9
$TDCREATE
 40
2458313.472930752
  9
$TDUCREATE
 40
2458313.097930752
  9
$TDUPDATE
 40
2458319.390515313
  9
$TDUUPDATE
 40
2458319.015515313
  9
$TDINDWG
 40
0.0036445255
  9
$TDUSRTIMER
 40
2458319.015435961
  9
$USRTIMER
 70
     1
  9
$ANGBASE
 50
0.0
  9
$ANGDIR
 70
     0
  9
$PDMODE
 70
     0
  9
$PDSIZE
 40
-1.0
  9
$PLINEWID
 40
0.0
  9
$SPLFRAME
 70
     0
  9
$SPLINETYPE
 70
     6
  9
$SPLINESEGS
 70
     8
  9
$HANDSEED
  5
547
  9
$SURFTAB1
 70
     6
  9
$SURFTAB2
 70
     6
  9
$SURFTYPE
 70
     6
  9
$SURFU
 70
     6
  9
$SURFV
 70
     6
  9
$UCSBASE
  2

  9
$UCSNAME
  2

  9
$UCSORG
 10
0.0
 20
0.0
 30
0.0
  9
$UCSXDIR
 10
1.0
 20
0.0
 30
0.0
  9
$UCSYDIR
 10
0.0
 20
1.0
 30
0.0
  9
$UCSORTHOREF
  2

  9
$UCSORTHOVIEW
 70
     0
  9
$UCSORGTOP
 10
0.0
 20
0.0
 30
0.0
  9
$UCSORGBOTTOM
 10
0.0
 20
0.0
 30
0.0
  9
$UCSORGLEFT
 10
0.0
 20
0.0
 30
0.0
  9
$UCSORGRIGHT
 10
0.0
 20
0.0
 30
0.0
  9
$UCSORGFRONT
 10
0.0
 20
0.0
 30
0.0
  9
$UCSORGBACK
 10
0.0
 20
0.0
 30
0.0
  9
$PUCSBASE
  2

  9
$PUCSNAME
  2

  9
$PUCSORG
 10
0.0
 20
0.0
 30
0.0
  9
$PUCSXDIR
 10
1.0
 20
0.0
 30
0.0
  9
$PUCSYDIR
 10
0.0
 20
1.0
 30
0.0
  9
$PUCSORTHOREF
  2

  9
$PUCSORTHOVIEW
 70
     0
  9
$PUCSORGTOP
 10
0.0
 20
0.0
 30
0.0
  9
$PUCSORGBOTTOM
 10
0.0
 20
0.0
 30
0.0
  9
$PUCSORGLEFT
 10
0.0
 20
0.0
 30
0.0
  9
$PUCSORGRIGHT
 10
0.0
 20
0.0
 30
0.0
  9
$PUCSORGFRONT
 10
0.0
 20
0.0
 30
0.0
  9
$PUCSORGBACK
 10
0.0
 20
0.0
 30
0.0
  9
$USERI1
 70
     0
  9
$USERI2
 70
     0
  9
$USERI3
 70
     0
  9
$USERI4
 70
     0
  9
$USERI5
 70
     0
  9
$USERR1
 40
0.0
  9
$USERR2
 40
0.0
  9
$USERR3
 40
0.0
  9
$USERR4
 40
0.0
  9
$USERR5
 40
0.0
  9
$WORLDVIEW
 70
     1
  9
$SHADEDGE
 70
     3
  9
$SHADEDIF
 70
    70
  9
$TILEMODE
 70
     1
  9
$MAXACTVP
 70
    64
  9
$PINSBASE
 10
0.0
 20
0.0
 30
0.0
  9
$PLIMCHECK
 70
     0
  9
$PEXTMIN
 10
1.000000000000000E+20
 20
1.000000000000000E+20
 30
1.000000000000000E+20
  9
$PEXTMAX
 10
-1.000000000000000E+20
 20
-1.000000000000000E+20
 30
-1.000000000000000E+20
  9
$PLIMMIN
 10
0.0
 20
0.0
  9
$PLIMMAX
 10
0.0
 20
0.0
  9
$UNITMODE
 70
     0
  9
$VISRETAIN
 70
     1
  9
$PLINEGEN
 70
     0
  9
$PSLTSCALE
 70
     1
  9
$TREEDEPTH
 70
  3020
  9
$CMLSTYLE
  2
Standard
  9
$CMLJUST
 70
     0
  9
$CMLSCALE
 40
20.0
  9
$PROXYGRAPHICS
 70
     1
  9
$MEASUREMENT
 70
     1
  9
$CELWEIGHT
370
    -1
  9
$ENDCAPS
280
     0
  9
$JOINSTYLE
280
     0
  9
$LWDISPLAY
290
     1
  9
$INSUNITS
 70
     4
  9
$HYPERLINKBASE
  1

  9
$STYLESHEET
  1

  9
$XEDIT
290
     1
  9
$CEPSNTYPE
380
     0
  9
$PSTYLEMODE
290
     1
  9
$FINGERPRINTGUID
  2
{1B2328FE-A340-4B8F-B3C6-9D153F33E4E3}
  9
$VERSIONGUID
  2
{FAEB1C32-E019-11D5-929B-00C0DF256EC4}
  9
$EXTNAMES
290
     1
  9
$PSVPSCALE
 40
0.0
  9
$OLESTARTUP
290
     0
  0
ENDSEC
  0
SECTION
  2
CLASSES
  0
CLASS
  1
ACDBDICTIONARYWDFLT
  2
AcDbDictionaryWithDefault
  3
ObjectDBX Classes
 90
        0
280
     0
281
     0
  0
CLASS
  1
VISUALSTYLE
  2
AcDbVisualStyle
  3
ObjectDBX Classes
 90
     4095
280
     0
281
     0
  0
CLASS
  1
MATERIAL
  2
AcDbMaterial
  3
ObjectDBX Classes
 90
     1153
280
     0
281
     0
  0
CLASS
  1
SCALE
  2
AcDbScale
  3
ObjectDBX Classes
 90
     1153
280
     0
281
     0
  0
CLASS
  1
SUN
  2
AcDbSun
  3
SCENEOE
 90
     1153
280
     0
281
     0
  0
CLASS
  1
ACDBPLACEHOLDER
  2
AcDbPlaceHolder
  3
ObjectDBX Classes
 90
        0
280
     0
281
     0
  0
CLASS
  1
LAYOUT
  2
AcDbLayout
  3
ObjectDBX Classes
 90
        0
280
     0
281
     0
  0
CLASS
  1
TABLESTYLE
  2
AcDbTableStyle
  3
ObjectDBX Classes
 90
     4095
280
     0
281
     0
  0
CLASS
  1
MLEADERSTYLE
  2
AcDbMLeaderStyle
  3
ACDB_MLEADERSTYLE_CLASS
 90
     4095
280
     0
281
     0
  0
CLASS
  1
RASTERVARIABLES
  2
AcDbRasterVariables
  3
ISM
 90
        0
280
     0
281
     0
  0
ENDSEC
  0
SECTION
  2
TABLES
  0
TABLE
  2
VPORT
  5
8
330
0
100
AcDbSymbolTable
 70
     1
  0
VPORT
  5
29
330
8
100
AcDbSymbolTableRecord
100
AcDbViewportTableRecord
  2
*Active
 70
     0
 10
0.0
 20
0.0
 11
1.0
 21
1.0
 12
0.8457368584839529
 22
-1.513952885476527
 13
0.0
 23
0.0
 14
10.0
 24
10.0
 15
10.0
 25
10.0
 16
0.0
 26
0.0
 36
1.0
 17
0.0
 27
0.0
 37
0.0
 40
130.1116883068835
 41
1.632093933463796
 42
50.0
 43
0.0
 44
0.0
 50
0.0
 51
0.0
 71
    16
 72
  2000
 73
     1
 74
     3
 75
     0
 76
     0
 77
     0
 78
     0
281
     0
 65
     1
110
0.0
120
0.0
130
0.0
111
1.0
121
0.0
131
0.0
112
0.0
122
1.0
132
0.0
 79
     0
146
0.0
  0
ENDTAB
  0
TABLE
  2
LTYPE
  5
5
330
0
100
AcDbSymbolTable
 70
     6
  0
LTYPE
  5
14
330
5
100
AcDbSymbolTableRecord
100
AcDbLinetypeTableRecord
  2
ByBlock
 70
     0
  3

 72
    65
 73
     0
 40
0.0
  0
LTYPE
  5
15
330
5
100
AcDbSymbolTableRecord
100
AcDbLinetypeTableRecord
  2
ByLayer
 70
     0
  3

 72
    65
 73
     0
 40
0.0
  0
LTYPE
  5
16
330
5
100
AcDbSymbolTableRecord
100
AcDbLinetypeTableRecord
  2
Continuous
 70
     0
  3
Solid line
 72
    65
 73
     0
 40
0.0
  0
LTYPE
  5
6A
330
5
100
AcDbSymbolTableRecord
100
AcDbLinetypeTableRecord
  2
HIDDEN
 70
     0
  3
Hidden __ __ __ __ __ __ __ __ __ __ __ __ __ __
 72
    65
 73
     2
 40
1.905
 49
1.27
 74
     0
 49
-0.635
 74
     0
  0
LTYPE
  5
6B
330
5
100
AcDbSymbolTableRecord
100
AcDbLinetypeTableRecord
  2
PHANTOM
 70
     0
  3
Phantom ______  __  __  ______  __  __  ______
 72
    65
 73
     6
 40
12.7
 49
6.35
 74
     0
 49
-1.27
 74
     0
 49
1.27
 74
     0
 49
-1.27
 74
     0
 49
1.27
 74
     0
 49
-1.27
 74
     0
  0
LTYPE
  5
6C
330
5
100
AcDbSymbolTableRecord
100
AcDbLinetypeTableRecord
  2
CENTER
 70
     0
  3
Center ____ _ ____ _ ____ _ ____ _ ____ _ ____
 72
    65
 73
     4
 40
10.16
 49
6.35
 74
     0
 49
-1.27
 74
     0
 49
1.27
 74
     0
 49
-1.27
 74
     0
  0
LTYPE
  5
6D
330
5
100
AcDbSymbolTableRecord
100
AcDbLinetypeTableRecord
  2
CENTERX2
 70
     0
  3
Center (2x) ________  __  ________  __  _____
 72
    65
 73
     4
 40
20.32
 49
12.7
 74
     0
 49
-2.54
 74
     0
 49
2.54
 74
     0
 49
-2.54
 74
     0
  0
LTYPE
  5
6E
330
5
100
AcDbSymbolTableRecord
100
AcDbLinetypeTableRecord
  2
DOT2
 70
     0
  3
Dot (.5x) ........................................
 72
    65
 73
     2
 40
0.635
 49
0.0
 74
     0
 49
-0.635
 74
     0
  0
ENDTAB
  0
TABLE
  2
LAYER
  5
2
102
{ACAD_XDICTIONARY
360
1D7
102
}
330
0
100
AcDbSymbolTable
 70
    18
  0
LAYER
  5
10
330
2
100
AcDbSymbolTableRecord
100
AcDbLayerTableRecord
  2
0
 70
     0
 62
     7
  6
Continuous
370
    -3
390
F
  0
LAYER
  5
6F
330
2
100
AcDbSymbolTableRecord
100
AcDbLayerTableRecord
  2
FORMAT
 70
     0
 62
     2
  6
Continuous
370
    -3
390
F
  0
LAYER
  5
70
330
2
100
AcDbSymbolTableRecord
100
AcDbLayerTableRecord
  2
외형선
 70
     0
 62
     4
  6
Continuous
370
    30
390
F
  0
LAYER
  5
71
330
2
100
AcDbSymbolTableRecord
100
AcDbLayerTableRecord
  2
숨은선
 70
     0
 62
     2
  6
HIDDEN
370
    15
390
F
  0
LAYER
  5
72
330
2
100
AcDbSymbolTableRecord
100
AcDbLayerTableRecord
  2
중심선
 70
     0
 62
     1
  6
CENTERX2
370
    -3
390
F
  0
LAYER
  5
73
330
2
100
AcDbSymbolTableRecord
100
AcDbLayerTableRecord
  2
파단선
 70
     0
 62
     4
  6
Continuous
370
    -3
390
F
  0
LAYER
  5
74
330
2
100
AcDbSymbolTableRecord
100
AcDbLayerTableRecord
  2
해칭선
 70
     0
 62
   100
  6
Continuous
370
    -3
390
F
  0
LAYER
  5
75
330
2
100
AcDbSymbolTableRecord
100
AcDbLayerTableRecord
  2
가는실선
 70
     0
 62
     4
  6
Continuous
370
    -3
390
F
  0
LAYER
  5
76
330
2
100
AcDbSymbolTableRecord
100
AcDbLayerTableRecord
  2
치수_보조선
 70
     0
 62
     4
  6
Continuous
370
    -3
390
F
  0
LAYER
  5
77
330
2
100
AcDbSymbolTableRecord
100
AcDbLayerTableRecord
  2
치수문자_일반주서
 70
     0
 62
     7
  6
Continuous
370
    15
390
F
  0
LAYER
  5
78
330
2
100
AcDbSymbolTableRecord
100
AcDbLayerTableRecord
  2
개별주서
 70
     0
 62
   100
  6
Continuous
370
    30
390
F
  0
LAYER
  5
79
330
2
100
AcDbSymbolTableRecord
100
AcDbLayerTableRecord
  2
중간선
 70
     0
 62
     2
  6
Continuous
370
    15
390
F
  0
LAYER
  5
7A
330
2
100
AcDbSymbolTableRecord
100
AcDbLayerTableRecord
  2
윤곽선
 70
     0
 62
     3
  6
Continuous
370
    40
390
F
  0
LAYER
  5
7B
330
2
100
AcDbSymbolTableRecord
100
AcDbLayerTableRecord
  2
중심마크
 70
     0
 62
   100
  6
Continuous
370
    30
390
F
  0
LAYER
  5
7C
330
2
100
AcDbSymbolTableRecord
100
AcDbLayerTableRecord
  2
가상선
 70
     0
 62
     4
  6
PHANTOM
370
    -3
390
F
  0
LAYER
  5
7D
330
2
100
AcDbSymbolTableRecord
100
AcDbLayerTableRecord
  2
특수지정선
 70
     0
 62
     5
  6
CENTERX2
370
    60
390
F
  0
LAYER
  5
7E
330
2
100
AcDbSymbolTableRecord
100
AcDbLayerTableRecord
  2
참조1
 70
     0
 62
    -4
  6
Continuous
370
    -3
390
F
  0
LAYER
  5
151
330
2
100
AcDbSymbolTableRecord
100
AcDbLayerTableRecord
  2
Defpoints
 70
     0
 62
     7
  6
Continuous
290
     0
370
    -3
390
F
  0
ENDTAB
  0
TABLE
  2
STYLE
  5
3
330
0
100
AcDbSymbolTable
 70
     2
  0
STYLE
  5
11
330
3
100
AcDbSymbolTableRecord
100
AcDbTextStyleTableRecord
  2
Standard
 70
     0
 40
0.0
 41
1.0
 50
0.0
 71
     0
 42
3.5
  3
txt
  4

  0
STYLE
  5
94
330
3
100
AcDbSymbolTableRecord
100
AcDbTextStyleTableRecord
  2
SLDTEXTSTYLE0
 70
     0
 40
0.0
 41
0.75
 50
0.0
 71
     0
 42
3.5
  3
TXT
  4

  0
ENDTAB
  0
TABLE
  2
VIEW
  5
6
330
0
100
AcDbSymbolTable
 70
     0
  0
ENDTAB
  0
TABLE
  2
UCS
  5
7
330
0
100
AcDbSymbolTable
 70
     0
  0
ENDTAB
  0
TABLE
  2
APPID
  5
9
330
0
100
AcDbSymbolTable
 70
     1
  0
APPID
  5
12
330
9
100
AcDbSymbolTableRecord
100
AcDbRegAppTableRecord
  2
ACAD
 70
     0
  0
ENDTAB
  0
TABLE
  2
DIMSTYLE
  5
A
330
0
100
AcDbSymbolTable
 70
     4
100
AcDbDimStyleTable
  0
DIMSTYLE
105
27
330
A
100
AcDbSymbolTableRecord
100
AcDbDimStyleTableRecord
  2
ISO-25
 70
     0
 41
2.5
 42
0.625
 43
3.75
 44
1.25
 73
     0
 74
     0
 77
     1
 78
     8
140
2.5
141
2.5
143
0.03937007874016
147
0.625
171
     3
172
     1
178
     0
271
     2
272
     2
274
     3
278
    44
283
     0
284
     8
340
11
  0
DIMSTYLE
105
CE
330
A
100
AcDbSymbolTableRecord
100
AcDbDimStyleTableRecord
  2
SLDDIMSTYLE0
 70
     0
 41
3.302
 44
0.0
 45
0.000000001
 73
     0
 74
     0
 77
     1
 78
    12
 79
     3
140
3.5
143
0.0393700787401575
147
0.875
148
0.000000001
170
     1
173
     1
178
     0
271
     2
272
     2
276
     2
284
    12
340
94
  0
DIMSTYLE
105
E2
330
A
100
AcDbSymbolTableRecord
100
AcDbDimStyleTableRecord
  2
SLDDIMSTYLE1
 70
     0
 41
3.302
 44
0.0
 45
0.000000001
 73
     0
 74
     0
 77
     1
 78
     4
 79
     1
140
3.5
143
0.0393700787401575
147
0.875
148
0.000000001
170
     1
173
     1
178
     0
271
     2
272
     2
276
     2
284
    12
340
94
  0
DIMSTYLE
105
10A
102
{ACAD_REACTORS
330
109
330
CD
330
E1
330
F6
102
}
330
A
100
AcDbSymbolTableRecord
100
AcDbDimStyleTableRecord
  2
SLDDIMSTYLE2
 70
     0
 41
3.302
 44
0.0
 45
0.000000001
 73
     0
 74
     0
 77
     1
 78
     4
 79
     1
140
3.5
143
0.0393700787401575
147
0.875
148
0.000000001
170
     1
172
     1
173
     1
178
     0
271
     2
272
     2
276
     2
284
    12
289
     0
340
94
  0
ENDTAB
  0
TABLE
  2
BLOCK_RECORD
  5
1
330
0
100
AcDbSymbolTable
 70
    25
  0
BLOCK_RECORD
  5
1F
330
1
100
AcDbSymbolTableRecord
100
AcDbBlockTableRecord
  2
*Model_Space
340
22
  0
BLOCK_RECORD
  5
1B
330
1
100
AcDbSymbolTableRecord
100
AcDbBlockTableRecord
  2
*Paper_Space
340
1E
  0
BLOCK_RECORD
  5
23
330
1
100
AcDbSymbolTableRecord
100
AcDbBlockTableRecord
  2
*Paper_Space0
340
26
  0
BLOCK_RECORD
  5
7F
330
1
100
AcDbSymbolTableRecord
100
AcDbBlockTableRecord
  2
블럭10
340
0
102
{BLKREFS
331
C6
102
}
  0
BLOCK_RECORD
  5
CF
330
1
100
AcDbSymbolTableRecord
100
AcDbBlockTableRecord
  2
_D
340
0
  0
BLOCK_RECORD
  5
E3
330
1
100
AcDbSymbolTableRecord
100
AcDbBlockTableRecord
  2
_D_1
340
0
  0
BLOCK_RECORD
  5
F7
330
1
100
AcDbSymbolTableRecord
100
AcDbBlockTableRecord
  2
_D_2
340
0
  0
BLOCK_RECORD
  5
10B
330
1
100
AcDbSymbolTableRecord
100
AcDbBlockTableRecord
  2
_D_3
340
0
  0
BLOCK_RECORD
  5
125
330
1
100
AcDbSymbolTableRecord
100
AcDbBlockTableRecord
  2
SW_DOWELSYMBOL_0
340
0
102
{BLKREFS
331
12B
102
}
  0
BLOCK_RECORD
  5
1DB
330
1
100
AcDbSymbolTableRecord
100
AcDbBlockTableRecord
  2
*D7
340
0
  0
BLOCK_RECORD
  5
1EA
330
1
100
AcDbSymbolTableRecord
100
AcDbBlockTableRecord
  2
*D8
340
0
  0
BLOCK_RECORD
  5
1F9
330
1
100
AcDbSymbolTableRecord
100
AcDbBlockTableRecord
  2
*D9
340
0
  0
BLOCK_RECORD
  5
233
330
1
100
AcDbSymbolTableRecord
100
AcDbBlockTableRecord
  2
*D10
340
0
  0
BLOCK_RECORD
  5
242
330
1
100
AcDbSymbolTableRecord
100
AcDbBlockTableRecord
  2
*D11
340
0
  0
BLOCK_RECORD
  5
251
330
1
100
AcDbSymbolTableRecord
100
AcDbBlockTableRecord
  2
*D12
340
0
  0
BLOCK_RECORD
  5
2E9
330
1
100
AcDbSymbolTableRecord
100
AcDbBlockTableRecord
  2
*D13
340
0
  0
BLOCK_RECORD
  5
2F8
330
1
100
AcDbSymbolTableRecord
100
AcDbBlockTableRecord
  2
*D14
340
0
  0
BLOCK_RECORD
  5
307
330
1
100
AcDbSymbolTableRecord
100
AcDbBlockTableRecord
  2
*D15
340
0
  0
BLOCK_RECORD
  5
39B
330
1
100
AcDbSymbolTableRecord
100
AcDbBlockTableRecord
  2
*D16
340
0
  0
BLOCK_RECORD
  5
3AA
330
1
100
AcDbSymbolTableRecord
100
AcDbBlockTableRecord
  2
*D17
340
0
  0
BLOCK_RECORD
  5
3B9
330
1
100
AcDbSymbolTableRecord
100
AcDbBlockTableRecord
  2
*D18
340
0
  0
BLOCK_RECORD
  5
450
330
1
100
AcDbSymbolTableRecord
100
AcDbBlockTableRecord
  2
*D19
340
0
  0
BLOCK_RECORD
  5
45F
330
1
100
AcDbSymbolTableRecord
100
AcDbBlockTableRecord
  2
*D20
340
0
  0
BLOCK_RECORD
  5
46E
330
1
100
AcDbSymbolTableRecord
100
AcDbBlockTableRecord
  2
*D21
340
0
  0
BLOCK_RECORD
  5
4A7
330
1
100
AcDbSymbolTableRecord
100
AcDbBlockTableRecord
  2
*D22
340
0
  0
BLOCK_RECORD
  5
4B6
330
1
100
AcDbSymbolTableRecord
100
AcDbBlockTableRecord
  2
*D23
340
0
  0
BLOCK_RECORD
  5
4C5
330
1
100
AcDbSymbolTableRecord
100
AcDbBlockTableRecord
  2
*D24
340
0
  0
ENDTAB
  0
ENDSEC
  0
SECTION
  2
BLOCKS
  0
BLOCK
  5
20
330
1F
100
AcDbEntity
  8
0
100
AcDbBlockBegin
  2
*Model_Space
 70
     0
 10
0.0
 20
0.0
 30
0.0
  3
*Model_Space
  1
*Model_Space
  0
ENDBLK
  5
21
330
1F
100
AcDbEntity
  8
0
100
AcDbBlockEnd
  0
BLOCK
  5
1C
330
1B
100
AcDbEntity
 67
     1
  8
0
100
AcDbBlockBegin
  2
*Paper_Space
 70
     0
 10
0.0
 20
0.0
 30
0.0
  3
*Paper_Space
  1
*Paper_Space
  0
ENDBLK
  5
1D
330
1B
100
AcDbEntity
 67
     1
  8
0
100
AcDbBlockEnd
  0
BLOCK
  5
24
330
23
100
AcDbEntity
  8
0
100
AcDbBlockBegin
  2
*Paper_Space0
 70
     0
 10
0.0
 20
0.0
 30
0.0
  3
*Paper_Space0
  1
*Paper_Space0
  0
ENDBLK
  5
25
330
23
100
AcDbEntity
  8
0
100
AcDbBlockEnd
  0
BLOCK
  5
80
330
7F
100
AcDbEntity
  8
0
100
AcDbBlockBegin
  2
블럭10
 70
     2
 10
0.0
 20
0.0
 30
0.0
  3
블럭10
  1
블럭10
  0
ELLIPSE
  5
82
330
7F
100
AcDbEntity
  8
중심선
100
AcDbEllipse
 10
20.54032771741204
 20
12.0471743016438
 30
0.0
 11
6.600054785286829
 21
-1.261213355974178E-13
 31
0.0
210
0.0
220
0.0
230
1.0
 40
0.636358354079598
 41
0.9219305317359503
 42
6.513795318482858
  0
ELLIPSE
  5
83
330
7F
100
AcDbEntity
  8
중심선
100
AcDbEllipse
 10
20.54032771746488
 20
12.04717430159265
 30
0.0
 11
3.960054785062283
 21
1.540847449632565E-10
 31
0.0
210
0.0
220
0.0
230
1.0
 40
0.3939339440162632
 41
1.131841032648279
 42
5.62031148352944
  0
LINE
  5
84
330
7F
100
AcDbEntity
  8
중심선
100
AcDbLine
 10
2.268634060543552
 20
16.24717430164393
 30
0.0
 11
5.714909304380834
 21
16.24717430164393
 31
0.0
  0
LINE
  5
85
330
7F
100
AcDbEntity
  8
중심선
100
AcDbLine
 10
5.245725140726316
 20
7.84717430164391
 30
0.0
 11
8.692000384563599
 21
7.84717430164391
 31
0.0
  0
LINE
  5
86
330
7F
100
AcDbEntity
  8
중심선
100
AcDbLine
 10
15.74043728645272
 20
16.24717430164393
 30
0.0
 11
8.692000384563599
 21
7.84717430164391
 31
0.0
  0
LINE
  5
87
330
7F
100
AcDbEntity
  8
중심선
100
AcDbLine
 10
0.1404042013395286
 20
13.71084872107135
 30
0.0
 11
3.58671253028996
 21
13.71088815037384
 31
0.0
  0
LINE
  5
88
330
7F
100
AcDbEntity
  8
중심선
100
AcDbLine
 10
2.750260043222114
 20
10.84717430164391
 30
0.0
 11
6.196535287059397
 21
10.84717430164391
 31
0.0
  0
LINE
  5
89
330
7F
100
AcDbEntity
  8
중심선
100
AcDbLine
 10
12.29416204261559
 20
16.24717430164393
 30
0.0
 11
5.245725140726316
 21
7.84717430164391
 31
0.0
  0
LINE
  5
8A
330
7F
100
AcDbEntity
  8
중심선
100
AcDbLine
 10
10.72767329541681
 20
16.24717430164393
 30
0.0
 11
6.196535287059397
 21
10.84717430164391
 31
0.0
  0
LINE
  5
8B
330
7F
100
AcDbEntity
  8
중심선
100
AcDbLine
 10
7.28139805157953
 20
16.24717430164393
 30
0.0
 11
2.750260043222114
 21
10.84717430164391
 31
0.0
  0
LINE
  5
8C
330
7F
100
AcDbEntity
  8
중심선
100
AcDbLine
 10
5.714909304380834
 20
16.24717430164393
 30
0.0
 11
3.58671253028996
 21
13.71088815037384
 31
0.0
  0
LINE
  5
8D
330
7F
100
AcDbEntity
  8
중심선
100
AcDbLine
 10
2.268634060543552
 20
16.24717430164393
 30
0.0
 11
0.1404042013395286
 21
13.71084872107135
 31
0.0
  0
LINE
  5
8E
330
7F
100
AcDbEntity
  8
중심선
100
AcDbLine
 10
7.28139805157953
 20
16.24717430164393
 30
0.0
 11
10.72767329541681
 21
16.24717430164393
 31
0.0
  0
LINE
  5
8F
330
7F
100
AcDbEntity
  8
중심선
100
AcDbLine
 10
12.29416204261559
 20
16.24717430164393
 30
0.0
 11
15.74043728645272
 21
16.24717430164393
 31
0.0
  0
LINE
  5
90
330
7F
100
AcDbEntity
  8
중심선
100
AcDbLine
 10
19.22036997980202
 20
11.08717430171403
 30
0.0
 11
23.66174974927406
 21
11.08717430171406
 31
0.0
  0
LINE
  5
91
330
7F
100
AcDbEntity
  8
중심선
100
AcDbLine
 10
19.22039502424796
 20
13.00717430171391
 30
0.0
 11
19.22036997980202
 21
11.08717430171403
 31
0.0
  0
LINE
  5
92
330
7F
100
AcDbEntity
  8
중심선
100
AcDbLine
 10
19.22039502424796
 20
13.00717430171391
 30
0.0
 11
26.96566020931264
 21
13.00717430171391
 31
0.0
  0
LINE
  5
93
330
7F
100
AcDbEntity
  8
중심선
100
AcDbLine
 10
22.22332737316547
 20
13.45928029700563
 30
0.0
 11
24.52862924686651
 21
15.39360700705356
 31
0.0
  0
ATTDEF
  5
95
330
7F
100
AcDbEntity
  8
FORMAT
 62
     2
100
AcDbText
 10
4.408487351596664
 20
2.075366912832191
 30
0.0
 40
4.233333333333333
  1
E1053026
 41
0.75
  7
SLDTEXTSTYLE0
 11
4.408487351596664
 21
-0.0412997538344756
 31
0.0
100
AcDbAttributeDefinition
  3

  2
AUTOATTR0
 70
     0
 74
     1
  0
ENDBLK
  5
81
330
7F
100
AcDbEntity
  8
0
100
AcDbBlockEnd
  0
BLOCK
  5
D0
330
CF
100
AcDbEntity
  8
0
100
AcDbBlockBegin
  2
_D
 70
     0
 10
0.0
 20
0.0
 30
0.0
  3
_D
  1
_D
  0
LINE
  5
D2
330
CF
100
AcDbEntity
  8
치수문자_일반주서
 62
     0
370
    -2
100
AcDbLine
 10
52.44999999999997
 20
5.159375000000006
 30
0.0
 11
66.30982222076499
 21
5.159375000000058
 31
0.0
  0
LINE
  5
D3
330
CF
100
AcDbEntity
  8
치수문자_일반주서
 62
     0
370
    -2
100
AcDbLine
 10
52.44999999999998
 20
-5.159374999999994
 30
0.0
 11
66.30982222076503
 21
-5.159374999999947
 31
0.0
  0
LINE
  5
D4
330
CF
100
AcDbEntity
  8
치수문자_일반주서
 62
     0
370
    -2
100
AcDbLine
 10
66.30982222076499
 20
5.159375000000058
 30
0.0
 11
66.30982222076481
 21
43.70087500000007
 31
0.0
  0
LINE
  5
D5
330
CF
100
AcDbEntity
  8
치수문자_일반주서
 62
     0
370
    -2
100
AcDbLine
 10
66.30982222076499
 20
5.159375000000058
 30
0.0
 11
66.30982222076503
 21
-5.159374999999947
 31
0.0
  0
LINE
  5
D6
330
CF
100
AcDbEntity
  8
치수문자_일반주서
 62
     0
370
    -2
100
AcDbLine
 10
66.30982222076497
 20
8.461375000000057
 30
0.0
 11
66.30982222076496
 21
11.76337500000006
 31
0.0
  0
LINE
  5
D7
330
CF
100
AcDbEntity
  8
치수문자_일반주서
 62
     0
370
    -2
100
AcDbLine
 10
66.30982222076504
 20
-8.461374999999947
 30
0.0
 11
66.30982222076506
 21
-11.76337499999995
 31
0.0
  0
SOLID
  5
D8
330
CF
100
AcDbEntity
  8
치수문자_일반주서
 62
     0
100
AcDbTrace
 10
65.75948888743164
 20
8.461375000000055
 30
0.0
 11
66.8601555540983
 21
8.461375000000059
 31
0.0
 12
66.30982222076499
 22
5.159375000000058
 32
0.0
 13
66.30982222076499
 23
5.159375000000058
 33
0.0
  0
SOLID
  5
D9
330
CF
100
AcDbEntity
  8
치수문자_일반주서
 62
     0
100
AcDbTrace
 10
66.86015555409837
 20
-8.461374999999945
 30
0.0
 11
65.75948888743171
 21
-8.461374999999949
 31
0.0
 12
66.30982222076503
 22
-5.159374999999947
 32
0.0
 13
66.30982222076503
 23
-5.159374999999947
 33
0.0
  0
MTEXT
  5
DA
330
CF
100
AcDbEntity
  8
치수문자_일반주서
 62
     0
100
AcDbMText
 10
61.93482222076489
 20
27.73212500000005
 30
0.0
 40
3.5
 41
0.0
 71
     2
 72
     1
  1
\A1;%%c10.32 [13/32]
  7
SLDTEXTSTYLE0
 11
-4.131562848756488E-15
 21
1.0
 31
0.0
 73
     1
 44
1.0
  0
POINT
  5
DB
330
CF
100
AcDbEntity
  8
Defpoints
 62
     0
100
AcDbPoint
 10
52.38749999999997
 20
5.159375000000006
 30
0.0
  0
POINT
  5
25D
330
CF
100
AcDbEntity
  8
Defpoints
 62
     0
100
AcDbPoint
 10
52.38749999999998
 20
-5.159374999999994
 30
0.0
  0
POINT
  5
25E
330
CF
100
AcDbEntity
  8
Defpoints
 62
     0
100
AcDbPoint
 10
66.30982222076503
 20
-5.159374999999941
 30
0.0
  0
ENDBLK
  5
D1
330
CF
100
AcDbEntity
  8
0
100
AcDbBlockEnd
  0
BLOCK
  5
E4
330
E3
100
AcDbEntity
  8
0
100
AcDbBlockBegin
  2
_D_1
 70
     0
 10
0.0
 20
0.0
 30
0.0
  3
_D_1
  1
_D_1
  0
LINE
  5
E6
330
E3
100
AcDbEntity
  8
치수문자_일반주서
 62
     0
370
    -2
100
AcDbLine
 10
52.38749999999998
 20
5.221875000000006
 30
0.0
 11
52.38749999999998
 21
19.53291404099942
 31
0.0
  0
LINE
  5
E7
330
E3
100
AcDbEntity
  8
치수문자_일반주서
 62
     0
370
    -2
100
AcDbLine
 10
26.98750000000001
 20
5.172477176381149
 30
0.0
 11
26.98750000000001
 21
19.53291404099942
 31
0.0
  0
LINE
  5
E8
330
E3
100
AcDbEntity
  8
치수문자_일반주서
 62
     0
370
    -2
100
AcDbLine
 10
26.98750000000001
 20
19.53291404099942
 30
0.0
 11
0.6960000000000122
 21
19.53291404099942
 31
0.0
  0
LINE
  5
E9
330
E3
100
AcDbEntity
  8
치수문자_일반주서
 62
     0
370
    -2
100
AcDbLine
 10
52.38749999999998
 20
19.53291404099942
 30
0.0
 11
26.98750000000001
 21
19.53291404099942
 31
0.0
  0
LINE
  5
EA
330
E3
100
AcDbEntity
  8
치수문자_일반주서
 62
     0
370
    -2
100
AcDbLine
 10
55.68949999999998
 20
19.53291404099942
 30
0.0
 11
58.99149999999998
 21
19.53291404099942
 31
0.0
  0
LINE
  5
EB
330
E3
100
AcDbEntity
  8
치수문자_일반주서
 62
     0
370
    -2
100
AcDbLine
 10
23.68550000000001
 20
19.53291404099942
 30
0.0
 11
20.38350000000001
 21
19.53291404099942
 31
0.0
  0
SOLID
  5
EC
330
E3
100
AcDbEntity
  8
치수문자_일반주서
 62
     0
100
AcDbTrace
 10
55.68949999999998
 20
20.08324737433276
 30
0.0
 11
55.68949999999998
 21
18.98258070766609
 31
0.0
 12
52.38749999999998
 22
19.53291404099942
 32
0.0
 13
52.38749999999998
 23
19.53291404099942
 33
0.0
  0
SOLID
  5
ED
330
E3
100
AcDbEntity
  8
치수문자_일반주서
 62
     0
100
AcDbTrace
 10
23.68550000000001
 20
18.98258070766609
 30
0.0
 11
23.68550000000001
 21
20.08324737433276
 31
0.0
 12
26.98750000000001
 22
19.53291404099942
 32
0.0
 13
26.98750000000001
 23
19.53291404099942
 33
0.0
  0
MTEXT
  5
EE
330
E3
100
AcDbEntity
  8
치수문자_일반주서
 62
     0
100
AcDbMText
 10
10.53975000000001
 20
23.90791404099942
 30
0.0
 40
3.5
 41
0.0
 71
     2
 72
     1
  1
\A1;25.40 [1]
  7
SLDTEXTSTYLE0
 73
     1
 44
1.0
  0
POINT
  5
EF
330
E3
100
AcDbEntity
  8
Defpoints
 62
     0
100
AcDbPoint
 10
52.38749999999998
 20
5.159375000000006
 30
0.0
  0
POINT
  5
25F
330
E3
100
AcDbEntity
  8
Defpoints
 62
     0
100
AcDbPoint
 10
26.98750000000001
 20
5.109977176381149
 30
0.0
  0
POINT
  5
260
330
E3
100
AcDbEntity
  8
Defpoints
 62
     0
100
AcDbPoint
 10
26.98750000000001
 20
19.53291404099942
 30
0.0
  0
ENDBLK
  5
E5
330
E3
100
AcDbEntity
  8
0
100
AcDbBlockEnd
  0
BLOCK
  5
F8
330
F7
100
AcDbEntity
  8
0
100
AcDbBlockBegin
  2
_D_2
 70
     0
 10
0.0
 20
0.0
 30
0.0
  3
_D_2
  1
_D_2
  0
LINE
  5
FA
330
F7
100
AcDbEntity
  8
치수문자_일반주서
 62
     0
370
    -2
100
AcDbLine
 10
52.38749999999998
 20
5.221875000000006
 30
0.0
 11
52.38749999999998
 21
34.81021599484095
 31
0.0
  0
LINE
  5
FB
330
F7
100
AcDbEntity
  8
치수문자_일반주서
 62
     0
370
    -2
100
AcDbLine
 10
-52.38749999999998
 20
5.221874999999989
 30
0.0
 11
-52.38749999999998
 21
34.81021599484095
 31
0.0
  0
LINE
  5
FC
330
F7
100
AcDbEntity
  8
치수문자_일반주서
 62
     0
370
    -2
100
AcDbLine
 10
49.08549999999998
 20
34.81021599484095
 30
0.0
 11
-49.08549999999998
 21
34.81021599484095
 31
0.0
  0
SOLID
  5
FD
330
F7
100
AcDbEntity
  8
치수문자_일반주서
 62
     0
100
AcDbTrace
 10
49.08549999999998
 20
34.25988266150761
 30
0.0
 11
49.08549999999998
 21
35.36054932817428
 31
0.0
 12
52.38749999999998
 22
34.81021599484095
 32
0.0
 13
52.38749999999998
 23
34.81021599484095
 33
0.0
  0
SOLID
  5
FE
330
F7
100
AcDbEntity
  8
치수문자_일반주서
 62
     0
100
AcDbTrace
 10
-49.08549999999998
 20
35.36054932817428
 30
0.0
 11
-49.08549999999998
 21
34.25988266150761
 31
0.0
 12
-52.38749999999998
 22
34.81021599484095
 32
0.0
 13
-52.38749999999998
 23
34.81021599484095
 33
0.0
  0
MTEXT
  5
FF
330
F7
100
AcDbEntity
  8
치수문자_일반주서
 62
     0
100
AcDbMText
 10
1.598037326060073
 20
39.18521599484095
 30
0.0
 40
3.5
 41
0.0
 71
     2
 72
     1
  1
\A1;104.78 [4 1/8]
  7
SLDTEXTSTYLE0
 73
     1
 44
1.0
  0
POINT
  5
100
330
F7
100
AcDbEntity
  8
Defpoints
 62
     0
100
AcDbPoint
 10
52.38749999999998
 20
5.159375000000006
 30
0.0
  0
POINT
  5
101
330
F7
100
AcDbEntity
  8
Defpoints
 62
     0
100
AcDbPoint
 10
-52.38749999999998
 20
5.159374999999989
 30
0.0
  0
POINT
  5
102
330
F7
100
AcDbEntity
  8
Defpoints
 62
     0
100
AcDbPoint
 10
-52.38749999999998
 20
34.81021599484095
 30
0.0
  0
ENDBLK
  5
F9
330
F7
100
AcDbEntity
  8
0
100
AcDbBlockEnd
  0
BLOCK
  5
10C
330
10B
100
AcDbEntity
  8
0
100
AcDbBlockBegin
  2
_D_3
 70
     0
 10
0.0
 20
0.0
 30
0.0
  3
_D_3
  1
_D_3
  0
LINE
  5
10E
330
10B
100
AcDbEntity
  8
치수문자_일반주서
 62
     0
370
    -2
100
AcDbLine
 10
-21.60652700723826
 20
6.350000000000001
 30
0.0
 11
-64.59375000000004
 21
6.349999999999839
 31
0.0
  0
LINE
  5
10F
330
10B
100
AcDbEntity
  8
치수문자_일반주서
 62
     0
370
    -2
100
AcDbLine
 10
-21.60652700723827
 20
-6.350000000000007
 30
0.0
 11
-64.59375
 21
-6.350000000000168
 31
0.0
  0
LINE
  5
110
330
10B
100
AcDbEntity
  8
치수문자_일반주서
 62
     0
370
    -2
100
AcDbLine
 10
-64.59375000000003
 20
3.047999999999839
 30
0.0
 11
-64.59375000000001
 21
-3.048000000000169
 31
0.0
  0
SOLID
  5
111
330
10B
100
AcDbEntity
  8
치수문자_일반주서
 62
     0
100
AcDbTrace
 10
-64.0434166666667
 20
3.047999999999841
 30
0.0
 11
-65.14408333333336
 21
3.047999999999838
 31
0.0
 12
-64.59375000000004
 22
6.349999999999839
 32
0.0
 13
-64.59375000000004
 23
6.349999999999839
 33
0.0
  0
SOLID
  5
112
330
10B
100
AcDbEntity
  8
치수문자_일반주서
 62
     0
100
AcDbTrace
 10
-65.14408333333334
 20
-3.048000000000171
 30
0.0
 11
-64.04341666666669
 21
-3.048000000000167
 31
0.0
 12
-64.59375
 22
-6.350000000000168
 32
0.0
 13
-64.59375
 23
-6.350000000000168
 33
0.0
  0
MTEXT
  5
113
330
10B
100
AcDbEntity
  8
치수문자_일반주서
 62
     0
100
AcDbMText
 10
-68.96875000000003
 20
-0.0000000000000232
 30
0.0
 40
3.5
 41
0.0
 71
     2
 72
     1
  1
\A1;%%c12.70 [1/2]
  7
SLDTEXTSTYLE0
 11
-3.356894814614645E-15
 21
1.0
 31
0.0
 73
     1
 44
1.0
  0
POINT
  5
114
330
10B
100
AcDbEntity
  8
Defpoints
 62
     0
100
AcDbPoint
 10
-21.54402700723826
 20
6.350000000000001
 30
0.0
  0
POINT
  5
115
330
10B
100
AcDbEntity
  8
Defpoints
 62
     0
100
AcDbPoint
 10
-21.54402700723827
 20
-6.350000000000007
 30
0.0
  0
POINT
  5
116
330
10B
100
AcDbEntity
  8
Defpoints
 62
     0
100
AcDbPoint
 10
-64.59375
 20
-6.350000000000168
 30
0.0
  0
ENDBLK
  5
10D
330
10B
100
AcDbEntity
  8
0
100
AcDbBlockEnd
  0
BLOCK
  5
126
330
125
100
AcDbEntity
  8
0
100
AcDbBlockBegin
  2
SW_DOWELSYMBOL_0
 70
     0
 10
0.0
 20
0.0
 30
0.0
  3
SW_DOWELSYMBOL_0
  1
SW_DOWELSYMBOL_0
  0
CIRCLE
  5
128
330
125
100
AcDbEntity
  8
해칭선
 62
     0
100
AcDbCircle
 10
0.0
 20
0.0
 30
0.0
 40
3.000000000000008
  0
HATCH
  5
129
330
125
100
AcDbEntity
  8
0
  6
Continuous
 62
     0
370
     0
100
AcDbHatch
 10
0.0
 20
0.0
 30
0.0
210
0.0
220
0.0
230
1.0
  2
SOLID
 70
     1
 71
     0
 91
        1
 92
        0
 93
        3
 72
     2
 10
0.0
 20
0.0
 40
3.000000000000008
 50
0.0
 51
90.0
 73
     1
 72
     1
 10
0.0
 20
3.000000000000008
 11
0.0
 21
0.0
 72
     1
 10
0.0
 20
0.0
 11
3.00000000000001
 21
0.0
 97
        0
 75
     0
 76
     1
 98
        1
 10
0.0
 20
0.0
  0
HATCH
  5
12A
330
125
100
AcDbEntity
  8
0
  6
Continuous
 62
     0
370
     0
100
AcDbHatch
 10
0.0
 20
0.0
 30
0.0
210
0.0
220
0.0
230
1.0
  2
SOLID
 70
     1
 71
     0
 91
        1
 92
        0
 93
        3
 72
     2
 10
0.0
 20
0.0
 40
3.000000000000008
 50
180.0
 51
270.0000000000007
 73
     1
 72
     1
 10
0.0
 20
-3.000000000000008
 11
0.0
 21
0.0
 72
     1
 10
0.0
 20
0.0
 11
-3.00000000000001
 21
0.0
 97
        0
 75
     0
 76
     1
 98
        1
 10
0.0
 20
0.0
  0
ENDBLK
  5
127
330
125
100
AcDbEntity
  8
0
100
AcDbBlockEnd
  0
BLOCK
  5
1DC
330
1DB
100
AcDbEntity
  8
0
100
AcDbBlockBegin
  2
*D7
 70
     1
 10
0.0
 20
0.0
 30
0.0
  3
*D7
  1
*D8
  0
LINE
  5
1DE
330
1DB
100
AcDbEntity
  8
치수문자_일반주서
 62
     0
370
    -2
100
AcDbLine
 10
91.96250000000005
 20
15.33524999999994
 30
0.0
 11
107.5803376500625
 21
15.33524999999999
 31
0.0
  0
LINE
  5
1DF
330
1DB
100
AcDbEntity
  8
치수문자_일반주서
 62
     0
370
    -2
100
AcDbLine
 10
91.96250000000003
 20
6.60399999999994
 30
0.0
 11
107.5803376500626
 21
6.603999999999996
 31
0.0
  0
LINE
  5
1E0
330
1DB
100
AcDbEntity
  8
치수문자_일반주서
 62
     0
370
    -2
100
AcDbLine
 10
107.5803376500625
 20
15.33524999999999
 30
0.0
 11
107.5803376500624
 21
51.68925000000002
 31
0.0
  0
LINE
  5
1E1
330
1DB
100
AcDbEntity
  8
치수문자_일반주서
 62
     0
370
    -2
100
AcDbLine
 10
107.5803376500625
 20
15.33524999999999
 30
0.0
 11
107.5803376500626
 21
6.603999999999996
 31
0.0
  0
LINE
  5
1E2
330
1DB
100
AcDbEntity
  8
치수문자_일반주서
 62
     0
370
    -2
100
AcDbLine
 10
107.5803376500625
 20
18.63724999999999
 30
0.0
 11
107.5803376500625
 21
21.93924999999999
 31
0.0
  0
LINE
  5
1E3
330
1DB
100
AcDbEntity
  8
치수문자_일반주서
 62
     0
370
    -2
100
AcDbLine
 10
107.5803376500626
 20
3.301999999999996
 30
0.0
 11
107.5803376500626
 21
-0.0000000000000036
 31
0.0
  0
SOLID
  5
1E4
330
1DB
100
AcDbEntity
  8
치수문자_일반주서
 62
     0
100
AcDbTrace
 10
107.0300043167292
 20
18.63724999999999
 30
0.0
 11
108.1306709833959
 21
18.63725
 31
0.0
 12
107.5803376500625
 22
15.33524999999999
 32
0.0
 13
107.5803376500625
 23
15.33524999999999
 33
0.0
  0
SOLID
  5
1E5
330
1DB
100
AcDbEntity
  8
치수문자_일반주서
 62
     0
100
AcDbTrace
 10
108.1306709833959
 20
3.301999999999998
 30
0.0
 11
107.0300043167293
 21
3.301999999999994
 31
0.0
 12
107.5803376500626
 22
6.603999999999996
 32
0.0
 13
107.5803376500626
 23
6.603999999999996
 33
0.0
  0
MTEXT
  5
1E6
330
1DB
100
AcDbEntity
  8
치수문자_일반주서
 62
     0
100
AcDbMText
 10
103.2053376500625
 20
36.81425
 30
0.0
 40
3.5
 41
0.0
 71
     2
 72
     1
  1
\A1;%%c8.73 [11/32]
  7
SLDTEXTSTYLE0
 11
-3.255170729323294E-15
 21
1.0
 31
0.0
 73
     1
 44
1.0
  0
POINT
  5
1E7
330
1DB
100
AcDbEntity
  8
Defpoints
 62
     0
100
AcDbPoint
 10
91.90000000000005
 20
15.33524999999994
 30
0.0
  0
POINT
  5
1E8
330
1DB
100
AcDbEntity
  8
Defpoints
 62
     0
100
AcDbPoint
 10
91.90000000000003
 20
6.60399999999994
 30
0.0
  0
POINT
  5
1E9
330
1DB
100
AcDbEntity
  8
Defpoints
 62
     0
100
AcDbPoint
 10
107.5803376500626
 20
6.603999999999998
 30
0.0
  0
ENDBLK
  5
1DD
330
1DB
100
AcDbEntity
  8
0
100
AcDbBlockEnd
  0
BLOCK
  5
1EB
330
1EA
100
AcDbEntity
  8
0
100
AcDbBlockBegin
  2
*D8
 70
     1
 10
0.0
 20
0.0
 30
0.0
  3
*D8
  1
*D9
  0
LINE
  5
1ED
330
1EA
100
AcDbEntity
  8
치수문자_일반주서
 62
     0
370
    -2
100
AcDbLine
 10
91.90000000000002
 20
15.39774999999994
 30
0.0
 11
91.90000000000002
 21
26.62581333894382
 31
0.0
  0
LINE
  5
1EE
330
1EA
100
AcDbEntity
  8
치수문자_일반주서
 62
     0
370
    -2
100
AcDbLine
 10
72.85
 20
15.32374451315989
 30
0.0
 11
72.85
 21
26.62581333894382
 31
0.0
  0
LINE
  5
1EF
330
1EA
100
AcDbEntity
  8
치수문자_일반주서
 62
     0
370
    -2
100
AcDbLine
 10
72.85
 20
26.62581333894382
 30
0.0
 11
41.3085
 21
26.62581333894382
 31
0.0
  0
LINE
  5
1F0
330
1EA
100
AcDbEntity
  8
치수문자_일반주서
 62
     0
370
    -2
100
AcDbLine
 10
91.90000000000002
 20
26.62581333894382
 30
0.0
 11
72.85
 21
26.62581333894382
 31
0.0
  0
LINE
  5
1F1
330
1EA
100
AcDbEntity
  8
치수문자_일반주서
 62
     0
370
    -2
100
AcDbLine
 10
95.20200000000003
 20
26.62581333894382
 30
0.0
 11
98.50400000000002
 21
26.62581333894382
 31
0.0
  0
LINE
  5
1F2
330
1EA
100
AcDbEntity
  8
치수문자_일반주서
 62
     0
370
    -2
100
AcDbLine
 10
69.548
 20
26.62581333894382
 30
0.0
 11
66.24600000000001
 21
26.62581333894382
 31
0.0
  0
SOLID
  5
1F3
330
1EA
100
AcDbEntity
  8
치수문자_일반주서
 62
     0
100
AcDbTrace
 10
95.20200000000003
 20
27.17614667227715
 30
0.0
 11
95.20200000000003
 21
26.07548000561048
 31
0.0
 12
91.90000000000002
 22
26.62581333894382
 32
0.0
 13
91.90000000000002
 23
26.62581333894382
 33
0.0
  0
SOLID
  5
1F4
330
1EA
100
AcDbEntity
  8
치수문자_일반주서
 62
     0
100
AcDbTrace
 10
69.548
 20
26.07548000561048
 30
0.0
 11
69.548
 21
27.17614667227715
 31
0.0
 12
72.85
 22
26.62581333894382
 32
0.0
 13
72.85
 23
26.62581333894382
 33
0.0
  0
MTEXT
  5
1F5
330
1EA
100
AcDbEntity
  8
치수문자_일반주서
 62
     0
100
AcDbMText
 10
53.77725
 20
31.00081333894382
 30
0.0
 40
3.5
 41
0.0
 71
     2
 72
     1
  1
\A1;19.05 [3/4]
  7
SLDTEXTSTYLE0
 73
     1
 44
1.0
  0
POINT
  5
1F6
330
1EA
100
AcDbEntity
  8
Defpoints
 62
     0
100
AcDbPoint
 10
91.90000000000002
 20
15.33524999999994
 30
0.0
  0
POINT
  5
1F7
330
1EA
100
AcDbEntity
  8
Defpoints
 62
     0
100
AcDbPoint
 10
72.85
 20
15.26124451315989
 30
0.0
  0
POINT
  5
1F8
330
1EA
100
AcDbEntity
  8
Defpoints
 62
     0
100
AcDbPoint
 10
72.85
 20
26.62581333894382
 30
0.0
  0
ENDBLK
  5
1EC
330
1EA
100
AcDbEntity
  8
0
100
AcDbBlockEnd
  0
BLOCK
  5
1FA
330
1F9
100
AcDbEntity
  8
0
100
AcDbBlockBegin
  2
*D9
 70
     1
 10
0.0
 20
0.0
 30
0.0
  3
*D9
  1
*D10
  0
LINE
  5
1FC
330
1F9
100
AcDbEntity
  8
치수문자_일반주서
 62
     0
370
    -2
100
AcDbLine
 10
91.90000000000002
 20
15.39774999999994
 30
0.0
 11
91.9
 21
38.64007254839282
 31
0.0
  0
LINE
  5
1FD
330
1F9
100
AcDbEntity
  8
치수문자_일반주서
 62
     0
370
    -2
100
AcDbLine
 10
3.000000000000007
 20
14.84212499999993
 30
0.0
 11
2.999999999999993
 21
38.64007254839282
 31
0.0
  0
LINE
  5
1FE
330
1F9
100
AcDbEntity
  8
치수문자_일반주서
 62
     0
370
    -2
100
AcDbLine
 10
88.59800000000001
 20
38.64007254839282
 30
0.0
 11
6.301999999999992
 21
38.64007254839282
 31
0.0
  0
SOLID
  5
1FF
330
1F9
100
AcDbEntity
  8
치수문자_일반주서
 62
     0
100
AcDbTrace
 10
88.59800000000001
 20
38.08973921505949
 30
0.0
 11
88.59800000000001
 21
39.19040588172616
 31
0.0
 12
91.9
 22
38.64007254839282
 32
0.0
 13
91.9
 23
38.64007254839282
 33
0.0
  0
SOLID
  5
200
330
1F9
100
AcDbEntity
  8
치수문자_일반주서
 62
     0
100
AcDbTrace
 10
6.301999999999992
 20
39.19040588172616
 30
0.0
 11
6.301999999999992
 21
38.08973921505949
 31
0.0
 12
2.999999999999993
 22
38.64007254839282
 32
0.0
 13
2.999999999999993
 23
38.64007254839282
 33
0.0
  0
MTEXT
  5
201
330
1F9
100
AcDbEntity
  8
치수문자_일반주서
 62
     0
100
AcDbMText
 10
48.23407602815286
 20
43.01507254839282
 30
0.0
 40
3.5
 41
0.0
 71
     2
 72
     1
  1
\A1;88.90 [3 1/2]
  7
SLDTEXTSTYLE0
 73
     1
 44
1.0
  0
POINT
  5
202
330
1F9
100
AcDbEntity
  8
Defpoints
 62
     0
100
AcDbPoint
 10
91.90000000000002
 20
15.33524999999994
 30
0.0
  0
POINT
  5
203
330
1F9
100
AcDbEntity
  8
Defpoints
 62
     0
100
AcDbPoint
 10
3.000000000000007
 20
14.77962499999993
 30
0.0
  0
POINT
  5
204
330
1F9
100
AcDbEntity
  8
Defpoints
 62
     0
100
AcDbPoint
 10
3.000000000000007
 20
38.64007254839282
 30
0.0
  0
ENDBLK
  5
1FB
330
1F9
100
AcDbEntity
  8
0
100
AcDbBlockEnd
  0
BLOCK
  5
234
330
233
100
AcDbEntity
  8
0
100
AcDbBlockBegin
  2
*D10
 70
     1
 10
0.0
 20
0.0
 30
0.0
  3
*D10
  1
*D11
  0
LINE
  5
236
330
233
100
AcDbEntity
  8
치수문자_일반주서
 62
     0
370
    -2
100
AcDbLine
 10
189.824752905008
 20
-40.21440721155883
 30
0.0
 11
205.4425905550705
 21
-40.21440721155877
 31
0.0
  0
LINE
  5
237
330
233
100
AcDbEntity
  8
치수문자_일반주서
 62
     0
370
    -2
100
AcDbLine
 10
189.824752905008
 20
-48.94565721155882
 30
0.0
 11
205.4425905550705
 21
-48.94565721155877
 31
0.0
  0
LINE
  5
238
330
233
100
AcDbEntity
  8
치수문자_일반주서
 62
     0
370
    -2
100
AcDbLine
 10
205.4425905550705
 20
-40.21440721155877
 30
0.0
 11
205.4425905550704
 21
-3.860407211558751
 31
0.0
  0
LINE
  5
239
330
233
100
AcDbEntity
  8
치수문자_일반주서
 62
     0
370
    -2
100
AcDbLine
 10
205.4425905550705
 20
-40.21440721155877
 30
0.0
 11
205.4425905550705
 21
-48.94565721155877
 31
0.0
  0
LINE
  5
23A
330
233
100
AcDbEntity
  8
치수문자_일반주서
 62
     0
370
    -2
100
AcDbLine
 10
205.4425905550705
 20
-36.91240721155877
 30
0.0
 11
205.4425905550705
 21
-33.61040721155877
 31
0.0
  0
LINE
  5
23B
330
233
100
AcDbEntity
  8
치수문자_일반주서
 62
     0
370
    -2
100
AcDbLine
 10
205.4425905550705
 20
-52.24765721155877
 30
0.0
 11
205.4425905550705
 21
-55.54965721155877
 31
0.0
  0
SOLID
  5
23C
330
233
100
AcDbEntity
  8
치수문자_일반주서
 62
     0
100
AcDbTrace
 10
204.8922572217371
 20
-36.91240721155877
 30
0.0
 11
205.9929238884038
 21
-36.91240721155877
 31
0.0
 12
205.4425905550705
 22
-40.21440721155877
 32
0.0
 13
205.4425905550705
 23
-40.21440721155877
 33
0.0
  0
SOLID
  5
23D
330
233
100
AcDbEntity
  8
치수문자_일반주서
 62
     0
100
AcDbTrace
 10
205.9929238884038
 20
-52.24765721155877
 30
0.0
 11
204.8922572217372
 21
-52.24765721155877
 31
0.0
 12
205.4425905550705
 22
-48.94565721155877
 32
0.0
 13
205.4425905550705
 23
-48.94565721155877
 33
0.0
  0
MTEXT
  5
23E
330
233
100
AcDbEntity
  8
치수문자_일반주서
 62
     0
100
AcDbMText
 10
201.0675905550704
 20
-18.73540721155877
 30
0.0
 40
3.5
 41
0.0
 71
     2
 72
     1
  1
\A1;%%c8.73 [11/32]
  7
SLDTEXTSTYLE0
 11
-3.255170729323295E-15
 21
1.0
 31
0.0
 73
     1
 44
1.0
  0
POINT
  5
23F
330
233
100
AcDbEntity
  8
Defpoints
 62
     0
100
AcDbPoint
 10
189.762252905008
 20
-40.21440721155883
 30
0.0
  0
POINT
  5
240
330
233
100
AcDbEntity
  8
Defpoints
 62
     0
100
AcDbPoint
 10
189.762252905008
 20
-48.94565721155882
 30
0.0
  0
POINT
  5
241
330
233
100
AcDbEntity
  8
Defpoints
 62
     0
100
AcDbPoint
 10
205.4425905550705
 20
-48.94565721155877
 30
0.0
  0
ENDBLK
  5
235
330
233
100
AcDbEntity
  8
0
100
AcDbBlockEnd
  0
BLOCK
  5
243
330
242
100
AcDbEntity
  8
0
100
AcDbBlockBegin
  2
*D11
 70
     1
 10
0.0
 20
0.0
 30
0.0
  3
*D11
  1
*D12
  0
LINE
  5
245
330
242
100
AcDbEntity
  8
치수문자_일반주서
 62
     0
370
    -2
100
AcDbLine
 10
189.7622529050079
 20
-40.15190721155883
 30
0.0
 11
189.7622529050079
 21
-28.92384387261495
 31
0.0
  0
LINE
  5
246
330
242
100
AcDbEntity
  8
치수문자_일반주서
 62
     0
370
    -2
100
AcDbLine
 10
170.7122529050079
 20
-40.22591269839888
 30
0.0
 11
170.7122529050079
 21
-28.92384387261495
 31
0.0
  0
LINE
  5
247
330
242
100
AcDbEntity
  8
치수문자_일반주서
 62
     0
370
    -2
100
AcDbLine
 10
170.7122529050079
 20
-28.92384387261495
 30
0.0
 11
139.1707529050079
 21
-28.92384387261495
 31
0.0
  0
LINE
  5
248
330
242
100
AcDbEntity
  8
치수문자_일반주서
 62
     0
370
    -2
100
AcDbLine
 10
189.7622529050079
 20
-28.92384387261495
 30
0.0
 11
170.7122529050079
 21
-28.92384387261495
 31
0.0
  0
LINE
  5
249
330
242
100
AcDbEntity
  8
치수문자_일반주서
 62
     0
370
    -2
100
AcDbLine
 10
193.0642529050079
 20
-28.92384387261495
 30
0.0
 11
196.3662529050079
 21
-28.92384387261495
 31
0.0
  0
LINE
  5
24A
330
242
100
AcDbEntity
  8
치수문자_일반주서
 62
     0
370
    -2
100
AcDbLine
 10
167.4102529050079
 20
-28.92384387261495
 30
0.0
 11
164.1082529050079
 21
-28.92384387261495
 31
0.0
  0
SOLID
  5
24B
330
242
100
AcDbEntity
  8
치수문자_일반주서
 62
     0
100
AcDbTrace
 10
193.0642529050079
 20
-28.37351053928161
 30
0.0
 11
193.0642529050079
 21
-29.47417720594828
 31
0.0
 12
189.7622529050079
 22
-28.92384387261495
 32
0.0
 13
189.7622529050079
 23
-28.92384387261495
 33
0.0
  0
SOLID
  5
24C
330
242
100
AcDbEntity
  8
치수문자_일반주서
 62
     0
100
AcDbTrace
 10
167.4102529050079
 20
-29.47417720594828
 30
0.0
 11
167.4102529050079
 21
-28.37351053928161
 31
0.0
 12
170.7122529050079
 22
-28.92384387261495
 32
0.0
 13
170.7122529050079
 23
-28.92384387261495
 33
0.0
  0
MTEXT
  5
24D
330
242
100
AcDbEntity
  8
치수문자_일반주서
 62
     0
100
AcDbMText
 10
151.6395029050079
 20
-24.54884387261495
 30
0.0
 40
3.5
 41
0.0
 71
     2
 72
     1
  1
\A1;19.05 [3/4]
  7
SLDTEXTSTYLE0
 73
     1
 44
1.0
  0
POINT
  5
24E
330
242
100
AcDbEntity
  8
Defpoints
 62
     0
100
AcDbPoint
 10
189.7622529050079
 20
-40.21440721155883
 30
0.0
  0
POINT
  5
24F
330
242
100
AcDbEntity
  8
Defpoints
 62
     0
100
AcDbPoint
 10
170.7122529050079
 20
-40.28841269839888
 30
0.0
  0
POINT
  5
250
330
242
100
AcDbEntity
  8
Defpoints
 62
     0
100
AcDbPoint
 10
170.7122529050079
 20
-28.92384387261495
 30
0.0
  0
ENDBLK
  5
244
330
242
100
AcDbEntity
  8
0
100
AcDbBlockEnd
  0
BLOCK
  5
252
330
251
100
AcDbEntity
  8
0
100
AcDbBlockBegin
  2
*D12
 70
     1
 10
0.0
 20
0.0
 30
0.0
  3
*D12
  1
*D13
  0
LINE
  5
254
330
251
100
AcDbEntity
  8
치수문자_일반주서
 62
     0
370
    -2
100
AcDbLine
 10
189.7622529050079
 20
-40.15190721155883
 30
0.0
 11
189.7622529050079
 21
-16.90958466316594
 31
0.0
  0
LINE
  5
255
330
251
100
AcDbEntity
  8
치수문자_일반주서
 62
     0
370
    -2
100
AcDbLine
 10
100.8622529050079
 20
-40.70753221155883
 30
0.0
 11
100.8622529050079
 21
-16.90958466316594
 31
0.0
  0
LINE
  5
256
330
251
100
AcDbEntity
  8
치수문자_일반주서
 62
     0
370
    -2
100
AcDbLine
 10
186.4602529050079
 20
-16.90958466316594
 30
0.0
 11
104.1642529050079
 21
-16.90958466316594
 31
0.0
  0
SOLID
  5
257
330
251
100
AcDbEntity
  8
치수문자_일반주서
 62
     0
100
AcDbTrace
 10
186.4602529050079
 20
-17.45991799649928
 30
0.0
 11
186.4602529050079
 21
-16.35925132983261
 31
0.0
 12
189.7622529050079
 22
-16.90958466316594
 32
0.0
 13
189.7622529050079
 23
-16.90958466316594
 33
0.0
  0
SOLID
  5
258
330
251
100
AcDbEntity
  8
치수문자_일반주서
 62
     0
100
AcDbTrace
 10
104.1642529050079
 20
-16.35925132983261
 30
0.0
 11
104.1642529050079
 21
-17.45991799649928
 31
0.0
 12
100.8622529050079
 22
-16.90958466316594
 32
0.0
 13
100.8622529050079
 23
-16.90958466316594
 33
0.0
  0
MTEXT
  5
259
330
251
100
AcDbEntity
  8
치수문자_일반주서
 62
     0
100
AcDbMText
 10
146.0963289331608
 20
-12.53458466316594
 30
0.0
 40
3.5
 41
0.0
 71
     2
 72
     1
  1
\A1;88.90 [3 1/2]
  7
SLDTEXTSTYLE0
 73
     1
 44
1.0
  0
POINT
  5
25A
330
251
100
AcDbEntity
  8
Defpoints
 62
     0
100
AcDbPoint
 10
189.7622529050079
 20
-40.21440721155883
 30
0.0
  0
POINT
  5
25B
330
251
100
AcDbEntity
  8
Defpoints
 62
     0
100
AcDbPoint
 10
100.8622529050079
 20
-40.77003221155883
 30
0.0
  0
POINT
  5
25C
330
251
100
AcDbEntity
  8
Defpoints
 62
     0
100
AcDbPoint
 10
100.8622529050079
 20
-16.90958466316594
 30
0.0
  0
ENDBLK
  5
253
330
251
100
AcDbEntity
  8
0
100
AcDbBlockEnd
  0
BLOCK
  5
2EA
330
2E9
100
AcDbEntity
  8
0
100
AcDbBlockBegin
  2
*D13
 70
     1
 10
0.0
 20
0.0
 30
0.0
  3
*D13
  1
*D15
  0
LINE
  5
2EC
330
2E9
100
AcDbEntity
  8
치수문자_일반주서
 62
     0
370
    -2
100
AcDbLine
 10
91.96250000000005
 20
15.33524999999994
 30
0.0
 11
107.5803376500625
 21
15.33524999999999
 31
0.0
  0
LINE
  5
2ED
330
2E9
100
AcDbEntity
  8
치수문자_일반주서
 62
     0
370
    -2
100
AcDbLine
 10
91.96250000000003
 20
6.60399999999994
 30
0.0
 11
107.5803376500626
 21
6.603999999999996
 31
0.0
  0
LINE
  5
2EE
330
2E9
100
AcDbEntity
  8
치수문자_일반주서
 62
     0
370
    -2
100
AcDbLine
 10
107.5803376500625
 20
15.33524999999999
 30
0.0
 11
107.5803376500624
 21
51.68925000000002
 31
0.0
  0
LINE
  5
2EF
330
2E9
100
AcDbEntity
  8
치수문자_일반주서
 62
     0
370
    -2
100
AcDbLine
 10
107.5803376500625
 20
15.33524999999999
 30
0.0
 11
107.5803376500626
 21
6.603999999999996
 31
0.0
  0
LINE
  5
2F0
330
2E9
100
AcDbEntity
  8
치수문자_일반주서
 62
     0
370
    -2
100
AcDbLine
 10
107.5803376500625
 20
18.63724999999999
 30
0.0
 11
107.5803376500625
 21
21.93924999999999
 31
0.0
  0
LINE
  5
2F1
330
2E9
100
AcDbEntity
  8
치수문자_일반주서
 62
     0
370
    -2
100
AcDbLine
 10
107.5803376500626
 20
3.301999999999996
 30
0.0
 11
107.5803376500626
 21
-0.0000000000000036
 31
0.0
  0
SOLID
  5
2F2
330
2E9
100
AcDbEntity
  8
치수문자_일반주서
 62
     0
100
AcDbTrace
 10
107.0300043167292
 20
18.63724999999999
 30
0.0
 11
108.1306709833959
 21
18.63725
 31
0.0
 12
107.5803376500625
 22
15.33524999999999
 32
0.0
 13
107.5803376500625
 23
15.33524999999999
 33
0.0
  0
SOLID
  5
2F3
330
2E9
100
AcDbEntity
  8
치수문자_일반주서
 62
     0
100
AcDbTrace
 10
108.1306709833959
 20
3.301999999999998
 30
0.0
 11
107.0300043167293
 21
3.301999999999994
 31
0.0
 12
107.5803376500626
 22
6.603999999999996
 32
0.0
 13
107.5803376500626
 23
6.603999999999996
 33
0.0
  0
MTEXT
  5
2F4
330
2E9
100
AcDbEntity
  8
치수문자_일반주서
 62
     0
100
AcDbMText
 10
103.2053376500625
 20
36.81425
 30
0.0
 40
3.5
 41
0.0
 71
     2
 72
     1
  1
\A1;%%c8.73 [11/32]
  7
SLDTEXTSTYLE0
 11
-3.255170729323294E-15
 21
1.0
 31
0.0
 73
     1
 44
1.0
  0
POINT
  5
2F5
330
2E9
100
AcDbEntity
  8
Defpoints
 62
     0
100
AcDbPoint
 10
91.90000000000005
 20
15.33524999999994
 30
0.0
  0
POINT
  5
2F6
330
2E9
100
AcDbEntity
  8
Defpoints
 62
     0
100
AcDbPoint
 10
91.90000000000003
 20
6.60399999999994
 30
0.0
  0
POINT
  5
2F7
330
2E9
100
AcDbEntity
  8
Defpoints
 62
     0
100
AcDbPoint
 10
107.5803376500626
 20
6.603999999999998
 30
0.0
  0
ENDBLK
  5
2EB
330
2E9
100
AcDbEntity
  8
0
100
AcDbBlockEnd
  0
BLOCK
  5
2F9
330
2F8
100
AcDbEntity
  8
0
100
AcDbBlockBegin
  2
*D14
 70
     1
 10
0.0
 20
0.0
 30
0.0
  3
*D14
  1
*D16
  0
LINE
  5
2FB
330
2F8
100
AcDbEntity
  8
치수문자_일반주서
 62
     0
370
    -2
100
AcDbLine
 10
91.90000000000002
 20
15.39774999999994
 30
0.0
 11
91.90000000000002
 21
26.62581333894382
 31
0.0
  0
LINE
  5
2FC
330
2F8
100
AcDbEntity
  8
치수문자_일반주서
 62
     0
370
    -2
100
AcDbLine
 10
72.85
 20
15.32374451315989
 30
0.0
 11
72.85
 21
26.62581333894382
 31
0.0
  0
LINE
  5
2FD
330
2F8
100
AcDbEntity
  8
치수문자_일반주서
 62
     0
370
    -2
100
AcDbLine
 10
72.85
 20
26.62581333894382
 30
0.0
 11
41.3085
 21
26.62581333894382
 31
0.0
  0
LINE
  5
2FE
330
2F8
100
AcDbEntity
  8
치수문자_일반주서
 62
     0
370
    -2
100
AcDbLine
 10
91.90000000000002
 20
26.62581333894382
 30
0.0
 11
72.85
 21
26.62581333894382
 31
0.0
  0
LINE
  5
2FF
330
2F8
100
AcDbEntity
  8
치수문자_일반주서
 62
     0
370
    -2
100
AcDbLine
 10
95.20200000000003
 20
26.62581333894382
 30
0.0
 11
98.50400000000002
 21
26.62581333894382
 31
0.0
  0
LINE
  5
300
330
2F8
100
AcDbEntity
  8
치수문자_일반주서
 62
     0
370
    -2
100
AcDbLine
 10
69.548
 20
26.62581333894382
 30
0.0
 11
66.24600000000001
 21
26.62581333894382
 31
0.0
  0
SOLID
  5
301
330
2F8
100
AcDbEntity
  8
치수문자_일반주서
 62
     0
100
AcDbTrace
 10
95.20200000000003
 20
27.17614667227715
 30
0.0
 11
95.20200000000003
 21
26.07548000561048
 31
0.0
 12
91.90000000000002
 22
26.62581333894382
 32
0.0
 13
91.90000000000002
 23
26.62581333894382
 33
0.0
  0
SOLID
  5
302
330
2F8
100
AcDbEntity
  8
치수문자_일반주서
 62
     0
100
AcDbTrace
 10
69.548
 20
26.07548000561048
 30
0.0
 11
69.548
 21
27.17614667227715
 31
0.0
 12
72.85
 22
26.62581333894382
 32
0.0
 13
72.85
 23
26.62581333894382
 33
0.0
  0
MTEXT
  5
303
330
2F8
100
AcDbEntity
  8
치수문자_일반주서
 62
     0
100
AcDbMText
 10
53.77725
 20
31.00081333894382
 30
0.0
 40
3.5
 41
0.0
 71
     2
 72
     1
  1
\A1;19.05 [3/4]
  7
SLDTEXTSTYLE0
 73
     1
 44
1.0
  0
POINT
  5
304
330
2F8
100
AcDbEntity
  8
Defpoints
 62
     0
100
AcDbPoint
 10
91.90000000000002
 20
15.33524999999994
 30
0.0
  0
POINT
  5
305
330
2F8
100
AcDbEntity
  8
Defpoints
 62
     0
100
AcDbPoint
 10
72.85
 20
15.26124451315989
 30
0.0
  0
POINT
  5
306
330
2F8
100
AcDbEntity
  8
Defpoints
 62
     0
100
AcDbPoint
 10
72.85
 20
26.62581333894382
 30
0.0
  0
ENDBLK
  5
2FA
330
2F8
100
AcDbEntity
  8
0
100
AcDbBlockEnd
  0
BLOCK
  5
308
330
307
100
AcDbEntity
  8
0
100
AcDbBlockBegin
  2
*D15
 70
     1
 10
0.0
 20
0.0
 30
0.0
  3
*D15
  1
*D17
  0
LINE
  5
30A
330
307
100
AcDbEntity
  8
치수문자_일반주서
 62
     0
370
    -2
100
AcDbLine
 10
91.90000000000002
 20
15.39774999999994
 30
0.0
 11
91.9
 21
38.64007254839282
 31
0.0
  0
LINE
  5
30B
330
307
100
AcDbEntity
  8
치수문자_일반주서
 62
     0
370
    -2
100
AcDbLine
 10
3.000000000000007
 20
14.84212499999993
 30
0.0
 11
2.999999999999993
 21
38.64007254839282
 31
0.0
  0
LINE
  5
30C
330
307
100
AcDbEntity
  8
치수문자_일반주서
 62
     0
370
    -2
100
AcDbLine
 10
88.59800000000001
 20
38.64007254839282
 30
0.0
 11
6.301999999999992
 21
38.64007254839282
 31
0.0
  0
SOLID
  5
30D
330
307
100
AcDbEntity
  8
치수문자_일반주서
 62
     0
100
AcDbTrace
 10
88.59800000000001
 20
38.08973921505949
 30
0.0
 11
88.59800000000001
 21
39.19040588172616
 31
0.0
 12
91.9
 22
38.64007254839282
 32
0.0
 13
91.9
 23
38.64007254839282
 33
0.0
  0
SOLID
  5
30E
330
307
100
AcDbEntity
  8
치수문자_일반주서
 62
     0
100
AcDbTrace
 10
6.301999999999992
 20
39.19040588172616
 30
0.0
 11
6.301999999999992
 21
38.08973921505949
 31
0.0
 12
2.999999999999993
 22
38.64007254839282
 32
0.0
 13
2.999999999999993
 23
38.64007254839282
 33
0.0
  0
MTEXT
  5
30F
330
307
100
AcDbEntity
  8
치수문자_일반주서
 62
     0
100
AcDbMText
 10
48.23407602815286
 20
43.01507254839282
 30
0.0
 40
3.5
 41
0.0
 71
     2
 72
     1
  1
\A1;88.90 [3 1/2]
  7
SLDTEXTSTYLE0
 73
     1
 44
1.0
  0
POINT
  5
310
330
307
100
AcDbEntity
  8
Defpoints
 62
     0
100
AcDbPoint
 10
91.90000000000002
 20
15.33524999999994
 30
0.0
  0
POINT
  5
311
330
307
100
AcDbEntity
  8
Defpoints
 62
     0
100
AcDbPoint
 10
3.000000000000007
 20
14.77962499999993
 30
0.0
  0
POINT
  5
312
330
307
100
AcDbEntity
  8
Defpoints
 62
     0
100
AcDbPoint
 10
3.000000000000007
 20
38.64007254839282
 30
0.0
  0
ENDBLK
  5
309
330
307
100
AcDbEntity
  8
0
100
AcDbBlockEnd
  0
BLOCK
  5
39C
330
39B
100
AcDbEntity
  8
0
100
AcDbBlockBegin
  2
*D16
 70
     1
 10
0.0
 20
0.0
 30
0.0
  3
*D16
  1
*D19
  0
LINE
  5
39E
330
39B
100
AcDbEntity
  8
치수문자_일반주서
 62
     0
370
    -2
100
AcDbLine
 10
91.96250000000005
 20
15.33524999999994
 30
0.0
 11
107.5803376500625
 21
15.33524999999999
 31
0.0
  0
LINE
  5
39F
330
39B
100
AcDbEntity
  8
치수문자_일반주서
 62
     0
370
    -2
100
AcDbLine
 10
91.96250000000003
 20
6.60399999999994
 30
0.0
 11
107.5803376500626
 21
6.603999999999996
 31
0.0
  0
LINE
  5
3A0
330
39B
100
AcDbEntity
  8
치수문자_일반주서
 62
     0
370
    -2
100
AcDbLine
 10
107.5803376500625
 20
15.33524999999999
 30
0.0
 11
107.5803376500624
 21
51.68925000000002
 31
0.0
  0
LINE
  5
3A1
330
39B
100
AcDbEntity
  8
치수문자_일반주서
 62
     0
370
    -2
100
AcDbLine
 10
107.5803376500625
 20
15.33524999999999
 30
0.0
 11
107.5803376500626
 21
6.603999999999996
 31
0.0
  0
LINE
  5
3A2
330
39B
100
AcDbEntity
  8
치수문자_일반주서
 62
     0
370
    -2
100
AcDbLine
 10
107.5803376500625
 20
18.63724999999999
 30
0.0
 11
107.5803376500625
 21
21.93924999999999
 31
0.0
  0
LINE
  5
3A3
330
39B
100
AcDbEntity
  8
치수문자_일반주서
 62
     0
370
    -2
100
AcDbLine
 10
107.5803376500626
 20
3.301999999999996
 30
0.0
 11
107.5803376500626
 21
-0.0000000000000036
 31
0.0
  0
SOLID
  5
3A4
330
39B
100
AcDbEntity
  8
치수문자_일반주서
 62
     0
100
AcDbTrace
 10
107.0300043167292
 20
18.63724999999999
 30
0.0
 11
108.1306709833959
 21
18.63725
 31
0.0
 12
107.5803376500625
 22
15.33524999999999
 32
0.0
 13
107.5803376500625
 23
15.33524999999999
 33
0.0
  0
SOLID
  5
3A5
330
39B
100
AcDbEntity
  8
치수문자_일반주서
 62
     0
100
AcDbTrace
 10
108.1306709833959
 20
3.301999999999998
 30
0.0
 11
107.0300043167293
 21
3.301999999999994
 31
0.0
 12
107.5803376500626
 22
6.603999999999996
 32
0.0
 13
107.5803376500626
 23
6.603999999999996
 33
0.0
  0
MTEXT
  5
3A6
330
39B
100
AcDbEntity
  8
치수문자_일반주서
 62
     0
100
AcDbMText
 10
103.2053376500625
 20
36.81425
 30
0.0
 40
3.5
 41
0.0
 71
     2
 72
     1
  1
\A1;%%c8.73 [11/32]
  7
SLDTEXTSTYLE0
 11
-3.255170729323294E-15
 21
1.0
 31
0.0
 73
     1
 44
1.0
  0
POINT
  5
3A7
330
39B
100
AcDbEntity
  8
Defpoints
 62
     0
100
AcDbPoint
 10
91.90000000000005
 20
15.33524999999994
 30
0.0
  0
POINT
  5
3A8
330
39B
100
AcDbEntity
  8
Defpoints
 62
     0
100
AcDbPoint
 10
91.90000000000003
 20
6.60399999999994
 30
0.0
  0
POINT
  5
3A9
330
39B
100
AcDbEntity
  8
Defpoints
 62
     0
100
AcDbPoint
 10
107.5803376500626
 20
6.603999999999998
 30
0.0
  0
ENDBLK
  5
39D
330
39B
100
AcDbEntity
  8
0
100
AcDbBlockEnd
  0
BLOCK
  5
3AB
330
3AA
100
AcDbEntity
  8
0
100
AcDbBlockBegin
  2
*D17
 70
     1
 10
0.0
 20
0.0
 30
0.0
  3
*D17
  1
*D20
  0
LINE
  5
3AD
330
3AA
100
AcDbEntity
  8
치수문자_일반주서
 62
     0
370
    -2
100
AcDbLine
 10
91.90000000000002
 20
15.39774999999994
 30
0.0
 11
91.90000000000002
 21
26.62581333894382
 31
0.0
  0
LINE
  5
3AE
330
3AA
100
AcDbEntity
  8
치수문자_일반주서
 62
     0
370
    -2
100
AcDbLine
 10
72.85
 20
15.32374451315989
 30
0.0
 11
72.85
 21
26.62581333894382
 31
0.0
  0
LINE
  5
3AF
330
3AA
100
AcDbEntity
  8
치수문자_일반주서
 62
     0
370
    -2
100
AcDbLine
 10
72.85
 20
26.62581333894382
 30
0.0
 11
41.3085
 21
26.62581333894382
 31
0.0
  0
LINE
  5
3B0
330
3AA
100
AcDbEntity
  8
치수문자_일반주서
 62
     0
370
    -2
100
AcDbLine
 10
91.90000000000002
 20
26.62581333894382
 30
0.0
 11
72.85
 21
26.62581333894382
 31
0.0
  0
LINE
  5
3B1
330
3AA
100
AcDbEntity
  8
치수문자_일반주서
 62
     0
370
    -2
100
AcDbLine
 10
95.20200000000003
 20
26.62581333894382
 30
0.0
 11
98.50400000000002
 21
26.62581333894382
 31
0.0
  0
LINE
  5
3B2
330
3AA
100
AcDbEntity
  8
치수문자_일반주서
 62
     0
370
    -2
100
AcDbLine
 10
69.548
 20
26.62581333894382
 30
0.0
 11
66.24600000000001
 21
26.62581333894382
 31
0.0
  0
SOLID
  5
3B3
330
3AA
100
AcDbEntity
  8
치수문자_일반주서
 62
     0
100
AcDbTrace
 10
95.20200000000003
 20
27.17614667227715
 30
0.0
 11
95.20200000000003
 21
26.07548000561048
 31
0.0
 12
91.90000000000002
 22
26.62581333894382
 32
0.0
 13
91.90000000000002
 23
26.62581333894382
 33
0.0
  0
SOLID
  5
3B4
330
3AA
100
AcDbEntity
  8
치수문자_일반주서
 62
     0
100
AcDbTrace
 10
69.548
 20
26.07548000561048
 30
0.0
 11
69.548
 21
27.17614667227715
 31
0.0
 12
72.85
 22
26.62581333894382
 32
0.0
 13
72.85
 23
26.62581333894382
 33
0.0
  0
MTEXT
  5
3B5
330
3AA
100
AcDbEntity
  8
치수문자_일반주서
 62
     0
100
AcDbMText
 10
53.77725
 20
31.00081333894382
 30
0.0
 40
3.5
 41
0.0
 71
     2
 72
     1
  1
\A1;19.05 [3/4]
  7
SLDTEXTSTYLE0
 73
     1
 44
1.0
  0
POINT
  5
3B6
330
3AA
100
AcDbEntity
  8
Defpoints
 62
     0
100
AcDbPoint
 10
91.90000000000002
 20
15.33524999999994
 30
0.0
  0
POINT
  5
3B7
330
3AA
100
AcDbEntity
  8
Defpoints
 62
     0
100
AcDbPoint
 10
72.85
 20
15.26124451315989
 30
0.0
  0
POINT
  5
3B8
330
3AA
100
AcDbEntity
  8
Defpoints
 62
     0
100
AcDbPoint
 10
72.85
 20
26.62581333894382
 30
0.0
  0
ENDBLK
  5
3AC
330
3AA
100
AcDbEntity
  8
0
100
AcDbBlockEnd
  0
BLOCK
  5
3BA
330
3B9
100
AcDbEntity
  8
0
100
AcDbBlockBegin
  2
*D18
 70
     1
 10
0.0
 20
0.0
 30
0.0
  3
*D18
  1
*D21
  0
LINE
  5
3BC
330
3B9
100
AcDbEntity
  8
치수문자_일반주서
 62
     0
370
    -2
100
AcDbLine
 10
91.90000000000002
 20
15.39774999999994
 30
0.0
 11
91.9
 21
38.64007254839282
 31
0.0
  0
LINE
  5
3BD
330
3B9
100
AcDbEntity
  8
치수문자_일반주서
 62
     0
370
    -2
100
AcDbLine
 10
3.000000000000007
 20
14.84212499999993
 30
0.0
 11
2.999999999999993
 21
38.64007254839282
 31
0.0
  0
LINE
  5
3BE
330
3B9
100
AcDbEntity
  8
치수문자_일반주서
 62
     0
370
    -2
100
AcDbLine
 10
88.59800000000001
 20
38.64007254839282
 30
0.0
 11
6.301999999999992
 21
38.64007254839282
 31
0.0
  0
SOLID
  5
3BF
330
3B9
100
AcDbEntity
  8
치수문자_일반주서
 62
     0
100
AcDbTrace
 10
88.59800000000001
 20
38.08973921505949
 30
0.0
 11
88.59800000000001
 21
39.19040588172616
 31
0.0
 12
91.9
 22
38.64007254839282
 32
0.0
 13
91.9
 23
38.64007254839282
 33
0.0
  0
SOLID
  5
3C0
330
3B9
100
AcDbEntity
  8
치수문자_일반주서
 62
     0
100
AcDbTrace
 10
6.301999999999992
 20
39.19040588172616
 30
0.0
 11
6.301999999999992
 21
38.08973921505949
 31
0.0
 12
2.999999999999993
 22
38.64007254839282
 32
0.0
 13
2.999999999999993
 23
38.64007254839282
 33
0.0
  0
MTEXT
  5
3C1
330
3B9
100
AcDbEntity
  8
치수문자_일반주서
 62
     0
100
AcDbMText
 10
48.23407602815286
 20
43.01507254839282
 30
0.0
 40
3.5
 41
0.0
 71
     2
 72
     1
  1
\A1;88.90 [3 1/2]
  7
SLDTEXTSTYLE0
 73
     1
 44
1.0
  0
POINT
  5
3C2
330
3B9
100
AcDbEntity
  8
Defpoints
 62
     0
100
AcDbPoint
 10
91.90000000000002
 20
15.33524999999994
 30
0.0
  0
POINT
  5
3C3
330
3B9
100
AcDbEntity
  8
Defpoints
 62
     0
100
AcDbPoint
 10
3.000000000000007
 20
14.77962499999993
 30
0.0
  0
POINT
  5
3C4
330
3B9
100
AcDbEntity
  8
Defpoints
 62
     0
100
AcDbPoint
 10
3.000000000000007
 20
38.64007254839282
 30
0.0
  0
ENDBLK
  5
3BB
330
3B9
100
AcDbEntity
  8
0
100
AcDbBlockEnd
  0
BLOCK
  5
451
330
450
100
AcDbEntity
  8
0
100
AcDbBlockBegin
  2
*D19
 70
     1
 10
0.0
 20
0.0
 30
0.0
  3
*D19
  1
*D23
  0
LINE
  5
453
330
450
100
AcDbEntity
  8
치수문자_일반주서
 62
     0
370
    -2
100
AcDbLine
 10
107.8375
 20
16.92274999999995
 30
0.0
 11
121.697322220765
 21
16.92275
 31
0.0
  0
LINE
  5
454
330
450
100
AcDbEntity
  8
치수문자_일반주서
 62
     0
370
    -2
100
AcDbLine
 10
107.8375
 20
6.603999999999947
 30
0.0
 11
121.697322220765
 21
6.603999999999999
 31
0.0
  0
LINE
  5
455
330
450
100
AcDbEntity
  8
치수문자_일반주서
 62
     0
370
    -2
100
AcDbLine
 10
121.697322220765
 20
16.92275
 30
0.0
 11
121.6973222207648
 21
55.46425
 31
0.0
  0
LINE
  5
456
330
450
100
AcDbEntity
  8
치수문자_일반주서
 62
     0
370
    -2
100
AcDbLine
 10
121.697322220765
 20
16.92275
 30
0.0
 11
121.697322220765
 21
6.603999999999999
 31
0.0
  0
LINE
  5
457
330
450
100
AcDbEntity
  8
치수문자_일반주서
 62
     0
370
    -2
100
AcDbLine
 10
121.697322220765
 20
20.22475
 30
0.0
 11
121.697322220765
 21
23.52675
 31
0.0
  0
LINE
  5
458
330
450
100
AcDbEntity
  8
치수문자_일반주서
 62
     0
370
    -2
100
AcDbLine
 10
121.697322220765
 20
3.302
 30
0.0
 11
121.6973222207651
 21
0.0
 31
0.0
  0
SOLID
  5
459
330
450
100
AcDbEntity
  8
치수문자_일반주서
 62
     0
100
AcDbTrace
 10
121.1469888874316
 20
20.22475
 30
0.0
 11
122.2476555540983
 21
20.22475
 31
0.0
 12
121.697322220765
 22
16.92275
 32
0.0
 13
121.697322220765
 23
16.92275
 33
0.0
  0
SOLID
  5
45A
330
450
100
AcDbEntity
  8
치수문자_일반주서
 62
     0
100
AcDbTrace
 10
122.2476555540984
 20
3.302000000000002
 30
0.0
 11
121.1469888874317
 21
3.301999999999997
 31
0.0
 12
121.697322220765
 22
6.603999999999999
 32
0.0
 13
121.697322220765
 23
6.603999999999999
 33
0.0
  0
MTEXT
  5
45B
330
450
100
AcDbEntity
  8
치수문자_일반주서
 62
     0
100
AcDbMText
 10
117.3223222207649
 20
39.49549999999999
 30
0.0
 40
3.5
 41
0.0
 71
     2
 72
     1
  1
\A1;%%c10.32 [13/32]
  7
SLDTEXTSTYLE0
 11
-4.131562848756488E-15
 21
1.0
 31
0.0
 73
     1
 44
1.0
  0
POINT
  5
45C
330
450
100
AcDbEntity
  8
Defpoints
 62
     0
100
AcDbPoint
 10
107.775
 20
16.92274999999995
 30
0.0
  0
POINT
  5
45D
330
450
100
AcDbEntity
  8
Defpoints
 62
     0
100
AcDbPoint
 10
107.775
 20
6.603999999999947
 30
0.0
  0
POINT
  5
45E
330
450
100
AcDbEntity
  8
Defpoints
 62
     0
100
AcDbPoint
 10
121.697322220765
 20
6.603999999999999
 30
0.0
  0
ENDBLK
  5
452
330
450
100
AcDbEntity
  8
0
100
AcDbBlockEnd
  0
BLOCK
  5
460
330
45F
100
AcDbEntity
  8
0
100
AcDbBlockBegin
  2
*D20
 70
     1
 10
0.0
 20
0.0
 30
0.0
  3
*D20
  1
*D24
  0
LINE
  5
462
330
45F
100
AcDbEntity
  8
치수문자_일반주서
 62
     0
370
    -2
100
AcDbLine
 10
107.775
 20
16.98524999999995
 30
0.0
 11
107.775
 21
31.29628904099936
 31
0.0
  0
LINE
  5
463
330
45F
100
AcDbEntity
  8
치수문자_일반주서
 62
     0
370
    -2
100
AcDbLine
 10
82.37500000000003
 20
16.93585217638109
 30
0.0
 11
82.37500000000003
 21
31.29628904099936
 31
0.0
  0
LINE
  5
464
330
45F
100
AcDbEntity
  8
치수문자_일반주서
 62
     0
370
    -2
100
AcDbLine
 10
82.37500000000003
 20
31.29628904099936
 30
0.0
 11
56.08350000000002
 21
31.29628904099936
 31
0.0
  0
LINE
  5
465
330
45F
100
AcDbEntity
  8
치수문자_일반주서
 62
     0
370
    -2
100
AcDbLine
 10
107.775
 20
31.29628904099936
 30
0.0
 11
82.37500000000003
 21
31.29628904099936
 31
0.0
  0
LINE
  5
466
330
45F
100
AcDbEntity
  8
치수문자_일반주서
 62
     0
370
    -2
100
AcDbLine
 10
111.077
 20
31.29628904099936
 30
0.0
 11
114.379
 21
31.29628904099936
 31
0.0
  0
LINE
  5
467
330
45F
100
AcDbEntity
  8
치수문자_일반주서
 62
     0
370
    -2
100
AcDbLine
 10
79.07300000000004
 20
31.29628904099936
 30
0.0
 11
75.77100000000004
 21
31.29628904099936
 31
0.0
  0
SOLID
  5
468
330
45F
100
AcDbEntity
  8
치수문자_일반주서
 62
     0
100
AcDbTrace
 10
111.077
 20
31.8466223743327
 30
0.0
 11
111.077
 21
30.74595570766603
 31
0.0
 12
107.775
 22
31.29628904099936
 32
0.0
 13
107.775
 23
31.29628904099936
 33
0.0
  0
SOLID
  5
469
330
45F
100
AcDbEntity
  8
치수문자_일반주서
 62
     0
100
AcDbTrace
 10
79.07300000000004
 20
30.74595570766603
 30
0.0
 11
79.07300000000004
 21
31.8466223743327
 31
0.0
 12
82.37500000000003
 22
31.29628904099936
 32
0.0
 13
82.37500000000003
 23
31.29628904099936
 33
0.0
  0
MTEXT
  5
46A
330
45F
100
AcDbEntity
  8
치수문자_일반주서
 62
     0
100
AcDbMText
 10
65.92725000000002
 20
35.67128904099936
 30
0.0
 40
3.5
 41
0.0
 71
     2
 72
     1
  1
\A1;25.40 [1]
  7
SLDTEXTSTYLE0
 73
     1
 44
1.0
  0
POINT
  5
46B
330
45F
100
AcDbEntity
  8
Defpoints
 62
     0
100
AcDbPoint
 10
107.775
 20
16.92274999999995
 30
0.0
  0
POINT
  5
46C
330
45F
100
AcDbEntity
  8
Defpoints
 62
     0
100
AcDbPoint
 10
82.37500000000003
 20
16.87335217638109
 30
0.0
  0
POINT
  5
46D
330
45F
100
AcDbEntity
  8
Defpoints
 62
     0
100
AcDbPoint
 10
82.37500000000003
 20
31.29628904099936
 30
0.0
  0
ENDBLK
  5
461
330
45F
100
AcDbEntity
  8
0
100
AcDbBlockEnd
  0
BLOCK
  5
46F
330
46E
100
AcDbEntity
  8
0
100
AcDbBlockBegin
  2
*D21
 70
     1
 10
0.0
 20
0.0
 30
0.0
  3
*D21
  1
*D25
  0
LINE
  5
471
330
46E
100
AcDbEntity
  8
치수문자_일반주서
 62
     0
370
    -2
100
AcDbLine
 10
107.775
 20
16.98524999999995
 30
0.0
 11
107.775
 21
46.57359099484088
 31
0.0
  0
LINE
  5
472
330
46E
100
AcDbEntity
  8
치수문자_일반주서
 62
     0
370
    -2
100
AcDbLine
 10
3.000000000000007
 20
16.90587499999994
 30
0.0
 11
2.999999999999993
 21
46.57359099484088
 31
0.0
  0
LINE
  5
473
330
46E
100
AcDbEntity
  8
치수문자_일반주서
 62
     0
370
    -2
100
AcDbLine
 10
104.473
 20
46.57359099484088
 30
0.0
 11
6.301999999999992
 21
46.57359099484088
 31
0.0
  0
SOLID
  5
474
330
46E
100
AcDbEntity
  8
치수문자_일반주서
 62
     0
100
AcDbTrace
 10
104.473
 20
46.02325766150755
 30
0.0
 11
104.473
 21
47.12392432817422
 31
0.0
 12
107.775
 22
46.57359099484088
 32
0.0
 13
107.775
 23
46.57359099484088
 33
0.0
  0
SOLID
  5
475
330
46E
100
AcDbEntity
  8
치수문자_일반주서
 62
     0
100
AcDbTrace
 10
6.301999999999992
 20
47.12392432817422
 30
0.0
 11
6.301999999999992
 21
46.02325766150755
 31
0.0
 12
2.999999999999993
 22
46.57359099484088
 32
0.0
 13
2.999999999999993
 23
46.57359099484088
 33
0.0
  0
MTEXT
  5
476
330
46E
100
AcDbEntity
  8
치수문자_일반주서
 62
     0
100
AcDbMText
 10
56.98553732606008
 20
50.94859099484088
 30
0.0
 40
3.5
 41
0.0
 71
     2
 72
     1
  1
\A1;104.78 [4 1/8]
  7
SLDTEXTSTYLE0
 73
     1
 44
1.0
  0
POINT
  5
477
330
46E
100
AcDbEntity
  8
Defpoints
 62
     0
100
AcDbPoint
 10
107.775
 20
16.92274999999995
 30
0.0
  0
POINT
  5
478
330
46E
100
AcDbEntity
  8
Defpoints
 62
     0
100
AcDbPoint
 10
3.000000000000007
 20
16.84337499999994
 30
0.0
  0
POINT
  5
479
330
46E
100
AcDbEntity
  8
Defpoints
 62
     0
100
AcDbPoint
 10
3.000000000000007
 20
46.57359099484088
 30
0.0
  0
ENDBLK
  5
470
330
46E
100
AcDbEntity
  8
0
100
AcDbBlockEnd
  0
BLOCK
  5
4A8
330
4A7
100
AcDbEntity
  8
0
100
AcDbBlockBegin
  2
*D22
 70
     1
 10
0.0
 20
0.0
 30
0.0
  3
*D22
  1
*D26
  0
LINE
  5
4AA
330
4A7
100
AcDbEntity
  8
치수문자_일반주서
 62
     0
370
    -2
100
AcDbLine
 10
221.8065459933798
 20
-42.36306758523807
 30
0.0
 11
235.6663682141448
 21
-42.36306758523802
 31
0.0
  0
LINE
  5
4AB
330
4A7
100
AcDbEntity
  8
치수문자_일반주서
 62
     0
370
    -2
100
AcDbLine
 10
221.8065459933799
 20
-52.68181758523807
 30
0.0
 11
235.6663682141449
 21
-52.68181758523802
 31
0.0
  0
LINE
  5
4AC
330
4A7
100
AcDbEntity
  8
치수문자_일반주서
 62
     0
370
    -2
100
AcDbLine
 10
235.6663682141448
 20
-42.36306758523802
 30
0.0
 11
235.6663682141447
 21
-3.821567585238014
 31
0.0
  0
LINE
  5
4AD
330
4A7
100
AcDbEntity
  8
치수문자_일반주서
 62
     0
370
    -2
100
AcDbLine
 10
235.6663682141448
 20
-42.36306758523802
 30
0.0
 11
235.6663682141449
 21
-52.68181758523802
 31
0.0
  0
LINE
  5
4AE
330
4A7
100
AcDbEntity
  8
치수문자_일반주서
 62
     0
370
    -2
100
AcDbLine
 10
235.6663682141448
 20
-39.06106758523802
 30
0.0
 11
235.6663682141448
 21
-35.75906758523802
 31
0.0
  0
LINE
  5
4AF
330
4A7
100
AcDbEntity
  8
치수문자_일반주서
 62
     0
370
    -2
100
AcDbLine
 10
235.6663682141449
 20
-55.98381758523802
 30
0.0
 11
235.6663682141449
 21
-59.28581758523802
 31
0.0
  0
SOLID
  5
4B0
330
4A7
100
AcDbEntity
  8
치수문자_일반주서
 62
     0
100
AcDbTrace
 10
235.1160348808115
 20
-39.06106758523802
 30
0.0
 11
236.2167015474782
 21
-39.06106758523802
 31
0.0
 12
235.6663682141448
 22
-42.36306758523802
 32
0.0
 13
235.6663682141448
 23
-42.36306758523802
 33
0.0
  0
SOLID
  5
4B1
330
4A7
100
AcDbEntity
  8
치수문자_일반주서
 62
     0
100
AcDbTrace
 10
236.2167015474782
 20
-55.98381758523802
 30
0.0
 11
235.1160348808115
 21
-55.98381758523802
 31
0.0
 12
235.6663682141449
 22
-52.68181758523802
 32
0.0
 13
235.6663682141449
 23
-52.68181758523802
 33
0.0
  0
MTEXT
  5
4B2
330
4A7
100
AcDbEntity
  8
치수문자_일반주서
 62
     0
100
AcDbMText
 10
231.2913682141448
 20
-19.79031758523803
 30
0.0
 40
3.5
 41
0.0
 71
     2
 72
     1
  1
\A1;%%c10.32 [13/32]
  7
SLDTEXTSTYLE0
 11
-2.754375232504325E-15
 21
1.0
 31
0.0
 73
     1
 44
1.0
  0
POINT
  5
4B3
330
4A7
100
AcDbEntity
  8
Defpoints
 62
     0
100
AcDbPoint
 10
221.7440459933798
 20
-42.36306758523807
 30
0.0
  0
POINT
  5
4B4
330
4A7
100
AcDbEntity
  8
Defpoints
 62
     0
100
AcDbPoint
 10
221.7440459933799
 20
-52.68181758523807
 30
0.0
  0
POINT
  5
4B5
330
4A7
100
AcDbEntity
  8
Defpoints
 62
     0
100
AcDbPoint
 10
235.6663682141449
 20
-52.68181758523802
 30
0.0
  0
ENDBLK
  5
4A9
330
4A7
100
AcDbEntity
  8
0
100
AcDbBlockEnd
  0
BLOCK
  5
4B7
330
4B6
100
AcDbEntity
  8
0
100
AcDbBlockBegin
  2
*D23
 70
     1
 10
0.0
 20
0.0
 30
0.0
  3
*D23
  1
*D27
  0
LINE
  5
4B9
330
4B6
100
AcDbEntity
  8
치수문자_일반주서
 62
     0
370
    -2
100
AcDbLine
 10
221.7440459933799
 20
-42.30056758523807
 30
0.0
 11
221.7440459933799
 21
-27.98952854423866
 31
0.0
  0
LINE
  5
4BA
330
4B6
100
AcDbEntity
  8
치수문자_일반주서
 62
     0
370
    -2
100
AcDbLine
 10
196.3440459933799
 20
-42.34996540885693
 30
0.0
 11
196.3440459933799
 21
-27.98952854423866
 31
0.0
  0
LINE
  5
4BB
330
4B6
100
AcDbEntity
  8
치수문자_일반주서
 62
     0
370
    -2
100
AcDbLine
 10
196.3440459933799
 20
-27.98952854423866
 30
0.0
 11
170.0525459933799
 21
-27.98952854423866
 31
0.0
  0
LINE
  5
4BC
330
4B6
100
AcDbEntity
  8
치수문자_일반주서
 62
     0
370
    -2
100
AcDbLine
 10
221.7440459933799
 20
-27.98952854423866
 30
0.0
 11
196.3440459933799
 21
-27.98952854423866
 31
0.0
  0
LINE
  5
4BD
330
4B6
100
AcDbEntity
  8
치수문자_일반주서
 62
     0
370
    -2
100
AcDbLine
 10
225.0460459933799
 20
-27.98952854423866
 30
0.0
 11
228.3480459933799
 21
-27.98952854423866
 31
0.0
  0
LINE
  5
4BE
330
4B6
100
AcDbEntity
  8
치수문자_일반주서
 62
     0
370
    -2
100
AcDbLine
 10
193.0420459933799
 20
-27.98952854423866
 30
0.0
 11
189.7400459933799
 21
-27.98952854423866
 31
0.0
  0
SOLID
  5
4BF
330
4B6
100
AcDbEntity
  8
치수문자_일반주서
 62
     0
100
AcDbTrace
 10
225.0460459933799
 20
-27.43919521090532
 30
0.0
 11
225.0460459933799
 21
-28.53986187757199
 31
0.0
 12
221.7440459933799
 22
-27.98952854423866
 32
0.0
 13
221.7440459933799
 23
-27.98952854423866
 33
0.0
  0
SOLID
  5
4C0
330
4B6
100
AcDbEntity
  8
치수문자_일반주서
 62
     0
100
AcDbTrace
 10
193.0420459933799
 20
-28.53986187757199
 30
0.0
 11
193.0420459933799
 21
-27.43919521090532
 31
0.0
 12
196.3440459933799
 22
-27.98952854423866
 32
0.0
 13
196.3440459933799
 23
-27.98952854423866
 33
0.0
  0
MTEXT
  5
4C1
330
4B6
100
AcDbEntity
  8
치수문자_일반주서
 62
     0
100
AcDbMText
 10
179.8962959933799
 20
-23.61452854423866
 30
0.0
 40
3.5
 41
0.0
 71
     2
 72
     1
  1
\A1;25.40 [1]
  7
SLDTEXTSTYLE0
 73
     1
 44
1.0
  0
POINT
  5
4C2
330
4B6
100
AcDbEntity
  8
Defpoints
 62
     0
100
AcDbPoint
 10
221.7440459933799
 20
-42.36306758523807
 30
0.0
  0
POINT
  5
4C3
330
4B6
100
AcDbEntity
  8
Defpoints
 62
     0
100
AcDbPoint
 10
196.3440459933799
 20
-42.41246540885693
 30
0.0
  0
POINT
  5
4C4
330
4B6
100
AcDbEntity
  8
Defpoints
 62
     0
100
AcDbPoint
 10
196.3440459933799
 20
-27.98952854423866
 30
0.0
  0
ENDBLK
  5
4B8
330
4B6
100
AcDbEntity
  8
0
100
AcDbBlockEnd
  0
BLOCK
  5
4C6
330
4C5
100
AcDbEntity
  8
0
100
AcDbBlockBegin
  2
*D24
 70
     1
 10
0.0
 20
0.0
 30
0.0
  3
*D24
  1
*D28
  0
LINE
  5
4C8
330
4C5
100
AcDbEntity
  8
치수문자_일반주서
 62
     0
370
    -2
100
AcDbLine
 10
221.7440459933799
 20
-42.30056758523807
 30
0.0
 11
221.7440459933799
 21
-12.71222659039714
 31
0.0
  0
LINE
  5
4C9
330
4C5
100
AcDbEntity
  8
치수문자_일반주서
 62
     0
370
    -2
100
AcDbLine
 10
116.9690459933799
 20
-42.37994258523808
 30
0.0
 11
116.9690459933799
 21
-12.71222659039714
 31
0.0
  0
LINE
  5
4CA
330
4C5
100
AcDbEntity
  8
치수문자_일반주서
 62
     0
370
    -2
100
AcDbLine
 10
218.4420459933799
 20
-12.71222659039714
 30
0.0
 11
120.2710459933799
 21
-12.71222659039714
 31
0.0
  0
SOLID
  5
4CB
330
4C5
100
AcDbEntity
  8
치수문자_일반주서
 62
     0
100
AcDbTrace
 10
218.4420459933799
 20
-13.26255992373047
 30
0.0
 11
218.4420459933799
 21
-12.1618932570638
 31
0.0
 12
221.7440459933799
 22
-12.71222659039714
 32
0.0
 13
221.7440459933799
 23
-12.71222659039714
 33
0.0
  0
SOLID
  5
4CC
330
4C5
100
AcDbEntity
  8
치수문자_일반주서
 62
     0
100
AcDbTrace
 10
120.2710459933799
 20
-12.1618932570638
 30
0.0
 11
120.2710459933799
 21
-13.26255992373047
 31
0.0
 12
116.9690459933799
 22
-12.71222659039714
 32
0.0
 13
116.9690459933799
 23
-12.71222659039714
 33
0.0
  0
MTEXT
  5
4CD
330
4C5
100
AcDbEntity
  8
치수문자_일반주서
 62
     0
100
AcDbMText
 10
170.95458331944
 20
-8.337226590397137
 30
0.0
 40
3.5
 41
0.0
 71
     2
 72
     1
  1
\A1;104.78 [4 1/8]
  7
SLDTEXTSTYLE0
 73
     1
 44
1.0
  0
POINT
  5
4CE
330
4C5
100
AcDbEntity
  8
Defpoints
 62
     0
100
AcDbPoint
 10
221.7440459933799
 20
-42.36306758523807
 30
0.0
  0
POINT
  5
4CF
330
4C5
100
AcDbEntity
  8
Defpoints
 62
     0
100
AcDbPoint
 10
116.9690459933799
 20
-42.44244258523808
 30
0.0
  0
POINT
  5
4D0
330
4C5
100
AcDbEntity
  8
Defpoints
 62
     0
100
AcDbPoint
 10
116.9690459933799
 20
-12.71222659039714
 30
0.0
  0
ENDBLK
  5
4C7
330
4C5
100
AcDbEntity
  8
0
100
AcDbBlockEnd
  0
ENDSEC
  0
SECTION
  2
ENTITIES
  0
LINE
  5
96
330
1F
100
AcDbEntity
  8
0
  6
Continuous
 62
     1
370
    15
100
AcDbLine
 10
39.11742147019047
 20
-5.159375000000003
 30
0.0
 11
42.26258236321315
 21
-5.159375000000003
 31
0.0
  0
LINE
  5
97
330
1F
100
AcDbEntity
  8
0
  6
Continuous
 62
     1
370
    15
100
AcDbLine
 10
28.22556451785948
 20
5.159374999999998
 30
0.0
 11
26.9875
 21
5.159374999999998
 31
0.0
  0
LINE
  5
98
330
1F
100
AcDbEntity
  8
0
  6
Continuous
 62
     1
370
    15
100
AcDbLine
 10
42.26258236321315
 20
5.159374999999998
 30
0.0
 11
39.11742147019055
 21
5.159374999999998
 31
0.0
  0
LINE
  5
99
330
1F
100
AcDbEntity
  8
0
  6
Continuous
 62
     1
370
    15
100
AcDbLine
 10
26.9875
 20
-5.159375000000003
 30
0.0
 11
28.22556451785943
 21
-5.159375000000003
 31
0.0
  0
LINE
  5
9A
330
1F
100
AcDbEntity
  8
외형선
  6
Continuous
370
    15
100
AcDbLine
 10
21.54402700723827
 20
-6.350000000000011
 30
0.0
 11
25.9875
 21
-5.159375000000002
 31
0.0
  0
LINE
  5
9B
330
1F
100
AcDbEntity
  8
외형선
  6
Continuous
370
    15
100
AcDbLine
 10
25.9875
 20
5.159374999999996
 30
0.0
 11
21.54402700723827
 21
6.350000000000006
 31
0.0
  0
LINE
  5
9C
330
1F
100
AcDbEntity
  8
외형선
  6
Continuous
370
    15
100
AcDbLine
 10
-21.54402700723827
 20
-6.350000000000007
 30
0.0
 11
21.54402700723828
 21
-6.350000000000007
 31
0.0
  0
LINE
  5
9D
330
1F
100
AcDbEntity
  8
외형선
  6
Continuous
370
    15
100
AcDbLine
 10
21.54402700723827
 20
6.350000000000001
 30
0.0
 11
5.727700000000024
 21
6.350000000000001
 31
0.0
  0
LINE
  5
A0
330
1F
100
AcDbEntity
  8
외형선
  6
Continuous
370
    15
100
AcDbLine
 10
25.9875
 20
-5.159375000000002
 30
0.0
 11
26.9875
 21
-5.159375000000002
 31
0.0
  0
LINE
  5
A1
330
1F
100
AcDbEntity
  8
외형선
  6
Continuous
370
    15
100
AcDbLine
 10
26.9875
 20
5.159374999999996
 30
0.0
 11
25.9875
 21
5.159374999999996
 31
0.0
  0
SPLINE
  5
A2
330
1F
100
AcDbEntity
  8
0
  6
Continuous
 62
     1
370
    15
100
AcDbSpline
210
0.0
220
0.0
230
1.0
 70
     8
 71
     3
 72
    18
 73
    14
 74
     0
 42
0.000000001
 43
0.00000001
 40
0.0
 40
0.0
 40
0.0
 40
0.0
 40
0.0980644582600152
 40
0.1961290811834781
 40
0.2941938544753991
 40
0.3922587638343655
 40
0.4903237949531493
 40
0.5883889335193155
 40
0.6864541652158395
 40
0.7763367091289466
 40
0.866223720334934
 40
0.9561173968185116
 40
1.0
 40
1.0
 40
1.0
 40
1.0
 10
26.98749999999998
 20
0.7122384765572936
 30
0.0
 10
27.66482783269114
 20
0.321381625596611
 30
0.0
 10
29.01948463539826
 20
-0.4603327326261072
 30
0.0
 10
31.05147216512337
 20
-1.619031503983763
 30
0.0
 10
33.08346402995436
 20
-2.691746880325759
 30
0.0
 10
35.11545685607327
 20
-3.626613083938471
 30
0.0
 10
37.14746180062764
 20
-4.37453400161746
 30
0.0
 10
39.17943547449744
 20
-4.897524459144328
 30
0.0
 10
41.15501718378983
 20
-5.160046402993656
 30
0.0
 10
43.07368242361455
 20
-5.177083287029734
 30
0.0
 10
44.93604630250296
 20
-4.959827810220475
 30
0.0
 10
46.4807141577618
 20
-4.631789657749281
 30
0.0
 10
47.40463111677258
 20
-4.312503572309446
 30
0.0
 10
47.70770339076934
 20
-4.207768228915187
 30
0.0
  0
SPLINE
  5
A3
330
1F
100
AcDbEntity
  8
외형선
  6
Continuous
370
    15
100
AcDbSpline
210
0.0
220
0.0
230
1.0
 70
    24
 71
     3
 72
    19
 73
    15
 74
     0
 42
0.000000001
 43
0.00000001
 40
0.0
 40
0.0
 40
0.0
 40
0.0
 40
0.143072181150783
 40
0.2219225937960614
 40
0.3030596737497592
 40
0.3819100863950403
 40
0.4630471663487413
 40
0.5418975789940218
 40
0.6230346589477215
 40
0.7018850715930026
 40
0.783022151546704
 40
0.8618725641919848
 40
0.9430096441456861
 40
1.0
 40
1.0
 40
1.0
 40
1.0
 10
26.98749999999997
 20
5.042193652862482
 30
0.0
 10
26.98749999999995
 20
4.757718488950999
 30
0.0
 10
26.98749999999994
 20
4.31646243387442
 30
0.0
 10
26.98750000000004
 20
3.657032893756115
 30
0.0
 10
26.98750000000005
 20
3.136492100737858
 30
0.0
 10
26.98749999999998
 20
2.620850168944241
 30
0.0
 10
26.98750000000004
 20
2.135205307556768
 30
0.0
 10
26.98749999999993
 20
1.684253276334941
 30
0.0
 10
26.98750000000015
 20
1.288888376923322
 30
0.0
 10
26.98749999999987
 20
0.9534397792474077
 30
0.0
 10
26.9875000000001
 20
0.6924108751522083
 30
0.0
 10
26.98749999999991
 20
0.5123619285611289
 30
0.0
 10
26.98749999999995
 20
0.4168328354581149
 30
0.0
 10
26.98750000000001
 20
0.4207691484455681
 30
0.0
 10
26.98750000000003
 20
0.4223932419979938
 30
0.0
  0
SPLINE
  5
A4
330
1F
100
AcDbEntity
  8
0
  6
Continuous
 62
     1
370
    15
100
AcDbSpline
210
0.0
220
0.0
230
1.0
 70
     8
 71
     3
 72
    56
 73
    52
 74
     0
 42
0.000000001
 43
0.00000001
 40
0.0
 40
0.0
 40
0.0
 40
0.0
 40
0.0625000000000005
 40
0.0625000000000005
 40
0.0937500000000008
 40
0.0937500000000008
 40
0.1250000000000011
 40
0.1250000000000011
 40
0.1875000000000016
 40
0.1875000000000016
 40
0.2187500000000012
 40
0.2187500000000012
 40
0.2500000000000009
 40
0.2500000000000009
 40
0.3125000000000003
 40
0.3125000000000003
 40
0.3749999999999996
 40
0.3749999999999996
 40
0.4062499999999986
 40
0.4062499999999986
 40
0.4374999999999977
 40
0.4374999999999977
 40
0.499999999999997
 40
0.499999999999997
 40
0.5312499999999972
 40
0.5312499999999972
 40
0.5624999999999976
 40
0.5624999999999976
 40
0.6249999999999981
 40
0.6249999999999981
 40
0.6562499999999983
 40
0.6562499999999983
 40
0.6874999999999987
 40
0.6874999999999987
 40
0.7187499999999989
 40
0.7187499999999989
 40
0.7499999999999991
 40
0.7499999999999991
 40
0.7812499999999994
 40
0.7812499999999994
 40
0.8124999999999997
 40
0.8124999999999997
 40
0.84375
 40
0.84375
 40
0.8750000000000002
 40
0.8750000000000002
 40
0.9375000000000008
 40
0.9375000000000008
 40
0.9687500000000004
 40
0.9687500000000004
 40
1.0
 40
1.0
 40
1.0
 40
1.0
 10
52.38749999999998
 20
-5.159374999999994
 30
0.0
 10
51.86167995077334
 20
-5.114280822748371
 30
0.0
 10
51.32795336983846
 20
-5.060895283147535
 30
0.0
 10
50.53428740712224
 20
-4.941552850384502
 30
0.0
 10
50.27196902293728
 20
-4.895354399269332
 30
0.0
 10
49.74311160951385
 20
-4.789985696686103
 30
0.0
 10
49.47744329794204
 20
-4.73084159949677
 30
0.0
 10
48.68142801855276
 20
-4.535014619311576
 30
0.0
 10
48.15641831595217
 20
-4.380393899753036
 30
0.0
 10
47.36066592600818
 20
-4.11439834118235
 30
0.0
 10
47.09491839677533
 20
-4.02013147731999
 30
0.0
 10
46.56557196124044
 20
-3.82153253880641
 30
0.0
 10
46.30319596021713
 20
-3.717378682822218
 30
0.0
 10
45.5103157928005
 20
-3.389945089313357
 30
0.0
 10
44.97644641835001
 20
-3.151827241021009
 30
0.0
 10
43.92320937241833
 20
-2.647243308425546
 30
0.0
 10
43.3912304204993
 20
-2.378811243005999
 30
0.0
 10
42.59688326760419
 20
-1.960110585627352
 30
0.0
 10
42.334392039237
 20
-1.81819160983931
 30
0.0
 10
41.80609327305744
 20
-1.529365743596721
 30
0.0
 10
41.54053953890944
 20
-1.382494507380354
 30
0.0
 10
40.74436701287635
 20
-0.937082650285956
 30
0.0
 10
40.21916089425997
 20
-0.6346914472781068
 30
0.0
 10
39.42377692025964
 20
-0.1770532501556487
 30
0.0
 10
39.15798556836643
 20
-0.023945619046345
 30
0.0
 10
38.62821995145607
 20
0.2815814697350035
 30
0.0
 10
38.36555589790372
 20
0.4337489650594427
 30
0.0
 10
37.57356578466263
 20
0.8887139434283867
 30
0.0
 10
37.03962545059751
 20
1.190049499002252
 30
0.0
 10
36.24860291725768
 20
1.628486148460913
 30
0.0
 10
35.98543640539744
 20
1.772596756938821
 30
0.0
 10
35.45532957694131
 20
2.056459160338779
 30
0.0
 10
35.18952959355191
 20
2.195997896367805
 30
0.0
 10
34.65958063524441
 20
2.468641488627061
 30
0.0
 10
34.39668617765812
 20
2.601542128041808
 30
0.0
 10
33.86901543785213
 20
2.860494867589446
 30
0.0
 10
33.60361158994683
 20
2.986636243579663
 30
0.0
 10
33.0727955497559
 20
3.230713521858176
 30
0.0
 10
32.80738748797396
 20
3.348647524538491
 30
0.0
 10
32.27970005776869
 20
3.574964244641474
 30
0.0
 10
32.01681860101539
 20
3.683451063091552
 30
0.0
 10
31.48687847137012
 20
3.891020801166974
 30
0.0
 10
31.221078711316
 20
3.989919314504325
 30
0.0
 10
30.69096393877235
 20
4.176770345782766
 30
0.0
 10
30.42778152362005
 20
4.264606790412427
 30
0.0
 10
29.63678533175278
 20
4.511181257771313
 30
0.0
 10
29.10284590403421
 20
4.653254494553677
 30
0.0
 10
28.31083206381861
 20
4.827849123058745
 30
0.0
 10
28.04817810721165
 20
4.879700822956304
 30
0.0
 10
27.51842220256326
 20
4.9707280611995
 30
0.0
 10
27.25263152065099
 20
5.009800249435543
 30
0.0
 10
26.98749999999994
 20
5.042193652862485
 30
0.0
  0
LINE
  5
A5
330
1F
100
AcDbEntity
  8
0
  6
Continuous
 62
     1
370
    15
100
AcDbLine
 10
52.3875
 20
-4.672749711316366
 30
0.0
 11
52.3875
 21
0.4420622113164235
 31
0.0
  0
SPLINE
  5
A6
330
1F
100
AcDbEntity
  8
0
  6
Continuous
 62
     1
370
    15
100
AcDbSpline
210
0.0
220
0.0
230
1.0
 70
     8
 71
     3
 72
    20
 73
    16
 74
     0
 42
0.000000001
 43
0.00000001
 40
0.0
 40
0.0
 40
0.0
 40
0.0
 40
0.0328569994708144
 40
0.1169524655788412
 40
0.2010480606355671
 40
0.2851437723767943
 40
0.3692395885333374
 40
0.4533354968315464
 40
0.5374314849938349
 40
0.61451039683799
 40
0.6915931396159297
 40
0.768681598212775
 40
0.8457776505677251
 40
0.9228831654069078
 40
1.0
 40
1.0
 40
1.0
 40
1.0
 10
28.22556451785948
 20
5.127663254101915
 30
0.0
 10
28.4902042087929
 20
5.135699226725124
 30
0.0
 10
29.43217288649215
 20
5.164302776250187
 30
0.0
 10
31.05147218084191
 20
4.935420764721827
 30
0.0
 10
33.08346402518924
 20
4.456543258982359
 30
0.0
 10
35.11545685941536
 20
3.731519057090809
 30
0.0
 10
37.14746179202451
 20
2.818880375694753
 30
0.0
 10
39.17943550556777
 20
1.759911883245019
 30
0.0
 10
41.15501707219311
 20
0.6426757995995364
 30
0.0
 10
43.07368280155458
 20
-0.4713050375075478
 30
0.0
 10
44.93604488780137
 20
-1.53176365345341
 30
0.0
 10
46.79854318190424
 20
-2.527007363177841
 30
0.0
 10
48.66127057449123
 20
-3.409007284381015
 30
0.0
 10
50.52426554296346
 20
-4.157993866375942
 30
0.0
 10
51.76639145742089
 20
-4.501156033758718
 30
0.0
 10
52.3875
 20
-4.672749711316365
 30
0.0
  0
SPLINE
  5
A7
330
1F
100
AcDbEntity
  8
0
  6
Continuous
 62
     1
370
    15
100
AcDbSpline
210
0.0
220
0.0
230
1.0
 70
     8
 71
     3
 72
    17
 73
    13
 74
     0
 42
0.000000001
 43
0.00000001
 40
0.0
 40
0.0
 40
0.0
 40
0.0
 40
0.1085548396192479
 40
0.2171102553588934
 40
0.3256662317914999
 40
0.434222753465899
 40
0.5427798049078387
 40
0.6513373706206158
 40
0.7598954350857254
 40
0.8594462818379399
 40
0.9590052108537763
 40
1.0
 40
1.0
 40
1.0
 40
1.0
 10
52.38749999999998
 20
0.4420622113164239
 30
0.0
 10
51.71024532250359
 20
0.8294441620312437
 30
0.0
 10
50.35573237319633
 20
1.60421011936778
 30
0.0
 10
48.32395495081084
 20
2.677677084988753
 30
0.0
 10
46.2921649372937
 20
3.614960134938145
 30
0.0
 10
44.26036324472934
 20
4.36565749754778
 30
0.0
 10
42.22854740980912
 20
4.891981454482624
 30
0.0
 10
40.19672845690514
 20
5.165561922983324
 30
0.0
 10
38.22106534248774
 20
5.176253847452754
 30
0.0
 10
36.30164889173901
 20
4.934138326283058
 30
0.0
 10
34.80364722693607
 20
4.606597291898673
 30
0.0
 10
33.92678760883764
 20
4.298540841999298
 30
0.0
 10
33.6710371696117
 20
4.208691143436375
 30
0.0
  0
SPLINE
  5
A8
330
1F
100
AcDbEntity
  8
0
  6
Continuous
 62
     1
370
    15
100
AcDbSpline
210
0.0
220
0.0
230
1.0
 70
     8
 71
     3
 72
    14
 73
    10
 74
     0
 42
0.000000001
 43
0.00000001
 40
0.0
 40
0.0
 40
0.0
 40
0.0
 40
0.0785237489246197
 40
0.2321243805226844
 40
0.3857374825400129
 40
0.5393293655039548
 40
0.6929012655959543
 40
0.8464568985938938
 40
1.0
 40
1.0
 40
1.0
 40
1.0
 10
39.11742147019049
 20
-5.126198745304835
 30
0.0
 10
38.79990891866428
 20
-5.133395648818123
 30
0.0
 10
37.8613087455886
 20
-5.154670445202429
 30
0.0
 10
36.30164762985287
 20
-4.932900664490506
 30
0.0
 10
34.4383631300409
 20
-4.503003687633546
 30
0.0
 10
32.57528661817048
 20
-3.865343232899986
 30
0.0
 10
30.71248202532394
 20
-3.062957967157408
 30
0.0
 10
28.84991504783911
 20
-2.130490293171234
 30
0.0
 10
27.60828812717408
 20
-1.439059920882046
 30
0.0
 10
26.98749999999997
 20
-1.093358842127415
 30
0.0
  0
LINE
  5
A9
330
1F
100
AcDbEntity
  8
외형선
  6
Continuous
370
    15
100
AcDbLine
 10
26.98749999999997
 20
-1.093358842127434
 30
0.0
 11
26.98750000000001
 21
0.7122384765572953
 31
0.0
  0
LINE
  5
AA
330
1F
100
AcDbEntity
  8
0
  6
Continuous
 62
     1
370
    15
100
AcDbLine
 10
52.3875
 20
-5.159374999999994
 30
0.0
 11
52.3875
 21
-4.672749711316366
 31
0.0
  0
LINE
  5
AB
330
1F
100
AcDbEntity
  8
외형선
  6
Continuous
370
    15
100
AcDbLine
 10
26.98749999999997
 20
5.042193652862482
 30
0.0
 11
26.9875
 21
5.159374999999998
 31
0.0
  0
SPLINE
  5
AC
330
1F
100
AcDbEntity
  8
0
  6
Continuous
 62
     1
370
    15
100
AcDbSpline
210
0.0
220
0.0
230
1.0
 70
     8
 71
     3
 72
    13
 73
     9
 74
     0
 42
0.000000001
 43
0.00000001
 40
0.0
 40
0.0
 40
0.0
 40
0.0
 40
0.080112017512813
 40
0.2640533953267752
 40
0.4480084127125399
 40
0.6319815509678827
 40
0.8159772694055663
 40
1.0
 40
1.0
 40
1.0
 40
1.0
 10
42.26258236321315
 20
5.131852887423282
 30
0.0
 10
42.53294564597626
 20
5.138232778904384
 30
0.0
 10
43.42407715160689
 20
5.159261234555646
 30
0.0
 10
44.93604055393119
 20
4.957685589835471
 30
0.0
 10
46.79854434292091
 20
4.543967026613289
 30
0.0
 10
48.66127026483299
 20
3.918672510260364
 30
0.0
 10
50.52426562039522
 20
3.133968373291819
 30
0.0
 10
51.76639148323274
 20
2.50291411751765
 30
0.0
 10
52.3875
 20
2.187363830280104
 30
0.0
  0
LINE
  5
AD
330
1F
100
AcDbEntity
  8
0
  6
Continuous
 62
     1
370
    15
100
AcDbLine
 10
52.3875
 20
0.4420622113164235
 30
0.0
 11
52.3875
 21
2.187363830280104
 31
0.0
  0
SPLINE
  5
AE
330
1F
100
AcDbEntity
  8
0
  6
Continuous
 62
     1
370
    15
100
AcDbSpline
210
0.0
220
0.0
230
1.0
 70
     8
 71
     3
 72
    11
 73
     7
 74
     0
 42
0.000000001
 43
0.00000001
 40
0.0
 40
0.0
 40
0.0
 40
0.0
 40
0.3040282914184099
 40
0.6080570933413143
 40
0.9120863614500946
 40
0.9999999999999999
 40
0.9999999999999999
 40
0.9999999999999999
 40
0.9999999999999999
 10
26.98749999999998
 20
-5.109977176381158
 30
0.0
 10
27.66482782154987
 20
-5.139266977620573
 30
0.0
 10
29.01948460197437
 20
-5.197846629280929
 30
0.0
 10
31.05147229881934
 20
-4.932663408888788
 30
0.0
 10
32.60199020953833
 20
-4.596689096853085
 30
0.0
 10
33.47517903455191
 20
-4.279775537669144
 30
0.0
 10
33.67103716961164
 20
-4.208691143436381
 30
0.0
  0
SPLINE
  5
AF
330
1F
100
AcDbEntity
  8
외형선
  6
Continuous
370
    15
100
AcDbSpline
210
0.0
220
0.0
230
1.0
 70
    24
 71
     3
 72
    17
 73
    13
 74
     0
 42
0.000000001
 43
0.00000001
 40
0.0
 40
0.0
 40
0.0
 40
0.0
 40
0.0459247798524133
 40
0.1634589289732638
 40
0.2776806407156578
 40
0.3952147898365105
 40
0.5094365015789049
 40
0.626970650699757
 40
0.7411923624421477
 40
0.8587265115629972
 40
0.9289897321865195
 40
1.0
 40
1.0
 40
1.0
 40
1.0
 10
26.9875
 20
-1.165920809175226
 30
0.0
 10
26.9875
 20
-1.200290208310515
 30
0.0
 10
26.98749999999998
 20
-1.322620357527632
 30
0.0
 10
26.98750000000013
 20
-1.606740506661121
 30
0.0
 10
26.98749999999991
 20
-2.00870751340436
 30
0.0
 10
26.98750000000011
 20
-2.46170887032688
 30
0.0
 10
26.98749999999995
 20
-2.955263163179031
 30
0.0
 10
26.98749999999993
 20
-3.468042321059209
 30
0.0
 10
26.98750000000015
 20
-3.994461047710502
 30
0.0
 10
26.98749999999991
 20
-4.444338972957018
 30
0.0
 10
26.98750000000003
 20
-4.818023042644398
 30
0.0
 10
26.98750000000001
 20
-5.012316660135924
 30
0.0
 10
26.98750000000001
 20
-5.10997717638116
 30
0.0
  0
SPLINE
  5
B0
330
1F
100
AcDbEntity
  8
0
  6
Continuous
 62
     1
370
    15
100
AcDbSpline
210
0.0
220
0.0
230
1.0
 70
     8
 71
     3
 72
    10
 73
     6
 74
     0
 42
0.000000001
 43
0.00000001
 40
0.0
 40
0.0
 40
0.0
 40
0.0
 40
0.4341568973910977
 40
0.8683160989322936
 40
1.0
 40
1.0
 40
1.0
 40
1.0
 10
52.38749999999997
 20
5.159375000000006
 30
0.0
 10
51.71024529659469
 20
5.07832091128182
 30
0.0
 10
50.35573229546942
 20
4.954158663037566
 30
0.0
 10
48.79579980773603
 20
4.600596881203789
 30
0.0
 10
47.91312164722213
 20
4.281929098834015
 30
0.0
 10
47.70770339076935
 20
4.207768228915183
 30
0.0
  0
LINE
  5
B1
330
1F
100
AcDbEntity
  8
0
  6
Continuous
 62
     1
370
    15
100
AcDbLine
 10
52.3875
 20
2.170492629194923
 30
0.0
 11
52.38749999999998
 21
5.159375000000006
 31
0.0
  0
LINE
  5
B2
330
1F
100
AcDbEntity
  8
외형선
  6
Continuous
370
    15
100
AcDbLine
 10
25.9875
 20
-0.0000000000000027
 30
0.0
 11
25.9875
 21
5.159374999999997
 31
0.0
  0
LINE
  5
B3
330
1F
100
AcDbEntity
  8
외형선
  6
Continuous
370
    15
100
AcDbLine
 10
25.9875
 20
-5.159375000000006
 30
0.0
 11
25.9875
 21
-0.0000000000000027
 31
0.0
  0
LINE
  5
B4
330
1F
100
AcDbEntity
  8
외형선
  6
Continuous
370
    15
100
AcDbLine
 10
21.54402700723827
 20
-0.0000000000000027
 30
0.0
 11
21.54402700723827
 21
6.350000000000006
 31
0.0
  0
LINE
  5
B5
330
1F
100
AcDbEntity
  8
외형선
  6
Continuous
370
    15
100
AcDbLine
 10
21.54402700723827
 20
-6.350000000000011
 30
0.0
 11
21.54402700723827
 21
-0.0000000000000027
 31
0.0
  0
SPLINE
  5
BA
330
1F
100
AcDbEntity
  8
외형선
  6
Continuous
370
    15
100
AcDbSpline
210
0.0
220
0.0
230
1.0
 70
     8
 71
     3
 72
     8
 73
     4
 74
     0
 42
0.000000001
 43
0.00000001
 40
0.0
 40
0.0
 40
0.0
 40
0.0
 40
1.0
 40
1.0
 40
1.0
 40
1.0
 10
26.98750000000003
 20
5.042193652862481
 30
0.0
 10
26.82040461173395
 20
5.062609136881861
 30
0.0
 10
26.65357154603856
 20
5.080374892126794
 30
0.0
 10
26.48739039592651
 20
5.095463753091986
 30
0.0
  0
LINE
  5
BB
330
1F
100
AcDbEntity
  8
외형선
  6
Continuous
370
    15
100
AcDbLine
 10
26.4873903959265
 20
0.9969600270047569
 30
0.0
 11
26.48739039592648
 21
5.095467513198759
 31
0.0
  0
SPLINE
  5
BC
330
1F
100
AcDbEntity
  8
외형선
  6
Continuous
370
    15
100
AcDbSpline
210
0.0
220
0.0
230
1.0
 70
     8
 71
     3
 72
     8
 73
     4
 74
     0
 42
0.000000001
 43
0.00000001
 40
0.0
 40
0.0
 40
0.0
 40
0.0
 40
1.0
 40
1.0
 40
1.0
 40
1.0
 10
26.98749999999998
 20
0.7122384765572936
 30
0.0
 10
26.82040461173389
 20
0.8076533150935754
 30
0.0
 10
26.65357154603856
 20
0.9026453281369327
 30
0.0
 10
26.4873903959265
 20
0.9969941816058776
 30
0.0
  0
SPLINE
  5
BD
330
1F
100
AcDbEntity
  8
외형선
  6
Continuous
370
    15
100
AcDbSpline
210
0.0
220
0.0
230
1.0
 70
     8
 71
     3
 72
     8
 73
     4
 74
     0
 42
0.000000001
 43
0.00000001
 40
0.0
 40
0.0
 40
0.0
 40
0.0
 40
1.0
 40
1.0
 40
1.0
 40
1.0
 10
26.98750000000003
 20
-1.093358842127443
 30
0.0
 10
26.82040461173395
 20
-0.9992096753796492
 30
0.0
 10
26.65357154603856
 20
-0.9045376435565533
 30
0.0
 10
26.48739039592651
 20
-0.809567496599681
 30
0.0
  0
LINE
  5
BE
330
1F
100
AcDbEntity
  8
외형선
  6
Continuous
370
    15
100
AcDbLine
 10
26.4873903959265
 20
-5.062136021007303
 30
0.0
 11
26.48739039592648
 21
-0.8095438299196581
 31
0.0
  0
SPLINE
  5
BF
330
1F
100
AcDbEntity
  8
외형선
  6
Continuous
370
    15
100
AcDbSpline
210
0.0
220
0.0
230
1.0
 70
     8
 71
     3
 72
     8
 73
     4
 74
     0
 42
0.000000001
 43
0.00000001
 40
0.0
 40
0.0
 40
0.0
 40
0.0
 40
1.0
 40
1.0
 40
1.0
 40
1.0
 10
26.98749999999998
 20
-5.109977176381158
 30
0.0
 10
26.82040461173389
 20
-5.096678072120154
 30
0.0
 10
26.65357154603856
 20
-5.080711446712539
 30
0.0
 10
26.4873903959265
 20
-5.062129294325564
 30
0.0
  0
SPLINE
  5
C0
330
1F
100
AcDbEntity
  8
외형선
  6
Continuous
370
    15
100
AcDbSpline
210
0.0
220
0.0
230
1.0
 70
    24
 71
     3
 72
    17
 73
    13
 74
     0
 42
0.000000001
 43
0.00000001
 40
0.0
 40
0.0
 40
0.0
 40
0.0
 40
0.045876935195374
 40
0.1512637457236269
 40
0.2566505562518797
 40
0.3620373667801335
 40
0.4674241773083872
 40
0.5728109878366338
 40
0.6781977983648804
 40
0.7835846088931412
 40
0.8889714194214021
 40
1.0
 40
1.0
 40
1.0
 40
1.0
 10
26.98750000000003
 20
0.7848004436050876
 30
0.0
 10
26.98750000000003
 20
0.8180633985343223
 30
0.0
 10
26.98750000000004
 20
0.9277367918201832
 30
0.0
 10
26.98749999999997
 20
1.195408211855928
 30
0.0
 10
26.98749999999993
 20
1.572453414004062
 30
0.0
 10
26.98749999999997
 20
2.010150576327799
 30
0.0
 10
26.9875
 20
2.488308082966741
 30
0.0
 10
26.9875
 20
2.996299313914514
 30
0.0
 10
26.98749999999995
 20
3.518671090290882
 30
0.0
 10
26.98749999999998
 20
4.039961186853821
 30
0.0
 10
26.98750000000007
 20
4.55862853097229
 30
0.0
 10
26.98749999999998
 20
4.878228047313509
 30
0.0
 10
26.98749999999997
 20
5.042193652862565
 30
0.0
  0
SPLINE
  5
C1
330
1F
100
AcDbEntity
  8
외형선
  6
Continuous
370
    15
100
AcDbSpline
210
0.0
220
0.0
230
1.0
 70
    24
 71
     3
 72
    16
 73
    12
 74
     0
 42
0.000000001
 43
0.00000001
 40
0.0
 40
0.0
 40
0.0
 40
0.0
 40
0.1134745887908577
 40
0.226949177581715
 40
0.3428587848630768
 40
0.4587683921444387
 40
0.5746779994258647
 40
0.6905876067072908
 40
0.8064972139886843
 40
0.922406821270078
 40
1.0
 40
1.0
 40
1.0
 40
1.0
 10
26.98750000000001
 20
-5.109977176381158
 30
0.0
 10
26.98750000000001
 20
-4.952510917139903
 30
0.0
 10
26.9875
 20
-4.637578398657391
 30
0.0
 10
26.98750000000007
 20
-4.128906162790123
 30
0.0
 10
26.98750000000004
 20
-3.609325072728961
 30
0.0
 10
26.98749999999997
 20
-3.090116447655712
 30
0.0
 10
26.9875
 20
-2.591366362383371
 30
0.0
 10
26.98750000000004
 20
-2.124917934709447
 30
0.0
 10
26.9875
 20
-1.709354733335781
 30
0.0
 10
26.98749999999994
 20
-1.381408204236402
 30
0.0
 10
26.98749999999997
 20
-1.227597684281041
 30
0.0
 10
26.98749999999997
 20
-1.16592080917527
 30
0.0
  0
LINE
  5
C2
330
1F
100
AcDbEntity
  8
중심선
 48
0.8
100
AcDbLine
 10
-55.38750000000001
 20
-0.0000000000000066
 30
0.0
 11
55.38750000000001
 21
0.0000000000000066
 31
0.0
  0
LINE
  5
C3
330
1F
100
AcDbEntity
  8
참조1
100
AcDbLine
 10
12.89338065701562
 20
0.0010749287238892
 30
0.0
 11
12.89338065701562
 21
-39.99892507127611
 31
0.0
  0
LINE
  5
C4
330
1F
100
AcDbEntity
  8
참조1
100
AcDbLine
 10
12.89338065701562
 20
-39.99892507127611
 30
0.0
 11
-29.25297615729306
 21
-39.9989250712761
 31
0.0
  0
CIRCLE
  5
C5
330
1F
100
AcDbEntity
  8
해칭선
100
AcDbCircle
 10
0.0
 20
0.0
 30
0.0
 40
3.000000000000012
  0
INSERT
  5
C6
330
1F
100
AcDbEntity
  8
0
  6
Continuous
 62
     7
100
AcDbBlockReference
 66
     1
  2
블럭10
 10
-13.9402729321252
 20
-52.04717430164393
 30
0.0
  0
ATTRIB
  5
C7
330
C6
100
AcDbEntity
  8
FORMAT
 62
     2
100
AcDbText
 10
-23.12156822086649
 20
-49.97180738881174
 30
0.0
 40
4.233333333333333
  1
E1051026 [ 4 FLUTE ]
 41
0.75
  7
SLDTEXTSTYLE0
 11
-23.12156822086649
 21
-52.08847405547841
 31
0.0
100
AcDbAttribute
  2
AUTOATTR0
 70
     0
 74
     1
  0
SEQEND
  5
C8
330
C6
100
AcDbEntity
  8
0
  6
Continuous
 62
     7
  0
HATCH
  5
C9
330
1F
100
AcDbEntity
  8
중심선
100
AcDbHatch
 10
0.0
 20
0.0
 30
0.0
210
0.0
220
0.0
230
1.0
  2
SOLID
 70
     1
 71
     0
 91
        1
 92
        0
 93
        4
 72
     1
 10
-8.225363627744372
 20
-35.8
 11
-11.67163887158165
 21
-35.8
 72
     1
 10
-11.67163887158165
 20
-35.8
 11
-13.79986873078568
 21
-38.33632558057257
 72
     1
 10
-13.79986873078568
 20
-38.33632558057257
 11
-10.35356040183524
 21
-38.33628615127008
 72
     1
 10
-10.35356040183524
 20
-38.33628615127008
 11
-8.225363627744372
 21
-35.8
 97
        0
 75
     0
 76
     1
 98
        1
 10
-12.89338065701562
 20
-0.0010749287238958
  0
HATCH
  5
CA
330
1F
100
AcDbEntity
  8
중심선
100
AcDbHatch
 10
0.0
 20
0.0
 30
0.0
210
0.0
220
0.0
230
1.0
  2
SOLID
 70
     1
 71
     0
 91
        1
 92
        0
 93
        4
 72
     1
 10
-3.212599636708392
 20
-35.8
 11
-6.658874880545646
 21
-35.79999999999998
 72
     1
 10
-6.658874880545646
 20
-35.79999999999998
 11
-11.19001288890309
 21
-41.20000000000002
 72
     1
 10
-11.19001288890309
 20
-41.20000000000002
 11
-7.743737645065809
 21
-41.20000000000002
 72
     1
 10
-7.743737645065808
 20
-41.20000000000002
 11
-3.212599636708392
 21
-35.8
 97
        0
 75
     0
 76
     1
 98
        1
 10
-12.89338065701562
 20
-0.0010749287238958
  0
HATCH
  5
CB
330
1F
100
AcDbEntity
  8
중심선
100
AcDbHatch
 10
0.0
 20
0.0
 30
0.0
210
0.0
220
0.0
230
1.0
  2
SOLID
 70
     1
 71
     0
 91
        1
 92
        0
 93
        4
 72
     1
 10
1.800164354327476
 20
-35.79999999999998
 11
-1.646110889509611
 21
-35.79999999999998
 72
     1
 10
-1.646110889509611
 20
-35.79999999999998
 11
-8.69454779139889
 21
-44.20000000000002
 72
     1
 10
-8.69454779139889
 20
-44.20000000000002
 11
-5.248272547561608
 21
-44.20000000000002
 72
     1
 10
-5.248272547561607
 20
-44.20000000000002
 11
1.800164354327476
 21
-35.79999999999998
 97
        0
 75
     0
 76
     1
 98
        1
 10
-12.89338065701562
 20
-0.0010749287238958
  0
HATCH
  5
CC
330
1F
100
AcDbEntity
  8
중심선
100
AcDbHatch
 10
0.0
 20
0.0
 30
0.0
210
0.0
220
0.0
230
1.0
  2
SOLID
 70
     1
 71
     0
 91
        1
 92
        0
 93
        6
 72
     3
 10
6.600054785339676
 20
-40.00000000005127
 11
3.960054785062283
 21
1.540882976769353E-10
 40
0.3939339440162628
 50
17.09539180608436
 51
320.0019657685078
 73
     0
 72
     1
 10
8.28305444104027
 20
-38.5878940046383
 11
10.58835631474131
 21
-36.65356729459035
 72
     3
 10
6.600054785286829
 20
-40.00000000000015
 11
6.600054785286829
 21
-1.278976924368180E-13
 40
0.636358354079598
 50
39.99873849337431
 51
368.4976242363724
 73
     1
 72
     1
 10
13.02538727718744
 20
-39.03999999993002
 11
5.280122092122753
 21
-39.03999999993002
 72
     1
 10
5.280122092122753
 20
-39.03999999993002
 11
5.280097047676819
 21
-40.95999999992991
 72
     1
 10
5.280097047676819
 20
-40.95999999992991
 11
9.721476817148854
 21
-40.95999999992988
 97
        0
 75
     0
 76
     1
 98
        1
 10
-12.89338065701562
 20
-0.0010749287238958
  0
DIMENSION
  5
CD
330
1F
100
AcDbEntity
  8
치수문자_일반주서
100
AcDbDimension
  2
_D
 10
66.30982222076503
 20
-5.159374999999947
 30
0.0
 11
66.30982222076489
 21
27.73212500000007
 31
0.0
 70
   160
  1
%%c<>
 71
     2
 42
10.31875
 52
-270.0
  3
SLDDIMSTYLE2
100
AcDbAlignedDimension
 13
52.38749999999997
 23
5.159375000000006
 33
0.0
 14
52.38749999999998
 24
-5.159374999999994
 34
0.0
 50
90.0000000000002
100
AcDbRotatedDimension
1001
ACAD
1000
DSTYLE
1002
{
1070
   171
1070
     6
1070
   273
1070
     5
1002
}
  0
DIMENSION
  5
E1
330
1F
100
AcDbEntity
  8
치수문자_일반주서
100
AcDbDimension
  2
_D_1
 10
26.98750000000001
 20
19.53291404099942
 30
0.0
 11
10.53975000000001
 21
19.53291404099942
 31
0.0
 70
   160
  1
<>
 71
     2
 42
25.39999999999997
  3
SLDDIMSTYLE2
100
AcDbAlignedDimension
 13
52.38749999999998
 23
5.159375000000006
 33
0.0
 14
26.98750000000001
 24
5.109977176381149
 34
0.0
 50
0.000000000000016
100
AcDbRotatedDimension
1001
ACAD
1000
DSTYLE
1002
{
1070
   171
1070
     6
1070
   273
1070
     5
1002
}
  0
DIMENSION
  5
F6
330
1F
100
AcDbEntity
  8
치수문자_일반주서
100
AcDbDimension
  2
_D_2
 10
-52.38749999999998
 20
34.81021599484095
 30
0.0
 11
1.598037326060073
 21
34.81021599484095
 31
0.0
 70
   160
  1
<>
 71
     2
 42
104.775
  3
SLDDIMSTYLE2
100
AcDbAlignedDimension
 13
52.38749999999998
 23
5.159375000000006
 33
0.0
 14
-52.38749999999998
 24
5.159374999999989
 34
0.0
100
AcDbRotatedDimension
1001
ACAD
1000
DSTYLE
1002
{
1070
   171
1070
     6
1070
   273
1070
     5
1002
}
  0
DIMENSION
  5
109
330
1F
100
AcDbEntity
  8
치수문자_일반주서
100
AcDbDimension
  2
_D_3
 10
-64.59375
 20
-6.350000000000168
 30
0.0
 11
-64.59375000000003
 21
-0.0000000000000087
 31
0.0
 70
   160
  1
%%c<>
 71
     2
 42
12.70000000000001
 52
-270.0
  3
SLDDIMSTYLE2
100
AcDbAlignedDimension
 13
-21.54402700723826
 23
6.350000000000001
 33
0.0
 14
-21.54402700723827
 24
-6.350000000000007
 34
0.0
 50
90.0000000000002
100
AcDbRotatedDimension
1001
ACAD
1000
DSTYLE
1002
{
1070
   171
1070
     6
1070
   273
1070
     5
1002
}
  0
LINE
  5
11E
330
1F
100
AcDbEntity
  8
참조1
100
AcDbLine
 10
68.7193644723612
 20
7.441074928723896
 30
0.0
 11
68.7193644723612
 21
-7.438925071276109
 31
0.0
  0
LINE
  5
11F
330
1F
100
AcDbEntity
  8
참조1
100
AcDbLine
 10
81.41936447236121
 20
5.441074928723896
 30
0.0
 11
68.7193644723612
 21
5.441074928723896
 31
0.0
  0
SOLID
  5
120
330
1F
100
AcDbEntity
  8
참조1
100
AcDbTrace
 10
68.7193644723612
 20
5.441074928723896
 30
0.0
 11
75.0693644723612
 21
4.425074928723896
 31
0.0
 12
75.0693644723612
 22
6.457074928723896
 32
0.0
 13
75.0693644723612
 23
6.457074928723896
 33
0.0
  0
LINE
  5
121
330
1F
100
AcDbEntity
  8
참조1
100
AcDbLine
 10
81.41936447236121
 20
-5.438925071276109
 30
0.0
 11
68.7193644723612
 21
-5.438925071276109
 31
0.0
  0
SOLID
  5
122
330
1F
100
AcDbEntity
  8
참조1
100
AcDbTrace
 10
68.7193644723612
 20
-5.438925071276109
 30
0.0
 11
75.0693644723612
 21
-6.454925071276109
 31
0.0
 12
75.0693644723612
 22
-4.422925071276109
 32
0.0
 13
75.0693644723612
 23
-4.422925071276109
 33
0.0
  0
MTEXT
  5
123
330
1F
100
AcDbEntity
  8
참조1
100
AcDbMText
 10
78.1037146049872
 20
11.01136670591223
 30
0.0
 40
3.5
 41
0.0
 71
     1
 72
     1
  1
A
  7
SLDTEXTSTYLE0
 73
     1
 44
1.0
  0
MTEXT
  5
124
330
1F
100
AcDbEntity
  8
참조1
100
AcDbMText
 10
78.1037146049872
 20
0.1313667059122219
 30
0.0
 40
3.5
 41
0.0
 71
     1
 72
     1
  1
A
  7
SLDTEXTSTYLE0
 73
     1
 44
1.0
  0
INSERT
  5
12B
330
1F
100
AcDbEntity
  8
해칭선
100
AcDbBlockReference
  2
SW_DOWELSYMBOL_0
 10
0.0
 20
0.0
 30
0.0
  0
LINE
  5
47B
330
1F
100
AcDbEntity
  8
0
  6
Continuous
 62
     1
370
    15
100
AcDbLine
 10
-39.11742147019046
 20
5.159375000000003
 30
0.0
 11
-42.26258236321313
 21
5.159375000000003
 31
0.0
  0
LINE
  5
47C
330
1F
100
AcDbEntity
  8
0
  6
Continuous
 62
     1
370
    15
100
AcDbLine
 10
-28.22556451785947
 20
-5.159375000000005
 30
0.0
 11
-26.98749999999998
 21
-5.159375000000005
 31
0.0
  0
LINE
  5
47D
330
1F
100
AcDbEntity
  8
0
  6
Continuous
 62
     1
370
    15
100
AcDbLine
 10
-42.26258236321313
 20
-5.159374999999998
 30
0.0
 11
-39.11742147019054
 21
-5.159374999999998
 31
0.0
  0
LINE
  5
47E
330
1F
100
AcDbEntity
  8
0
  6
Continuous
 62
     1
370
    15
100
AcDbLine
 10
-26.98749999999998
 20
5.159374999999996
 30
0.0
 11
-28.22556451785942
 21
5.159374999999996
 31
0.0
  0
LINE
  5
47F
330
1F
100
AcDbEntity
  8
외형선
  6
Continuous
370
    15
100
AcDbLine
 10
-21.54402700723826
 20
6.350000000000001
 30
0.0
 11
-25.98749999999998
 21
5.159374999999989
 31
0.0
  0
LINE
  5
480
330
1F
100
AcDbEntity
  8
외형선
  6
Continuous
370
    15
100
AcDbLine
 10
-25.98749999999998
 20
-5.159375000000005
 30
0.0
 11
-21.54402700723826
 21
-6.350000000000017
 31
0.0
  0
LINE
  5
483
330
1F
100
AcDbEntity
  8
외형선
  6
Continuous
370
    15
100
AcDbLine
 10
-25.98749999999998
 20
5.159374999999989
 30
0.0
 11
-26.98749999999998
 21
5.159374999999989
 31
0.0
  0
LINE
  5
484
330
1F
100
AcDbEntity
  8
외형선
  6
Continuous
370
    15
100
AcDbLine
 10
-26.98749999999998
 20
-5.159375000000005
 30
0.0
 11
-25.98749999999998
 21
-5.159375000000005
 31
0.0
  0
SPLINE
  5
485
330
1F
100
AcDbEntity
  8
0
  6
Continuous
 62
     1
370
    15
100
AcDbSpline
210
0.0
220
0.0
230
1.0
 70
     8
 71
     3
 72
    18
 73
    14
 74
     0
 42
0.000000001
 43
0.00000001
 40
0.0
 40
0.0
 40
0.0
 40
0.0
 40
0.0980644582600152
 40
0.1961290811834781
 40
0.2941938544753991
 40
0.3922587638343655
 40
0.4903237949531493
 40
0.5883889335193155
 40
0.6864541652158395
 40
0.7763367091289466
 40
0.866223720334934
 40
0.9561173968185116
 40
1.0
 40
1.0
 40
1.0
 40
1.0
 10
-26.98749999999998
 20
-0.7122384765573038
 30
0.0
 10
-27.66482783269111
 20
-0.3213816255966229
 30
0.0
 10
-29.01948463539824
 20
0.4603327326260989
 30
0.0
 10
-31.05147216512335
 20
1.619031503983755
 30
0.0
 10
-33.08346402995436
 20
2.691746880325752
 30
0.0
 10
-35.11545685607324
 20
3.626613083938465
 30
0.0
 10
-37.14746180062763
 20
4.374534001617461
 30
0.0
 10
-39.17943547449743
 20
4.897524459144328
 30
0.0
 10
-41.15501718378982
 20
5.160046402993657
 30
0.0
 10
-43.07368242361454
 20
5.17708328702973
 30
0.0
 10
-44.93604630250294
 20
4.959827810220474
 30
0.0
 10
-46.48071415776177
 20
4.631789657749279
 30
0.0
 10
-47.40463111677257
 20
4.312503572309445
 30
0.0
 10
-47.70770339076932
 20
4.207768228915184
 30
0.0
  0
SPLINE
  5
486
330
1F
100
AcDbEntity
  8
외형선
  6
Continuous
370
    15
100
AcDbSpline
210
0.0
220
0.0
230
1.0
 70
    24
 71
     3
 72
    19
 73
    15
 74
     0
 42
0.000000001
 43
0.00000001
 40
0.0
 40
0.0
 40
0.0
 40
0.0
 40
0.143072181150783
 40
0.2219225937960614
 40
0.3030596737497592
 40
0.3819100863950403
 40
0.4630471663487413
 40
0.5418975789940218
 40
0.6230346589477215
 40
0.7018850715930026
 40
0.783022151546704
 40
0.8618725641919848
 40
0.9430096441456861
 40
1.0
 40
1.0
 40
1.0
 40
1.0
 10
-26.98749999999995
 20
-5.042193652862488
 30
0.0
 10
-26.98749999999995
 20
-4.757718488951007
 30
0.0
 10
-26.98749999999992
 20
-4.316462433874428
 30
0.0
 10
-26.98750000000003
 20
-3.657032893756125
 30
0.0
 10
-26.98750000000003
 20
-3.136492100737862
 30
0.0
 10
-26.98749999999998
 20
-2.620850168944252
 30
0.0
 10
-26.98750000000003
 20
-2.135205307556774
 30
0.0
 10
-26.98749999999992
 20
-1.68425327633495
 30
0.0
 10
-26.98750000000012
 20
-1.288888376923332
 30
0.0
 10
-26.98749999999986
 20
-0.9534397792474187
 30
0.0
 10
-26.98750000000009
 20
-0.6924108751522133
 30
0.0
 10
-26.98749999999989
 20
-0.5123619285611418
 30
0.0
 10
-26.98749999999995
 20
-0.4168328354581241
 30
0.0
 10
-26.9875
 20
-0.42076914844558
 30
0.0
 10
-26.9875
 20
-0.4223932419980023
 30
0.0
  0
SPLINE
  5
487
330
1F
100
AcDbEntity
  8
0
  6
Continuous
 62
     1
370
    15
100
AcDbSpline
210
0.0
220
0.0
230
1.0
 70
     8
 71
     3
 72
    56
 73
    52
 74
     0
 42
0.000000001
 43
0.00000001
 40
0.0
 40
0.0
 40
0.0
 40
0.0
 40
0.0625000000000005
 40
0.0625000000000005
 40
0.0937500000000008
 40
0.0937500000000008
 40
0.1250000000000011
 40
0.1250000000000011
 40
0.1875000000000016
 40
0.1875000000000016
 40
0.2187500000000012
 40
0.2187500000000012
 40
0.2500000000000009
 40
0.2500000000000009
 40
0.3125000000000003
 40
0.3125000000000003
 40
0.3749999999999996
 40
0.3749999999999996
 40
0.4062499999999986
 40
0.4062499999999986
 40
0.4374999999999977
 40
0.4374999999999977
 40
0.499999999999997
 40
0.499999999999997
 40
0.5312499999999972
 40
0.5312499999999972
 40
0.5624999999999976
 40
0.5624999999999976
 40
0.6249999999999981
 40
0.6249999999999981
 40
0.6562499999999983
 40
0.6562499999999983
 40
0.6874999999999987
 40
0.6874999999999987
 40
0.7187499999999989
 40
0.7187499999999989
 40
0.7499999999999991
 40
0.7499999999999991
 40
0.7812499999999994
 40
0.7812499999999994
 40
0.8124999999999997
 40
0.8124999999999997
 40
0.84375
 40
0.84375
 40
0.8750000000000002
 40
0.8750000000000002
 40
0.9375000000000008
 40
0.9375000000000008
 40
0.9687500000000004
 40
0.9687500000000004
 40
1.0
 40
1.0
 40
1.0
 40
1.0
 10
-52.38749999999998
 20
5.159374999999989
 30
0.0
 10
-51.86167995077334
 20
5.114280822748369
 30
0.0
 10
-51.32795336983843
 20
5.06089528314753
 30
0.0
 10
-50.53428740712223
 20
4.941552850384503
 30
0.0
 10
-50.27196902293726
 20
4.895354399269329
 30
0.0
 10
-49.74311160951384
 20
4.789985696686101
 30
0.0
 10
-49.47744329794204
 20
4.730841599496769
 30
0.0
 10
-48.68142801855276
 20
4.535014619311574
 30
0.0
 10
-48.15641831595217
 20
4.380393899753037
 30
0.0
 10
-47.36066592600817
 20
4.11439834118235
 30
0.0
 10
-47.09491839677531
 20
4.020131477319992
 30
0.0
 10
-46.56557196124043
 20
3.821532538806408
 30
0.0
 10
-46.30319596021712
 20
3.717378682822214
 30
0.0
 10
-45.51031579280049
 20
3.389945089313357
 30
0.0
 10
-44.97644641835
 20
3.15182724102101
 30
0.0
 10
-43.92320937241833
 20
2.647243308425544
 30
0.0
 10
-43.3912304204993
 20
2.378811243005998
 30
0.0
 10
-42.59688326760419
 20
1.960110585627347
 30
0.0
 10
-42.334392039237
 20
1.81819160983931
 30
0.0
 10
-41.80609327305742
 20
1.52936574359672
 30
0.0
 10
-41.54053953890942
 20
1.382494507380357
 30
0.0
 10
-40.74436701287635
 20
0.9370826502859579
 30
0.0
 10
-40.21916089425996
 20
0.6346914472781073
 30
0.0
 10
-39.42377692025962
 20
0.177053250155651
 30
0.0
 10
-39.15798556836642
 20
0.0239456190463436
 30
0.0
 10
-38.62821995145605
 20
-0.2815814697350028
 30
0.0
 10
-38.3655558979037
 20
-0.4337489650594442
 30
0.0
 10
-37.5735657846626
 20
-0.8887139434283859
 30
0.0
 10
-37.03962545059749
 20
-1.190049499002257
 30
0.0
 10
-36.24860291725766
 20
-1.628486148460916
 30
0.0
 10
-35.98543640539742
 20
-1.772596756938825
 30
0.0
 10
-35.45532957694129
 20
-2.056459160338776
 30
0.0
 10
-35.18952959355189
 20
-2.195997896367807
 30
0.0
 10
-34.65958063524439
 20
-2.468641488627057
 30
0.0
 10
-34.39668617765812
 20
-2.601542128041807
 30
0.0
 10
-33.86901543785211
 20
-2.860494867589445
 30
0.0
 10
-33.6036115899468
 20
-2.986636243579675
 30
0.0
 10
-33.07279554975587
 20
-3.230713521858185
 30
0.0
 10
-32.80738748797395
 20
-3.3486475245385
 30
0.0
 10
-32.27970005776867
 20
-3.574964244641486
 30
0.0
 10
-32.01681860101538
 20
-3.683451063091561
 30
0.0
 10
-31.48687847137011
 20
-3.891020801166981
 30
0.0
 10
-31.221078711316
 20
-3.989919314504335
 30
0.0
 10
-30.69096393877233
 20
-4.176770345782779
 30
0.0
 10
-30.42778152362003
 20
-4.264606790412437
 30
0.0
 10
-29.63678533175277
 20
-4.51118125777132
 30
0.0
 10
-29.1028459040342
 20
-4.653254494553686
 30
0.0
 10
-28.31083206381859
 20
-4.827849123058756
 30
0.0
 10
-28.04817810721163
 20
-4.879700822956317
 30
0.0
 10
-27.51842220256324
 20
-4.97072806119951
 30
0.0
 10
-27.25263152065099
 20
-5.009800249435551
 30
0.0
 10
-26.98749999999992
 20
-5.042193652862495
 30
0.0
  0
LINE
  5
488
330
1F
100
AcDbEntity
  8
0
  6
Continuous
 62
     1
370
    15
100
AcDbLine
 10
-52.38749999999998
 20
5.159374999999989
 30
0.0
 11
-52.38749999999998
 21
-0.4420622113164263
 31
0.0
  0
SPLINE
  5
489
330
1F
100
AcDbEntity
  8
0
  6
Continuous
 62
     1
370
    15
100
AcDbSpline
210
0.0
220
0.0
230
1.0
 70
     8
 71
     3
 72
    20
 73
    16
 74
     0
 42
0.000000001
 43
0.00000001
 40
0.0
 40
0.0
 40
0.0
 40
0.0
 40
0.0328569994708144
 40
0.1169524655788412
 40
0.2010480606355671
 40
0.2851437723767943
 40
0.3692395885333374
 40
0.4533354968315464
 40
0.5374314849938349
 40
0.61451039683799
 40
0.6915931396159297
 40
0.768681598212775
 40
0.8457776505677251
 40
0.9228831654069078
 40
1.0
 40
1.0
 40
1.0
 40
1.0
 10
-28.22556451785947
 20
-5.127663254101926
 30
0.0
 10
-28.4902042087929
 20
-5.135699226725131
 30
0.0
 10
-29.43217288649213
 20
-5.164302776250197
 30
0.0
 10
-31.05147218084189
 20
-4.935420764721834
 30
0.0
 10
-33.08346402518924
 20
-4.456543258982372
 30
0.0
 10
-35.11545685941535
 20
-3.731519057090808
 30
0.0
 10
-37.14746179202449
 20
-2.818880375694754
 30
0.0
 10
-39.17943550556776
 20
-1.759911883245018
 30
0.0
 10
-41.15501707219311
 20
-0.642675799599538
 30
0.0
 10
-43.07368280155458
 20
0.4713050375075476
 30
0.0
 10
-44.93604488780135
 20
1.53176365345341
 30
0.0
 10
-46.79854318190421
 20
2.527007363177844
 30
0.0
 10
-48.66127057449122
 20
3.409007284381019
 30
0.0
 10
-50.52426554296346
 20
4.157993866375938
 30
0.0
 10
-51.76639145742086
 20
4.501156033758718
 30
0.0
 10
-52.38749999999998
 20
4.672749711316363
 30
0.0
  0
SPLINE
  5
48A
330
1F
100
AcDbEntity
  8
0
  6
Continuous
 62
     1
370
    15
100
AcDbSpline
210
0.0
220
0.0
230
1.0
 70
     8
 71
     3
 72
    17
 73
    13
 74
     0
 42
0.000000001
 43
0.00000001
 40
0.0
 40
0.0
 40
0.0
 40
0.0
 40
0.1085548396192479
 40
0.2171102553588934
 40
0.3256662317914999
 40
0.434222753465899
 40
0.5427798049078387
 40
0.6513373706206158
 40
0.7598954350857254
 40
0.8594462818379399
 40
0.9590052108537763
 40
1.0
 40
1.0
 40
1.0
 40
1.0
 10
-52.38749999999998
 20
-0.4420622113164263
 30
0.0
 10
-51.71024532250356
 20
-0.8294441620312447
 30
0.0
 10
-50.35573237319633
 20
-1.604210119367779
 30
0.0
 10
-48.32395495081084
 20
-2.677677084988759
 30
0.0
 10
-46.2921649372937
 20
-3.614960134938145
 30
0.0
 10
-44.26036324472931
 20
-4.36565749754778
 30
0.0
 10
-42.22854740980912
 20
-4.891981454482626
 30
0.0
 10
-40.19672845690513
 20
-5.16556192298333
 30
0.0
 10
-38.22106534248774
 20
-5.176253847452757
 30
0.0
 10
-36.301648891739
 20
-4.934138326283063
 30
0.0
 10
-34.80364722693604
 20
-4.606597291898674
 30
0.0
 10
-33.92678760883762
 20
-4.298540841999299
 30
0.0
 10
-33.67103716961167
 20
-4.208691143436384
 30
0.0
  0
SPLINE
  5
48B
330
1F
100
AcDbEntity
  8
0
  6
Continuous
 62
     1
370
    15
100
AcDbSpline
210
0.0
220
0.0
230
1.0
 70
     8
 71
     3
 72
    14
 73
    10
 74
     0
 42
0.000000001
 43
0.00000001
 40
0.0
 40
0.0
 40
0.0
 40
0.0
 40
0.0785237489246197
 40
0.2321243805226844
 40
0.3857374825400129
 40
0.5393293655039548
 40
0.6929012655959543
 40
0.8464568985938938
 40
1.0
 40
1.0
 40
1.0
 40
1.0
 10
-39.11742147019049
 20
5.126198745304833
 30
0.0
 10
-38.79990891866426
 20
5.133395648818122
 30
0.0
 10
-37.86130874558858
 20
5.154670445202426
 30
0.0
 10
-36.30164762985287
 20
4.932900664490503
 30
0.0
 10
-34.43836313004089
 20
4.503003687633544
 30
0.0
 10
-32.57528661817047
 20
3.865343232899981
 30
0.0
 10
-30.71248202532393
 20
3.062957967157402
 30
0.0
 10
-28.84991504783908
 20
2.130490293171227
 30
0.0
 10
-27.60828812717408
 20
1.439059920882037
 30
0.0
 10
-26.98749999999995
 20
1.093358842127407
 30
0.0
  0
LINE
  5
48C
330
1F
100
AcDbEntity
  8
외형선
  6
Continuous
370
    15
100
AcDbLine
 10
-26.98749999999995
 20
1.093358842127422
 30
0.0
 11
-26.9875
 21
-0.7122384765573038
 31
0.0
  0
LINE
  5
48E
330
1F
100
AcDbEntity
  8
외형선
  6
Continuous
370
    15
100
AcDbLine
 10
-26.98749999999995
 20
-5.042193652862488
 30
0.0
 11
-26.98749999999998
 21
-5.159375000000005
 31
0.0
  0
SPLINE
  5
48F
330
1F
100
AcDbEntity
  8
0
  6
Continuous
 62
     1
370
    15
100
AcDbSpline
210
0.0
220
0.0
230
1.0
 70
     8
 71
     3
 72
    13
 73
     9
 74
     0
 42
0.000000001
 43
0.00000001
 40
0.0
 40
0.0
 40
0.0
 40
0.0
 40
0.080112017512813
 40
0.2640533953267752
 40
0.4480084127125399
 40
0.6319815509678827
 40
0.8159772694055663
 40
1.0
 40
1.0
 40
1.0
 40
1.0
 10
-42.26258236321313
 20
-5.131852887423279
 30
0.0
 10
-42.53294564597626
 20
-5.138232778904382
 30
0.0
 10
-43.42407715160686
 20
-5.159261234555644
 30
0.0
 10
-44.93604055393117
 20
-4.957685589835472
 30
0.0
 10
-46.7985443429209
 20
-4.543967026613289
 30
0.0
 10
-48.66127026483297
 20
-3.918672510260365
 30
0.0
 10
-50.52426562039522
 20
-3.133968373291822
 30
0.0
 10
-51.76639148323272
 20
-2.502914117517648
 30
0.0
 10
-52.38749999999998
 20
-2.187363830280106
 30
0.0
  0
LINE
  5
490
330
1F
100
AcDbEntity
  8
0
  6
Continuous
 62
     1
370
    15
100
AcDbLine
 10
-52.38749999999998
 20
-0.4420622113164263
 30
0.0
 11
-52.38749999999995
 21
-5.159375000000012
 31
0.0
  0
SPLINE
  5
491
330
1F
100
AcDbEntity
  8
0
  6
Continuous
 62
     1
370
    15
100
AcDbSpline
210
0.0
220
0.0
230
1.0
 70
     8
 71
     3
 72
    11
 73
     7
 74
     0
 42
0.000000001
 43
0.00000001
 40
0.0
 40
0.0
 40
0.0
 40
0.0
 40
0.3040282914184099
 40
0.6080570933413143
 40
0.9120863614500946
 40
0.9999999999999999
 40
0.9999999999999999
 40
0.9999999999999999
 40
0.9999999999999999
 10
-26.98749999999998
 20
5.109977176381149
 30
0.0
 10
-27.66482782154986
 20
5.139266977620564
 30
0.0
 10
-29.01948460197436
 20
5.197846629280924
 30
0.0
 10
-31.05147229881933
 20
4.932663408888778
 30
0.0
 10
-32.60199020953831
 20
4.596689096853075
 30
0.0
 10
-33.47517903455189
 20
4.279775537669138
 30
0.0
 10
-33.67103716961162
 20
4.208691143436375
 30
0.0
  0
SPLINE
  5
492
330
1F
100
AcDbEntity
  8
외형선
  6
Continuous
370
    15
100
AcDbSpline
210
0.0
220
0.0
230
1.0
 70
    24
 71
     3
 72
    17
 73
    13
 74
     0
 42
0.000000001
 43
0.00000001
 40
0.0
 40
0.0
 40
0.0
 40
0.0
 40
0.0459247798524133
 40
0.1634589289732638
 40
0.2776806407156578
 40
0.3952147898365105
 40
0.5094365015789049
 40
0.626970650699757
 40
0.7411923624421477
 40
0.8587265115629972
 40
0.9289897321865195
 40
1.0
 40
1.0
 40
1.0
 40
1.0
 10
-26.98749999999998
 20
1.165920809175218
 30
0.0
 10
-26.98749999999998
 20
1.200290208310505
 30
0.0
 10
-26.98749999999998
 20
1.322620357527625
 30
0.0
 10
-26.98750000000012
 20
1.606740506661111
 30
0.0
 10
-26.98749999999989
 20
2.008707513404353
 30
0.0
 10
-26.98750000000009
 20
2.461708870326873
 30
0.0
 10
-26.98749999999995
 20
2.955263163179019
 30
0.0
 10
-26.98749999999992
 20
3.468042321059201
 30
0.0
 10
-26.98750000000012
 20
3.994461047710494
 30
0.0
 10
-26.98749999999989
 20
4.444338972957012
 30
0.0
 10
-26.9875
 20
4.81802304264439
 30
0.0
 10
-26.9875
 20
5.012316660135915
 30
0.0
 10
-26.9875
 20
5.109977176381149
 30
0.0
  0
SPLINE
  5
493
330
1F
100
AcDbEntity
  8
0
  6
Continuous
 62
     1
370
    15
100
AcDbSpline
210
0.0
220
0.0
230
1.0
 70
     8
 71
     3
 72
    10
 73
     6
 74
     0
 42
0.000000001
 43
0.00000001
 40
0.0
 40
0.0
 40
0.0
 40
0.0
 40
0.4341568973910977
 40
0.8683160989322936
 40
1.0
 40
1.0
 40
1.0
 40
1.0
 10
-52.38749999999995
 20
-5.159375000000012
 30
0.0
 10
-51.71024529659467
 20
-5.078320911281822
 30
0.0
 10
-50.3557322954694
 20
-4.954158663037568
 30
0.0
 10
-48.79579980773601
 20
-4.600596881203793
 30
0.0
 10
-47.91312164722211
 20
-4.281929098834014
 30
0.0
 10
-47.70770339076935
 20
-4.207768228915186
 30
0.0
  0
LINE
  5
495
330
1F
100
AcDbEntity
  8
외형선
  6
Continuous
370
    15
100
AcDbLine
 10
-25.98749999999998
 20
-0.0000000000000078
 30
0.0
 11
-25.98749999999998
 21
-5.159375000000005
 31
0.0
  0
LINE
  5
496
330
1F
100
AcDbEntity
  8
외형선
  6
Continuous
370
    15
100
AcDbLine
 10
-25.98749999999998
 20
5.159374999999996
 30
0.0
 11
-25.98749999999998
 21
-0.0000000000000078
 31
0.0
  0
LINE
  5
497
330
1F
100
AcDbEntity
  8
외형선
  6
Continuous
370
    15
100
AcDbLine
 10
-21.54402700723826
 20
-0.0000000000000078
 30
0.0
 11
-21.54402700723826
 21
-6.350000000000017
 31
0.0
  0
LINE
  5
498
330
1F
100
AcDbEntity
  8
외형선
  6
Continuous
370
    15
100
AcDbLine
 10
-21.54402700723826
 20
6.350000000000001
 30
0.0
 11
-21.54402700723826
 21
-0.0000000000000078
 31
0.0
  0
SPLINE
  5
499
330
1F
100
AcDbEntity
  8
외형선
  6
Continuous
370
    15
100
AcDbSpline
210
0.0
220
0.0
230
1.0
 70
     8
 71
     3
 72
     8
 73
     4
 74
     0
 42
0.000000001
 43
0.00000001
 40
0.0
 40
0.0
 40
0.0
 40
0.0
 40
1.0
 40
1.0
 40
1.0
 40
1.0
 10
-26.9875
 20
-5.042193652862488
 30
0.0
 10
-26.82040461173394
 20
-5.062609136881869
 30
0.0
 10
-26.65357154603856
 20
-5.080374892126806
 30
0.0
 10
-26.48739039592649
 20
-5.095463753091999
 30
0.0
  0
LINE
  5
49A
330
1F
100
AcDbEntity
  8
외형선
  6
Continuous
370
    15
100
AcDbLine
 10
-26.48739039592649
 20
-0.9969600270047685
 30
0.0
 11
-26.48739039592646
 21
-5.095467513198764
 31
0.0
  0
SPLINE
  5
49B
330
1F
100
AcDbEntity
  8
외형선
  6
Continuous
370
    15
100
AcDbSpline
210
0.0
220
0.0
230
1.0
 70
     8
 71
     3
 72
     8
 73
     4
 74
     0
 42
0.000000001
 43
0.00000001
 40
0.0
 40
0.0
 40
0.0
 40
0.0
 40
1.0
 40
1.0
 40
1.0
 40
1.0
 10
-26.98749999999998
 20
-0.7122384765573038
 30
0.0
 10
-26.82040461173388
 20
-0.8076533150935823
 30
0.0
 10
-26.65357154603856
 20
-0.902645328136942
 30
0.0
 10
-26.48739039592649
 20
-0.9969941816058856
 30
0.0
  0
SPLINE
  5
49C
330
1F
100
AcDbEntity
  8
외형선
  6
Continuous
370
    15
100
AcDbSpline
210
0.0
220
0.0
230
1.0
 70
     8
 71
     3
 72
     8
 73
     4
 74
     0
 42
0.000000001
 43
0.00000001
 40
0.0
 40
0.0
 40
0.0
 40
0.0
 40
1.0
 40
1.0
 40
1.0
 40
1.0
 10
-26.9875
 20
1.093358842127436
 30
0.0
 10
-26.82040461173394
 20
0.9992096753796382
 30
0.0
 10
-26.65357154603856
 20
0.9045376435565438
 30
0.0
 10
-26.48739039592649
 20
0.8095674965996758
 30
0.0
  0
LINE
  5
49D
330
1F
100
AcDbEntity
  8
외형선
  6
Continuous
370
    15
100
AcDbLine
 10
-26.48739039592649
 20
5.062136021007297
 30
0.0
 11
-26.48739039592646
 21
0.8095438299196538
 31
0.0
  0
SPLINE
  5
49E
330
1F
100
AcDbEntity
  8
외형선
  6
Continuous
370
    15
100
AcDbSpline
210
0.0
220
0.0
230
1.0
 70
     8
 71
     3
 72
     8
 73
     4
 74
     0
 42
0.000000001
 43
0.00000001
 40
0.0
 40
0.0
 40
0.0
 40
0.0
 40
1.0
 40
1.0
 40
1.0
 40
1.0
 10
-26.98749999999998
 20
5.109977176381149
 30
0.0
 10
-26.82040461173388
 20
5.096678072120148
 30
0.0
 10
-26.65357154603856
 20
5.080711446712534
 30
0.0
 10
-26.48739039592649
 20
5.062129294325557
 30
0.0
  0
SPLINE
  5
49F
330
1F
100
AcDbEntity
  8
외형선
  6
Continuous
370
    15
100
AcDbSpline
210
0.0
220
0.0
230
1.0
 70
    24
 71
     3
 72
    17
 73
    13
 74
     0
 42
0.000000001
 43
0.00000001
 40
0.0
 40
0.0
 40
0.0
 40
0.0
 40
0.045876935195374
 40
0.1512637457236269
 40
0.2566505562518797
 40
0.3620373667801335
 40
0.4674241773083872
 40
0.5728109878366338
 40
0.6781977983648804
 40
0.7835846088931412
 40
0.8889714194214021
 40
1.0
 40
1.0
 40
1.0
 40
1.0
 10
-26.9875
 20
-0.7848004436050935
 30
0.0
 10
-26.9875
 20
-0.8180633985343284
 30
0.0
 10
-26.98750000000003
 20
-0.9277367918201882
 30
0.0
 10
-26.98749999999995
 20
-1.195408211855935
 30
0.0
 10
-26.98749999999992
 20
-1.572453414004067
 30
0.0
 10
-26.98749999999995
 20
-2.01015057632781
 30
0.0
 10
-26.98749999999998
 20
-2.488308082966747
 30
0.0
 10
-26.98749999999998
 20
-2.99629931391452
 30
0.0
 10
-26.98749999999995
 20
-3.518671090290888
 30
0.0
 10
-26.98749999999998
 20
-4.039961186853831
 30
0.0
 10
-26.98750000000006
 20
-4.5586285309723
 30
0.0
 10
-26.98749999999998
 20
-4.878228047313521
 30
0.0
 10
-26.98749999999995
 20
-5.042193652862573
 30
0.0
  0
SPLINE
  5
4A0
330
1F
100
AcDbEntity
  8
외형선
  6
Continuous
370
    15
100
AcDbSpline
210
0.0
220
0.0
230
1.0
 70
    24
 71
     3
 72
    16
 73
    12
 74
     0
 42
0.000000001
 43
0.00000001
 40
0.0
 40
0.0
 40
0.0
 40
0.0
 40
0.1134745887908577
 40
0.226949177581715
 40
0.3428587848630768
 40
0.4587683921444387
 40
0.5746779994258647
 40
0.6905876067072908
 40
0.8064972139886843
 40
0.922406821270078
 40
1.0
 40
1.0
 40
1.0
 40
1.0
 10
-26.9875
 20
5.109977176381149
 30
0.0
 10
-26.9875
 20
4.952510917139896
 30
0.0
 10
-26.98749999999998
 20
4.637578398657381
 30
0.0
 10
-26.98750000000006
 20
4.128906162790115
 30
0.0
 10
-26.98750000000003
 20
3.609325072728957
 30
0.0
 10
-26.98749999999995
 20
3.090116447655702
 30
0.0
 10
-26.98749999999998
 20
2.591366362383361
 30
0.0
 10
-26.98750000000003
 20
2.124917934709436
 30
0.0
 10
-26.98749999999998
 20
1.709354733335771
 30
0.0
 10
-26.98749999999992
 20
1.381408204236393
 30
0.0
 10
-26.98749999999995
 20
1.227597684281029
 30
0.0
 10
-26.98749999999995
 20
1.165920809175261
 30
0.0
  0
LINE
  5
51F
330
1F
100
AcDbEntity
  8
외형선
  6
Continuous
370
    15
100
AcDbLine
 10
-4.203700000000028
 20
4.826000000000001
 30
0.0
 11
4.203700000000024
 21
4.826000000000001
 31
0.0
  0
LINE
  5
520
330
1F
100
AcDbEntity
  8
외형선
  6
Continuous
370
    15
100
AcDbLine
 10
-4.203700000000028
 20
4.826000000000001
 30
0.0
 11
-5.727700000000029
 21
6.350000000000001
 31
0.0
  0
LINE
  5
521
330
1F
100
AcDbEntity
  8
외형선
  6
Continuous
370
    15
100
AcDbLine
 10
4.203700000000024
 20
4.826000000000001
 30
0.0
 11
5.727700000000025
 21
6.350000000000001
 31
0.0
  0
LINE
  5
522
330
1F
100
AcDbEntity
  8
외형선
  6
Continuous
370
    15
100
AcDbLine
 10
-5.727700000000038
 20
6.350000000000001
 30
0.0
 11
-21.54402700723826
 21
6.350000000000001
 31
0.0
  0
ENDSEC
  0
SECTION
  2
OBJECTS
  0
DICTIONARY
  5
C
330
0
100
AcDbDictionary
281
     1
  3
ACAD_GROUP
350
D
  3
ACAD_IMAGE_VARS
350
14F
  3
ACAD_LAYOUT
350
1A
  3
ACAD_MLINESTYLE
350
17
  3
ACAD_PLOTSETTINGS
350
19
  3
ACAD_PLOTSTYLENAME
350
E
  3
ACAD_SCALELIST
350
47
  3
APPDATA
350
14D
  3
DWGPROPS
350
546
  0
DICTIONARY
  5
1D7
330
2
100
AcDbDictionary
280
     1
281
     1
  3
ACAD_LAYERSTATES
360
1D8
  0
DICTIONARY
  5
D
102
{ACAD_REACTORS
330
C
102
}
330
C
100
AcDbDictionary
281
     1
  0
RASTERVARIABLES
  5
14F
102
{ACAD_REACTORS
330
C
102
}
330
C
100
AcDbRasterVariables
 90
        0
 70
     1
 71
     1
 72
     1
  0
DICTIONARY
  5
1A
102
{ACAD_REACTORS
330
C
102
}
330
C
100
AcDbDictionary
281
     1
  3
Layout1
350
1E
  3
Layout2
350
26
  3
Model
350
22
  0
DICTIONARY
  5
17
102
{ACAD_REACTORS
330
C
102
}
330
C
100
AcDbDictionary
281
     1
  3
Standard
350
18
  0
DICTIONARY
  5
19
102
{ACAD_REACTORS
330
C
102
}
330
C
100
AcDbDictionary
281
     1
  0
ACDBDICTIONARYWDFLT
  5
E
102
{ACAD_REACTORS
330
C
102
}
330
C
100
AcDbDictionary
281
     1
  3
Normal
350
F
100
AcDbDictionaryWithDefault
340
F
  0
DICTIONARY
  5
47
102
{ACAD_REACTORS
330
C
102
}
330
C
100
AcDbDictionary
281
     1
  3
A0
350
48
  3
A1
350
49
  3
A2
350
4A
  3
A3
350
4B
  3
A4
350
4C
  3
A5
350
4D
  3
A6
350
4E
  3
A7
350
4F
  3
A8
350
50
  3
A9
350
51
  3
B0
350
52
  3
B1
350
53
  3
B2
350
54
  3
B3
350
55
  3
B4
350
56
  3
B5
350
57
  3
B6
350
58
  3
B7
350
59
  3
B8
350
5A
  3
B9
350
5B
  3
C0
350
5C
  3
C1
350
5D
  3
C2
350
5E
  3
C3
350
5F
  3
C4
350
60
  3
C5
350
61
  3
C6
350
62
  3
C7
350
63
  3
C8
350
64
  3
C9
350
65
  3
D0
350
66
  3
D1
350
67
  3
D2
350
68
  0
DICTIONARY
  5
14D
102
{ACAD_REACTORS
330
C
102
}
330
C
100
AcDbDictionary
281
     1
  0
XRECORD
  5
546
102
{ACAD_REACTORS
330
C
102
}
330
C
100
AcDbXrecord
280
     1
  1
DWGPROPS COOKIE
  2

  3

  4

  6

  7

  8
12017012
  9

300
=
301
=
302
=
303
=
304
=
305
=
306
=
307
=
308
=
309
=
 40
0.0
 41
2458313.097930752
 42
2458319.015515313
  1

 90
        0
  0
DICTIONARY
  5
1D8
102
{ACAD_REACTORS
330
1D7
102
}
330
1D7
100
AcDbDictionary
281
     1
  0
LAYOUT
  5
1E
102
{ACAD_REACTORS
330
1A
102
}
330
1A
100
AcDbPlotSettings
  1

  2
none_device
  4

  6

 40
0.0
 41
0.0
 42
0.0
 43
0.0
 44
0.0
 45
0.0
 46
0.0
 47
0.0
 48
0.0
 49
0.0
140
0.0
141
0.0
142
1.0
143
1.0
 70
   688
 72
     1
 73
     0
 74
     5
  7

 75
    16
147
1.0
148
0.0
149
0.0
100
AcDbLayout
  1
Layout1
 70
     1
 71
     1
 10
0.0
 20
0.0
 11
420.0
 21
297.0
 12
0.0
 22
0.0
 32
0.0
 14
1.000000000000000E+20
 24
1.000000000000000E+20
 34
1.000000000000000E+20
 15
-1.000000000000000E+20
 25
-1.000000000000000E+20
 35
-1.000000000000000E+20
146
0.0
 13
0.0
 23
0.0
 33
0.0
 16
1.0
 26
0.0
 36
0.0
 17
0.0
 27
1.0
 37
0.0
 76
     0
330
1B
  0
LAYOUT
  5
26
102
{ACAD_REACTORS
330
1A
102
}
330
1A
100
AcDbPlotSettings
  1

  2
none_device
  4

  6

 40
0.0
 41
0.0
 42
0.0
 43
0.0
 44
0.0
 45
0.0
 46
0.0
 47
0.0
 48
0.0
 49
0.0
140
0.0
141
0.0
142
1.0
143
1.0
 70
   688
 72
     1
 73
     0
 74
     5
  7

 75
    16
147
1.0
148
0.0
149
0.0
100
AcDbLayout
  1
Layout2
 70
     1
 71
     2
 10
0.0
 20
0.0
 11
0.0
 21
0.0
 12
0.0
 22
0.0
 32
0.0
 14
0.0
 24
0.0
 34
0.0
 15
0.0
 25
0.0
 35
0.0
146
0.0
 13
0.0
 23
0.0
 33
0.0
 16
1.0
 26
0.0
 36
0.0
 17
0.0
 27
1.0
 37
0.0
 76
     0
330
23
  0
LAYOUT
  5
22
102
{ACAD_REACTORS
330
1A
102
}
330
1A
100
AcDbPlotSettings
  1

  2
none_device
  4
ANSI_A_(11.00_x_8.50_Inches)
  6

 40
6.35
 41
19.05
 42
6.35000508
 43
19.05000254
 44
279.4
 45
215.9
 46
61.47075058006798
 47
82.09211525598582
 48
0.0
 49
0.0
140
0.0
141
0.0
142
0.0418462529351176
143
1.0
 70
  1696
 72
     0
 73
     0
 74
     0
  7

 75
     0
147
0.0235690232323232
148
0.0
149
0.0
100
AcDbLayout
  1
Model
 70
     1
 71
     0
 10
0.0
 20
0.0
 11
420.0
 21
297.0
 12
0.0
 22
0.0
 32
0.0
 14
-68.96875000000007
 24
-49.97180738881174
 34
0.0
 15
81.41936447236121
 25
43.70087500000007
 35
0.0
146
0.0
 13
0.0
 23
0.0
 33
0.0
 16
1.0
 26
0.0
 36
0.0
 17
0.0
 27
1.0
 37
0.0
 76
     0
330
1F
331
29
  0
MLINESTYLE
  5
18
102
{ACAD_REACTORS
330
17
102
}
330
17
100
AcDbMlineStyle
  2
Standard
 70
     0
  3

 62
   256
 51
90.0
 52
90.0
 71
     2
 49
0.5
 62
   256
  6
BYLAYER
 49
-0.5
 62
   256
  6
BYLAYER
  0
ACDBPLACEHOLDER
  5
F
102
{ACAD_REACTORS
330
E
102
}
330
E
  0
SCALE
  5
48
102
{ACAD_REACTORS
330
47
102
}
330
47
100
AcDbScale
 70
     0
300
1:1
140
1.0
141
1.0
290
     1
  0
SCALE
  5
49
102
{ACAD_REACTORS
330
47
102
}
330
47
100
AcDbScale
 70
     0
300
1:2
140
1.0
141
2.0
290
     0
  0
SCALE
  5
4A
102
{ACAD_REACTORS
330
47
102
}
330
47
100
AcDbScale
 70
     0
300
1:4
140
1.0
141
4.0
290
     0
  0
SCALE
  5
4B
102
{ACAD_REACTORS
330
47
102
}
330
47
100
AcDbScale
 70
     0
300
1:5
140
1.0
141
5.0
290
     0
  0
SCALE
  5
4C
102
{ACAD_REACTORS
330
47
102
}
330
47
100
AcDbScale
 70
     0
300
1:8
140
1.0
141
8.0
290
     0
  0
SCALE
  5
4D
102
{ACAD_REACTORS
330
47
102
}
330
47
100
AcDbScale
 70
     0
300
1:10
140
1.0
141
10.0
290
     0
  0
SCALE
  5
4E
102
{ACAD_REACTORS
330
47
102
}
330
47
100
AcDbScale
 70
     0
300
1:16
140
1.0
141
16.0
290
     0
  0
SCALE
  5
4F
102
{ACAD_REACTORS
330
47
102
}
330
47
100
AcDbScale
 70
     0
300
1:20
140
1.0
141
20.0
290
     0
  0
SCALE
  5
50
102
{ACAD_REACTORS
330
47
102
}
330
47
100
AcDbScale
 70
     0
300
1:30
140
1.0
141
30.0
290
     0
  0
SCALE
  5
51
102
{ACAD_REACTORS
330
47
102
}
330
47
100
AcDbScale
 70
     0
300
1:40
140
1.0
141
40.0
290
     0
  0
SCALE
  5
52
102
{ACAD_REACTORS
330
47
102
}
330
47
100
AcDbScale
 70
     0
300
1:50
140
1.0
141
50.0
290
     0
  0
SCALE
  5
53
102
{ACAD_REACTORS
330
47
102
}
330
47
100
AcDbScale
 70
     0
300
1:100
140
1.0
141
100.0
290
     0
  0
SCALE
  5
54
102
{ACAD_REACTORS
330
47
102
}
330
47
100
AcDbScale
 70
     0
300
2:1
140
2.0
141
1.0
290
     0
  0
SCALE
  5
55
102
{ACAD_REACTORS
330
47
102
}
330
47
100
AcDbScale
 70
     0
300
4:1
140
4.0
141
1.0
290
     0
  0
SCALE
  5
56
102
{ACAD_REACTORS
330
47
102
}
330
47
100
AcDbScale
 70
     0
300
8:1
140
8.0
141
1.0
290
     0
  0
SCALE
  5
57
102
{ACAD_REACTORS
330
47
102
}
330
47
100
AcDbScale
 70
     0
300
10:1
140
10.0
141
1.0
290
     0
  0
SCALE
  5
58
102
{ACAD_REACTORS
330
47
102
}
330
47
100
AcDbScale
 70
     0
300
100:1
140
100.0
141
1.0
290
     0
  0
SCALE
  5
59
102
{ACAD_REACTORS
330
47
102
}
330
47
100
AcDbScale
 70
     0
300
1/128" = 1'-0"
140
0.0078125
141
12.0
290
     0
  0
SCALE
  5
5A
102
{ACAD_REACTORS
330
47
102
}
330
47
100
AcDbScale
 70
     0
300
1/64" = 1'-0"
140
0.015625
141
12.0
290
     0
  0
SCALE
  5
5B
102
{ACAD_REACTORS
330
47
102
}
330
47
100
AcDbScale
 70
     0
300
1/32" = 1'-0"
140
0.03125
141
12.0
290
     0
  0
SCALE
  5
5C
102
{ACAD_REACTORS
330
47
102
}
330
47
100
AcDbScale
 70
     0
300
1/16" = 1'-0"
140
0.0625
141
12.0
290
     0
  0
SCALE
  5
5D
102
{ACAD_REACTORS
330
47
102
}
330
47
100
AcDbScale
 70
     0
300
3/32" = 1'-0"
140
0.09375
141
12.0
290
     0
  0
SCALE
  5
5E
102
{ACAD_REACTORS
330
47
102
}
330
47
100
AcDbScale
 70
     0
300
1/8" = 1'-0"
140
0.125
141
12.0
290
     0
  0
SCALE
  5
5F
102
{ACAD_REACTORS
330
47
102
}
330
47
100
AcDbScale
 70
     0
300
3/16" = 1'-0"
140
0.1875
141
12.0
290
     0
  0
SCALE
  5
60
102
{ACAD_REACTORS
330
47
102
}
330
47
100
AcDbScale
 70
     0
300
1/4" = 1'-0"
140
0.25
141
12.0
290
     0
  0
SCALE
  5
61
102
{ACAD_REACTORS
330
47
102
}
330
47
100
AcDbScale
 70
     0
300
3/8" = 1'-0"
140
0.375
141
12.0
290
     0
  0
SCALE
  5
62
102
{ACAD_REACTORS
330
47
102
}
330
47
100
AcDbScale
 70
     0
300
1/2" = 1'-0"
140
0.5
141
12.0
290
     0
  0
SCALE
  5
63
102
{ACAD_REACTORS
330
47
102
}
330
47
100
AcDbScale
 70
     0
300
3/4" = 1'-0"
140
0.75
141
12.0
290
     0
  0
SCALE
  5
64
102
{ACAD_REACTORS
330
47
102
}
330
47
100
AcDbScale
 70
     0
300
1" = 1'-0"
140
1.0
141
12.0
290
     0
  0
SCALE
  5
65
102
{ACAD_REACTORS
330
47
102
}
330
47
100
AcDbScale
 70
     0
300
1-1/2" = 1'-0"
140
1.5
141
12.0
290
     0
  0
SCALE
  5
66
102
{ACAD_REACTORS
330
47
102
}
330
47
100
AcDbScale
 70
     0
300
3" = 1'-0"
140
3.0
141
12.0
290
     0
  0
SCALE
  5
67
102
{ACAD_REACTORS
330
47
102
}
330
47
100
AcDbScale
 70
     0
300
6" = 1'-0"
140
6.0
141
12.0
290
     0
  0
SCALE
  5
68
102
{ACAD_REACTORS
330
47
102
}
330
47
100
AcDbScale
 70
     0
300
1'-0" = 1'-0"
140
12.0
141
12.0
290
     0
  0
ENDSEC
  0
EOF
