  0
SECTION
  2
HEADER
  9
$ACADVER
  1
AC1015
  9
$ACADMAINTVER
 70
     6
  9
$DWGCODEPAGE
  3
ANSI_949
  9
$INSBASE
 10
0.0
 20
0.0
 30
0.0
  9
$EXTMIN
 10
-68.96875000000007
 20
-49.97180738881174
 30
0.0
  9
$EXTMAX
 10
81.41936447236121
 20
43.61962500000006
 30
0.0
  9
$LIMMIN
 10
0.0
 20
0.0
  9
$LIMMAX
 10
420.0
 20
297.0
  9
$ORTHOMODE
 70
     1
  9
$REGENMODE
 70
     1
  9
$FILLMODE
 70
     1
  9
$QTEXTMODE
 70
     0
  9
$MIRRTEXT
 70
     1
  9
$LTSCALE
 40
1.0
  9
$ATTMODE
 70
     1
  9
$TEXTSIZE
 40
3.5
  9
$TRACEWID
 40
1.0
  9
$TEXTSTYLE
  7
Standard
  9
$CLAYER
  8
0
  9
$CELTYPE
  6
ByLayer
  9
$CECOLOR
 62
   256
  9
$CELTSCALE
 40
1.0
  9
$DISPSILH
 70
     0
  9
$DIMSCALE
 40
1.0
  9
$DIMASZ
 40
3.302
  9
$DIMEXO
 40
1.0
  9
$DIMDLI
 40
3.75
  9
$DIMRND
 40
0.0
  9
$DIMDLE
 40
0.0
  9
$DIMEXE
 40
1.0
  9
$DIMTP
 40
0.0
  9
$DIMTM
 40
0.0
  9
$DIMTXT
 40
3.5
  9
$DIMCEN
 40
2.5
  9
$DIMTSZ
 40
0.0
  9
$DIMTOL
 70
     0
  9
$DIMLIM
 70
     0
  9
$DIMTIH
 70
     1
  9
$DIMTOH
 70
     1
  9
$DIMSE1
 70
     0
  9
$DIMSE2
 70
     0
  9
$DIMTAD
 70
     1
  9
$DIMZIN
 70
     0
  9
$DIMBLK
  1

  9
$DIMASO
 70
     1
  9
$DIMSHO
 70
     1
  9
$DIMPOST
  1

  9
$DIMAPOST
  1

  9
$DIMALT
 70
     0
  9
$DIMALTD
 70
     3
  9
$DIMALTF
 40
0.0393700787401575
  9
$DIMLFAC
 40
1.0
  9
$DIMTOFL
 70
     1
  9
$DIMTVP
 40
0.0
  9
$DIMTIX
 70
     0
  9
$DIMSOXD
 70
     0
  9
$DIMSAH
 70
     0
  9
$DIMBLK1
  1

  9
$DIMBLK2
  1

  9
$DIMSTYLE
  2
ISO-25
  9
$DIMCLRD
 70
     0
  9
$DIMCLRE
 70
     0
  9
$DIMCLRT
 70
     0
  9
$DIMTFAC
 40
1.0
  9
$DIMGAP
 40
1.524
  9
$DIMJUST
 70
     0
  9
$DIMSD1
 70
     0
  9
$DIMSD2
 70
     0
  9
$DIMTOLJ
 70
     0
  9
$DIMTZIN
 70
     0
  9
$DIMALTZ
 70
     0
  9
$DIMALTTZ
 70
     0
  9
$DIMUPT
 70
     0
  9
$DIMDEC
 70
     2
  9
$DIMTDEC
 70
     2
  9
$DIMALTU
 70
     2
  9
$DIMALTTD
 70
     3
  9
$DIMTXSTY
  7
Standard
  9
$DIMAUNIT
 70
     0
  9
$DIMADEC
 70
     2
  9
$DIMALTRND
 40
0.0
  9
$DIMAZIN
 70
     0
  9
$DIMDSEP
 70
    44
  9
$DIMATFIT
 70
     3
  9
$DIMFRAC
 70
     0
  9
$DIMLDRBLK
  1

  9
$DIMLUNIT
 70
     2
  9
$DIMLWD
 70
    -2
  9
$DIMLWE
 70
    -2
  9
$DIMTMOVE
 70
     0
  9
$LUNITS
 70
     2
  9
$LUPREC
 70
     2
  9
$SKETCHINC
 40
1.0
  9
$FILLETRAD
 40
10.0
  9
$AUNITS
 70
     0
  9
$AUPREC
 70
     2
  9
$MENU
  1
.
  9
$ELEVATION
 40
0.0
  9
$PELEVATION
 40
0.0
  9
$THICKNESS
 40
0.0
  9
$LIMCHECK
 70
     0
  9
$CHAMFERA
 40
0.0
  9
$CHAMFERB
 40
0.0
  9
$CHAMFERC
 40
0.0
  9
$CHAMFERD
 40
0.0
  9
$SKPOLY
 70
     0
  9
$TDCREATE
 40
2458313.47377794
  9
$TDUCREATE
 40
2458313.09877794
  9
$TDUPDATE
 40
2458319.39018713
  9
$TDUUPDATE
 40
2458319.01518713
  9
$TDINDWG
 40
0.0018285532
  9
$TDUSRTIMER
 40
2458319.015102998
  9
$USRTIMER
 70
     1
  9
$ANGBASE
 50
0.0
  9
$ANGDIR
 70
     0
  9
$PDMODE
 70
     0
  9
$PDSIZE
 40
-1.0
  9
$PLINEWID
 40
0.0
  9
$SPLFRAME
 70
     0
  9
$SPLINETYPE
 70
     6
  9
$SPLINESEGS
 70
     8
  9
$HANDSEED
  5
3E3
  9
$SURFTAB1
 70
     6
  9
$SURFTAB2
 70
     6
  9
$SURFTYPE
 70
     6
  9
$SURFU
 70
     6
  9
$SURFV
 70
     6
  9
$UCSBASE
  2

  9
$UCSNAME
  2

  9
$UCSORG
 10
0.0
 20
0.0
 30
0.0
  9
$UCSXDIR
 10
1.0
 20
0.0
 30
0.0
  9
$UCSYDIR
 10
0.0
 20
1.0
 30
0.0
  9
$UCSORTHOREF
  2

  9
$UCSORTHOVIEW
 70
     0
  9
$UCSORGTOP
 10
0.0
 20
0.0
 30
0.0
  9
$UCSORGBOTTOM
 10
0.0
 20
0.0
 30
0.0
  9
$UCSORGLEFT
 10
0.0
 20
0.0
 30
0.0
  9
$UCSORGRIGHT
 10
0.0
 20
0.0
 30
0.0
  9
$UCSORGFRONT
 10
0.0
 20
0.0
 30
0.0
  9
$UCSORGBACK
 10
0.0
 20
0.0
 30
0.0
  9
$PUCSBASE
  2

  9
$PUCSNAME
  2

  9
$PUCSORG
 10
0.0
 20
0.0
 30
0.0
  9
$PUCSXDIR
 10
1.0
 20
0.0
 30
0.0
  9
$PUCSYDIR
 10
0.0
 20
1.0
 30
0.0
  9
$PUCSORTHOREF
  2

  9
$PUCSORTHOVIEW
 70
     0
  9
$PUCSORGTOP
 10
0.0
 20
0.0
 30
0.0
  9
$PUCSORGBOTTOM
 10
0.0
 20
0.0
 30
0.0
  9
$PUCSORGLEFT
 10
0.0
 20
0.0
 30
0.0
  9
$PUCSORGRIGHT
 10
0.0
 20
0.0
 30
0.0
  9
$PUCSORGFRONT
 10
0.0
 20
0.0
 30
0.0
  9
$PUCSORGBACK
 10
0.0
 20
0.0
 30
0.0
  9
$USERI1
 70
     0
  9
$USERI2
 70
     0
  9
$USERI3
 70
     0
  9
$USERI4
 70
     0
  9
$USERI5
 70
     0
  9
$USERR1
 40
0.0
  9
$USERR2
 40
0.0
  9
$USERR3
 40
0.0
  9
$USERR4
 40
0.0
  9
$USERR5
 40
0.0
  9
$WORLDVIEW
 70
     1
  9
$SHADEDGE
 70
     3
  9
$SHADEDIF
 70
    70
  9
$TILEMODE
 70
     1
  9
$MAXACTVP
 70
    64
  9
$PINSBASE
 10
0.0
 20
0.0
 30
0.0
  9
$PLIMCHECK
 70
     0
  9
$PEXTMIN
 10
1.000000000000000E+20
 20
1.000000000000000E+20
 30
1.000000000000000E+20
  9
$PEXTMAX
 10
-1.000000000000000E+20
 20
-1.000000000000000E+20
 30
-1.000000000000000E+20
  9
$PLIMMIN
 10
0.0
 20
0.0
  9
$PLIMMAX
 10
0.0
 20
0.0
  9
$UNITMODE
 70
     0
  9
$VISRETAIN
 70
     1
  9
$PLINEGEN
 70
     0
  9
$PSLTSCALE
 70
     1
  9
$TREEDEPTH
 70
  3020
  9
$CMLSTYLE
  2
Standard
  9
$CMLJUST
 70
     0
  9
$CMLSCALE
 40
20.0
  9
$PROXYGRAPHICS
 70
     1
  9
$MEASUREMENT
 70
     1
  9
$CELWEIGHT
370
    -1
  9
$ENDCAPS
280
     0
  9
$JOINSTYLE
280
     0
  9
$LWDISPLAY
290
     1
  9
$INSUNITS
 70
     4
  9
$HYPERLINKBASE
  1

  9
$STYLESHEET
  1

  9
$XEDIT
290
     1
  9
$CEPSNTYPE
380
     0
  9
$PSTYLEMODE
290
     1
  9
$FINGERPRINTGUID
  2
{25838CC1-CC34-443A-BD70-3A8CD90937DE}
  9
$VERSIONGUID
  2
{FAEB1C32-E019-11D5-929B-00C0DF256EC4}
  9
$EXTNAMES
290
     1
  9
$PSVPSCALE
 40
0.0
  9
$OLESTARTUP
290
     0
  0
ENDSEC
  0
SECTION
  2
CLASSES
  0
CLASS
  1
ACDBDICTIONARYWDFLT
  2
AcDbDictionaryWithDefault
  3
ObjectDBX Classes
 90
        0
280
     0
281
     0
  0
CLASS
  1
VISUALSTYLE
  2
AcDbVisualStyle
  3
ObjectDBX Classes
 90
     4095
280
     0
281
     0
  0
CLASS
  1
MATERIAL
  2
AcDbMaterial
  3
ObjectDBX Classes
 90
     1153
280
     0
281
     0
  0
CLASS
  1
SCALE
  2
AcDbScale
  3
ObjectDBX Classes
 90
     1153
280
     0
281
     0
  0
CLASS
  1
SUN
  2
AcDbSun
  3
SCENEOE
 90
     1153
280
     0
281
     0
  0
CLASS
  1
ACDBPLACEHOLDER
  2
AcDbPlaceHolder
  3
ObjectDBX Classes
 90
        0
280
     0
281
     0
  0
CLASS
  1
LAYOUT
  2
AcDbLayout
  3
ObjectDBX Classes
 90
        0
280
     0
281
     0
  0
CLASS
  1
TABLESTYLE
  2
AcDbTableStyle
  3
ObjectDBX Classes
 90
     4095
280
     0
281
     0
  0
CLASS
  1
MLEADERSTYLE
  2
AcDbMLeaderStyle
  3
ACDB_MLEADERSTYLE_CLASS
 90
     4095
280
     0
281
     0
  0
CLASS
  1
RASTERVARIABLES
  2
AcDbRasterVariables
  3
ISM
 90
        0
280
     0
281
     0
  0
ENDSEC
  0
SECTION
  2
TABLES
  0
TABLE
  2
VPORT
  5
8
330
0
100
AcDbSymbolTable
 70
     1
  0
VPORT
  5
29
330
8
100
AcDbSymbolTableRecord
100
AcDbViewportTableRecord
  2
*Active
 70
     0
 10
0.0
 20
0.0
 11
1.0
 21
1.0
 12
-9.098827484880793
 22
-6.021309265664231
 13
0.0
 23
0.0
 14
10.0
 24
10.0
 15
10.0
 25
10.0
 16
0.0
 26
0.0
 36
1.0
 17
0.0
 27
0.0
 37
0.0
 40
130.1116883068836
 41
1.632093933463796
 42
50.0
 43
0.0
 44
0.0
 50
0.0
 51
0.0
 71
    16
 72
  2000
 73
     1
 74
     3
 75
     0
 76
     0
 77
     0
 78
     0
281
     0
 65
     1
110
0.0
120
0.0
130
0.0
111
1.0
121
0.0
131
0.0
112
0.0
122
1.0
132
0.0
 79
     0
146
0.0
  0
ENDTAB
  0
TABLE
  2
LTYPE
  5
5
330
0
100
AcDbSymbolTable
 70
     6
  0
LTYPE
  5
14
330
5
100
AcDbSymbolTableRecord
100
AcDbLinetypeTableRecord
  2
ByBlock
 70
     0
  3

 72
    65
 73
     0
 40
0.0
  0
LTYPE
  5
15
330
5
100
AcDbSymbolTableRecord
100
AcDbLinetypeTableRecord
  2
ByLayer
 70
     0
  3

 72
    65
 73
     0
 40
0.0
  0
LTYPE
  5
16
330
5
100
AcDbSymbolTableRecord
100
AcDbLinetypeTableRecord
  2
Continuous
 70
     0
  3
Solid line
 72
    65
 73
     0
 40
0.0
  0
LTYPE
  5
6A
330
5
100
AcDbSymbolTableRecord
100
AcDbLinetypeTableRecord
  2
HIDDEN
 70
     0
  3
Hidden __ __ __ __ __ __ __ __ __ __ __ __ __ __
 72
    65
 73
     2
 40
1.905
 49
1.27
 74
     0
 49
-0.635
 74
     0
  0
LTYPE
  5
6B
330
5
100
AcDbSymbolTableRecord
100
AcDbLinetypeTableRecord
  2
PHANTOM
 70
     0
  3
Phantom ______  __  __  ______  __  __  ______
 72
    65
 73
     6
 40
12.7
 49
6.35
 74
     0
 49
-1.27
 74
     0
 49
1.27
 74
     0
 49
-1.27
 74
     0
 49
1.27
 74
     0
 49
-1.27
 74
     0
  0
LTYPE
  5
6C
330
5
100
AcDbSymbolTableRecord
100
AcDbLinetypeTableRecord
  2
CENTER
 70
     0
  3
Center ____ _ ____ _ ____ _ ____ _ ____ _ ____
 72
    65
 73
     4
 40
10.16
 49
6.35
 74
     0
 49
-1.27
 74
     0
 49
1.27
 74
     0
 49
-1.27
 74
     0
  0
LTYPE
  5
6D
330
5
100
AcDbSymbolTableRecord
100
AcDbLinetypeTableRecord
  2
CENTERX2
 70
     0
  3
Center (2x) ________  __  ________  __  _____
 72
    65
 73
     4
 40
20.32
 49
12.7
 74
     0
 49
-2.54
 74
     0
 49
2.54
 74
     0
 49
-2.54
 74
     0
  0
LTYPE
  5
6E
330
5
100
AcDbSymbolTableRecord
100
AcDbLinetypeTableRecord
  2
DOT2
 70
     0
  3
Dot (.5x) ........................................
 72
    65
 73
     2
 40
0.635
 49
0.0
 74
     0
 49
-0.635
 74
     0
  0
ENDTAB
  0
TABLE
  2
LAYER
  5
2
102
{ACAD_XDICTIONARY
360
1D7
102
}
330
0
100
AcDbSymbolTable
 70
    18
  0
LAYER
  5
10
330
2
100
AcDbSymbolTableRecord
100
AcDbLayerTableRecord
  2
0
 70
     0
 62
     7
  6
Continuous
370
    -3
390
F
  0
LAYER
  5
6F
330
2
100
AcDbSymbolTableRecord
100
AcDbLayerTableRecord
  2
FORMAT
 70
     0
 62
     2
  6
Continuous
370
    -3
390
F
  0
LAYER
  5
70
330
2
100
AcDbSymbolTableRecord
100
AcDbLayerTableRecord
  2
외형선
 70
     0
 62
     4
  6
Continuous
370
    30
390
F
  0
LAYER
  5
71
330
2
100
AcDbSymbolTableRecord
100
AcDbLayerTableRecord
  2
숨은선
 70
     0
 62
     2
  6
HIDDEN
370
    15
390
F
  0
LAYER
  5
72
330
2
100
AcDbSymbolTableRecord
100
AcDbLayerTableRecord
  2
중심선
 70
     0
 62
     1
  6
CENTERX2
370
    -3
390
F
  0
LAYER
  5
73
330
2
100
AcDbSymbolTableRecord
100
AcDbLayerTableRecord
  2
파단선
 70
     0
 62
     4
  6
Continuous
370
    -3
390
F
  0
LAYER
  5
74
330
2
100
AcDbSymbolTableRecord
100
AcDbLayerTableRecord
  2
해칭선
 70
     0
 62
   100
  6
Continuous
370
    -3
390
F
  0
LAYER
  5
75
330
2
100
AcDbSymbolTableRecord
100
AcDbLayerTableRecord
  2
가는실선
 70
     0
 62
     4
  6
Continuous
370
    -3
390
F
  0
LAYER
  5
76
330
2
100
AcDbSymbolTableRecord
100
AcDbLayerTableRecord
  2
치수_보조선
 70
     0
 62
     4
  6
Continuous
370
    -3
390
F
  0
LAYER
  5
77
330
2
100
AcDbSymbolTableRecord
100
AcDbLayerTableRecord
  2
치수문자_일반주서
 70
     0
 62
     7
  6
Continuous
370
    15
390
F
  0
LAYER
  5
78
330
2
100
AcDbSymbolTableRecord
100
AcDbLayerTableRecord
  2
개별주서
 70
     0
 62
   100
  6
Continuous
370
    30
390
F
  0
LAYER
  5
79
330
2
100
AcDbSymbolTableRecord
100
AcDbLayerTableRecord
  2
중간선
 70
     0
 62
     2
  6
Continuous
370
    15
390
F
  0
LAYER
  5
7A
330
2
100
AcDbSymbolTableRecord
100
AcDbLayerTableRecord
  2
윤곽선
 70
     0
 62
     3
  6
Continuous
370
    40
390
F
  0
LAYER
  5
7B
330
2
100
AcDbSymbolTableRecord
100
AcDbLayerTableRecord
  2
중심마크
 70
     0
 62
   100
  6
Continuous
370
    30
390
F
  0
LAYER
  5
7C
330
2
100
AcDbSymbolTableRecord
100
AcDbLayerTableRecord
  2
가상선
 70
     0
 62
     4
  6
PHANTOM
370
    -3
390
F
  0
LAYER
  5
7D
330
2
100
AcDbSymbolTableRecord
100
AcDbLayerTableRecord
  2
특수지정선
 70
     0
 62
     5
  6
CENTERX2
370
    60
390
F
  0
LAYER
  5
7E
330
2
100
AcDbSymbolTableRecord
100
AcDbLayerTableRecord
  2
참조1
 70
     0
 62
    -4
  6
Continuous
370
    -3
390
F
  0
LAYER
  5
151
330
2
100
AcDbSymbolTableRecord
100
AcDbLayerTableRecord
  2
Defpoints
 70
     0
 62
     7
  6
Continuous
290
     0
370
    -3
390
F
  0
ENDTAB
  0
TABLE
  2
STYLE
  5
3
330
0
100
AcDbSymbolTable
 70
     2
  0
STYLE
  5
11
330
3
100
AcDbSymbolTableRecord
100
AcDbTextStyleTableRecord
  2
Standard
 70
     0
 40
0.0
 41
1.0
 50
0.0
 71
     0
 42
3.5
  3
txt
  4

  0
STYLE
  5
94
330
3
100
AcDbSymbolTableRecord
100
AcDbTextStyleTableRecord
  2
SLDTEXTSTYLE0
 70
     0
 40
0.0
 41
0.75
 50
0.0
 71
     0
 42
3.5
  3
TXT
  4

  0
ENDTAB
  0
TABLE
  2
VIEW
  5
6
330
0
100
AcDbSymbolTable
 70
     0
  0
ENDTAB
  0
TABLE
  2
UCS
  5
7
330
0
100
AcDbSymbolTable
 70
     0
  0
ENDTAB
  0
TABLE
  2
APPID
  5
9
330
0
100
AcDbSymbolTable
 70
     1
  0
APPID
  5
12
330
9
100
AcDbSymbolTableRecord
100
AcDbRegAppTableRecord
  2
ACAD
 70
     0
  0
ENDTAB
  0
TABLE
  2
DIMSTYLE
  5
A
330
0
100
AcDbSymbolTable
 70
     4
100
AcDbDimStyleTable
  0
DIMSTYLE
105
27
330
A
100
AcDbSymbolTableRecord
100
AcDbDimStyleTableRecord
  2
ISO-25
 70
     0
 41
2.5
 42
0.625
 43
3.75
 44
1.25
 73
     0
 74
     0
 77
     1
 78
     8
140
2.5
141
2.5
143
0.03937007874016
147
0.625
171
     3
172
     1
178
     0
271
     2
272
     2
274
     3
278
    44
283
     0
284
     8
340
11
  0
DIMSTYLE
105
CE
330
A
100
AcDbSymbolTableRecord
100
AcDbDimStyleTableRecord
  2
SLDDIMSTYLE0
 70
     0
 41
3.302
 44
0.0
 45
0.000000001
 73
     0
 74
     0
 77
     1
 78
    12
 79
     3
140
3.5
143
0.0393700787401575
147
0.875
148
0.000000001
170
     1
173
     1
178
     0
271
     2
272
     2
276
     2
284
    12
340
94
  0
DIMSTYLE
105
E2
330
A
100
AcDbSymbolTableRecord
100
AcDbDimStyleTableRecord
  2
SLDDIMSTYLE1
 70
     0
 41
3.302
 44
0.0
 45
0.000000001
 73
     0
 74
     0
 77
     1
 78
     4
 79
     1
140
3.5
143
0.0393700787401575
147
0.875
148
0.000000001
170
     1
173
     1
178
     0
271
     2
272
     2
276
     2
284
    12
340
94
  0
DIMSTYLE
105
10A
102
{ACAD_REACTORS
330
109
330
CD
330
E1
330
F6
102
}
330
A
100
AcDbSymbolTableRecord
100
AcDbDimStyleTableRecord
  2
SLDDIMSTYLE2
 70
     0
 41
3.302
 44
0.0
 45
0.000000001
 73
     0
 74
     0
 77
     1
 78
     4
 79
     1
140
3.5
143
0.0393700787401575
147
0.875
148
0.000000001
170
     1
172
     1
173
     1
178
     0
271
     2
272
     2
276
     2
284
    12
289
     0
340
94
  0
ENDTAB
  0
TABLE
  2
BLOCK_RECORD
  5
1
330
0
100
AcDbSymbolTable
 70
    19
  0
BLOCK_RECORD
  5
1F
330
1
100
AcDbSymbolTableRecord
100
AcDbBlockTableRecord
  2
*Model_Space
340
22
  0
BLOCK_RECORD
  5
1B
330
1
100
AcDbSymbolTableRecord
100
AcDbBlockTableRecord
  2
*Paper_Space
340
1E
  0
BLOCK_RECORD
  5
23
330
1
100
AcDbSymbolTableRecord
100
AcDbBlockTableRecord
  2
*Paper_Space0
340
26
  0
BLOCK_RECORD
  5
7F
330
1
100
AcDbSymbolTableRecord
100
AcDbBlockTableRecord
  2
블럭10
340
0
102
{BLKREFS
331
C6
102
}
  0
BLOCK_RECORD
  5
CF
330
1
100
AcDbSymbolTableRecord
100
AcDbBlockTableRecord
  2
_D
340
0
  0
BLOCK_RECORD
  5
E3
330
1
100
AcDbSymbolTableRecord
100
AcDbBlockTableRecord
  2
_D_1
340
0
  0
BLOCK_RECORD
  5
F7
330
1
100
AcDbSymbolTableRecord
100
AcDbBlockTableRecord
  2
_D_2
340
0
  0
BLOCK_RECORD
  5
10B
330
1
100
AcDbSymbolTableRecord
100
AcDbBlockTableRecord
  2
_D_3
340
0
  0
BLOCK_RECORD
  5
125
330
1
100
AcDbSymbolTableRecord
100
AcDbBlockTableRecord
  2
SW_DOWELSYMBOL_0
340
0
102
{BLKREFS
331
12B
102
}
  0
BLOCK_RECORD
  5
1DB
330
1
100
AcDbSymbolTableRecord
100
AcDbBlockTableRecord
  2
*D7
340
0
  0
BLOCK_RECORD
  5
1EA
330
1
100
AcDbSymbolTableRecord
100
AcDbBlockTableRecord
  2
*D8
340
0
  0
BLOCK_RECORD
  5
1F9
330
1
100
AcDbSymbolTableRecord
100
AcDbBlockTableRecord
  2
*D9
340
0
  0
BLOCK_RECORD
  5
233
330
1
100
AcDbSymbolTableRecord
100
AcDbBlockTableRecord
  2
*D10
340
0
  0
BLOCK_RECORD
  5
242
330
1
100
AcDbSymbolTableRecord
100
AcDbBlockTableRecord
  2
*D11
340
0
  0
BLOCK_RECORD
  5
251
330
1
100
AcDbSymbolTableRecord
100
AcDbBlockTableRecord
  2
*D12
340
0
  0
BLOCK_RECORD
  5
2EB
330
1
100
AcDbSymbolTableRecord
100
AcDbBlockTableRecord
  2
*D13
340
0
  0
BLOCK_RECORD
  5
2FA
330
1
100
AcDbSymbolTableRecord
100
AcDbBlockTableRecord
  2
*D14
340
0
  0
BLOCK_RECORD
  5
309
330
1
100
AcDbSymbolTableRecord
100
AcDbBlockTableRecord
  2
*D15
340
0
  0
BLOCK_RECORD
  5
342
330
1
100
AcDbSymbolTableRecord
100
AcDbBlockTableRecord
  2
*D16
340
0
  0
BLOCK_RECORD
  5
351
330
1
100
AcDbSymbolTableRecord
100
AcDbBlockTableRecord
  2
*D17
340
0
  0
BLOCK_RECORD
  5
360
330
1
100
AcDbSymbolTableRecord
100
AcDbBlockTableRecord
  2
*D18
340
0
  0
ENDTAB
  0
ENDSEC
  0
SECTION
  2
BLOCKS
  0
BLOCK
  5
20
330
1F
100
AcDbEntity
  8
0
100
AcDbBlockBegin
  2
*Model_Space
 70
     0
 10
0.0
 20
0.0
 30
0.0
  3
*Model_Space
  1
*Model_Space
  0
ENDBLK
  5
21
330
1F
100
AcDbEntity
  8
0
100
AcDbBlockEnd
  0
BLOCK
  5
1C
330
1B
100
AcDbEntity
 67
     1
  8
0
100
AcDbBlockBegin
  2
*Paper_Space
 70
     0
 10
0.0
 20
0.0
 30
0.0
  3
*Paper_Space
  1
*Paper_Space
  0
ENDBLK
  5
1D
330
1B
100
AcDbEntity
 67
     1
  8
0
100
AcDbBlockEnd
  0
BLOCK
  5
24
330
23
100
AcDbEntity
  8
0
100
AcDbBlockBegin
  2
*Paper_Space0
 70
     0
 10
0.0
 20
0.0
 30
0.0
  3
*Paper_Space0
  1
*Paper_Space0
  0
ENDBLK
  5
25
330
23
100
AcDbEntity
  8
0
100
AcDbBlockEnd
  0
BLOCK
  5
80
330
7F
100
AcDbEntity
  8
0
100
AcDbBlockBegin
  2
블럭10
 70
     2
 10
0.0
 20
0.0
 30
0.0
  3
블럭10
  1
블럭10
  0
ELLIPSE
  5
82
330
7F
100
AcDbEntity
  8
중심선
100
AcDbEllipse
 10
20.54032771741204
 20
12.0471743016438
 30
0.0
 11
6.600054785286829
 21
-1.261213355974178E-13
 31
0.0
210
0.0
220
0.0
230
1.0
 40
0.636358354079598
 41
0.9219305317359503
 42
6.513795318482858
  0
ELLIPSE
  5
83
330
7F
100
AcDbEntity
  8
중심선
100
AcDbEllipse
 10
20.54032771746488
 20
12.04717430159265
 30
0.0
 11
3.960054785062283
 21
1.540847449632565E-10
 31
0.0
210
0.0
220
0.0
230
1.0
 40
0.3939339440162632
 41
1.131841032648279
 42
5.62031148352944
  0
LINE
  5
84
330
7F
100
AcDbEntity
  8
중심선
100
AcDbLine
 10
2.268634060543552
 20
16.24717430164393
 30
0.0
 11
5.714909304380834
 21
16.24717430164393
 31
0.0
  0
LINE
  5
85
330
7F
100
AcDbEntity
  8
중심선
100
AcDbLine
 10
5.245725140726316
 20
7.84717430164391
 30
0.0
 11
8.692000384563599
 21
7.84717430164391
 31
0.0
  0
LINE
  5
86
330
7F
100
AcDbEntity
  8
중심선
100
AcDbLine
 10
15.74043728645272
 20
16.24717430164393
 30
0.0
 11
8.692000384563599
 21
7.84717430164391
 31
0.0
  0
LINE
  5
87
330
7F
100
AcDbEntity
  8
중심선
100
AcDbLine
 10
0.1404042013395286
 20
13.71084872107135
 30
0.0
 11
3.58671253028996
 21
13.71088815037384
 31
0.0
  0
LINE
  5
88
330
7F
100
AcDbEntity
  8
중심선
100
AcDbLine
 10
2.750260043222114
 20
10.84717430164391
 30
0.0
 11
6.196535287059397
 21
10.84717430164391
 31
0.0
  0
LINE
  5
89
330
7F
100
AcDbEntity
  8
중심선
100
AcDbLine
 10
12.29416204261559
 20
16.24717430164393
 30
0.0
 11
5.245725140726316
 21
7.84717430164391
 31
0.0
  0
LINE
  5
8A
330
7F
100
AcDbEntity
  8
중심선
100
AcDbLine
 10
10.72767329541681
 20
16.24717430164393
 30
0.0
 11
6.196535287059397
 21
10.84717430164391
 31
0.0
  0
LINE
  5
8B
330
7F
100
AcDbEntity
  8
중심선
100
AcDbLine
 10
7.28139805157953
 20
16.24717430164393
 30
0.0
 11
2.750260043222114
 21
10.84717430164391
 31
0.0
  0
LINE
  5
8C
330
7F
100
AcDbEntity
  8
중심선
100
AcDbLine
 10
5.714909304380834
 20
16.24717430164393
 30
0.0
 11
3.58671253028996
 21
13.71088815037384
 31
0.0
  0
LINE
  5
8D
330
7F
100
AcDbEntity
  8
중심선
100
AcDbLine
 10
2.268634060543552
 20
16.24717430164393
 30
0.0
 11
0.1404042013395286
 21
13.71084872107135
 31
0.0
  0
LINE
  5
8E
330
7F
100
AcDbEntity
  8
중심선
100
AcDbLine
 10
7.28139805157953
 20
16.24717430164393
 30
0.0
 11
10.72767329541681
 21
16.24717430164393
 31
0.0
  0
LINE
  5
8F
330
7F
100
AcDbEntity
  8
중심선
100
AcDbLine
 10
12.29416204261559
 20
16.24717430164393
 30
0.0
 11
15.74043728645272
 21
16.24717430164393
 31
0.0
  0
LINE
  5
90
330
7F
100
AcDbEntity
  8
중심선
100
AcDbLine
 10
19.22036997980202
 20
11.08717430171403
 30
0.0
 11
23.66174974927406
 21
11.08717430171406
 31
0.0
  0
LINE
  5
91
330
7F
100
AcDbEntity
  8
중심선
100
AcDbLine
 10
19.22039502424796
 20
13.00717430171391
 30
0.0
 11
19.22036997980202
 21
11.08717430171403
 31
0.0
  0
LINE
  5
92
330
7F
100
AcDbEntity
  8
중심선
100
AcDbLine
 10
19.22039502424796
 20
13.00717430171391
 30
0.0
 11
26.96566020931264
 21
13.00717430171391
 31
0.0
  0
LINE
  5
93
330
7F
100
AcDbEntity
  8
중심선
100
AcDbLine
 10
22.22332737316547
 20
13.45928029700563
 30
0.0
 11
24.52862924686651
 21
15.39360700705356
 31
0.0
  0
ATTDEF
  5
95
330
7F
100
AcDbEntity
  8
FORMAT
 62
     2
100
AcDbText
 10
4.408487351596664
 20
2.075366912832191
 30
0.0
 40
4.233333333333333
  1
E1053030
 41
0.75
  7
SLDTEXTSTYLE0
 11
4.408487351596664
 21
-0.0412997538344756
 31
0.0
100
AcDbAttributeDefinition
  3

  2
AUTOATTR0
 70
     0
 74
     1
  0
ENDBLK
  5
81
330
7F
100
AcDbEntity
  8
0
100
AcDbBlockEnd
  0
BLOCK
  5
D0
330
CF
100
AcDbEntity
  8
0
100
AcDbBlockBegin
  2
_D
 70
     0
 10
0.0
 20
0.0
 30
0.0
  3
_D
  1
_D
  0
LINE
  5
D2
330
CF
100
AcDbEntity
  8
치수문자_일반주서
 62
     0
370
    -2
100
AcDbLine
 10
52.44999999999998
 20
5.953125000000006
 30
0.0
 11
66.62248764247374
 21
5.95312500000006
 31
0.0
  0
LINE
  5
D3
330
CF
100
AcDbEntity
  8
치수문자_일반주서
 62
     0
370
    -2
100
AcDbLine
 10
52.44999999999998
 20
-5.953124999999994
 30
0.0
 11
66.62248764247379
 21
-5.953124999999943
 31
0.0
  0
LINE
  5
D4
330
CF
100
AcDbEntity
  8
치수문자_일반주서
 62
     0
370
    -2
100
AcDbLine
 10
66.62248764247374
 20
5.95312500000006
 30
0.0
 11
66.6224876424736
 21
43.61962500000006
 31
0.0
  0
LINE
  5
D5
330
CF
100
AcDbEntity
  8
치수문자_일반주서
 62
     0
370
    -2
100
AcDbLine
 10
66.62248764247374
 20
5.95312500000006
 30
0.0
 11
66.62248764247379
 21
-5.953124999999943
 31
0.0
  0
LINE
  5
D6
330
CF
100
AcDbEntity
  8
치수문자_일반주서
 62
     0
370
    -2
100
AcDbLine
 10
66.62248764247373
 20
9.25512500000006
 30
0.0
 11
66.62248764247371
 21
12.55712500000006
 31
0.0
  0
LINE
  5
D7
330
CF
100
AcDbEntity
  8
치수문자_일반주서
 62
     0
370
    -2
100
AcDbLine
 10
66.6224876424738
 20
-9.255124999999943
 30
0.0
 11
66.62248764247381
 21
-12.55712499999994
 31
0.0
  0
SOLID
  5
D8
330
CF
100
AcDbEntity
  8
치수문자_일반주서
 62
     0
100
AcDbTrace
 10
66.0721543091404
 20
9.255125000000058
 30
0.0
 11
67.17282097580706
 21
9.255125000000062
 31
0.0
 12
66.62248764247374
 22
5.95312500000006
 32
0.0
 13
66.62248764247374
 23
5.95312500000006
 33
0.0
  0
SOLID
  5
D9
330
CF
100
AcDbEntity
  8
치수문자_일반주서
 62
     0
100
AcDbTrace
 10
67.17282097580713
 20
-9.255124999999941
 30
0.0
 11
66.07215430914047
 21
-9.255124999999945
 31
0.0
 12
66.62248764247379
 22
-5.953124999999943
 32
0.0
 13
66.62248764247379
 23
-5.953124999999943
 33
0.0
  0
MTEXT
  5
DA
330
CF
100
AcDbEntity
  8
치수문자_일반주서
 62
     0
100
AcDbMText
 10
62.24748764247366
 20
28.30712500000004
 30
0.0
 40
3.5
 41
0.0
 71
     2
 72
     1
  1
\A1;%%c11.91 [15/32]
  7
SLDTEXTSTYLE0
 11
-3.580687802255623E-15
 21
1.0
 31
0.0
 73
     1
 44
1.0
  0
POINT
  5
DB
330
CF
100
AcDbEntity
  8
Defpoints
 62
     0
100
AcDbPoint
 10
52.38749999999998
 20
5.953125000000006
 30
0.0
  0
POINT
  5
25D
330
CF
100
AcDbEntity
  8
Defpoints
 62
     0
100
AcDbPoint
 10
52.38749999999998
 20
-5.953124999999994
 30
0.0
  0
POINT
  5
25E
330
CF
100
AcDbEntity
  8
Defpoints
 62
     0
100
AcDbPoint
 10
66.62248764247377
 20
-5.95312499999994
 30
0.0
  0
ENDBLK
  5
D1
330
CF
100
AcDbEntity
  8
0
100
AcDbBlockEnd
  0
BLOCK
  5
E4
330
E3
100
AcDbEntity
  8
0
100
AcDbBlockBegin
  2
_D_1
 70
     0
 10
0.0
 20
0.0
 30
0.0
  3
_D_1
  1
_D_1
  0
LINE
  5
E6
330
E3
100
AcDbEntity
  8
치수문자_일반주서
 62
     0
370
    -2
100
AcDbLine
 10
52.38749999999998
 20
6.015625000000006
 30
0.0
 11
52.38749999999998
 21
19.38626484416875
 31
0.0
  0
LINE
  5
E7
330
E3
100
AcDbEntity
  8
치수문자_일반주서
 62
     0
370
    -2
100
AcDbLine
 10
26.98749999999998
 20
5.844299390562764
 30
0.0
 11
26.98749999999998
 21
19.38626484416875
 31
0.0
  0
LINE
  5
E8
330
E3
100
AcDbEntity
  8
치수문자_일반주서
 62
     0
370
    -2
100
AcDbLine
 10
26.98749999999998
 20
19.38626484416875
 30
0.0
 11
0.6959999999999837
 21
19.38626484416875
 31
0.0
  0
LINE
  5
E9
330
E3
100
AcDbEntity
  8
치수문자_일반주서
 62
     0
370
    -2
100
AcDbLine
 10
52.38749999999998
 20
19.38626484416875
 30
0.0
 11
26.98749999999998
 21
19.38626484416875
 31
0.0
  0
LINE
  5
EA
330
E3
100
AcDbEntity
  8
치수문자_일반주서
 62
     0
370
    -2
100
AcDbLine
 10
55.68949999999998
 20
19.38626484416875
 30
0.0
 11
58.99149999999998
 21
19.38626484416875
 31
0.0
  0
LINE
  5
EB
330
E3
100
AcDbEntity
  8
치수문자_일반주서
 62
     0
370
    -2
100
AcDbLine
 10
23.68549999999998
 20
19.38626484416875
 30
0.0
 11
20.38349999999998
 21
19.38626484416875
 31
0.0
  0
SOLID
  5
EC
330
E3
100
AcDbEntity
  8
치수문자_일반주서
 62
     0
100
AcDbTrace
 10
55.68949999999998
 20
19.93659817750208
 30
0.0
 11
55.68949999999998
 21
18.83593151083542
 31
0.0
 12
52.38749999999998
 22
19.38626484416875
 32
0.0
 13
52.38749999999998
 23
19.38626484416875
 33
0.0
  0
SOLID
  5
ED
330
E3
100
AcDbEntity
  8
치수문자_일반주서
 62
     0
100
AcDbTrace
 10
23.68549999999998
 20
18.83593151083542
 30
0.0
 11
23.68549999999998
 21
19.93659817750208
 31
0.0
 12
26.98749999999998
 22
19.38626484416875
 32
0.0
 13
26.98749999999998
 23
19.38626484416875
 33
0.0
  0
MTEXT
  5
EE
330
E3
100
AcDbEntity
  8
치수문자_일반주서
 62
     0
100
AcDbMText
 10
10.53974999999998
 20
23.76126484416875
 30
0.0
 40
3.5
 41
0.0
 71
     2
 72
     1
  1
\A1;25.40 [1]
  7
SLDTEXTSTYLE0
 73
     1
 44
1.0
  0
POINT
  5
EF
330
E3
100
AcDbEntity
  8
Defpoints
 62
     0
100
AcDbPoint
 10
52.38749999999998
 20
5.953125000000006
 30
0.0
  0
POINT
  5
25F
330
E3
100
AcDbEntity
  8
Defpoints
 62
     0
100
AcDbPoint
 10
26.98749999999998
 20
5.781799390562764
 30
0.0
  0
POINT
  5
260
330
E3
100
AcDbEntity
  8
Defpoints
 62
     0
100
AcDbPoint
 10
26.98749999999998
 20
19.38626484416875
 30
0.0
  0
ENDBLK
  5
E5
330
E3
100
AcDbEntity
  8
0
100
AcDbBlockEnd
  0
BLOCK
  5
F8
330
F7
100
AcDbEntity
  8
0
100
AcDbBlockBegin
  2
_D_2
 70
     0
 10
0.0
 20
0.0
 30
0.0
  3
_D_2
  1
_D_2
  0
LINE
  5
FA
330
F7
100
AcDbEntity
  8
치수문자_일반주서
 62
     0
370
    -2
100
AcDbLine
 10
52.38749999999998
 20
6.015625000000006
 30
0.0
 11
52.38749999999998
 21
37.28935307132679
 31
0.0
  0
LINE
  5
FB
330
F7
100
AcDbEntity
  8
치수문자_일반주서
 62
     0
370
    -2
100
AcDbLine
 10
-52.38749999999998
 20
6.015624999999992
 30
0.0
 11
-52.38749999999998
 21
37.28935307132679
 31
0.0
  0
LINE
  5
FC
330
F7
100
AcDbEntity
  8
치수문자_일반주서
 62
     0
370
    -2
100
AcDbLine
 10
49.08549999999998
 20
37.28935307132679
 30
0.0
 11
-49.08549999999998
 21
37.28935307132679
 31
0.0
  0
SOLID
  5
FD
330
F7
100
AcDbEntity
  8
치수문자_일반주서
 62
     0
100
AcDbTrace
 10
49.08549999999998
 20
36.73901973799345
 30
0.0
 11
49.08549999999998
 21
37.83968640466012
 31
0.0
 12
52.38749999999998
 22
37.28935307132679
 32
0.0
 13
52.38749999999998
 23
37.28935307132679
 33
0.0
  0
SOLID
  5
FE
330
F7
100
AcDbEntity
  8
치수문자_일반주서
 62
     0
100
AcDbTrace
 10
-49.08549999999998
 20
37.83968640466012
 30
0.0
 11
-49.08549999999998
 21
36.73901973799345
 31
0.0
 12
-52.38749999999998
 22
37.28935307132679
 32
0.0
 13
-52.38749999999998
 23
37.28935307132679
 33
0.0
  0
MTEXT
  5
FF
330
F7
100
AcDbEntity
  8
치수문자_일반주서
 62
     0
100
AcDbMText
 10
2.569216429752679
 20
41.66435307132679
 30
0.0
 40
3.5
 41
0.0
 71
     2
 72
     1
  1
\A1;104.78 [4 1/8]
  7
SLDTEXTSTYLE0
 73
     1
 44
1.0
  0
POINT
  5
100
330
F7
100
AcDbEntity
  8
Defpoints
 62
     0
100
AcDbPoint
 10
52.38749999999998
 20
5.953125000000006
 30
0.0
  0
POINT
  5
101
330
F7
100
AcDbEntity
  8
Defpoints
 62
     0
100
AcDbPoint
 10
-52.38749999999998
 20
5.953124999999992
 30
0.0
  0
POINT
  5
102
330
F7
100
AcDbEntity
  8
Defpoints
 62
     0
100
AcDbPoint
 10
-52.38749999999998
 20
37.28935307132679
 30
0.0
  0
ENDBLK
  5
F9
330
F7
100
AcDbEntity
  8
0
100
AcDbBlockEnd
  0
BLOCK
  5
10C
330
10B
100
AcDbEntity
  8
0
100
AcDbBlockBegin
  2
_D_3
 70
     0
 10
0.0
 20
0.0
 30
0.0
  3
_D_3
  1
_D_3
  0
LINE
  5
10E
330
10B
100
AcDbEntity
  8
치수문자_일반주서
 62
     0
370
    -2
100
AcDbLine
 10
-24.56884233574606
 20
6.350000000000001
 30
0.0
 11
-64.59375000000004
 21
6.349999999999851
 31
0.0
  0
LINE
  5
10F
330
10B
100
AcDbEntity
  8
치수문자_일반주서
 62
     0
370
    -2
100
AcDbLine
 10
-24.56884233574607
 20
-6.350000000000007
 30
0.0
 11
-64.59375
 21
-6.350000000000156
 31
0.0
  0
LINE
  5
110
330
10B
100
AcDbEntity
  8
치수문자_일반주서
 62
     0
370
    -2
100
AcDbLine
 10
-64.59375000000003
 20
3.047999999999852
 30
0.0
 11
-64.59375000000001
 21
-3.048000000000156
 31
0.0
  0
SOLID
  5
111
330
10B
100
AcDbEntity
  8
치수문자_일반주서
 62
     0
100
AcDbTrace
 10
-64.0434166666667
 20
3.047999999999853
 30
0.0
 11
-65.14408333333336
 21
3.04799999999985
 31
0.0
 12
-64.59375000000004
 22
6.349999999999851
 32
0.0
 13
-64.59375000000004
 23
6.349999999999851
 33
0.0
  0
SOLID
  5
112
330
10B
100
AcDbEntity
  8
치수문자_일반주서
 62
     0
100
AcDbTrace
 10
-65.14408333333334
 20
-3.048000000000158
 30
0.0
 11
-64.04341666666669
 21
-3.048000000000155
 31
0.0
 12
-64.59375
 22
-6.350000000000156
 32
0.0
 13
-64.59375
 23
-6.350000000000156
 33
0.0
  0
MTEXT
  5
113
330
10B
100
AcDbEntity
  8
치수문자_일반주서
 62
     0
100
AcDbMText
 10
-68.96875000000003
 20
-0.0000000000000232
 30
0.0
 40
3.5
 41
0.0
 71
     2
 72
     1
  1
\A1;%%c12.70 [1/2]
  7
SLDTEXTSTYLE0
 11
-3.356894814614645E-15
 21
1.0
 31
0.0
 73
     1
 44
1.0
  0
POINT
  5
114
330
10B
100
AcDbEntity
  8
Defpoints
 62
     0
100
AcDbPoint
 10
-24.50634233574606
 20
6.350000000000001
 30
0.0
  0
POINT
  5
115
330
10B
100
AcDbEntity
  8
Defpoints
 62
     0
100
AcDbPoint
 10
-24.50634233574607
 20
-6.350000000000007
 30
0.0
  0
POINT
  5
116
330
10B
100
AcDbEntity
  8
Defpoints
 62
     0
100
AcDbPoint
 10
-64.59375
 20
-6.350000000000157
 30
0.0
  0
ENDBLK
  5
10D
330
10B
100
AcDbEntity
  8
0
100
AcDbBlockEnd
  0
BLOCK
  5
126
330
125
100
AcDbEntity
  8
0
100
AcDbBlockBegin
  2
SW_DOWELSYMBOL_0
 70
     0
 10
0.0
 20
0.0
 30
0.0
  3
SW_DOWELSYMBOL_0
  1
SW_DOWELSYMBOL_0
  0
CIRCLE
  5
128
330
125
100
AcDbEntity
  8
해칭선
 62
     0
100
AcDbCircle
 10
0.0
 20
0.0
 30
0.0
 40
3.000000000000008
  0
HATCH
  5
129
330
125
100
AcDbEntity
  8
0
  6
Continuous
 62
     0
370
     0
100
AcDbHatch
 10
0.0
 20
0.0
 30
0.0
210
0.0
220
0.0
230
1.0
  2
SOLID
 70
     1
 71
     0
 91
        1
 92
        0
 93
        3
 72
     2
 10
0.0
 20
0.0
 40
3.000000000000008
 50
0.0
 51
90.0
 73
     1
 72
     1
 10
0.0
 20
3.000000000000008
 11
0.0
 21
0.0
 72
     1
 10
0.0
 20
0.0
 11
3.00000000000001
 21
0.0
 97
        0
 75
     0
 76
     1
 98
        1
 10
0.0
 20
0.0
  0
HATCH
  5
12A
330
125
100
AcDbEntity
  8
0
  6
Continuous
 62
     0
370
     0
100
AcDbHatch
 10
0.0
 20
0.0
 30
0.0
210
0.0
220
0.0
230
1.0
  2
SOLID
 70
     1
 71
     0
 91
        1
 92
        0
 93
        3
 72
     2
 10
0.0
 20
0.0
 40
3.000000000000008
 50
180.0
 51
270.0000000000007
 73
     1
 72
     1
 10
0.0
 20
-3.000000000000008
 11
0.0
 21
0.0
 72
     1
 10
0.0
 20
0.0
 11
-3.00000000000001
 21
0.0
 97
        0
 75
     0
 76
     1
 98
        1
 10
0.0
 20
0.0
  0
ENDBLK
  5
127
330
125
100
AcDbEntity
  8
0
100
AcDbBlockEnd
  0
BLOCK
  5
1DC
330
1DB
100
AcDbEntity
  8
0
100
AcDbBlockBegin
  2
*D7
 70
     1
 10
0.0
 20
0.0
 30
0.0
  3
*D7
  1
*D8
  0
LINE
  5
1DE
330
1DB
100
AcDbEntity
  8
치수문자_일반주서
 62
     0
370
    -2
100
AcDbLine
 10
107.8375
 20
18.11337499999994
 30
0.0
 11
122.6681210795603
 21
18.11337499999999
 31
0.0
  0
LINE
  5
1DF
330
1DB
100
AcDbEntity
  8
치수문자_일반주서
 62
     0
370
    -2
100
AcDbLine
 10
107.8375
 20
6.603999999999939
 30
0.0
 11
122.6681210795604
 21
6.603999999999992
 31
0.0
  0
LINE
  5
1E0
330
1DB
100
AcDbEntity
  8
치수문자_일반주서
 62
     0
370
    -2
100
AcDbLine
 10
122.6681210795603
 20
18.11337499999999
 30
0.0
 11
122.6681210795602
 21
61.93054595482389
 31
0.0
  0
LINE
  5
1E1
330
1DB
100
AcDbEntity
  8
치수문자_일반주서
 62
     0
370
    -2
100
AcDbLine
 10
122.6681210795603
 20
18.11337499999999
 30
0.0
 11
122.6681210795604
 21
6.603999999999992
 31
0.0
  0
LINE
  5
1E2
330
1DB
100
AcDbEntity
  8
치수문자_일반주서
 62
     0
370
    -2
100
AcDbLine
 10
122.6681210795603
 20
21.41537499999999
 30
0.0
 11
122.6681210795603
 21
24.71737499999999
 31
0.0
  0
LINE
  5
1E3
330
1DB
100
AcDbEntity
  8
치수문자_일반주서
 62
     0
370
    -2
100
AcDbLine
 10
122.6681210795604
 20
3.301999999999992
 30
0.0
 11
122.6681210795604
 21
-0.0000000000000071
 31
0.0
  0
SOLID
  5
1E4
330
1DB
100
AcDbEntity
  8
치수문자_일반주서
 62
     0
100
AcDbTrace
 10
122.117787746227
 20
21.41537499999999
 30
0.0
 11
123.2184544128936
 21
21.41537499999999
 31
0.0
 12
122.6681210795603
 22
18.11337499999999
 32
0.0
 13
122.6681210795603
 23
18.11337499999999
 33
0.0
  0
SOLID
  5
1E5
330
1DB
100
AcDbEntity
  8
치수문자_일반주서
 62
     0
100
AcDbTrace
 10
123.2184544128937
 20
3.301999999999995
 30
0.0
 11
122.117787746227
 21
3.30199999999999
 31
0.0
 12
122.6681210795604
 22
6.603999999999992
 32
0.0
 13
122.6681210795604
 23
6.603999999999992
 33
0.0
  0
MTEXT
  5
1E6
330
1DB
100
AcDbEntity
  8
치수문자_일반주서
 62
     0
100
AcDbMText
 10
118.2931210795602
 20
46.18054595482388
 30
0.0
 40
3.5
 41
0.0
 71
     2
 72
     1
  1
\A1;%%c11.51 [29/64]
  7
SLDTEXTSTYLE0
 11
-3.704159795436853E-15
 21
1.0
 31
0.0
 73
     1
 44
1.0
  0
POINT
  5
1E7
330
1DB
100
AcDbEntity
  8
Defpoints
 62
     0
100
AcDbPoint
 10
107.775
 20
18.11337499999994
 30
0.0
  0
POINT
  5
1E8
330
1DB
100
AcDbEntity
  8
Defpoints
 62
     0
100
AcDbPoint
 10
107.775
 20
6.603999999999939
 30
0.0
  0
POINT
  5
1E9
330
1DB
100
AcDbEntity
  8
Defpoints
 62
     0
100
AcDbPoint
 10
122.6681210795604
 20
6.603999999999995
 30
0.0
  0
ENDBLK
  5
1DD
330
1DB
100
AcDbEntity
  8
0
100
AcDbBlockEnd
  0
BLOCK
  5
1EB
330
1EA
100
AcDbEntity
  8
0
100
AcDbBlockBegin
  2
*D8
 70
     1
 10
0.0
 20
0.0
 30
0.0
  3
*D8
  1
*D9
  0
LINE
  5
1ED
330
1EA
100
AcDbEntity
  8
치수문자_일반주서
 62
     0
370
    -2
100
AcDbLine
 10
107.775
 20
18.17587499999994
 30
0.0
 11
107.775
 21
33.74784579707526
 31
0.0
  0
LINE
  5
1EE
330
1EA
100
AcDbEntity
  8
치수문자_일반주서
 62
     0
370
    -2
100
AcDbLine
 10
82.375
 20
18.10651713123164
 30
0.0
 11
82.375
 21
33.74784579707526
 31
0.0
  0
LINE
  5
1EF
330
1EA
100
AcDbEntity
  8
치수문자_일반주서
 62
     0
370
    -2
100
AcDbLine
 10
82.375
 20
33.74784579707526
 30
0.0
 11
51.6554863034369
 21
33.74784579707526
 31
0.0
  0
LINE
  5
1F0
330
1EA
100
AcDbEntity
  8
치수문자_일반주서
 62
     0
370
    -2
100
AcDbLine
 10
107.775
 20
33.74784579707526
 30
0.0
 11
82.375
 21
33.74784579707526
 31
0.0
  0
LINE
  5
1F1
330
1EA
100
AcDbEntity
  8
치수문자_일반주서
 62
     0
370
    -2
100
AcDbLine
 10
111.077
 20
33.74784579707526
 30
0.0
 11
114.379
 21
33.74784579707526
 31
0.0
  0
LINE
  5
1F2
330
1EA
100
AcDbEntity
  8
치수문자_일반주서
 62
     0
370
    -2
100
AcDbLine
 10
79.07300000000001
 20
33.74784579707526
 30
0.0
 11
75.77100000000002
 21
33.74784579707526
 31
0.0
  0
SOLID
  5
1F3
330
1EA
100
AcDbEntity
  8
치수문자_일반주서
 62
     0
100
AcDbTrace
 10
111.077
 20
34.29817913040859
 30
0.0
 11
111.077
 21
33.19751246374192
 31
0.0
 12
107.775
 22
33.74784579707526
 32
0.0
 13
107.775
 23
33.74784579707526
 33
0.0
  0
SOLID
  5
1F4
330
1EA
100
AcDbEntity
  8
치수문자_일반주서
 62
     0
100
AcDbTrace
 10
79.07300000000001
 20
33.19751246374192
 30
0.0
 11
79.07300000000001
 21
34.29817913040859
 31
0.0
 12
82.375
 22
33.74784579707526
 32
0.0
 13
82.375
 23
33.74784579707526
 33
0.0
  0
MTEXT
  5
1F5
330
1EA
100
AcDbEntity
  8
치수문자_일반주서
 62
     0
100
AcDbMText
 10
61.4992363034369
 20
38.12284579707526
 30
0.0
 40
3.5
 41
0.0
 71
     2
 72
     1
  1
\A1;25.40 [1]
  7
SLDTEXTSTYLE0
 73
     1
 44
1.0
  0
POINT
  5
1F6
330
1EA
100
AcDbEntity
  8
Defpoints
 62
     0
100
AcDbPoint
 10
107.775
 20
18.11337499999994
 30
0.0
  0
POINT
  5
1F7
330
1EA
100
AcDbEntity
  8
Defpoints
 62
     0
100
AcDbPoint
 10
82.375
 20
18.04401713123164
 30
0.0
  0
POINT
  5
1F8
330
1EA
100
AcDbEntity
  8
Defpoints
 62
     0
100
AcDbPoint
 10
82.375
 20
33.74784579707526
 30
0.0
  0
ENDBLK
  5
1EC
330
1EA
100
AcDbEntity
  8
0
100
AcDbBlockEnd
  0
BLOCK
  5
1FA
330
1F9
100
AcDbEntity
  8
0
100
AcDbBlockBegin
  2
*D9
 70
     1
 10
0.0
 20
0.0
 30
0.0
  3
*D9
  1
*D10
  0
LINE
  5
1FC
330
1F9
100
AcDbEntity
  8
치수문자_일반주서
 62
     0
370
    -2
100
AcDbLine
 10
107.775
 20
18.17587499999994
 30
0.0
 11
107.775
 21
51.15362601792336
 31
0.0
  0
LINE
  5
1FD
330
1F9
100
AcDbEntity
  8
치수문자_일반주서
 62
     0
370
    -2
100
AcDbLine
 10
3.000000000000007
 20
17.50118749999993
 30
0.0
 11
2.999999999999993
 21
51.15362601792336
 31
0.0
  0
LINE
  5
1FE
330
1F9
100
AcDbEntity
  8
치수문자_일반주서
 62
     0
370
    -2
100
AcDbLine
 10
104.473
 20
51.15362601792336
 30
0.0
 11
6.301999999999992
 21
51.15362601792336
 31
0.0
  0
SOLID
  5
1FF
330
1F9
100
AcDbEntity
  8
치수문자_일반주서
 62
     0
100
AcDbTrace
 10
104.473
 20
50.60329268459002
 30
0.0
 11
104.473
 21
51.70395935125669
 31
0.0
 12
107.775
 22
51.15362601792336
 32
0.0
 13
107.775
 23
51.15362601792336
 33
0.0
  0
SOLID
  5
200
330
1F9
100
AcDbEntity
  8
치수문자_일반주서
 62
     0
100
AcDbTrace
 10
6.301999999999992
 20
51.70395935125669
 30
0.0
 11
6.301999999999992
 21
50.60329268459002
 31
0.0
 12
2.999999999999993
 22
51.15362601792336
 32
0.0
 13
2.999999999999993
 23
51.15362601792336
 33
0.0
  0
MTEXT
  5
201
330
1F9
100
AcDbEntity
  8
치수문자_일반주서
 62
     0
100
AcDbMText
 10
58.01808025926728
 20
55.52862601792336
 30
0.0
 40
3.5
 41
0.0
 71
     2
 72
     1
  1
\A1;104.78 [4 1/8]
  7
SLDTEXTSTYLE0
 73
     1
 44
1.0
  0
POINT
  5
202
330
1F9
100
AcDbEntity
  8
Defpoints
 62
     0
100
AcDbPoint
 10
107.775
 20
18.11337499999994
 30
0.0
  0
POINT
  5
203
330
1F9
100
AcDbEntity
  8
Defpoints
 62
     0
100
AcDbPoint
 10
3.000000000000007
 20
17.43868749999993
 30
0.0
  0
POINT
  5
204
330
1F9
100
AcDbEntity
  8
Defpoints
 62
     0
100
AcDbPoint
 10
3.000000000000007
 20
51.15362601792336
 30
0.0
  0
ENDBLK
  5
1FB
330
1F9
100
AcDbEntity
  8
0
100
AcDbBlockEnd
  0
BLOCK
  5
234
330
233
100
AcDbEntity
  8
0
100
AcDbBlockBegin
  2
*D10
 70
     1
 10
0.0
 20
0.0
 30
0.0
  3
*D10
  1
*D11
  0
LINE
  5
236
330
233
100
AcDbEntity
  8
치수문자_일반주서
 62
     0
370
    -2
100
AcDbLine
 10
196.7879934319337
 20
-42.64350203356156
 30
0.0
 11
211.618614511494
 21
-42.6435020335615
 31
0.0
  0
LINE
  5
237
330
233
100
AcDbEntity
  8
치수문자_일반주서
 62
     0
370
    -2
100
AcDbLine
 10
196.7879934319337
 20
-54.15287703356157
 30
0.0
 11
211.618614511494
 21
-54.15287703356151
 31
0.0
  0
LINE
  5
238
330
233
100
AcDbEntity
  8
치수문자_일반주서
 62
     0
370
    -2
100
AcDbLine
 10
211.618614511494
 20
-42.6435020335615
 30
0.0
 11
211.6186145114939
 21
1.173668921262397
 31
0.0
  0
LINE
  5
239
330
233
100
AcDbEntity
  8
치수문자_일반주서
 62
     0
370
    -2
100
AcDbLine
 10
211.618614511494
 20
-42.6435020335615
 30
0.0
 11
211.618614511494
 21
-54.15287703356151
 31
0.0
  0
LINE
  5
23A
330
233
100
AcDbEntity
  8
치수문자_일반주서
 62
     0
370
    -2
100
AcDbLine
 10
211.618614511494
 20
-39.3415020335615
 30
0.0
 11
211.618614511494
 21
-36.0395020335615
 31
0.0
  0
LINE
  5
23B
330
233
100
AcDbEntity
  8
치수문자_일반주서
 62
     0
370
    -2
100
AcDbLine
 10
211.618614511494
 20
-57.45487703356151
 30
0.0
 11
211.618614511494
 21
-60.75687703356151
 31
0.0
  0
SOLID
  5
23C
330
233
100
AcDbEntity
  8
치수문자_일반주서
 62
     0
100
AcDbTrace
 10
211.0682811781607
 20
-39.3415020335615
 30
0.0
 11
212.1689478448273
 21
-39.3415020335615
 31
0.0
 12
211.618614511494
 22
-42.6435020335615
 32
0.0
 13
211.618614511494
 23
-42.6435020335615
 33
0.0
  0
SOLID
  5
23D
330
233
100
AcDbEntity
  8
치수문자_일반주서
 62
     0
100
AcDbTrace
 10
212.1689478448274
 20
-57.45487703356151
 30
0.0
 11
211.0682811781607
 21
-57.45487703356151
 31
0.0
 12
211.618614511494
 22
-54.15287703356151
 32
0.0
 13
211.618614511494
 23
-54.15287703356151
 33
0.0
  0
MTEXT
  5
23E
330
233
100
AcDbEntity
  8
치수문자_일반주서
 62
     0
100
AcDbMText
 10
207.2436145114939
 20
-14.57633107873761
 30
0.0
 40
3.5
 41
0.0
 71
     2
 72
     1
  1
\A1;%%c11.51 [29/64]
  7
SLDTEXTSTYLE0
 11
-2.469439863624566E-15
 21
1.0
 31
0.0
 73
     1
 44
1.0
  0
POINT
  5
23F
330
233
100
AcDbEntity
  8
Defpoints
 62
     0
100
AcDbPoint
 10
196.7254934319337
 20
-42.64350203356156
 30
0.0
  0
POINT
  5
240
330
233
100
AcDbEntity
  8
Defpoints
 62
     0
100
AcDbPoint
 10
196.7254934319337
 20
-54.15287703356157
 30
0.0
  0
POINT
  5
241
330
233
100
AcDbEntity
  8
Defpoints
 62
     0
100
AcDbPoint
 10
211.6186145114941
 20
-54.15287703356151
 30
0.0
  0
ENDBLK
  5
235
330
233
100
AcDbEntity
  8
0
100
AcDbBlockEnd
  0
BLOCK
  5
243
330
242
100
AcDbEntity
  8
0
100
AcDbBlockBegin
  2
*D11
 70
     1
 10
0.0
 20
0.0
 30
0.0
  3
*D11
  1
*D12
  0
LINE
  5
245
330
242
100
AcDbEntity
  8
치수문자_일반주서
 62
     0
370
    -2
100
AcDbLine
 10
196.7254934319337
 20
-42.58100203356156
 30
0.0
 11
196.7254934319337
 21
-27.00903123648624
 31
0.0
  0
LINE
  5
246
330
242
100
AcDbEntity
  8
치수문자_일반주서
 62
     0
370
    -2
100
AcDbLine
 10
171.3254934319337
 20
-42.65035990232986
 30
0.0
 11
171.3254934319337
 21
-27.00903123648624
 31
0.0
  0
LINE
  5
247
330
242
100
AcDbEntity
  8
치수문자_일반주서
 62
     0
370
    -2
100
AcDbLine
 10
171.3254934319337
 20
-27.00903123648624
 30
0.0
 11
140.6059797353706
 21
-27.00903123648624
 31
0.0
  0
LINE
  5
248
330
242
100
AcDbEntity
  8
치수문자_일반주서
 62
     0
370
    -2
100
AcDbLine
 10
196.7254934319337
 20
-27.00903123648624
 30
0.0
 11
171.3254934319337
 21
-27.00903123648624
 31
0.0
  0
LINE
  5
249
330
242
100
AcDbEntity
  8
치수문자_일반주서
 62
     0
370
    -2
100
AcDbLine
 10
200.0274934319337
 20
-27.00903123648624
 30
0.0
 11
203.3294934319337
 21
-27.00903123648624
 31
0.0
  0
LINE
  5
24A
330
242
100
AcDbEntity
  8
치수문자_일반주서
 62
     0
370
    -2
100
AcDbLine
 10
168.0234934319337
 20
-27.00903123648624
 30
0.0
 11
164.7214934319337
 21
-27.00903123648624
 31
0.0
  0
SOLID
  5
24B
330
242
100
AcDbEntity
  8
치수문자_일반주서
 62
     0
100
AcDbTrace
 10
200.0274934319337
 20
-26.45869790315291
 30
0.0
 11
200.0274934319337
 21
-27.55936456981958
 31
0.0
 12
196.7254934319337
 22
-27.00903123648624
 32
0.0
 13
196.7254934319337
 23
-27.00903123648624
 33
0.0
  0
SOLID
  5
24C
330
242
100
AcDbEntity
  8
치수문자_일반주서
 62
     0
100
AcDbTrace
 10
168.0234934319337
 20
-27.55936456981958
 30
0.0
 11
168.0234934319337
 21
-26.45869790315291
 31
0.0
 12
171.3254934319337
 22
-27.00903123648624
 32
0.0
 13
171.3254934319337
 23
-27.00903123648624
 33
0.0
  0
MTEXT
  5
24D
330
242
100
AcDbEntity
  8
치수문자_일반주서
 62
     0
100
AcDbMText
 10
150.4497297353706
 20
-22.63403123648624
 30
0.0
 40
3.5
 41
0.0
 71
     2
 72
     1
  1
\A1;25.40 [1]
  7
SLDTEXTSTYLE0
 73
     1
 44
1.0
  0
POINT
  5
24E
330
242
100
AcDbEntity
  8
Defpoints
 62
     0
100
AcDbPoint
 10
196.7254934319337
 20
-42.64350203356156
 30
0.0
  0
POINT
  5
24F
330
242
100
AcDbEntity
  8
Defpoints
 62
     0
100
AcDbPoint
 10
171.3254934319337
 20
-42.71285990232986
 30
0.0
  0
POINT
  5
250
330
242
100
AcDbEntity
  8
Defpoints
 62
     0
100
AcDbPoint
 10
171.3254934319337
 20
-27.00903123648624
 30
0.0
  0
ENDBLK
  5
244
330
242
100
AcDbEntity
  8
0
100
AcDbBlockEnd
  0
BLOCK
  5
252
330
251
100
AcDbEntity
  8
0
100
AcDbBlockBegin
  2
*D12
 70
     1
 10
0.0
 20
0.0
 30
0.0
  3
*D12
  1
*D13
  0
LINE
  5
254
330
251
100
AcDbEntity
  8
치수문자_일반주서
 62
     0
370
    -2
100
AcDbLine
 10
196.7254934319337
 20
-42.58100203356156
 30
0.0
 11
196.7254934319337
 21
-9.603251015638143
 31
0.0
  0
LINE
  5
255
330
251
100
AcDbEntity
  8
치수문자_일반주서
 62
     0
370
    -2
100
AcDbLine
 10
91.95049343193372
 20
-43.25568953356156
 30
0.0
 11
91.95049343193372
 21
-9.603251015638143
 31
0.0
  0
LINE
  5
256
330
251
100
AcDbEntity
  8
치수문자_일반주서
 62
     0
370
    -2
100
AcDbLine
 10
193.4234934319337
 20
-9.603251015638143
 30
0.0
 11
95.25249343193371
 21
-9.603251015638143
 31
0.0
  0
SOLID
  5
257
330
251
100
AcDbEntity
  8
치수문자_일반주서
 62
     0
100
AcDbTrace
 10
193.4234934319337
 20
-10.15358434897148
 30
0.0
 11
193.4234934319337
 21
-9.05291768230481
 31
0.0
 12
196.7254934319337
 22
-9.603251015638143
 32
0.0
 13
196.7254934319337
 23
-9.603251015638143
 33
0.0
  0
SOLID
  5
258
330
251
100
AcDbEntity
  8
치수문자_일반주서
 62
     0
100
AcDbTrace
 10
95.25249343193371
 20
-9.05291768230481
 30
0.0
 11
95.25249343193371
 21
-10.15358434897148
 31
0.0
 12
91.95049343193372
 22
-9.603251015638143
 32
0.0
 13
91.95049343193372
 23
-9.603251015638143
 33
0.0
  0
MTEXT
  5
259
330
251
100
AcDbEntity
  8
치수문자_일반주서
 62
     0
100
AcDbMText
 10
146.968573691201
 20
-5.228251015638143
 30
0.0
 40
3.5
 41
0.0
 71
     2
 72
     1
  1
\A1;104.78 [4 1/8]
  7
SLDTEXTSTYLE0
 73
     1
 44
1.0
  0
POINT
  5
25A
330
251
100
AcDbEntity
  8
Defpoints
 62
     0
100
AcDbPoint
 10
196.7254934319337
 20
-42.64350203356156
 30
0.0
  0
POINT
  5
25B
330
251
100
AcDbEntity
  8
Defpoints
 62
     0
100
AcDbPoint
 10
91.95049343193372
 20
-43.31818953356156
 30
0.0
  0
POINT
  5
25C
330
251
100
AcDbEntity
  8
Defpoints
 62
     0
100
AcDbPoint
 10
91.95049343193372
 20
-9.603251015638143
 30
0.0
  0
ENDBLK
  5
253
330
251
100
AcDbEntity
  8
0
100
AcDbBlockEnd
  0
BLOCK
  5
2EC
330
2EB
100
AcDbEntity
  8
0
100
AcDbBlockBegin
  2
*D13
 70
     1
 10
0.0
 20
0.0
 30
0.0
  3
*D13
  1
*D15
  0
LINE
  5
2EE
330
2EB
100
AcDbEntity
  8
치수문자_일반주서
 62
     0
370
    -2
100
AcDbLine
 10
107.8375
 20
18.51024999999995
 30
0.0
 11
122.0099876424737
 21
18.51025
 31
0.0
  0
LINE
  5
2EF
330
2EB
100
AcDbEntity
  8
치수문자_일반주서
 62
     0
370
    -2
100
AcDbLine
 10
107.8375
 20
6.603999999999949
 30
0.0
 11
122.0099876424738
 21
6.603999999999999
 31
0.0
  0
LINE
  5
2F0
330
2EB
100
AcDbEntity
  8
치수문자_일반주서
 62
     0
370
    -2
100
AcDbLine
 10
122.0099876424737
 20
18.51025
 30
0.0
 11
122.0099876424736
 21
56.17675000000001
 31
0.0
  0
LINE
  5
2F1
330
2EB
100
AcDbEntity
  8
치수문자_일반주서
 62
     0
370
    -2
100
AcDbLine
 10
122.0099876424737
 20
18.51025
 30
0.0
 11
122.0099876424738
 21
6.603999999999999
 31
0.0
  0
LINE
  5
2F2
330
2EB
100
AcDbEntity
  8
치수문자_일반주서
 62
     0
370
    -2
100
AcDbLine
 10
122.0099876424737
 20
21.81225
 30
0.0
 11
122.0099876424737
 21
25.11425
 31
0.0
  0
LINE
  5
2F3
330
2EB
100
AcDbEntity
  8
치수문자_일반주서
 62
     0
370
    -2
100
AcDbLine
 10
122.0099876424738
 20
3.302
 30
0.0
 11
122.0099876424738
 21
0.0
 31
0.0
  0
SOLID
  5
2F4
330
2EB
100
AcDbEntity
  8
치수문자_일반주서
 62
     0
100
AcDbTrace
 10
121.4596543091404
 20
21.81225
 30
0.0
 11
122.5603209758071
 21
21.81225000000001
 31
0.0
 12
122.0099876424737
 22
18.51025
 32
0.0
 13
122.0099876424737
 23
18.51025
 33
0.0
  0
SOLID
  5
2F5
330
2EB
100
AcDbEntity
  8
치수문자_일반주서
 62
     0
100
AcDbTrace
 10
122.5603209758071
 20
3.302000000000001
 30
0.0
 11
121.4596543091405
 21
3.301999999999998
 31
0.0
 12
122.0099876424738
 22
6.603999999999999
 32
0.0
 13
122.0099876424738
 23
6.603999999999999
 33
0.0
  0
MTEXT
  5
2F6
330
2EB
100
AcDbEntity
  8
치수문자_일반주서
 62
     0
100
AcDbMText
 10
117.6349876424737
 20
40.86424999999998
 30
0.0
 40
3.5
 41
0.0
 71
     2
 72
     1
  1
\A1;%%c11.91 [15/32]
  7
SLDTEXTSTYLE0
 11
-3.580687802255623E-15
 21
1.0
 31
0.0
 73
     1
 44
1.0
  0
POINT
  5
2F7
330
2EB
100
AcDbEntity
  8
Defpoints
 62
     0
100
AcDbPoint
 10
107.775
 20
18.51024999999995
 30
0.0
  0
POINT
  5
2F8
330
2EB
100
AcDbEntity
  8
Defpoints
 62
     0
100
AcDbPoint
 10
107.775
 20
6.603999999999949
 30
0.0
  0
POINT
  5
2F9
330
2EB
100
AcDbEntity
  8
Defpoints
 62
     0
100
AcDbPoint
 10
122.0099876424738
 20
6.604000000000003
 30
0.0
  0
ENDBLK
  5
2ED
330
2EB
100
AcDbEntity
  8
0
100
AcDbBlockEnd
  0
BLOCK
  5
2FB
330
2FA
100
AcDbEntity
  8
0
100
AcDbBlockBegin
  2
*D14
 70
     1
 10
0.0
 20
0.0
 30
0.0
  3
*D14
  1
*D16
  0
LINE
  5
2FD
330
2FA
100
AcDbEntity
  8
치수문자_일반주서
 62
     0
370
    -2
100
AcDbLine
 10
107.775
 20
18.57274999999995
 30
0.0
 11
107.775
 21
31.94338984416869
 31
0.0
  0
LINE
  5
2FE
330
2FA
100
AcDbEntity
  8
치수문자_일반주서
 62
     0
370
    -2
100
AcDbLine
 10
82.375
 20
18.40142439056271
 30
0.0
 11
82.375
 21
31.94338984416869
 31
0.0
  0
LINE
  5
2FF
330
2FA
100
AcDbEntity
  8
치수문자_일반주서
 62
     0
370
    -2
100
AcDbLine
 10
82.375
 20
31.94338984416869
 30
0.0
 11
56.08349999999999
 21
31.94338984416869
 31
0.0
  0
LINE
  5
300
330
2FA
100
AcDbEntity
  8
치수문자_일반주서
 62
     0
370
    -2
100
AcDbLine
 10
107.775
 20
31.94338984416869
 30
0.0
 11
82.375
 21
31.94338984416869
 31
0.0
  0
LINE
  5
301
330
2FA
100
AcDbEntity
  8
치수문자_일반주서
 62
     0
370
    -2
100
AcDbLine
 10
111.077
 20
31.94338984416869
 30
0.0
 11
114.379
 21
31.94338984416869
 31
0.0
  0
LINE
  5
302
330
2FA
100
AcDbEntity
  8
치수문자_일반주서
 62
     0
370
    -2
100
AcDbLine
 10
79.07300000000001
 20
31.94338984416869
 30
0.0
 11
75.77100000000002
 21
31.94338984416869
 31
0.0
  0
SOLID
  5
303
330
2FA
100
AcDbEntity
  8
치수문자_일반주서
 62
     0
100
AcDbTrace
 10
111.077
 20
32.49372317750203
 30
0.0
 11
111.077
 21
31.39305651083536
 31
0.0
 12
107.775
 22
31.94338984416869
 32
0.0
 13
107.775
 23
31.94338984416869
 33
0.0
  0
SOLID
  5
304
330
2FA
100
AcDbEntity
  8
치수문자_일반주서
 62
     0
100
AcDbTrace
 10
79.07300000000001
 20
31.39305651083536
 30
0.0
 11
79.07300000000001
 21
32.49372317750203
 31
0.0
 12
82.375
 22
31.94338984416869
 32
0.0
 13
82.375
 23
31.94338984416869
 33
0.0
  0
MTEXT
  5
305
330
2FA
100
AcDbEntity
  8
치수문자_일반주서
 62
     0
100
AcDbMText
 10
65.92724999999999
 20
36.31838984416869
 30
0.0
 40
3.5
 41
0.0
 71
     2
 72
     1
  1
\A1;25.40 [1]
  7
SLDTEXTSTYLE0
 73
     1
 44
1.0
  0
POINT
  5
306
330
2FA
100
AcDbEntity
  8
Defpoints
 62
     0
100
AcDbPoint
 10
107.775
 20
18.51024999999995
 30
0.0
  0
POINT
  5
307
330
2FA
100
AcDbEntity
  8
Defpoints
 62
     0
100
AcDbPoint
 10
82.375
 20
18.33892439056271
 30
0.0
  0
POINT
  5
308
330
2FA
100
AcDbEntity
  8
Defpoints
 62
     0
100
AcDbPoint
 10
82.375
 20
31.94338984416869
 30
0.0
  0
ENDBLK
  5
2FC
330
2FA
100
AcDbEntity
  8
0
100
AcDbBlockEnd
  0
BLOCK
  5
30A
330
309
100
AcDbEntity
  8
0
100
AcDbBlockBegin
  2
*D15
 70
     1
 10
0.0
 20
0.0
 30
0.0
  3
*D15
  1
*D17
  0
LINE
  5
30C
330
309
100
AcDbEntity
  8
치수문자_일반주서
 62
     0
370
    -2
100
AcDbLine
 10
107.775
 20
18.57274999999995
 30
0.0
 11
107.775
 21
49.84647807132673
 31
0.0
  0
LINE
  5
30D
330
309
100
AcDbEntity
  8
치수문자_일반주서
 62
     0
370
    -2
100
AcDbLine
 10
3.000000000000007
 20
17.69962499999994
 30
0.0
 11
2.999999999999993
 21
49.84647807132673
 31
0.0
  0
LINE
  5
30E
330
309
100
AcDbEntity
  8
치수문자_일반주서
 62
     0
370
    -2
100
AcDbLine
 10
104.473
 20
49.84647807132673
 30
0.0
 11
6.301999999999992
 21
49.84647807132673
 31
0.0
  0
SOLID
  5
30F
330
309
100
AcDbEntity
  8
치수문자_일반주서
 62
     0
100
AcDbTrace
 10
104.473
 20
49.29614473799339
 30
0.0
 11
104.473
 21
50.39681140466006
 31
0.0
 12
107.775
 22
49.84647807132673
 32
0.0
 13
107.775
 23
49.84647807132673
 33
0.0
  0
SOLID
  5
310
330
309
100
AcDbEntity
  8
치수문자_일반주서
 62
     0
100
AcDbTrace
 10
6.301999999999992
 20
50.39681140466006
 30
0.0
 11
6.301999999999992
 21
49.29614473799339
 31
0.0
 12
2.999999999999993
 22
49.84647807132673
 32
0.0
 13
2.999999999999993
 23
49.84647807132673
 33
0.0
  0
MTEXT
  5
311
330
309
100
AcDbEntity
  8
치수문자_일반주서
 62
     0
100
AcDbMText
 10
57.95671642975269
 20
54.22147807132673
 30
0.0
 40
3.5
 41
0.0
 71
     2
 72
     1
  1
\A1;104.78 [4 1/8]
  7
SLDTEXTSTYLE0
 73
     1
 44
1.0
  0
POINT
  5
312
330
309
100
AcDbEntity
  8
Defpoints
 62
     0
100
AcDbPoint
 10
107.775
 20
18.51024999999995
 30
0.0
  0
POINT
  5
313
330
309
100
AcDbEntity
  8
Defpoints
 62
     0
100
AcDbPoint
 10
3.000000000000007
 20
17.63712499999994
 30
0.0
  0
POINT
  5
314
330
309
100
AcDbEntity
  8
Defpoints
 62
     0
100
AcDbPoint
 10
3.000000000000007
 20
49.84647807132673
 30
0.0
  0
ENDBLK
  5
30B
330
309
100
AcDbEntity
  8
0
100
AcDbBlockEnd
  0
BLOCK
  5
343
330
342
100
AcDbEntity
  8
0
100
AcDbBlockBegin
  2
*D16
 70
     1
 10
0.0
 20
0.0
 30
0.0
  3
*D16
  1
*D18
  0
LINE
  5
345
330
342
100
AcDbEntity
  8
치수문자_일반주서
 62
     0
370
    -2
100
AcDbLine
 10
207.7442069370718
 20
-30.12887193767114
 30
0.0
 11
221.9166945795455
 21
-30.12887193767109
 31
0.0
  0
LINE
  5
346
330
342
100
AcDbEntity
  8
치수문자_일반주서
 62
     0
370
    -2
100
AcDbLine
 10
207.7442069370718
 20
-42.03512193767114
 30
0.0
 11
221.9166945795455
 21
-42.03512193767109
 31
0.0
  0
LINE
  5
347
330
342
100
AcDbEntity
  8
치수문자_일반주서
 62
     0
370
    -2
100
AcDbLine
 10
221.9166945795455
 20
-30.12887193767109
 30
0.0
 11
221.9166945795454
 21
7.537628062328906
 31
0.0
  0
LINE
  5
348
330
342
100
AcDbEntity
  8
치수문자_일반주서
 62
     0
370
    -2
100
AcDbLine
 10
221.9166945795455
 20
-30.12887193767109
 30
0.0
 11
221.9166945795455
 21
-42.03512193767109
 31
0.0
  0
LINE
  5
349
330
342
100
AcDbEntity
  8
치수문자_일반주서
 62
     0
370
    -2
100
AcDbLine
 10
221.9166945795455
 20
-26.82687193767109
 30
0.0
 11
221.9166945795455
 21
-23.52487193767109
 31
0.0
  0
LINE
  5
34A
330
342
100
AcDbEntity
  8
치수문자_일반주서
 62
     0
370
    -2
100
AcDbLine
 10
221.9166945795455
 20
-45.33712193767109
 30
0.0
 11
221.9166945795455
 21
-48.63912193767109
 31
0.0
  0
SOLID
  5
34B
330
342
100
AcDbEntity
  8
치수문자_일반주서
 62
     0
100
AcDbTrace
 10
221.3663612462122
 20
-26.82687193767109
 30
0.0
 11
222.4670279128788
 21
-26.82687193767109
 31
0.0
 12
221.9166945795455
 22
-30.12887193767109
 32
0.0
 13
221.9166945795455
 23
-30.12887193767109
 33
0.0
  0
SOLID
  5
34C
330
342
100
AcDbEntity
  8
치수문자_일반주서
 62
     0
100
AcDbTrace
 10
222.4670279128788
 20
-45.33712193767109
 30
0.0
 11
221.3663612462122
 21
-45.33712193767109
 31
0.0
 12
221.9166945795455
 22
-42.03512193767109
 32
0.0
 13
221.9166945795455
 23
-42.03512193767109
 33
0.0
  0
MTEXT
  5
34D
330
342
100
AcDbEntity
  8
치수문자_일반주서
 62
     0
100
AcDbMText
 10
217.5416945795454
 20
-7.774871937671104
 30
0.0
 40
3.5
 41
0.0
 71
     2
 72
     1
  1
\A1;%%c11.91 [15/32]
  7
SLDTEXTSTYLE0
 11
-2.387125201503748E-15
 21
1.0
 31
0.0
 73
     1
 44
1.0
  0
POINT
  5
34E
330
342
100
AcDbEntity
  8
Defpoints
 62
     0
100
AcDbPoint
 10
207.6817069370718
 20
-30.12887193767114
 30
0.0
  0
POINT
  5
34F
330
342
100
AcDbEntity
  8
Defpoints
 62
     0
100
AcDbPoint
 10
207.6817069370718
 20
-42.03512193767114
 30
0.0
  0
POINT
  5
350
330
342
100
AcDbEntity
  8
Defpoints
 62
     0
100
AcDbPoint
 10
221.9166945795456
 20
-42.03512193767109
 30
0.0
  0
ENDBLK
  5
344
330
342
100
AcDbEntity
  8
0
100
AcDbBlockEnd
  0
BLOCK
  5
352
330
351
100
AcDbEntity
  8
0
100
AcDbBlockBegin
  2
*D17
 70
     1
 10
0.0
 20
0.0
 30
0.0
  3
*D17
  1
*D19
  0
LINE
  5
354
330
351
100
AcDbEntity
  8
치수문자_일반주서
 62
     0
370
    -2
100
AcDbLine
 10
207.6817069370718
 20
-30.06637193767114
 30
0.0
 11
207.6817069370718
 21
-16.6957320935024
 31
0.0
  0
LINE
  5
355
330
351
100
AcDbEntity
  8
치수문자_일반주서
 62
     0
370
    -2
100
AcDbLine
 10
182.2817069370718
 20
-30.23769754710839
 30
0.0
 11
182.2817069370718
 21
-16.6957320935024
 31
0.0
  0
LINE
  5
356
330
351
100
AcDbEntity
  8
치수문자_일반주서
 62
     0
370
    -2
100
AcDbLine
 10
182.2817069370718
 20
-16.6957320935024
 30
0.0
 11
155.9902069370718
 21
-16.6957320935024
 31
0.0
  0
LINE
  5
357
330
351
100
AcDbEntity
  8
치수문자_일반주서
 62
     0
370
    -2
100
AcDbLine
 10
207.6817069370718
 20
-16.6957320935024
 30
0.0
 11
182.2817069370718
 21
-16.6957320935024
 31
0.0
  0
LINE
  5
358
330
351
100
AcDbEntity
  8
치수문자_일반주서
 62
     0
370
    -2
100
AcDbLine
 10
210.9837069370718
 20
-16.6957320935024
 30
0.0
 11
214.2857069370718
 21
-16.6957320935024
 31
0.0
  0
LINE
  5
359
330
351
100
AcDbEntity
  8
치수문자_일반주서
 62
     0
370
    -2
100
AcDbLine
 10
178.9797069370718
 20
-16.6957320935024
 30
0.0
 11
175.6777069370718
 21
-16.6957320935024
 31
0.0
  0
SOLID
  5
35A
330
351
100
AcDbEntity
  8
치수문자_일반주서
 62
     0
100
AcDbTrace
 10
210.9837069370718
 20
-16.14539876016907
 30
0.0
 11
210.9837069370718
 21
-17.24606542683573
 31
0.0
 12
207.6817069370718
 22
-16.6957320935024
 32
0.0
 13
207.6817069370718
 23
-16.6957320935024
 33
0.0
  0
SOLID
  5
35B
330
351
100
AcDbEntity
  8
치수문자_일반주서
 62
     0
100
AcDbTrace
 10
178.9797069370718
 20
-17.24606542683573
 30
0.0
 11
178.9797069370718
 21
-16.14539876016907
 31
0.0
 12
182.2817069370718
 22
-16.6957320935024
 32
0.0
 13
182.2817069370718
 23
-16.6957320935024
 33
0.0
  0
MTEXT
  5
35C
330
351
100
AcDbEntity
  8
치수문자_일반주서
 62
     0
100
AcDbMText
 10
165.8339569370718
 20
-12.3207320935024
 30
0.0
 40
3.5
 41
0.0
 71
     2
 72
     1
  1
\A1;25.40 [1]
  7
SLDTEXTSTYLE0
 73
     1
 44
1.0
  0
POINT
  5
35D
330
351
100
AcDbEntity
  8
Defpoints
 62
     0
100
AcDbPoint
 10
207.6817069370718
 20
-30.12887193767114
 30
0.0
  0
POINT
  5
35E
330
351
100
AcDbEntity
  8
Defpoints
 62
     0
100
AcDbPoint
 10
182.2817069370718
 20
-30.30019754710839
 30
0.0
  0
POINT
  5
35F
330
351
100
AcDbEntity
  8
Defpoints
 62
     0
100
AcDbPoint
 10
182.2817069370718
 20
-16.6957320935024
 30
0.0
  0
ENDBLK
  5
353
330
351
100
AcDbEntity
  8
0
100
AcDbBlockEnd
  0
BLOCK
  5
361
330
360
100
AcDbEntity
  8
0
100
AcDbBlockBegin
  2
*D18
 70
     1
 10
0.0
 20
0.0
 30
0.0
  3
*D18
  1
*D20
  0
LINE
  5
363
330
360
100
AcDbEntity
  8
치수문자_일반주서
 62
     0
370
    -2
100
AcDbLine
 10
207.6817069370718
 20
-30.06637193767114
 30
0.0
 11
207.6817069370718
 21
1.207356133655637
 31
0.0
  0
LINE
  5
364
330
360
100
AcDbEntity
  8
치수문자_일반주서
 62
     0
370
    -2
100
AcDbLine
 10
102.9067069370718
 20
-30.93949693767115
 30
0.0
 11
102.9067069370718
 21
1.207356133655637
 31
0.0
  0
LINE
  5
365
330
360
100
AcDbEntity
  8
치수문자_일반주서
 62
     0
370
    -2
100
AcDbLine
 10
204.3797069370718
 20
1.207356133655637
 30
0.0
 11
106.2087069370718
 21
1.207356133655637
 31
0.0
  0
SOLID
  5
366
330
360
100
AcDbEntity
  8
치수문자_일반주서
 62
     0
100
AcDbTrace
 10
204.3797069370718
 20
0.6570228003223034
 30
0.0
 11
204.3797069370718
 21
1.75768946698897
 31
0.0
 12
207.6817069370718
 22
1.207356133655637
 32
0.0
 13
207.6817069370718
 23
1.207356133655637
 33
0.0
  0
SOLID
  5
367
330
360
100
AcDbEntity
  8
치수문자_일반주서
 62
     0
100
AcDbTrace
 10
106.2087069370718
 20
1.75768946698897
 30
0.0
 11
106.2087069370718
 21
0.6570228003223034
 31
0.0
 12
102.9067069370718
 22
1.207356133655637
 32
0.0
 13
102.9067069370718
 23
1.207356133655637
 33
0.0
  0
MTEXT
  5
368
330
360
100
AcDbEntity
  8
치수문자_일반주서
 62
     0
100
AcDbMText
 10
157.8634233668245
 20
5.582356133655637
 30
0.0
 40
3.5
 41
0.0
 71
     2
 72
     1
  1
\A1;104.78 [4 1/8]
  7
SLDTEXTSTYLE0
 73
     1
 44
1.0
  0
POINT
  5
369
330
360
100
AcDbEntity
  8
Defpoints
 62
     0
100
AcDbPoint
 10
207.6817069370718
 20
-30.12887193767114
 30
0.0
  0
POINT
  5
36A
330
360
100
AcDbEntity
  8
Defpoints
 62
     0
100
AcDbPoint
 10
102.9067069370718
 20
-31.00199693767115
 30
0.0
  0
POINT
  5
36B
330
360
100
AcDbEntity
  8
Defpoints
 62
     0
100
AcDbPoint
 10
102.9067069370718
 20
1.207356133655637
 30
0.0
  0
ENDBLK
  5
362
330
360
100
AcDbEntity
  8
0
100
AcDbBlockEnd
  0
ENDSEC
  0
SECTION
  2
ENTITIES
  0
LINE
  5
96
330
1F
100
AcDbEntity
  8
0
  6
Continuous
 62
     1
370
    15
100
AcDbLine
 10
40.70649967988807
 20
5.953124999999999
 30
0.0
 11
37.07506055010744
 21
5.953124999999999
 31
0.0
  0
LINE
  5
97
330
1F
100
AcDbEntity
  8
0
  6
Continuous
 62
     1
370
    15
100
AcDbLine
 10
37.07506055010735
 20
-5.953125000000004
 30
0.0
 11
40.70649967988805
 21
-5.953125000000004
 31
0.0
  0
LINE
  5
98
330
1F
100
AcDbEntity
  8
외형선
  6
Continuous
370
    15
100
AcDbLine
 10
24.50634233574607
 20
-6.350000000000011
 30
0.0
 11
25.9875
 21
-5.953125000000003
 31
0.0
  0
LINE
  5
99
330
1F
100
AcDbEntity
  8
외형선
  6
Continuous
370
    15
100
AcDbLine
 10
25.9875
 20
5.953124999999997
 30
0.0
 11
24.50634233574607
 21
6.350000000000006
 31
0.0
  0
LINE
  5
9A
330
1F
100
AcDbEntity
  8
외형선
  6
Continuous
370
    15
100
AcDbLine
 10
-24.50634233574607
 20
-6.350000000000007
 30
0.0
 11
24.50634233574608
 21
-6.350000000000007
 31
0.0
  0
LINE
  5
9B
330
1F
100
AcDbEntity
  8
외형선
  6
Continuous
370
    15
100
AcDbLine
 10
24.50634233574607
 20
6.350000000000001
 30
0.0
 11
5.727700000000024
 21
6.350000000000001
 31
0.0
  0
LINE
  5
9E
330
1F
100
AcDbEntity
  8
외형선
  6
Continuous
370
    15
100
AcDbLine
 10
25.9875
 20
-5.953125000000003
 30
0.0
 11
26.48748932140985
 21
-5.953125000000003
 31
0.0
  0
LINE
  5
9F
330
1F
100
AcDbEntity
  8
외형선
  6
Continuous
370
    15
100
AcDbLine
 10
26.48748932140985
 20
5.953124999999997
 30
0.0
 11
25.9875
 21
5.953124999999997
 31
0.0
  0
LINE
  5
A0
330
1F
100
AcDbEntity
  8
0
  6
Continuous
 62
     1
370
    15
100
AcDbLine
 10
52.3875
 20
-5.391634282288114
 30
0.0
 11
52.3875
 21
0.5100717822881816
 31
0.0
  0
SPLINE
  5
A1
330
1F
100
AcDbEntity
  8
0
  6
Continuous
 62
     1
370
    15
100
AcDbSpline
210
0.0
220
0.0
230
1.0
 70
     8
 71
     3
 72
    46
 73
    42
 74
     0
 42
0.000000001
 43
0.00000001
 40
0.0
 40
0.0
 40
0.0
 40
0.0
 40
0.0625000000000006
 40
0.0625000000000006
 40
0.1250000000000013
 40
0.1250000000000013
 40
0.1562500000000009
 40
0.1562500000000009
 40
0.1875000000000006
 40
0.1875000000000006
 40
0.2500000000000013
 40
0.2500000000000013
 40
0.3125000000000019
 40
0.3125000000000019
 40
0.3750000000000026
 40
0.3750000000000026
 40
0.4062500000000029
 40
0.4062500000000029
 40
0.4375000000000032
 40
0.4375000000000032
 40
0.5000000000000026
 40
0.5000000000000026
 40
0.531250000000003
 40
0.531250000000003
 40
0.5625000000000033
 40
0.5625000000000033
 40
0.6250000000000027
 40
0.6250000000000027
 40
0.6875000000000021
 40
0.6875000000000021
 40
0.7500000000000016
 40
0.7500000000000016
 40
0.7812500000000019
 40
0.7812500000000019
 40
0.8125000000000022
 40
0.8125000000000022
 40
0.8750000000000014
 40
0.8750000000000014
 40
0.9375000000000008
 40
0.9375000000000008
 40
1.0
 40
1.0
 40
1.0
 40
1.0
 10
52.3875
 20
-5.391634282288114
 30
0.0
 10
51.86125548506876
 20
-5.262350965637038
 30
0.0
 10
51.32861605610309
 20
-5.111200145893391
 30
0.0
 10
50.26935373544116
 20
-4.770244027559498
 30
0.0
 10
49.74339810759448
 20
-4.58065991260938
 30
0.0
 10
48.94752666500185
 20
-4.269456821473079
 30
0.0
 10
48.68214117163394
 20
-4.161377315257329
 30
0.0
 10
48.15353458930247
 20
-3.937518859632138
 30
0.0
 10
47.89089034709011
 20
-3.821837086396367
 30
0.0
 10
47.09727135602807
 20
-3.462994604060523
 30
0.0
 10
46.56441457522338
 20
-3.208493904483974
 30
0.0
 10
45.50997773324497
 20
-2.678036115791866
 30
0.0
 10
44.97949891761367
 20
-2.400623459524149
 30
0.0
 10
43.91938079723891
 20
-1.82914839959742
 30
0.0
 10
43.39389253106315
 20
-1.535884548995709
 30
0.0
 10
42.59820810278037
 20
-1.087261347887572
 30
0.0
 10
42.33269266631391
 20
-0.936441364314448
 30
0.0
 10
41.80344546953997
 20
-0.6335881990133996
 30
0.0
 10
41.54073872577445
 20
-0.4817537524803155
 30
0.0
 10
40.7481327373021
 20
-0.0244167369054271
 30
0.0
 10
40.21518505527337
 20
0.2826476609480494
 30
0.0
 10
39.4230796438068
 20
0.738362134767369
 30
0.0
 10
39.16020621596947
 20
0.889467581477716
 30
0.0
 10
38.63071789690913
 20
1.19033694531443
 30
0.0
 10
38.36516530396704
 20
1.339895596378355
 30
0.0
 10
37.5696212654201
 20
1.783943693066406
 30
0.0
 10
37.04421681168943
 20
2.073178766530146
 30
0.0
 10
35.9838027501976
 20
2.634760922464369
 30
0.0
 10
35.45414889095433
 20
2.906112942599643
 30
0.0
 10
34.39893752723709
 20
3.423131630783977
 30
0.0
 10
33.86602546691665
 20
3.669950301810017
 30
0.0
 10
33.07282634860761
 20
4.016050968084307
 30
0.0
 10
32.81020941631915
 20
4.127318060856664
 30
0.0
 10
32.28130774771966
 20
4.342007982066808
 30
0.0
 10
32.01585779296917
 20
4.445301034453591
 30
0.0
 10
31.22004506409539
 20
4.7416078720714
 30
0.0
 10
30.69434080804577
 20
4.920594696238517
 30
0.0
 10
29.63467402301742
 20
5.239297733140732
 30
0.0
 10
29.10302524555519
 20
5.378645628805676
 30
0.0
 10
28.04965521042947
 20
5.613113344960546
 30
0.0
 10
27.51690526640859
 20
5.709022964662588
 30
0.0
 10
26.9875
 20
5.781799390562764
 30
0.0
  0
SPLINE
  5
A2
330
1F
100
AcDbEntity
  8
0
  6
Continuous
 62
     1
370
    15
100
AcDbSpline
210
0.0
220
0.0
230
1.0
 70
     8
 71
     3
 72
    18
 73
    14
 74
     0
 42
0.000000001
 43
0.00000001
 40
0.0
 40
0.0
 40
0.0
 40
0.0
 40
0.0941972667980438
 40
0.188386099699163
 40
0.2825676169656241
 40
0.3767429421886818
 40
0.4709132034775668
 40
0.5650795326414546
 40
0.6592430643656703
 40
0.7628335751828295
 40
0.8664232685477429
 40
0.9700119089417892
 40
1.0
 40
1.0
 40
1.0
 40
1.0
 10
52.3875
 20
0.5100717822881825
 30
0.0
 10
51.71000056044068
 20
0.8977919554087681
 30
0.0
 10
50.35506234083623
 20
1.673197587352097
 30
0.0
 10
48.32278515024876
 20
2.766276180258199
 30
0.0
 10
46.29069492754989
 20
3.753644026471733
 30
0.0
 10
44.25876358962331
 20
4.59533010423625
 30
0.0
 10
42.22697123410586
 20
5.259156883414399
 30
0.0
 10
40.19525043036575
 20
5.719663385788274
 30
0.0
 10
38.09590913704791
 20
5.965721706100115
 30
0.0
 10
35.92833533193945
 20
5.965706468887737
 30
0.0
 10
33.69310587858254
 20
5.66959667389906
 30
0.0
 10
31.98724121301931
 20
5.288921660766457
 30
0.0
 10
31.02647244367937
 20
4.942646890235947
 30
0.0
 10
30.81077902890865
 20
4.864907906530231
 30
0.0
  0
SPLINE
  5
A3
330
1F
100
AcDbEntity
  8
0
  6
Continuous
 62
     1
370
    15
100
AcDbSpline
210
0.0
220
0.0
230
1.0
 70
     8
 71
     3
 72
    17
 73
    13
 74
     0
 42
0.000000001
 43
0.00000001
 40
0.0
 40
0.0
 40
0.0
 40
0.0
 40
0.1016458909809014
 40
0.2032984156576689
 40
0.3049587869706609
 40
0.4066282121440282
 40
0.5082984115171378
 40
0.6099594759952379
 40
0.7116125951692541
 40
0.823409744237251
 40
0.9352042834055628
 40
1.0
 40
1.0
 40
1.0
 40
1.0
 10
26.9875
 20
-1.417918570621476
 30
0.0
 10
27.66480368817796
 20
-1.792390661400513
 30
0.0
 10
29.01945526727176
 20
-2.541359282057271
 30
0.0
 10
31.05154004776775
 20
-3.551715075537297
 30
0.0
 10
33.08380854903221
 20
-4.428569281935744
 30
0.0
 10
35.1162421799748
 20
-5.132872139701109
 30
0.0
 10
37.14868088931352
 20
-5.638931508236144
 30
0.0
 10
39.18098028002574
 20
-5.925967835835543
 30
0.0
 10
41.2806620809411
 20
-5.988076573616686
 30
0.0
 10
43.44811971355023
 20
-5.782420648783503
 30
0.0
 10
45.36988320187486
 20
-5.400979225322687
 30
0.0
 10
46.54665216104529
 20
-5.002970201843667
 30
0.0
 10
46.97844035709375
 20
-4.856929981357076
 30
0.0
  0
SPLINE
  5
A4
330
1F
100
AcDbEntity
  8
외형선
  6
Continuous
370
    15
100
AcDbSpline
210
0.0
220
0.0
230
1.0
 70
    24
 71
     3
 72
    21
 73
    17
 74
     0
 42
0.000000001
 43
0.00000001
 40
0.0
 40
0.0
 40
0.0
 40
0.0
 40
0.1024892579951026
 40
0.1738025362911574
 40
0.2471839044889023
 40
0.3184971827849615
 40
0.3918785509827112
 40
0.4631918292787697
 40
0.5365731974765182
 40
0.6078864757725772
 40
0.6812678439703261
 40
0.7525811222663856
 40
0.8259624904641353
 40
0.8972757687601628
 40
0.970657136957944
 40
1.0
 40
1.0
 40
1.0
 40
1.0
 10
26.9875
 20
4.938339008741942
 30
0.0
 10
26.98749999999997
 20
4.745490295471622
 30
0.0
 10
26.98749999999997
 20
4.418455090587324
 30
0.0
 10
26.98750000000003
 20
3.834822047122217
 30
0.0
 10
26.98749999999997
 20
3.283261919977974
 30
0.0
 10
26.9875000000001
 20
2.692514205096431
 30
0.0
 10
26.98749999999987
 20
2.092128455533977
 30
0.0
 10
26.98750000000003
 20
1.487708002695325
 30
0.0
 10
26.98749999999998
 20
0.9073775244861589
 30
0.0
 10
26.98750000000004
 20
0.357149342359284
 30
0.0
 10
26.9875
 20
-0.1377612602093861
 30
0.0
 10
26.98750000000003
 20
-0.5712342629058611
 30
0.0
 10
26.98750000000004
 20
-0.9270052520207556
 30
0.0
 10
26.98750000000004
 20
-1.187168202196684
 30
0.0
 10
26.98749999999993
 20
-1.352779952121077
 30
0.0
 10
26.98749999999998
 20
-1.36456501558509
 30
0.0
 10
26.98749999999997
 20
-1.367931382984415
 30
0.0
  0
SPLINE
  5
A5
330
1F
100
AcDbEntity
  8
0
  6
Continuous
 62
     1
370
    15
100
AcDbSpline
210
0.0
220
0.0
230
1.0
 70
     8
 71
     3
 72
    46
 73
    42
 74
     0
 42
0.000000001
 43
0.00000001
 40
0.0
 40
0.0
 40
0.0
 40
0.0
 40
0.0624999999999993
 40
0.0624999999999993
 40
0.1249999999999987
 40
0.1249999999999987
 40
0.1562499999999984
 40
0.1562499999999984
 40
0.1874999999999981
 40
0.1874999999999981
 40
0.2499999999999974
 40
0.2499999999999974
 40
0.3124999999999967
 40
0.3124999999999967
 40
0.374999999999996
 40
0.374999999999996
 40
0.406249999999995
 40
0.406249999999995
 40
0.437499999999994
 40
0.437499999999994
 40
0.4999999999999921
 40
0.4999999999999921
 40
0.5312499999999917
 40
0.5312499999999917
 40
0.5624999999999913
 40
0.5624999999999913
 40
0.6249999999999919
 40
0.6249999999999919
 40
0.6874999999999923
 40
0.6874999999999923
 40
0.7499999999999928
 40
0.7499999999999928
 40
0.7812499999999938
 40
0.7812499999999938
 40
0.8124999999999947
 40
0.8124999999999947
 40
0.8749999999999964
 40
0.8749999999999964
 40
0.9374999999999982
 40
0.9374999999999982
 40
1.0
 40
1.0
 40
1.0
 40
1.0
 10
52.38749999999998
 20
-5.953124999999994
 30
0.0
 10
51.86125548506869
 20
-5.905105006925544
 30
0.0
 10
51.32861605610305
 20
-5.855388719936494
 30
0.0
 10
50.2693537354411
 20
-5.710240944944858
 30
0.0
 10
49.74339810759448
 20
-5.615011362895316
 30
0.0
 10
48.94752666500189
 20
-5.439068716100088
 30
0.0
 10
48.68214117163394
 20
-5.374967085820395
 30
0.0
 10
48.15353458930247
 20
-5.236464698768506
 30
0.0
 10
47.89089034709009
 20
-5.162135055466983
 30
0.0
 10
47.09727135602804
 20
-4.923556956742224
 30
0.0
 10
46.56441457522338
 20
-4.74393624158571
 30
0.0
 10
45.50997773324497
 20
-4.350040262568218
 30
0.0
 10
44.97949891761366
 20
-4.134706574944286
 30
0.0
 10
43.91938079723892
 20
-3.673162828516133
 30
0.0
 10
43.39389253106318
 20
-3.427645697185978
 30
0.0
 10
42.59820810278035
 20
-3.039387564308662
 30
0.0
 10
42.33269266631391
 20
-2.90678252046417
 30
0.0
 10
41.80344546953996
 20
-2.636392719589688
 30
0.0
 10
41.54073872577442
 20
-2.498793283040897
 30
0.0
 10
40.74813273730207
 20
-2.078238201549837
 30
0.0
 10
40.21518505527337
 20
-1.787708439310398
 30
0.0
 10
39.42307964380674
 20
-1.344385152345897
 30
0.0
 10
39.16020621596945
 20
-1.195358270211963
 30
0.0
 10
38.63071789690911
 20
-0.8945349563415549
 30
0.0
 10
38.365165303967
 20
-0.7429364721746741
 30
0.0
 10
37.5696212654201
 20
-0.2865973161346519
 30
0.0
 10
37.04421681168935
 20
0.019013009336376
 30
0.0
 10
35.98380275019756
 20
0.6295165834181203
 30
0.0
 10
35.45414889095431
 20
0.9333696635486248
 30
0.0
 10
34.39893752723712
 20
1.530566294442793
 30
0.0
 10
33.86602546691664
 20
1.825272281172062
 30
0.0
 10
33.0728263486076
 20
2.253656527644797
 30
0.0
 10
32.81020941631918
 20
2.394052197697881
 30
0.0
 10
32.28130774771969
 20
2.670494801639018
 30
0.0
 10
32.01585779296917
 20
2.806386247001726
 30
0.0
 10
31.22004506409544
 20
3.205235218541898
 30
0.0
 10
30.69434080804582
 20
3.458714324178952
 30
0.0
 10
29.63467402301745
 20
3.937724237483901
 30
0.0
 10
29.10302524555522
 20
4.162803974029076
 30
0.0
 10
28.04965521042953
 20
4.577084154157927
 30
0.0
 10
27.51690526640869
 20
4.767703349479726
 30
0.0
 10
26.98750000000001
 20
4.938339008741935
 30
0.0
  0
LINE
  5
A6
330
1F
100
AcDbEntity
  8
0
  6
Continuous
 62
     1
370
    15
100
AcDbLine
 10
52.38749999999998
 20
-5.953124999999994
 30
0.0
 11
52.3875
 21
-5.391634282288114
 31
0.0
  0
LINE
  5
A7
330
1F
100
AcDbEntity
  8
외형선
  6
Continuous
370
    15
100
AcDbLine
 10
26.9875
 20
4.938339008741942
 30
0.0
 11
26.98749999999998
 21
5.781799390562764
 31
0.0
  0
SPLINE
  5
A8
330
1F
100
AcDbEntity
  8
0
  6
Continuous
 62
     1
370
    15
100
AcDbSpline
210
0.0
220
0.0
230
1.0
 70
     8
 71
     3
 72
    13
 73
     9
 74
     0
 42
0.000000001
 43
0.00000001
 40
0.0
 40
0.0
 40
0.0
 40
0.0
 40
0.0433724241052586
 40
0.2347077302308212
 40
0.4260385696418083
 40
0.6173645129385246
 40
0.8086851319814807
 40
1.0
 40
1.0
 40
1.0
 40
1.0
 10
40.70649967988805
 20
5.931521909134079
 30
0.0
 10
40.87536767923577
 20
5.937953310968314
 30
0.0
 10
41.78918851478179
 20
5.972756524250849
 30
0.0
 10
43.44812533528481
 20
5.775911340843081
 30
0.0
 10
45.68305409760534
 20
5.318228295644247
 30
0.0
 10
47.91794311163944
 20
4.58868980717605
 30
0.0
 10
50.15275078204148
 20
3.658408054501533
 30
0.0
 10
51.64259105813056
 20
2.902053123907624
 30
0.0
 10
52.3875
 20
2.523881342630889
 30
0.0
  0
LINE
  5
A9
330
1F
100
AcDbEntity
  8
0
  6
Continuous
 62
     1
370
    15
100
AcDbLine
 10
52.3875
 20
0.5100717822881826
 30
0.0
 11
52.3875
 21
2.523881342630889
 31
0.0
  0
SPLINE
  5
AA
330
1F
100
AcDbEntity
  8
0
  6
Continuous
 62
     1
370
    15
100
AcDbSpline
210
0.0
220
0.0
230
1.0
 70
     8
 71
     3
 72
    12
 73
     8
 74
     0
 42
0.000000001
 43
0.00000001
 40
0.0
 40
0.0
 40
0.0
 40
0.0
 40
0.1136749259809904
 40
0.3352600760751328
 40
0.5568429737955108
 40
0.7784231159352002
 40
1.0
 40
1.0
 40
1.0
 40
1.0
 10
37.07506055010735
 20
-5.918215672494758
 30
0.0
 10
36.69282451393696
 20
-5.924583308474196
 30
0.0
 10
35.56550042325247
 20
-5.943363299791207
 30
0.0
 10
33.69309942138523
 20
-5.671715901336664
 30
0.0
 10
31.45786804604663
 20
-5.132011842889653
 30
0.0
 10
29.22266963130741
 20
-4.349132368097696
 30
0.0
 10
27.73255289200718
 20
-3.666062988102546
 30
0.0
 10
26.98750000000003
 20
-3.324530809056015
 30
0.0
  0
LINE
  5
AB
330
1F
100
AcDbEntity
  8
외형선
  6
Continuous
370
    15
100
AcDbLine
 10
26.9875
 20
-3.324530809056002
 30
0.0
 11
26.98749999999998
 21
-1.417918570621468
 31
0.0
  0
SPLINE
  5
AC
330
1F
100
AcDbEntity
  8
0
  6
Continuous
 62
     1
370
    15
100
AcDbSpline
210
0.0
220
0.0
230
1.0
 70
     8
 71
     3
 72
    10
 73
     6
 74
     0
 42
0.000000001
 43
0.00000001
 40
0.0
 40
0.0
 40
0.0
 40
0.0
 40
0.3757510684458548
 40
0.7514684942406191
 40
1.0
 40
1.0
 40
1.0
 40
1.0
 10
52.38749999999998
 20
5.953125000000006
 30
0.0
 10
51.71000076412761
 20
5.874071277054405
 30
0.0
 10
50.3550629518788
 20
5.759753093713915
 30
0.0
 10
48.55204818316762
 20
5.377684245802418
 30
0.0
 10
47.42653830449125
 20
5.005219099604949
 30
0.0
 10
46.97844035709377
 20
4.856929981357071
 30
0.0
  0
LINE
  5
AD
330
1F
100
AcDbEntity
  8
0
  6
Continuous
 62
     1
370
    15
100
AcDbLine
 10
52.3875
 20
2.508695648646256
 30
0.0
 11
52.38749999999998
 21
5.953125000000006
 31
0.0
  0
SPLINE
  5
AE
330
1F
100
AcDbEntity
  8
0
  6
Continuous
 62
     1
370
    15
100
AcDbSpline
210
0.0
220
0.0
230
1.0
 70
     8
 71
     3
 72
     9
 73
     5
 74
     0
 42
0.000000001
 43
0.00000001
 40
0.0
 40
0.0
 40
0.0
 40
0.0
 40
0.5314623830103793
 40
1.0
 40
1.0
 40
1.0
 40
1.0
 10
26.98750000000001
 20
-5.781799390562759
 30
0.0
 10
27.66480317560868
 20
-5.670448915503274
 30
0.0
 10
28.93921731527401
 20
-5.460931781988086
 30
0.0
 10
30.21365638444208
 20
-5.055069604157295
 30
0.0
 10
30.81077902890855
 20
-4.864907906530238
 30
0.0
  0
SPLINE
  5
AF
330
1F
100
AcDbEntity
  8
외형선
  6
Continuous
370
    15
100
AcDbSpline
210
0.0
220
0.0
230
1.0
 70
    24
 71
     3
 72
    12
 73
     8
 74
     0
 42
0.000000001
 43
0.00000001
 40
0.0
 40
0.0
 40
0.0
 40
0.0
 40
0.1517685333046259
 40
0.3844174443448945
 40
0.6238131895662966
 40
0.8102034968680637
 40
1.0
 40
1.0
 40
1.0
 40
1.0
 10
26.98750000000003
 20
-3.397092776103793
 30
0.0
 10
26.98750000000004
 20
-3.499492099776187
 30
0.0
 10
26.98750000000001
 20
-3.758861321127074
 30
0.0
 10
26.98750000000004
 20
-4.242920802493424
 30
0.0
 10
26.98749999999997
 20
-4.779894207723376
 30
0.0
 10
26.98749999999994
 20
-5.300225007874169
 30
0.0
 10
26.98749999999997
 20
-5.620308527419821
 30
0.0
 10
26.9875
 20
-5.781799390562761
 30
0.0
  0
LINE
  5
B0
330
1F
100
AcDbEntity
  8
외형선
  6
Continuous
370
    15
100
AcDbLine
 10
25.9875
 20
-0.0000000000000027
 30
0.0
 11
25.9875
 21
5.953125000000003
 31
0.0
  0
LINE
  5
B1
330
1F
100
AcDbEntity
  8
외형선
  6
Continuous
370
    15
100
AcDbLine
 10
25.9875
 20
-5.953125000000015
 30
0.0
 11
25.9875
 21
-0.0000000000000027
 31
0.0
  0
LINE
  5
B2
330
1F
100
AcDbEntity
  8
외형선
  6
Continuous
370
    15
100
AcDbLine
 10
24.50634233574607
 20
-0.0000000000000027
 30
0.0
 11
24.50634233574607
 21
6.350000000000006
 31
0.0
  0
LINE
  5
B3
330
1F
100
AcDbEntity
  8
외형선
  6
Continuous
370
    15
100
AcDbLine
 10
24.50634233574607
 20
-6.350000000000011
 30
0.0
 11
24.50634233574607
 21
-0.0000000000000027
 31
0.0
  0
LINE
  5
B8
330
1F
100
AcDbEntity
  8
외형선
  6
Continuous
370
    15
100
AcDbLine
 10
26.48748932140985
 20
5.843809842242265
 30
0.0
 11
26.48748932140985
 21
5.953124999999997
 31
0.0
  0
SPLINE
  5
B9
330
1F
100
AcDbEntity
  8
외형선
  6
Continuous
370
    15
100
AcDbSpline
210
0.0
220
0.0
230
1.0
 70
     8
 71
     3
 72
     8
 73
     4
 74
     0
 42
0.000000001
 43
0.00000001
 40
0.0
 40
0.0
 40
0.0
 40
0.0
 40
1.0
 40
1.0
 40
1.0
 40
1.0
 10
26.9875
 20
5.781799390562764
 30
0.0
 10
26.82039820897987
 20
5.804770584624473
 30
0.0
 10
26.6536305006144
 20
5.825448879274916
 30
0.0
 10
26.48748932140983
 20
5.843810933395264
 30
0.0
  0
SPLINE
  5
BA
330
1F
100
AcDbEntity
  8
외형선
  6
Continuous
370
    15
100
AcDbSpline
210
0.0
220
0.0
230
1.0
 70
     8
 71
     3
 72
     8
 73
     4
 74
     0
 42
0.000000001
 43
0.00000001
 40
0.0
 40
0.0
 40
0.0
 40
0.0
 40
1.0
 40
1.0
 40
1.0
 40
1.0
 10
26.98750000000003
 20
4.938339008741932
 30
0.0
 10
26.8203982089799
 20
4.992198549029559
 30
0.0
 10
26.65363050061442
 20
5.044076842231698
 30
0.0
 10
26.48748932140985
 20
5.093893687232841
 30
0.0
  0
LINE
  5
BB
330
1F
100
AcDbEntity
  8
외형선
  6
Continuous
370
    15
100
AcDbLine
 10
26.48748932140985
 20
-1.135598429612137
 30
0.0
 11
26.48748932140985
 21
5.093896787278502
 31
0.0
  0
SPLINE
  5
BC
330
1F
100
AcDbEntity
  8
외형선
  6
Continuous
370
    15
100
AcDbSpline
210
0.0
220
0.0
230
1.0
 70
     8
 71
     3
 72
     8
 73
     4
 74
     0
 42
0.000000001
 43
0.00000001
 40
0.0
 40
0.0
 40
0.0
 40
0.0
 40
1.0
 40
1.0
 40
1.0
 40
1.0
 10
26.9875
 20
-1.417918570621476
 30
0.0
 10
26.82039820897987
 20
-1.32424969669716
 30
0.0
 10
26.6536305006144
 20
-1.230084758498803
 30
0.0
 10
26.48748932140983
 20
-1.135592814504887
 30
0.0
  0
SPLINE
  5
BD
330
1F
100
AcDbEntity
  8
외형선
  6
Continuous
370
    15
100
AcDbSpline
210
0.0
220
0.0
230
1.0
 70
     8
 71
     3
 72
     8
 73
     4
 74
     0
 42
0.000000001
 43
0.00000001
 40
0.0
 40
0.0
 40
0.0
 40
0.0
 40
1.0
 40
1.0
 40
1.0
 40
1.0
 10
26.98750000000003
 20
-3.324530809056015
 30
0.0
 10
26.8203982089799
 20
-3.244526536552125
 30
0.0
 10
26.65363050061442
 20
-3.16326602861632
 30
0.0
 10
26.48748932140985
 20
-3.080899928396621
 30
0.0
  0
LINE
  5
BE
330
1F
100
AcDbEntity
  8
외형선
  6
Continuous
370
    15
100
AcDbLine
 10
26.48748932140985
 20
-5.953125000000003
 30
0.0
 11
26.48748932140985
 21
-3.080894802841964
 31
0.0
  0
SPLINE
  5
BF
330
1F
100
AcDbEntity
  8
외형선
  6
Continuous
370
    15
100
AcDbSpline
210
0.0
220
0.0
230
1.0
 70
     8
 71
     3
 72
     8
 73
     4
 74
     0
 42
0.000000001
 43
0.00000001
 40
0.0
 40
0.0
 40
0.0
 40
0.0
 40
1.0
 40
1.0
 40
1.0
 40
1.0
 10
26.9875
 20
-5.781799390562759
 30
0.0
 10
26.82039820897987
 20
-5.804770584624468
 30
0.0
 10
26.6536305006144
 20
-5.825448879274913
 30
0.0
 10
26.48748932140983
 20
-5.843810933395261
 30
0.0
  0
SPLINE
  5
C0
330
1F
100
AcDbEntity
  8
외형선
  6
Continuous
370
    15
100
AcDbSpline
210
0.0
220
0.0
230
1.0
 70
    24
 71
     3
 72
    21
 73
    17
 74
     0
 42
0.000000001
 43
0.00000001
 40
0.0
 40
0.0
 40
0.0
 40
0.0
 40
0.0420297468460977
 40
0.1134647688959554
 40
0.1869714114246107
 40
0.2584064334744677
 40
0.331913076003123
 40
0.4033480980529819
 40
0.476854740581639
 40
0.548289762631496
 40
0.6217964051601509
 40
0.6932314272100051
 40
0.7667380697386573
 40
0.8381730917885258
 40
0.911679734317194
 40
1.0
 40
1.0
 40
1.0
 40
1.0
 10
26.9875
 20
-1.380684062943892
 30
0.0
 10
26.9875
 20
-1.364827841913934
 30
0.0
 10
26.98749999999995
 20
-1.322021910645413
 30
0.0
 10
26.98749999999994
 20
-1.148123013136897
 30
0.0
 10
26.98750000000008
 20
-0.867982340860036
 30
0.0
 10
26.98750000000001
 20
-0.4954130697429306
 30
0.0
 10
26.98749999999997
 20
-0.0525729016247601
 30
0.0
 10
26.98749999999998
 20
0.4572904302630912
 30
0.0
 10
26.98749999999997
 20
1.010219309135186
 30
0.0
 10
26.98749999999991
 20
1.600598665993995
 30
0.0
 10
26.98750000000007
 20
2.201106866163954
 30
0.0
 10
26.98749999999994
 20
2.805411637269987
 30
0.0
 10
26.98750000000001
 20
3.386087972494011
 30
0.0
 10
26.9875
 20
3.935064684746501
 30
0.0
 10
26.98750000000004
 20
4.473685054941842
 30
0.0
 10
26.98750000000003
 20
4.774282145690855
 30
0.0
 10
26.98750000000003
 20
4.938339008741947
 30
0.0
  0
SPLINE
  5
C1
330
1F
100
AcDbEntity
  8
외형선
  6
Continuous
370
    15
100
AcDbSpline
210
0.0
220
0.0
230
1.0
 70
    24
 71
     3
 72
    12
 73
     8
 74
     0
 42
0.000000001
 43
0.00000001
 40
0.0
 40
0.0
 40
0.0
 40
0.0
 40
0.2090952387078546
 40
0.4230408753052529
 40
0.6556720015043154
 40
0.8950494461227022
 40
1.0
 40
1.0
 40
1.0
 40
1.0
 10
26.98749999999998
 20
-5.781799390562761
 30
0.0
 10
26.9875
 20
-5.603817920161998
 30
0.0
 10
26.9875
 20
-5.243726329881198
 30
0.0
 10
26.98749999999998
 20
-4.690604877607615
 30
0.0
 10
26.98749999999995
 20
-4.137564963472442
 30
0.0
 10
26.98750000000011
 20
-3.694205864539243
 30
0.0
 10
26.98750000000004
 20
-3.466490123808977
 30
0.0
 10
26.98750000000003
 20
-3.397082776103793
 30
0.0
  0
LINE
  5
C2
330
1F
100
AcDbEntity
  8
중심선
 48
0.8
100
AcDbLine
 10
-55.38750000000001
 20
-0.0000000000000066
 30
0.0
 11
55.38750000000001
 21
0.0000000000000066
 31
0.0
  0
LINE
  5
C3
330
1F
100
AcDbEntity
  8
참조1
100
AcDbLine
 10
12.89338065701562
 20
0.0010749287238892
 30
0.0
 11
12.89338065701562
 21
-39.99892507127611
 31
0.0
  0
LINE
  5
C4
330
1F
100
AcDbEntity
  8
참조1
100
AcDbLine
 10
12.89338065701562
 20
-39.99892507127611
 30
0.0
 11
-29.25297615729306
 21
-39.9989250712761
 31
0.0
  0
CIRCLE
  5
C5
330
1F
100
AcDbEntity
  8
해칭선
100
AcDbCircle
 10
0.0
 20
0.0
 30
0.0
 40
3.000000000000005
  0
INSERT
  5
C6
330
1F
100
AcDbEntity
  8
0
  6
Continuous
 62
     7
100
AcDbBlockReference
 66
     1
  2
블럭10
 10
-13.9402729321252
 20
-52.04717430164393
 30
0.0
  0
ATTRIB
  5
C7
330
C6
100
AcDbEntity
  8
FORMAT
 62
     2
100
AcDbText
 10
-23.12156822086649
 20
-49.97180738881174
 30
0.0
 40
4.233333333333333
  1
E1051030 [ 4 FLUTE ]
 41
0.75
  7
SLDTEXTSTYLE0
 11
-23.12156822086649
 21
-52.08847405547841
 31
0.0
100
AcDbAttribute
  2
AUTOATTR0
 70
     0
 74
     1
  0
SEQEND
  5
C8
330
C6
100
AcDbEntity
  8
0
  6
Continuous
 62
     7
  0
HATCH
  5
C9
330
1F
100
AcDbEntity
  8
중심선
100
AcDbHatch
 10
0.0
 20
0.0
 30
0.0
210
0.0
220
0.0
230
1.0
  2
SOLID
 70
     1
 71
     0
 91
        1
 92
        0
 93
        4
 72
     1
 10
-8.225363627744372
 20
-35.8
 11
-11.67163887158165
 21
-35.8
 72
     1
 10
-11.67163887158165
 20
-35.8
 11
-13.79986873078568
 21
-38.33632558057257
 72
     1
 10
-13.79986873078568
 20
-38.33632558057257
 11
-10.35356040183524
 21
-38.33628615127008
 72
     1
 10
-10.35356040183524
 20
-38.33628615127008
 11
-8.225363627744372
 21
-35.8
 97
        0
 75
     0
 76
     1
 98
        1
 10
-12.89338065701562
 20
-0.0010749287238958
  0
HATCH
  5
CA
330
1F
100
AcDbEntity
  8
중심선
100
AcDbHatch
 10
0.0
 20
0.0
 30
0.0
210
0.0
220
0.0
230
1.0
  2
SOLID
 70
     1
 71
     0
 91
        1
 92
        0
 93
        4
 72
     1
 10
-3.212599636708392
 20
-35.8
 11
-6.658874880545646
 21
-35.79999999999998
 72
     1
 10
-6.658874880545646
 20
-35.79999999999998
 11
-11.19001288890309
 21
-41.20000000000002
 72
     1
 10
-11.19001288890309
 20
-41.20000000000002
 11
-7.743737645065809
 21
-41.20000000000002
 72
     1
 10
-7.743737645065808
 20
-41.20000000000002
 11
-3.212599636708392
 21
-35.8
 97
        0
 75
     0
 76
     1
 98
        1
 10
-12.89338065701562
 20
-0.0010749287238958
  0
HATCH
  5
CB
330
1F
100
AcDbEntity
  8
중심선
100
AcDbHatch
 10
0.0
 20
0.0
 30
0.0
210
0.0
220
0.0
230
1.0
  2
SOLID
 70
     1
 71
     0
 91
        1
 92
        0
 93
        4
 72
     1
 10
1.800164354327476
 20
-35.79999999999998
 11
-1.646110889509611
 21
-35.79999999999998
 72
     1
 10
-1.646110889509611
 20
-35.79999999999998
 11
-8.69454779139889
 21
-44.20000000000002
 72
     1
 10
-8.69454779139889
 20
-44.20000000000002
 11
-5.248272547561608
 21
-44.20000000000002
 72
     1
 10
-5.248272547561607
 20
-44.20000000000002
 11
1.800164354327476
 21
-35.79999999999998
 97
        0
 75
     0
 76
     1
 98
        1
 10
-12.89338065701562
 20
-0.0010749287238958
  0
HATCH
  5
CC
330
1F
100
AcDbEntity
  8
중심선
100
AcDbHatch
 10
0.0
 20
0.0
 30
0.0
210
0.0
220
0.0
230
1.0
  2
SOLID
 70
     1
 71
     0
 91
        1
 92
        0
 93
        6
 72
     3
 10
6.600054785339676
 20
-40.00000000005127
 11
3.960054785062283
 21
1.540882976769353E-10
 40
0.3939339440162628
 50
17.09539180608436
 51
320.0019657685078
 73
     0
 72
     1
 10
8.28305444104027
 20
-38.5878940046383
 11
10.58835631474131
 21
-36.65356729459035
 72
     3
 10
6.600054785286829
 20
-40.00000000000015
 11
6.600054785286829
 21
-1.278976924368180E-13
 40
0.636358354079598
 50
39.99873849337431
 51
368.4976242363724
 73
     1
 72
     1
 10
13.02538727718744
 20
-39.03999999993002
 11
5.280122092122753
 21
-39.03999999993002
 72
     1
 10
5.280122092122753
 20
-39.03999999993002
 11
5.280097047676819
 21
-40.95999999992991
 72
     1
 10
5.280097047676819
 20
-40.95999999992991
 11
9.721476817148854
 21
-40.95999999992988
 97
        0
 75
     0
 76
     1
 98
        1
 10
-12.89338065701562
 20
-0.0010749287238958
  0
DIMENSION
  5
CD
330
1F
100
AcDbEntity
  8
치수문자_일반주서
100
AcDbDimension
  2
_D
 10
66.62248764247379
 20
-5.953124999999943
 30
0.0
 11
66.62248764247366
 21
28.30712500000006
 31
0.0
 70
   160
  1
%%c<>
 71
     2
 42
11.90625
 52
-270.0
  3
SLDDIMSTYLE2
100
AcDbAlignedDimension
 13
52.38749999999998
 23
5.953125000000006
 33
0.0
 14
52.38749999999998
 24
-5.953124999999994
 34
0.0
 50
90.0000000000002
100
AcDbRotatedDimension
1001
ACAD
1000
DSTYLE
1002
{
1070
   171
1070
     6
1070
   273
1070
     5
1002
}
  0
DIMENSION
  5
E1
330
1F
100
AcDbEntity
  8
치수문자_일반주서
100
AcDbDimension
  2
_D_1
 10
26.98749999999998
 20
19.38626484416875
 30
0.0
 11
10.53974999999998
 21
19.38626484416875
 31
0.0
 70
   160
  1
<>
 71
     2
 42
25.4
  3
SLDDIMSTYLE2
100
AcDbAlignedDimension
 13
52.38749999999998
 23
5.953125000000006
 33
0.0
 14
26.98749999999998
 24
5.781799390562764
 34
0.0
100
AcDbRotatedDimension
1001
ACAD
1000
DSTYLE
1002
{
1070
   171
1070
     6
1070
   273
1070
     5
1002
}
  0
DIMENSION
  5
F6
330
1F
100
AcDbEntity
  8
치수문자_일반주서
100
AcDbDimension
  2
_D_2
 10
-52.38749999999998
 20
37.28935307132679
 30
0.0
 11
2.569216429752679
 21
37.28935307132679
 31
0.0
 70
   160
  1
<>
 71
     2
 42
104.775
  3
SLDDIMSTYLE2
100
AcDbAlignedDimension
 13
52.38749999999998
 23
5.953125000000006
 33
0.0
 14
-52.38749999999998
 24
5.953124999999992
 34
0.0
100
AcDbRotatedDimension
1001
ACAD
1000
DSTYLE
1002
{
1070
   171
1070
     6
1070
   273
1070
     5
1002
}
  0
DIMENSION
  5
109
330
1F
100
AcDbEntity
  8
치수문자_일반주서
100
AcDbDimension
  2
_D_3
 10
-64.59375
 20
-6.350000000000156
 30
0.0
 11
-64.59375000000003
 21
-0.0000000000000087
 31
0.0
 70
   160
  1
%%c<>
 71
     2
 42
12.70000000000001
 52
-270.0
  3
SLDDIMSTYLE2
100
AcDbAlignedDimension
 13
-24.50634233574606
 23
6.350000000000001
 33
0.0
 14
-24.50634233574607
 24
-6.350000000000007
 34
0.0
 50
90.0000000000002
100
AcDbRotatedDimension
1001
ACAD
1000
DSTYLE
1002
{
1070
   171
1070
     6
1070
   273
1070
     5
1002
}
  0
LINE
  5
11E
330
1F
100
AcDbEntity
  8
참조1
100
AcDbLine
 10
68.7193644723612
 20
7.441074928723896
 30
0.0
 11
68.7193644723612
 21
-7.438925071276109
 31
0.0
  0
LINE
  5
11F
330
1F
100
AcDbEntity
  8
참조1
100
AcDbLine
 10
81.41936447236121
 20
5.441074928723896
 30
0.0
 11
68.7193644723612
 21
5.441074928723896
 31
0.0
  0
SOLID
  5
120
330
1F
100
AcDbEntity
  8
참조1
100
AcDbTrace
 10
68.7193644723612
 20
5.441074928723896
 30
0.0
 11
75.0693644723612
 21
4.425074928723896
 31
0.0
 12
75.0693644723612
 22
6.457074928723896
 32
0.0
 13
75.0693644723612
 23
6.457074928723896
 33
0.0
  0
LINE
  5
121
330
1F
100
AcDbEntity
  8
참조1
100
AcDbLine
 10
81.41936447236121
 20
-5.438925071276109
 30
0.0
 11
68.7193644723612
 21
-5.438925071276109
 31
0.0
  0
SOLID
  5
122
330
1F
100
AcDbEntity
  8
참조1
100
AcDbTrace
 10
68.7193644723612
 20
-5.438925071276109
 30
0.0
 11
75.0693644723612
 21
-6.454925071276109
 31
0.0
 12
75.0693644723612
 22
-4.422925071276109
 32
0.0
 13
75.0693644723612
 23
-4.422925071276109
 33
0.0
  0
MTEXT
  5
123
330
1F
100
AcDbEntity
  8
참조1
100
AcDbMText
 10
78.1037146049872
 20
11.01136670591223
 30
0.0
 40
3.5
 41
0.0
 71
     1
 72
     1
  1
A
  7
SLDTEXTSTYLE0
 73
     1
 44
1.0
  0
MTEXT
  5
124
330
1F
100
AcDbEntity
  8
참조1
100
AcDbMText
 10
78.1037146049872
 20
0.1313667059122219
 30
0.0
 40
3.5
 41
0.0
 71
     1
 72
     1
  1
A
  7
SLDTEXTSTYLE0
 73
     1
 44
1.0
  0
INSERT
  5
12B
330
1F
100
AcDbEntity
  8
해칭선
100
AcDbBlockReference
  2
SW_DOWELSYMBOL_0
 10
0.0
 20
0.0
 30
0.0
  0
LINE
  5
316
330
1F
100
AcDbEntity
  8
0
  6
Continuous
 62
     1
370
    15
100
AcDbLine
 10
-40.70649967988805
 20
-5.953125000000001
 30
0.0
 11
-37.07506055010742
 21
-5.953125000000001
 31
0.0
  0
LINE
  5
317
330
1F
100
AcDbEntity
  8
0
  6
Continuous
 62
     1
370
    15
100
AcDbLine
 10
-37.07506055010733
 20
5.953124999999992
 30
0.0
 11
-40.70649967988805
 21
5.953124999999992
 31
0.0
  0
LINE
  5
318
330
1F
100
AcDbEntity
  8
외형선
  6
Continuous
370
    15
100
AcDbLine
 10
-24.50634233574606
 20
6.350000000000001
 30
0.0
 11
-25.98749999999998
 21
5.953124999999992
 31
0.0
  0
LINE
  5
319
330
1F
100
AcDbEntity
  8
외형선
  6
Continuous
370
    15
100
AcDbLine
 10
-25.98749999999998
 20
-5.953125000000008
 30
0.0
 11
-24.50634233574606
 21
-6.350000000000017
 31
0.0
  0
LINE
  5
31C
330
1F
100
AcDbEntity
  8
외형선
  6
Continuous
370
    15
100
AcDbLine
 10
-25.98749999999998
 20
5.953124999999992
 30
0.0
 11
-26.48748932140983
 21
5.953124999999992
 31
0.0
  0
LINE
  5
31D
330
1F
100
AcDbEntity
  8
외형선
  6
Continuous
370
    15
100
AcDbLine
 10
-26.48748932140983
 20
-5.953125000000008
 30
0.0
 11
-25.98749999999998
 21
-5.953125000000008
 31
0.0
  0
LINE
  5
31E
330
1F
100
AcDbEntity
  8
0
  6
Continuous
 62
     1
370
    15
100
AcDbLine
 10
-52.38749999999998
 20
5.391634282288108
 30
0.0
 11
-52.38749999999998
 21
-0.5100717822881797
 31
0.0
  0
SPLINE
  5
31F
330
1F
100
AcDbEntity
  8
0
  6
Continuous
 62
     1
370
    15
100
AcDbSpline
210
0.0
220
0.0
230
1.0
 70
     8
 71
     3
 72
    46
 73
    42
 74
     0
 42
0.000000001
 43
0.00000001
 40
0.0
 40
0.0
 40
0.0
 40
0.0
 40
0.0625000000000006
 40
0.0625000000000006
 40
0.1250000000000013
 40
0.1250000000000013
 40
0.1562500000000009
 40
0.1562500000000009
 40
0.1875000000000006
 40
0.1875000000000006
 40
0.2500000000000013
 40
0.2500000000000013
 40
0.3125000000000019
 40
0.3125000000000019
 40
0.3750000000000026
 40
0.3750000000000026
 40
0.4062500000000029
 40
0.4062500000000029
 40
0.4375000000000032
 40
0.4375000000000032
 40
0.5000000000000026
 40
0.5000000000000026
 40
0.531250000000003
 40
0.531250000000003
 40
0.5625000000000033
 40
0.5625000000000033
 40
0.6250000000000027
 40
0.6250000000000027
 40
0.6875000000000021
 40
0.6875000000000021
 40
0.7500000000000016
 40
0.7500000000000016
 40
0.7812500000000019
 40
0.7812500000000019
 40
0.8125000000000022
 40
0.8125000000000022
 40
0.8750000000000014
 40
0.8750000000000014
 40
0.9375000000000008
 40
0.9375000000000008
 40
1.0
 40
1.0
 40
1.0
 40
1.0
 10
-52.38749999999998
 20
5.391634282288115
 30
0.0
 10
-51.86125548506873
 20
5.262350965637039
 30
0.0
 10
-51.32861605610309
 20
5.111200145893391
 30
0.0
 10
-50.26935373544114
 20
4.770244027559499
 30
0.0
 10
-49.74339810759448
 20
4.580659912609376
 30
0.0
 10
-48.94752666500184
 20
4.269456821473077
 30
0.0
 10
-48.68214117163392
 20
4.161377315257325
 30
0.0
 10
-48.15353458930246
 20
3.937518859632135
 30
0.0
 10
-47.8908903470901
 20
3.821837086396364
 30
0.0
 10
-47.09727135602804
 20
3.462994604060519
 30
0.0
 10
-46.56441457522336
 20
3.208493904483965
 30
0.0
 10
-45.50997773324496
 20
2.678036115791862
 30
0.0
 10
-44.97949891761365
 20
2.40062345952414
 30
0.0
 10
-43.91938079723888
 20
1.829148399597414
 30
0.0
 10
-43.39389253106315
 20
1.535884548995703
 30
0.0
 10
-42.59820810278034
 20
1.087261347887561
 30
0.0
 10
-42.3326926663139
 20
0.9364413643144396
 30
0.0
 10
-41.80344546953994
 20
0.6335881990133949
 30
0.0
 10
-41.54073872577444
 20
0.4817537524803079
 30
0.0
 10
-40.74813273730208
 20
0.0244167369054147
 30
0.0
 10
-40.21518505527336
 20
-0.2826476609480586
 30
0.0
 10
-39.42307964380679
 20
-0.7383621347673788
 30
0.0
 10
-39.16020621596945
 20
-0.8894675814777251
 30
0.0
 10
-38.63071789690911
 20
-1.190336945314436
 30
0.0
 10
-38.36516530396704
 20
-1.339895596378363
 30
0.0
 10
-37.56962126542009
 20
-1.783943693066413
 30
0.0
 10
-37.0442168116894
 20
-2.073178766530156
 30
0.0
 10
-35.98380275019758
 20
-2.634760922464374
 30
0.0
 10
-35.45414889095431
 20
-2.906112942599656
 30
0.0
 10
-34.39893752723707
 20
-3.423131630783985
 30
0.0
 10
-33.86602546691665
 20
-3.669950301810026
 30
0.0
 10
-33.0728263486076
 20
-4.016050968084316
 30
0.0
 10
-32.81020941631913
 20
-4.127318060856674
 30
0.0
 10
-32.28130774771966
 20
-4.342007982066819
 30
0.0
 10
-32.01585779296916
 20
-4.445301034453601
 30
0.0
 10
-31.22004506409538
 20
-4.741607872071413
 30
0.0
 10
-30.69434080804574
 20
-4.920594696238525
 30
0.0
 10
-29.63467402301739
 20
-5.239297733140739
 30
0.0
 10
-29.10302524555518
 20
-5.378645628805686
 30
0.0
 10
-28.04965521042947
 20
-5.613113344960554
 30
0.0
 10
-27.51690526640856
 20
-5.709022964662595
 30
0.0
 10
-26.98749999999998
 20
-5.781799390562768
 30
0.0
  0
SPLINE
  5
320
330
1F
100
AcDbEntity
  8
0
  6
Continuous
 62
     1
370
    15
100
AcDbSpline
210
0.0
220
0.0
230
1.0
 70
     8
 71
     3
 72
    18
 73
    14
 74
     0
 42
0.000000001
 43
0.00000001
 40
0.0
 40
0.0
 40
0.0
 40
0.0
 40
0.0941972667980438
 40
0.188386099699163
 40
0.2825676169656241
 40
0.3767429421886818
 40
0.4709132034775668
 40
0.5650795326414546
 40
0.6592430643656703
 40
0.7628335751828295
 40
0.8664232685477429
 40
0.9700119089417892
 40
1.0
 40
1.0
 40
1.0
 40
1.0
 10
-52.38749999999998
 20
-0.5100717822881797
 30
0.0
 10
-51.71000056044067
 20
-0.8977919554087712
 30
0.0
 10
-50.35506234083621
 20
-1.6731975873521
 30
0.0
 10
-48.32278515024876
 20
-2.766276180258203
 30
0.0
 10
-46.29069492754987
 20
-3.75364402647174
 30
0.0
 10
-44.25876358962329
 20
-4.595330104236255
 30
0.0
 10
-42.22697123410585
 20
-5.259156883414406
 30
0.0
 10
-40.19525043036574
 20
-5.719663385788281
 30
0.0
 10
-38.09590913704789
 20
-5.96572170610012
 30
0.0
 10
-35.92833533193944
 20
-5.965706468887746
 30
0.0
 10
-33.69310587858254
 20
-5.669596673899066
 30
0.0
 10
-31.9872412130193
 20
-5.288921660766463
 30
0.0
 10
-31.02647244367935
 20
-4.942646890235957
 30
0.0
 10
-30.81077902890865
 20
-4.864907906530235
 30
0.0
  0
SPLINE
  5
321
330
1F
100
AcDbEntity
  8
0
  6
Continuous
 62
     1
370
    15
100
AcDbSpline
210
0.0
220
0.0
230
1.0
 70
     8
 71
     3
 72
    17
 73
    13
 74
     0
 42
0.000000001
 43
0.00000001
 40
0.0
 40
0.0
 40
0.0
 40
0.0
 40
0.1016458909809014
 40
0.2032984156576689
 40
0.3049587869706609
 40
0.4066282121440282
 40
0.5082984115171378
 40
0.6099594759952379
 40
0.7116125951692541
 40
0.823409744237251
 40
0.9352042834055628
 40
1.0
 40
1.0
 40
1.0
 40
1.0
 10
-26.98749999999998
 20
1.417918570621466
 30
0.0
 10
-27.66480368817795
 20
1.792390661400503
 30
0.0
 10
-29.01945526727174
 20
2.541359282057264
 30
0.0
 10
-31.05154004776772
 20
3.551715075537288
 30
0.0
 10
-33.08380854903219
 20
4.428569281935736
 30
0.0
 10
-35.11624217997478
 20
5.132872139701099
 30
0.0
 10
-37.1486808893135
 20
5.638931508236133
 30
0.0
 10
-39.18098028002571
 20
5.925967835835535
 30
0.0
 10
-41.28066208094108
 20
5.98807657361668
 30
0.0
 10
-43.44811971355022
 20
5.782420648783492
 30
0.0
 10
-45.36988320187486
 20
5.400979225322678
 30
0.0
 10
-46.54665216104529
 20
5.002970201843659
 30
0.0
 10
-46.97844035709374
 20
4.856929981357069
 30
0.0
  0
SPLINE
  5
322
330
1F
100
AcDbEntity
  8
외형선
  6
Continuous
370
    15
100
AcDbSpline
210
0.0
220
0.0
230
1.0
 70
    24
 71
     3
 72
    21
 73
    17
 74
     0
 42
0.000000001
 43
0.00000001
 40
0.0
 40
0.0
 40
0.0
 40
0.0
 40
0.1024892579951026
 40
0.1738025362911574
 40
0.2471839044889023
 40
0.3184971827849615
 40
0.3918785509827112
 40
0.4631918292787697
 40
0.5365731974765182
 40
0.6078864757725772
 40
0.6812678439703261
 40
0.7525811222663856
 40
0.8259624904641353
 40
0.8972757687601628
 40
0.970657136957944
 40
1.0
 40
1.0
 40
1.0
 40
1.0
 10
-26.98749999999998
 20
-4.938339008741949
 30
0.0
 10
-26.98749999999995
 20
-4.745490295471627
 30
0.0
 10
-26.98749999999995
 20
-4.41845509058733
 30
0.0
 10
-26.9875
 20
-3.834822047122224
 30
0.0
 10
-26.98749999999995
 20
-3.283261919977982
 30
0.0
 10
-26.98750000000009
 20
-2.692514205096437
 30
0.0
 10
-26.98749999999986
 20
-2.092128455533989
 30
0.0
 10
-26.9875
 20
-1.487708002695336
 30
0.0
 10
-26.98749999999998
 20
-0.9073775244861657
 30
0.0
 10
-26.98750000000003
 20
-0.3571493423592933
 30
0.0
 10
-26.98749999999998
 20
0.1377612602093798
 30
0.0
 10
-26.9875
 20
0.5712342629058533
 30
0.0
 10
-26.98750000000003
 20
0.9270052520207479
 30
0.0
 10
-26.98750000000003
 20
1.18716820219668
 30
0.0
 10
-26.98749999999992
 20
1.352779952121067
 30
0.0
 10
-26.98749999999998
 20
1.364565015585078
 30
0.0
 10
-26.98749999999995
 20
1.367931382984408
 30
0.0
  0
SPLINE
  5
323
330
1F
100
AcDbEntity
  8
0
  6
Continuous
 62
     1
370
    15
100
AcDbSpline
210
0.0
220
0.0
230
1.0
 70
     8
 71
     3
 72
    46
 73
    42
 74
     0
 42
0.000000001
 43
0.00000001
 40
0.0
 40
0.0
 40
0.0
 40
0.0
 40
0.0624999999999993
 40
0.0624999999999993
 40
0.1249999999999987
 40
0.1249999999999987
 40
0.1562499999999984
 40
0.1562499999999984
 40
0.1874999999999981
 40
0.1874999999999981
 40
0.2499999999999974
 40
0.2499999999999974
 40
0.3124999999999967
 40
0.3124999999999967
 40
0.374999999999996
 40
0.374999999999996
 40
0.406249999999995
 40
0.406249999999995
 40
0.437499999999994
 40
0.437499999999994
 40
0.4999999999999921
 40
0.4999999999999921
 40
0.5312499999999917
 40
0.5312499999999917
 40
0.5624999999999913
 40
0.5624999999999913
 40
0.6249999999999919
 40
0.6249999999999919
 40
0.6874999999999923
 40
0.6874999999999923
 40
0.7499999999999928
 40
0.7499999999999928
 40
0.7812499999999938
 40
0.7812499999999938
 40
0.8124999999999947
 40
0.8124999999999947
 40
0.8749999999999964
 40
0.8749999999999964
 40
0.9374999999999982
 40
0.9374999999999982
 40
1.0
 40
1.0
 40
1.0
 40
1.0
 10
-52.38749999999998
 20
5.953124999999992
 30
0.0
 10
-51.86125548506867
 20
5.905105006925544
 30
0.0
 10
-51.32861605610304
 20
5.855388719936491
 30
0.0
 10
-50.26935373544108
 20
5.710240944944856
 30
0.0
 10
-49.74339810759448
 20
5.615011362895316
 30
0.0
 10
-48.94752666500187
 20
5.439068716100087
 30
0.0
 10
-48.68214117163392
 20
5.374967085820393
 30
0.0
 10
-48.15353458930246
 20
5.236464698768507
 30
0.0
 10
-47.89089034709007
 20
5.162135055466982
 30
0.0
 10
-47.09727135602804
 20
4.923556956742217
 30
0.0
 10
-46.56441457522336
 20
4.7439362415857
 30
0.0
 10
-45.50997773324496
 20
4.350040262568206
 30
0.0
 10
-44.97949891761365
 20
4.134706574944281
 30
0.0
 10
-43.91938079723891
 20
3.673162828516126
 30
0.0
 10
-43.39389253106315
 20
3.427645697185973
 30
0.0
 10
-42.59820810278034
 20
3.039387564308654
 30
0.0
 10
-42.3326926663139
 20
2.906782520464162
 30
0.0
 10
-41.80344546953994
 20
2.636392719589679
 30
0.0
 10
-41.54073872577441
 20
2.498793283040889
 30
0.0
 10
-40.74813273730205
 20
2.07823820154983
 30
0.0
 10
-40.21518505527336
 20
1.787708439310392
 30
0.0
 10
-39.42307964380674
 20
1.344385152345885
 30
0.0
 10
-39.16020621596945
 20
1.195358270211954
 30
0.0
 10
-38.63071789690911
 20
0.8945349563415441
 30
0.0
 10
-38.36516530396698
 20
0.7429364721746687
 30
0.0
 10
-37.56962126542009
 20
0.2865973161346453
 30
0.0
 10
-37.04421681168935
 20
-0.0190130093363841
 30
0.0
 10
-35.98380275019755
 20
-0.6295165834181311
 30
0.0
 10
-35.45414889095431
 20
-0.9333696635486326
 30
0.0
 10
-34.3989375272371
 20
-1.5305662944428
 30
0.0
 10
-33.86602546691662
 20
-1.825272281172069
 30
0.0
 10
-33.07282634860757
 20
-2.253656527644801
 30
0.0
 10
-32.81020941631916
 20
-2.394052197697889
 30
0.0
 10
-32.28130774771966
 20
-2.670494801639031
 30
0.0
 10
-32.01585779296916
 20
-2.806386247001733
 30
0.0
 10
-31.22004506409541
 20
-3.205235218541909
 30
0.0
 10
-30.6943408080458
 20
-3.458714324178964
 30
0.0
 10
-29.63467402301745
 20
-3.937724237483913
 30
0.0
 10
-29.10302524555521
 20
-4.16280397402909
 30
0.0
 10
-28.04965521042953
 20
-4.577084154157938
 30
0.0
 10
-27.51690526640868
 20
-4.767703349479732
 30
0.0
 10
-26.9875
 20
-4.938339008741942
 30
0.0
  0
LINE
  5
324
330
1F
100
AcDbEntity
  8
0
  6
Continuous
 62
     1
370
    15
100
AcDbLine
 10
-52.38749999999998
 20
5.953124999999992
 30
0.0
 11
-52.38749999999998
 21
5.391634282288108
 31
0.0
  0
LINE
  5
325
330
1F
100
AcDbEntity
  8
외형선
  6
Continuous
370
    15
100
AcDbLine
 10
-26.98749999999998
 20
-4.938339008741949
 30
0.0
 11
-26.98749999999998
 21
-5.781799390562768
 31
0.0
  0
SPLINE
  5
326
330
1F
100
AcDbEntity
  8
0
  6
Continuous
 62
     1
370
    15
100
AcDbSpline
210
0.0
220
0.0
230
1.0
 70
     8
 71
     3
 72
    13
 73
     9
 74
     0
 42
0.000000001
 43
0.00000001
 40
0.0
 40
0.0
 40
0.0
 40
0.0
 40
0.0433724241052586
 40
0.2347077302308212
 40
0.4260385696418083
 40
0.6173645129385246
 40
0.8086851319814807
 40
1.0
 40
1.0
 40
1.0
 40
1.0
 10
-40.70649967988805
 20
-5.931521909134085
 30
0.0
 10
-40.87536767923574
 20
-5.937953310968319
 30
0.0
 10
-41.78918851478178
 20
-5.972756524250856
 30
0.0
 10
-43.44812533528479
 20
-5.775911340843082
 30
0.0
 10
-45.68305409760534
 20
-5.318228295644247
 30
0.0
 10
-47.91794311163942
 20
-4.588689807176054
 30
0.0
 10
-50.15275078204146
 20
-3.658408054501536
 30
0.0
 10
-51.64259105813056
 20
-2.902053123907621
 30
0.0
 10
-52.38749999999998
 20
-2.523881342630887
 30
0.0
  0
LINE
  5
327
330
1F
100
AcDbEntity
  8
0
  6
Continuous
 62
     1
370
    15
100
AcDbLine
 10
-52.38749999999998
 20
-0.5100717822881797
 30
0.0
 11
-52.38749999999998
 21
-2.523881342630887
 31
0.0
  0
SPLINE
  5
328
330
1F
100
AcDbEntity
  8
0
  6
Continuous
 62
     1
370
    15
100
AcDbSpline
210
0.0
220
0.0
230
1.0
 70
     8
 71
     3
 72
    12
 73
     8
 74
     0
 42
0.000000001
 43
0.00000001
 40
0.0
 40
0.0
 40
0.0
 40
0.0
 40
0.1136749259809904
 40
0.3352600760751328
 40
0.5568429737955108
 40
0.7784231159352002
 40
1.0
 40
1.0
 40
1.0
 40
1.0
 10
-37.07506055010733
 20
5.918215672494745
 30
0.0
 10
-36.69282451393695
 20
5.924583308474189
 30
0.0
 10
-35.56550042325247
 20
5.9433632997912
 30
0.0
 10
-33.69309942138522
 20
5.671715901336653
 30
0.0
 10
-31.45786804604662
 20
5.132011842889646
 30
0.0
 10
-29.2226696313074
 20
4.349132368097691
 30
0.0
 10
-27.73255289200716
 20
3.666062988102538
 30
0.0
 10
-26.9875
 20
3.324530809056007
 30
0.0
  0
LINE
  5
329
330
1F
100
AcDbEntity
  8
외형선
  6
Continuous
370
    15
100
AcDbLine
 10
-26.98749999999998
 20
3.324530809055993
 30
0.0
 11
-26.98749999999998
 21
1.417918570621459
 31
0.0
  0
SPLINE
  5
32A
330
1F
100
AcDbEntity
  8
0
  6
Continuous
 62
     1
370
    15
100
AcDbSpline
210
0.0
220
0.0
230
1.0
 70
     8
 71
     3
 72
    10
 73
     6
 74
     0
 42
0.000000001
 43
0.00000001
 40
0.0
 40
0.0
 40
0.0
 40
0.0
 40
0.3757510684458548
 40
0.7514684942406191
 40
1.0
 40
1.0
 40
1.0
 40
1.0
 10
-52.38749999999998
 20
-5.953125000000015
 30
0.0
 10
-51.71000076412758
 20
-5.874071277054413
 30
0.0
 10
-50.35506295187877
 20
-5.759753093713919
 30
0.0
 10
-48.55204818316761
 20
-5.377684245802429
 30
0.0
 10
-47.42653830449125
 20
-5.005219099604958
 30
0.0
 10
-46.97844035709374
 20
-4.856929981357077
 30
0.0
  0
LINE
  5
32B
330
1F
100
AcDbEntity
  8
0
  6
Continuous
 62
     1
370
    15
100
AcDbLine
 10
-52.38749999999998
 20
-2.508695648646253
 30
0.0
 11
-52.38749999999998
 21
-5.953125000000015
 31
0.0
  0
SPLINE
  5
32C
330
1F
100
AcDbEntity
  8
0
  6
Continuous
 62
     1
370
    15
100
AcDbSpline
210
0.0
220
0.0
230
1.0
 70
     8
 71
     3
 72
     9
 73
     5
 74
     0
 42
0.000000001
 43
0.00000001
 40
0.0
 40
0.0
 40
0.0
 40
0.0
 40
0.5314623830103793
 40
1.0
 40
1.0
 40
1.0
 40
1.0
 10
-26.9875
 20
5.781799390562752
 30
0.0
 10
-27.66480317560868
 20
5.670448915503264
 30
0.0
 10
-28.93921731527399
 20
5.460931781988079
 30
0.0
 10
-30.21365638444205
 20
5.055069604157288
 30
0.0
 10
-30.81077902890853
 20
4.864907906530227
 30
0.0
  0
SPLINE
  5
32D
330
1F
100
AcDbEntity
  8
외형선
  6
Continuous
370
    15
100
AcDbSpline
210
0.0
220
0.0
230
1.0
 70
    24
 71
     3
 72
    12
 73
     8
 74
     0
 42
0.000000001
 43
0.00000001
 40
0.0
 40
0.0
 40
0.0
 40
0.0
 40
0.1517685333046259
 40
0.3844174443448945
 40
0.6238131895662966
 40
0.8102034968680637
 40
1.0
 40
1.0
 40
1.0
 40
1.0
 10
-26.9875
 20
3.397092776103782
 30
0.0
 10
-26.98750000000003
 20
3.499492099776183
 30
0.0
 10
-26.9875
 20
3.758861321127064
 30
0.0
 10
-26.98750000000003
 20
4.242920802493415
 30
0.0
 10
-26.98749999999995
 20
4.779894207723365
 30
0.0
 10
-26.98749999999992
 20
5.30022500787416
 30
0.0
 10
-26.98749999999995
 20
5.620308527419815
 30
0.0
 10
-26.98749999999998
 20
5.781799390562752
 30
0.0
  0
LINE
  5
32E
330
1F
100
AcDbEntity
  8
외형선
  6
Continuous
370
    15
100
AcDbLine
 10
-25.98749999999998
 20
-0.0000000000000078
 30
0.0
 11
-25.98749999999998
 21
-5.953125000000015
 31
0.0
  0
LINE
  5
32F
330
1F
100
AcDbEntity
  8
외형선
  6
Continuous
370
    15
100
AcDbLine
 10
-25.98749999999998
 20
5.953125000000006
 30
0.0
 11
-25.98749999999998
 21
-0.0000000000000078
 31
0.0
  0
LINE
  5
330
330
1F
100
AcDbEntity
  8
외형선
  6
Continuous
370
    15
100
AcDbLine
 10
-24.50634233574606
 20
-0.0000000000000078
 30
0.0
 11
-24.50634233574606
 21
-6.350000000000017
 31
0.0
  0
LINE
  5
331
330
1F
100
AcDbEntity
  8
외형선
  6
Continuous
370
    15
100
AcDbLine
 10
-24.50634233574606
 20
6.350000000000001
 30
0.0
 11
-24.50634233574606
 21
-0.0000000000000078
 31
0.0
  0
LINE
  5
332
330
1F
100
AcDbEntity
  8
외형선
  6
Continuous
370
    15
100
AcDbLine
 10
-26.48748932140983
 20
-5.843809842242274
 30
0.0
 11
-26.48748932140983
 21
-5.953125000000008
 31
0.0
  0
SPLINE
  5
333
330
1F
100
AcDbEntity
  8
외형선
  6
Continuous
370
    15
100
AcDbSpline
210
0.0
220
0.0
230
1.0
 70
     8
 71
     3
 72
     8
 73
     4
 74
     0
 42
0.000000001
 43
0.00000001
 40
0.0
 40
0.0
 40
0.0
 40
0.0
 40
1.0
 40
1.0
 40
1.0
 40
1.0
 10
-26.98749999999998
 20
-5.781799390562768
 30
0.0
 10
-26.82039820897986
 20
-5.804770584624479
 30
0.0
 10
-26.65363050061438
 20
-5.825448879274924
 30
0.0
 10
-26.48748932140983
 20
-5.843810933395276
 30
0.0
  0
SPLINE
  5
334
330
1F
100
AcDbEntity
  8
외형선
  6
Continuous
370
    15
100
AcDbSpline
210
0.0
220
0.0
230
1.0
 70
     8
 71
     3
 72
     8
 73
     4
 74
     0
 42
0.000000001
 43
0.00000001
 40
0.0
 40
0.0
 40
0.0
 40
0.0
 40
1.0
 40
1.0
 40
1.0
 40
1.0
 10
-26.9875
 20
-4.938339008741942
 30
0.0
 10
-26.82039820897989
 20
-4.992198549029568
 30
0.0
 10
-26.6536305006144
 20
-5.044076842231704
 30
0.0
 10
-26.48748932140983
 20
-5.093893687232851
 30
0.0
  0
LINE
  5
335
330
1F
100
AcDbEntity
  8
외형선
  6
Continuous
370
    15
100
AcDbLine
 10
-26.48748932140983
 20
1.13559842961213
 30
0.0
 11
-26.48748932140983
 21
-5.093896787278511
 31
0.0
  0
SPLINE
  5
336
330
1F
100
AcDbEntity
  8
외형선
  6
Continuous
370
    15
100
AcDbSpline
210
0.0
220
0.0
230
1.0
 70
     8
 71
     3
 72
     8
 73
     4
 74
     0
 42
0.000000001
 43
0.00000001
 40
0.0
 40
0.0
 40
0.0
 40
0.0
 40
1.0
 40
1.0
 40
1.0
 40
1.0
 10
-26.98749999999998
 20
1.417918570621466
 30
0.0
 10
-26.82039820897986
 20
1.324249696697151
 30
0.0
 10
-26.65363050061438
 20
1.230084758498797
 30
0.0
 10
-26.48748932140983
 20
1.135592814504881
 30
0.0
  0
SPLINE
  5
337
330
1F
100
AcDbEntity
  8
외형선
  6
Continuous
370
    15
100
AcDbSpline
210
0.0
220
0.0
230
1.0
 70
     8
 71
     3
 72
     8
 73
     4
 74
     0
 42
0.000000001
 43
0.00000001
 40
0.0
 40
0.0
 40
0.0
 40
0.0
 40
1.0
 40
1.0
 40
1.0
 40
1.0
 10
-26.9875
 20
3.324530809056007
 30
0.0
 10
-26.82039820897989
 20
3.244526536552115
 30
0.0
 10
-26.6536305006144
 20
3.163266028616313
 30
0.0
 10
-26.48748932140983
 20
3.080899928396611
 30
0.0
  0
LINE
  5
338
330
1F
100
AcDbEntity
  8
외형선
  6
Continuous
370
    15
100
AcDbLine
 10
-26.48748932140983
 20
5.953124999999992
 30
0.0
 11
-26.48748932140983
 21
3.08089480284196
 31
0.0
  0
SPLINE
  5
339
330
1F
100
AcDbEntity
  8
외형선
  6
Continuous
370
    15
100
AcDbSpline
210
0.0
220
0.0
230
1.0
 70
     8
 71
     3
 72
     8
 73
     4
 74
     0
 42
0.000000001
 43
0.00000001
 40
0.0
 40
0.0
 40
0.0
 40
0.0
 40
1.0
 40
1.0
 40
1.0
 40
1.0
 10
-26.98749999999998
 20
5.781799390562752
 30
0.0
 10
-26.82039820897986
 20
5.804770584624456
 30
0.0
 10
-26.65363050061438
 20
5.825448879274908
 30
0.0
 10
-26.48748932140983
 20
5.843810933395253
 30
0.0
  0
SPLINE
  5
33A
330
1F
100
AcDbEntity
  8
외형선
  6
Continuous
370
    15
100
AcDbSpline
210
0.0
220
0.0
230
1.0
 70
    24
 71
     3
 72
    21
 73
    17
 74
     0
 42
0.000000001
 43
0.00000001
 40
0.0
 40
0.0
 40
0.0
 40
0.0
 40
0.0420297468460977
 40
0.1134647688959554
 40
0.1869714114246107
 40
0.2584064334744677
 40
0.331913076003123
 40
0.4033480980529819
 40
0.476854740581639
 40
0.548289762631496
 40
0.6217964051601509
 40
0.6932314272100051
 40
0.7667380697386573
 40
0.8381730917885258
 40
0.911679734317194
 40
1.0
 40
1.0
 40
1.0
 40
1.0
 10
-26.98749999999998
 20
1.380684062943885
 30
0.0
 10
-26.98749999999998
 20
1.364827841913928
 30
0.0
 10
-26.98749999999995
 20
1.322021910645403
 30
0.0
 10
-26.98749999999992
 20
1.148123013136888
 30
0.0
 10
-26.98750000000006
 20
0.8679823408600307
 30
0.0
 10
-26.9875
 20
0.4954130697429229
 30
0.0
 10
-26.98749999999995
 20
0.0525729016247489
 30
0.0
 10
-26.98749999999998
 20
-0.4572904302631009
 30
0.0
 10
-26.98749999999995
 20
-1.010219309135196
 30
0.0
 10
-26.98749999999989
 20
-1.600598665994007
 30
0.0
 10
-26.98750000000006
 20
-2.201106866163962
 30
0.0
 10
-26.98749999999992
 20
-2.805411637269991
 30
0.0
 10
-26.9875
 20
-3.386087972494018
 30
0.0
 10
-26.98749999999998
 20
-3.935064684746508
 30
0.0
 10
-26.98750000000003
 20
-4.473685054941854
 30
0.0
 10
-26.9875
 20
-4.774282145690862
 30
0.0
 10
-26.9875
 20
-4.938339008741957
 30
0.0
  0
SPLINE
  5
33B
330
1F
100
AcDbEntity
  8
외형선
  6
Continuous
370
    15
100
AcDbSpline
210
0.0
220
0.0
230
1.0
 70
    24
 71
     3
 72
    12
 73
     8
 74
     0
 42
0.000000001
 43
0.00000001
 40
0.0
 40
0.0
 40
0.0
 40
0.0
 40
0.2090952387078546
 40
0.4230408753052529
 40
0.6556720015043154
 40
0.8950494461227022
 40
1.0
 40
1.0
 40
1.0
 40
1.0
 10
-26.98749999999998
 20
5.781799390562752
 30
0.0
 10
-26.98749999999998
 20
5.603817920161986
 30
0.0
 10
-26.98749999999998
 20
5.24372632988119
 30
0.0
 10
-26.98749999999998
 20
4.690604877607604
 30
0.0
 10
-26.98749999999995
 20
4.137564963472435
 30
0.0
 10
-26.98750000000009
 20
3.694205864539235
 30
0.0
 10
-26.98750000000003
 20
3.466490123808974
 30
0.0
 10
-26.9875
 20
3.397082776103786
 30
0.0
  0
LINE
  5
3BB
330
1F
100
AcDbEntity
  8
외형선
  6
Continuous
370
    15
100
AcDbLine
 10
-4.20370000000003
 20
4.826000000000001
 30
0.0
 11
4.203700000000023
 21
4.826000000000001
 31
0.0
  0
LINE
  5
3BC
330
1F
100
AcDbEntity
  8
외형선
  6
Continuous
370
    15
100
AcDbLine
 10
-4.20370000000003
 20
4.826000000000001
 30
0.0
 11
-5.727700000000031
 21
6.350000000000001
 31
0.0
  0
LINE
  5
3BD
330
1F
100
AcDbEntity
  8
외형선
  6
Continuous
370
    15
100
AcDbLine
 10
4.203700000000023
 20
4.826000000000001
 30
0.0
 11
5.727700000000024
 21
6.350000000000001
 31
0.0
  0
LINE
  5
3BE
330
1F
100
AcDbEntity
  8
외형선
  6
Continuous
370
    15
100
AcDbLine
 10
-5.727700000000034
 20
6.350000000000001
 30
0.0
 11
-24.50634233574606
 21
6.350000000000001
 31
0.0
  0
ENDSEC
  0
SECTION
  2
OBJECTS
  0
DICTIONARY
  5
C
330
0
100
AcDbDictionary
281
     1
  3
ACAD_GROUP
350
D
  3
ACAD_IMAGE_VARS
350
14F
  3
ACAD_LAYOUT
350
1A
  3
ACAD_MLINESTYLE
350
17
  3
ACAD_PLOTSETTINGS
350
19
  3
ACAD_PLOTSTYLENAME
350
E
  3
ACAD_SCALELIST
350
47
  3
APPDATA
350
14D
  3
DWGPROPS
350
3E2
  0
DICTIONARY
  5
1D7
330
2
100
AcDbDictionary
280
     1
281
     1
  3
ACAD_LAYERSTATES
360
1D8
  0
DICTIONARY
  5
D
102
{ACAD_REACTORS
330
C
102
}
330
C
100
AcDbDictionary
281
     1
  0
RASTERVARIABLES
  5
14F
102
{ACAD_REACTORS
330
C
102
}
330
C
100
AcDbRasterVariables
 90
        0
 70
     1
 71
     1
 72
     1
  0
DICTIONARY
  5
1A
102
{ACAD_REACTORS
330
C
102
}
330
C
100
AcDbDictionary
281
     1
  3
Layout1
350
1E
  3
Layout2
350
26
  3
Model
350
22
  0
DICTIONARY
  5
17
102
{ACAD_REACTORS
330
C
102
}
330
C
100
AcDbDictionary
281
     1
  3
Standard
350
18
  0
DICTIONARY
  5
19
102
{ACAD_REACTORS
330
C
102
}
330
C
100
AcDbDictionary
281
     1
  0
ACDBDICTIONARYWDFLT
  5
E
102
{ACAD_REACTORS
330
C
102
}
330
C
100
AcDbDictionary
281
     1
  3
Normal
350
F
100
AcDbDictionaryWithDefault
340
F
  0
DICTIONARY
  5
47
102
{ACAD_REACTORS
330
C
102
}
330
C
100
AcDbDictionary
281
     1
  3
A0
350
48
  3
A1
350
49
  3
A2
350
4A
  3
A3
350
4B
  3
A4
350
4C
  3
A5
350
4D
  3
A6
350
4E
  3
A7
350
4F
  3
A8
350
50
  3
A9
350
51
  3
B0
350
52
  3
B1
350
53
  3
B2
350
54
  3
B3
350
55
  3
B4
350
56
  3
B5
350
57
  3
B6
350
58
  3
B7
350
59
  3
B8
350
5A
  3
B9
350
5B
  3
C0
350
5C
  3
C1
350
5D
  3
C2
350
5E
  3
C3
350
5F
  3
C4
350
60
  3
C5
350
61
  3
C6
350
62
  3
C7
350
63
  3
C8
350
64
  3
C9
350
65
  3
D0
350
66
  3
D1
350
67
  3
D2
350
68
  0
DICTIONARY
  5
14D
102
{ACAD_REACTORS
330
C
102
}
330
C
100
AcDbDictionary
281
     1
  0
XRECORD
  5
3E2
102
{ACAD_REACTORS
330
C
102
}
330
C
100
AcDbXrecord
280
     1
  1
DWGPROPS COOKIE
  2

  3

  4

  6

  7

  8
12017012
  9

300
=
301
=
302
=
303
=
304
=
305
=
306
=
307
=
308
=
309
=
 40
0.0
 41
2458313.09877794
 42
2458319.01518713
  1

 90
        0
  0
DICTIONARY
  5
1D8
102
{ACAD_REACTORS
330
1D7
102
}
330
1D7
100
AcDbDictionary
281
     1
  0
LAYOUT
  5
1E
102
{ACAD_REACTORS
330
1A
102
}
330
1A
100
AcDbPlotSettings
  1

  2
none_device
  4

  6

 40
0.0
 41
0.0
 42
0.0
 43
0.0
 44
0.0
 45
0.0
 46
0.0
 47
0.0
 48
0.0
 49
0.0
140
0.0
141
0.0
142
1.0
143
1.0
 70
   688
 72
     1
 73
     0
 74
     5
  7

 75
    16
147
1.0
148
0.0
149
0.0
100
AcDbLayout
  1
Layout1
 70
     1
 71
     1
 10
0.0
 20
0.0
 11
420.0
 21
297.0
 12
0.0
 22
0.0
 32
0.0
 14
1.000000000000000E+20
 24
1.000000000000000E+20
 34
1.000000000000000E+20
 15
-1.000000000000000E+20
 25
-1.000000000000000E+20
 35
-1.000000000000000E+20
146
0.0
 13
0.0
 23
0.0
 33
0.0
 16
1.0
 26
0.0
 36
0.0
 17
0.0
 27
1.0
 37
0.0
 76
     0
330
1B
  0
LAYOUT
  5
26
102
{ACAD_REACTORS
330
1A
102
}
330
1A
100
AcDbPlotSettings
  1

  2
none_device
  4

  6

 40
0.0
 41
0.0
 42
0.0
 43
0.0
 44
0.0
 45
0.0
 46
0.0
 47
0.0
 48
0.0
 49
0.0
140
0.0
141
0.0
142
1.0
143
1.0
 70
   688
 72
     1
 73
     0
 74
     5
  7

 75
    16
147
1.0
148
0.0
149
0.0
100
AcDbLayout
  1
Layout2
 70
     1
 71
     2
 10
0.0
 20
0.0
 11
0.0
 21
0.0
 12
0.0
 22
0.0
 32
0.0
 14
0.0
 24
0.0
 34
0.0
 15
0.0
 25
0.0
 35
0.0
146
0.0
 13
0.0
 23
0.0
 33
0.0
 16
1.0
 26
0.0
 36
0.0
 17
0.0
 27
1.0
 37
0.0
 76
     0
330
23
  0
LAYOUT
  5
22
102
{ACAD_REACTORS
330
1A
102
}
330
1A
100
AcDbPlotSettings
  1

  2
none_device
  4
ANSI_A_(11.00_x_8.50_Inches)
  6

 40
6.35
 41
19.05
 42
6.35000508
 43
19.05000254
 44
279.4
 45
215.9
 46
61.47075058006798
 47
78.49287434142796
 48
0.0
 49
0.0
140
0.0
141
0.0
142
0.0418462529351176
143
1.0
 70
  1696
 72
     0
 73
     0
 74
     0
  7

 75
     0
147
0.0235690232323232
148
0.0
149
0.0
100
AcDbLayout
  1
Model
 70
     1
 71
     0
 10
0.0
 20
0.0
 11
420.0
 21
297.0
 12
0.0
 22
0.0
 32
0.0
 14
-68.96875000000007
 24
-49.97180738881174
 34
0.0
 15
81.41936447236121
 25
43.61962500000006
 35
0.0
146
0.0
 13
0.0
 23
0.0
 33
0.0
 16
1.0
 26
0.0
 36
0.0
 17
0.0
 27
1.0
 37
0.0
 76
     0
330
1F
331
29
  0
MLINESTYLE
  5
18
102
{ACAD_REACTORS
330
17
102
}
330
17
100
AcDbMlineStyle
  2
Standard
 70
     0
  3

 62
   256
 51
90.0
 52
90.0
 71
     2
 49
0.5
 62
   256
  6
BYLAYER
 49
-0.5
 62
   256
  6
BYLAYER
  0
ACDBPLACEHOLDER
  5
F
102
{ACAD_REACTORS
330
E
102
}
330
E
  0
SCALE
  5
48
102
{ACAD_REACTORS
330
47
102
}
330
47
100
AcDbScale
 70
     0
300
1:1
140
1.0
141
1.0
290
     1
  0
SCALE
  5
49
102
{ACAD_REACTORS
330
47
102
}
330
47
100
AcDbScale
 70
     0
300
1:2
140
1.0
141
2.0
290
     0
  0
SCALE
  5
4A
102
{ACAD_REACTORS
330
47
102
}
330
47
100
AcDbScale
 70
     0
300
1:4
140
1.0
141
4.0
290
     0
  0
SCALE
  5
4B
102
{ACAD_REACTORS
330
47
102
}
330
47
100
AcDbScale
 70
     0
300
1:5
140
1.0
141
5.0
290
     0
  0
SCALE
  5
4C
102
{ACAD_REACTORS
330
47
102
}
330
47
100
AcDbScale
 70
     0
300
1:8
140
1.0
141
8.0
290
     0
  0
SCALE
  5
4D
102
{ACAD_REACTORS
330
47
102
}
330
47
100
AcDbScale
 70
     0
300
1:10
140
1.0
141
10.0
290
     0
  0
SCALE
  5
4E
102
{ACAD_REACTORS
330
47
102
}
330
47
100
AcDbScale
 70
     0
300
1:16
140
1.0
141
16.0
290
     0
  0
SCALE
  5
4F
102
{ACAD_REACTORS
330
47
102
}
330
47
100
AcDbScale
 70
     0
300
1:20
140
1.0
141
20.0
290
     0
  0
SCALE
  5
50
102
{ACAD_REACTORS
330
47
102
}
330
47
100
AcDbScale
 70
     0
300
1:30
140
1.0
141
30.0
290
     0
  0
SCALE
  5
51
102
{ACAD_REACTORS
330
47
102
}
330
47
100
AcDbScale
 70
     0
300
1:40
140
1.0
141
40.0
290
     0
  0
SCALE
  5
52
102
{ACAD_REACTORS
330
47
102
}
330
47
100
AcDbScale
 70
     0
300
1:50
140
1.0
141
50.0
290
     0
  0
SCALE
  5
53
102
{ACAD_REACTORS
330
47
102
}
330
47
100
AcDbScale
 70
     0
300
1:100
140
1.0
141
100.0
290
     0
  0
SCALE
  5
54
102
{ACAD_REACTORS
330
47
102
}
330
47
100
AcDbScale
 70
     0
300
2:1
140
2.0
141
1.0
290
     0
  0
SCALE
  5
55
102
{ACAD_REACTORS
330
47
102
}
330
47
100
AcDbScale
 70
     0
300
4:1
140
4.0
141
1.0
290
     0
  0
SCALE
  5
56
102
{ACAD_REACTORS
330
47
102
}
330
47
100
AcDbScale
 70
     0
300
8:1
140
8.0
141
1.0
290
     0
  0
SCALE
  5
57
102
{ACAD_REACTORS
330
47
102
}
330
47
100
AcDbScale
 70
     0
300
10:1
140
10.0
141
1.0
290
     0
  0
SCALE
  5
58
102
{ACAD_REACTORS
330
47
102
}
330
47
100
AcDbScale
 70
     0
300
100:1
140
100.0
141
1.0
290
     0
  0
SCALE
  5
59
102
{ACAD_REACTORS
330
47
102
}
330
47
100
AcDbScale
 70
     0
300
1/128" = 1'-0"
140
0.0078125
141
12.0
290
     0
  0
SCALE
  5
5A
102
{ACAD_REACTORS
330
47
102
}
330
47
100
AcDbScale
 70
     0
300
1/64" = 1'-0"
140
0.015625
141
12.0
290
     0
  0
SCALE
  5
5B
102
{ACAD_REACTORS
330
47
102
}
330
47
100
AcDbScale
 70
     0
300
1/32" = 1'-0"
140
0.03125
141
12.0
290
     0
  0
SCALE
  5
5C
102
{ACAD_REACTORS
330
47
102
}
330
47
100
AcDbScale
 70
     0
300
1/16" = 1'-0"
140
0.0625
141
12.0
290
     0
  0
SCALE
  5
5D
102
{ACAD_REACTORS
330
47
102
}
330
47
100
AcDbScale
 70
     0
300
3/32" = 1'-0"
140
0.09375
141
12.0
290
     0
  0
SCALE
  5
5E
102
{ACAD_REACTORS
330
47
102
}
330
47
100
AcDbScale
 70
     0
300
1/8" = 1'-0"
140
0.125
141
12.0
290
     0
  0
SCALE
  5
5F
102
{ACAD_REACTORS
330
47
102
}
330
47
100
AcDbScale
 70
     0
300
3/16" = 1'-0"
140
0.1875
141
12.0
290
     0
  0
SCALE
  5
60
102
{ACAD_REACTORS
330
47
102
}
330
47
100
AcDbScale
 70
     0
300
1/4" = 1'-0"
140
0.25
141
12.0
290
     0
  0
SCALE
  5
61
102
{ACAD_REACTORS
330
47
102
}
330
47
100
AcDbScale
 70
     0
300
3/8" = 1'-0"
140
0.375
141
12.0
290
     0
  0
SCALE
  5
62
102
{ACAD_REACTORS
330
47
102
}
330
47
100
AcDbScale
 70
     0
300
1/2" = 1'-0"
140
0.5
141
12.0
290
     0
  0
SCALE
  5
63
102
{ACAD_REACTORS
330
47
102
}
330
47
100
AcDbScale
 70
     0
300
3/4" = 1'-0"
140
0.75
141
12.0
290
     0
  0
SCALE
  5
64
102
{ACAD_REACTORS
330
47
102
}
330
47
100
AcDbScale
 70
     0
300
1" = 1'-0"
140
1.0
141
12.0
290
     0
  0
SCALE
  5
65
102
{ACAD_REACTORS
330
47
102
}
330
47
100
AcDbScale
 70
     0
300
1-1/2" = 1'-0"
140
1.5
141
12.0
290
     0
  0
SCALE
  5
66
102
{ACAD_REACTORS
330
47
102
}
330
47
100
AcDbScale
 70
     0
300
3" = 1'-0"
140
3.0
141
12.0
290
     0
  0
SCALE
  5
67
102
{ACAD_REACTORS
330
47
102
}
330
47
100
AcDbScale
 70
     0
300
6" = 1'-0"
140
6.0
141
12.0
290
     0
  0
SCALE
  5
68
102
{ACAD_REACTORS
330
47
102
}
330
47
100
AcDbScale
 70
     0
300
1'-0" = 1'-0"
140
12.0
141
12.0
290
     0
  0
ENDSEC
  0
EOF
