  0
SECTION
  2
HEADER
  9
$ACADVER
  1
AC1015
  9
$ACADMAINTVER
 70
     6
  9
$DWGCODEPAGE
  3
ANSI_949
  9
$INSBASE
 10
0.0
 20
0.0
 30
0.0
  9
$EXTMIN
 10
-68.96875000000007
 20
-49.97180738881174
 30
0.0
  9
$EXTMAX
 10
159.6181760798711
 20
44.91181250000006
 30
0.0
  9
$LIMMIN
 10
0.0
 20
0.0
  9
$LIMMAX
 10
420.0
 20
297.0
  9
$ORTHOMODE
 70
     1
  9
$REGENMODE
 70
     1
  9
$FILLMODE
 70
     1
  9
$QTEXTMODE
 70
     0
  9
$MIRRTEXT
 70
     1
  9
$LTSCALE
 40
1.0
  9
$ATTMODE
 70
     1
  9
$TEXTSIZE
 40
3.5
  9
$TRACEWID
 40
1.0
  9
$TEXTSTYLE
  7
Standard
  9
$CLAYER
  8
0
  9
$CELTYPE
  6
ByLayer
  9
$CECOLOR
 62
   256
  9
$CELTSCALE
 40
1.0
  9
$DISPSILH
 70
     0
  9
$DIMSCALE
 40
1.0
  9
$DIMASZ
 40
3.302
  9
$DIMEXO
 40
1.0
  9
$DIMDLI
 40
3.75
  9
$DIMRND
 40
0.0
  9
$DIMDLE
 40
0.0
  9
$DIMEXE
 40
1.0
  9
$DIMTP
 40
0.0
  9
$DIMTM
 40
0.0
  9
$DIMTXT
 40
3.5
  9
$DIMCEN
 40
2.5
  9
$DIMTSZ
 40
0.0
  9
$DIMTOL
 70
     0
  9
$DIMLIM
 70
     0
  9
$DIMTIH
 70
     1
  9
$DIMTOH
 70
     1
  9
$DIMSE1
 70
     0
  9
$DIMSE2
 70
     0
  9
$DIMTAD
 70
     1
  9
$DIMZIN
 70
     0
  9
$DIMBLK
  1

  9
$DIMASO
 70
     1
  9
$DIMSHO
 70
     1
  9
$DIMPOST
  1

  9
$DIMAPOST
  1

  9
$DIMALT
 70
     0
  9
$DIMALTD
 70
     3
  9
$DIMALTF
 40
0.0393700787401575
  9
$DIMLFAC
 40
1.0
  9
$DIMTOFL
 70
     1
  9
$DIMTVP
 40
0.0
  9
$DIMTIX
 70
     0
  9
$DIMSOXD
 70
     0
  9
$DIMSAH
 70
     0
  9
$DIMBLK1
  1

  9
$DIMBLK2
  1

  9
$DIMSTYLE
  2
ISO-25
  9
$DIMCLRD
 70
     0
  9
$DIMCLRE
 70
     0
  9
$DIMCLRT
 70
     0
  9
$DIMTFAC
 40
1.0
  9
$DIMGAP
 40
1.524
  9
$DIMJUST
 70
     0
  9
$DIMSD1
 70
     0
  9
$DIMSD2
 70
     0
  9
$DIMTOLJ
 70
     0
  9
$DIMTZIN
 70
     0
  9
$DIMALTZ
 70
     0
  9
$DIMALTTZ
 70
     0
  9
$DIMUPT
 70
     0
  9
$DIMDEC
 70
     2
  9
$DIMTDEC
 70
     2
  9
$DIMALTU
 70
     2
  9
$DIMALTTD
 70
     3
  9
$DIMTXSTY
  7
Standard
  9
$DIMAUNIT
 70
     0
  9
$DIMADEC
 70
     2
  9
$DIMALTRND
 40
0.0
  9
$DIMAZIN
 70
     0
  9
$DIMDSEP
 70
    44
  9
$DIMATFIT
 70
     3
  9
$DIMFRAC
 70
     0
  9
$DIMLDRBLK
  1

  9
$DIMLUNIT
 70
     2
  9
$DIMLWD
 70
    -2
  9
$DIMLWE
 70
    -2
  9
$DIMTMOVE
 70
     0
  9
$LUNITS
 70
     2
  9
$LUPREC
 70
     2
  9
$SKETCHINC
 40
1.0
  9
$FILLETRAD
 40
10.0
  9
$AUNITS
 70
     0
  9
$AUPREC
 70
     2
  9
$MENU
  1
.
  9
$ELEVATION
 40
0.0
  9
$PELEVATION
 40
0.0
  9
$THICKNESS
 40
0.0
  9
$LIMCHECK
 70
     0
  9
$CHAMFERA
 40
0.0
  9
$CHAMFERB
 40
0.0
  9
$CHAMFERC
 40
0.0
  9
$CHAMFERD
 40
0.0
  9
$SKPOLY
 70
     0
  9
$TDCREATE
 40
2458313.473989549
  9
$TDUCREATE
 40
2458313.098989549
  9
$TDUPDATE
 40
2458319.479367269
  9
$TDUUPDATE
 40
2458319.104367269
  9
$TDINDWG
 40
0.0024127778
  9
$TDUSRTIMER
 40
2458319.104216863
  9
$USRTIMER
 70
     1
  9
$ANGBASE
 50
0.0
  9
$ANGDIR
 70
     0
  9
$PDMODE
 70
     0
  9
$PDSIZE
 40
-1.0
  9
$PLINEWID
 40
0.0
  9
$SPLFRAME
 70
     0
  9
$SPLINETYPE
 70
     6
  9
$SPLINESEGS
 70
     8
  9
$HANDSEED
  5
404
  9
$SURFTAB1
 70
     6
  9
$SURFTAB2
 70
     6
  9
$SURFTYPE
 70
     6
  9
$SURFU
 70
     6
  9
$SURFV
 70
     6
  9
$UCSBASE
  2

  9
$UCSNAME
  2

  9
$UCSORG
 10
0.0
 20
0.0
 30
0.0
  9
$UCSXDIR
 10
1.0
 20
0.0
 30
0.0
  9
$UCSYDIR
 10
0.0
 20
1.0
 30
0.0
  9
$UCSORTHOREF
  2

  9
$UCSORTHOVIEW
 70
     0
  9
$UCSORGTOP
 10
0.0
 20
0.0
 30
0.0
  9
$UCSORGBOTTOM
 10
0.0
 20
0.0
 30
0.0
  9
$UCSORGLEFT
 10
0.0
 20
0.0
 30
0.0
  9
$UCSORGRIGHT
 10
0.0
 20
0.0
 30
0.0
  9
$UCSORGFRONT
 10
0.0
 20
0.0
 30
0.0
  9
$UCSORGBACK
 10
0.0
 20
0.0
 30
0.0
  9
$PUCSBASE
  2

  9
$PUCSNAME
  2

  9
$PUCSORG
 10
0.0
 20
0.0
 30
0.0
  9
$PUCSXDIR
 10
1.0
 20
0.0
 30
0.0
  9
$PUCSYDIR
 10
0.0
 20
1.0
 30
0.0
  9
$PUCSORTHOREF
  2

  9
$PUCSORTHOVIEW
 70
     0
  9
$PUCSORGTOP
 10
0.0
 20
0.0
 30
0.0
  9
$PUCSORGBOTTOM
 10
0.0
 20
0.0
 30
0.0
  9
$PUCSORGLEFT
 10
0.0
 20
0.0
 30
0.0
  9
$PUCSORGRIGHT
 10
0.0
 20
0.0
 30
0.0
  9
$PUCSORGFRONT
 10
0.0
 20
0.0
 30
0.0
  9
$PUCSORGBACK
 10
0.0
 20
0.0
 30
0.0
  9
$USERI1
 70
     0
  9
$USERI2
 70
     0
  9
$USERI3
 70
     0
  9
$USERI4
 70
     0
  9
$USERI5
 70
     0
  9
$USERR1
 40
0.0
  9
$USERR2
 40
0.0
  9
$USERR3
 40
0.0
  9
$USERR4
 40
0.0
  9
$USERR5
 40
0.0
  9
$WORLDVIEW
 70
     1
  9
$SHADEDGE
 70
     3
  9
$SHADEDIF
 70
    70
  9
$TILEMODE
 70
     1
  9
$MAXACTVP
 70
    64
  9
$PINSBASE
 10
0.0
 20
0.0
 30
0.0
  9
$PLIMCHECK
 70
     0
  9
$PEXTMIN
 10
1.000000000000000E+20
 20
1.000000000000000E+20
 30
1.000000000000000E+20
  9
$PEXTMAX
 10
-1.000000000000000E+20
 20
-1.000000000000000E+20
 30
-1.000000000000000E+20
  9
$PLIMMIN
 10
0.0
 20
0.0
  9
$PLIMMAX
 10
0.0
 20
0.0
  9
$UNITMODE
 70
     0
  9
$VISRETAIN
 70
     1
  9
$PLINEGEN
 70
     0
  9
$PSLTSCALE
 70
     1
  9
$TREEDEPTH
 70
  3020
  9
$CMLSTYLE
  2
Standard
  9
$CMLJUST
 70
     0
  9
$CMLSCALE
 40
20.0
  9
$PROXYGRAPHICS
 70
     1
  9
$MEASUREMENT
 70
     1
  9
$CELWEIGHT
370
    -1
  9
$ENDCAPS
280
     0
  9
$JOINSTYLE
280
     0
  9
$LWDISPLAY
290
     1
  9
$INSUNITS
 70
     4
  9
$HYPERLINKBASE
  1

  9
$STYLESHEET
  1

  9
$XEDIT
290
     1
  9
$CEPSNTYPE
380
     0
  9
$PSTYLEMODE
290
     1
  9
$FINGERPRINTGUID
  2
{40F92E5F-B46E-4661-B0FF-B97E8EFFC7A1}
  9
$VERSIONGUID
  2
{FAEB1C32-E019-11D5-929B-00C0DF256EC4}
  9
$EXTNAMES
290
     1
  9
$PSVPSCALE
 40
0.0
  9
$OLESTARTUP
290
     0
  0
ENDSEC
  0
SECTION
  2
CLASSES
  0
CLASS
  1
ACDBDICTIONARYWDFLT
  2
AcDbDictionaryWithDefault
  3
ObjectDBX Classes
 90
        0
280
     0
281
     0
  0
CLASS
  1
VISUALSTYLE
  2
AcDbVisualStyle
  3
ObjectDBX Classes
 90
     4095
280
     0
281
     0
  0
CLASS
  1
MATERIAL
  2
AcDbMaterial
  3
ObjectDBX Classes
 90
     1153
280
     0
281
     0
  0
CLASS
  1
SCALE
  2
AcDbScale
  3
ObjectDBX Classes
 90
     1153
280
     0
281
     0
  0
CLASS
  1
SUN
  2
AcDbSun
  3
SCENEOE
 90
     1153
280
     0
281
     0
  0
CLASS
  1
ACDBPLACEHOLDER
  2
AcDbPlaceHolder
  3
ObjectDBX Classes
 90
        0
280
     0
281
     0
  0
CLASS
  1
LAYOUT
  2
AcDbLayout
  3
ObjectDBX Classes
 90
        0
280
     0
281
     0
  0
CLASS
  1
TABLESTYLE
  2
AcDbTableStyle
  3
ObjectDBX Classes
 90
     4095
280
     0
281
     0
  0
CLASS
  1
MLEADERSTYLE
  2
AcDbMLeaderStyle
  3
ACDB_MLEADERSTYLE_CLASS
 90
     4095
280
     0
281
     0
  0
CLASS
  1
RASTERVARIABLES
  2
AcDbRasterVariables
  3
ISM
 90
        0
280
     0
281
     0
  0
ENDSEC
  0
SECTION
  2
TABLES
  0
TABLE
  2
VPORT
  5
8
330
0
100
AcDbSymbolTable
 70
     1
  0
VPORT
  5
29
330
8
100
AcDbSymbolTableRecord
100
AcDbViewportTableRecord
  2
*Active
 70
     0
 10
0.0
 20
0.0
 11
1.0
 21
1.0
 12
4.602591640790758
 22
2.766903510951682
 13
0.0
 23
0.0
 14
10.0
 24
10.0
 15
10.0
 25
10.0
 16
0.0
 26
0.0
 36
1.0
 17
0.0
 27
0.0
 37
0.0
 40
162.6396103836044
 41
1.632093933463796
 42
50.0
 43
0.0
 44
0.0
 50
0.0
 51
0.0
 71
    16
 72
  2000
 73
     1
 74
     3
 75
     0
 76
     0
 77
     0
 78
     0
281
     0
 65
     1
110
0.0
120
0.0
130
0.0
111
1.0
121
0.0
131
0.0
112
0.0
122
1.0
132
0.0
 79
     0
146
0.0
  0
ENDTAB
  0
TABLE
  2
LTYPE
  5
5
330
0
100
AcDbSymbolTable
 70
     6
  0
LTYPE
  5
14
330
5
100
AcDbSymbolTableRecord
100
AcDbLinetypeTableRecord
  2
ByBlock
 70
     0
  3

 72
    65
 73
     0
 40
0.0
  0
LTYPE
  5
15
330
5
100
AcDbSymbolTableRecord
100
AcDbLinetypeTableRecord
  2
ByLayer
 70
     0
  3

 72
    65
 73
     0
 40
0.0
  0
LTYPE
  5
16
330
5
100
AcDbSymbolTableRecord
100
AcDbLinetypeTableRecord
  2
Continuous
 70
     0
  3
Solid line
 72
    65
 73
     0
 40
0.0
  0
LTYPE
  5
6A
330
5
100
AcDbSymbolTableRecord
100
AcDbLinetypeTableRecord
  2
HIDDEN
 70
     0
  3
Hidden __ __ __ __ __ __ __ __ __ __ __ __ __ __
 72
    65
 73
     2
 40
1.905
 49
1.27
 74
     0
 49
-0.635
 74
     0
  0
LTYPE
  5
6B
330
5
100
AcDbSymbolTableRecord
100
AcDbLinetypeTableRecord
  2
PHANTOM
 70
     0
  3
Phantom ______  __  __  ______  __  __  ______
 72
    65
 73
     6
 40
12.7
 49
6.35
 74
     0
 49
-1.27
 74
     0
 49
1.27
 74
     0
 49
-1.27
 74
     0
 49
1.27
 74
     0
 49
-1.27
 74
     0
  0
LTYPE
  5
6C
330
5
100
AcDbSymbolTableRecord
100
AcDbLinetypeTableRecord
  2
CENTER
 70
     0
  3
Center ____ _ ____ _ ____ _ ____ _ ____ _ ____
 72
    65
 73
     4
 40
10.16
 49
6.35
 74
     0
 49
-1.27
 74
     0
 49
1.27
 74
     0
 49
-1.27
 74
     0
  0
LTYPE
  5
6D
330
5
100
AcDbSymbolTableRecord
100
AcDbLinetypeTableRecord
  2
CENTERX2
 70
     0
  3
Center (2x) ________  __  ________  __  _____
 72
    65
 73
     4
 40
20.32
 49
12.7
 74
     0
 49
-2.54
 74
     0
 49
2.54
 74
     0
 49
-2.54
 74
     0
  0
LTYPE
  5
6E
330
5
100
AcDbSymbolTableRecord
100
AcDbLinetypeTableRecord
  2
DOT2
 70
     0
  3
Dot (.5x) ........................................
 72
    65
 73
     2
 40
0.635
 49
0.0
 74
     0
 49
-0.635
 74
     0
  0
ENDTAB
  0
TABLE
  2
LAYER
  5
2
102
{ACAD_XDICTIONARY
360
1D6
102
}
330
0
100
AcDbSymbolTable
 70
    18
  0
LAYER
  5
10
330
2
100
AcDbSymbolTableRecord
100
AcDbLayerTableRecord
  2
0
 70
     0
 62
     7
  6
Continuous
370
    -3
390
F
  0
LAYER
  5
6F
330
2
100
AcDbSymbolTableRecord
100
AcDbLayerTableRecord
  2
FORMAT
 70
     0
 62
     2
  6
Continuous
370
    -3
390
F
  0
LAYER
  5
70
330
2
100
AcDbSymbolTableRecord
100
AcDbLayerTableRecord
  2
외형선
 70
     0
 62
     4
  6
Continuous
370
    30
390
F
  0
LAYER
  5
71
330
2
100
AcDbSymbolTableRecord
100
AcDbLayerTableRecord
  2
숨은선
 70
     0
 62
     2
  6
HIDDEN
370
    15
390
F
  0
LAYER
  5
72
330
2
100
AcDbSymbolTableRecord
100
AcDbLayerTableRecord
  2
중심선
 70
     0
 62
     1
  6
CENTERX2
370
    -3
390
F
  0
LAYER
  5
73
330
2
100
AcDbSymbolTableRecord
100
AcDbLayerTableRecord
  2
파단선
 70
     0
 62
     4
  6
Continuous
370
    -3
390
F
  0
LAYER
  5
74
330
2
100
AcDbSymbolTableRecord
100
AcDbLayerTableRecord
  2
해칭선
 70
     0
 62
   100
  6
Continuous
370
    -3
390
F
  0
LAYER
  5
75
330
2
100
AcDbSymbolTableRecord
100
AcDbLayerTableRecord
  2
가는실선
 70
     0
 62
     4
  6
Continuous
370
    -3
390
F
  0
LAYER
  5
76
330
2
100
AcDbSymbolTableRecord
100
AcDbLayerTableRecord
  2
치수_보조선
 70
     0
 62
     4
  6
Continuous
370
    -3
390
F
  0
LAYER
  5
77
330
2
100
AcDbSymbolTableRecord
100
AcDbLayerTableRecord
  2
치수문자_일반주서
 70
     0
 62
     7
  6
Continuous
370
    15
390
F
  0
LAYER
  5
78
330
2
100
AcDbSymbolTableRecord
100
AcDbLayerTableRecord
  2
개별주서
 70
     0
 62
   100
  6
Continuous
370
    30
390
F
  0
LAYER
  5
79
330
2
100
AcDbSymbolTableRecord
100
AcDbLayerTableRecord
  2
중간선
 70
     0
 62
     2
  6
Continuous
370
    15
390
F
  0
LAYER
  5
7A
330
2
100
AcDbSymbolTableRecord
100
AcDbLayerTableRecord
  2
윤곽선
 70
     0
 62
     3
  6
Continuous
370
    40
390
F
  0
LAYER
  5
7B
330
2
100
AcDbSymbolTableRecord
100
AcDbLayerTableRecord
  2
중심마크
 70
     0
 62
   100
  6
Continuous
370
    30
390
F
  0
LAYER
  5
7C
330
2
100
AcDbSymbolTableRecord
100
AcDbLayerTableRecord
  2
가상선
 70
     0
 62
     4
  6
PHANTOM
370
    -3
390
F
  0
LAYER
  5
7D
330
2
100
AcDbSymbolTableRecord
100
AcDbLayerTableRecord
  2
특수지정선
 70
     0
 62
     5
  6
CENTERX2
370
    60
390
F
  0
LAYER
  5
7E
330
2
100
AcDbSymbolTableRecord
100
AcDbLayerTableRecord
  2
참조1
 70
     0
 62
    -4
  6
Continuous
370
    -3
390
F
  0
LAYER
  5
151
330
2
100
AcDbSymbolTableRecord
100
AcDbLayerTableRecord
  2
Defpoints
 70
     0
 62
     7
  6
Continuous
290
     0
370
    -3
390
F
  0
ENDTAB
  0
TABLE
  2
STYLE
  5
3
330
0
100
AcDbSymbolTable
 70
     2
  0
STYLE
  5
11
330
3
100
AcDbSymbolTableRecord
100
AcDbTextStyleTableRecord
  2
Standard
 70
     0
 40
0.0
 41
1.0
 50
0.0
 71
     0
 42
3.5
  3
txt
  4

  0
STYLE
  5
94
330
3
100
AcDbSymbolTableRecord
100
AcDbTextStyleTableRecord
  2
SLDTEXTSTYLE0
 70
     0
 40
0.0
 41
0.75
 50
0.0
 71
     0
 42
3.5
  3
TXT
  4

  0
ENDTAB
  0
TABLE
  2
VIEW
  5
6
330
0
100
AcDbSymbolTable
 70
     0
  0
ENDTAB
  0
TABLE
  2
UCS
  5
7
330
0
100
AcDbSymbolTable
 70
     0
  0
ENDTAB
  0
TABLE
  2
APPID
  5
9
330
0
100
AcDbSymbolTable
 70
     1
  0
APPID
  5
12
330
9
100
AcDbSymbolTableRecord
100
AcDbRegAppTableRecord
  2
ACAD
 70
     0
  0
ENDTAB
  0
TABLE
  2
DIMSTYLE
  5
A
330
0
100
AcDbSymbolTable
 70
     4
100
AcDbDimStyleTable
  0
DIMSTYLE
105
27
330
A
100
AcDbSymbolTableRecord
100
AcDbDimStyleTableRecord
  2
ISO-25
 70
     0
 41
2.5
 42
0.625
 43
3.75
 44
1.25
 73
     0
 74
     0
 77
     1
 78
     8
140
2.5
141
2.5
143
0.03937007874016
147
0.625
171
     3
172
     1
178
     0
271
     2
272
     2
274
     3
278
    44
283
     0
284
     8
340
11
  0
DIMSTYLE
105
CE
330
A
100
AcDbSymbolTableRecord
100
AcDbDimStyleTableRecord
  2
SLDDIMSTYLE0
 70
     0
 41
3.302
 44
0.0
 45
0.000000001
 73
     0
 74
     0
 77
     1
 78
     4
 79
     1
140
3.5
143
0.0393700787401575
147
0.875
148
0.000000001
170
     1
173
     1
178
     0
271
     2
272
     2
276
     2
284
    12
340
94
  0
DIMSTYLE
105
F6
330
A
100
AcDbSymbolTableRecord
100
AcDbDimStyleTableRecord
  2
SLDDIMSTYLE1
 70
     0
 41
3.302
 44
0.0
 45
0.000000001
 73
     0
 74
     0
 77
     1
 78
    12
 79
     3
140
3.5
143
0.0393700787401575
147
0.875
148
0.000000001
170
     1
173
     1
178
     0
271
     2
272
     2
276
     2
284
    12
340
94
  0
DIMSTYLE
105
10A
102
{ACAD_REACTORS
330
109
330
CD
330
E1
330
F5
102
}
330
A
100
AcDbSymbolTableRecord
100
AcDbDimStyleTableRecord
  2
SLDDIMSTYLE2
 70
     0
 41
3.302
 44
0.0
 45
0.000000001
 73
     0
 74
     0
 77
     1
 78
     4
 79
     1
140
3.5
143
0.0393700787401575
147
0.875
148
0.000000001
170
     1
172
     1
173
     1
178
     0
271
     2
272
     2
276
     2
284
    12
289
     0
340
94
  0
ENDTAB
  0
TABLE
  2
BLOCK_RECORD
  5
1
330
0
100
AcDbSymbolTable
 70
    19
  0
BLOCK_RECORD
  5
1F
330
1
100
AcDbSymbolTableRecord
100
AcDbBlockTableRecord
  2
*Model_Space
340
22
  0
BLOCK_RECORD
  5
1B
330
1
100
AcDbSymbolTableRecord
100
AcDbBlockTableRecord
  2
*Paper_Space
340
1E
  0
BLOCK_RECORD
  5
23
330
1
100
AcDbSymbolTableRecord
100
AcDbBlockTableRecord
  2
*Paper_Space0
340
26
  0
BLOCK_RECORD
  5
7F
330
1
100
AcDbSymbolTableRecord
100
AcDbBlockTableRecord
  2
블럭10
340
0
102
{BLKREFS
331
C6
102
}
  0
BLOCK_RECORD
  5
CF
330
1
100
AcDbSymbolTableRecord
100
AcDbBlockTableRecord
  2
_D
340
0
  0
BLOCK_RECORD
  5
E2
330
1
100
AcDbSymbolTableRecord
100
AcDbBlockTableRecord
  2
_D_1
340
0
  0
BLOCK_RECORD
  5
F7
330
1
100
AcDbSymbolTableRecord
100
AcDbBlockTableRecord
  2
_D_2
340
0
  0
BLOCK_RECORD
  5
10B
330
1
100
AcDbSymbolTableRecord
100
AcDbBlockTableRecord
  2
_D_3
340
0
  0
BLOCK_RECORD
  5
125
330
1
100
AcDbSymbolTableRecord
100
AcDbBlockTableRecord
  2
SW_DOWELSYMBOL_0
340
0
102
{BLKREFS
331
12B
331
340
102
}
  0
BLOCK_RECORD
  5
1DA
330
1
100
AcDbSymbolTableRecord
100
AcDbBlockTableRecord
  2
*D7
340
0
  0
BLOCK_RECORD
  5
1E9
330
1
100
AcDbSymbolTableRecord
100
AcDbBlockTableRecord
  2
*D8
340
0
  0
BLOCK_RECORD
  5
1F8
330
1
100
AcDbSymbolTableRecord
100
AcDbBlockTableRecord
  2
*D9
340
0
  0
BLOCK_RECORD
  5
231
330
1
100
AcDbSymbolTableRecord
100
AcDbBlockTableRecord
  2
*D10
340
0
  0
BLOCK_RECORD
  5
240
330
1
100
AcDbSymbolTableRecord
100
AcDbBlockTableRecord
  2
*D11
340
0
  0
BLOCK_RECORD
  5
24F
330
1
100
AcDbSymbolTableRecord
100
AcDbBlockTableRecord
  2
*D12
340
0
  0
BLOCK_RECORD
  5
2EA
330
1
100
AcDbSymbolTableRecord
100
AcDbBlockTableRecord
  2
*D13
340
0
  0
BLOCK_RECORD
  5
2F9
330
1
100
AcDbSymbolTableRecord
100
AcDbBlockTableRecord
  2
*D14
340
0
  0
BLOCK_RECORD
  5
308
330
1
100
AcDbSymbolTableRecord
100
AcDbBlockTableRecord
  2
*D15
340
0
  0
BLOCK_RECORD
  5
341
330
1
100
AcDbSymbolTableRecord
100
AcDbBlockTableRecord
  2
*D16
340
0
  0
BLOCK_RECORD
  5
350
330
1
100
AcDbSymbolTableRecord
100
AcDbBlockTableRecord
  2
*D17
340
0
  0
BLOCK_RECORD
  5
35F
330
1
100
AcDbSymbolTableRecord
100
AcDbBlockTableRecord
  2
*D18
340
0
  0
ENDTAB
  0
ENDSEC
  0
SECTION
  2
BLOCKS
  0
BLOCK
  5
20
330
1F
100
AcDbEntity
  8
0
100
AcDbBlockBegin
  2
*Model_Space
 70
     0
 10
0.0
 20
0.0
 30
0.0
  3
*Model_Space
  1
*Model_Space
  0
ENDBLK
  5
21
330
1F
100
AcDbEntity
  8
0
100
AcDbBlockEnd
  0
BLOCK
  5
1C
330
1B
100
AcDbEntity
 67
     1
  8
0
100
AcDbBlockBegin
  2
*Paper_Space
 70
     0
 10
0.0
 20
0.0
 30
0.0
  3
*Paper_Space
  1
*Paper_Space
  0
ENDBLK
  5
1D
330
1B
100
AcDbEntity
 67
     1
  8
0
100
AcDbBlockEnd
  0
BLOCK
  5
24
330
23
100
AcDbEntity
  8
0
100
AcDbBlockBegin
  2
*Paper_Space0
 70
     0
 10
0.0
 20
0.0
 30
0.0
  3
*Paper_Space0
  1
*Paper_Space0
  0
ENDBLK
  5
25
330
23
100
AcDbEntity
  8
0
100
AcDbBlockEnd
  0
BLOCK
  5
80
330
7F
100
AcDbEntity
  8
0
100
AcDbBlockBegin
  2
블럭10
 70
     2
 10
0.0
 20
0.0
 30
0.0
  3
블럭10
  1
블럭10
  0
ELLIPSE
  5
82
330
7F
100
AcDbEntity
  8
중심선
100
AcDbEllipse
 10
20.54032771741204
 20
12.0471743016438
 30
0.0
 11
6.600054785286829
 21
-1.261213355974178E-13
 31
0.0
210
0.0
220
0.0
230
1.0
 40
0.636358354079598
 41
0.9219305317359503
 42
6.513795318482858
  0
ELLIPSE
  5
83
330
7F
100
AcDbEntity
  8
중심선
100
AcDbEllipse
 10
20.54032771746488
 20
12.04717430159265
 30
0.0
 11
3.960054785062283
 21
1.540847449632565E-10
 31
0.0
210
0.0
220
0.0
230
1.0
 40
0.3939339440162632
 41
1.131841032648279
 42
5.62031148352944
  0
LINE
  5
84
330
7F
100
AcDbEntity
  8
중심선
100
AcDbLine
 10
2.268634060543552
 20
16.24717430164393
 30
0.0
 11
5.714909304380834
 21
16.24717430164393
 31
0.0
  0
LINE
  5
85
330
7F
100
AcDbEntity
  8
중심선
100
AcDbLine
 10
5.245725140726316
 20
7.84717430164391
 30
0.0
 11
8.692000384563599
 21
7.84717430164391
 31
0.0
  0
LINE
  5
86
330
7F
100
AcDbEntity
  8
중심선
100
AcDbLine
 10
15.74043728645272
 20
16.24717430164393
 30
0.0
 11
8.692000384563599
 21
7.84717430164391
 31
0.0
  0
LINE
  5
87
330
7F
100
AcDbEntity
  8
중심선
100
AcDbLine
 10
0.1404042013395286
 20
13.71084872107135
 30
0.0
 11
3.58671253028996
 21
13.71088815037384
 31
0.0
  0
LINE
  5
88
330
7F
100
AcDbEntity
  8
중심선
100
AcDbLine
 10
2.750260043222114
 20
10.84717430164391
 30
0.0
 11
6.196535287059397
 21
10.84717430164391
 31
0.0
  0
LINE
  5
89
330
7F
100
AcDbEntity
  8
중심선
100
AcDbLine
 10
12.29416204261559
 20
16.24717430164393
 30
0.0
 11
5.245725140726316
 21
7.84717430164391
 31
0.0
  0
LINE
  5
8A
330
7F
100
AcDbEntity
  8
중심선
100
AcDbLine
 10
10.72767329541681
 20
16.24717430164393
 30
0.0
 11
6.196535287059397
 21
10.84717430164391
 31
0.0
  0
LINE
  5
8B
330
7F
100
AcDbEntity
  8
중심선
100
AcDbLine
 10
7.28139805157953
 20
16.24717430164393
 30
0.0
 11
2.750260043222114
 21
10.84717430164391
 31
0.0
  0
LINE
  5
8C
330
7F
100
AcDbEntity
  8
중심선
100
AcDbLine
 10
5.714909304380834
 20
16.24717430164393
 30
0.0
 11
3.58671253028996
 21
13.71088815037384
 31
0.0
  0
LINE
  5
8D
330
7F
100
AcDbEntity
  8
중심선
100
AcDbLine
 10
2.268634060543552
 20
16.24717430164393
 30
0.0
 11
0.1404042013395286
 21
13.71084872107135
 31
0.0
  0
LINE
  5
8E
330
7F
100
AcDbEntity
  8
중심선
100
AcDbLine
 10
7.28139805157953
 20
16.24717430164393
 30
0.0
 11
10.72767329541681
 21
16.24717430164393
 31
0.0
  0
LINE
  5
8F
330
7F
100
AcDbEntity
  8
중심선
100
AcDbLine
 10
12.29416204261559
 20
16.24717430164393
 30
0.0
 11
15.74043728645272
 21
16.24717430164393
 31
0.0
  0
LINE
  5
90
330
7F
100
AcDbEntity
  8
중심선
100
AcDbLine
 10
19.22036997980202
 20
11.08717430171403
 30
0.0
 11
23.66174974927406
 21
11.08717430171406
 31
0.0
  0
LINE
  5
91
330
7F
100
AcDbEntity
  8
중심선
100
AcDbLine
 10
19.22039502424796
 20
13.00717430171391
 30
0.0
 11
19.22036997980202
 21
11.08717430171403
 31
0.0
  0
LINE
  5
92
330
7F
100
AcDbEntity
  8
중심선
100
AcDbLine
 10
19.22039502424796
 20
13.00717430171391
 30
0.0
 11
26.96566020931264
 21
13.00717430171391
 31
0.0
  0
LINE
  5
93
330
7F
100
AcDbEntity
  8
중심선
100
AcDbLine
 10
22.22332737316547
 20
13.45928029700563
 30
0.0
 11
24.52862924686651
 21
15.39360700705356
 31
0.0
  0
ATTDEF
  5
95
330
7F
100
AcDbEntity
  8
FORMAT
 62
     2
100
AcDbText
 10
4.408487351596664
 20
2.075366912832191
 30
0.0
 40
4.233333333333333
  1
E1053031
 41
0.75
  7
SLDTEXTSTYLE0
 11
4.408487351596664
 21
-0.0412997538344756
 31
0.0
100
AcDbAttributeDefinition
  3

  2
AUTOATTR0
 70
     0
 74
     1
  0
ENDBLK
  5
81
330
7F
100
AcDbEntity
  8
0
100
AcDbBlockEnd
  0
BLOCK
  5
D0
330
CF
100
AcDbEntity
  8
0
100
AcDbBlockBegin
  2
_D
 70
     0
 10
0.0
 20
0.0
 30
0.0
  3
_D
  1
_D
  0
LINE
  5
D2
330
CF
100
AcDbEntity
  8
치수문자_일반주서
 62
     0
370
    -2
100
AcDbLine
 10
52.44999999999998
 20
6.151562500000006
 30
0.0
 11
67.35923552919769
 21
6.151562500000061
 31
0.0
  0
LINE
  5
D3
330
CF
100
AcDbEntity
  8
치수문자_일반주서
 62
     0
370
    -2
100
AcDbLine
 10
52.44999999999998
 20
-6.151562499999994
 30
0.0
 11
67.35923552919773
 21
-6.151562499999933
 31
0.0
  0
LINE
  5
D4
330
CF
100
AcDbEntity
  8
치수문자_일반주서
 62
     0
370
    -2
100
AcDbLine
 10
67.35923552919769
 20
6.151562500000061
 30
0.0
 11
67.35923552919755
 21
44.91181250000006
 31
0.0
  0
LINE
  5
D5
330
CF
100
AcDbEntity
  8
치수문자_일반주서
 62
     0
370
    -2
100
AcDbLine
 10
67.35923552919769
 20
6.151562500000061
 30
0.0
 11
67.35923552919773
 21
-6.151562499999933
 31
0.0
  0
LINE
  5
D6
330
CF
100
AcDbEntity
  8
치수문자_일반주서
 62
     0
370
    -2
100
AcDbLine
 10
67.35923552919768
 20
9.45356250000006
 30
0.0
 11
67.35923552919766
 21
12.75556250000006
 31
0.0
  0
LINE
  5
D7
330
CF
100
AcDbEntity
  8
치수문자_일반주서
 62
     0
370
    -2
100
AcDbLine
 10
67.35923552919775
 20
-9.453562499999933
 30
0.0
 11
67.35923552919776
 21
-12.75556249999993
 31
0.0
  0
SOLID
  5
D8
330
CF
100
AcDbEntity
  8
치수문자_일반주서
 62
     0
100
AcDbTrace
 10
66.80890219586435
 20
9.453562500000059
 30
0.0
 11
67.909568862531
 21
9.453562500000062
 31
0.0
 12
67.35923552919769
 22
6.151562500000061
 32
0.0
 13
67.35923552919769
 23
6.151562500000061
 33
0.0
  0
SOLID
  5
D9
330
CF
100
AcDbEntity
  8
치수문자_일반주서
 62
     0
100
AcDbTrace
 10
67.90956886253107
 20
-9.453562499999931
 30
0.0
 11
66.80890219586442
 21
-9.453562499999935
 31
0.0
 12
67.35923552919773
 22
-6.151562499999933
 32
0.0
 13
67.35923552919773
 23
-6.151562499999933
 33
0.0
  0
MTEXT
  5
DA
330
CF
100
AcDbEntity
  8
치수문자_일반주서
 62
     0
100
AcDbMText
 10
62.9842355291976
 20
28.94306250000004
 30
0.0
 40
3.5
 41
0.0
 71
     2
 72
     1
  1
\A1;%%c12.30 [31/64]
  7
SLDTEXTSTYLE0
 11
-3.465181744118345E-15
 21
1.0
 31
0.0
 73
     1
 44
1.0
  0
POINT
  5
DB
330
CF
100
AcDbEntity
  8
Defpoints
 62
     0
100
AcDbPoint
 10
52.38749999999998
 20
6.151562500000006
 30
0.0
  0
POINT
  5
25B
330
CF
100
AcDbEntity
  8
Defpoints
 62
     0
100
AcDbPoint
 10
52.38749999999998
 20
-6.151562499999994
 30
0.0
  0
POINT
  5
25C
330
CF
100
AcDbEntity
  8
Defpoints
 62
     0
100
AcDbPoint
 10
67.35923552919772
 20
-6.151562499999938
 30
0.0
  0
ENDBLK
  5
D1
330
CF
100
AcDbEntity
  8
0
100
AcDbBlockEnd
  0
BLOCK
  5
E3
330
E2
100
AcDbEntity
  8
0
100
AcDbBlockBegin
  2
_D_1
 70
     0
 10
0.0
 20
0.0
 30
0.0
  3
_D_1
  1
_D_1
  0
LINE
  5
E5
330
E2
100
AcDbEntity
  8
치수문자_일반주서
 62
     0
370
    -2
100
AcDbLine
 10
52.38749999999998
 20
6.214062500000006
 30
0.0
 11
52.38749999999998
 21
17.81161326165581
 31
0.0
  0
LINE
  5
E6
330
E2
100
AcDbEntity
  8
치수문자_일반주서
 62
     0
370
    -2
100
AcDbLine
 10
26.98749999999998
 20
5.902090597014714
 30
0.0
 11
26.98749999999998
 21
17.81161326165581
 31
0.0
  0
LINE
  5
E7
330
E2
100
AcDbEntity
  8
치수문자_일반주서
 62
     0
370
    -2
100
AcDbLine
 10
26.98749999999998
 20
17.81161326165581
 30
0.0
 11
-2.63889091405337
 21
17.81161326165581
 31
0.0
  0
LINE
  5
E8
330
E2
100
AcDbEntity
  8
치수문자_일반주서
 62
     0
370
    -2
100
AcDbLine
 10
52.38749999999998
 20
17.81161326165581
 30
0.0
 11
26.98749999999998
 21
17.81161326165581
 31
0.0
  0
LINE
  5
E9
330
E2
100
AcDbEntity
  8
치수문자_일반주서
 62
     0
370
    -2
100
AcDbLine
 10
55.68949999999998
 20
17.81161326165581
 30
0.0
 11
58.99149999999998
 21
17.81161326165581
 31
0.0
  0
LINE
  5
EA
330
E2
100
AcDbEntity
  8
치수문자_일반주서
 62
     0
370
    -2
100
AcDbLine
 10
23.68549999999998
 20
17.81161326165581
 30
0.0
 11
20.38349999999998
 21
17.81161326165581
 31
0.0
  0
SOLID
  5
EB
330
E2
100
AcDbEntity
  8
치수문자_일반주서
 62
     0
100
AcDbTrace
 10
55.68949999999998
 20
18.36194659498915
 30
0.0
 11
55.68949999999998
 21
17.26127992832248
 31
0.0
 12
52.38749999999998
 22
17.81161326165581
 32
0.0
 13
52.38749999999998
 23
17.81161326165581
 33
0.0
  0
SOLID
  5
EC
330
E2
100
AcDbEntity
  8
치수문자_일반주서
 62
     0
100
AcDbTrace
 10
23.68549999999998
 20
17.26127992832248
 30
0.0
 11
23.68549999999998
 21
18.36194659498915
 31
0.0
 12
26.98749999999998
 22
17.81161326165581
 32
0.0
 13
26.98749999999998
 23
17.81161326165581
 33
0.0
  0
MTEXT
  5
ED
330
E2
100
AcDbEntity
  8
치수문자_일반주서
 62
     0
100
AcDbMText
 10
7.20485908594663
 20
22.18661326165581
 30
0.0
 40
3.5
 41
0.0
 71
     2
 72
     1
  1
\A1;25.40 [1]
  7
SLDTEXTSTYLE0
 73
     1
 44
1.0
  0
POINT
  5
EE
330
E2
100
AcDbEntity
  8
Defpoints
 62
     0
100
AcDbPoint
 10
52.38749999999998
 20
6.151562500000006
 30
0.0
  0
POINT
  5
25D
330
E2
100
AcDbEntity
  8
Defpoints
 62
     0
100
AcDbPoint
 10
26.98749999999998
 20
5.839590597014714
 30
0.0
  0
POINT
  5
25E
330
E2
100
AcDbEntity
  8
Defpoints
 62
     0
100
AcDbPoint
 10
26.98749999999998
 20
17.81161326165581
 30
0.0
  0
ENDBLK
  5
E4
330
E2
100
AcDbEntity
  8
0
100
AcDbBlockEnd
  0
BLOCK
  5
F8
330
F7
100
AcDbEntity
  8
0
100
AcDbBlockBegin
  2
_D_2
 70
     0
 10
0.0
 20
0.0
 30
0.0
  3
_D_2
  1
_D_2
  0
LINE
  5
FA
330
F7
100
AcDbEntity
  8
치수문자_일반주서
 62
     0
370
    -2
100
AcDbLine
 10
52.38749999999998
 20
6.214062500000006
 30
0.0
 11
52.38749999999998
 21
30.54269822319041
 31
0.0
  0
LINE
  5
FB
330
F7
100
AcDbEntity
  8
치수문자_일반주서
 62
     0
370
    -2
100
AcDbLine
 10
-52.38749999999998
 20
6.214062499999989
 30
0.0
 11
-52.38749999999998
 21
30.54269822319041
 31
0.0
  0
LINE
  5
FC
330
F7
100
AcDbEntity
  8
치수문자_일반주서
 62
     0
370
    -2
100
AcDbLine
 10
49.08549999999998
 20
30.54269822319041
 30
0.0
 11
-49.08549999999998
 21
30.54269822319041
 31
0.0
  0
SOLID
  5
FD
330
F7
100
AcDbEntity
  8
치수문자_일반주서
 62
     0
100
AcDbTrace
 10
49.08549999999998
 20
29.99236488985707
 30
0.0
 11
49.08549999999998
 21
31.09303155652374
 31
0.0
 12
52.38749999999998
 22
30.54269822319041
 32
0.0
 13
52.38749999999998
 23
30.54269822319041
 33
0.0
  0
SOLID
  5
FE
330
F7
100
AcDbEntity
  8
치수문자_일반주서
 62
     0
100
AcDbTrace
 10
-49.08549999999998
 20
31.09303155652374
 30
0.0
 11
-49.08549999999998
 21
29.99236488985707
 31
0.0
 12
-52.38749999999998
 22
30.54269822319041
 32
0.0
 13
-52.38749999999998
 23
30.54269822319041
 33
0.0
  0
MTEXT
  5
FF
330
F7
100
AcDbEntity
  8
치수문자_일반주서
 62
     0
100
AcDbMText
 10
1.47587085325609
 20
34.91769822319041
 30
0.0
 40
3.5
 41
0.0
 71
     2
 72
     1
  1
\A1;104.78 [4 1/8]
  7
SLDTEXTSTYLE0
 73
     1
 44
1.0
  0
POINT
  5
100
330
F7
100
AcDbEntity
  8
Defpoints
 62
     0
100
AcDbPoint
 10
52.38749999999998
 20
6.151562500000006
 30
0.0
  0
POINT
  5
101
330
F7
100
AcDbEntity
  8
Defpoints
 62
     0
100
AcDbPoint
 10
-52.38749999999998
 20
6.151562499999989
 30
0.0
  0
POINT
  5
102
330
F7
100
AcDbEntity
  8
Defpoints
 62
     0
100
AcDbPoint
 10
-52.38749999999998
 20
30.54269822319041
 30
0.0
  0
ENDBLK
  5
F9
330
F7
100
AcDbEntity
  8
0
100
AcDbBlockEnd
  0
BLOCK
  5
10C
330
10B
100
AcDbEntity
  8
0
100
AcDbBlockBegin
  2
_D_3
 70
     0
 10
0.0
 20
0.0
 30
0.0
  3
_D_3
  1
_D_3
  0
LINE
  5
10E
330
10B
100
AcDbEntity
  8
치수문자_일반주서
 62
     0
370
    -2
100
AcDbLine
 10
-25.309421167873
 20
6.350000000000001
 30
0.0
 11
-64.59375000000004
 21
6.349999999999854
 31
0.0
  0
LINE
  5
10F
330
10B
100
AcDbEntity
  8
치수문자_일반주서
 62
     0
370
    -2
100
AcDbLine
 10
-25.30942116787304
 20
-6.350000000000007
 30
0.0
 11
-64.59375
 21
-6.350000000000154
 31
0.0
  0
LINE
  5
110
330
10B
100
AcDbEntity
  8
치수문자_일반주서
 62
     0
370
    -2
100
AcDbLine
 10
-64.59375000000003
 20
3.047999999999854
 30
0.0
 11
-64.59375000000001
 21
-3.048000000000154
 31
0.0
  0
SOLID
  5
111
330
10B
100
AcDbEntity
  8
치수문자_일반주서
 62
     0
100
AcDbTrace
 10
-64.0434166666667
 20
3.047999999999856
 30
0.0
 11
-65.14408333333336
 21
3.047999999999852
 31
0.0
 12
-64.59375000000004
 22
6.349999999999854
 32
0.0
 13
-64.59375000000004
 23
6.349999999999854
 33
0.0
  0
SOLID
  5
112
330
10B
100
AcDbEntity
  8
치수문자_일반주서
 62
     0
100
AcDbTrace
 10
-65.14408333333334
 20
-3.048000000000156
 30
0.0
 11
-64.04341666666669
 21
-3.048000000000152
 31
0.0
 12
-64.59375
 22
-6.350000000000154
 32
0.0
 13
-64.59375
 23
-6.350000000000154
 33
0.0
  0
MTEXT
  5
113
330
10B
100
AcDbEntity
  8
치수문자_일반주서
 62
     0
100
AcDbMText
 10
-68.96875000000003
 20
-0.0000000000000232
 30
0.0
 40
3.5
 41
0.0
 71
     2
 72
     1
  1
\A1;%%c12.70 [1/2]
  7
SLDTEXTSTYLE0
 11
-3.356894814614645E-15
 21
1.0
 31
0.0
 73
     1
 44
1.0
  0
POINT
  5
114
330
10B
100
AcDbEntity
  8
Defpoints
 62
     0
100
AcDbPoint
 10
-25.246921167873
 20
6.350000000000001
 30
0.0
  0
POINT
  5
115
330
10B
100
AcDbEntity
  8
Defpoints
 62
     0
100
AcDbPoint
 10
-25.24692116787304
 20
-6.350000000000007
 30
0.0
  0
POINT
  5
116
330
10B
100
AcDbEntity
  8
Defpoints
 62
     0
100
AcDbPoint
 10
-64.59375
 20
-6.350000000000154
 30
0.0
  0
ENDBLK
  5
10D
330
10B
100
AcDbEntity
  8
0
100
AcDbBlockEnd
  0
BLOCK
  5
126
330
125
100
AcDbEntity
  8
0
100
AcDbBlockBegin
  2
SW_DOWELSYMBOL_0
 70
     0
 10
0.0
 20
0.0
 30
0.0
  3
SW_DOWELSYMBOL_0
  1
SW_DOWELSYMBOL_0
  0
CIRCLE
  5
128
330
125
100
AcDbEntity
  8
해칭선
 62
     0
100
AcDbCircle
 10
0.0
 20
0.0
 30
0.0
 40
3.000000000000008
  0
HATCH
  5
129
330
125
100
AcDbEntity
  8
0
  6
Continuous
 62
     0
370
     0
100
AcDbHatch
 10
0.0
 20
0.0
 30
0.0
210
0.0
220
0.0
230
1.0
  2
SOLID
 70
     1
 71
     0
 91
        1
 92
        0
 93
        3
 72
     2
 10
0.0
 20
0.0
 40
3.000000000000008
 50
0.0
 51
90.0
 73
     1
 72
     1
 10
0.0
 20
3.000000000000008
 11
0.0
 21
0.0
 72
     1
 10
0.0
 20
0.0
 11
3.00000000000001
 21
0.0
 97
        0
 75
     0
 76
     1
 98
        1
 10
0.0
 20
0.0
  0
HATCH
  5
12A
330
125
100
AcDbEntity
  8
0
  6
Continuous
 62
     0
370
     0
100
AcDbHatch
 10
0.0
 20
0.0
 30
0.0
210
0.0
220
0.0
230
1.0
  2
SOLID
 70
     1
 71
     0
 91
        1
 92
        0
 93
        3
 72
     2
 10
0.0
 20
0.0
 40
3.000000000000008
 50
180.0
 51
270.0000000000007
 73
     1
 72
     1
 10
0.0
 20
-3.000000000000008
 11
0.0
 21
0.0
 72
     1
 10
0.0
 20
0.0
 11
-3.00000000000001
 21
0.0
 97
        0
 75
     0
 76
     1
 98
        1
 10
0.0
 20
0.0
  0
ENDBLK
  5
127
330
125
100
AcDbEntity
  8
0
100
AcDbBlockEnd
  0
BLOCK
  5
1DB
330
1DA
100
AcDbEntity
  8
0
100
AcDbBlockBegin
  2
*D7
 70
     1
 10
0.0
 20
0.0
 30
0.0
  3
*D7
  1
*D8
  0
LINE
  5
1DD
330
1DA
100
AcDbEntity
  8
치수문자_일반주서
 62
     0
370
    -2
100
AcDbLine
 10
107.8375
 20
18.51024999999995
 30
0.0
 11
122.0099876424737
 21
18.51025
 31
0.0
  0
LINE
  5
1DE
330
1DA
100
AcDbEntity
  8
치수문자_일반주서
 62
     0
370
    -2
100
AcDbLine
 10
107.8375
 20
6.603999999999949
 30
0.0
 11
122.0099876424738
 21
6.603999999999999
 31
0.0
  0
LINE
  5
1DF
330
1DA
100
AcDbEntity
  8
치수문자_일반주서
 62
     0
370
    -2
100
AcDbLine
 10
122.0099876424737
 20
18.51025
 30
0.0
 11
122.0099876424736
 21
56.17675000000001
 31
0.0
  0
LINE
  5
1E0
330
1DA
100
AcDbEntity
  8
치수문자_일반주서
 62
     0
370
    -2
100
AcDbLine
 10
122.0099876424737
 20
18.51025
 30
0.0
 11
122.0099876424738
 21
6.603999999999999
 31
0.0
  0
LINE
  5
1E1
330
1DA
100
AcDbEntity
  8
치수문자_일반주서
 62
     0
370
    -2
100
AcDbLine
 10
122.0099876424737
 20
21.81225
 30
0.0
 11
122.0099876424737
 21
25.11425
 31
0.0
  0
LINE
  5
1E2
330
1DA
100
AcDbEntity
  8
치수문자_일반주서
 62
     0
370
    -2
100
AcDbLine
 10
122.0099876424738
 20
3.302
 30
0.0
 11
122.0099876424738
 21
0.0
 31
0.0
  0
SOLID
  5
1E3
330
1DA
100
AcDbEntity
  8
치수문자_일반주서
 62
     0
100
AcDbTrace
 10
121.4596543091404
 20
21.81225
 30
0.0
 11
122.5603209758071
 21
21.81225000000001
 31
0.0
 12
122.0099876424737
 22
18.51025
 32
0.0
 13
122.0099876424737
 23
18.51025
 33
0.0
  0
SOLID
  5
1E4
330
1DA
100
AcDbEntity
  8
치수문자_일반주서
 62
     0
100
AcDbTrace
 10
122.5603209758071
 20
3.302000000000001
 30
0.0
 11
121.4596543091405
 21
3.301999999999998
 31
0.0
 12
122.0099876424738
 22
6.603999999999999
 32
0.0
 13
122.0099876424738
 23
6.603999999999999
 33
0.0
  0
MTEXT
  5
1E5
330
1DA
100
AcDbEntity
  8
치수문자_일반주서
 62
     0
100
AcDbMText
 10
117.6349876424737
 20
40.86424999999998
 30
0.0
 40
3.5
 41
0.0
 71
     2
 72
     1
  1
\A1;%%c11.91 [15/32]
  7
SLDTEXTSTYLE0
 11
-3.580687802255623E-15
 21
1.0
 31
0.0
 73
     1
 44
1.0
  0
POINT
  5
1E6
330
1DA
100
AcDbEntity
  8
Defpoints
 62
     0
100
AcDbPoint
 10
107.775
 20
18.51024999999995
 30
0.0
  0
POINT
  5
1E7
330
1DA
100
AcDbEntity
  8
Defpoints
 62
     0
100
AcDbPoint
 10
107.775
 20
6.603999999999949
 30
0.0
  0
POINT
  5
1E8
330
1DA
100
AcDbEntity
  8
Defpoints
 62
     0
100
AcDbPoint
 10
122.0099876424738
 20
6.604000000000003
 30
0.0
  0
ENDBLK
  5
1DC
330
1DA
100
AcDbEntity
  8
0
100
AcDbBlockEnd
  0
BLOCK
  5
1EA
330
1E9
100
AcDbEntity
  8
0
100
AcDbBlockBegin
  2
*D8
 70
     1
 10
0.0
 20
0.0
 30
0.0
  3
*D8
  1
*D9
  0
LINE
  5
1EC
330
1E9
100
AcDbEntity
  8
치수문자_일반주서
 62
     0
370
    -2
100
AcDbLine
 10
107.775
 20
18.57274999999995
 30
0.0
 11
107.775
 21
31.94338984416869
 31
0.0
  0
LINE
  5
1ED
330
1E9
100
AcDbEntity
  8
치수문자_일반주서
 62
     0
370
    -2
100
AcDbLine
 10
82.375
 20
18.40142439056271
 30
0.0
 11
82.375
 21
31.94338984416869
 31
0.0
  0
LINE
  5
1EE
330
1E9
100
AcDbEntity
  8
치수문자_일반주서
 62
     0
370
    -2
100
AcDbLine
 10
82.375
 20
31.94338984416869
 30
0.0
 11
56.08349999999999
 21
31.94338984416869
 31
0.0
  0
LINE
  5
1EF
330
1E9
100
AcDbEntity
  8
치수문자_일반주서
 62
     0
370
    -2
100
AcDbLine
 10
107.775
 20
31.94338984416869
 30
0.0
 11
82.375
 21
31.94338984416869
 31
0.0
  0
LINE
  5
1F0
330
1E9
100
AcDbEntity
  8
치수문자_일반주서
 62
     0
370
    -2
100
AcDbLine
 10
111.077
 20
31.94338984416869
 30
0.0
 11
114.379
 21
31.94338984416869
 31
0.0
  0
LINE
  5
1F1
330
1E9
100
AcDbEntity
  8
치수문자_일반주서
 62
     0
370
    -2
100
AcDbLine
 10
79.07300000000001
 20
31.94338984416869
 30
0.0
 11
75.77100000000002
 21
31.94338984416869
 31
0.0
  0
SOLID
  5
1F2
330
1E9
100
AcDbEntity
  8
치수문자_일반주서
 62
     0
100
AcDbTrace
 10
111.077
 20
32.49372317750203
 30
0.0
 11
111.077
 21
31.39305651083536
 31
0.0
 12
107.775
 22
31.94338984416869
 32
0.0
 13
107.775
 23
31.94338984416869
 33
0.0
  0
SOLID
  5
1F3
330
1E9
100
AcDbEntity
  8
치수문자_일반주서
 62
     0
100
AcDbTrace
 10
79.07300000000001
 20
31.39305651083536
 30
0.0
 11
79.07300000000001
 21
32.49372317750203
 31
0.0
 12
82.375
 22
31.94338984416869
 32
0.0
 13
82.375
 23
31.94338984416869
 33
0.0
  0
MTEXT
  5
1F4
330
1E9
100
AcDbEntity
  8
치수문자_일반주서
 62
     0
100
AcDbMText
 10
65.92724999999999
 20
36.31838984416869
 30
0.0
 40
3.5
 41
0.0
 71
     2
 72
     1
  1
\A1;25.40 [1]
  7
SLDTEXTSTYLE0
 73
     1
 44
1.0
  0
POINT
  5
1F5
330
1E9
100
AcDbEntity
  8
Defpoints
 62
     0
100
AcDbPoint
 10
107.775
 20
18.51024999999995
 30
0.0
  0
POINT
  5
1F6
330
1E9
100
AcDbEntity
  8
Defpoints
 62
     0
100
AcDbPoint
 10
82.375
 20
18.33892439056271
 30
0.0
  0
POINT
  5
1F7
330
1E9
100
AcDbEntity
  8
Defpoints
 62
     0
100
AcDbPoint
 10
82.375
 20
31.94338984416869
 30
0.0
  0
ENDBLK
  5
1EB
330
1E9
100
AcDbEntity
  8
0
100
AcDbBlockEnd
  0
BLOCK
  5
1F9
330
1F8
100
AcDbEntity
  8
0
100
AcDbBlockBegin
  2
*D9
 70
     1
 10
0.0
 20
0.0
 30
0.0
  3
*D9
  1
*D10
  0
LINE
  5
1FB
330
1F8
100
AcDbEntity
  8
치수문자_일반주서
 62
     0
370
    -2
100
AcDbLine
 10
107.775
 20
18.57274999999995
 30
0.0
 11
107.775
 21
49.84647807132673
 31
0.0
  0
LINE
  5
1FC
330
1F8
100
AcDbEntity
  8
치수문자_일반주서
 62
     0
370
    -2
100
AcDbLine
 10
3.000000000000007
 20
17.69962499999994
 30
0.0
 11
2.999999999999993
 21
49.84647807132673
 31
0.0
  0
LINE
  5
1FD
330
1F8
100
AcDbEntity
  8
치수문자_일반주서
 62
     0
370
    -2
100
AcDbLine
 10
104.473
 20
49.84647807132673
 30
0.0
 11
6.301999999999992
 21
49.84647807132673
 31
0.0
  0
SOLID
  5
1FE
330
1F8
100
AcDbEntity
  8
치수문자_일반주서
 62
     0
100
AcDbTrace
 10
104.473
 20
49.29614473799339
 30
0.0
 11
104.473
 21
50.39681140466006
 31
0.0
 12
107.775
 22
49.84647807132673
 32
0.0
 13
107.775
 23
49.84647807132673
 33
0.0
  0
SOLID
  5
1FF
330
1F8
100
AcDbEntity
  8
치수문자_일반주서
 62
     0
100
AcDbTrace
 10
6.301999999999992
 20
50.39681140466006
 30
0.0
 11
6.301999999999992
 21
49.29614473799339
 31
0.0
 12
2.999999999999993
 22
49.84647807132673
 32
0.0
 13
2.999999999999993
 23
49.84647807132673
 33
0.0
  0
MTEXT
  5
200
330
1F8
100
AcDbEntity
  8
치수문자_일반주서
 62
     0
100
AcDbMText
 10
57.95671642975269
 20
54.22147807132673
 30
0.0
 40
3.5
 41
0.0
 71
     2
 72
     1
  1
\A1;104.78 [4 1/8]
  7
SLDTEXTSTYLE0
 73
     1
 44
1.0
  0
POINT
  5
201
330
1F8
100
AcDbEntity
  8
Defpoints
 62
     0
100
AcDbPoint
 10
107.775
 20
18.51024999999995
 30
0.0
  0
POINT
  5
202
330
1F8
100
AcDbEntity
  8
Defpoints
 62
     0
100
AcDbPoint
 10
3.000000000000007
 20
17.63712499999994
 30
0.0
  0
POINT
  5
203
330
1F8
100
AcDbEntity
  8
Defpoints
 62
     0
100
AcDbPoint
 10
3.000000000000007
 20
49.84647807132673
 30
0.0
  0
ENDBLK
  5
1FA
330
1F8
100
AcDbEntity
  8
0
100
AcDbBlockEnd
  0
BLOCK
  5
232
330
231
100
AcDbEntity
  8
0
100
AcDbBlockBegin
  2
*D10
 70
     1
 10
0.0
 20
0.0
 30
0.0
  3
*D10
  1
*D11
  0
LINE
  5
234
330
231
100
AcDbEntity
  8
치수문자_일반주서
 62
     0
370
    -2
100
AcDbLine
 10
196.7879934319337
 20
-36.12355540493223
 30
0.0
 11
210.9604810744074
 21
-36.12355540493218
 31
0.0
  0
LINE
  5
235
330
231
100
AcDbEntity
  8
치수문자_일반주서
 62
     0
370
    -2
100
AcDbLine
 10
196.7879934319337
 20
-48.02980540493223
 30
0.0
 11
210.9604810744075
 21
-48.02980540493218
 31
0.0
  0
LINE
  5
236
330
231
100
AcDbEntity
  8
치수문자_일반주서
 62
     0
370
    -2
100
AcDbLine
 10
210.9604810744074
 20
-36.12355540493218
 30
0.0
 11
210.9604810744073
 21
1.542944595067823
 31
0.0
  0
LINE
  5
237
330
231
100
AcDbEntity
  8
치수문자_일반주서
 62
     0
370
    -2
100
AcDbLine
 10
210.9604810744074
 20
-36.12355540493218
 30
0.0
 11
210.9604810744075
 21
-48.02980540493218
 31
0.0
  0
LINE
  5
238
330
231
100
AcDbEntity
  8
치수문자_일반주서
 62
     0
370
    -2
100
AcDbLine
 10
210.9604810744074
 20
-32.82155540493218
 30
0.0
 11
210.9604810744074
 21
-29.51955540493218
 31
0.0
  0
LINE
  5
239
330
231
100
AcDbEntity
  8
치수문자_일반주서
 62
     0
370
    -2
100
AcDbLine
 10
210.9604810744075
 20
-51.33180540493218
 30
0.0
 11
210.9604810744075
 21
-54.63380540493218
 31
0.0
  0
SOLID
  5
23A
330
231
100
AcDbEntity
  8
치수문자_일반주서
 62
     0
100
AcDbTrace
 10
210.4101477410741
 20
-32.82155540493218
 30
0.0
 11
211.5108144077408
 21
-32.82155540493218
 31
0.0
 12
210.9604810744074
 22
-36.12355540493218
 32
0.0
 13
210.9604810744074
 23
-36.12355540493218
 33
0.0
  0
SOLID
  5
23B
330
231
100
AcDbEntity
  8
치수문자_일반주서
 62
     0
100
AcDbTrace
 10
211.5108144077408
 20
-51.33180540493218
 30
0.0
 11
210.4101477410741
 21
-51.33180540493218
 31
0.0
 12
210.9604810744075
 22
-48.02980540493218
 32
0.0
 13
210.9604810744075
 23
-48.02980540493218
 33
0.0
  0
MTEXT
  5
23C
330
231
100
AcDbEntity
  8
치수문자_일반주서
 62
     0
100
AcDbMText
 10
206.5854810744074
 20
-13.76955540493219
 30
0.0
 40
3.5
 41
0.0
 71
     2
 72
     1
  1
\A1;%%c11.91 [15/32]
  7
SLDTEXTSTYLE0
 11
-2.387125201503749E-15
 21
1.0
 31
0.0
 73
     1
 44
1.0
  0
POINT
  5
23D
330
231
100
AcDbEntity
  8
Defpoints
 62
     0
100
AcDbPoint
 10
196.7254934319337
 20
-36.12355540493223
 30
0.0
  0
POINT
  5
23E
330
231
100
AcDbEntity
  8
Defpoints
 62
     0
100
AcDbPoint
 10
196.7254934319337
 20
-48.02980540493223
 30
0.0
  0
POINT
  5
23F
330
231
100
AcDbEntity
  8
Defpoints
 62
     0
100
AcDbPoint
 10
210.9604810744075
 20
-48.02980540493218
 30
0.0
  0
ENDBLK
  5
233
330
231
100
AcDbEntity
  8
0
100
AcDbBlockEnd
  0
BLOCK
  5
241
330
240
100
AcDbEntity
  8
0
100
AcDbBlockBegin
  2
*D11
 70
     1
 10
0.0
 20
0.0
 30
0.0
  3
*D11
  1
*D12
  0
LINE
  5
243
330
240
100
AcDbEntity
  8
치수문자_일반주서
 62
     0
370
    -2
100
AcDbLine
 10
196.7254934319337
 20
-36.06105540493223
 30
0.0
 11
196.7254934319337
 21
-22.69041556076348
 31
0.0
  0
LINE
  5
244
330
240
100
AcDbEntity
  8
치수문자_일반주서
 62
     0
370
    -2
100
AcDbLine
 10
171.3254934319337
 20
-36.23238101436947
 30
0.0
 11
171.3254934319337
 21
-22.69041556076348
 31
0.0
  0
LINE
  5
245
330
240
100
AcDbEntity
  8
치수문자_일반주서
 62
     0
370
    -2
100
AcDbLine
 10
171.3254934319337
 20
-22.69041556076348
 30
0.0
 11
145.0339934319337
 21
-22.69041556076348
 31
0.0
  0
LINE
  5
246
330
240
100
AcDbEntity
  8
치수문자_일반주서
 62
     0
370
    -2
100
AcDbLine
 10
196.7254934319337
 20
-22.69041556076348
 30
0.0
 11
171.3254934319337
 21
-22.69041556076348
 31
0.0
  0
LINE
  5
247
330
240
100
AcDbEntity
  8
치수문자_일반주서
 62
     0
370
    -2
100
AcDbLine
 10
200.0274934319337
 20
-22.69041556076348
 30
0.0
 11
203.3294934319337
 21
-22.69041556076348
 31
0.0
  0
LINE
  5
248
330
240
100
AcDbEntity
  8
치수문자_일반주서
 62
     0
370
    -2
100
AcDbLine
 10
168.0234934319337
 20
-22.69041556076348
 30
0.0
 11
164.7214934319337
 21
-22.69041556076348
 31
0.0
  0
SOLID
  5
249
330
240
100
AcDbEntity
  8
치수문자_일반주서
 62
     0
100
AcDbTrace
 10
200.0274934319337
 20
-22.14008222743015
 30
0.0
 11
200.0274934319337
 21
-23.24074889409682
 31
0.0
 12
196.7254934319337
 22
-22.69041556076348
 32
0.0
 13
196.7254934319337
 23
-22.69041556076348
 33
0.0
  0
SOLID
  5
24A
330
240
100
AcDbEntity
  8
치수문자_일반주서
 62
     0
100
AcDbTrace
 10
168.0234934319337
 20
-23.24074889409682
 30
0.0
 11
168.0234934319337
 21
-22.14008222743015
 31
0.0
 12
171.3254934319337
 22
-22.69041556076348
 32
0.0
 13
171.3254934319337
 23
-22.69041556076348
 33
0.0
  0
MTEXT
  5
24B
330
240
100
AcDbEntity
  8
치수문자_일반주서
 62
     0
100
AcDbMText
 10
154.8777434319337
 20
-18.31541556076348
 30
0.0
 40
3.5
 41
0.0
 71
     2
 72
     1
  1
\A1;25.40 [1]
  7
SLDTEXTSTYLE0
 73
     1
 44
1.0
  0
POINT
  5
24C
330
240
100
AcDbEntity
  8
Defpoints
 62
     0
100
AcDbPoint
 10
196.7254934319337
 20
-36.12355540493223
 30
0.0
  0
POINT
  5
24D
330
240
100
AcDbEntity
  8
Defpoints
 62
     0
100
AcDbPoint
 10
171.3254934319337
 20
-36.29488101436947
 30
0.0
  0
POINT
  5
24E
330
240
100
AcDbEntity
  8
Defpoints
 62
     0
100
AcDbPoint
 10
171.3254934319337
 20
-22.69041556076348
 30
0.0
  0
ENDBLK
  5
242
330
240
100
AcDbEntity
  8
0
100
AcDbBlockEnd
  0
BLOCK
  5
250
330
24F
100
AcDbEntity
  8
0
100
AcDbBlockBegin
  2
*D12
 70
     1
 10
0.0
 20
0.0
 30
0.0
  3
*D12
  1
*D13
  0
LINE
  5
252
330
24F
100
AcDbEntity
  8
치수문자_일반주서
 62
     0
370
    -2
100
AcDbLine
 10
196.7254934319337
 20
-36.06105540493223
 30
0.0
 11
196.7254934319337
 21
-4.787327333605447
 31
0.0
  0
LINE
  5
253
330
24F
100
AcDbEntity
  8
치수문자_일반주서
 62
     0
370
    -2
100
AcDbLine
 10
91.9504934319337
 20
-36.93418040493223
 30
0.0
 11
91.9504934319337
 21
-4.787327333605447
 31
0.0
  0
LINE
  5
254
330
24F
100
AcDbEntity
  8
치수문자_일반주서
 62
     0
370
    -2
100
AcDbLine
 10
193.4234934319337
 20
-4.787327333605447
 30
0.0
 11
95.25249343193369
 21
-4.787327333605447
 31
0.0
  0
SOLID
  5
255
330
24F
100
AcDbEntity
  8
치수문자_일반주서
 62
     0
100
AcDbTrace
 10
193.4234934319337
 20
-5.33766066693878
 30
0.0
 11
193.4234934319337
 21
-4.236994000272113
 31
0.0
 12
196.7254934319337
 22
-4.787327333605447
 32
0.0
 13
196.7254934319337
 23
-4.787327333605447
 33
0.0
  0
SOLID
  5
256
330
24F
100
AcDbEntity
  8
치수문자_일반주서
 62
     0
100
AcDbTrace
 10
95.25249343193369
 20
-4.236994000272113
 30
0.0
 11
95.25249343193369
 21
-5.33766066693878
 31
0.0
 12
91.9504934319337
 22
-4.787327333605447
 32
0.0
 13
91.9504934319337
 23
-4.787327333605447
 33
0.0
  0
MTEXT
  5
257
330
24F
100
AcDbEntity
  8
치수문자_일반주서
 62
     0
100
AcDbMText
 10
146.9072098616864
 20
-0.4123273336054467
 30
0.0
 40
3.5
 41
0.0
 71
     2
 72
     1
  1
\A1;104.78 [4 1/8]
  7
SLDTEXTSTYLE0
 73
     1
 44
1.0
  0
POINT
  5
258
330
24F
100
AcDbEntity
  8
Defpoints
 62
     0
100
AcDbPoint
 10
196.7254934319337
 20
-36.12355540493223
 30
0.0
  0
POINT
  5
259
330
24F
100
AcDbEntity
  8
Defpoints
 62
     0
100
AcDbPoint
 10
91.9504934319337
 20
-36.99668040493223
 30
0.0
  0
POINT
  5
25A
330
24F
100
AcDbEntity
  8
Defpoints
 62
     0
100
AcDbPoint
 10
91.9504934319337
 20
-4.787327333605447
 30
0.0
  0
ENDBLK
  5
251
330
24F
100
AcDbEntity
  8
0
100
AcDbBlockEnd
  0
BLOCK
  5
2EB
330
2EA
100
AcDbEntity
  8
0
100
AcDbBlockBegin
  2
*D13
 70
     1
 10
0.0
 20
0.0
 30
0.0
  3
*D13
  1
*D15
  0
LINE
  5
2ED
330
2EA
100
AcDbEntity
  8
치수문자_일반주서
 62
     0
370
    -2
100
AcDbLine
 10
107.8375
 20
18.90712499999994
 30
0.0
 11
122.7467355291977
 21
18.90712499999999
 31
0.0
  0
LINE
  5
2EE
330
2EA
100
AcDbEntity
  8
치수문자_일반주서
 62
     0
370
    -2
100
AcDbLine
 10
107.8375
 20
6.60399999999994
 30
0.0
 11
122.7467355291977
 21
6.603999999999992
 31
0.0
  0
LINE
  5
2EF
330
2EA
100
AcDbEntity
  8
치수문자_일반주서
 62
     0
370
    -2
100
AcDbLine
 10
122.7467355291977
 20
18.90712499999999
 30
0.0
 11
122.7467355291976
 21
57.667375
 31
0.0
  0
LINE
  5
2F0
330
2EA
100
AcDbEntity
  8
치수문자_일반주서
 62
     0
370
    -2
100
AcDbLine
 10
122.7467355291977
 20
18.90712499999999
 30
0.0
 11
122.7467355291977
 21
6.603999999999992
 31
0.0
  0
LINE
  5
2F1
330
2EA
100
AcDbEntity
  8
치수문자_일반주서
 62
     0
370
    -2
100
AcDbLine
 10
122.7467355291977
 20
22.20912499999999
 30
0.0
 11
122.7467355291977
 21
25.51112499999999
 31
0.0
  0
LINE
  5
2F2
330
2EA
100
AcDbEntity
  8
치수문자_일반주서
 62
     0
370
    -2
100
AcDbLine
 10
122.7467355291977
 20
3.301999999999992
 30
0.0
 11
122.7467355291978
 21
-0.0000000000000071
 31
0.0
  0
SOLID
  5
2F3
330
2EA
100
AcDbEntity
  8
치수문자_일반주서
 62
     0
100
AcDbTrace
 10
122.1964021958644
 20
22.20912499999999
 30
0.0
 11
123.297068862531
 21
22.209125
 31
0.0
 12
122.7467355291977
 22
18.90712499999999
 32
0.0
 13
122.7467355291977
 23
18.90712499999999
 33
0.0
  0
SOLID
  5
2F4
330
2EA
100
AcDbEntity
  8
치수문자_일반주서
 62
     0
100
AcDbTrace
 10
123.2970688625311
 20
3.301999999999994
 30
0.0
 11
122.1964021958644
 21
3.301999999999991
 31
0.0
 12
122.7467355291977
 22
6.603999999999992
 32
0.0
 13
122.7467355291977
 23
6.603999999999992
 33
0.0
  0
MTEXT
  5
2F5
330
2EA
100
AcDbEntity
  8
치수문자_일반주서
 62
     0
100
AcDbMText
 10
118.3717355291976
 20
41.69862499999998
 30
0.0
 40
3.5
 41
0.0
 71
     2
 72
     1
  1
\A1;%%c12.30 [31/64]
  7
SLDTEXTSTYLE0
 11
-3.465181744118346E-15
 21
1.0
 31
0.0
 73
     1
 44
1.0
  0
POINT
  5
2F6
330
2EA
100
AcDbEntity
  8
Defpoints
 62
     0
100
AcDbPoint
 10
107.775
 20
18.90712499999994
 30
0.0
  0
POINT
  5
2F7
330
2EA
100
AcDbEntity
  8
Defpoints
 62
     0
100
AcDbPoint
 10
107.775
 20
6.60399999999994
 30
0.0
  0
POINT
  5
2F8
330
2EA
100
AcDbEntity
  8
Defpoints
 62
     0
100
AcDbPoint
 10
122.7467355291977
 20
6.603999999999996
 30
0.0
  0
ENDBLK
  5
2EC
330
2EA
100
AcDbEntity
  8
0
100
AcDbBlockEnd
  0
BLOCK
  5
2FA
330
2F9
100
AcDbEntity
  8
0
100
AcDbBlockBegin
  2
*D14
 70
     1
 10
0.0
 20
0.0
 30
0.0
  3
*D14
  1
*D16
  0
LINE
  5
2FC
330
2F9
100
AcDbEntity
  8
치수문자_일반주서
 62
     0
370
    -2
100
AcDbLine
 10
107.775
 20
18.96962499999994
 30
0.0
 11
107.775
 21
30.56717576165575
 31
0.0
  0
LINE
  5
2FD
330
2F9
100
AcDbEntity
  8
치수문자_일반주서
 62
     0
370
    -2
100
AcDbLine
 10
82.375
 20
18.65765309701465
 30
0.0
 11
82.375
 21
30.56717576165575
 31
0.0
  0
LINE
  5
2FE
330
2F9
100
AcDbEntity
  8
치수문자_일반주서
 62
     0
370
    -2
100
AcDbLine
 10
82.375
 20
30.56717576165575
 30
0.0
 11
52.74860908594664
 21
30.56717576165575
 31
0.0
  0
LINE
  5
2FF
330
2F9
100
AcDbEntity
  8
치수문자_일반주서
 62
     0
370
    -2
100
AcDbLine
 10
107.775
 20
30.56717576165575
 30
0.0
 11
82.375
 21
30.56717576165575
 31
0.0
  0
LINE
  5
300
330
2F9
100
AcDbEntity
  8
치수문자_일반주서
 62
     0
370
    -2
100
AcDbLine
 10
111.077
 20
30.56717576165575
 30
0.0
 11
114.379
 21
30.56717576165575
 31
0.0
  0
LINE
  5
301
330
2F9
100
AcDbEntity
  8
치수문자_일반주서
 62
     0
370
    -2
100
AcDbLine
 10
79.07300000000001
 20
30.56717576165575
 30
0.0
 11
75.77100000000002
 21
30.56717576165575
 31
0.0
  0
SOLID
  5
302
330
2F9
100
AcDbEntity
  8
치수문자_일반주서
 62
     0
100
AcDbTrace
 10
111.077
 20
31.11750909498908
 30
0.0
 11
111.077
 21
30.01684242832241
 31
0.0
 12
107.775
 22
30.56717576165575
 32
0.0
 13
107.775
 23
30.56717576165575
 33
0.0
  0
SOLID
  5
303
330
2F9
100
AcDbEntity
  8
치수문자_일반주서
 62
     0
100
AcDbTrace
 10
79.07300000000001
 20
30.01684242832241
 30
0.0
 11
79.07300000000001
 21
31.11750909498908
 31
0.0
 12
82.375
 22
30.56717576165575
 32
0.0
 13
82.375
 23
30.56717576165575
 33
0.0
  0
MTEXT
  5
304
330
2F9
100
AcDbEntity
  8
치수문자_일반주서
 62
     0
100
AcDbMText
 10
62.59235908594664
 20
34.94217576165575
 30
0.0
 40
3.5
 41
0.0
 71
     2
 72
     1
  1
\A1;25.40 [1]
  7
SLDTEXTSTYLE0
 73
     1
 44
1.0
  0
POINT
  5
305
330
2F9
100
AcDbEntity
  8
Defpoints
 62
     0
100
AcDbPoint
 10
107.775
 20
18.90712499999994
 30
0.0
  0
POINT
  5
306
330
2F9
100
AcDbEntity
  8
Defpoints
 62
     0
100
AcDbPoint
 10
82.375
 20
18.59515309701465
 30
0.0
  0
POINT
  5
307
330
2F9
100
AcDbEntity
  8
Defpoints
 62
     0
100
AcDbPoint
 10
82.375
 20
30.56717576165575
 30
0.0
  0
ENDBLK
  5
2FB
330
2F9
100
AcDbEntity
  8
0
100
AcDbBlockEnd
  0
BLOCK
  5
309
330
308
100
AcDbEntity
  8
0
100
AcDbBlockBegin
  2
*D15
 70
     1
 10
0.0
 20
0.0
 30
0.0
  3
*D15
  1
*D17
  0
LINE
  5
30B
330
308
100
AcDbEntity
  8
치수문자_일반주서
 62
     0
370
    -2
100
AcDbLine
 10
107.775
 20
18.96962499999994
 30
0.0
 11
107.775
 21
43.29826072319034
 31
0.0
  0
LINE
  5
30C
330
308
100
AcDbEntity
  8
치수문자_일반주서
 62
     0
370
    -2
100
AcDbLine
 10
3.000000000000007
 20
17.89806249999993
 30
0.0
 11
2.999999999999993
 21
43.29826072319034
 31
0.0
  0
LINE
  5
30D
330
308
100
AcDbEntity
  8
치수문자_일반주서
 62
     0
370
    -2
100
AcDbLine
 10
104.473
 20
43.29826072319034
 30
0.0
 11
6.301999999999992
 21
43.29826072319034
 31
0.0
  0
SOLID
  5
30E
330
308
100
AcDbEntity
  8
치수문자_일반주서
 62
     0
100
AcDbTrace
 10
104.473
 20
42.747927389857
 30
0.0
 11
104.473
 21
43.84859405652367
 31
0.0
 12
107.775
 22
43.29826072319034
 32
0.0
 13
107.775
 23
43.29826072319034
 33
0.0
  0
SOLID
  5
30F
330
308
100
AcDbEntity
  8
치수문자_일반주서
 62
     0
100
AcDbTrace
 10
6.301999999999992
 20
43.84859405652367
 30
0.0
 11
6.301999999999992
 21
42.747927389857
 31
0.0
 12
2.999999999999993
 22
43.29826072319034
 32
0.0
 13
2.999999999999993
 23
43.29826072319034
 33
0.0
  0
MTEXT
  5
310
330
308
100
AcDbEntity
  8
치수문자_일반주서
 62
     0
100
AcDbMText
 10
56.8633708532561
 20
47.67326072319034
 30
0.0
 40
3.5
 41
0.0
 71
     2
 72
     1
  1
\A1;104.78 [4 1/8]
  7
SLDTEXTSTYLE0
 73
     1
 44
1.0
  0
POINT
  5
311
330
308
100
AcDbEntity
  8
Defpoints
 62
     0
100
AcDbPoint
 10
107.775
 20
18.90712499999994
 30
0.0
  0
POINT
  5
312
330
308
100
AcDbEntity
  8
Defpoints
 62
     0
100
AcDbPoint
 10
3.000000000000007
 20
17.83556249999993
 30
0.0
  0
POINT
  5
313
330
308
100
AcDbEntity
  8
Defpoints
 62
     0
100
AcDbPoint
 10
3.000000000000007
 20
43.29826072319034
 30
0.0
  0
ENDBLK
  5
30A
330
308
100
AcDbEntity
  8
0
100
AcDbBlockEnd
  0
BLOCK
  5
342
330
341
100
AcDbEntity
  8
0
100
AcDbBlockBegin
  2
*D16
 70
     1
 10
0.0
 20
0.0
 30
0.0
  3
*D16
  1
*D18
  0
LINE
  5
344
330
341
100
AcDbEntity
  8
치수문자_일반주서
 62
     0
370
    -2
100
AcDbLine
 10
209.0681760798711
 20
-30.36450665692273
 30
0.0
 11
223.9774116090688
 21
-30.36450665692268
 31
0.0
  0
LINE
  5
345
330
341
100
AcDbEntity
  8
치수문자_일반주서
 62
     0
370
    -2
100
AcDbLine
 10
209.0681760798711
 20
-42.66763165692273
 30
0.0
 11
223.9774116090689
 21
-42.66763165692268
 31
0.0
  0
LINE
  5
346
330
341
100
AcDbEntity
  8
치수문자_일반주서
 62
     0
370
    -2
100
AcDbLine
 10
223.9774116090688
 20
-30.36450665692268
 30
0.0
 11
223.9774116090686
 21
8.39574334307732
 31
0.0
  0
LINE
  5
347
330
341
100
AcDbEntity
  8
치수문자_일반주서
 62
     0
370
    -2
100
AcDbLine
 10
223.9774116090688
 20
-30.36450665692268
 30
0.0
 11
223.9774116090689
 21
-42.66763165692268
 31
0.0
  0
LINE
  5
348
330
341
100
AcDbEntity
  8
치수문자_일반주서
 62
     0
370
    -2
100
AcDbLine
 10
223.9774116090688
 20
-27.06250665692268
 30
0.0
 11
223.9774116090688
 21
-23.76050665692268
 31
0.0
  0
LINE
  5
349
330
341
100
AcDbEntity
  8
치수문자_일반주서
 62
     0
370
    -2
100
AcDbLine
 10
223.9774116090689
 20
-45.96963165692268
 30
0.0
 11
223.977411609069
 21
-49.27163165692268
 31
0.0
  0
SOLID
  5
34A
330
341
100
AcDbEntity
  8
치수문자_일반주서
 62
     0
100
AcDbTrace
 10
223.4270782757355
 20
-27.06250665692268
 30
0.0
 11
224.5277449424021
 21
-27.06250665692268
 31
0.0
 12
223.9774116090688
 22
-30.36450665692268
 32
0.0
 13
223.9774116090688
 23
-30.36450665692268
 33
0.0
  0
SOLID
  5
34B
330
341
100
AcDbEntity
  8
치수문자_일반주서
 62
     0
100
AcDbTrace
 10
224.5277449424023
 20
-45.96963165692268
 30
0.0
 11
223.4270782757356
 21
-45.96963165692268
 31
0.0
 12
223.9774116090689
 22
-42.66763165692268
 32
0.0
 13
223.9774116090689
 23
-42.66763165692268
 33
0.0
  0
MTEXT
  5
34C
330
341
100
AcDbEntity
  8
치수문자_일반주서
 62
     0
100
AcDbMText
 10
219.6024116090687
 20
-7.5730066569227
 30
0.0
 40
3.5
 41
0.0
 71
     2
 72
     1
  1
\A1;%%c12.30 [31/64]
  7
SLDTEXTSTYLE0
 11
-4.620242325491129E-15
 21
1.0
 31
0.0
 73
     1
 44
1.0
  0
POINT
  5
34D
330
341
100
AcDbEntity
  8
Defpoints
 62
     0
100
AcDbPoint
 10
209.0056760798711
 20
-30.36450665692273
 30
0.0
  0
POINT
  5
34E
330
341
100
AcDbEntity
  8
Defpoints
 62
     0
100
AcDbPoint
 10
209.0056760798711
 20
-42.66763165692273
 30
0.0
  0
POINT
  5
34F
330
341
100
AcDbEntity
  8
Defpoints
 62
     0
100
AcDbPoint
 10
223.9774116090689
 20
-42.66763165692267
 30
0.0
  0
ENDBLK
  5
343
330
341
100
AcDbEntity
  8
0
100
AcDbBlockEnd
  0
BLOCK
  5
351
330
350
100
AcDbEntity
  8
0
100
AcDbBlockBegin
  2
*D17
 70
     1
 10
0.0
 20
0.0
 30
0.0
  3
*D17
  1
*D19
  0
LINE
  5
353
330
350
100
AcDbEntity
  8
치수문자_일반주서
 62
     0
370
    -2
100
AcDbLine
 10
209.0056760798711
 20
-30.30200665692273
 30
0.0
 11
209.0056760798711
 21
-18.70445589526692
 31
0.0
  0
LINE
  5
354
330
350
100
AcDbEntity
  8
치수문자_일반주서
 62
     0
370
    -2
100
AcDbLine
 10
183.6056760798711
 20
-30.61397855990803
 30
0.0
 11
183.6056760798711
 21
-18.70445589526692
 31
0.0
  0
LINE
  5
355
330
350
100
AcDbEntity
  8
치수문자_일반주서
 62
     0
370
    -2
100
AcDbLine
 10
183.6056760798711
 20
-18.70445589526692
 30
0.0
 11
153.9792851658178
 21
-18.70445589526692
 31
0.0
  0
LINE
  5
356
330
350
100
AcDbEntity
  8
치수문자_일반주서
 62
     0
370
    -2
100
AcDbLine
 10
209.0056760798711
 20
-18.70445589526692
 30
0.0
 11
183.6056760798711
 21
-18.70445589526692
 31
0.0
  0
LINE
  5
357
330
350
100
AcDbEntity
  8
치수문자_일반주서
 62
     0
370
    -2
100
AcDbLine
 10
212.3076760798711
 20
-18.70445589526692
 30
0.0
 11
215.6096760798711
 21
-18.70445589526692
 31
0.0
  0
LINE
  5
358
330
350
100
AcDbEntity
  8
치수문자_일반주서
 62
     0
370
    -2
100
AcDbLine
 10
180.3036760798711
 20
-18.70445589526692
 30
0.0
 11
177.0016760798711
 21
-18.70445589526692
 31
0.0
  0
SOLID
  5
359
330
350
100
AcDbEntity
  8
치수문자_일반주서
 62
     0
100
AcDbTrace
 10
212.3076760798711
 20
-18.15412256193359
 30
0.0
 11
212.3076760798711
 21
-19.25478922860026
 31
0.0
 12
209.0056760798711
 22
-18.70445589526692
 32
0.0
 13
209.0056760798711
 23
-18.70445589526692
 33
0.0
  0
SOLID
  5
35A
330
350
100
AcDbEntity
  8
치수문자_일반주서
 62
     0
100
AcDbTrace
 10
180.3036760798711
 20
-19.25478922860026
 30
0.0
 11
180.3036760798711
 21
-18.15412256193359
 31
0.0
 12
183.6056760798711
 22
-18.70445589526692
 32
0.0
 13
183.6056760798711
 23
-18.70445589526692
 33
0.0
  0
MTEXT
  5
35B
330
350
100
AcDbEntity
  8
치수문자_일반주서
 62
     0
100
AcDbMText
 10
163.8230351658178
 20
-14.32945589526692
 30
0.0
 40
3.5
 41
0.0
 71
     2
 72
     1
  1
\A1;25.40 [1]
  7
SLDTEXTSTYLE0
 73
     1
 44
1.0
  0
POINT
  5
35C
330
350
100
AcDbEntity
  8
Defpoints
 62
     0
100
AcDbPoint
 10
209.0056760798711
 20
-30.36450665692273
 30
0.0
  0
POINT
  5
35D
330
350
100
AcDbEntity
  8
Defpoints
 62
     0
100
AcDbPoint
 10
183.6056760798711
 20
-30.67647855990803
 30
0.0
  0
POINT
  5
35E
330
350
100
AcDbEntity
  8
Defpoints
 62
     0
100
AcDbPoint
 10
183.6056760798711
 20
-18.70445589526692
 30
0.0
  0
ENDBLK
  5
352
330
350
100
AcDbEntity
  8
0
100
AcDbBlockEnd
  0
BLOCK
  5
360
330
35F
100
AcDbEntity
  8
0
100
AcDbBlockBegin
  2
*D18
 70
     1
 10
0.0
 20
0.0
 30
0.0
  3
*D18
  1
*D20
  0
LINE
  5
362
330
35F
100
AcDbEntity
  8
치수문자_일반주서
 62
     0
370
    -2
100
AcDbLine
 10
209.0056760798711
 20
-30.30200665692273
 30
0.0
 11
209.0056760798711
 21
-5.973370933732333
 31
0.0
  0
LINE
  5
363
330
35F
100
AcDbEntity
  8
치수문자_일반주서
 62
     0
370
    -2
100
AcDbLine
 10
104.2306760798711
 20
-31.37356915692274
 30
0.0
 11
104.2306760798711
 21
-5.973370933732333
 31
0.0
  0
LINE
  5
364
330
35F
100
AcDbEntity
  8
치수문자_일반주서
 62
     0
370
    -2
100
AcDbLine
 10
205.7036760798711
 20
-5.973370933732333
 30
0.0
 11
107.5326760798711
 21
-5.973370933732333
 31
0.0
  0
SOLID
  5
365
330
35F
100
AcDbEntity
  8
치수문자_일반주서
 62
     0
100
AcDbTrace
 10
205.7036760798711
 20
-6.523704267065667
 30
0.0
 11
205.7036760798711
 21
-5.423037600399
 31
0.0
 12
209.0056760798711
 22
-5.973370933732333
 32
0.0
 13
209.0056760798711
 23
-5.973370933732333
 33
0.0
  0
SOLID
  5
366
330
35F
100
AcDbEntity
  8
치수문자_일반주서
 62
     0
100
AcDbTrace
 10
107.5326760798711
 20
-5.423037600399
 30
0.0
 11
107.5326760798711
 21
-6.523704267065667
 31
0.0
 12
104.2306760798711
 22
-5.973370933732333
 32
0.0
 13
104.2306760798711
 23
-5.973370933732333
 33
0.0
  0
MTEXT
  5
367
330
35F
100
AcDbEntity
  8
치수문자_일반주서
 62
     0
100
AcDbMText
 10
158.0940469331272
 20
-1.598370933732333
 30
0.0
 40
3.5
 41
0.0
 71
     2
 72
     1
  1
\A1;104.78 [4 1/8]
  7
SLDTEXTSTYLE0
 73
     1
 44
1.0
  0
POINT
  5
368
330
35F
100
AcDbEntity
  8
Defpoints
 62
     0
100
AcDbPoint
 10
209.0056760798711
 20
-30.36450665692273
 30
0.0
  0
POINT
  5
369
330
35F
100
AcDbEntity
  8
Defpoints
 62
     0
100
AcDbPoint
 10
104.2306760798711
 20
-31.43606915692274
 30
0.0
  0
POINT
  5
36A
330
35F
100
AcDbEntity
  8
Defpoints
 62
     0
100
AcDbPoint
 10
104.2306760798711
 20
-5.973370933732333
 30
0.0
  0
ENDBLK
  5
361
330
35F
100
AcDbEntity
  8
0
100
AcDbBlockEnd
  0
ENDSEC
  0
SECTION
  2
ENTITIES
  0
LINE
  5
96
330
1F
100
AcDbEntity
  8
0
  6
Continuous
 62
     1
370
    15
100
AcDbLine
 10
40.31575327782075
 20
6.151562499999998
 30
0.0
 11
36.56474786817401
 21
6.151562499999998
 31
0.0
  0
LINE
  5
97
330
1F
100
AcDbEntity
  8
0
  6
Continuous
 62
     1
370
    15
100
AcDbLine
 10
36.56474786817393
 20
-6.151562500000003
 30
0.0
 11
40.31575327782075
 21
-6.151562500000003
 31
0.0
  0
LINE
  5
98
330
1F
100
AcDbEntity
  8
외형선
  6
Continuous
370
    15
100
AcDbLine
 10
25.24692116787301
 20
-6.350000000000011
 30
0.0
 11
25.9875
 21
-6.151562500000002
 31
0.0
  0
LINE
  5
99
330
1F
100
AcDbEntity
  8
외형선
  6
Continuous
370
    15
100
AcDbLine
 10
25.9875
 20
6.151562499999996
 30
0.0
 11
25.24692116787301
 21
6.350000000000006
 31
0.0
  0
LINE
  5
9A
330
1F
100
AcDbEntity
  8
외형선
  6
Continuous
370
    15
100
AcDbLine
 10
-25.24692116787304
 20
-6.350000000000007
 30
0.0
 11
25.24692116787302
 21
-6.350000000000007
 31
0.0
  0
LINE
  5
9B
330
1F
100
AcDbEntity
  8
외형선
  6
Continuous
370
    15
100
AcDbLine
 10
25.24692116787301
 20
6.350000000000001
 30
0.0
 11
5.727700000000027
 21
6.350000000000001
 31
0.0
  0
LINE
  5
9E
330
1F
100
AcDbEntity
  8
외형선
  6
Continuous
370
    15
100
AcDbLine
 10
25.9875
 20
-6.151562500000002
 30
0.0
 11
26.48741640905823
 21
-6.151562500000002
 31
0.0
  0
LINE
  5
9F
330
1F
100
AcDbEntity
  8
외형선
  6
Continuous
370
    15
100
AcDbLine
 10
26.48741640905823
 20
6.151562499999996
 30
0.0
 11
25.9875
 21
6.151562499999996
 31
0.0
  0
LINE
  5
A0
330
1F
100
AcDbEntity
  8
0
  6
Continuous
 62
     1
370
    15
100
AcDbLine
 10
52.3875
 20
-5.571355425031053
 30
0.0
 11
52.3875
 21
0.5270741750311216
 31
0.0
  0
SPLINE
  5
A1
330
1F
100
AcDbEntity
  8
0
  6
Continuous
 62
     1
370
    15
100
AcDbSpline
210
0.0
220
0.0
230
1.0
 70
     8
 71
     3
 72
    46
 73
    42
 74
     0
 42
0.000000001
 43
0.00000001
 40
0.0
 40
0.0
 40
0.0
 40
0.0
 40
0.0624999999999994
 40
0.0624999999999994
 40
0.1249999999999988
 40
0.1249999999999988
 40
0.1562499999999984
 40
0.1562499999999984
 40
0.1874999999999981
 40
0.1874999999999981
 40
0.2499999999999976
 40
0.2499999999999976
 40
0.2812499999999978
 40
0.2812499999999978
 40
0.3124999999999982
 40
0.3124999999999982
 40
0.375
 40
0.375
 40
0.4375000000000019
 40
0.4375000000000019
 40
0.5000000000000038
 40
0.5000000000000038
 40
0.5625000000000056
 40
0.5625000000000056
 40
0.5937500000000066
 40
0.5937500000000066
 40
0.6250000000000074
 40
0.6250000000000074
 40
0.687500000000008
 40
0.687500000000008
 40
0.7187500000000077
 40
0.7187500000000077
 40
0.7500000000000073
 40
0.7500000000000073
 40
0.8125000000000056
 40
0.8125000000000056
 40
0.8750000000000037
 40
0.8750000000000037
 40
0.9375000000000019
 40
0.9375000000000019
 40
1.0
 40
1.0
 40
1.0
 40
1.0
 10
52.3875
 20
-5.571355425031051
 30
0.0
 10
51.86121807688038
 20
-5.442062918251592
 30
0.0
 10
51.32874715899013
 20
-5.291612767666512
 30
0.0
 10
50.26904068987678
 20
-4.953112175696897
 30
0.0
 10
49.74340684757521
 20
-4.765378909708204
 30
0.0
 10
48.9476116895227
 20
-4.45752875698986
 30
0.0
 10
48.6821070972699
 20
-4.350650140265451
 30
0.0
 10
48.1528276739181
 20
-4.12927788136576
 30
0.0
 10
47.89006322116755
 20
-4.01493966033065
 30
0.0
 10
47.09761291932103
 20
-3.660529303313281
 30
0.0
 10
46.5647747726162
 20
-3.4091022403829
 30
0.0
 10
45.77195067442879
 20
-3.015469757611748
 30
0.0
 10
45.50927349843625
 20
-2.881621662475933
 30
0.0
 10
44.98019657259564
 20
-2.60821931114591
 30
0.0
 10
44.71473106726808
 20
-2.468816327918709
 30
0.0
 10
43.91886506331544
 20
-2.044222173269401
 30
0.0
 10
43.39305681339791
 20
-1.753398071802223
 30
0.0
 10
42.33366153976117
 20
-1.159532976624158
 30
0.0
 10
41.80109490483469
 20
-0.8566504317563339
 30
0.0
 10
40.74784742566474
 20
-0.2490581809678227
 30
0.0
 10
40.21615437012843
 20
0.0577569425200226
 30
0.0
 10
39.1561648910732
 20
0.6680508089297771
 30
0.0
 10
38.63065999737986
 20
0.9709955919649668
 30
0.0
 10
37.8349569146115
 20
1.419767507185474
 30
0.0
 10
37.56942033315399
 20
1.56823621105867
 30
0.0
 10
37.03995245413601
 20
1.861699095646533
 30
0.0
 10
36.7770484017699
 20
2.006508518639751
 30
0.0
 10
35.98499282891449
 20
2.435594424743655
 30
0.0
 10
35.45216903976073
 20
2.714523682137294
 30
0.0
 10
34.65899211096793
 20
3.115274774596941
 30
0.0
 10
34.39634988116144
 20
3.245814171390609
 30
0.0
 10
33.86748947672255
 20
3.501245334447735
 30
0.0
 10
33.6020701525522
 20
3.625996370574454
 30
0.0
 10
32.8061545383847
 20
3.98976623896026
 30
0.0
 10
32.28012643732632
 20
4.217711294670289
 30
0.0
 10
31.22107051707096
 20
4.641789322021331
 30
0.0
 10
30.68842249815419
 20
4.837750736797826
 30
0.0
 10
29.63451900014692
 20
5.191197824328384
 30
0.0
 10
29.10355888472681
 20
5.349793894786615
 30
0.0
 10
28.04331460640091
 20
5.626030794754003
 30
0.0
 10
27.51789319085941
 20
5.743456465896454
 30
0.0
 10
26.98749999999997
 20
5.839590597014714
 30
0.0
  0
SPLINE
  5
A2
330
1F
100
AcDbEntity
  8
0
  6
Continuous
 62
     1
370
    15
100
AcDbSpline
210
0.0
220
0.0
230
1.0
 70
     8
 71
     3
 72
    18
 73
    14
 74
     0
 42
0.000000001
 43
0.00000001
 40
0.0
 40
0.0
 40
0.0
 40
0.0
 40
0.0911163148446088
 40
0.1822146601042428
 40
0.2732989159329477
 40
0.3643729859163219
 40
0.455440790612503
 40
0.5465062610331028
 40
0.6375733320870709
 40
0.7377600175975628
 40
0.8379467050066275
 40
0.9381333942887876
 40
1.0
 40
1.0
 40
1.0
 40
1.0
 10
52.3875
 20
0.5270741750311209
 30
0.0
 10
51.70987000546339
 20
0.9148939627075078
 30
0.0
 10
50.35474365579152
 20
1.690457053836337
 30
0.0
 10
48.32233168235707
 20
2.787452850960393
 30
0.0
 10
46.29029024987866
 20
3.784651133989502
 30
0.0
 10
44.25852130736759
 20
4.644215637312564
 30
0.0
 10
42.22692678682601
 20
5.335419407441544
 30
0.0
 10
40.1953677869239
 20
5.833292422963654
 30
0.0
 10
38.0960964378331
 20
6.128637535097959
 30
0.0
 10
35.92855126509736
 20
6.187381298283325
 30
0.0
 10
33.6933107158438
 20
5.967130381173316
 30
0.0
 10
31.7430226171895
 20
5.577502663320129
 30
0.0
 10
30.53783124284185
 20
5.173662418440562
 30
0.0
 10
30.07772890696299
 20
5.019489526113349
 30
0.0
  0
SPLINE
  5
A3
330
1F
100
AcDbEntity
  8
0
  6
Continuous
 62
     1
370
    15
100
AcDbSpline
210
0.0
220
0.0
230
1.0
 70
     8
 71
     3
 72
    17
 73
    13
 74
     0
 42
0.000000001
 43
0.00000001
 40
0.0
 40
0.0
 40
0.0
 40
0.0
 40
0.1025825924348389
 40
0.2051637950780779
 40
0.3077480403306424
 40
0.4103397555136493
 40
0.5129433554860264
 40
0.6155632353062898
 40
0.7182035492774983
 40
0.8310581629158906
 40
0.9439127681195919
 40
1.0
 40
1.0
 40
1.0
 40
1.0
 10
26.98749999999998
 20
-1.934141372977646
 30
0.0
 10
27.6646825654772
 20
-2.298554366661904
 30
0.0
 10
29.01903852194489
 20
-3.027375416953814
 30
0.0
 10
31.05057622964532
 20
-3.992075440604878
 30
0.0
 10
33.08218801367788
 20
-4.817087671164457
 30
0.0
 10
35.11397630740159
 20
-5.466055032832394
 30
0.0
 10
37.14604894083664
 20
-5.917396682250698
 30
0.0
 10
39.17849975546489
 20
-6.153321878058609
 30
0.0
 10
41.27873723714415
 20
-6.169372166977356
 30
0.0
 10
43.44654024947751
 20
-5.923951619456605
 30
0.0
 10
45.30699555314064
 20
-5.533350792667804
 30
0.0
 10
46.42237040258823
 20
-5.149319090624866
 30
0.0
 10
46.79266522650089
 20
-5.02182387988446
 30
0.0
  0
SPLINE
  5
A4
330
1F
100
AcDbEntity
  8
외형선
  6
Continuous
370
    15
100
AcDbSpline
210
0.0
220
0.0
230
1.0
 70
    24
 71
     3
 72
    22
 73
    18
 74
     0
 42
0.000000001
 43
0.00000001
 40
0.0
 40
0.0
 40
0.0
 40
0.0
 40
0.125
 40
0.125
 40
0.25
 40
0.25
 40
0.3750000000000001
 40
0.3750000000000001
 40
0.5000000000000001
 40
0.5000000000000001
 40
0.6250000000000001
 40
0.6250000000000001
 40
0.7500000000000001
 40
0.7500000000000001
 40
0.875
 40
0.875
 40
1.0
 40
1.0
 40
1.0
 40
1.0
 10
26.9875
 20
4.814592615063916
 30
0.0
 10
26.98750000000003
 20
4.648238500590714
 30
0.0
 10
26.98750000000001
 20
4.469269500657966
 30
0.0
 10
26.98750000000001
 20
4.114324883570347
 30
0.0
 10
26.98749999999997
 20
3.902394825151683
 30
0.0
 10
26.98749999999997
 20
3.391634430579179
 30
0.0
 10
26.98749999999998
 20
3.09212863280998
 30
0.0
 10
26.98750000000003
 20
2.402192711271677
 30
0.0
 10
26.98750000000001
 20
2.01091253752387
 30
0.0
 10
26.98750000000003
 20
1.172513575729522
 30
0.0
 10
26.98749999999998
 20
0.7256217378519572
 30
0.0
 10
26.98750000000001
 20
-0.1346086698993516
 30
0.0
 10
26.98750000000001
 20
-0.5456266648418965
 30
0.0
 10
26.98750000000001
 20
-1.22722736464899
 30
0.0
 10
26.98749999999998
 20
-1.495797174948294
 30
0.0
 10
26.9875
 20
-1.845612040313928
 30
0.0
 10
26.98750000000001
 20
-1.927719594537404
 30
0.0
 10
26.9875
 20
-1.934141372977648
 30
0.0
  0
SPLINE
  5
A5
330
1F
100
AcDbEntity
  8
0
  6
Continuous
 62
     1
370
    15
100
AcDbSpline
210
0.0
220
0.0
230
1.0
 70
     8
 71
     3
 72
    46
 73
    42
 74
     0
 42
0.000000001
 43
0.00000001
 40
0.0
 40
0.0
 40
0.0
 40
0.0
 40
0.0624999999999988
 40
0.0624999999999988
 40
0.1249999999999977
 40
0.1249999999999977
 40
0.1562499999999977
 40
0.1562499999999977
 40
0.1874999999999978
 40
0.1874999999999978
 40
0.2499999999999979
 40
0.2499999999999979
 40
0.2812499999999986
 40
0.2812499999999986
 40
0.3124999999999992
 40
0.3124999999999992
 40
0.3749999999999993
 40
0.3749999999999993
 40
0.4374999999999994
 40
0.4374999999999994
 40
0.4999999999999994
 40
0.4999999999999994
 40
0.5624999999999996
 40
0.5624999999999996
 40
0.5937500000000001
 40
0.5937500000000001
 40
0.6250000000000008
 40
0.6250000000000008
 40
0.6875000000000009
 40
0.6875000000000009
 40
0.7187500000000003
 40
0.7187500000000003
 40
0.7499999999999997
 40
0.7499999999999997
 40
0.8124999999999998
 40
0.8124999999999998
 40
0.8749999999999999
 40
0.8749999999999999
 40
0.9374999999999999
 40
0.9374999999999999
 40
1.0
 40
1.0
 40
1.0
 40
1.0
 10
52.38749999999998
 20
-6.151562499999994
 30
0.0
 10
51.86121807688041
 20
-6.102810913873886
 30
0.0
 10
51.3287471589901
 20
-6.053858879041349
 30
0.0
 10
50.26904068987674
 20
-5.911629536311515
 30
0.0
 10
49.74340684757515
 20
-5.818591872827747
 30
0.0
 10
48.94761168952272
 20
-5.646857071962664
 30
0.0
 10
48.68210709726985
 20
-5.584302362308081
 30
0.0
 10
48.15282767391803
 20
-5.449118535683859
 30
0.0
 10
47.89006322116761
 20
-5.376594260247813
 30
0.0
 10
47.09761291932095
 20
-5.143960139824088
 30
0.0
 10
46.56477477261617
 20
-4.968736419299705
 30
0.0
 10
45.77195067442878
 20
-4.680040257707259
 30
0.0
 10
45.50927349843622
 20
-4.579598035059571
 30
0.0
 10
44.98019657259555
 20
-4.369964899098655
 30
0.0
 10
44.71473106726803
 20
-4.260881572510546
 30
0.0
 10
43.91886506331548
 20
-3.922159111442057
 30
0.0
 10
43.39305681339789
 20
-3.681674548772424
 30
0.0
 10
42.33366153976117
 20
-3.174127117917386
 30
0.0
 10
41.80109490483471
 20
-2.90714056644092
 30
0.0
 10
40.74784742566474
 20
-2.355712721620276
 30
0.0
 10
40.21615437012837
 20
-2.069367382914515
 30
0.0
 10
39.15616489107321
 20
-1.4840633930346
 30
0.0
 10
38.63065999737984
 20
-1.185670234529986
 30
0.0
 10
37.83495691461149
 20
-0.7317650060161369
 30
0.0
 10
37.56942033315397
 20
-0.5795867753605018
 30
0.0
 10
37.03995245413595
 20
-0.2747463746487023
 30
0.0
 10
36.77704840176985
 20
-0.1222830767365438
 30
0.0
 10
35.98499282891446
 20
0.3356654518382205
 30
0.0
 10
35.45216903976073
 20
0.6417674252147688
 30
0.0
 10
34.65899211096794
 20
1.094515111905349
 30
0.0
 10
34.39634988116147
 20
1.244228088479064
 30
0.0
 10
33.8674894767225
 20
1.541754599996483
 30
0.0
 10
33.60207015255214
 20
1.689413359004611
 30
0.0
 10
32.80615453838473
 20
2.127218473603947
 30
0.0
 10
32.2801264373263
 20
2.411453909554059
 30
0.0
 10
31.22107051707091
 20
2.961276167633127
 30
0.0
 10
30.6884224981542
 20
3.226720614974838
 30
0.0
 10
29.63451900014694
 20
3.729995478976486
 30
0.0
 10
29.10355888472684
 20
3.969384451212801
 30
0.0
 10
28.04331460640091
 20
4.416751576254686
 30
0.0
 10
27.51789319085941
 20
4.624275697446171
 30
0.0
 10
26.98750000000001
 20
4.814592615063918
 30
0.0
  0
LINE
  5
A6
330
1F
100
AcDbEntity
  8
0
  6
Continuous
 62
     1
370
    15
100
AcDbLine
 10
52.38749999999998
 20
-6.151562499999994
 30
0.0
 11
52.3875
 21
-5.571355425031053
 31
0.0
  0
LINE
  5
A7
330
1F
100
AcDbEntity
  8
외형선
  6
Continuous
370
    15
100
AcDbLine
 10
26.9875
 20
4.814592615063915
 30
0.0
 11
26.98749999999998
 21
5.839590597014714
 31
0.0
  0
SPLINE
  5
A8
330
1F
100
AcDbEntity
  8
0
  6
Continuous
 62
     1
370
    15
100
AcDbSpline
210
0.0
220
0.0
230
1.0
 70
     8
 71
     3
 72
    13
 73
     9
 74
     0
 42
0.000000001
 43
0.00000001
 40
0.0
 40
0.0
 40
0.0
 40
0.0
 40
0.0741858627265533
 40
0.2593487179510927
 40
0.4445115593366634
 40
0.629674386837303
 40
0.8148372004070619
 40
1.0
 40
1.0
 40
1.0
 40
1.0
 10
40.31575327782075
 20
6.124003424756638
 30
0.0
 10
40.61426857809496
 20
6.130201389019429
 30
0.0
 10
41.6578577144816
 20
6.151869049492507
 30
0.0
 10
43.44654224402852
 20
5.921982421932216
 30
0.0
 10
45.68178021821758
 20
5.430285830412002
 30
0.0
 10
47.91702076095308
 20
4.683627765802692
 30
0.0
 10
50.15226036564546
 20
3.743709340183979
 30
0.0
 10
51.64242014062902
 20
2.986576917681827
 30
0.0
 10
52.3875
 20
2.608010720718588
 30
0.0
  0
LINE
  5
A9
330
1F
100
AcDbEntity
  8
0
  6
Continuous
 62
     1
370
    15
100
AcDbLine
 10
52.3875
 20
0.5270741750311216
 30
0.0
 11
52.3875
 21
2.608010720718586
 31
0.0
  0
SPLINE
  5
AA
330
1F
100
AcDbEntity
  8
0
  6
Continuous
 62
     1
370
    15
100
AcDbSpline
210
0.0
220
0.0
230
1.0
 70
     8
 71
     3
 72
    12
 73
     8
 74
     0
 42
0.000000001
 43
0.00000001
 40
0.0
 40
0.0
 40
0.0
 40
0.0
 40
0.0664256437951602
 40
0.2998192263604161
 40
0.5332128132892104
 40
0.7666064045221902
 40
0.9999999999999999
 40
0.9999999999999999
 40
0.9999999999999999
 40
0.9999999999999999
 10
36.56474786817393
 20
-6.12403969721788
 30
0.0
 10
36.35268958495955
 20
-6.132050741202114
 30
0.0
 10
35.39554191149892
 20
-6.168209442457601
 30
0.0
 10
33.69330482534865
 20
-5.960886615920258
 30
0.0
 10
31.45803659572292
 20
-5.4997946643388
 30
0.0
 10
29.222768316566
 20
-4.789385948662358
 30
0.0
 10
27.7325894433724
 20
-4.149144159620286
 30
0.0
 10
26.98749999999998
 20
-3.829023262188162
 30
0.0
  0
LINE
  5
AB
330
1F
100
AcDbEntity
  8
외형선
  6
Continuous
370
    15
100
AcDbLine
 10
26.9875
 20
-3.829023262188171
 30
0.0
 11
26.98749999999998
 21
-1.934141372977646
 31
0.0
  0
SPLINE
  5
AC
330
1F
100
AcDbEntity
  8
0
  6
Continuous
 62
     1
370
    15
100
AcDbSpline
210
0.0
220
0.0
230
1.0
 70
     8
 71
     3
 72
    10
 73
     6
 74
     0
 42
0.000000001
 43
0.00000001
 40
0.0
 40
0.0
 40
0.0
 40
0.0
 40
0.3633358737053647
 40
0.7266000918036313
 40
1.0
 40
1.0
 40
1.0
 40
1.0
 10
52.38749999999998
 20
6.151562500000006
 30
0.0
 10
51.70987031820078
 20
6.072745127959323
 30
0.0
 10
50.35474459394197
 20
5.96036508263914
 30
0.0
 10
48.48981386616455
 20
5.571799257898067
 30
0.0
 10
47.30251976936188
 20
5.187046558905367
 30
0.0
 10
46.79266522650089
 20
5.021823879884455
 30
0.0
  0
LINE
  5
AD
330
1F
100
AcDbEntity
  8
0
  6
Continuous
 62
     1
370
    15
100
AcDbLine
 10
52.3875
 20
2.587999527983171
 30
0.0
 11
52.38749999999998
 21
6.151562500000006
 31
0.0
  0
SPLINE
  5
AE
330
1F
100
AcDbEntity
  8
0
  6
Continuous
 62
     1
370
    15
100
AcDbSpline
210
0.0
220
0.0
230
1.0
 70
     8
 71
     3
 72
     9
 73
     5
 74
     0
 42
0.000000001
 43
0.00000001
 40
0.0
 40
0.0
 40
0.0
 40
0.0
 40
0.6574088575641008
 40
1.0
 40
1.0
 40
1.0
 40
1.0
 10
26.98750000000001
 20
-5.839590597014703
 30
0.0
 10
27.66468251755521
 20
-5.703421278620218
 30
0.0
 10
28.69476069457335
 20
-5.496290941345737
 30
0.0
 10
29.72483468260847
 20
-5.141155710550673
 30
0.0
 10
30.07772890696292
 20
-5.019489526113355
 30
0.0
  0
SPLINE
  5
AF
330
1F
100
AcDbEntity
  8
외형선
  6
Continuous
370
    15
100
AcDbSpline
210
0.0
220
0.0
230
1.0
 70
    24
 71
     3
 72
    11
 73
     7
 74
     0
 42
0.000000001
 43
0.00000001
 40
0.0
 40
0.0
 40
0.0
 40
0.0
 40
0.1328803243426317
 40
0.4308975063572473
 40
0.7375572068394028
 40
1.0
 40
1.0
 40
1.0
 40
1.0
 10
26.98749999999998
 20
-3.901585229235963
 30
0.0
 10
26.98749999999998
 20
-3.976514189249554
 30
0.0
 10
26.98749999999998
 20
-4.219489981064652
 30
0.0
 10
26.98750000000008
 20
-4.692306434524279
 30
0.0
 10
26.98750000000004
 20
-5.268989800576369
 30
0.0
 10
26.98750000000001
 20
-5.659504113243492
 30
0.0
 10
26.98750000000001
 20
-5.839590597014702
 30
0.0
  0
LINE
  5
B0
330
1F
100
AcDbEntity
  8
외형선
  6
Continuous
370
    15
100
AcDbLine
 10
25.9875
 20
-0.0000000000000027
 30
0.0
 11
25.9875
 21
6.151562499999996
 31
0.0
  0
LINE
  5
B1
330
1F
100
AcDbEntity
  8
외형선
  6
Continuous
370
    15
100
AcDbLine
 10
25.9875
 20
-6.151562500000002
 30
0.0
 11
25.9875
 21
-0.0000000000000027
 31
0.0
  0
LINE
  5
B2
330
1F
100
AcDbEntity
  8
외형선
  6
Continuous
370
    15
100
AcDbLine
 10
25.24692116787301
 20
-0.0000000000000027
 30
0.0
 11
25.24692116787301
 21
6.350000000000006
 31
0.0
  0
LINE
  5
B3
330
1F
100
AcDbEntity
  8
외형선
  6
Continuous
370
    15
100
AcDbLine
 10
25.24692116787301
 20
-6.350000000000011
 30
0.0
 11
25.24692116787301
 21
-0.0000000000000027
 31
0.0
  0
LINE
  5
B8
330
1F
100
AcDbEntity
  8
외형선
  6
Continuous
370
    15
100
AcDbLine
 10
26.48741640905824
 20
5.923763950839892
 30
0.0
 11
26.48741640905823
 21
6.151562499999996
 31
0.0
  0
SPLINE
  5
B9
330
1F
100
AcDbEntity
  8
외형선
  6
Continuous
370
    15
100
AcDbSpline
210
0.0
220
0.0
230
1.0
 70
     8
 71
     3
 72
     8
 73
     4
 74
     0
 42
0.000000001
 43
0.00000001
 40
0.0
 40
0.0
 40
0.0
 40
0.0
 40
1.0
 40
1.0
 40
1.0
 40
1.0
 10
26.98750000000001
 20
5.839590597014709
 30
0.0
 10
26.82085816263882
 20
5.869794544800521
 30
0.0
 10
26.65407215240802
 20
5.897869908996411
 30
0.0
 10
26.48741640905823
 20
5.923770313169495
 30
0.0
  0
SPLINE
  5
BA
330
1F
100
AcDbEntity
  8
외형선
  6
Continuous
370
    15
100
AcDbSpline
210
0.0
220
0.0
230
1.0
 70
     8
 71
     3
 72
     8
 73
     4
 74
     0
 42
0.000000001
 43
0.00000001
 40
0.0
 40
0.0
 40
0.0
 40
0.0
 40
1.0
 40
1.0
 40
1.0
 40
1.0
 10
26.9875
 20
4.814592615063916
 30
0.0
 10
26.82085816263882
 20
4.874387426496828
 30
0.0
 10
26.65407215240802
 20
4.932437330290679
 30
0.0
 10
26.48741640905824
 20
4.988646657934893
 30
0.0
  0
LINE
  5
BB
330
1F
100
AcDbEntity
  8
외형선
  6
Continuous
370
    15
100
AcDbLine
 10
26.48741640905824
 20
-1.658536055120952
 30
0.0
 11
26.48741640905823
 21
4.988668738177694
 31
0.0
  0
SPLINE
  5
BC
330
1F
100
AcDbEntity
  8
외형선
  6
Continuous
370
    15
100
AcDbSpline
210
0.0
220
0.0
230
1.0
 70
     8
 71
     3
 72
     8
 73
     4
 74
     0
 42
0.000000001
 43
0.00000001
 40
0.0
 40
0.0
 40
0.0
 40
0.0
 40
1.0
 40
1.0
 40
1.0
 40
1.0
 10
26.98750000000001
 20
-1.934141372977648
 30
0.0
 10
26.82085816263882
 20
-1.842949130286921
 30
0.0
 10
26.65407215240802
 20
-1.751022713983724
 30
0.0
 10
26.48741640905823
 20
-1.658513330732744
 30
0.0
  0
SPLINE
  5
BD
330
1F
100
AcDbEntity
  8
외형선
  6
Continuous
370
    15
100
AcDbSpline
210
0.0
220
0.0
230
1.0
 70
     8
 71
     3
 72
     8
 73
     4
 74
     0
 42
0.000000001
 43
0.00000001
 40
0.0
 40
0.0
 40
0.0
 40
0.0
 40
1.0
 40
1.0
 40
1.0
 40
1.0
 10
26.9875
 20
-3.829023262188165
 30
0.0
 10
26.82085816263882
 20
-3.753837597899587
 30
0.0
 10
26.65407215240802
 20
-3.677228846711457
 30
0.0
 10
26.48741640905824
 20
-3.599322952123236
 30
0.0
  0
LINE
  5
BE
330
1F
100
AcDbEntity
  8
외형선
  6
Continuous
370
    15
100
AcDbLine
 10
26.48741640905823
 20
-6.151562500000002
 30
0.0
 11
26.48741640905823
 21
-3.599292348800619
 31
0.0
  0
SPLINE
  5
BF
330
1F
100
AcDbEntity
  8
외형선
  6
Continuous
370
    15
100
AcDbSpline
210
0.0
220
0.0
230
1.0
 70
     8
 71
     3
 72
     8
 73
     4
 74
     0
 42
0.000000001
 43
0.00000001
 40
0.0
 40
0.0
 40
0.0
 40
0.0
 40
1.0
 40
1.0
 40
1.0
 40
1.0
 10
26.98750000000001
 20
-5.839590597014702
 30
0.0
 10
26.82085816263882
 20
-5.869794544800516
 30
0.0
 10
26.65407215240802
 20
-5.897869908996404
 30
0.0
 10
26.48741640905823
 20
-5.92377031316949
 30
0.0
  0
SPLINE
  5
C0
330
1F
100
AcDbEntity
  8
외형선
  6
Continuous
370
    15
100
AcDbSpline
210
0.0
220
0.0
230
1.0
 70
    24
 71
     3
 72
    22
 73
    18
 74
     0
 42
0.000000001
 43
0.00000001
 40
0.0
 40
0.0
 40
0.0
 40
0.0
 40
0.125
 40
0.125
 40
0.25
 40
0.25
 40
0.375
 40
0.375
 40
0.5
 40
0.5
 40
0.625
 40
0.625
 40
0.75
 40
0.75
 40
0.875
 40
0.875
 40
1.0
 40
1.0
 40
1.0
 40
1.0
 10
26.98749999999998
 20
-1.93414137297765
 30
0.0
 10
26.98749999999997
 20
-1.927719594537414
 30
0.0
 10
26.9875
 20
-1.845612040313948
 30
0.0
 10
26.98749999999998
 20
-1.495797174948329
 30
0.0
 10
26.98750000000001
 20
-1.227227364649029
 30
0.0
 10
26.98750000000003
 20
-0.545626664841942
 30
0.0
 10
26.9875
 20
-0.134608669899398
 30
0.0
 10
26.98749999999998
 20
0.7256217378519141
 30
0.0
 10
26.9875
 20
1.17251357572948
 30
0.0
 10
26.98750000000003
 20
2.010912537523838
 30
0.0
 10
26.98750000000001
 20
2.402192711271648
 30
0.0
 10
26.98750000000001
 20
3.092128632809959
 30
0.0
 10
26.9875
 20
3.391634430579164
 30
0.0
 10
26.98749999999998
 20
3.902394825151672
 30
0.0
 10
26.98749999999998
 20
4.114324883570338
 30
0.0
 10
26.98749999999998
 20
4.469269500657961
 30
0.0
 10
26.9875
 20
4.648238500590712
 30
0.0
 10
26.9875
 20
4.814592615063917
 30
0.0
  0
SPLINE
  5
C1
330
1F
100
AcDbEntity
  8
외형선
  6
Continuous
370
    15
100
AcDbSpline
210
0.0
220
0.0
230
1.0
 70
    24
 71
     3
 72
    11
 73
     7
 74
     0
 42
0.000000001
 43
0.00000001
 40
0.0
 40
0.0
 40
0.0
 40
0.0
 40
0.2365447813355563
 40
0.4773222944913527
 40
0.7755980981389411
 40
1.0
 40
1.0
 40
1.0
 40
1.0
 10
26.98750000000001
 20
-5.8395905970147
 30
0.0
 10
26.98749999999997
 20
-5.677475961257746
 30
0.0
 10
26.98749999999994
 20
-5.350345810792207
 30
0.0
 10
26.98750000000011
 20
-4.830860170534849
 30
0.0
 10
26.98749999999988
 20
-4.33494214801129
 30
0.0
 10
26.98749999999994
 20
-4.031746578871967
 30
0.0
 10
26.98749999999997
 20
-3.901575229235962
 30
0.0
  0
LINE
  5
C2
330
1F
100
AcDbEntity
  8
중심선
 48
0.8
100
AcDbLine
 10
-55.38750000000001
 20
-0.0000000000000066
 30
0.0
 11
55.38750000000001
 21
0.0000000000000066
 31
0.0
  0
LINE
  5
C3
330
1F
100
AcDbEntity
  8
참조1
100
AcDbLine
 10
12.89338065701562
 20
0.0010749287238892
 30
0.0
 11
12.89338065701562
 21
-39.99892507127611
 31
0.0
  0
LINE
  5
C4
330
1F
100
AcDbEntity
  8
참조1
100
AcDbLine
 10
12.89338065701562
 20
-39.99892507127611
 30
0.0
 11
-29.25297615729306
 21
-39.9989250712761
 31
0.0
  0
CIRCLE
  5
C5
330
1F
100
AcDbEntity
  8
해칭선
100
AcDbCircle
 10
0.0
 20
0.0
 30
0.0
 40
3.000000000000005
  0
INSERT
  5
C6
330
1F
100
AcDbEntity
  8
0
  6
Continuous
 62
     7
100
AcDbBlockReference
 66
     1
  2
블럭10
 10
-13.9402729321252
 20
-52.04717430164393
 30
0.0
  0
ATTRIB
  5
C7
330
C6
100
AcDbEntity
  8
FORMAT
 62
     2
100
AcDbText
 10
-23.12156822086649
 20
-49.97180738881174
 30
0.0
 40
4.233333333333333
  1
E1051031 [ 4 FLUTE ]
 41
0.75
  7
SLDTEXTSTYLE0
 11
-23.12156822086649
 21
-52.08847405547841
 31
0.0
100
AcDbAttribute
  2
AUTOATTR0
 70
     0
 74
     1
  0
SEQEND
  5
C8
330
C6
100
AcDbEntity
  8
0
  6
Continuous
 62
     7
  0
HATCH
  5
C9
330
1F
100
AcDbEntity
  8
중심선
100
AcDbHatch
 10
0.0
 20
0.0
 30
0.0
210
0.0
220
0.0
230
1.0
  2
SOLID
 70
     1
 71
     0
 91
        1
 92
        0
 93
        4
 72
     1
 10
-8.225363627744372
 20
-35.8
 11
-11.67163887158165
 21
-35.8
 72
     1
 10
-11.67163887158165
 20
-35.8
 11
-13.79986873078568
 21
-38.33632558057257
 72
     1
 10
-13.79986873078568
 20
-38.33632558057257
 11
-10.35356040183524
 21
-38.33628615127008
 72
     1
 10
-10.35356040183524
 20
-38.33628615127008
 11
-8.225363627744372
 21
-35.8
 97
        0
 75
     0
 76
     1
 98
        1
 10
-12.89338065701562
 20
-0.0010749287238958
  0
HATCH
  5
CA
330
1F
100
AcDbEntity
  8
중심선
100
AcDbHatch
 10
0.0
 20
0.0
 30
0.0
210
0.0
220
0.0
230
1.0
  2
SOLID
 70
     1
 71
     0
 91
        1
 92
        0
 93
        4
 72
     1
 10
-3.212599636708392
 20
-35.8
 11
-6.658874880545646
 21
-35.79999999999998
 72
     1
 10
-6.658874880545646
 20
-35.79999999999998
 11
-11.19001288890309
 21
-41.20000000000002
 72
     1
 10
-11.19001288890309
 20
-41.20000000000002
 11
-7.743737645065809
 21
-41.20000000000002
 72
     1
 10
-7.743737645065808
 20
-41.20000000000002
 11
-3.212599636708392
 21
-35.8
 97
        0
 75
     0
 76
     1
 98
        1
 10
-12.89338065701562
 20
-0.0010749287238958
  0
HATCH
  5
CB
330
1F
100
AcDbEntity
  8
중심선
100
AcDbHatch
 10
0.0
 20
0.0
 30
0.0
210
0.0
220
0.0
230
1.0
  2
SOLID
 70
     1
 71
     0
 91
        1
 92
        0
 93
        4
 72
     1
 10
1.800164354327476
 20
-35.79999999999998
 11
-1.646110889509611
 21
-35.79999999999998
 72
     1
 10
-1.646110889509611
 20
-35.79999999999998
 11
-8.69454779139889
 21
-44.20000000000002
 72
     1
 10
-8.69454779139889
 20
-44.20000000000002
 11
-5.248272547561608
 21
-44.20000000000002
 72
     1
 10
-5.248272547561607
 20
-44.20000000000002
 11
1.800164354327476
 21
-35.79999999999998
 97
        0
 75
     0
 76
     1
 98
        1
 10
-12.89338065701562
 20
-0.0010749287238958
  0
HATCH
  5
CC
330
1F
100
AcDbEntity
  8
중심선
100
AcDbHatch
 10
0.0
 20
0.0
 30
0.0
210
0.0
220
0.0
230
1.0
  2
SOLID
 70
     1
 71
     0
 91
        1
 92
        0
 93
        6
 72
     3
 10
6.600054785339676
 20
-40.00000000005127
 11
3.960054785062283
 21
1.540882976769353E-10
 40
0.3939339440162628
 50
17.09539180608436
 51
320.0019657685078
 73
     0
 72
     1
 10
8.28305444104027
 20
-38.5878940046383
 11
10.58835631474131
 21
-36.65356729459035
 72
     3
 10
6.600054785286829
 20
-40.00000000000015
 11
6.600054785286829
 21
-1.278976924368180E-13
 40
0.636358354079598
 50
39.99873849337431
 51
368.4976242363724
 73
     1
 72
     1
 10
13.02538727718744
 20
-39.03999999993002
 11
5.280122092122753
 21
-39.03999999993002
 72
     1
 10
5.280122092122753
 20
-39.03999999993002
 11
5.280097047676819
 21
-40.95999999992991
 72
     1
 10
5.280097047676819
 20
-40.95999999992991
 11
9.721476817148854
 21
-40.95999999992988
 97
        0
 75
     0
 76
     1
 98
        1
 10
-12.89338065701562
 20
-0.0010749287238958
  0
DIMENSION
  5
CD
330
1F
100
AcDbEntity
  8
치수문자_일반주서
100
AcDbDimension
  2
_D
 10
67.35923552919773
 20
-6.151562499999933
 30
0.0
 11
67.3592355291976
 21
28.94306250000006
 31
0.0
 70
   160
  1
%%c<>
 71
     2
 42
12.303125
 52
-270.0
  3
SLDDIMSTYLE2
100
AcDbAlignedDimension
 13
52.38749999999998
 23
6.151562500000006
 33
0.0
 14
52.38749999999998
 24
-6.151562499999994
 34
0.0
 50
90.0000000000002
100
AcDbRotatedDimension
1001
ACAD
1000
DSTYLE
1002
{
1070
   171
1070
     6
1070
   273
1070
     5
1002
}
  0
DIMENSION
  5
E1
330
1F
100
AcDbEntity
  8
치수문자_일반주서
100
AcDbDimension
  2
_D_1
 10
26.98749999999998
 20
17.81161326165581
 30
0.0
 11
7.20485908594663
 21
17.81161326165581
 31
0.0
 70
   160
  1
<>
 71
     2
 42
25.4
  3
SLDDIMSTYLE2
100
AcDbAlignedDimension
 13
52.38749999999998
 23
6.151562500000006
 33
0.0
 14
26.98749999999998
 24
5.839590597014714
 34
0.0
100
AcDbRotatedDimension
1001
ACAD
1000
DSTYLE
1002
{
1070
   171
1070
     6
1070
   273
1070
     5
1002
}
  0
DIMENSION
  5
F5
330
1F
100
AcDbEntity
  8
치수문자_일반주서
100
AcDbDimension
  2
_D_2
 10
-52.38749999999998
 20
30.54269822319041
 30
0.0
 11
1.47587085325609
 21
30.54269822319041
 31
0.0
 70
   160
  1
<>
 71
     2
 42
104.775
  3
SLDDIMSTYLE2
100
AcDbAlignedDimension
 13
52.38749999999998
 23
6.151562500000006
 33
0.0
 14
-52.38749999999998
 24
6.151562499999989
 34
0.0
100
AcDbRotatedDimension
1001
ACAD
1000
DSTYLE
1002
{
1070
   171
1070
     6
1070
   273
1070
     5
1002
}
  0
DIMENSION
  5
109
330
1F
100
AcDbEntity
  8
치수문자_일반주서
100
AcDbDimension
  2
_D_3
 10
-64.59375
 20
-6.350000000000154
 30
0.0
 11
-64.59375000000003
 21
-0.0000000000000087
 31
0.0
 70
   160
  1
%%c<>
 71
     2
 42
12.70000000000001
 52
-270.0
  3
SLDDIMSTYLE2
100
AcDbAlignedDimension
 13
-25.246921167873
 23
6.350000000000001
 33
0.0
 14
-25.24692116787304
 24
-6.350000000000007
 34
0.0
 50
90.0000000000002
100
AcDbRotatedDimension
1001
ACAD
1000
DSTYLE
1002
{
1070
   171
1070
     5
1070
   273
1070
     7
1002
}
  0
LINE
  5
11E
330
1F
100
AcDbEntity
  8
참조1
100
AcDbLine
 10
68.7193644723612
 20
7.441074928723896
 30
0.0
 11
68.7193644723612
 21
-7.438925071276109
 31
0.0
  0
LINE
  5
11F
330
1F
100
AcDbEntity
  8
참조1
100
AcDbLine
 10
81.41936447236121
 20
5.441074928723896
 30
0.0
 11
68.7193644723612
 21
5.441074928723896
 31
0.0
  0
SOLID
  5
120
330
1F
100
AcDbEntity
  8
참조1
100
AcDbTrace
 10
68.7193644723612
 20
5.441074928723896
 30
0.0
 11
75.0693644723612
 21
4.425074928723896
 31
0.0
 12
75.0693644723612
 22
6.457074928723896
 32
0.0
 13
75.0693644723612
 23
6.457074928723896
 33
0.0
  0
LINE
  5
121
330
1F
100
AcDbEntity
  8
참조1
100
AcDbLine
 10
81.41936447236121
 20
-5.438925071276109
 30
0.0
 11
68.7193644723612
 21
-5.438925071276109
 31
0.0
  0
SOLID
  5
122
330
1F
100
AcDbEntity
  8
참조1
100
AcDbTrace
 10
68.7193644723612
 20
-5.438925071276109
 30
0.0
 11
75.0693644723612
 21
-6.454925071276109
 31
0.0
 12
75.0693644723612
 22
-4.422925071276109
 32
0.0
 13
75.0693644723612
 23
-4.422925071276109
 33
0.0
  0
MTEXT
  5
123
330
1F
100
AcDbEntity
  8
참조1
100
AcDbMText
 10
78.1037146049872
 20
11.01136670591223
 30
0.0
 40
3.5
 41
0.0
 71
     1
 72
     1
  1
A
  7
SLDTEXTSTYLE0
 73
     1
 44
1.0
  0
MTEXT
  5
124
330
1F
100
AcDbEntity
  8
참조1
100
AcDbMText
 10
78.1037146049872
 20
0.1313667059122219
 30
0.0
 40
3.5
 41
0.0
 71
     1
 72
     1
  1
A
  7
SLDTEXTSTYLE0
 73
     1
 44
1.0
  0
INSERT
  5
12B
330
1F
100
AcDbEntity
  8
해칭선
100
AcDbBlockReference
  2
SW_DOWELSYMBOL_0
 10
0.0
 20
0.0
 30
0.0
  0
LINE
  5
315
330
1F
100
AcDbEntity
  8
0
  6
Continuous
 62
     1
370
    15
100
AcDbLine
 10
-40.31575327782073
 20
-6.151562499999998
 30
0.0
 11
-36.564747868174
 21
-6.151562499999998
 31
0.0
  0
LINE
  5
316
330
1F
100
AcDbEntity
  8
0
  6
Continuous
 62
     1
370
    15
100
AcDbLine
 10
-36.56474786817392
 20
6.151562499999996
 30
0.0
 11
-40.31575327782073
 21
6.151562499999996
 31
0.0
  0
LINE
  5
317
330
1F
100
AcDbEntity
  8
외형선
  6
Continuous
370
    15
100
AcDbLine
 10
-25.246921167873
 20
6.350000000000001
 30
0.0
 11
-25.98749999999998
 21
6.151562499999989
 31
0.0
  0
LINE
  5
318
330
1F
100
AcDbEntity
  8
외형선
  6
Continuous
370
    15
100
AcDbLine
 10
-25.98749999999998
 20
-6.151562500000005
 30
0.0
 11
-25.246921167873
 21
-6.350000000000017
 31
0.0
  0
LINE
  5
31B
330
1F
100
AcDbEntity
  8
외형선
  6
Continuous
370
    15
100
AcDbLine
 10
-25.98749999999998
 20
6.151562499999989
 30
0.0
 11
-26.48741640905822
 21
6.151562499999989
 31
0.0
  0
LINE
  5
31C
330
1F
100
AcDbEntity
  8
외형선
  6
Continuous
370
    15
100
AcDbLine
 10
-26.48741640905822
 20
-6.151562500000005
 30
0.0
 11
-25.98749999999998
 21
-6.151562500000005
 31
0.0
  0
SPLINE
  5
31E
330
1F
100
AcDbEntity
  8
0
  6
Continuous
 62
     1
370
    15
100
AcDbSpline
210
0.0
220
0.0
230
1.0
 70
     8
 71
     3
 72
    46
 73
    42
 74
     0
 42
0.000000001
 43
0.00000001
 40
0.0
 40
0.0
 40
0.0
 40
0.0
 40
0.0624999999999994
 40
0.0624999999999994
 40
0.1249999999999988
 40
0.1249999999999988
 40
0.1562499999999984
 40
0.1562499999999984
 40
0.1874999999999981
 40
0.1874999999999981
 40
0.2499999999999976
 40
0.2499999999999976
 40
0.2812499999999978
 40
0.2812499999999978
 40
0.3124999999999982
 40
0.3124999999999982
 40
0.375
 40
0.375
 40
0.4375000000000019
 40
0.4375000000000019
 40
0.5000000000000038
 40
0.5000000000000038
 40
0.5625000000000056
 40
0.5625000000000056
 40
0.5937500000000066
 40
0.5937500000000066
 40
0.6250000000000074
 40
0.6250000000000074
 40
0.687500000000008
 40
0.687500000000008
 40
0.7187500000000077
 40
0.7187500000000077
 40
0.7500000000000073
 40
0.7500000000000073
 40
0.8125000000000056
 40
0.8125000000000056
 40
0.8750000000000037
 40
0.8750000000000037
 40
0.9375000000000019
 40
0.9375000000000019
 40
1.0
 40
1.0
 40
1.0
 40
1.0
 10
-52.38749999999998
 20
5.57135542503105
 30
0.0
 10
-51.86121807688038
 20
5.442062918251593
 30
0.0
 10
-51.32874715899012
 20
5.291612767666513
 30
0.0
 10
-50.26904068987675
 20
4.953112175696893
 30
0.0
 10
-49.74340684757521
 20
4.765378909708203
 30
0.0
 10
-48.94761168952268
 20
4.457528756989858
 30
0.0
 10
-48.68210709726988
 20
4.35065014026545
 30
0.0
 10
-48.15282767391809
 20
4.129277881365758
 30
0.0
 10
-47.89006322116753
 20
4.014939660330646
 30
0.0
 10
-47.09761291932102
 20
3.660529303313282
 30
0.0
 10
-46.5647747726162
 20
3.4091022403829
 30
0.0
 10
-45.77195067442877
 20
3.01546975761174
 30
0.0
 10
-45.50927349843624
 20
2.881621662475929
 30
0.0
 10
-44.98019657259561
 20
2.608219311145902
 30
0.0
 10
-44.71473106726807
 20
2.468816327918702
 30
0.0
 10
-43.91886506331542
 20
2.044222173269396
 30
0.0
 10
-43.39305681339788
 20
1.753398071802216
 30
0.0
 10
-42.33366153976117
 20
1.159532976624148
 30
0.0
 10
-41.80109490483468
 20
0.8566504317563279
 30
0.0
 10
-40.74784742566472
 20
0.2490581809678141
 30
0.0
 10
-40.21615437012843
 20
-0.0577569425200302
 30
0.0
 10
-39.15616489107318
 20
-0.6680508089297852
 30
0.0
 10
-38.63065999737983
 20
-0.9709955919649722
 30
0.0
 10
-37.83495691461149
 20
-1.419767507185484
 30
0.0
 10
-37.56942033315396
 20
-1.568236211058683
 30
0.0
 10
-37.03995245413599
 20
-1.861699095646544
 30
0.0
 10
-36.77704840176988
 20
-2.006508518639756
 30
0.0
 10
-35.98499282891446
 20
-2.435594424743663
 30
0.0
 10
-35.45216903976071
 20
-2.714523682137305
 30
0.0
 10
-34.65899211096791
 20
-3.115274774596948
 30
0.0
 10
-34.39634988116142
 20
-3.245814171390613
 30
0.0
 10
-33.86748947672253
 20
-3.501245334447738
 30
0.0
 10
-33.60207015255218
 20
-3.625996370574463
 30
0.0
 10
-32.8061545383847
 20
-3.989766238960265
 30
0.0
 10
-32.28012643732631
 20
-4.217711294670296
 30
0.0
 10
-31.22107051707095
 20
-4.64178932202134
 30
0.0
 10
-30.68842249815417
 20
-4.837750736797831
 30
0.0
 10
-29.63451900014692
 20
-5.191197824328392
 30
0.0
 10
-29.10355888472679
 20
-5.349793894786623
 30
0.0
 10
-28.04331460640091
 20
-5.626030794754016
 30
0.0
 10
-27.5178931908594
 20
-5.743456465896458
 30
0.0
 10
-26.98749999999995
 20
-5.839590597014721
 30
0.0
  0
SPLINE
  5
31F
330
1F
100
AcDbEntity
  8
0
  6
Continuous
 62
     1
370
    15
100
AcDbSpline
210
0.0
220
0.0
230
1.0
 70
     8
 71
     3
 72
    18
 73
    14
 74
     0
 42
0.000000001
 43
0.00000001
 40
0.0
 40
0.0
 40
0.0
 40
0.0
 40
0.0911163148446088
 40
0.1822146601042428
 40
0.2732989159329477
 40
0.3643729859163219
 40
0.455440790612503
 40
0.5465062610331028
 40
0.6375733320870709
 40
0.7377600175975628
 40
0.8379467050066275
 40
0.9381333942887876
 40
1.0
 40
1.0
 40
1.0
 40
1.0
 10
-52.38749999999998
 20
-0.5270741750311181
 30
0.0
 10
-51.70987000546338
 20
-0.9148939627075101
 30
0.0
 10
-50.3547436557915
 20
-1.690457053836341
 30
0.0
 10
-48.32233168235705
 20
-2.787452850960392
 30
0.0
 10
-46.29029024987863
 20
-3.784651133989506
 30
0.0
 10
-44.25852130736757
 20
-4.644215637312571
 30
0.0
 10
-42.22692678682599
 20
-5.33541940744155
 30
0.0
 10
-40.19536778692389
 20
-5.83329242296366
 30
0.0
 10
-38.09609643783309
 20
-6.128637535097966
 30
0.0
 10
-35.92855126509735
 20
-6.187381298283328
 30
0.0
 10
-33.69331071584377
 20
-5.967130381173321
 30
0.0
 10
-31.74302261718949
 20
-5.577502663320133
 30
0.0
 10
-30.53783124284183
 20
-5.173662418440572
 30
0.0
 10
-30.07772890696298
 20
-5.019489526113362
 30
0.0
  0
SPLINE
  5
320
330
1F
100
AcDbEntity
  8
0
  6
Continuous
 62
     1
370
    15
100
AcDbSpline
210
0.0
220
0.0
230
1.0
 70
     8
 71
     3
 72
    17
 73
    13
 74
     0
 42
0.000000001
 43
0.00000001
 40
0.0
 40
0.0
 40
0.0
 40
0.0
 40
0.1025825924348389
 40
0.2051637950780779
 40
0.3077480403306424
 40
0.4103397555136493
 40
0.5129433554860264
 40
0.6155632353062898
 40
0.7182035492774983
 40
0.8310581629158906
 40
0.9439127681195919
 40
1.0
 40
1.0
 40
1.0
 40
1.0
 10
-26.98749999999998
 20
1.934141372977641
 30
0.0
 10
-27.66468256547719
 20
2.298554366661896
 30
0.0
 10
-29.01903852194487
 20
3.027375416953809
 30
0.0
 10
-31.05057622964531
 20
3.992075440604871
 30
0.0
 10
-33.08218801367786
 20
4.81708767116445
 30
0.0
 10
-35.11397630740156
 20
5.466055032832386
 30
0.0
 10
-37.14604894083663
 20
5.917396682250689
 30
0.0
 10
-39.17849975546488
 20
6.153321878058597
 30
0.0
 10
-41.27873723714412
 20
6.169372166977346
 30
0.0
 10
-43.44654024947749
 20
5.923951619456594
 30
0.0
 10
-45.30699555314063
 20
5.533350792667796
 30
0.0
 10
-46.42237040258822
 20
5.149319090624856
 30
0.0
 10
-46.79266522650087
 20
5.021823879884457
 30
0.0
  0
SPLINE
  5
321
330
1F
100
AcDbEntity
  8
외형선
  6
Continuous
370
    15
100
AcDbSpline
210
0.0
220
0.0
230
1.0
 70
    24
 71
     3
 72
    22
 73
    18
 74
     0
 42
0.000000001
 43
0.00000001
 40
0.0
 40
0.0
 40
0.0
 40
0.0
 40
0.125
 40
0.125
 40
0.25
 40
0.25
 40
0.3750000000000001
 40
0.3750000000000001
 40
0.5000000000000001
 40
0.5000000000000001
 40
0.6250000000000001
 40
0.6250000000000001
 40
0.7500000000000001
 40
0.7500000000000001
 40
0.875
 40
0.875
 40
1.0
 40
1.0
 40
1.0
 40
1.0
 10
-26.98749999999998
 20
-4.814592615063924
 30
0.0
 10
-26.9875
 20
-4.648238500590723
 30
0.0
 10
-26.9875
 20
-4.469269500657973
 30
0.0
 10
-26.9875
 20
-4.114324883570355
 30
0.0
 10
-26.98749999999995
 20
-3.902394825151689
 30
0.0
 10
-26.98749999999995
 20
-3.391634430579189
 30
0.0
 10
-26.98749999999998
 20
-3.092128632809989
 30
0.0
 10
-26.9875
 20
-2.402192711271689
 30
0.0
 10
-26.9875
 20
-2.010912537523879
 30
0.0
 10
-26.9875
 20
-1.172513575729533
 30
0.0
 10
-26.98749999999998
 20
-0.7256217378519672
 30
0.0
 10
-26.9875
 20
0.1346086698993425
 30
0.0
 10
-26.9875
 20
0.5456266648418897
 30
0.0
 10
-26.9875
 20
1.227227364648982
 30
0.0
 10
-26.98749999999998
 20
1.495797174948286
 30
0.0
 10
-26.98749999999998
 20
1.845612040313916
 30
0.0
 10
-26.9875
 20
1.9277195945374
 30
0.0
 10
-26.98749999999998
 20
1.934141372977641
 30
0.0
  0
SPLINE
  5
322
330
1F
100
AcDbEntity
  8
0
  6
Continuous
 62
     1
370
    15
100
AcDbSpline
210
0.0
220
0.0
230
1.0
 70
     8
 71
     3
 72
    46
 73
    42
 74
     0
 42
0.000000001
 43
0.00000001
 40
0.0
 40
0.0
 40
0.0
 40
0.0
 40
0.0624999999999988
 40
0.0624999999999988
 40
0.1249999999999977
 40
0.1249999999999977
 40
0.1562499999999977
 40
0.1562499999999977
 40
0.1874999999999978
 40
0.1874999999999978
 40
0.2499999999999979
 40
0.2499999999999979
 40
0.2812499999999986
 40
0.2812499999999986
 40
0.3124999999999992
 40
0.3124999999999992
 40
0.3749999999999993
 40
0.3749999999999993
 40
0.4374999999999994
 40
0.4374999999999994
 40
0.4999999999999994
 40
0.4999999999999994
 40
0.5624999999999996
 40
0.5624999999999996
 40
0.5937500000000001
 40
0.5937500000000001
 40
0.6250000000000008
 40
0.6250000000000008
 40
0.6875000000000009
 40
0.6875000000000009
 40
0.7187500000000003
 40
0.7187500000000003
 40
0.7499999999999997
 40
0.7499999999999997
 40
0.8124999999999998
 40
0.8124999999999998
 40
0.8749999999999999
 40
0.8749999999999999
 40
0.9374999999999999
 40
0.9374999999999999
 40
1.0
 40
1.0
 40
1.0
 40
1.0
 10
-52.38749999999998
 20
6.151562499999989
 30
0.0
 10
-51.86121807688038
 20
6.10281091387388
 30
0.0
 10
-51.32874715899009
 20
6.053858879041349
 30
0.0
 10
-50.26904068987673
 20
5.911629536311515
 30
0.0
 10
-49.74340684757515
 20
5.818591872827745
 30
0.0
 10
-48.94761168952271
 20
5.646857071962663
 30
0.0
 10
-48.68210709726983
 20
5.584302362308079
 30
0.0
 10
-48.152827673918
 20
5.449118535683858
 30
0.0
 10
-47.89006322116759
 20
5.376594260247813
 30
0.0
 10
-47.09761291932093
 20
5.143960139824087
 30
0.0
 10
-46.56477477261614
 20
4.968736419299701
 30
0.0
 10
-45.77195067442877
 20
4.680040257707254
 30
0.0
 10
-45.50927349843621
 20
4.57959803505956
 30
0.0
 10
-44.98019657259555
 20
4.369964899098647
 30
0.0
 10
-44.71473106726801
 20
4.260881572510534
 30
0.0
 10
-43.91886506331547
 20
3.922159111442049
 30
0.0
 10
-43.39305681339788
 20
3.681674548772413
 30
0.0
 10
-42.33366153976117
 20
3.174127117917379
 30
0.0
 10
-41.80109490483471
 20
2.907140566440908
 30
0.0
 10
-40.74784742566472
 20
2.355712721620271
 30
0.0
 10
-40.21615437012837
 20
2.069367382914507
 30
0.0
 10
-39.15616489107321
 20
1.484063393034595
 30
0.0
 10
-38.63065999737983
 20
1.185670234529979
 30
0.0
 10
-37.83495691461149
 20
0.7317650060161249
 30
0.0
 10
-37.56942033315396
 20
0.579586775360496
 30
0.0
 10
-37.03995245413594
 20
0.2747463746486922
 30
0.0
 10
-36.77704840176983
 20
0.1222830767365359
 30
0.0
 10
-35.98499282891444
 20
-0.335665451838232
 30
0.0
 10
-35.45216903976071
 20
-0.641767425214774
 30
0.0
 10
-34.65899211096794
 20
-1.09451511190536
 30
0.0
 10
-34.39634988116145
 20
-1.24422808847907
 30
0.0
 10
-33.86748947672248
 20
-1.541754599996488
 30
0.0
 10
-33.60207015255212
 20
-1.689413359004619
 30
0.0
 10
-32.80615453838472
 20
-2.127218473603954
 30
0.0
 10
-32.28012643732628
 20
-2.411453909554063
 30
0.0
 10
-31.22107051707089
 20
-2.961276167633138
 30
0.0
 10
-30.68842249815417
 20
-3.226720614974845
 30
0.0
 10
-29.63451900014692
 20
-3.729995478976499
 30
0.0
 10
-29.10355888472682
 20
-3.969384451212811
 30
0.0
 10
-28.04331460640091
 20
-4.416751576254691
 30
0.0
 10
-27.5178931908594
 20
-4.624275697446181
 30
0.0
 10
-26.9875
 20
-4.814592615063931
 30
0.0
  0
LINE
  5
323
330
1F
100
AcDbEntity
  8
0
  6
Continuous
 62
     1
370
    15
100
AcDbLine
 10
-52.38749999999998
 20
6.151562499999989
 30
0.0
 11
-52.38749999999998
 21
5.57135542503105
 31
0.0
  0
LINE
  5
324
330
1F
100
AcDbEntity
  8
외형선
  6
Continuous
370
    15
100
AcDbLine
 10
-26.98749999999998
 20
-4.814592615063924
 30
0.0
 11
-26.98749999999998
 21
-5.839590597014721
 31
0.0
  0
SPLINE
  5
325
330
1F
100
AcDbEntity
  8
0
  6
Continuous
 62
     1
370
    15
100
AcDbSpline
210
0.0
220
0.0
230
1.0
 70
     8
 71
     3
 72
    13
 73
     9
 74
     0
 42
0.000000001
 43
0.00000001
 40
0.0
 40
0.0
 40
0.0
 40
0.0
 40
0.0741858627265533
 40
0.2593487179510927
 40
0.4445115593366634
 40
0.629674386837303
 40
0.8148372004070619
 40
1.0
 40
1.0
 40
1.0
 40
1.0
 10
-40.31575327782073
 20
-6.124003424756638
 30
0.0
 10
-40.61426857809493
 20
-6.130201389019434
 30
0.0
 10
-41.65785771448159
 20
-6.151869049492512
 30
0.0
 10
-43.4465422440285
 20
-5.921982421932221
 30
0.0
 10
-45.68178021821756
 20
-5.430285830412005
 30
0.0
 10
-47.91702076095307
 20
-4.683627765802698
 30
0.0
 10
-50.15226036564544
 20
-3.743709340183984
 30
0.0
 10
-51.64242014062901
 20
-2.986576917681831
 30
0.0
 10
-52.38749999999998
 20
-2.608010720718589
 30
0.0
  0
SPLINE
  5
327
330
1F
100
AcDbEntity
  8
0
  6
Continuous
 62
     1
370
    15
100
AcDbSpline
210
0.0
220
0.0
230
1.0
 70
     8
 71
     3
 72
    12
 73
     8
 74
     0
 42
0.000000001
 43
0.00000001
 40
0.0
 40
0.0
 40
0.0
 40
0.0
 40
0.0664256437951602
 40
0.2998192263604161
 40
0.5332128132892104
 40
0.7666064045221902
 40
0.9999999999999999
 40
0.9999999999999999
 40
0.9999999999999999
 40
0.9999999999999999
 10
-36.56474786817392
 20
6.124039697217873
 30
0.0
 10
-36.35268958495953
 20
6.132050741202106
 30
0.0
 10
-35.39554191149892
 20
6.168209442457594
 30
0.0
 10
-33.69330482534865
 20
5.960886615920251
 30
0.0
 10
-31.45803659572291
 20
5.499794664338792
 30
0.0
 10
-29.222768316566
 20
4.789385948662349
 30
0.0
 10
-27.73258944337237
 20
4.149144159620277
 30
0.0
 10
-26.98749999999998
 20
3.829023262188151
 30
0.0
  0
LINE
  5
328
330
1F
100
AcDbEntity
  8
외형선
  6
Continuous
370
    15
100
AcDbLine
 10
-26.98749999999998
 20
3.829023262188165
 30
0.0
 11
-26.98749999999998
 21
1.934141372977641
 31
0.0
  0
SPLINE
  5
329
330
1F
100
AcDbEntity
  8
0
  6
Continuous
 62
     1
370
    15
100
AcDbSpline
210
0.0
220
0.0
230
1.0
 70
     8
 71
     3
 72
    10
 73
     6
 74
     0
 42
0.000000001
 43
0.00000001
 40
0.0
 40
0.0
 40
0.0
 40
0.0
 40
0.3633358737053647
 40
0.7266000918036313
 40
1.0
 40
1.0
 40
1.0
 40
1.0
 10
-52.38749999999998
 20
-6.151562500000012
 30
0.0
 10
-51.70987031820078
 20
-6.072745127959323
 30
0.0
 10
-50.35474459394197
 20
-5.960365082639144
 30
0.0
 10
-48.48981386616452
 20
-5.571799257898072
 30
0.0
 10
-47.30251976936187
 20
-5.187046558905373
 30
0.0
 10
-46.79266522650087
 20
-5.021823879884459
 30
0.0
  0
LINE
  5
32A
330
1F
100
AcDbEntity
  8
0
  6
Continuous
 62
     1
370
    15
100
AcDbLine
 10
-52.38749999999998
 20
5.57135542503105
 30
0.0
 11
-52.38749999999998
 21
-6.151562500000012
 31
0.0
  0
SPLINE
  5
32B
330
1F
100
AcDbEntity
  8
0
  6
Continuous
 62
     1
370
    15
100
AcDbSpline
210
0.0
220
0.0
230
1.0
 70
     8
 71
     3
 72
     9
 73
     5
 74
     0
 42
0.000000001
 43
0.00000001
 40
0.0
 40
0.0
 40
0.0
 40
0.0
 40
0.6574088575641008
 40
1.0
 40
1.0
 40
1.0
 40
1.0
 10
-26.9875
 20
5.839590597014698
 30
0.0
 10
-27.6646825175552
 20
5.703421278620211
 30
0.0
 10
-28.69476069457334
 20
5.496290941345726
 30
0.0
 10
-29.72483468260847
 20
5.141155710550662
 30
0.0
 10
-30.0777289069629
 20
5.019489526113346
 30
0.0
  0
SPLINE
  5
32C
330
1F
100
AcDbEntity
  8
외형선
  6
Continuous
370
    15
100
AcDbSpline
210
0.0
220
0.0
230
1.0
 70
    24
 71
     3
 72
    11
 73
     7
 74
     0
 42
0.000000001
 43
0.00000001
 40
0.0
 40
0.0
 40
0.0
 40
0.0
 40
0.1328803243426317
 40
0.4308975063572473
 40
0.7375572068394028
 40
1.0
 40
1.0
 40
1.0
 40
1.0
 10
-26.98749999999998
 20
3.901585229235955
 30
0.0
 10
-26.98749999999998
 20
3.976514189249549
 30
0.0
 10
-26.98749999999998
 20
4.219489981064647
 30
0.0
 10
-26.98750000000006
 20
4.692306434524268
 30
0.0
 10
-26.98750000000003
 20
5.268989800576363
 30
0.0
 10
-26.9875
 20
5.659504113243485
 30
0.0
 10
-26.9875
 20
5.83959059701469
 30
0.0
  0
LINE
  5
32D
330
1F
100
AcDbEntity
  8
외형선
  6
Continuous
370
    15
100
AcDbLine
 10
-25.98749999999998
 20
-0.0000000000000078
 30
0.0
 11
-25.98749999999998
 21
-6.151562500000005
 31
0.0
  0
LINE
  5
32E
330
1F
100
AcDbEntity
  8
외형선
  6
Continuous
370
    15
100
AcDbLine
 10
-25.98749999999998
 20
6.151562499999989
 30
0.0
 11
-25.98749999999998
 21
-0.0000000000000078
 31
0.0
  0
LINE
  5
32F
330
1F
100
AcDbEntity
  8
외형선
  6
Continuous
370
    15
100
AcDbLine
 10
-25.246921167873
 20
-0.0000000000000078
 30
0.0
 11
-25.246921167873
 21
-6.350000000000017
 31
0.0
  0
LINE
  5
330
330
1F
100
AcDbEntity
  8
외형선
  6
Continuous
370
    15
100
AcDbLine
 10
-25.246921167873
 20
6.350000000000001
 30
0.0
 11
-25.246921167873
 21
-0.0000000000000078
 31
0.0
  0
LINE
  5
331
330
1F
100
AcDbEntity
  8
외형선
  6
Continuous
370
    15
100
AcDbLine
 10
-26.48741640905822
 20
-5.923763950839899
 30
0.0
 11
-26.48741640905822
 21
-6.151562500000005
 31
0.0
  0
SPLINE
  5
332
330
1F
100
AcDbEntity
  8
외형선
  6
Continuous
370
    15
100
AcDbSpline
210
0.0
220
0.0
230
1.0
 70
     8
 71
     3
 72
     8
 73
     4
 74
     0
 42
0.000000001
 43
0.00000001
 40
0.0
 40
0.0
 40
0.0
 40
0.0
 40
1.0
 40
1.0
 40
1.0
 40
1.0
 10
-26.9875
 20
-5.839590597014721
 30
0.0
 10
-26.82085816263881
 20
-5.869794544800528
 30
0.0
 10
-26.65407215240801
 20
-5.89786990899642
 30
0.0
 10
-26.48741640905822
 20
-5.923770313169499
 30
0.0
  0
SPLINE
  5
333
330
1F
100
AcDbEntity
  8
외형선
  6
Continuous
370
    15
100
AcDbSpline
210
0.0
220
0.0
230
1.0
 70
     8
 71
     3
 72
     8
 73
     4
 74
     0
 42
0.000000001
 43
0.00000001
 40
0.0
 40
0.0
 40
0.0
 40
0.0
 40
1.0
 40
1.0
 40
1.0
 40
1.0
 10
-26.98749999999998
 20
-4.814592615063924
 30
0.0
 10
-26.82085816263881
 20
-4.874387426496839
 30
0.0
 10
-26.65407215240801
 20
-4.93243733029069
 30
0.0
 10
-26.48741640905822
 20
-4.988646657934901
 30
0.0
  0
LINE
  5
334
330
1F
100
AcDbEntity
  8
외형선
  6
Continuous
370
    15
100
AcDbLine
 10
-26.48741640905822
 20
1.65853605512094
 30
0.0
 11
-26.48741640905822
 21
-4.988668738177702
 31
0.0
  0
SPLINE
  5
335
330
1F
100
AcDbEntity
  8
외형선
  6
Continuous
370
    15
100
AcDbSpline
210
0.0
220
0.0
230
1.0
 70
     8
 71
     3
 72
     8
 73
     4
 74
     0
 42
0.000000001
 43
0.00000001
 40
0.0
 40
0.0
 40
0.0
 40
0.0
 40
1.0
 40
1.0
 40
1.0
 40
1.0
 10
-26.9875
 20
1.934141372977641
 30
0.0
 10
-26.82085816263881
 20
1.842949130286917
 30
0.0
 10
-26.65407215240801
 20
1.751022713983715
 30
0.0
 10
-26.48741640905822
 20
1.658513330732738
 30
0.0
  0
SPLINE
  5
336
330
1F
100
AcDbEntity
  8
외형선
  6
Continuous
370
    15
100
AcDbSpline
210
0.0
220
0.0
230
1.0
 70
     8
 71
     3
 72
     8
 73
     4
 74
     0
 42
0.000000001
 43
0.00000001
 40
0.0
 40
0.0
 40
0.0
 40
0.0
 40
1.0
 40
1.0
 40
1.0
 40
1.0
 10
-26.98749999999998
 20
3.829023262188158
 30
0.0
 10
-26.82085816263881
 20
3.753837597899583
 30
0.0
 10
-26.65407215240801
 20
3.67722884671145
 30
0.0
 10
-26.48741640905822
 20
3.599322952123223
 30
0.0
  0
LINE
  5
337
330
1F
100
AcDbEntity
  8
외형선
  6
Continuous
370
    15
100
AcDbLine
 10
-26.48741640905822
 20
6.151562499999989
 30
0.0
 11
-26.48741640905822
 21
3.599292348800609
 31
0.0
  0
SPLINE
  5
338
330
1F
100
AcDbEntity
  8
외형선
  6
Continuous
370
    15
100
AcDbSpline
210
0.0
220
0.0
230
1.0
 70
     8
 71
     3
 72
     8
 73
     4
 74
     0
 42
0.000000001
 43
0.00000001
 40
0.0
 40
0.0
 40
0.0
 40
0.0
 40
1.0
 40
1.0
 40
1.0
 40
1.0
 10
-26.9875
 20
5.83959059701469
 30
0.0
 10
-26.82085816263881
 20
5.869794544800505
 30
0.0
 10
-26.65407215240801
 20
5.897869908996397
 30
0.0
 10
-26.48741640905822
 20
5.923770313169483
 30
0.0
  0
SPLINE
  5
339
330
1F
100
AcDbEntity
  8
외형선
  6
Continuous
370
    15
100
AcDbSpline
210
0.0
220
0.0
230
1.0
 70
    24
 71
     3
 72
    22
 73
    18
 74
     0
 42
0.000000001
 43
0.00000001
 40
0.0
 40
0.0
 40
0.0
 40
0.0
 40
0.125
 40
0.125
 40
0.25
 40
0.25
 40
0.375
 40
0.375
 40
0.5
 40
0.5
 40
0.625
 40
0.625
 40
0.75
 40
0.75
 40
0.875
 40
0.875
 40
1.0
 40
1.0
 40
1.0
 40
1.0
 10
-26.98749999999998
 20
1.934141372977641
 30
0.0
 10
-26.98749999999995
 20
1.927719594537407
 30
0.0
 10
-26.98749999999998
 20
1.845612040313944
 30
0.0
 10
-26.98749999999998
 20
1.495797174948321
 30
0.0
 10
-26.9875
 20
1.227227364649017
 30
0.0
 10
-26.9875
 20
0.5456266648419323
 30
0.0
 10
-26.98749999999998
 20
0.1346086698993851
 30
0.0
 10
-26.98749999999998
 20
-0.7256217378519245
 30
0.0
 10
-26.98749999999998
 20
-1.17251357572949
 30
0.0
 10
-26.9875
 20
-2.010912537523844
 30
0.0
 10
-26.9875
 20
-2.40219271127166
 30
0.0
 10
-26.9875
 20
-3.092128632809967
 30
0.0
 10
-26.98749999999998
 20
-3.391634430579167
 30
0.0
 10
-26.98749999999998
 20
-3.902394825151682
 30
0.0
 10
-26.98749999999998
 20
-4.114324883570348
 30
0.0
 10
-26.98749999999998
 20
-4.469269500657966
 30
0.0
 10
-26.98749999999998
 20
-4.648238500590723
 30
0.0
 10
-26.98749999999998
 20
-4.814592615063931
 30
0.0
  0
SPLINE
  5
33A
330
1F
100
AcDbEntity
  8
외형선
  6
Continuous
370
    15
100
AcDbSpline
210
0.0
220
0.0
230
1.0
 70
    24
 71
     3
 72
    11
 73
     7
 74
     0
 42
0.000000001
 43
0.00000001
 40
0.0
 40
0.0
 40
0.0
 40
0.0
 40
0.2365447813355563
 40
0.4773222944913527
 40
0.7755980981389411
 40
1.0
 40
1.0
 40
1.0
 40
1.0
 10
-26.9875
 20
5.83959059701469
 30
0.0
 10
-26.98749999999995
 20
5.677475961257733
 30
0.0
 10
-26.98749999999992
 20
5.350345810792198
 30
0.0
 10
-26.98750000000009
 20
4.83086017053484
 30
0.0
 10
-26.98749999999986
 20
4.334942148011286
 30
0.0
 10
-26.98749999999992
 20
4.031746578871959
 30
0.0
 10
-26.98749999999995
 20
3.901575229235952
 30
0.0
  0
CIRCLE
  5
33C
330
1F
100
AcDbEntity
  8
해칭선
100
AcDbCircle
 10
156.6181760798711
 20
-36.51606915692274
 30
0.0
 40
3.000000000000005
  0
INSERT
  5
340
330
1F
100
AcDbEntity
  8
해칭선
100
AcDbBlockReference
  2
SW_DOWELSYMBOL_0
 10
156.6181760798711
 20
-36.51606915692274
 30
0.0
  0
LINE
  5
3B9
330
1F
100
AcDbEntity
  8
외형선
  6
Continuous
370
    15
100
AcDbLine
 10
-4.203700000000026
 20
4.826000000000001
 30
0.0
 11
4.203700000000026
 21
4.826000000000001
 31
0.0
  0
LINE
  5
3BA
330
1F
100
AcDbEntity
  8
외형선
  6
Continuous
370
    15
100
AcDbLine
 10
-4.203700000000026
 20
4.826000000000001
 30
0.0
 11
-5.727700000000027
 21
6.350000000000001
 31
0.0
  0
LINE
  5
3BB
330
1F
100
AcDbEntity
  8
외형선
  6
Continuous
370
    15
100
AcDbLine
 10
4.203700000000026
 20
4.826000000000001
 30
0.0
 11
5.727700000000027
 21
6.350000000000001
 31
0.0
  0
LINE
  5
3BC
330
1F
100
AcDbEntity
  8
외형선
  6
Continuous
370
    15
100
AcDbLine
 10
-5.727700000000027
 20
6.350000000000001
 30
0.0
 11
-25.246921167873
 21
6.350000000000001
 31
0.0
  0
ENDSEC
  0
SECTION
  2
OBJECTS
  0
DICTIONARY
  5
C
330
0
100
AcDbDictionary
281
     1
  3
ACAD_GROUP
350
D
  3
ACAD_IMAGE_VARS
350
14F
  3
ACAD_LAYOUT
350
1A
  3
ACAD_MLINESTYLE
350
17
  3
ACAD_PLOTSETTINGS
350
19
  3
ACAD_PLOTSTYLENAME
350
E
  3
ACAD_SCALELIST
350
47
  3
APPDATA
350
14D
  3
DWGPROPS
350
403
  0
DICTIONARY
  5
1D6
330
2
100
AcDbDictionary
280
     1
281
     1
  3
ACAD_LAYERSTATES
360
1D7
  0
DICTIONARY
  5
D
102
{ACAD_REACTORS
330
C
102
}
330
C
100
AcDbDictionary
281
     1
  0
RASTERVARIABLES
  5
14F
102
{ACAD_REACTORS
330
C
102
}
330
C
100
AcDbRasterVariables
 90
        0
 70
     1
 71
     1
 72
     1
  0
DICTIONARY
  5
1A
102
{ACAD_REACTORS
330
C
102
}
330
C
100
AcDbDictionary
281
     1
  3
Layout1
350
1E
  3
Layout2
350
26
  3
Model
350
22
  0
DICTIONARY
  5
17
102
{ACAD_REACTORS
330
C
102
}
330
C
100
AcDbDictionary
281
     1
  3
Standard
350
18
  0
DICTIONARY
  5
19
102
{ACAD_REACTORS
330
C
102
}
330
C
100
AcDbDictionary
281
     1
  0
ACDBDICTIONARYWDFLT
  5
E
102
{ACAD_REACTORS
330
C
102
}
330
C
100
AcDbDictionary
281
     1
  3
Normal
350
F
100
AcDbDictionaryWithDefault
340
F
  0
DICTIONARY
  5
47
102
{ACAD_REACTORS
330
C
102
}
330
C
100
AcDbDictionary
281
     1
  3
A0
350
48
  3
A1
350
49
  3
A2
350
4A
  3
A3
350
4B
  3
A4
350
4C
  3
A5
350
4D
  3
A6
350
4E
  3
A7
350
4F
  3
A8
350
50
  3
A9
350
51
  3
B0
350
52
  3
B1
350
53
  3
B2
350
54
  3
B3
350
55
  3
B4
350
56
  3
B5
350
57
  3
B6
350
58
  3
B7
350
59
  3
B8
350
5A
  3
B9
350
5B
  3
C0
350
5C
  3
C1
350
5D
  3
C2
350
5E
  3
C3
350
5F
  3
C4
350
60
  3
C5
350
61
  3
C6
350
62
  3
C7
350
63
  3
C8
350
64
  3
C9
350
65
  3
D0
350
66
  3
D1
350
67
  3
D2
350
68
  0
DICTIONARY
  5
14D
102
{ACAD_REACTORS
330
C
102
}
330
C
100
AcDbDictionary
281
     1
  0
XRECORD
  5
403
102
{ACAD_REACTORS
330
C
102
}
330
C
100
AcDbXrecord
280
     1
  1
DWGPROPS COOKIE
  2

  3

  4

  6

  7

  8
12016016
  9

300
=
301
=
302
=
303
=
304
=
305
=
306
=
307
=
308
=
309
=
 40
0.0
 41
2458313.098989549
 42
2458319.104367269
  1

 90
        0
  0
DICTIONARY
  5
1D7
102
{ACAD_REACTORS
330
1D6
102
}
330
1D6
100
AcDbDictionary
281
     1
  0
LAYOUT
  5
1E
102
{ACAD_REACTORS
330
1A
102
}
330
1A
100
AcDbPlotSettings
  1

  2
none_device
  4

  6

 40
0.0
 41
0.0
 42
0.0
 43
0.0
 44
0.0
 45
0.0
 46
0.0
 47
0.0
 48
0.0
 49
0.0
140
0.0
141
0.0
142
1.0
143
1.0
 70
   688
 72
     1
 73
     0
 74
     5
  7

 75
    16
147
1.0
148
0.0
149
0.0
100
AcDbLayout
  1
Layout1
 70
     1
 71
     1
 10
0.0
 20
0.0
 11
420.0
 21
297.0
 12
0.0
 22
0.0
 32
0.0
 14
1.000000000000000E+20
 24
1.000000000000000E+20
 34
1.000000000000000E+20
 15
-1.000000000000000E+20
 25
-1.000000000000000E+20
 35
-1.000000000000000E+20
146
0.0
 13
0.0
 23
0.0
 33
0.0
 16
1.0
 26
0.0
 36
0.0
 17
0.0
 27
1.0
 37
0.0
 76
     0
330
1B
  0
LAYOUT
  5
26
102
{ACAD_REACTORS
330
1A
102
}
330
1A
100
AcDbPlotSettings
  1

  2
none_device
  4

  6

 40
0.0
 41
0.0
 42
0.0
 43
0.0
 44
0.0
 45
0.0
 46
0.0
 47
0.0
 48
0.0
 49
0.0
140
0.0
141
0.0
142
1.0
143
1.0
 70
   688
 72
     1
 73
     0
 74
     5
  7

 75
    16
147
1.0
148
0.0
149
0.0
100
AcDbLayout
  1
Layout2
 70
     1
 71
     2
 10
0.0
 20
0.0
 11
0.0
 21
0.0
 12
0.0
 22
0.0
 32
0.0
 14
0.0
 24
0.0
 34
0.0
 15
0.0
 25
0.0
 35
0.0
146
0.0
 13
0.0
 23
0.0
 33
0.0
 16
1.0
 26
0.0
 36
0.0
 17
0.0
 27
1.0
 37
0.0
 76
     0
330
23
  0
LAYOUT
  5
22
102
{ACAD_REACTORS
330
1A
102
}
330
1A
100
AcDbPlotSettings
  1

  2
none_device
  4
ANSI_A_(11.00_x_8.50_Inches)
  6

 40
6.35
 41
19.05
 42
6.35000508
 43
19.05000254
 44
279.4
 45
215.9
 46
61.47075058006798
 47
77.39741492361546
 48
0.0
 49
0.0
140
0.0
141
0.0
142
0.0418462529351176
143
1.0
 70
  1696
 72
     0
 73
     0
 74
     0
  7

 75
     0
147
0.0235690232323232
148
0.0
149
0.0
100
AcDbLayout
  1
Model
 70
     1
 71
     0
 10
0.0
 20
0.0
 11
420.0
 21
297.0
 12
0.0
 22
0.0
 32
0.0
 14
-68.96875000000007
 24
-49.97180738881174
 34
0.0
 15
159.6181760798711
 25
44.91181250000006
 35
0.0
146
0.0
 13
0.0
 23
0.0
 33
0.0
 16
1.0
 26
0.0
 36
0.0
 17
0.0
 27
1.0
 37
0.0
 76
     0
330
1F
331
29
  0
MLINESTYLE
  5
18
102
{ACAD_REACTORS
330
17
102
}
330
17
100
AcDbMlineStyle
  2
Standard
 70
     0
  3

 62
   256
 51
90.0
 52
90.0
 71
     2
 49
0.5
 62
   256
  6
BYLAYER
 49
-0.5
 62
   256
  6
BYLAYER
  0
ACDBPLACEHOLDER
  5
F
102
{ACAD_REACTORS
330
E
102
}
330
E
  0
SCALE
  5
48
102
{ACAD_REACTORS
330
47
102
}
330
47
100
AcDbScale
 70
     0
300
1:1
140
1.0
141
1.0
290
     1
  0
SCALE
  5
49
102
{ACAD_REACTORS
330
47
102
}
330
47
100
AcDbScale
 70
     0
300
1:2
140
1.0
141
2.0
290
     0
  0
SCALE
  5
4A
102
{ACAD_REACTORS
330
47
102
}
330
47
100
AcDbScale
 70
     0
300
1:4
140
1.0
141
4.0
290
     0
  0
SCALE
  5
4B
102
{ACAD_REACTORS
330
47
102
}
330
47
100
AcDbScale
 70
     0
300
1:5
140
1.0
141
5.0
290
     0
  0
SCALE
  5
4C
102
{ACAD_REACTORS
330
47
102
}
330
47
100
AcDbScale
 70
     0
300
1:8
140
1.0
141
8.0
290
     0
  0
SCALE
  5
4D
102
{ACAD_REACTORS
330
47
102
}
330
47
100
AcDbScale
 70
     0
300
1:10
140
1.0
141
10.0
290
     0
  0
SCALE
  5
4E
102
{ACAD_REACTORS
330
47
102
}
330
47
100
AcDbScale
 70
     0
300
1:16
140
1.0
141
16.0
290
     0
  0
SCALE
  5
4F
102
{ACAD_REACTORS
330
47
102
}
330
47
100
AcDbScale
 70
     0
300
1:20
140
1.0
141
20.0
290
     0
  0
SCALE
  5
50
102
{ACAD_REACTORS
330
47
102
}
330
47
100
AcDbScale
 70
     0
300
1:30
140
1.0
141
30.0
290
     0
  0
SCALE
  5
51
102
{ACAD_REACTORS
330
47
102
}
330
47
100
AcDbScale
 70
     0
300
1:40
140
1.0
141
40.0
290
     0
  0
SCALE
  5
52
102
{ACAD_REACTORS
330
47
102
}
330
47
100
AcDbScale
 70
     0
300
1:50
140
1.0
141
50.0
290
     0
  0
SCALE
  5
53
102
{ACAD_REACTORS
330
47
102
}
330
47
100
AcDbScale
 70
     0
300
1:100
140
1.0
141
100.0
290
     0
  0
SCALE
  5
54
102
{ACAD_REACTORS
330
47
102
}
330
47
100
AcDbScale
 70
     0
300
2:1
140
2.0
141
1.0
290
     0
  0
SCALE
  5
55
102
{ACAD_REACTORS
330
47
102
}
330
47
100
AcDbScale
 70
     0
300
4:1
140
4.0
141
1.0
290
     0
  0
SCALE
  5
56
102
{ACAD_REACTORS
330
47
102
}
330
47
100
AcDbScale
 70
     0
300
8:1
140
8.0
141
1.0
290
     0
  0
SCALE
  5
57
102
{ACAD_REACTORS
330
47
102
}
330
47
100
AcDbScale
 70
     0
300
10:1
140
10.0
141
1.0
290
     0
  0
SCALE
  5
58
102
{ACAD_REACTORS
330
47
102
}
330
47
100
AcDbScale
 70
     0
300
100:1
140
100.0
141
1.0
290
     0
  0
SCALE
  5
59
102
{ACAD_REACTORS
330
47
102
}
330
47
100
AcDbScale
 70
     0
300
1/128" = 1'-0"
140
0.0078125
141
12.0
290
     0
  0
SCALE
  5
5A
102
{ACAD_REACTORS
330
47
102
}
330
47
100
AcDbScale
 70
     0
300
1/64" = 1'-0"
140
0.015625
141
12.0
290
     0
  0
SCALE
  5
5B
102
{ACAD_REACTORS
330
47
102
}
330
47
100
AcDbScale
 70
     0
300
1/32" = 1'-0"
140
0.03125
141
12.0
290
     0
  0
SCALE
  5
5C
102
{ACAD_REACTORS
330
47
102
}
330
47
100
AcDbScale
 70
     0
300
1/16" = 1'-0"
140
0.0625
141
12.0
290
     0
  0
SCALE
  5
5D
102
{ACAD_REACTORS
330
47
102
}
330
47
100
AcDbScale
 70
     0
300
3/32" = 1'-0"
140
0.09375
141
12.0
290
     0
  0
SCALE
  5
5E
102
{ACAD_REACTORS
330
47
102
}
330
47
100
AcDbScale
 70
     0
300
1/8" = 1'-0"
140
0.125
141
12.0
290
     0
  0
SCALE
  5
5F
102
{ACAD_REACTORS
330
47
102
}
330
47
100
AcDbScale
 70
     0
300
3/16" = 1'-0"
140
0.1875
141
12.0
290
     0
  0
SCALE
  5
60
102
{ACAD_REACTORS
330
47
102
}
330
47
100
AcDbScale
 70
     0
300
1/4" = 1'-0"
140
0.25
141
12.0
290
     0
  0
SCALE
  5
61
102
{ACAD_REACTORS
330
47
102
}
330
47
100
AcDbScale
 70
     0
300
3/8" = 1'-0"
140
0.375
141
12.0
290
     0
  0
SCALE
  5
62
102
{ACAD_REACTORS
330
47
102
}
330
47
100
AcDbScale
 70
     0
300
1/2" = 1'-0"
140
0.5
141
12.0
290
     0
  0
SCALE
  5
63
102
{ACAD_REACTORS
330
47
102
}
330
47
100
AcDbScale
 70
     0
300
3/4" = 1'-0"
140
0.75
141
12.0
290
     0
  0
SCALE
  5
64
102
{ACAD_REACTORS
330
47
102
}
330
47
100
AcDbScale
 70
     0
300
1" = 1'-0"
140
1.0
141
12.0
290
     0
  0
SCALE
  5
65
102
{ACAD_REACTORS
330
47
102
}
330
47
100
AcDbScale
 70
     0
300
1-1/2" = 1'-0"
140
1.5
141
12.0
290
     0
  0
SCALE
  5
66
102
{ACAD_REACTORS
330
47
102
}
330
47
100
AcDbScale
 70
     0
300
3" = 1'-0"
140
3.0
141
12.0
290
     0
  0
SCALE
  5
67
102
{ACAD_REACTORS
330
47
102
}
330
47
100
AcDbScale
 70
     0
300
6" = 1'-0"
140
6.0
141
12.0
290
     0
  0
SCALE
  5
68
102
{ACAD_REACTORS
330
47
102
}
330
47
100
AcDbScale
 70
     0
300
1'-0" = 1'-0"
140
12.0
141
12.0
290
     0
  0
ENDSEC
  0
EOF
