  0
SECTION
  2
HEADER
  9
$ACADVER
  1
AC1015
  9
$ACADMAINTVER
 70
     6
  9
$DWGCODEPAGE
  3
ANSI_949
  9
$INSBASE
 10
0.0
 20
0.0
 30
0.0
  9
$EXTMIN
 10
-68.96875000000007
 20
-49.97180738881174
 30
0.0
  9
$EXTMAX
 10
81.41936447236121
 20
39.86025000000006
 30
0.0
  9
$LIMMIN
 10
0.0
 20
0.0
  9
$LIMMAX
 10
420.0
 20
297.0
  9
$ORTHOMODE
 70
     1
  9
$REGENMODE
 70
     1
  9
$FILLMODE
 70
     1
  9
$QTEXTMODE
 70
     0
  9
$MIRRTEXT
 70
     1
  9
$LTSCALE
 40
1.0
  9
$ATTMODE
 70
     1
  9
$TEXTSIZE
 40
3.5
  9
$TRACEWID
 40
1.0
  9
$TEXTSTYLE
  7
Standard
  9
$CLAYER
  8
0
  9
$CELTYPE
  6
ByLayer
  9
$CECOLOR
 62
   256
  9
$CELTSCALE
 40
1.0
  9
$DISPSILH
 70
     0
  9
$DIMSCALE
 40
1.0
  9
$DIMASZ
 40
3.302
  9
$DIMEXO
 40
1.0
  9
$DIMDLI
 40
3.75
  9
$DIMRND
 40
0.0
  9
$DIMDLE
 40
0.0
  9
$DIMEXE
 40
1.0
  9
$DIMTP
 40
0.0
  9
$DIMTM
 40
0.0
  9
$DIMTXT
 40
3.5
  9
$DIMCEN
 40
2.5
  9
$DIMTSZ
 40
0.0
  9
$DIMTOL
 70
     0
  9
$DIMLIM
 70
     0
  9
$DIMTIH
 70
     1
  9
$DIMTOH
 70
     1
  9
$DIMSE1
 70
     0
  9
$DIMSE2
 70
     0
  9
$DIMTAD
 70
     1
  9
$DIMZIN
 70
     0
  9
$DIMBLK
  1

  9
$DIMASO
 70
     1
  9
$DIMSHO
 70
     1
  9
$DIMPOST
  1

  9
$DIMAPOST
  1

  9
$DIMALT
 70
     0
  9
$DIMALTD
 70
     3
  9
$DIMALTF
 40
0.0393700787401575
  9
$DIMLFAC
 40
1.0
  9
$DIMTOFL
 70
     1
  9
$DIMTVP
 40
0.0
  9
$DIMTIX
 70
     0
  9
$DIMSOXD
 70
     0
  9
$DIMSAH
 70
     0
  9
$DIMBLK1
  1

  9
$DIMBLK2
  1

  9
$DIMSTYLE
  2
ISO-25
  9
$DIMCLRD
 70
     0
  9
$DIMCLRE
 70
     0
  9
$DIMCLRT
 70
     0
  9
$DIMTFAC
 40
1.0
  9
$DIMGAP
 40
1.524
  9
$DIMJUST
 70
     0
  9
$DIMSD1
 70
     0
  9
$DIMSD2
 70
     0
  9
$DIMTOLJ
 70
     0
  9
$DIMTZIN
 70
     0
  9
$DIMALTZ
 70
     0
  9
$DIMALTTZ
 70
     0
  9
$DIMUPT
 70
     0
  9
$DIMDEC
 70
     2
  9
$DIMTDEC
 70
     2
  9
$DIMALTU
 70
     2
  9
$DIMALTTD
 70
     3
  9
$DIMTXSTY
  7
Standard
  9
$DIMAUNIT
 70
     0
  9
$DIMADEC
 70
     2
  9
$DIMALTRND
 40
0.0
  9
$DIMAZIN
 70
     0
  9
$DIMDSEP
 70
    44
  9
$DIMATFIT
 70
     3
  9
$DIMFRAC
 70
     0
  9
$DIMLDRBLK
  1

  9
$DIMLUNIT
 70
     2
  9
$DIMLWD
 70
    -2
  9
$DIMLWE
 70
    -2
  9
$DIMTMOVE
 70
     0
  9
$LUNITS
 70
     2
  9
$LUPREC
 70
     2
  9
$SKETCHINC
 40
1.0
  9
$FILLETRAD
 40
10.0
  9
$AUNITS
 70
     0
  9
$AUPREC
 70
     2
  9
$MENU
  1
.
  9
$ELEVATION
 40
0.0
  9
$PELEVATION
 40
0.0
  9
$THICKNESS
 40
0.0
  9
$LIMCHECK
 70
     0
  9
$CHAMFERA
 40
0.0
  9
$CHAMFERB
 40
0.0
  9
$CHAMFERC
 40
0.0
  9
$CHAMFERD
 40
0.0
  9
$SKPOLY
 70
     0
  9
$TDCREATE
 40
2458313.474201343
  9
$TDUCREATE
 40
2458313.099201343
  9
$TDUPDATE
 40
2458319.479173901
  9
$TDUUPDATE
 40
2458319.104173901
  9
$TDINDWG
 40
0.0055558681
  9
$TDUSRTIMER
 40
2458319.104051308
  9
$USRTIMER
 70
     1
  9
$ANGBASE
 50
0.0
  9
$ANGDIR
 70
     0
  9
$PDMODE
 70
     0
  9
$PDSIZE
 40
-1.0
  9
$PLINEWID
 40
0.0
  9
$SPLFRAME
 70
     0
  9
$SPLINETYPE
 70
     6
  9
$SPLINESEGS
 70
     8
  9
$HANDSEED
  5
3EC
  9
$SURFTAB1
 70
     6
  9
$SURFTAB2
 70
     6
  9
$SURFTYPE
 70
     6
  9
$SURFU
 70
     6
  9
$SURFV
 70
     6
  9
$UCSBASE
  2

  9
$UCSNAME
  2

  9
$UCSORG
 10
0.0
 20
0.0
 30
0.0
  9
$UCSXDIR
 10
1.0
 20
0.0
 30
0.0
  9
$UCSYDIR
 10
0.0
 20
1.0
 30
0.0
  9
$UCSORTHOREF
  2

  9
$UCSORTHOVIEW
 70
     0
  9
$UCSORGTOP
 10
0.0
 20
0.0
 30
0.0
  9
$UCSORGBOTTOM
 10
0.0
 20
0.0
 30
0.0
  9
$UCSORGLEFT
 10
0.0
 20
0.0
 30
0.0
  9
$UCSORGRIGHT
 10
0.0
 20
0.0
 30
0.0
  9
$UCSORGFRONT
 10
0.0
 20
0.0
 30
0.0
  9
$UCSORGBACK
 10
0.0
 20
0.0
 30
0.0
  9
$PUCSBASE
  2

  9
$PUCSNAME
  2

  9
$PUCSORG
 10
0.0
 20
0.0
 30
0.0
  9
$PUCSXDIR
 10
1.0
 20
0.0
 30
0.0
  9
$PUCSYDIR
 10
0.0
 20
1.0
 30
0.0
  9
$PUCSORTHOREF
  2

  9
$PUCSORTHOVIEW
 70
     0
  9
$PUCSORGTOP
 10
0.0
 20
0.0
 30
0.0
  9
$PUCSORGBOTTOM
 10
0.0
 20
0.0
 30
0.0
  9
$PUCSORGLEFT
 10
0.0
 20
0.0
 30
0.0
  9
$PUCSORGRIGHT
 10
0.0
 20
0.0
 30
0.0
  9
$PUCSORGFRONT
 10
0.0
 20
0.0
 30
0.0
  9
$PUCSORGBACK
 10
0.0
 20
0.0
 30
0.0
  9
$USERI1
 70
     0
  9
$USERI2
 70
     0
  9
$USERI3
 70
     0
  9
$USERI4
 70
     0
  9
$USERI5
 70
     0
  9
$USERR1
 40
0.0
  9
$USERR2
 40
0.0
  9
$USERR3
 40
0.0
  9
$USERR4
 40
0.0
  9
$USERR5
 40
0.0
  9
$WORLDVIEW
 70
     1
  9
$SHADEDGE
 70
     3
  9
$SHADEDIF
 70
    70
  9
$TILEMODE
 70
     1
  9
$MAXACTVP
 70
    64
  9
$PINSBASE
 10
0.0
 20
0.0
 30
0.0
  9
$PLIMCHECK
 70
     0
  9
$PEXTMIN
 10
1.000000000000000E+20
 20
1.000000000000000E+20
 30
1.000000000000000E+20
  9
$PEXTMAX
 10
-1.000000000000000E+20
 20
-1.000000000000000E+20
 30
-1.000000000000000E+20
  9
$PLIMMIN
 10
0.0
 20
0.0
  9
$PLIMMAX
 10
0.0
 20
0.0
  9
$UNITMODE
 70
     0
  9
$VISRETAIN
 70
     1
  9
$PLINEGEN
 70
     0
  9
$PSLTSCALE
 70
     1
  9
$TREEDEPTH
 70
  3020
  9
$CMLSTYLE
  2
Standard
  9
$CMLJUST
 70
     0
  9
$CMLSCALE
 40
20.0
  9
$PROXYGRAPHICS
 70
     1
  9
$MEASUREMENT
 70
     1
  9
$CELWEIGHT
370
    -1
  9
$ENDCAPS
280
     0
  9
$JOINSTYLE
280
     0
  9
$LWDISPLAY
290
     1
  9
$INSUNITS
 70
     4
  9
$HYPERLINKBASE
  1

  9
$STYLESHEET
  1

  9
$XEDIT
290
     1
  9
$CEPSNTYPE
380
     0
  9
$PSTYLEMODE
290
     1
  9
$FINGERPRINTGUID
  2
{C1C30D9A-11D4-4AC8-8153-695B654757E3}
  9
$VERSIONGUID
  2
{FAEB1C32-E019-11D5-929B-00C0DF256EC4}
  9
$EXTNAMES
290
     1
  9
$PSVPSCALE
 40
0.0
  9
$OLESTARTUP
290
     0
  0
ENDSEC
  0
SECTION
  2
CLASSES
  0
CLASS
  1
ACDBDICTIONARYWDFLT
  2
AcDbDictionaryWithDefault
  3
ObjectDBX Classes
 90
        0
280
     0
281
     0
  0
CLASS
  1
VISUALSTYLE
  2
AcDbVisualStyle
  3
ObjectDBX Classes
 90
     4095
280
     0
281
     0
  0
CLASS
  1
MATERIAL
  2
AcDbMaterial
  3
ObjectDBX Classes
 90
     1153
280
     0
281
     0
  0
CLASS
  1
SCALE
  2
AcDbScale
  3
ObjectDBX Classes
 90
     1153
280
     0
281
     0
  0
CLASS
  1
SUN
  2
AcDbSun
  3
SCENEOE
 90
     1153
280
     0
281
     0
  0
CLASS
  1
ACDBPLACEHOLDER
  2
AcDbPlaceHolder
  3
ObjectDBX Classes
 90
        0
280
     0
281
     0
  0
CLASS
  1
LAYOUT
  2
AcDbLayout
  3
ObjectDBX Classes
 90
        0
280
     0
281
     0
  0
CLASS
  1
TABLESTYLE
  2
AcDbTableStyle
  3
ObjectDBX Classes
 90
     4095
280
     0
281
     0
  0
CLASS
  1
MLEADERSTYLE
  2
AcDbMLeaderStyle
  3
ACDB_MLEADERSTYLE_CLASS
 90
     4095
280
     0
281
     0
  0
CLASS
  1
RASTERVARIABLES
  2
AcDbRasterVariables
  3
ISM
 90
        0
280
     0
281
     0
  0
ENDSEC
  0
SECTION
  2
TABLES
  0
TABLE
  2
VPORT
  5
8
330
0
100
AcDbSymbolTable
 70
     1
  0
VPORT
  5
29
330
8
100
AcDbSymbolTableRecord
100
AcDbViewportTableRecord
  2
*Active
 70
     0
 10
0.0
 20
0.0
 11
1.0
 21
1.0
 12
13.47348175239921
 22
3.744853619600057
 13
0.0
 23
0.0
 14
10.0
 24
10.0
 15
10.0
 25
10.0
 16
0.0
 26
0.0
 36
1.0
 17
0.0
 27
0.0
 37
0.0
 40
162.6396103836045
 41
1.673114119922631
 42
50.0
 43
0.0
 44
0.0
 50
0.0
 51
0.0
 71
    16
 72
  2000
 73
     1
 74
     3
 75
     0
 76
     0
 77
     0
 78
     0
281
     0
 65
     1
110
0.0
120
0.0
130
0.0
111
1.0
121
0.0
131
0.0
112
0.0
122
1.0
132
0.0
 79
     0
146
0.0
  0
ENDTAB
  0
TABLE
  2
LTYPE
  5
5
330
0
100
AcDbSymbolTable
 70
     6
  0
LTYPE
  5
14
330
5
100
AcDbSymbolTableRecord
100
AcDbLinetypeTableRecord
  2
ByBlock
 70
     0
  3

 72
    65
 73
     0
 40
0.0
  0
LTYPE
  5
15
330
5
100
AcDbSymbolTableRecord
100
AcDbLinetypeTableRecord
  2
ByLayer
 70
     0
  3

 72
    65
 73
     0
 40
0.0
  0
LTYPE
  5
16
330
5
100
AcDbSymbolTableRecord
100
AcDbLinetypeTableRecord
  2
Continuous
 70
     0
  3
Solid line
 72
    65
 73
     0
 40
0.0
  0
LTYPE
  5
6A
330
5
100
AcDbSymbolTableRecord
100
AcDbLinetypeTableRecord
  2
HIDDEN
 70
     0
  3
Hidden __ __ __ __ __ __ __ __ __ __ __ __ __ __
 72
    65
 73
     2
 40
1.905
 49
1.27
 74
     0
 49
-0.635
 74
     0
  0
LTYPE
  5
6B
330
5
100
AcDbSymbolTableRecord
100
AcDbLinetypeTableRecord
  2
PHANTOM
 70
     0
  3
Phantom ______  __  __  ______  __  __  ______
 72
    65
 73
     6
 40
12.7
 49
6.35
 74
     0
 49
-1.27
 74
     0
 49
1.27
 74
     0
 49
-1.27
 74
     0
 49
1.27
 74
     0
 49
-1.27
 74
     0
  0
LTYPE
  5
6C
330
5
100
AcDbSymbolTableRecord
100
AcDbLinetypeTableRecord
  2
CENTER
 70
     0
  3
Center ____ _ ____ _ ____ _ ____ _ ____ _ ____
 72
    65
 73
     4
 40
10.16
 49
6.35
 74
     0
 49
-1.27
 74
     0
 49
1.27
 74
     0
 49
-1.27
 74
     0
  0
LTYPE
  5
6D
330
5
100
AcDbSymbolTableRecord
100
AcDbLinetypeTableRecord
  2
CENTERX2
 70
     0
  3
Center (2x) ________  __  ________  __  _____
 72
    65
 73
     4
 40
20.32
 49
12.7
 74
     0
 49
-2.54
 74
     0
 49
2.54
 74
     0
 49
-2.54
 74
     0
  0
LTYPE
  5
6E
330
5
100
AcDbSymbolTableRecord
100
AcDbLinetypeTableRecord
  2
DOT2
 70
     0
  3
Dot (.5x) ........................................
 72
    65
 73
     2
 40
0.635
 49
0.0
 74
     0
 49
-0.635
 74
     0
  0
ENDTAB
  0
TABLE
  2
LAYER
  5
2
102
{ACAD_XDICTIONARY
360
1CE
102
}
330
0
100
AcDbSymbolTable
 70
    18
  0
LAYER
  5
10
330
2
100
AcDbSymbolTableRecord
100
AcDbLayerTableRecord
  2
0
 70
     0
 62
     7
  6
Continuous
370
    -3
390
F
  0
LAYER
  5
6F
330
2
100
AcDbSymbolTableRecord
100
AcDbLayerTableRecord
  2
FORMAT
 70
     0
 62
     2
  6
Continuous
370
    -3
390
F
  0
LAYER
  5
70
330
2
100
AcDbSymbolTableRecord
100
AcDbLayerTableRecord
  2
외형선
 70
     0
 62
     4
  6
Continuous
370
    30
390
F
  0
LAYER
  5
71
330
2
100
AcDbSymbolTableRecord
100
AcDbLayerTableRecord
  2
숨은선
 70
     0
 62
     2
  6
HIDDEN
370
    15
390
F
  0
LAYER
  5
72
330
2
100
AcDbSymbolTableRecord
100
AcDbLayerTableRecord
  2
중심선
 70
     0
 62
     1
  6
CENTERX2
370
    -3
390
F
  0
LAYER
  5
73
330
2
100
AcDbSymbolTableRecord
100
AcDbLayerTableRecord
  2
파단선
 70
     0
 62
     4
  6
Continuous
370
    -3
390
F
  0
LAYER
  5
74
330
2
100
AcDbSymbolTableRecord
100
AcDbLayerTableRecord
  2
해칭선
 70
     0
 62
   100
  6
Continuous
370
    -3
390
F
  0
LAYER
  5
75
330
2
100
AcDbSymbolTableRecord
100
AcDbLayerTableRecord
  2
가는실선
 70
     0
 62
     4
  6
Continuous
370
    -3
390
F
  0
LAYER
  5
76
330
2
100
AcDbSymbolTableRecord
100
AcDbLayerTableRecord
  2
치수_보조선
 70
     0
 62
     4
  6
Continuous
370
    -3
390
F
  0
LAYER
  5
77
330
2
100
AcDbSymbolTableRecord
100
AcDbLayerTableRecord
  2
치수문자_일반주서
 70
     0
 62
     7
  6
Continuous
370
    15
390
F
  0
LAYER
  5
78
330
2
100
AcDbSymbolTableRecord
100
AcDbLayerTableRecord
  2
개별주서
 70
     0
 62
   100
  6
Continuous
370
    30
390
F
  0
LAYER
  5
79
330
2
100
AcDbSymbolTableRecord
100
AcDbLayerTableRecord
  2
중간선
 70
     0
 62
     2
  6
Continuous
370
    15
390
F
  0
LAYER
  5
7A
330
2
100
AcDbSymbolTableRecord
100
AcDbLayerTableRecord
  2
윤곽선
 70
     0
 62
     3
  6
Continuous
370
    40
390
F
  0
LAYER
  5
7B
330
2
100
AcDbSymbolTableRecord
100
AcDbLayerTableRecord
  2
중심마크
 70
     0
 62
   100
  6
Continuous
370
    30
390
F
  0
LAYER
  5
7C
330
2
100
AcDbSymbolTableRecord
100
AcDbLayerTableRecord
  2
가상선
 70
     0
 62
     4
  6
PHANTOM
370
    -3
390
F
  0
LAYER
  5
7D
330
2
100
AcDbSymbolTableRecord
100
AcDbLayerTableRecord
  2
특수지정선
 70
     0
 62
     5
  6
CENTERX2
370
    60
390
F
  0
LAYER
  5
7E
330
2
100
AcDbSymbolTableRecord
100
AcDbLayerTableRecord
  2
참조1
 70
     0
 62
    -4
  6
Continuous
370
    -3
390
F
  0
LAYER
  5
149
330
2
100
AcDbSymbolTableRecord
100
AcDbLayerTableRecord
  2
Defpoints
 70
     0
 62
     7
  6
Continuous
290
     0
370
    -3
390
F
  0
ENDTAB
  0
TABLE
  2
STYLE
  5
3
330
0
100
AcDbSymbolTable
 70
     2
  0
STYLE
  5
11
330
3
100
AcDbSymbolTableRecord
100
AcDbTextStyleTableRecord
  2
Standard
 70
     0
 40
0.0
 41
1.0
 50
0.0
 71
     0
 42
3.5
  3
txt
  4

  0
STYLE
  5
94
330
3
100
AcDbSymbolTableRecord
100
AcDbTextStyleTableRecord
  2
SLDTEXTSTYLE0
 70
     0
 40
0.0
 41
0.75
 50
0.0
 71
     0
 42
3.5
  3
TXT
  4

  0
ENDTAB
  0
TABLE
  2
VIEW
  5
6
330
0
100
AcDbSymbolTable
 70
     0
  0
ENDTAB
  0
TABLE
  2
UCS
  5
7
330
0
100
AcDbSymbolTable
 70
     0
  0
ENDTAB
  0
TABLE
  2
APPID
  5
9
330
0
100
AcDbSymbolTable
 70
     1
  0
APPID
  5
12
330
9
100
AcDbSymbolTableRecord
100
AcDbRegAppTableRecord
  2
ACAD
 70
     0
  0
ENDTAB
  0
TABLE
  2
DIMSTYLE
  5
A
330
0
100
AcDbSymbolTable
 70
     4
100
AcDbDimStyleTable
  0
DIMSTYLE
105
27
330
A
100
AcDbSymbolTableRecord
100
AcDbDimStyleTableRecord
  2
ISO-25
 70
     0
 41
2.5
 42
0.625
 43
3.75
 44
1.25
 73
     0
 74
     0
 77
     1
 78
     8
140
2.5
141
2.5
143
0.03937007874016
147
0.625
171
     3
172
     1
178
     0
271
     2
272
     2
274
     3
278
    44
283
     0
284
     8
340
11
  0
DIMSTYLE
105
C6
330
A
100
AcDbSymbolTableRecord
100
AcDbDimStyleTableRecord
  2
SLDDIMSTYLE0
 70
     0
 41
3.302
 44
0.0
 45
0.000000001
 73
     0
 74
     0
 77
     1
 78
     4
 79
     1
140
3.5
143
0.0393700787401575
147
0.875
148
0.000000001
170
     1
173
     1
178
     0
271
     2
272
     2
276
     2
284
    12
340
94
  0
DIMSTYLE
105
EE
330
A
100
AcDbSymbolTableRecord
100
AcDbDimStyleTableRecord
  2
SLDDIMSTYLE1
 70
     0
 41
3.302
 44
0.0
 45
0.000000001
 73
     0
 74
     0
 77
     1
 78
    12
 79
     3
140
3.5
143
0.0393700787401575
147
0.875
148
0.000000001
170
     1
173
     1
178
     0
271
     2
272
     2
276
     2
284
    12
340
94
  0
DIMSTYLE
105
102
102
{ACAD_REACTORS
330
101
330
C5
330
D9
330
ED
102
}
330
A
100
AcDbSymbolTableRecord
100
AcDbDimStyleTableRecord
  2
SLDDIMSTYLE2
 70
     0
 41
3.302
 44
0.0
 45
0.000000001
 73
     0
 74
     0
 77
     1
 78
     4
 79
     1
140
3.5
143
0.0393700787401575
147
0.875
148
0.000000001
170
     1
172
     1
173
     1
178
     0
271
     2
272
     2
276
     2
284
    12
289
     0
340
94
  0
ENDTAB
  0
TABLE
  2
BLOCK_RECORD
  5
1
330
0
100
AcDbSymbolTable
 70
    19
  0
BLOCK_RECORD
  5
1F
330
1
100
AcDbSymbolTableRecord
100
AcDbBlockTableRecord
  2
*Model_Space
340
22
  0
BLOCK_RECORD
  5
1B
330
1
100
AcDbSymbolTableRecord
100
AcDbBlockTableRecord
  2
*Paper_Space
340
1E
  0
BLOCK_RECORD
  5
23
330
1
100
AcDbSymbolTableRecord
100
AcDbBlockTableRecord
  2
*Paper_Space0
340
26
  0
BLOCK_RECORD
  5
7F
330
1
100
AcDbSymbolTableRecord
100
AcDbBlockTableRecord
  2
블럭10
340
0
102
{BLKREFS
331
BE
102
}
  0
BLOCK_RECORD
  5
C7
330
1
100
AcDbSymbolTableRecord
100
AcDbBlockTableRecord
  2
_D
340
0
  0
BLOCK_RECORD
  5
DA
330
1
100
AcDbSymbolTableRecord
100
AcDbBlockTableRecord
  2
_D_1
340
0
  0
BLOCK_RECORD
  5
EF
330
1
100
AcDbSymbolTableRecord
100
AcDbBlockTableRecord
  2
_D_2
340
0
  0
BLOCK_RECORD
  5
103
330
1
100
AcDbSymbolTableRecord
100
AcDbBlockTableRecord
  2
_D_3
340
0
  0
BLOCK_RECORD
  5
11D
330
1
100
AcDbSymbolTableRecord
100
AcDbBlockTableRecord
  2
SW_DOWELSYMBOL_0
340
0
102
{BLKREFS
331
123
102
}
  0
BLOCK_RECORD
  5
1D2
330
1
100
AcDbSymbolTableRecord
100
AcDbBlockTableRecord
  2
*D7
340
0
  0
BLOCK_RECORD
  5
1E1
330
1
100
AcDbSymbolTableRecord
100
AcDbBlockTableRecord
  2
*D8
340
0
  0
BLOCK_RECORD
  5
1F0
330
1
100
AcDbSymbolTableRecord
100
AcDbBlockTableRecord
  2
*D9
340
0
  0
BLOCK_RECORD
  5
229
330
1
100
AcDbSymbolTableRecord
100
AcDbBlockTableRecord
  2
*D10
340
0
  0
BLOCK_RECORD
  5
238
330
1
100
AcDbSymbolTableRecord
100
AcDbBlockTableRecord
  2
*D11
340
0
  0
BLOCK_RECORD
  5
247
330
1
100
AcDbSymbolTableRecord
100
AcDbBlockTableRecord
  2
*D12
340
0
  0
BLOCK_RECORD
  5
2D9
330
1
100
AcDbSymbolTableRecord
100
AcDbBlockTableRecord
  2
*D13
340
0
  0
BLOCK_RECORD
  5
2E8
330
1
100
AcDbSymbolTableRecord
100
AcDbBlockTableRecord
  2
*D14
340
0
  0
BLOCK_RECORD
  5
2F7
330
1
100
AcDbSymbolTableRecord
100
AcDbBlockTableRecord
  2
*D15
340
0
  0
BLOCK_RECORD
  5
328
330
1
100
AcDbSymbolTableRecord
100
AcDbBlockTableRecord
  2
*D16
340
0
  0
BLOCK_RECORD
  5
337
330
1
100
AcDbSymbolTableRecord
100
AcDbBlockTableRecord
  2
*D17
340
0
  0
BLOCK_RECORD
  5
346
330
1
100
AcDbSymbolTableRecord
100
AcDbBlockTableRecord
  2
*D18
340
0
  0
ENDTAB
  0
ENDSEC
  0
SECTION
  2
BLOCKS
  0
BLOCK
  5
20
330
1F
100
AcDbEntity
  8
0
100
AcDbBlockBegin
  2
*Model_Space
 70
     0
 10
0.0
 20
0.0
 30
0.0
  3
*Model_Space
  1
*Model_Space
  0
ENDBLK
  5
21
330
1F
100
AcDbEntity
  8
0
100
AcDbBlockEnd
  0
BLOCK
  5
1C
330
1B
100
AcDbEntity
 67
     1
  8
0
100
AcDbBlockBegin
  2
*Paper_Space
 70
     0
 10
0.0
 20
0.0
 30
0.0
  3
*Paper_Space
  1
*Paper_Space
  0
ENDBLK
  5
1D
330
1B
100
AcDbEntity
 67
     1
  8
0
100
AcDbBlockEnd
  0
BLOCK
  5
24
330
23
100
AcDbEntity
  8
0
100
AcDbBlockBegin
  2
*Paper_Space0
 70
     0
 10
0.0
 20
0.0
 30
0.0
  3
*Paper_Space0
  1
*Paper_Space0
  0
ENDBLK
  5
25
330
23
100
AcDbEntity
  8
0
100
AcDbBlockEnd
  0
BLOCK
  5
80
330
7F
100
AcDbEntity
  8
0
100
AcDbBlockBegin
  2
블럭10
 70
     2
 10
0.0
 20
0.0
 30
0.0
  3
블럭10
  1
블럭10
  0
ELLIPSE
  5
82
330
7F
100
AcDbEntity
  8
중심선
100
AcDbEllipse
 10
20.54032771741204
 20
12.0471743016438
 30
0.0
 11
6.600054785286829
 21
-1.261213355974178E-13
 31
0.0
210
0.0
220
0.0
230
1.0
 40
0.636358354079598
 41
0.9219305317359503
 42
6.513795318482858
  0
ELLIPSE
  5
83
330
7F
100
AcDbEntity
  8
중심선
100
AcDbEllipse
 10
20.54032771746488
 20
12.04717430159265
 30
0.0
 11
3.960054785062283
 21
1.540847449632565E-10
 31
0.0
210
0.0
220
0.0
230
1.0
 40
0.3939339440162632
 41
1.131841032648279
 42
5.62031148352944
  0
LINE
  5
84
330
7F
100
AcDbEntity
  8
중심선
100
AcDbLine
 10
2.268634060543552
 20
16.24717430164393
 30
0.0
 11
5.714909304380834
 21
16.24717430164393
 31
0.0
  0
LINE
  5
85
330
7F
100
AcDbEntity
  8
중심선
100
AcDbLine
 10
5.245725140726316
 20
7.84717430164391
 30
0.0
 11
8.692000384563599
 21
7.84717430164391
 31
0.0
  0
LINE
  5
86
330
7F
100
AcDbEntity
  8
중심선
100
AcDbLine
 10
15.74043728645272
 20
16.24717430164393
 30
0.0
 11
8.692000384563599
 21
7.84717430164391
 31
0.0
  0
LINE
  5
87
330
7F
100
AcDbEntity
  8
중심선
100
AcDbLine
 10
0.1404042013395286
 20
13.71084872107135
 30
0.0
 11
3.58671253028996
 21
13.71088815037384
 31
0.0
  0
LINE
  5
88
330
7F
100
AcDbEntity
  8
중심선
100
AcDbLine
 10
2.750260043222114
 20
10.84717430164391
 30
0.0
 11
6.196535287059397
 21
10.84717430164391
 31
0.0
  0
LINE
  5
89
330
7F
100
AcDbEntity
  8
중심선
100
AcDbLine
 10
12.29416204261559
 20
16.24717430164393
 30
0.0
 11
5.245725140726316
 21
7.84717430164391
 31
0.0
  0
LINE
  5
8A
330
7F
100
AcDbEntity
  8
중심선
100
AcDbLine
 10
10.72767329541681
 20
16.24717430164393
 30
0.0
 11
6.196535287059397
 21
10.84717430164391
 31
0.0
  0
LINE
  5
8B
330
7F
100
AcDbEntity
  8
중심선
100
AcDbLine
 10
7.28139805157953
 20
16.24717430164393
 30
0.0
 11
2.750260043222114
 21
10.84717430164391
 31
0.0
  0
LINE
  5
8C
330
7F
100
AcDbEntity
  8
중심선
100
AcDbLine
 10
5.714909304380834
 20
16.24717430164393
 30
0.0
 11
3.58671253028996
 21
13.71088815037384
 31
0.0
  0
LINE
  5
8D
330
7F
100
AcDbEntity
  8
중심선
100
AcDbLine
 10
2.268634060543552
 20
16.24717430164393
 30
0.0
 11
0.1404042013395286
 21
13.71084872107135
 31
0.0
  0
LINE
  5
8E
330
7F
100
AcDbEntity
  8
중심선
100
AcDbLine
 10
7.28139805157953
 20
16.24717430164393
 30
0.0
 11
10.72767329541681
 21
16.24717430164393
 31
0.0
  0
LINE
  5
8F
330
7F
100
AcDbEntity
  8
중심선
100
AcDbLine
 10
12.29416204261559
 20
16.24717430164393
 30
0.0
 11
15.74043728645272
 21
16.24717430164393
 31
0.0
  0
LINE
  5
90
330
7F
100
AcDbEntity
  8
중심선
100
AcDbLine
 10
19.22036997980202
 20
11.08717430171403
 30
0.0
 11
23.66174974927406
 21
11.08717430171406
 31
0.0
  0
LINE
  5
91
330
7F
100
AcDbEntity
  8
중심선
100
AcDbLine
 10
19.22039502424796
 20
13.00717430171391
 30
0.0
 11
19.22036997980202
 21
11.08717430171403
 31
0.0
  0
LINE
  5
92
330
7F
100
AcDbEntity
  8
중심선
100
AcDbLine
 10
19.22039502424796
 20
13.00717430171391
 30
0.0
 11
26.96566020931264
 21
13.00717430171391
 31
0.0
  0
LINE
  5
93
330
7F
100
AcDbEntity
  8
중심선
100
AcDbLine
 10
22.22332737316547
 20
13.45928029700563
 30
0.0
 11
24.52862924686651
 21
15.39360700705356
 31
0.0
  0
ATTDEF
  5
95
330
7F
100
AcDbEntity
  8
FORMAT
 62
     2
100
AcDbText
 10
4.408487351596664
 20
2.075366912832191
 30
0.0
 40
4.233333333333333
  1
E1053032
 41
0.75
  7
SLDTEXTSTYLE0
 11
4.408487351596664
 21
-0.0412997538344756
 31
0.0
100
AcDbAttributeDefinition
  3

  2
AUTOATTR0
 70
     0
 74
     1
  0
ENDBLK
  5
81
330
7F
100
AcDbEntity
  8
0
100
AcDbBlockEnd
  0
BLOCK
  5
C8
330
C7
100
AcDbEntity
  8
0
100
AcDbBlockBegin
  2
_D
 70
     0
 10
0.0
 20
0.0
 30
0.0
  3
_D
  1
_D
  0
LINE
  5
CA
330
C7
100
AcDbEntity
  8
치수문자_일반주서
 62
     0
370
    -2
100
AcDbLine
 10
52.44999999999998
 20
6.350000000000006
 30
0.0
 11
69.45477211386624
 21
6.350000000000069
 31
0.0
  0
LINE
  5
CB
330
C7
100
AcDbEntity
  8
치수문자_일반주서
 62
     0
370
    -2
100
AcDbLine
 10
52.44999999999998
 20
-6.349999999999993
 30
0.0
 11
69.45477211386628
 21
-6.349999999999927
 31
0.0
  0
LINE
  5
CC
330
C7
100
AcDbEntity
  8
치수문자_일반주서
 62
     0
370
    -2
100
AcDbLine
 10
69.45477211386624
 20
6.350000000000069
 30
0.0
 11
69.45477211386613
 21
39.86025000000006
 31
0.0
  0
LINE
  5
CD
330
C7
100
AcDbEntity
  8
치수문자_일반주서
 62
     0
370
    -2
100
AcDbLine
 10
69.45477211386624
 20
6.350000000000069
 30
0.0
 11
69.45477211386628
 21
-6.349999999999927
 31
0.0
  0
LINE
  5
CE
330
C7
100
AcDbEntity
  8
치수문자_일반주서
 62
     0
370
    -2
100
AcDbLine
 10
69.45477211386623
 20
9.652000000000069
 30
0.0
 11
69.45477211386621
 21
12.95400000000007
 31
0.0
  0
LINE
  5
CF
330
C7
100
AcDbEntity
  8
치수문자_일반주서
 62
     0
370
    -2
100
AcDbLine
 10
69.4547721138663
 20
-9.651999999999926
 30
0.0
 11
69.45477211386631
 21
-12.95399999999993
 31
0.0
  0
SOLID
  5
D0
330
C7
100
AcDbEntity
  8
치수문자_일반주서
 62
     0
100
AcDbTrace
 10
68.9044387805329
 20
9.652000000000067
 30
0.0
 11
70.00510544719955
 21
9.65200000000007
 31
0.0
 12
69.45477211386624
 22
6.350000000000069
 32
0.0
 13
69.45477211386624
 23
6.350000000000069
 33
0.0
  0
SOLID
  5
D1
330
C7
100
AcDbEntity
  8
치수문자_일반주서
 62
     0
100
AcDbTrace
 10
70.00510544719963
 20
-9.651999999999925
 30
0.0
 11
68.90443878053297
 21
-9.651999999999928
 31
0.0
 12
69.45477211386628
 22
-6.349999999999927
 32
0.0
 13
69.45477211386628
 23
-6.349999999999927
 33
0.0
  0
MTEXT
  5
D2
330
C7
100
AcDbEntity
  8
치수문자_일반주서
 62
     0
100
AcDbMText
 10
65.07977211386617
 20
26.51650000000005
 30
0.0
 40
3.5
 41
0.0
 71
     2
 72
     1
  1
\A1;%%c12.70 [1/2]
  7
SLDTEXTSTYLE0
 11
-3.356894814614647E-15
 21
1.0
 31
0.0
 73
     1
 44
1.0
  0
POINT
  5
D3
330
C7
100
AcDbEntity
  8
Defpoints
 62
     0
100
AcDbPoint
 10
52.38749999999998
 20
6.350000000000006
 30
0.0
  0
POINT
  5
253
330
C7
100
AcDbEntity
  8
Defpoints
 62
     0
100
AcDbPoint
 10
52.38749999999998
 20
-6.349999999999993
 30
0.0
  0
POINT
  5
254
330
C7
100
AcDbEntity
  8
Defpoints
 62
     0
100
AcDbPoint
 10
69.45477211386628
 20
-6.349999999999929
 30
0.0
  0
ENDBLK
  5
C9
330
C7
100
AcDbEntity
  8
0
100
AcDbBlockEnd
  0
BLOCK
  5
DB
330
DA
100
AcDbEntity
  8
0
100
AcDbBlockBegin
  2
_D_1
 70
     0
 10
0.0
 20
0.0
 30
0.0
  3
_D_1
  1
_D_1
  0
LINE
  5
DD
330
DA
100
AcDbEntity
  8
치수문자_일반주서
 62
     0
370
    -2
100
AcDbLine
 10
52.38749999999998
 20
6.412500000000006
 30
0.0
 11
52.38749999999998
 21
16.2257583243767
 31
0.0
  0
LINE
  5
DE
330
DA
100
AcDbEntity
  8
치수문자_일반주서
 62
     0
370
    -2
100
AcDbLine
 10
26.9875
 20
5.925089607614283
 30
0.0
 11
26.9875
 21
16.2257583243767
 31
0.0
  0
LINE
  5
DF
330
DA
100
AcDbEntity
  8
치수문자_일반주서
 62
     0
370
    -2
100
AcDbLine
 10
26.9875
 20
16.2257583243767
 30
0.0
 11
0.695999999999998
 21
16.2257583243767
 31
0.0
  0
LINE
  5
E0
330
DA
100
AcDbEntity
  8
치수문자_일반주서
 62
     0
370
    -2
100
AcDbLine
 10
52.38749999999998
 20
16.2257583243767
 30
0.0
 11
26.9875
 21
16.2257583243767
 31
0.0
  0
LINE
  5
E1
330
DA
100
AcDbEntity
  8
치수문자_일반주서
 62
     0
370
    -2
100
AcDbLine
 10
55.68949999999998
 20
16.2257583243767
 30
0.0
 11
58.99149999999998
 21
16.2257583243767
 31
0.0
  0
LINE
  5
E2
330
DA
100
AcDbEntity
  8
치수문자_일반주서
 62
     0
370
    -2
100
AcDbLine
 10
23.6855
 20
16.2257583243767
 30
0.0
 11
20.3835
 21
16.2257583243767
 31
0.0
  0
SOLID
  5
E3
330
DA
100
AcDbEntity
  8
치수문자_일반주서
 62
     0
100
AcDbTrace
 10
55.68949999999998
 20
16.77609165771003
 30
0.0
 11
55.68949999999998
 21
15.67542499104337
 31
0.0
 12
52.38749999999998
 22
16.2257583243767
 32
0.0
 13
52.38749999999998
 23
16.2257583243767
 33
0.0
  0
SOLID
  5
E4
330
DA
100
AcDbEntity
  8
치수문자_일반주서
 62
     0
100
AcDbTrace
 10
23.6855
 20
15.67542499104337
 30
0.0
 11
23.6855
 21
16.77609165771003
 31
0.0
 12
26.9875
 22
16.2257583243767
 32
0.0
 13
26.9875
 23
16.2257583243767
 33
0.0
  0
MTEXT
  5
E5
330
DA
100
AcDbEntity
  8
치수문자_일반주서
 62
     0
100
AcDbMText
 10
10.53975
 20
20.6007583243767
 30
0.0
 40
3.5
 41
0.0
 71
     2
 72
     1
  1
\A1;25.40 [1]
  7
SLDTEXTSTYLE0
 73
     1
 44
1.0
  0
POINT
  5
E6
330
DA
100
AcDbEntity
  8
Defpoints
 62
     0
100
AcDbPoint
 10
52.38749999999998
 20
6.350000000000006
 30
0.0
  0
POINT
  5
255
330
DA
100
AcDbEntity
  8
Defpoints
 62
     0
100
AcDbPoint
 10
26.9875
 20
5.862589607614283
 30
0.0
  0
POINT
  5
256
330
DA
100
AcDbEntity
  8
Defpoints
 62
     0
100
AcDbPoint
 10
26.9875
 20
16.2257583243767
 30
0.0
  0
ENDBLK
  5
DC
330
DA
100
AcDbEntity
  8
0
100
AcDbBlockEnd
  0
BLOCK
  5
F0
330
EF
100
AcDbEntity
  8
0
100
AcDbBlockBegin
  2
_D_2
 70
     0
 10
0.0
 20
0.0
 30
0.0
  3
_D_2
  1
_D_2
  0
LINE
  5
F2
330
EF
100
AcDbEntity
  8
치수문자_일반주서
 62
     0
370
    -2
100
AcDbLine
 10
52.38749999999998
 20
6.412500000000006
 30
0.0
 11
52.38749999999998
 21
31.18478315417985
 31
0.0
  0
LINE
  5
F3
330
EF
100
AcDbEntity
  8
치수문자_일반주서
 62
     0
370
    -2
100
AcDbLine
 10
-52.38749999999995
 20
6.412499999999997
 30
0.0
 11
-52.38749999999995
 21
31.18478315417985
 31
0.0
  0
LINE
  5
F4
330
EF
100
AcDbEntity
  8
치수문자_일반주서
 62
     0
370
    -2
100
AcDbLine
 10
49.08549999999998
 20
31.18478315417985
 30
0.0
 11
-49.08549999999995
 21
31.18478315417985
 31
0.0
  0
SOLID
  5
F5
330
EF
100
AcDbEntity
  8
치수문자_일반주서
 62
     0
100
AcDbTrace
 10
49.08549999999998
 20
30.63444982084652
 30
0.0
 11
49.08549999999998
 21
31.73511648751319
 31
0.0
 12
52.38749999999998
 22
31.18478315417985
 32
0.0
 13
52.38749999999998
 23
31.18478315417985
 33
0.0
  0
SOLID
  5
F6
330
EF
100
AcDbEntity
  8
치수문자_일반주서
 62
     0
100
AcDbTrace
 10
-49.08549999999995
 20
31.73511648751319
 30
0.0
 11
-49.08549999999995
 21
30.63444982084652
 31
0.0
 12
-52.38749999999995
 22
31.18478315417985
 32
0.0
 13
-52.38749999999995
 23
31.18478315417985
 33
0.0
  0
MTEXT
  5
F7
330
EF
100
AcDbEntity
  8
치수문자_일반주서
 62
     0
100
AcDbMText
 10
2.934853189847921
 20
35.55978315417985
 30
0.0
 40
3.5
 41
0.0
 71
     2
 72
     1
  1
\A1;104.78 [4 1/8]
  7
SLDTEXTSTYLE0
 73
     1
 44
1.0
  0
POINT
  5
F8
330
EF
100
AcDbEntity
  8
Defpoints
 62
     0
100
AcDbPoint
 10
52.38749999999998
 20
6.350000000000006
 30
0.0
  0
POINT
  5
F9
330
EF
100
AcDbEntity
  8
Defpoints
 62
     0
100
AcDbPoint
 10
-52.38749999999995
 20
6.349999999999997
 30
0.0
  0
POINT
  5
FA
330
EF
100
AcDbEntity
  8
Defpoints
 62
     0
100
AcDbPoint
 10
-52.38749999999995
 20
31.18478315417985
 30
0.0
  0
ENDBLK
  5
F1
330
EF
100
AcDbEntity
  8
0
100
AcDbBlockEnd
  0
BLOCK
  5
104
330
103
100
AcDbEntity
  8
0
100
AcDbBlockBegin
  2
_D_3
 70
     0
 10
0.0
 20
0.0
 30
0.0
  3
_D_3
  1
_D_3
  0
LINE
  5
106
330
103
100
AcDbEntity
  8
치수문자_일반주서
 62
     0
370
    -2
100
AcDbLine
 10
-52.44999999999995
 20
6.349999999999997
 30
0.0
 11
-64.59375000000004
 21
6.349999999999952
 31
0.0
  0
LINE
  5
107
330
103
100
AcDbEntity
  8
치수문자_일반주서
 62
     0
370
    -2
100
AcDbLine
 10
-52.44999999999995
 20
-6.349999999999992
 30
0.0
 11
-64.59375
 21
-6.350000000000037
 31
0.0
  0
LINE
  5
108
330
103
100
AcDbEntity
  8
치수문자_일반주서
 62
     0
370
    -2
100
AcDbLine
 10
-64.59375000000003
 20
3.047999999999952
 30
0.0
 11
-64.59375000000001
 21
-3.048000000000037
 31
0.0
  0
SOLID
  5
109
330
103
100
AcDbEntity
  8
치수문자_일반주서
 62
     0
100
AcDbTrace
 10
-64.0434166666667
 20
3.047999999999953
 30
0.0
 11
-65.14408333333336
 21
3.04799999999995
 31
0.0
 12
-64.59375000000004
 22
6.349999999999952
 32
0.0
 13
-64.59375000000004
 23
6.349999999999952
 33
0.0
  0
SOLID
  5
10A
330
103
100
AcDbEntity
  8
치수문자_일반주서
 62
     0
100
AcDbTrace
 10
-65.14408333333334
 20
-3.048000000000039
 30
0.0
 11
-64.04341666666669
 21
-3.048000000000035
 31
0.0
 12
-64.59375
 22
-6.350000000000037
 32
0.0
 13
-64.59375
 23
-6.350000000000037
 33
0.0
  0
MTEXT
  5
10B
330
103
100
AcDbEntity
  8
치수문자_일반주서
 62
     0
100
AcDbMText
 10
-68.96875000000003
 20
-0.0000000000000232
 30
0.0
 40
3.5
 41
0.0
 71
     2
 72
     1
  1
\A1;%%c12.70 [1/2]
  7
SLDTEXTSTYLE0
 11
-3.356894814614650E-15
 21
1.0
 31
0.0
 73
     1
 44
1.0
  0
POINT
  5
10C
330
103
100
AcDbEntity
  8
Defpoints
 62
     0
100
AcDbPoint
 10
-52.38749999999995
 20
6.349999999999997
 30
0.0
  0
POINT
  5
10D
330
103
100
AcDbEntity
  8
Defpoints
 62
     0
100
AcDbPoint
 10
-52.38749999999995
 20
-6.349999999999992
 30
0.0
  0
POINT
  5
10E
330
103
100
AcDbEntity
  8
Defpoints
 62
     0
100
AcDbPoint
 10
-64.59375
 20
-6.350000000000037
 30
0.0
  0
ENDBLK
  5
105
330
103
100
AcDbEntity
  8
0
100
AcDbBlockEnd
  0
BLOCK
  5
11E
330
11D
100
AcDbEntity
  8
0
100
AcDbBlockBegin
  2
SW_DOWELSYMBOL_0
 70
     0
 10
0.0
 20
0.0
 30
0.0
  3
SW_DOWELSYMBOL_0
  1
SW_DOWELSYMBOL_0
  0
CIRCLE
  5
120
330
11D
100
AcDbEntity
  8
해칭선
 62
     0
100
AcDbCircle
 10
0.0
 20
0.0
 30
0.0
 40
3.000000000000008
  0
HATCH
  5
121
330
11D
100
AcDbEntity
  8
0
  6
Continuous
 62
     0
370
     0
100
AcDbHatch
 10
0.0
 20
0.0
 30
0.0
210
0.0
220
0.0
230
1.0
  2
SOLID
 70
     1
 71
     0
 91
        1
 92
        0
 93
        3
 72
     2
 10
0.0
 20
0.0
 40
3.000000000000008
 50
0.0
 51
90.0
 73
     1
 72
     1
 10
0.0
 20
3.000000000000008
 11
0.0
 21
0.0
 72
     1
 10
0.0
 20
0.0
 11
3.00000000000001
 21
0.0
 97
        0
 75
     0
 76
     1
 98
        1
 10
0.0
 20
0.0
  0
HATCH
  5
122
330
11D
100
AcDbEntity
  8
0
  6
Continuous
 62
     0
370
     0
100
AcDbHatch
 10
0.0
 20
0.0
 30
0.0
210
0.0
220
0.0
230
1.0
  2
SOLID
 70
     1
 71
     0
 91
        1
 92
        0
 93
        3
 72
     2
 10
0.0
 20
0.0
 40
3.000000000000008
 50
180.0
 51
270.0000000000007
 73
     1
 72
     1
 10
0.0
 20
-3.000000000000008
 11
0.0
 21
0.0
 72
     1
 10
0.0
 20
0.0
 11
-3.00000000000001
 21
0.0
 97
        0
 75
     0
 76
     1
 98
        1
 10
0.0
 20
0.0
  0
ENDBLK
  5
11F
330
11D
100
AcDbEntity
  8
0
100
AcDbBlockEnd
  0
BLOCK
  5
1D3
330
1D2
100
AcDbEntity
  8
0
100
AcDbBlockBegin
  2
*D7
 70
     1
 10
0.0
 20
0.0
 30
0.0
  3
*D7
  1
*D8
  0
LINE
  5
1D5
330
1D2
100
AcDbEntity
  8
치수문자_일반주서
 62
     0
370
    -2
100
AcDbLine
 10
107.8375
 20
18.90712499999994
 30
0.0
 11
122.7467355291977
 21
18.90712499999999
 31
0.0
  0
LINE
  5
1D6
330
1D2
100
AcDbEntity
  8
치수문자_일반주서
 62
     0
370
    -2
100
AcDbLine
 10
107.8375
 20
6.60399999999994
 30
0.0
 11
122.7467355291977
 21
6.603999999999992
 31
0.0
  0
LINE
  5
1D7
330
1D2
100
AcDbEntity
  8
치수문자_일반주서
 62
     0
370
    -2
100
AcDbLine
 10
122.7467355291977
 20
18.90712499999999
 30
0.0
 11
122.7467355291976
 21
57.667375
 31
0.0
  0
LINE
  5
1D8
330
1D2
100
AcDbEntity
  8
치수문자_일반주서
 62
     0
370
    -2
100
AcDbLine
 10
122.7467355291977
 20
18.90712499999999
 30
0.0
 11
122.7467355291977
 21
6.603999999999992
 31
0.0
  0
LINE
  5
1D9
330
1D2
100
AcDbEntity
  8
치수문자_일반주서
 62
     0
370
    -2
100
AcDbLine
 10
122.7467355291977
 20
22.20912499999999
 30
0.0
 11
122.7467355291977
 21
25.51112499999999
 31
0.0
  0
LINE
  5
1DA
330
1D2
100
AcDbEntity
  8
치수문자_일반주서
 62
     0
370
    -2
100
AcDbLine
 10
122.7467355291977
 20
3.301999999999992
 30
0.0
 11
122.7467355291978
 21
-0.0000000000000071
 31
0.0
  0
SOLID
  5
1DB
330
1D2
100
AcDbEntity
  8
치수문자_일반주서
 62
     0
100
AcDbTrace
 10
122.1964021958644
 20
22.20912499999999
 30
0.0
 11
123.297068862531
 21
22.209125
 31
0.0
 12
122.7467355291977
 22
18.90712499999999
 32
0.0
 13
122.7467355291977
 23
18.90712499999999
 33
0.0
  0
SOLID
  5
1DC
330
1D2
100
AcDbEntity
  8
치수문자_일반주서
 62
     0
100
AcDbTrace
 10
123.2970688625311
 20
3.301999999999994
 30
0.0
 11
122.1964021958644
 21
3.301999999999991
 31
0.0
 12
122.7467355291977
 22
6.603999999999992
 32
0.0
 13
122.7467355291977
 23
6.603999999999992
 33
0.0
  0
MTEXT
  5
1DD
330
1D2
100
AcDbEntity
  8
치수문자_일반주서
 62
     0
100
AcDbMText
 10
118.3717355291976
 20
41.69862499999998
 30
0.0
 40
3.5
 41
0.0
 71
     2
 72
     1
  1
\A1;%%c12.30 [31/64]
  7
SLDTEXTSTYLE0
 11
-3.465181744118346E-15
 21
1.0
 31
0.0
 73
     1
 44
1.0
  0
POINT
  5
1DE
330
1D2
100
AcDbEntity
  8
Defpoints
 62
     0
100
AcDbPoint
 10
107.775
 20
18.90712499999994
 30
0.0
  0
POINT
  5
1DF
330
1D2
100
AcDbEntity
  8
Defpoints
 62
     0
100
AcDbPoint
 10
107.775
 20
6.60399999999994
 30
0.0
  0
POINT
  5
1E0
330
1D2
100
AcDbEntity
  8
Defpoints
 62
     0
100
AcDbPoint
 10
122.7467355291977
 20
6.603999999999996
 30
0.0
  0
ENDBLK
  5
1D4
330
1D2
100
AcDbEntity
  8
0
100
AcDbBlockEnd
  0
BLOCK
  5
1E2
330
1E1
100
AcDbEntity
  8
0
100
AcDbBlockBegin
  2
*D8
 70
     1
 10
0.0
 20
0.0
 30
0.0
  3
*D8
  1
*D9
  0
LINE
  5
1E4
330
1E1
100
AcDbEntity
  8
치수문자_일반주서
 62
     0
370
    -2
100
AcDbLine
 10
107.775
 20
18.96962499999994
 30
0.0
 11
107.775
 21
30.56717576165575
 31
0.0
  0
LINE
  5
1E5
330
1E1
100
AcDbEntity
  8
치수문자_일반주서
 62
     0
370
    -2
100
AcDbLine
 10
82.375
 20
18.65765309701465
 30
0.0
 11
82.375
 21
30.56717576165575
 31
0.0
  0
LINE
  5
1E6
330
1E1
100
AcDbEntity
  8
치수문자_일반주서
 62
     0
370
    -2
100
AcDbLine
 10
82.375
 20
30.56717576165575
 30
0.0
 11
52.74860908594664
 21
30.56717576165575
 31
0.0
  0
LINE
  5
1E7
330
1E1
100
AcDbEntity
  8
치수문자_일반주서
 62
     0
370
    -2
100
AcDbLine
 10
107.775
 20
30.56717576165575
 30
0.0
 11
82.375
 21
30.56717576165575
 31
0.0
  0
LINE
  5
1E8
330
1E1
100
AcDbEntity
  8
치수문자_일반주서
 62
     0
370
    -2
100
AcDbLine
 10
111.077
 20
30.56717576165575
 30
0.0
 11
114.379
 21
30.56717576165575
 31
0.0
  0
LINE
  5
1E9
330
1E1
100
AcDbEntity
  8
치수문자_일반주서
 62
     0
370
    -2
100
AcDbLine
 10
79.07300000000001
 20
30.56717576165575
 30
0.0
 11
75.77100000000002
 21
30.56717576165575
 31
0.0
  0
SOLID
  5
1EA
330
1E1
100
AcDbEntity
  8
치수문자_일반주서
 62
     0
100
AcDbTrace
 10
111.077
 20
31.11750909498908
 30
0.0
 11
111.077
 21
30.01684242832241
 31
0.0
 12
107.775
 22
30.56717576165575
 32
0.0
 13
107.775
 23
30.56717576165575
 33
0.0
  0
SOLID
  5
1EB
330
1E1
100
AcDbEntity
  8
치수문자_일반주서
 62
     0
100
AcDbTrace
 10
79.07300000000001
 20
30.01684242832241
 30
0.0
 11
79.07300000000001
 21
31.11750909498908
 31
0.0
 12
82.375
 22
30.56717576165575
 32
0.0
 13
82.375
 23
30.56717576165575
 33
0.0
  0
MTEXT
  5
1EC
330
1E1
100
AcDbEntity
  8
치수문자_일반주서
 62
     0
100
AcDbMText
 10
62.59235908594664
 20
34.94217576165575
 30
0.0
 40
3.5
 41
0.0
 71
     2
 72
     1
  1
\A1;25.40 [1]
  7
SLDTEXTSTYLE0
 73
     1
 44
1.0
  0
POINT
  5
1ED
330
1E1
100
AcDbEntity
  8
Defpoints
 62
     0
100
AcDbPoint
 10
107.775
 20
18.90712499999994
 30
0.0
  0
POINT
  5
1EE
330
1E1
100
AcDbEntity
  8
Defpoints
 62
     0
100
AcDbPoint
 10
82.375
 20
18.59515309701465
 30
0.0
  0
POINT
  5
1EF
330
1E1
100
AcDbEntity
  8
Defpoints
 62
     0
100
AcDbPoint
 10
82.375
 20
30.56717576165575
 30
0.0
  0
ENDBLK
  5
1E3
330
1E1
100
AcDbEntity
  8
0
100
AcDbBlockEnd
  0
BLOCK
  5
1F1
330
1F0
100
AcDbEntity
  8
0
100
AcDbBlockBegin
  2
*D9
 70
     1
 10
0.0
 20
0.0
 30
0.0
  3
*D9
  1
*D10
  0
LINE
  5
1F3
330
1F0
100
AcDbEntity
  8
치수문자_일반주서
 62
     0
370
    -2
100
AcDbLine
 10
107.775
 20
18.96962499999994
 30
0.0
 11
107.775
 21
43.29826072319034
 31
0.0
  0
LINE
  5
1F4
330
1F0
100
AcDbEntity
  8
치수문자_일반주서
 62
     0
370
    -2
100
AcDbLine
 10
3.000000000000007
 20
17.89806249999993
 30
0.0
 11
2.999999999999993
 21
43.29826072319034
 31
0.0
  0
LINE
  5
1F5
330
1F0
100
AcDbEntity
  8
치수문자_일반주서
 62
     0
370
    -2
100
AcDbLine
 10
104.473
 20
43.29826072319034
 30
0.0
 11
6.301999999999992
 21
43.29826072319034
 31
0.0
  0
SOLID
  5
1F6
330
1F0
100
AcDbEntity
  8
치수문자_일반주서
 62
     0
100
AcDbTrace
 10
104.473
 20
42.747927389857
 30
0.0
 11
104.473
 21
43.84859405652367
 31
0.0
 12
107.775
 22
43.29826072319034
 32
0.0
 13
107.775
 23
43.29826072319034
 33
0.0
  0
SOLID
  5
1F7
330
1F0
100
AcDbEntity
  8
치수문자_일반주서
 62
     0
100
AcDbTrace
 10
6.301999999999992
 20
43.84859405652367
 30
0.0
 11
6.301999999999992
 21
42.747927389857
 31
0.0
 12
2.999999999999993
 22
43.29826072319034
 32
0.0
 13
2.999999999999993
 23
43.29826072319034
 33
0.0
  0
MTEXT
  5
1F8
330
1F0
100
AcDbEntity
  8
치수문자_일반주서
 62
     0
100
AcDbMText
 10
56.8633708532561
 20
47.67326072319034
 30
0.0
 40
3.5
 41
0.0
 71
     2
 72
     1
  1
\A1;104.78 [4 1/8]
  7
SLDTEXTSTYLE0
 73
     1
 44
1.0
  0
POINT
  5
1F9
330
1F0
100
AcDbEntity
  8
Defpoints
 62
     0
100
AcDbPoint
 10
107.775
 20
18.90712499999994
 30
0.0
  0
POINT
  5
1FA
330
1F0
100
AcDbEntity
  8
Defpoints
 62
     0
100
AcDbPoint
 10
3.000000000000007
 20
17.83556249999993
 30
0.0
  0
POINT
  5
1FB
330
1F0
100
AcDbEntity
  8
Defpoints
 62
     0
100
AcDbPoint
 10
3.000000000000007
 20
43.29826072319034
 30
0.0
  0
ENDBLK
  5
1F2
330
1F0
100
AcDbEntity
  8
0
100
AcDbBlockEnd
  0
BLOCK
  5
22A
330
229
100
AcDbEntity
  8
0
100
AcDbBlockBegin
  2
*D10
 70
     1
 10
0.0
 20
0.0
 30
0.0
  3
*D10
  1
*D11
  0
LINE
  5
22C
330
229
100
AcDbEntity
  8
치수문자_일반주서
 62
     0
370
    -2
100
AcDbLine
 10
196.151439183857
 20
-34.05948851284003
 30
0.0
 11
211.0606747130547
 21
-34.05948851283998
 31
0.0
  0
LINE
  5
22D
330
229
100
AcDbEntity
  8
치수문자_일반주서
 62
     0
370
    -2
100
AcDbLine
 10
196.151439183857
 20
-46.36261351284003
 30
0.0
 11
211.0606747130548
 21
-46.36261351283997
 31
0.0
  0
LINE
  5
22E
330
229
100
AcDbEntity
  8
치수문자_일반주서
 62
     0
370
    -2
100
AcDbLine
 10
211.0606747130547
 20
-34.05948851283998
 30
0.0
 11
211.0606747130545
 21
4.700761487160023
 31
0.0
  0
LINE
  5
22F
330
229
100
AcDbEntity
  8
치수문자_일반주서
 62
     0
370
    -2
100
AcDbLine
 10
211.0606747130547
 20
-34.05948851283998
 30
0.0
 11
211.0606747130548
 21
-46.36261351283997
 31
0.0
  0
LINE
  5
230
330
229
100
AcDbEntity
  8
치수문자_일반주서
 62
     0
370
    -2
100
AcDbLine
 10
211.0606747130547
 20
-30.75748851283998
 30
0.0
 11
211.0606747130547
 21
-27.45548851283998
 31
0.0
  0
LINE
  5
231
330
229
100
AcDbEntity
  8
치수문자_일반주서
 62
     0
370
    -2
100
AcDbLine
 10
211.0606747130548
 20
-49.66461351283997
 30
0.0
 11
211.0606747130548
 21
-52.96661351283997
 31
0.0
  0
SOLID
  5
232
330
229
100
AcDbEntity
  8
치수문자_일반주서
 62
     0
100
AcDbTrace
 10
210.5103413797214
 20
-30.75748851283998
 30
0.0
 11
211.611008046388
 21
-30.75748851283997
 31
0.0
 12
211.0606747130547
 22
-34.05948851283998
 32
0.0
 13
211.0606747130547
 23
-34.05948851283998
 33
0.0
  0
SOLID
  5
233
330
229
100
AcDbEntity
  8
치수문자_일반주서
 62
     0
100
AcDbTrace
 10
211.6110080463881
 20
-49.66461351283997
 30
0.0
 11
210.5103413797215
 21
-49.66461351283997
 31
0.0
 12
211.0606747130548
 22
-46.36261351283997
 32
0.0
 13
211.0606747130548
 23
-46.36261351283997
 33
0.0
  0
MTEXT
  5
234
330
229
100
AcDbEntity
  8
치수문자_일반주서
 62
     0
100
AcDbMText
 10
206.6856747130546
 20
-11.26798851284
 30
0.0
 40
3.5
 41
0.0
 71
     2
 72
     1
  1
\A1;%%c12.30 [31/64]
  7
SLDTEXTSTYLE0
 11
-4.620242325491129E-15
 21
1.0
 31
0.0
 73
     1
 44
1.0
  0
POINT
  5
235
330
229
100
AcDbEntity
  8
Defpoints
 62
     0
100
AcDbPoint
 10
196.088939183857
 20
-34.05948851284003
 30
0.0
  0
POINT
  5
236
330
229
100
AcDbEntity
  8
Defpoints
 62
     0
100
AcDbPoint
 10
196.088939183857
 20
-46.36261351284003
 30
0.0
  0
POINT
  5
237
330
229
100
AcDbEntity
  8
Defpoints
 62
     0
100
AcDbPoint
 10
211.0606747130547
 20
-46.36261351283997
 30
0.0
  0
ENDBLK
  5
22B
330
229
100
AcDbEntity
  8
0
100
AcDbBlockEnd
  0
BLOCK
  5
239
330
238
100
AcDbEntity
  8
0
100
AcDbBlockBegin
  2
*D11
 70
     1
 10
0.0
 20
0.0
 30
0.0
  3
*D11
  1
*D12
  0
LINE
  5
23B
330
238
100
AcDbEntity
  8
치수문자_일반주서
 62
     0
370
    -2
100
AcDbLine
 10
196.088939183857
 20
-33.99698851284003
 30
0.0
 11
196.088939183857
 21
-22.39943775118422
 31
0.0
  0
LINE
  5
23C
330
238
100
AcDbEntity
  8
치수문자_일반주서
 62
     0
370
    -2
100
AcDbLine
 10
170.688939183857
 20
-34.30896041582533
 30
0.0
 11
170.688939183857
 21
-22.39943775118422
 31
0.0
  0
LINE
  5
23D
330
238
100
AcDbEntity
  8
치수문자_일반주서
 62
     0
370
    -2
100
AcDbLine
 10
170.688939183857
 20
-22.39943775118422
 30
0.0
 11
141.0625482698036
 21
-22.39943775118422
 31
0.0
  0
LINE
  5
23E
330
238
100
AcDbEntity
  8
치수문자_일반주서
 62
     0
370
    -2
100
AcDbLine
 10
196.088939183857
 20
-22.39943775118422
 30
0.0
 11
170.688939183857
 21
-22.39943775118422
 31
0.0
  0
LINE
  5
23F
330
238
100
AcDbEntity
  8
치수문자_일반주서
 62
     0
370
    -2
100
AcDbLine
 10
199.3909391838569
 20
-22.39943775118422
 30
0.0
 11
202.6929391838569
 21
-22.39943775118422
 31
0.0
  0
LINE
  5
240
330
238
100
AcDbEntity
  8
치수문자_일반주서
 62
     0
370
    -2
100
AcDbLine
 10
167.386939183857
 20
-22.39943775118422
 30
0.0
 11
164.084939183857
 21
-22.39943775118422
 31
0.0
  0
SOLID
  5
241
330
238
100
AcDbEntity
  8
치수문자_일반주서
 62
     0
100
AcDbTrace
 10
199.3909391838569
 20
-21.84910441785089
 30
0.0
 11
199.3909391838569
 21
-22.94977108451756
 31
0.0
 12
196.088939183857
 22
-22.39943775118422
 32
0.0
 13
196.088939183857
 23
-22.39943775118422
 33
0.0
  0
SOLID
  5
242
330
238
100
AcDbEntity
  8
치수문자_일반주서
 62
     0
100
AcDbTrace
 10
167.386939183857
 20
-22.94977108451756
 30
0.0
 11
167.386939183857
 21
-21.84910441785089
 31
0.0
 12
170.688939183857
 22
-22.39943775118422
 32
0.0
 13
170.688939183857
 23
-22.39943775118422
 33
0.0
  0
MTEXT
  5
243
330
238
100
AcDbEntity
  8
치수문자_일반주서
 62
     0
100
AcDbMText
 10
150.9062982698036
 20
-18.02443775118422
 30
0.0
 40
3.5
 41
0.0
 71
     2
 72
     1
  1
\A1;25.40 [1]
  7
SLDTEXTSTYLE0
 73
     1
 44
1.0
  0
POINT
  5
244
330
238
100
AcDbEntity
  8
Defpoints
 62
     0
100
AcDbPoint
 10
196.088939183857
 20
-34.05948851284003
 30
0.0
  0
POINT
  5
245
330
238
100
AcDbEntity
  8
Defpoints
 62
     0
100
AcDbPoint
 10
170.688939183857
 20
-34.37146041582533
 30
0.0
  0
POINT
  5
246
330
238
100
AcDbEntity
  8
Defpoints
 62
     0
100
AcDbPoint
 10
170.688939183857
 20
-22.39943775118422
 30
0.0
  0
ENDBLK
  5
23A
330
238
100
AcDbEntity
  8
0
100
AcDbBlockEnd
  0
BLOCK
  5
248
330
247
100
AcDbEntity
  8
0
100
AcDbBlockBegin
  2
*D12
 70
     1
 10
0.0
 20
0.0
 30
0.0
  3
*D12
  1
*D13
  0
LINE
  5
24A
330
247
100
AcDbEntity
  8
치수문자_일반주서
 62
     0
370
    -2
100
AcDbLine
 10
196.088939183857
 20
-33.99698851284003
 30
0.0
 11
196.088939183857
 21
-9.668352789649632
 31
0.0
  0
LINE
  5
24B
330
247
100
AcDbEntity
  8
치수문자_일반주서
 62
     0
370
    -2
100
AcDbLine
 10
91.31393918385697
 20
-35.06855101284003
 30
0.0
 11
91.31393918385697
 21
-9.668352789649632
 31
0.0
  0
LINE
  5
24C
330
247
100
AcDbEntity
  8
치수문자_일반주서
 62
     0
370
    -2
100
AcDbLine
 10
192.786939183857
 20
-9.668352789649632
 30
0.0
 11
94.61593918385697
 21
-9.668352789649632
 31
0.0
  0
SOLID
  5
24D
330
247
100
AcDbEntity
  8
치수문자_일반주서
 62
     0
100
AcDbTrace
 10
192.786939183857
 20
-10.21868612298296
 30
0.0
 11
192.786939183857
 21
-9.118019456316299
 31
0.0
 12
196.088939183857
 22
-9.668352789649632
 32
0.0
 13
196.088939183857
 23
-9.668352789649632
 33
0.0
  0
SOLID
  5
24E
330
247
100
AcDbEntity
  8
치수문자_일반주서
 62
     0
100
AcDbTrace
 10
94.61593918385697
 20
-9.118019456316299
 30
0.0
 11
94.61593918385697
 21
-10.21868612298296
 31
0.0
 12
91.31393918385697
 22
-9.668352789649632
 32
0.0
 13
91.31393918385697
 23
-9.668352789649632
 33
0.0
  0
MTEXT
  5
24F
330
247
100
AcDbEntity
  8
치수문자_일반주서
 62
     0
100
AcDbMText
 10
145.1773100371131
 20
-5.293352789649632
 30
0.0
 40
3.5
 41
0.0
 71
     2
 72
     1
  1
\A1;104.78 [4 1/8]
  7
SLDTEXTSTYLE0
 73
     1
 44
1.0
  0
POINT
  5
250
330
247
100
AcDbEntity
  8
Defpoints
 62
     0
100
AcDbPoint
 10
196.088939183857
 20
-34.05948851284003
 30
0.0
  0
POINT
  5
251
330
247
100
AcDbEntity
  8
Defpoints
 62
     0
100
AcDbPoint
 10
91.31393918385697
 20
-35.13105101284003
 30
0.0
  0
POINT
  5
252
330
247
100
AcDbEntity
  8
Defpoints
 62
     0
100
AcDbPoint
 10
91.31393918385697
 20
-9.668352789649632
 30
0.0
  0
ENDBLK
  5
249
330
247
100
AcDbEntity
  8
0
100
AcDbBlockEnd
  0
BLOCK
  5
2DA
330
2D9
100
AcDbEntity
  8
0
100
AcDbBlockBegin
  2
*D13
 70
     1
 10
0.0
 20
0.0
 30
0.0
  3
*D13
  1
*D15
  0
LINE
  5
2DC
330
2D9
100
AcDbEntity
  8
치수문자_일반주서
 62
     0
370
    -2
100
AcDbLine
 10
107.8375
 20
19.30399999999993
 30
0.0
 11
124.8422721138663
 21
19.30399999999999
 31
0.0
  0
LINE
  5
2DD
330
2D9
100
AcDbEntity
  8
치수문자_일반주서
 62
     0
370
    -2
100
AcDbLine
 10
107.8375
 20
6.603999999999933
 30
0.0
 11
124.8422721138663
 21
6.603999999999999
 31
0.0
  0
LINE
  5
2DE
330
2D9
100
AcDbEntity
  8
치수문자_일반주서
 62
     0
370
    -2
100
AcDbLine
 10
124.8422721138663
 20
19.30399999999999
 30
0.0
 11
124.8422721138661
 21
52.81424999999999
 31
0.0
  0
LINE
  5
2DF
330
2D9
100
AcDbEntity
  8
치수문자_일반주서
 62
     0
370
    -2
100
AcDbLine
 10
124.8422721138663
 20
19.30399999999999
 30
0.0
 11
124.8422721138663
 21
6.603999999999999
 31
0.0
  0
LINE
  5
2E0
330
2D9
100
AcDbEntity
  8
치수문자_일반주서
 62
     0
370
    -2
100
AcDbLine
 10
124.8422721138662
 20
22.60599999999999
 30
0.0
 11
124.8422721138662
 21
25.90799999999999
 31
0.0
  0
LINE
  5
2E1
330
2D9
100
AcDbEntity
  8
치수문자_일반주서
 62
     0
370
    -2
100
AcDbLine
 10
124.8422721138663
 20
3.302
 30
0.0
 11
124.8422721138663
 21
0.0
 31
0.0
  0
SOLID
  5
2E2
330
2D9
100
AcDbEntity
  8
치수문자_일반주서
 62
     0
100
AcDbTrace
 10
124.2919387805329
 20
22.60599999999999
 30
0.0
 11
125.3926054471996
 21
22.606
 31
0.0
 12
124.8422721138663
 22
19.30399999999999
 32
0.0
 13
124.8422721138663
 23
19.30399999999999
 33
0.0
  0
SOLID
  5
2E3
330
2D9
100
AcDbEntity
  8
치수문자_일반주서
 62
     0
100
AcDbTrace
 10
125.3926054471996
 20
3.302000000000001
 30
0.0
 11
124.291938780533
 21
3.301999999999998
 31
0.0
 12
124.8422721138663
 22
6.603999999999999
 32
0.0
 13
124.8422721138663
 23
6.603999999999999
 33
0.0
  0
MTEXT
  5
2E4
330
2D9
100
AcDbEntity
  8
치수문자_일반주서
 62
     0
100
AcDbMText
 10
120.4672721138662
 20
39.47049999999998
 30
0.0
 40
3.5
 41
0.0
 71
     2
 72
     1
  1
\A1;%%c12.70 [1/2]
  7
SLDTEXTSTYLE0
 11
-3.356894814614647E-15
 21
1.0
 31
0.0
 73
     1
 44
1.0
  0
POINT
  5
2E5
330
2D9
100
AcDbEntity
  8
Defpoints
 62
     0
100
AcDbPoint
 10
107.775
 20
19.30399999999993
 30
0.0
  0
POINT
  5
2E6
330
2D9
100
AcDbEntity
  8
Defpoints
 62
     0
100
AcDbPoint
 10
107.775
 20
6.603999999999933
 30
0.0
  0
POINT
  5
2E7
330
2D9
100
AcDbEntity
  8
Defpoints
 62
     0
100
AcDbPoint
 10
124.8422721138663
 20
6.603999999999997
 30
0.0
  0
ENDBLK
  5
2DB
330
2D9
100
AcDbEntity
  8
0
100
AcDbBlockEnd
  0
BLOCK
  5
2E9
330
2E8
100
AcDbEntity
  8
0
100
AcDbBlockBegin
  2
*D14
 70
     1
 10
0.0
 20
0.0
 30
0.0
  3
*D14
  1
*D16
  0
LINE
  5
2EB
330
2E8
100
AcDbEntity
  8
치수문자_일반주서
 62
     0
370
    -2
100
AcDbLine
 10
107.775
 20
19.36649999999993
 30
0.0
 11
107.775
 21
29.17975832437662
 31
0.0
  0
LINE
  5
2EC
330
2E8
100
AcDbEntity
  8
치수문자_일반주서
 62
     0
370
    -2
100
AcDbLine
 10
82.375
 20
18.87908960761421
 30
0.0
 11
82.375
 21
29.17975832437662
 31
0.0
  0
LINE
  5
2ED
330
2E8
100
AcDbEntity
  8
치수문자_일반주서
 62
     0
370
    -2
100
AcDbLine
 10
82.375
 20
29.17975832437662
 30
0.0
 11
56.0835
 21
29.17975832437662
 31
0.0
  0
LINE
  5
2EE
330
2E8
100
AcDbEntity
  8
치수문자_일반주서
 62
     0
370
    -2
100
AcDbLine
 10
107.775
 20
29.17975832437662
 30
0.0
 11
82.375
 21
29.17975832437662
 31
0.0
  0
LINE
  5
2EF
330
2E8
100
AcDbEntity
  8
치수문자_일반주서
 62
     0
370
    -2
100
AcDbLine
 10
111.077
 20
29.17975832437662
 30
0.0
 11
114.379
 21
29.17975832437662
 31
0.0
  0
LINE
  5
2F0
330
2E8
100
AcDbEntity
  8
치수문자_일반주서
 62
     0
370
    -2
100
AcDbLine
 10
79.07300000000001
 20
29.17975832437662
 30
0.0
 11
75.77100000000002
 21
29.17975832437662
 31
0.0
  0
SOLID
  5
2F1
330
2E8
100
AcDbEntity
  8
치수문자_일반주서
 62
     0
100
AcDbTrace
 10
111.077
 20
29.73009165770996
 30
0.0
 11
111.077
 21
28.62942499104329
 31
0.0
 12
107.775
 22
29.17975832437662
 32
0.0
 13
107.775
 23
29.17975832437662
 33
0.0
  0
SOLID
  5
2F2
330
2E8
100
AcDbEntity
  8
치수문자_일반주서
 62
     0
100
AcDbTrace
 10
79.07300000000001
 20
28.62942499104329
 30
0.0
 11
79.07300000000001
 21
29.73009165770996
 31
0.0
 12
82.375
 22
29.17975832437662
 32
0.0
 13
82.375
 23
29.17975832437662
 33
0.0
  0
MTEXT
  5
2F3
330
2E8
100
AcDbEntity
  8
치수문자_일반주서
 62
     0
100
AcDbMText
 10
65.92725
 20
33.55475832437662
 30
0.0
 40
3.5
 41
0.0
 71
     2
 72
     1
  1
\A1;25.40 [1]
  7
SLDTEXTSTYLE0
 73
     1
 44
1.0
  0
POINT
  5
2F4
330
2E8
100
AcDbEntity
  8
Defpoints
 62
     0
100
AcDbPoint
 10
107.775
 20
19.30399999999993
 30
0.0
  0
POINT
  5
2F5
330
2E8
100
AcDbEntity
  8
Defpoints
 62
     0
100
AcDbPoint
 10
82.375
 20
18.81658960761421
 30
0.0
  0
POINT
  5
2F6
330
2E8
100
AcDbEntity
  8
Defpoints
 62
     0
100
AcDbPoint
 10
82.375
 20
29.17975832437662
 30
0.0
  0
ENDBLK
  5
2EA
330
2E8
100
AcDbEntity
  8
0
100
AcDbBlockEnd
  0
BLOCK
  5
2F8
330
2F7
100
AcDbEntity
  8
0
100
AcDbBlockBegin
  2
*D15
 70
     1
 10
0.0
 20
0.0
 30
0.0
  3
*D15
  1
*D17
  0
LINE
  5
2FA
330
2F7
100
AcDbEntity
  8
치수문자_일반주서
 62
     0
370
    -2
100
AcDbLine
 10
107.775
 20
19.36649999999993
 30
0.0
 11
107.775
 21
44.13878315417978
 31
0.0
  0
LINE
  5
2FB
330
2F7
100
AcDbEntity
  8
치수문자_일반주서
 62
     0
370
    -2
100
AcDbLine
 10
3.000000000000007
 20
18.09649999999993
 30
0.0
 11
2.999999999999993
 21
44.13878315417978
 31
0.0
  0
LINE
  5
2FC
330
2F7
100
AcDbEntity
  8
치수문자_일반주서
 62
     0
370
    -2
100
AcDbLine
 10
104.473
 20
44.13878315417978
 30
0.0
 11
6.301999999999992
 21
44.13878315417978
 31
0.0
  0
SOLID
  5
2FD
330
2F7
100
AcDbEntity
  8
치수문자_일반주서
 62
     0
100
AcDbTrace
 10
104.473
 20
43.58844982084644
 30
0.0
 11
104.473
 21
44.68911648751311
 31
0.0
 12
107.775
 22
44.13878315417978
 32
0.0
 13
107.775
 23
44.13878315417978
 33
0.0
  0
SOLID
  5
2FE
330
2F7
100
AcDbEntity
  8
치수문자_일반주서
 62
     0
100
AcDbTrace
 10
6.301999999999992
 20
44.68911648751311
 30
0.0
 11
6.301999999999992
 21
43.58844982084644
 31
0.0
 12
2.999999999999993
 22
44.13878315417978
 32
0.0
 13
2.999999999999993
 23
44.13878315417978
 33
0.0
  0
MTEXT
  5
2FF
330
2F7
100
AcDbEntity
  8
치수문자_일반주서
 62
     0
100
AcDbMText
 10
58.32235318984793
 20
48.51378315417978
 30
0.0
 40
3.5
 41
0.0
 71
     2
 72
     1
  1
\A1;104.78 [4 1/8]
  7
SLDTEXTSTYLE0
 73
     1
 44
1.0
  0
POINT
  5
300
330
2F7
100
AcDbEntity
  8
Defpoints
 62
     0
100
AcDbPoint
 10
107.775
 20
19.30399999999993
 30
0.0
  0
POINT
  5
301
330
2F7
100
AcDbEntity
  8
Defpoints
 62
     0
100
AcDbPoint
 10
3.000000000000007
 20
18.03399999999993
 30
0.0
  0
POINT
  5
302
330
2F7
100
AcDbEntity
  8
Defpoints
 62
     0
100
AcDbPoint
 10
3.000000000000007
 20
44.13878315417978
 30
0.0
  0
ENDBLK
  5
2F9
330
2F7
100
AcDbEntity
  8
0
100
AcDbBlockEnd
  0
BLOCK
  5
329
330
328
100
AcDbEntity
  8
0
100
AcDbBlockBegin
  2
*D16
 70
     1
 10
0.0
 20
0.0
 30
0.0
  3
*D16
  1
*D18
  0
LINE
  5
32B
330
328
100
AcDbEntity
  8
치수문자_일반주서
 62
     0
370
    -2
100
AcDbLine
 10
246.9502843324653
 20
-22.55500864680126
 30
0.0
 11
263.9550564463317
 21
-22.5550086468012
 31
0.0
  0
LINE
  5
32C
330
328
100
AcDbEntity
  8
치수문자_일반주서
 62
     0
370
    -2
100
AcDbLine
 10
246.9502843324653
 20
-35.25500864680126
 30
0.0
 11
263.9550564463318
 21
-35.25500864680119
 31
0.0
  0
LINE
  5
32D
330
328
100
AcDbEntity
  8
치수문자_일반주서
 62
     0
370
    -2
100
AcDbLine
 10
263.9550564463317
 20
-22.5550086468012
 30
0.0
 11
263.9550564463315
 21
10.9552413531988
 31
0.0
  0
LINE
  5
32E
330
328
100
AcDbEntity
  8
치수문자_일반주서
 62
     0
370
    -2
100
AcDbLine
 10
263.9550564463317
 20
-22.5550086468012
 30
0.0
 11
263.9550564463318
 21
-35.25500864680119
 31
0.0
  0
LINE
  5
32F
330
328
100
AcDbEntity
  8
치수문자_일반주서
 62
     0
370
    -2
100
AcDbLine
 10
263.9550564463317
 20
-19.2530086468012
 30
0.0
 11
263.9550564463317
 21
-15.9510086468012
 31
0.0
  0
LINE
  5
330
330
328
100
AcDbEntity
  8
치수문자_일반주서
 62
     0
370
    -2
100
AcDbLine
 10
263.9550564463318
 20
-38.55700864680119
 30
0.0
 11
263.9550564463318
 21
-41.85900864680119
 31
0.0
  0
SOLID
  5
331
330
328
100
AcDbEntity
  8
치수문자_일반주서
 62
     0
100
AcDbTrace
 10
263.4047231129983
 20
-19.2530086468012
 30
0.0
 11
264.5053897796651
 21
-19.2530086468012
 31
0.0
 12
263.9550564463317
 22
-22.5550086468012
 32
0.0
 13
263.9550564463317
 23
-22.5550086468012
 33
0.0
  0
SOLID
  5
332
330
328
100
AcDbEntity
  8
치수문자_일반주서
 62
     0
100
AcDbTrace
 10
264.5053897796651
 20
-38.55700864680119
 30
0.0
 11
263.4047231129984
 21
-38.55700864680119
 31
0.0
 12
263.9550564463318
 22
-35.25500864680119
 32
0.0
 13
263.9550564463318
 23
-35.25500864680119
 33
0.0
  0
MTEXT
  5
333
330
328
100
AcDbEntity
  8
치수문자_일반주서
 62
     0
100
AcDbMText
 10
259.5800564463316
 20
-2.388508646801218
 30
0.0
 40
3.5
 41
0.0
 71
     2
 72
     1
  1
\A1;%%c12.70 [1/2]
  7
SLDTEXTSTYLE0
 11
-4.475859752819530E-15
 21
1.0
 31
0.0
 73
     1
 44
1.0
  0
POINT
  5
334
330
328
100
AcDbEntity
  8
Defpoints
 62
     0
100
AcDbPoint
 10
246.8877843324653
 20
-22.55500864680126
 30
0.0
  0
POINT
  5
335
330
328
100
AcDbEntity
  8
Defpoints
 62
     0
100
AcDbPoint
 10
246.8877843324653
 20
-35.25500864680126
 30
0.0
  0
POINT
  5
336
330
328
100
AcDbEntity
  8
Defpoints
 62
     0
100
AcDbPoint
 10
263.9550564463317
 20
-35.25500864680119
 30
0.0
  0
ENDBLK
  5
32A
330
328
100
AcDbEntity
  8
0
100
AcDbBlockEnd
  0
BLOCK
  5
338
330
337
100
AcDbEntity
  8
0
100
AcDbBlockBegin
  2
*D17
 70
     1
 10
0.0
 20
0.0
 30
0.0
  3
*D17
  1
*D19
  0
LINE
  5
33A
330
337
100
AcDbEntity
  8
치수문자_일반주서
 62
     0
370
    -2
100
AcDbLine
 10
246.8877843324653
 20
-22.49250864680126
 30
0.0
 11
246.8877843324653
 21
-12.67925032242457
 31
0.0
  0
LINE
  5
33B
330
337
100
AcDbEntity
  8
치수문자_일반주서
 62
     0
370
    -2
100
AcDbLine
 10
221.4877843324654
 20
-22.97991903918698
 30
0.0
 11
221.4877843324654
 21
-12.67925032242457
 31
0.0
  0
LINE
  5
33C
330
337
100
AcDbEntity
  8
치수문자_일반주서
 62
     0
370
    -2
100
AcDbLine
 10
221.4877843324654
 20
-12.67925032242457
 30
0.0
 11
195.1962843324654
 21
-12.67925032242457
 31
0.0
  0
LINE
  5
33D
330
337
100
AcDbEntity
  8
치수문자_일반주서
 62
     0
370
    -2
100
AcDbLine
 10
246.8877843324653
 20
-12.67925032242457
 30
0.0
 11
221.4877843324654
 21
-12.67925032242457
 31
0.0
  0
LINE
  5
33E
330
337
100
AcDbEntity
  8
치수문자_일반주서
 62
     0
370
    -2
100
AcDbLine
 10
250.1897843324653
 20
-12.67925032242457
 30
0.0
 11
253.4917843324653
 21
-12.67925032242457
 31
0.0
  0
LINE
  5
33F
330
337
100
AcDbEntity
  8
치수문자_일반주서
 62
     0
370
    -2
100
AcDbLine
 10
218.1857843324654
 20
-12.67925032242457
 30
0.0
 11
214.8837843324654
 21
-12.67925032242457
 31
0.0
  0
SOLID
  5
340
330
337
100
AcDbEntity
  8
치수문자_일반주서
 62
     0
100
AcDbTrace
 10
250.1897843324653
 20
-12.12891698909124
 30
0.0
 11
250.1897843324653
 21
-13.2295836557579
 31
0.0
 12
246.8877843324653
 22
-12.67925032242457
 32
0.0
 13
246.8877843324653
 23
-12.67925032242457
 33
0.0
  0
SOLID
  5
341
330
337
100
AcDbEntity
  8
치수문자_일반주서
 62
     0
100
AcDbTrace
 10
218.1857843324654
 20
-13.2295836557579
 30
0.0
 11
218.1857843324654
 21
-12.12891698909124
 31
0.0
 12
221.4877843324654
 22
-12.67925032242457
 32
0.0
 13
221.4877843324654
 23
-12.67925032242457
 33
0.0
  0
MTEXT
  5
342
330
337
100
AcDbEntity
  8
치수문자_일반주서
 62
     0
100
AcDbMText
 10
205.0400343324654
 20
-8.304250322424569
 30
0.0
 40
3.5
 41
0.0
 71
     2
 72
     1
  1
\A1;25.40 [1]
  7
SLDTEXTSTYLE0
 73
     1
 44
1.0
  0
POINT
  5
343
330
337
100
AcDbEntity
  8
Defpoints
 62
     0
100
AcDbPoint
 10
246.8877843324653
 20
-22.55500864680126
 30
0.0
  0
POINT
  5
344
330
337
100
AcDbEntity
  8
Defpoints
 62
     0
100
AcDbPoint
 10
221.4877843324654
 20
-23.04241903918698
 30
0.0
  0
POINT
  5
345
330
337
100
AcDbEntity
  8
Defpoints
 62
     0
100
AcDbPoint
 10
221.4877843324654
 20
-12.67925032242457
 30
0.0
  0
ENDBLK
  5
339
330
337
100
AcDbEntity
  8
0
100
AcDbBlockEnd
  0
BLOCK
  5
347
330
346
100
AcDbEntity
  8
0
100
AcDbBlockBegin
  2
*D18
 70
     1
 10
0.0
 20
0.0
 30
0.0
  3
*D18
  1
*D20
  0
LINE
  5
349
330
346
100
AcDbEntity
  8
치수문자_일반주서
 62
     0
370
    -2
100
AcDbLine
 10
246.8877843324653
 20
-22.49250864680126
 30
0.0
 11
246.8877843324653
 21
2.279774507378583
 31
0.0
  0
LINE
  5
34A
330
346
100
AcDbEntity
  8
치수문자_일반주서
 62
     0
370
    -2
100
AcDbLine
 10
142.1127843324654
 20
-23.76250864680127
 30
0.0
 11
142.1127843324654
 21
2.279774507378583
 31
0.0
  0
LINE
  5
34B
330
346
100
AcDbEntity
  8
치수문자_일반주서
 62
     0
370
    -2
100
AcDbLine
 10
243.5857843324654
 20
2.279774507378583
 30
0.0
 11
145.4147843324654
 21
2.279774507378583
 31
0.0
  0
SOLID
  5
34C
330
346
100
AcDbEntity
  8
치수문자_일반주서
 62
     0
100
AcDbTrace
 10
243.5857843324654
 20
1.72944117404525
 30
0.0
 11
243.5857843324654
 21
2.830107840711916
 31
0.0
 12
246.8877843324653
 22
2.279774507378583
 32
0.0
 13
246.8877843324653
 23
2.279774507378583
 33
0.0
  0
SOLID
  5
34D
330
346
100
AcDbEntity
  8
치수문자_일반주서
 62
     0
100
AcDbTrace
 10
145.4147843324654
 20
2.830107840711916
 30
0.0
 11
145.4147843324654
 21
1.72944117404525
 31
0.0
 12
142.1127843324654
 22
2.279774507378583
 32
0.0
 13
142.1127843324654
 23
2.279774507378583
 33
0.0
  0
MTEXT
  5
34E
330
346
100
AcDbEntity
  8
치수문자_일반주서
 62
     0
100
AcDbMText
 10
197.4351375223133
 20
6.654774507378583
 30
0.0
 40
3.5
 41
0.0
 71
     2
 72
     1
  1
\A1;104.78 [4 1/8]
  7
SLDTEXTSTYLE0
 73
     1
 44
1.0
  0
POINT
  5
34F
330
346
100
AcDbEntity
  8
Defpoints
 62
     0
100
AcDbPoint
 10
246.8877843324653
 20
-22.55500864680126
 30
0.0
  0
POINT
  5
350
330
346
100
AcDbEntity
  8
Defpoints
 62
     0
100
AcDbPoint
 10
142.1127843324654
 20
-23.82500864680127
 30
0.0
  0
POINT
  5
351
330
346
100
AcDbEntity
  8
Defpoints
 62
     0
100
AcDbPoint
 10
142.1127843324654
 20
2.279774507378583
 30
0.0
  0
ENDBLK
  5
348
330
346
100
AcDbEntity
  8
0
100
AcDbBlockEnd
  0
ENDSEC
  0
SECTION
  2
ENTITIES
  0
LINE
  5
96
330
1F
100
AcDbEntity
  8
0
  6
Continuous
 62
     1
370
    15
100
AcDbLine
 10
39.92523092519393
 20
6.349999999999999
 30
0.0
 11
36.05496748243202
 21
6.349999999999999
 31
0.0
  0
LINE
  5
97
330
1F
100
AcDbEntity
  8
0
  6
Continuous
 62
     1
370
    15
100
AcDbLine
 10
36.05496748243195
 20
-6.350000000000004
 30
0.0
 11
39.92523092519393
 21
-6.350000000000004
 31
0.0
  0
LINE
  5
98
330
1F
100
AcDbEntity
  8
외형선
  6
Continuous
370
    15
100
AcDbLine
 10
-26.48766089253882
 20
-6.350000000000002
 30
0.0
 11
26.48766089253883
 21
-6.350000000000002
 31
0.0
  0
LINE
  5
99
330
1F
100
AcDbEntity
  8
외형선
  6
Continuous
370
    15
100
AcDbLine
 10
26.48766089253883
 20
6.349999999999997
 30
0.0
 11
5.727700000000027
 21
6.349999999999997
 31
0.0
  0
LINE
  5
9C
330
1F
100
AcDbEntity
  8
0
  6
Continuous
 62
     1
370
    15
100
AcDbLine
 10
52.3875
 20
-5.751076567773989
 30
0.0
 11
52.3875
 21
0.5440765677740613
 31
0.0
  0
SPLINE
  5
9D
330
1F
100
AcDbEntity
  8
0
  6
Continuous
 62
     1
370
    15
100
AcDbSpline
210
0.0
220
0.0
230
1.0
 70
     8
 71
     3
 72
    46
 73
    42
 74
     0
 42
0.000000001
 43
0.00000001
 40
0.0
 40
0.0
 40
0.0
 40
0.0
 40
0.0624999999999997
 40
0.0624999999999997
 40
0.1249999999999994
 40
0.1249999999999994
 40
0.1874999999999991
 40
0.1874999999999991
 40
0.2499999999999987
 40
0.2499999999999987
 40
0.3124999999999984
 40
0.3124999999999984
 40
0.3437499999999976
 40
0.3437499999999976
 40
0.3749999999999969
 40
0.3749999999999969
 40
0.4374999999999966
 40
0.4374999999999966
 40
0.4687499999999964
 40
0.4687499999999964
 40
0.4999999999999962
 40
0.4999999999999962
 40
0.5312499999999961
 40
0.5312499999999961
 40
0.5624999999999959
 40
0.5624999999999959
 40
0.6249999999999956
 40
0.6249999999999956
 40
0.6562499999999954
 40
0.6562499999999954
 40
0.6874999999999952
 40
0.6874999999999952
 40
0.7499999999999962
 40
0.7499999999999962
 40
0.8124999999999971
 40
0.8124999999999971
 40
0.874999999999998
 40
0.874999999999998
 40
0.937499999999999
 40
0.937499999999999
 40
1.0
 40
1.0
 40
1.0
 40
1.0
 10
52.3875
 20
-5.751076567773989
 30
0.0
 10
51.86122572742331
 20
-5.621785940515419
 30
0.0
 10
51.32895658586929
 20
-5.472006050642515
 30
0.0
 10
50.26895434411105
 20
-5.135853442512096
 30
0.0
 10
49.74355296790278
 20
-4.949868785567686
 30
0.0
 10
48.68281744171193
 20
-4.54369214043651
 30
0.0
 10
48.15299580483549
 20
-4.324128771846222
 30
0.0
 10
47.09826289984778
 20
-3.857308870276176
 30
0.0
 10
46.56570292894596
 20
-3.608891017570047
 30
0.0
 10
45.50675150982569
 20
-3.089661955447502
 30
0.0
 10
44.98081677467498
 20
-2.819010438789377
 30
0.0
 10
44.18495387042825
 20
-2.398581367268817
 30
0.0
 10
43.9195036289298
 20
-2.256199405652894
 30
0.0
 10
43.39035000554366
 20
-1.968080535729543
 30
0.0
 10
43.12761190912469
 20
-1.82252558485487
 30
0.0
 10
42.33515817508987
 20
-1.380726304054454
 30
0.0
 10
41.80246869661651
 20
-1.079543070078884
 30
0.0
 10
41.009280615454
 20
-0.6248129128759583
 30
0.0
 10
40.74663475685225
 20
-0.4728984381625711
 30
0.0
 10
40.21792309971421
 20
-0.1678578110915206
 30
0.0
 10
39.95257195190462
 20
-0.0148679340165487
 30
0.0
 10
39.42194851950124
 20
0.2908570100128546
 30
0.0
 10
39.15667803608348
 20
0.4435910393084315
 30
0.0
 10
38.62828694418791
 20
0.7476127454781709
 30
0.0
 10
38.36558068859544
 20
0.8988231051281187
 30
0.0
 10
37.57195851055993
 20
1.350772431780771
 30
0.0
 10
37.03930097774217
 20
1.649081536326472
 30
0.0
 10
36.24737472276415
 20
2.085117411750268
 30
0.0
 10
35.9844554503929
 20
2.22859140763538
 30
0.0
 10
35.45504366858305
 20
2.512069074124358
 30
0.0
 10
35.1895443353727
 20
2.651888443629855
 30
0.0
 10
34.39377602998157
 20
3.063935785085244
 30
0.0
 10
33.86811608803367
 20
3.328113406349216
 30
0.0
 10
32.80871095990112
 20
3.832918419900589
 30
0.0
 10
32.27624679353713
 20
4.073247745159996
 30
0.0
 10
31.22234100343621
 20
4.522429495563257
 30
0.0
 10
30.69161402112687
 20
4.732620483247593
 30
0.0
 10
29.63113063229064
 20
5.118520909754688
 30
0.0
 10
29.10579303643572
 20
5.293790385968218
 30
0.0
 10
28.04546262565516
 20
5.607470079799369
 30
0.0
 10
27.51422504416338
 20
5.745385080423962
 30
0.0
 10
26.98750000000001
 20
5.862589607614286
 30
0.0
  0
SPLINE
  5
9E
330
1F
100
AcDbEntity
  8
0
  6
Continuous
 62
     1
370
    15
100
AcDbSpline
210
0.0
220
0.0
230
1.0
 70
     8
 71
     3
 72
    18
 73
    14
 74
     0
 42
0.000000001
 43
0.00000001
 40
0.0
 40
0.0
 40
0.0
 40
0.0
 40
0.0882206267036164
 40
0.1764121794786978
 40
0.2645835724374214
 40
0.3527437778355601
 40
0.4409018002558265
 40
0.5290666505937773
 40
0.6172473200051277
 40
0.7142454686608236
 40
0.8112453264814523
 40
0.9082470349190964
 40
1.0
 40
1.0
 40
1.0
 40
1.0
 10
52.3875
 20
0.5440765677740603
 30
0.0
 10
51.70981372542173
 20
0.931954247088088
 30
0.0
 10
50.35466451408374
 20
1.707581777017233
 30
0.0
 10
48.32238771169373
 20
2.808085845210612
 30
0.0
 10
46.2906556533937
 20
3.814214672915097
 30
0.0
 10
44.25923532038944
 20
4.690137717277551
 30
0.0
 10
42.22787731315159
 20
5.406511466364738
 30
0.0
 10
40.19632004859955
 20
5.938958018591712
 30
0.0
 10
38.09683117552265
 20
6.279987217353841
 30
0.0
 10
35.92918620258251
 20
6.394244024183798
 30
0.0
 10
33.69385542513556
 20
6.244100593818155
 30
0.0
 10
31.49878623411417
 20
5.861603233723114
 30
0.0
 10
30.04883295262958
 20
5.415348211025441
 30
0.0
 10
29.34401589922868
 20
5.198425256210583
 30
0.0
  0
SPLINE
  5
9F
330
1F
100
AcDbEntity
  8
0
  6
Continuous
 62
     1
370
    15
100
AcDbSpline
210
0.0
220
0.0
230
1.0
 70
     8
 71
     3
 72
    17
 73
    13
 74
     0
 42
0.000000001
 43
0.00000001
 40
0.0
 40
0.0
 40
0.0
 40
0.0
 40
0.1036063001749163
 40
0.2071808183941092
 40
0.3107340423807501
 40
0.4142765213053007
 40
0.5178188353950897
 40
0.6213715653541322
 40
0.7249452617800561
 40
0.8388711975171629
 40
0.9527992903633427
 40
1.0
 40
1.0
 40
1.0
 40
1.0
 10
26.98750000000001
 20
-2.439783411021018
 30
0.0
 10
27.66511774533456
 20
-2.792823590690295
 30
0.0
 10
29.02014537203067
 20
-3.498795652489607
 30
0.0
 10
31.05227478098566
 20
-4.416531455584088
 30
0.0
 10
33.0839149057535
 20
-5.189825564164532
 30
0.0
 10
35.11529962416139
 20
-5.784814439926715
 30
0.0
 10
37.14667914503821
 20
-6.183579121580767
 30
0.0
 10
39.17831160451678
 20
-6.370980589654974
 30
0.0
 10
41.27790212715064
 20
-6.343729509528383
 30
0.0
 10
43.44560902798096
 20
-6.061096910433424
 30
0.0
 10
45.24455162737177
 20
-5.664666776975718
 30
0.0
 10
46.29839821695546
 20
-5.296044656550666
 30
0.0
 10
46.6071096708361
 20
-5.18806132021522
 30
0.0
  0
SPLINE
  5
A0
330
1F
100
AcDbEntity
  8
외형선
  6
Continuous
370
    15
100
AcDbSpline
210
0.0
220
0.0
230
1.0
 70
    24
 71
     3
 72
    22
 73
    18
 74
     0
 42
0.000000001
 43
0.00000001
 40
0.0
 40
0.0
 40
0.0
 40
0.0
 40
0.1249999999999999
 40
0.1249999999999999
 40
0.2499999999999998
 40
0.2499999999999998
 40
0.3749999999999997
 40
0.3749999999999997
 40
0.4999999999999997
 40
0.4999999999999997
 40
0.6249999999999998
 40
0.6249999999999998
 40
0.7499999999999998
 40
0.7499999999999998
 40
0.8749999999999999
 40
0.8749999999999999
 40
1.0
 40
1.0
 40
1.0
 40
1.0
 10
26.9875
 20
4.661835863626418
 30
0.0
 10
26.98750000000003
 20
4.509512668145987
 30
0.0
 10
26.98750000000004
 20
4.340797059347119
 30
0.0
 10
26.98750000000004
 20
4.001204600499585
 30
0.0
 10
26.98750000000003
 20
3.795924396895697
 30
0.0
 10
26.98750000000001
 20
3.293563123317926
 30
0.0
 10
26.98749999999998
 20
2.995789414402516
 30
0.0
 10
26.98749999999998
 20
2.300350021683513
 30
0.0
 10
26.98750000000004
 20
1.901748396686577
 30
0.0
 10
26.9875
 20
1.035828862764336
 30
0.0
 10
26.9875
 20
0.5686049780229178
 30
0.0
 10
26.9875
 20
-0.345403996600644
 30
0.0
 10
26.9875
 20
-0.7898708403012008
 30
0.0
 10
26.9875
 20
-1.545235998789162
 30
0.0
 10
26.98750000000001
 20
-1.853912511825557
 30
0.0
 10
26.9875
 20
-2.28123875407504
 30
0.0
 10
26.9875
 20
-2.400593059339748
 30
0.0
 10
26.98750000000001
 20
-2.439783411021006
 30
0.0
  0
SPLINE
  5
A1
330
1F
100
AcDbEntity
  8
0
  6
Continuous
 62
     1
370
    15
100
AcDbSpline
210
0.0
220
0.0
230
1.0
 70
     8
 71
     3
 72
    46
 73
    42
 74
     0
 42
0.000000001
 43
0.00000001
 40
0.0
 40
0.0
 40
0.0
 40
0.0
 40
0.0624999999999998
 40
0.0624999999999998
 40
0.1249999999999996
 40
0.1249999999999996
 40
0.1874999999999993
 40
0.1874999999999993
 40
0.2499999999999991
 40
0.2499999999999991
 40
0.3124999999999989
 40
0.3124999999999989
 40
0.3437499999999994
 40
0.3437499999999994
 40
0.3749999999999999
 40
0.3749999999999999
 40
0.4374999999999997
 40
0.4374999999999997
 40
0.4687500000000002
 40
0.4687500000000002
 40
0.5000000000000007
 40
0.5000000000000007
 40
0.5312500000000011
 40
0.5312500000000011
 40
0.5625000000000016
 40
0.5625000000000016
 40
0.6250000000000013
 40
0.6250000000000013
 40
0.6562500000000012
 40
0.6562500000000012
 40
0.6875000000000011
 40
0.6875000000000011
 40
0.7500000000000009
 40
0.7500000000000009
 40
0.8125000000000007
 40
0.8125000000000007
 40
0.8750000000000004
 40
0.8750000000000004
 40
0.9375000000000002
 40
0.9375000000000002
 40
1.0
 40
1.0
 40
1.0
 40
1.0
 10
52.38749999999998
 20
-6.349999999999993
 30
0.0
 10
51.86122572742332
 20
-6.300519057978006
 30
0.0
 10
51.32895658586929
 20
-6.252288692202242
 30
0.0
 10
50.26895434411101
 20
-6.112820052242424
 30
0.0
 10
49.74355296790278
 20
-6.021846046122553
 30
0.0
 10
48.68281744171192
 20
-5.798188645729465
 30
0.0
 10
48.15299580483546
 20
-5.665796403288873
 30
0.0
 10
47.09826289984774
 20
-5.363174405315929
 30
0.0
 10
46.56570292894596
 20
-5.192165273757661
 30
0.0
 10
45.50675150982578
 20
-4.81592351671996
 30
0.0
 10
44.98081677467497
 20
-4.610868312438756
 30
0.0
 10
44.18495387042824
 20
-4.279451191950934
 30
0.0
 10
43.91950362892978
 20
-4.165133970202133
 30
0.0
 10
43.39035000554367
 20
-3.929722372965699
 30
0.0
 10
43.12761190912477
 20
-3.808783928733951
 30
0.0
 10
42.33515817508984
 20
-3.435741949477572
 30
0.0
 10
41.80246869661655
 20
-3.173517719357867
 30
0.0
 10
41.00928061545395
 20
-2.765988486055315
 30
0.0
 10
40.74663475685227
 20
-2.62793335775213
 30
0.0
 10
40.21792309971424
 20
-2.346912328030687
 30
0.0
 10
39.9525719519046
 20
-2.20406478645002
 30
0.0
 10
39.42194851950121
 20
-1.914796729119116
 30
0.0
 10
39.15667803608348
 20
-1.768377197173663
 30
0.0
 10
38.62828694418793
 20
-1.473123448413561
 30
0.0
 10
38.36558068859541
 20
-1.324371305302417
 30
0.0
 10
37.57195851056002
 20
-0.8740235471062644
 30
0.0
 10
37.03930097774216
 20
-0.5690237682067899
 30
0.0
 10
36.24737472276414
 20
-0.1114949353664022
 30
0.0
 10
35.9844554503929
 20
0.0410402215364083
 30
0.0
 10
35.45504366858312
 20
0.3464622354186364
 30
0.0
 10
35.18954433537274
 20
0.4991572032721163
 30
0.0
 10
34.39377602998153
 20
0.9554024017020393
 30
0.0
 10
33.86811608803367
 20
1.256376783647111
 30
0.0
 10
32.80871095990112
 20
1.849062086314451
 30
0.0
 10
32.27624679353713
 20
2.140489256154882
 30
0.0
 10
31.2223410034362
 20
2.704523164638358
 30
0.0
 10
30.6916140211269
 20
2.978793348982699
 30
0.0
 10
29.63113063229066
 20
3.504563373382955
 30
0.0
 10
29.10579303643568
 20
3.755393209460006
 30
0.0
 10
28.0454626256552
 20
4.23079521955398
 30
0.0
 10
27.51422504416331
 20
4.454711916967925
 30
0.0
 10
26.98750000000003
 20
4.661835863626408
 30
0.0
  0
LINE
  5
A2
330
1F
100
AcDbEntity
  8
0
  6
Continuous
 62
     1
370
    15
100
AcDbLine
 10
52.38749999999998
 20
-6.349999999999993
 30
0.0
 11
52.3875
 21
-5.751076567773989
 31
0.0
  0
LINE
  5
A3
330
1F
100
AcDbEntity
  8
외형선
  6
Continuous
370
    15
100
AcDbLine
 10
26.98750000000003
 20
4.661835863626418
 30
0.0
 11
26.9875
 21
5.862589607614283
 31
0.0
  0
SPLINE
  5
A4
330
1F
100
AcDbEntity
  8
0
  6
Continuous
 62
     1
370
    15
100
AcDbSpline
210
0.0
220
0.0
230
1.0
 70
     8
 71
     3
 72
    13
 73
     9
 74
     0
 42
0.000000001
 43
0.00000001
 40
0.0
 40
0.0
 40
0.0
 40
0.0
 40
0.1031202220144403
 40
0.2824888638419647
 40
0.4618609018910974
 40
0.6412365971656514
 40
0.8206162099976025
 40
1.0
 40
1.0
 40
1.0
 40
1.0
 10
39.92523092519393
 20
6.324826305536132
 30
0.0
 10
40.35356074623804
 20
6.326230079716139
 30
0.0
 10
41.52693297268106
 20
6.330075596778205
 30
0.0
 10
43.44561220717296
 20
6.062712781984041
 30
0.0
 10
45.68098586708559
 20
5.540369191632071
 30
0.0
 10
47.91644045504528
 20
4.777614749407127
 30
0.0
 10
50.15194587329672
 20
3.828868965272943
 30
0.0
 10
51.64230950687556
 20
3.071052662108972
 30
0.0
 10
52.3875
 20
2.692140098806282
 30
0.0
  0
LINE
  5
A5
330
1F
100
AcDbEntity
  8
0
  6
Continuous
 62
     1
370
    15
100
AcDbLine
 10
52.3875
 20
0.5440765677740612
 30
0.0
 11
52.3875
 21
2.692140098806282
 31
0.0
  0
SPLINE
  5
A6
330
1F
100
AcDbEntity
  8
0
  6
Continuous
 62
     1
370
    15
100
AcDbSpline
210
0.0
220
0.0
230
1.0
 70
     8
 71
     3
 72
    12
 73
     8
 74
     0
 42
0.000000001
 43
0.00000001
 40
0.0
 40
0.0
 40
0.0
 40
0.0
 40
0.0138689990599011
 40
0.2603943358709947
 40
0.5069243760290133
 40
0.7534594781699459
 40
1.0
 40
1.0
 40
1.0
 40
1.0
 10
36.05496748243196
 20
-6.343057498219376
 30
0.0
 10
36.01304898032345
 20
-6.345350454971189
 30
0.0
 10
35.22601738055837
 20
-6.388401359221036
 30
0.0
 10
33.69385132439918
 20
-6.229395762616973
 30
0.0
 10
31.45845235154404
 20
-5.846259403076563
 30
0.0
 10
29.22299821567869
 20
-5.206229799654588
 30
0.0
 10
27.73267153225026
 20
-4.609803754993502
 30
0.0
 10
26.98750000000004
 20
-4.311587454825251
 30
0.0
  0
LINE
  5
A7
330
1F
100
AcDbEntity
  8
외형선
  6
Continuous
370
    15
100
AcDbLine
 10
26.98750000000003
 20
-4.311587454825237
 30
0.0
 11
26.98750000000003
 21
-2.439783411021015
 31
0.0
  0
SPLINE
  5
A8
330
1F
100
AcDbEntity
  8
0
  6
Continuous
 62
     1
370
    15
100
AcDbSpline
210
0.0
220
0.0
230
1.0
 70
     8
 71
     3
 72
    10
 73
     6
 74
     0
 42
0.000000001
 43
0.00000001
 40
0.0
 40
0.0
 40
0.0
 40
0.0
 40
0.3516915457669005
 40
0.7032671883119581
 40
1.0
 40
1.0
 40
1.0
 40
1.0
 10
52.38749999999998
 20
6.350000000000006
 30
0.0
 10
51.70981404609136
 20
6.271348234039885
 30
0.0
 10
50.35466547598696
 20
6.160766014412806
 30
0.0
 10
48.42789837920881
 20
5.766019756812733
 30
0.0
 10
47.17881777757009
 20
5.369534064437917
 30
0.0
 10
46.6071096708361
 20
5.188061320215215
 30
0.0
  0
LINE
  5
A9
330
1F
100
AcDbEntity
  8
0
  6
Continuous
 62
     1
370
    15
100
AcDbLine
 10
52.3875
 20
2.668500027570368
 30
0.0
 11
52.38749999999998
 21
6.350000000000006
 31
0.0
  0
SPLINE
  5
AA
330
1F
100
AcDbEntity
  8
0
  6
Continuous
 62
     1
370
    15
100
AcDbSpline
210
0.0
220
0.0
230
1.0
 70
     8
 71
     3
 72
     9
 73
     5
 74
     0
 42
0.000000001
 43
0.00000001
 40
0.0
 40
0.0
 40
0.0
 40
0.0
 40
0.8626328276449376
 40
1.0
 40
1.0
 40
1.0
 40
1.0
 10
26.98749999999998
 20
-5.862589607614278
 30
0.0
 10
27.66512627232586
 20
-5.705935486276188
 30
0.0
 10
28.45065894695853
 20
-5.524335486464252
 30
0.0
 10
29.23611941564805
 20
-5.23778753767932
 30
0.0
 10
29.34401589922862
 20
-5.19842525621059
 30
0.0
  0
SPLINE
  5
AB
330
1F
100
AcDbEntity
  8
외형선
  6
Continuous
370
    15
100
AcDbSpline
210
0.0
220
0.0
230
1.0
 70
    24
 71
     3
 72
    11
 73
     7
 74
     0
 42
0.000000001
 43
0.00000001
 40
0.0
 40
0.0
 40
0.0
 40
0.0
 40
0.0765702368750985
 40
0.4825566272294744
 40
0.9003166504076023
 40
1.0
 40
1.0
 40
1.0
 40
1.0
 10
26.98750000000003
 20
-4.38416048518943
 30
0.0
 10
26.98750000000004
 20
-4.417773619654641
 30
0.0
 10
26.98750000000008
 20
-4.629608419442471
 30
0.0
 10
26.98749999999988
 20
-5.075898201974926
 30
0.0
 10
26.98750000000003
 20
-5.543497773992921
 30
0.0
 10
26.98750000000001
 20
-5.811047287940988
 30
0.0
 10
26.9875
 20
-5.862589607614273
 30
0.0
  0
LINE
  5
AC
330
1F
100
AcDbEntity
  8
외형선
  6
Continuous
370
    15
100
AcDbLine
 10
26.48766089253883
 20
5.96748912504389
 30
0.0
 11
26.48766089253883
 21
6.349999999999997
 31
0.0
  0
SPLINE
  5
AD
330
1F
100
AcDbEntity
  8
외형선
  6
Continuous
370
    15
100
AcDbSpline
210
0.0
220
0.0
230
1.0
 70
     8
 71
     3
 72
     8
 73
     4
 74
     0
 42
0.000000001
 43
0.00000001
 40
0.0
 40
0.0
 40
0.0
 40
0.0
 40
1.0
 40
1.0
 40
1.0
 40
1.0
 10
26.98750000000001
 20
5.862589607614279
 30
0.0
 10
26.82136463559784
 20
5.899557314105778
 30
0.0
 10
26.65466600259864
 20
5.934546764193915
 30
0.0
 10
26.48766089253883
 20
5.967493100155714
 30
0.0
  0
SPLINE
  5
AE
330
1F
100
AcDbEntity
  8
외형선
  6
Continuous
370
    15
100
AcDbSpline
210
0.0
220
0.0
230
1.0
 70
     8
 71
     3
 72
     8
 73
     4
 74
     0
 42
0.000000001
 43
0.00000001
 40
0.0
 40
0.0
 40
0.0
 40
0.0
 40
1.0
 40
1.0
 40
1.0
 40
1.0
 10
26.98749999999998
 20
4.661835863626434
 30
0.0
 10
26.82136463559782
 20
4.727165228037391
 30
0.0
 10
26.65466600259864
 20
4.790962073249776
 30
0.0
 10
26.48766089253884
 20
4.853118986118646
 30
0.0
  0
LINE
  5
AF
330
1F
100
AcDbEntity
  8
외형선
  6
Continuous
370
    15
100
AcDbLine
 10
26.48766089253883
 20
-2.170615936199483
 30
0.0
 11
26.48766089253883
 21
4.853118499837319
 31
0.0
  0
SPLINE
  5
B0
330
1F
100
AcDbEntity
  8
외형선
  6
Continuous
370
    15
100
AcDbSpline
210
0.0
220
0.0
230
1.0
 70
     8
 71
     3
 72
     8
 73
     4
 74
     0
 42
0.000000001
 43
0.00000001
 40
0.0
 40
0.0
 40
0.0
 40
0.0
 40
1.0
 40
1.0
 40
1.0
 40
1.0
 10
26.98750000000001
 20
-2.439783411021018
 30
0.0
 10
26.82136463559784
 20
-2.350953193176513
 30
0.0
 10
26.65466600259864
 20
-2.261182073494096
 30
0.0
 10
26.48766089253883
 20
-2.170605007732683
 30
0.0
  0
SPLINE
  5
B1
330
1F
100
AcDbEntity
  8
외형선
  6
Continuous
370
    15
100
AcDbSpline
210
0.0
220
0.0
230
1.0
 70
     8
 71
     3
 72
     8
 73
     4
 74
     0
 42
0.000000001
 43
0.00000001
 40
0.0
 40
0.0
 40
0.0
 40
0.0
 40
1.0
 40
1.0
 40
1.0
 40
1.0
 10
26.98749999999998
 20
-4.31158745482522
 30
0.0
 10
26.82136463559782
 20
-4.240951110984375
 30
0.0
 10
26.65466600259864
 20
-4.168749462198146
 30
0.0
 10
26.48766089253884
 20
-4.095086825279117
 30
0.0
  0
LINE
  5
B2
330
1F
100
AcDbEntity
  8
외형선
  6
Continuous
370
    15
100
AcDbLine
 10
26.48766089253883
 20
-6.350000000000002
 30
0.0
 11
26.48766089253883
 21
-4.095087401574795
 31
0.0
  0
SPLINE
  5
B3
330
1F
100
AcDbEntity
  8
외형선
  6
Continuous
370
    15
100
AcDbSpline
210
0.0
220
0.0
230
1.0
 70
     8
 71
     3
 72
     8
 73
     4
 74
     0
 42
0.000000001
 43
0.00000001
 40
0.0
 40
0.0
 40
0.0
 40
0.0
 40
1.0
 40
1.0
 40
1.0
 40
1.0
 10
26.98750000000001
 20
-5.862589607614268
 30
0.0
 10
26.82136463559784
 20
-5.899557314105768
 30
0.0
 10
26.65466600259864
 20
-5.934546764193905
 30
0.0
 10
26.48766089253883
 20
-5.967493100155704
 30
0.0
  0
SPLINE
  5
B8
330
1F
100
AcDbEntity
  8
외형선
  6
Continuous
370
    15
100
AcDbSpline
210
0.0
220
0.0
230
1.0
 70
    24
 71
     3
 72
    22
 73
    18
 74
     0
 42
0.000000001
 43
0.00000001
 40
0.0
 40
0.0
 40
0.0
 40
0.0
 40
0.125
 40
0.125
 40
0.25
 40
0.25
 40
0.375
 40
0.375
 40
0.5
 40
0.5
 40
0.625
 40
0.625
 40
0.75
 40
0.75
 40
0.875
 40
0.875
 40
1.0
 40
1.0
 40
1.0
 40
1.0
 10
26.9875
 20
-2.439783411020994
 30
0.0
 10
26.98749999999997
 20
-2.400593059339723
 30
0.0
 10
26.9875
 20
-2.281238754075004
 30
0.0
 10
26.98749999999998
 20
-1.853912511825498
 30
0.0
 10
26.98750000000001
 20
-1.545235998789095
 30
0.0
 10
26.98750000000001
 20
-0.7898708403011245
 30
0.0
 10
26.98750000000001
 20
-0.3454039966005664
 30
0.0
 10
26.9875
 20
0.5686049780229897
 30
0.0
 10
26.9875
 20
1.035828862764405
 30
0.0
 10
26.98749999999998
 20
1.90174839668663
 30
0.0
 10
26.98749999999998
 20
2.300350021683561
 30
0.0
 10
26.98749999999998
 20
2.995789414402549
 30
0.0
 10
26.9875
 20
3.29356312331795
 30
0.0
 10
26.98749999999998
 20
3.795924396895714
 30
0.0
 10
26.98750000000001
 20
4.001204600499595
 30
0.0
 10
26.98750000000001
 20
4.340797059347125
 30
0.0
 10
26.98750000000003
 20
4.509512668145993
 30
0.0
 10
26.9875
 20
4.661835863626422
 30
0.0
  0
SPLINE
  5
B9
330
1F
100
AcDbEntity
  8
외형선
  6
Continuous
370
    15
100
AcDbSpline
210
0.0
220
0.0
230
1.0
 70
    24
 71
     3
 72
    11
 73
     7
 74
     0
 42
0.000000001
 43
0.00000001
 40
0.0
 40
0.0
 40
0.0
 40
0.0
 40
0.2703332294843422
 40
0.544040738743129
 40
0.9502834276236782
 40
1.0
 40
1.0
 40
1.0
 40
1.0
 10
26.98750000000003
 20
-5.862589607614271
 30
0.0
 10
26.98750000000001
 20
-5.722971475658685
 30
0.0
 10
26.9875
 20
-5.441992508345117
 30
0.0
 10
26.98750000000008
 20
-4.966820249947464
 30
0.0
 10
26.98749999999991
 20
-4.604938582442108
 30
0.0
 10
26.98750000000001
 20
-4.405857726640988
 30
0.0
 10
26.98750000000001
 20
-4.384150485189431
 30
0.0
  0
LINE
  5
BA
330
1F
100
AcDbEntity
  8
중심선
 48
0.8
100
AcDbLine
 10
-55.38750000000001
 20
-0.0000000000000066
 30
0.0
 11
55.38750000000001
 21
0.0000000000000066
 31
0.0
  0
LINE
  5
BB
330
1F
100
AcDbEntity
  8
참조1
100
AcDbLine
 10
12.89338065701562
 20
0.0010749287238892
 30
0.0
 11
12.89338065701562
 21
-39.99892507127611
 31
0.0
  0
LINE
  5
BC
330
1F
100
AcDbEntity
  8
참조1
100
AcDbLine
 10
12.89338065701562
 20
-39.99892507127611
 30
0.0
 11
-29.25297615729306
 21
-39.9989250712761
 31
0.0
  0
CIRCLE
  5
BD
330
1F
100
AcDbEntity
  8
해칭선
100
AcDbCircle
 10
0.0
 20
0.0
 30
0.0
 40
3.000000000000005
  0
INSERT
  5
BE
330
1F
100
AcDbEntity
  8
0
  6
Continuous
 62
     7
100
AcDbBlockReference
 66
     1
  2
블럭10
 10
-13.9402729321252
 20
-52.04717430164393
 30
0.0
  0
ATTRIB
  5
BF
330
BE
100
AcDbEntity
  8
FORMAT
 62
     2
100
AcDbText
 10
-23.12156822086649
 20
-49.97180738881174
 30
0.0
 40
4.233333333333333
  1
E1051032 [ 4 FLUTE ]
 41
0.75
  7
SLDTEXTSTYLE0
 11
-23.12156822086649
 21
-52.08847405547841
 31
0.0
100
AcDbAttribute
  2
AUTOATTR0
 70
     0
 74
     1
  0
SEQEND
  5
C0
330
BE
100
AcDbEntity
  8
0
  6
Continuous
 62
     7
  0
HATCH
  5
C1
330
1F
100
AcDbEntity
  8
중심선
100
AcDbHatch
 10
0.0
 20
0.0
 30
0.0
210
0.0
220
0.0
230
1.0
  2
SOLID
 70
     1
 71
     0
 91
        1
 92
        0
 93
        4
 72
     1
 10
-8.225363627744372
 20
-35.8
 11
-11.67163887158165
 21
-35.8
 72
     1
 10
-11.67163887158165
 20
-35.8
 11
-13.79986873078568
 21
-38.33632558057257
 72
     1
 10
-13.79986873078568
 20
-38.33632558057257
 11
-10.35356040183524
 21
-38.33628615127008
 72
     1
 10
-10.35356040183524
 20
-38.33628615127008
 11
-8.225363627744372
 21
-35.8
 97
        0
 75
     0
 76
     1
 98
        1
 10
-12.89338065701562
 20
-0.0010749287238958
  0
HATCH
  5
C2
330
1F
100
AcDbEntity
  8
중심선
100
AcDbHatch
 10
0.0
 20
0.0
 30
0.0
210
0.0
220
0.0
230
1.0
  2
SOLID
 70
     1
 71
     0
 91
        1
 92
        0
 93
        4
 72
     1
 10
-3.212599636708392
 20
-35.8
 11
-6.658874880545646
 21
-35.79999999999998
 72
     1
 10
-6.658874880545646
 20
-35.79999999999998
 11
-11.19001288890309
 21
-41.20000000000002
 72
     1
 10
-11.19001288890309
 20
-41.20000000000002
 11
-7.743737645065809
 21
-41.20000000000002
 72
     1
 10
-7.743737645065808
 20
-41.20000000000002
 11
-3.212599636708392
 21
-35.8
 97
        0
 75
     0
 76
     1
 98
        1
 10
-12.89338065701562
 20
-0.0010749287238958
  0
HATCH
  5
C3
330
1F
100
AcDbEntity
  8
중심선
100
AcDbHatch
 10
0.0
 20
0.0
 30
0.0
210
0.0
220
0.0
230
1.0
  2
SOLID
 70
     1
 71
     0
 91
        1
 92
        0
 93
        4
 72
     1
 10
1.800164354327476
 20
-35.79999999999998
 11
-1.646110889509611
 21
-35.79999999999998
 72
     1
 10
-1.646110889509611
 20
-35.79999999999998
 11
-8.69454779139889
 21
-44.20000000000002
 72
     1
 10
-8.69454779139889
 20
-44.20000000000002
 11
-5.248272547561608
 21
-44.20000000000002
 72
     1
 10
-5.248272547561607
 20
-44.20000000000002
 11
1.800164354327476
 21
-35.79999999999998
 97
        0
 75
     0
 76
     1
 98
        1
 10
-12.89338065701562
 20
-0.0010749287238958
  0
HATCH
  5
C4
330
1F
100
AcDbEntity
  8
중심선
100
AcDbHatch
 10
0.0
 20
0.0
 30
0.0
210
0.0
220
0.0
230
1.0
  2
SOLID
 70
     1
 71
     0
 91
        1
 92
        0
 93
        6
 72
     3
 10
6.600054785339676
 20
-40.00000000005127
 11
3.960054785062283
 21
1.540882976769353E-10
 40
0.3939339440162628
 50
17.09539180608436
 51
320.0019657685078
 73
     0
 72
     1
 10
8.28305444104027
 20
-38.5878940046383
 11
10.58835631474131
 21
-36.65356729459035
 72
     3
 10
6.600054785286829
 20
-40.00000000000015
 11
6.600054785286829
 21
-1.278976924368180E-13
 40
0.636358354079598
 50
39.99873849337431
 51
368.4976242363724
 73
     1
 72
     1
 10
13.02538727718744
 20
-39.03999999993002
 11
5.280122092122753
 21
-39.03999999993002
 72
     1
 10
5.280122092122753
 20
-39.03999999993002
 11
5.280097047676819
 21
-40.95999999992991
 72
     1
 10
5.280097047676819
 20
-40.95999999992991
 11
9.721476817148854
 21
-40.95999999992988
 97
        0
 75
     0
 76
     1
 98
        1
 10
-12.89338065701562
 20
-0.0010749287238958
  0
DIMENSION
  5
C5
330
1F
100
AcDbEntity
  8
치수문자_일반주서
100
AcDbDimension
  2
_D
 10
69.45477211386628
 20
-6.349999999999927
 30
0.0
 11
69.45477211386617
 21
26.51650000000007
 31
0.0
 70
   160
  1
%%c<>
 71
     2
 42
12.7
 52
-270.0
  3
SLDDIMSTYLE2
100
AcDbAlignedDimension
 13
52.38749999999998
 23
6.350000000000006
 33
0.0
 14
52.38749999999998
 24
-6.349999999999993
 34
0.0
 50
90.0000000000002
100
AcDbRotatedDimension
1001
ACAD
1000
DSTYLE
1002
{
1070
   171
1070
     6
1070
   273
1070
     5
1002
}
  0
DIMENSION
  5
D9
330
1F
100
AcDbEntity
  8
치수문자_일반주서
100
AcDbDimension
  2
_D_1
 10
26.9875
 20
16.2257583243767
 30
0.0
 11
10.53975
 21
16.2257583243767
 31
0.0
 70
   160
  1
<>
 71
     2
 42
25.39999999999998
  3
SLDDIMSTYLE2
100
AcDbAlignedDimension
 13
52.38749999999998
 23
6.350000000000006
 33
0.0
 14
26.9875
 24
5.862589607614283
 34
0.0
100
AcDbRotatedDimension
1001
ACAD
1000
DSTYLE
1002
{
1070
   171
1070
     6
1070
   273
1070
     5
1002
}
  0
DIMENSION
  5
ED
330
1F
100
AcDbEntity
  8
치수문자_일반주서
100
AcDbDimension
  2
_D_2
 10
-52.38749999999995
 20
31.18478315417985
 30
0.0
 11
2.934853189847921
 21
31.18478315417985
 31
0.0
 70
   160
  1
<>
 71
     2
 42
104.7749999999999
  3
SLDDIMSTYLE2
100
AcDbAlignedDimension
 13
52.38749999999998
 23
6.350000000000006
 33
0.0
 14
-52.38749999999995
 24
6.349999999999997
 34
0.0
100
AcDbRotatedDimension
1001
ACAD
1000
DSTYLE
1002
{
1070
   171
1070
     6
1070
   273
1070
     5
1002
}
  0
DIMENSION
  5
101
330
1F
100
AcDbEntity
  8
치수문자_일반주서
100
AcDbDimension
  2
_D_3
 10
-64.59375
 20
-6.350000000000037
 30
0.0
 11
-64.59375000000003
 21
-0.0000000000000087
 31
0.0
 70
   160
  1
%%c<>
 71
     2
 42
12.69999999999999
 52
-270.0
  3
SLDDIMSTYLE2
100
AcDbAlignedDimension
 13
-52.38749999999995
 23
6.349999999999997
 33
0.0
 14
-52.38749999999995
 24
-6.349999999999992
 34
0.0
 50
90.0000000000002
100
AcDbRotatedDimension
1001
ACAD
1000
DSTYLE
1002
{
1070
   171
1070
     5
1070
   273
1070
     7
1002
}
  0
LINE
  5
116
330
1F
100
AcDbEntity
  8
참조1
100
AcDbLine
 10
68.7193644723612
 20
7.441074928723896
 30
0.0
 11
68.7193644723612
 21
-7.438925071276109
 31
0.0
  0
LINE
  5
117
330
1F
100
AcDbEntity
  8
참조1
100
AcDbLine
 10
81.41936447236121
 20
5.441074928723896
 30
0.0
 11
68.7193644723612
 21
5.441074928723896
 31
0.0
  0
SOLID
  5
118
330
1F
100
AcDbEntity
  8
참조1
100
AcDbTrace
 10
68.7193644723612
 20
5.441074928723896
 30
0.0
 11
75.0693644723612
 21
4.425074928723896
 31
0.0
 12
75.0693644723612
 22
6.457074928723896
 32
0.0
 13
75.0693644723612
 23
6.457074928723896
 33
0.0
  0
LINE
  5
119
330
1F
100
AcDbEntity
  8
참조1
100
AcDbLine
 10
81.41936447236121
 20
-5.438925071276109
 30
0.0
 11
68.7193644723612
 21
-5.438925071276109
 31
0.0
  0
SOLID
  5
11A
330
1F
100
AcDbEntity
  8
참조1
100
AcDbTrace
 10
68.7193644723612
 20
-5.438925071276109
 30
0.0
 11
75.0693644723612
 21
-6.454925071276109
 31
0.0
 12
75.0693644723612
 22
-4.422925071276109
 32
0.0
 13
75.0693644723612
 23
-4.422925071276109
 33
0.0
  0
MTEXT
  5
11B
330
1F
100
AcDbEntity
  8
참조1
100
AcDbMText
 10
78.1037146049872
 20
11.01136670591223
 30
0.0
 40
3.5
 41
0.0
 71
     1
 72
     1
  1
A
  7
SLDTEXTSTYLE0
 73
     1
 44
1.0
  0
MTEXT
  5
11C
330
1F
100
AcDbEntity
  8
참조1
100
AcDbMText
 10
78.1037146049872
 20
0.1313667059122219
 30
0.0
 40
3.5
 41
0.0
 71
     1
 72
     1
  1
A
  7
SLDTEXTSTYLE0
 73
     1
 44
1.0
  0
INSERT
  5
123
330
1F
100
AcDbEntity
  8
해칭선
100
AcDbBlockReference
  2
SW_DOWELSYMBOL_0
 10
0.0
 20
0.0
 30
0.0
  0
LINE
  5
304
330
1F
100
AcDbEntity
  8
0
  6
Continuous
 62
     1
370
    15
100
AcDbLine
 10
-39.92523092519391
 20
-6.349999999999992
 30
0.0
 11
-36.054967482432
 21
-6.349999999999992
 31
0.0
  0
LINE
  5
305
330
1F
100
AcDbEntity
  8
0
  6
Continuous
 62
     1
370
    15
100
AcDbLine
 10
-36.05496748243194
 20
6.350000000000011
 30
0.0
 11
-39.92523092519391
 21
6.350000000000011
 31
0.0
  0
LINE
  5
308
330
1F
100
AcDbEntity
  8
0
  6
Continuous
 62
     1
370
    15
100
AcDbLine
 10
-52.38749999999998
 20
5.751076567773995
 30
0.0
 11
-52.38749999999998
 21
-0.5440765677740529
 31
0.0
  0
SPLINE
  5
309
330
1F
100
AcDbEntity
  8
0
  6
Continuous
 62
     1
370
    15
100
AcDbSpline
210
0.0
220
0.0
230
1.0
 70
     8
 71
     3
 72
    46
 73
    42
 74
     0
 42
0.000000001
 43
0.00000001
 40
0.0
 40
0.0
 40
0.0
 40
0.0
 40
0.0624999999999997
 40
0.0624999999999997
 40
0.1249999999999994
 40
0.1249999999999994
 40
0.1874999999999991
 40
0.1874999999999991
 40
0.2499999999999987
 40
0.2499999999999987
 40
0.3124999999999984
 40
0.3124999999999984
 40
0.3437499999999976
 40
0.3437499999999976
 40
0.3749999999999969
 40
0.3749999999999969
 40
0.4374999999999966
 40
0.4374999999999966
 40
0.4687499999999964
 40
0.4687499999999964
 40
0.4999999999999962
 40
0.4999999999999962
 40
0.5312499999999961
 40
0.5312499999999961
 40
0.5624999999999959
 40
0.5624999999999959
 40
0.6249999999999956
 40
0.6249999999999956
 40
0.6562499999999954
 40
0.6562499999999954
 40
0.6874999999999952
 40
0.6874999999999952
 40
0.7499999999999962
 40
0.7499999999999962
 40
0.8124999999999971
 40
0.8124999999999971
 40
0.874999999999998
 40
0.874999999999998
 40
0.937499999999999
 40
0.937499999999999
 40
1.0
 40
1.0
 40
1.0
 40
1.0
 10
-52.38749999999998
 20
5.751076567773995
 30
0.0
 10
-51.86122572742331
 20
5.621785940515426
 30
0.0
 10
-51.32895658586929
 20
5.472006050642523
 30
0.0
 10
-50.26895434411104
 20
5.135853442512103
 30
0.0
 10
-49.74355296790278
 20
4.94986878556769
 30
0.0
 10
-48.68281744171193
 20
4.543692140436515
 30
0.0
 10
-48.15299580483548
 20
4.324128771846229
 30
0.0
 10
-47.09826289984778
 20
3.857308870276181
 30
0.0
 10
-46.56570292894596
 20
3.608891017570055
 30
0.0
 10
-45.50675150982567
 20
3.089661955447507
 30
0.0
 10
-44.98081677467498
 20
2.819010438789384
 30
0.0
 10
-44.18495387042824
 20
2.398581367268821
 30
0.0
 10
-43.91950362892978
 20
2.2561994056529
 30
0.0
 10
-43.39035000554363
 20
1.968080535729551
 30
0.0
 10
-43.12761190912467
 20
1.822525584854876
 30
0.0
 10
-42.33515817508987
 20
1.380726304054458
 30
0.0
 10
-41.80246869661649
 20
1.079543070078891
 30
0.0
 10
-41.009280615454
 20
0.624812912875963
 30
0.0
 10
-40.74663475685224
 20
0.4728984381625765
 30
0.0
 10
-40.21792309971419
 20
0.1678578110915254
 30
0.0
 10
-39.95257195190461
 20
0.014867934016553
 30
0.0
 10
-39.42194851950122
 20
-0.2908570100128471
 30
0.0
 10
-39.15667803608348
 20
-0.443591039308427
 30
0.0
 10
-38.62828694418788
 20
-0.7476127454781654
 30
0.0
 10
-38.36558068859542
 20
-0.8988231051281133
 30
0.0
 10
-37.57195851055993
 20
-1.350772431780766
 30
0.0
 10
-37.03930097774215
 20
-1.649081536326467
 30
0.0
 10
-36.24737472276413
 20
-2.085117411750261
 30
0.0
 10
-35.98445545039288
 20
-2.228591407635375
 30
0.0
 10
-35.45504366858304
 20
-2.512069074124352
 30
0.0
 10
-35.18954433537268
 20
-2.651888443629848
 30
0.0
 10
-34.39377602998157
 20
-3.063935785085239
 30
0.0
 10
-33.86811608803364
 20
-3.328113406349214
 30
0.0
 10
-32.8087109599011
 20
-3.832918419900583
 30
0.0
 10
-32.27624679353712
 20
-4.073247745159986
 30
0.0
 10
-31.22234100343618
 20
-4.522429495563256
 30
0.0
 10
-30.69161402112686
 20
-4.732620483247584
 30
0.0
 10
-29.63113063229061
 20
-5.118520909754683
 30
0.0
 10
-29.10579303643569
 20
-5.293790385968212
 30
0.0
 10
-28.04546262565514
 20
-5.607470079799367
 30
0.0
 10
-27.51422504416336
 20
-5.745385080423955
 30
0.0
 10
-26.9875
 20
-5.86258960761428
 30
0.0
  0
SPLINE
  5
30A
330
1F
100
AcDbEntity
  8
0
  6
Continuous
 62
     1
370
    15
100
AcDbSpline
210
0.0
220
0.0
230
1.0
 70
     8
 71
     3
 72
    18
 73
    14
 74
     0
 42
0.000000001
 43
0.00000001
 40
0.0
 40
0.0
 40
0.0
 40
0.0
 40
0.0882206267036164
 40
0.1764121794786978
 40
0.2645835724374214
 40
0.3527437778355601
 40
0.4409018002558265
 40
0.5290666505937773
 40
0.6172473200051277
 40
0.7142454686608236
 40
0.8112453264814523
 40
0.9082470349190964
 40
1.0
 40
1.0
 40
1.0
 40
1.0
 10
-52.38749999999998
 20
-0.5440765677740493
 30
0.0
 10
-51.70981372542172
 20
-0.9319542470880833
 30
0.0
 10
-50.35466451408373
 20
-1.707581777017229
 30
0.0
 10
-48.32238771169371
 20
-2.808085845210606
 30
0.0
 10
-46.29065565339368
 20
-3.814214672915089
 30
0.0
 10
-44.25923532038941
 20
-4.690137717277548
 30
0.0
 10
-42.22787731315159
 20
-5.406511466364731
 30
0.0
 10
-40.19632004859954
 20
-5.938958018591703
 30
0.0
 10
-38.09683117552262
 20
-6.279987217353832
 30
0.0
 10
-35.92918620258248
 20
-6.394244024183789
 30
0.0
 10
-33.69385542513555
 20
-6.244100593818151
 30
0.0
 10
-31.49878623411416
 20
-5.861603233723113
 30
0.0
 10
-30.04883295262956
 20
-5.415348211025436
 30
0.0
 10
-29.34401589922867
 20
-5.198425256210581
 30
0.0
  0
SPLINE
  5
30B
330
1F
100
AcDbEntity
  8
0
  6
Continuous
 62
     1
370
    15
100
AcDbSpline
210
0.0
220
0.0
230
1.0
 70
     8
 71
     3
 72
    17
 73
    13
 74
     0
 42
0.000000001
 43
0.00000001
 40
0.0
 40
0.0
 40
0.0
 40
0.0
 40
0.1036063001749163
 40
0.2071808183941092
 40
0.3107340423807501
 40
0.4142765213053007
 40
0.5178188353950897
 40
0.6213715653541322
 40
0.7249452617800561
 40
0.8388711975171629
 40
0.9527992903633427
 40
1.0
 40
1.0
 40
1.0
 40
1.0
 10
-26.9875
 20
2.439783411021025
 30
0.0
 10
-27.66511774533455
 20
2.7928235906903
 30
0.0
 10
-29.02014537203066
 20
3.498795652489615
 30
0.0
 10
-31.05227478098563
 20
4.416531455584095
 30
0.0
 10
-33.08391490575348
 20
5.189825564164539
 30
0.0
 10
-35.11529962416139
 20
5.784814439926723
 30
0.0
 10
-37.1466791450382
 20
6.183579121580773
 30
0.0
 10
-39.17831160451677
 20
6.370980589654979
 30
0.0
 10
-41.27790212715063
 20
6.34372950952839
 30
0.0
 10
-43.44560902798096
 20
6.06109691043343
 30
0.0
 10
-45.24455162737174
 20
5.664666776975724
 30
0.0
 10
-46.29839821695546
 20
5.296044656550673
 30
0.0
 10
-46.60710967083607
 20
5.188061320215229
 30
0.0
  0
SPLINE
  5
30C
330
1F
100
AcDbEntity
  8
외형선
  6
Continuous
370
    15
100
AcDbSpline
210
0.0
220
0.0
230
1.0
 70
    24
 71
     3
 72
    22
 73
    18
 74
     0
 42
0.000000001
 43
0.00000001
 40
0.0
 40
0.0
 40
0.0
 40
0.0
 40
0.1249999999999999
 40
0.1249999999999999
 40
0.2499999999999998
 40
0.2499999999999998
 40
0.3749999999999997
 40
0.3749999999999997
 40
0.4999999999999997
 40
0.4999999999999997
 40
0.6249999999999998
 40
0.6249999999999998
 40
0.7499999999999998
 40
0.7499999999999998
 40
0.8749999999999999
 40
0.8749999999999999
 40
1.0
 40
1.0
 40
1.0
 40
1.0
 10
-26.98749999999998
 20
-4.661835863626412
 30
0.0
 10
-26.9875
 20
-4.509512668145985
 30
0.0
 10
-26.98750000000003
 20
-4.340797059347115
 30
0.0
 10
-26.98750000000003
 20
-4.001204600499581
 30
0.0
 10
-26.9875
 20
-3.79592439689569
 30
0.0
 10
-26.9875
 20
-3.293563123317921
 30
0.0
 10
-26.98749999999998
 20
-2.995789414402509
 30
0.0
 10
-26.98749999999998
 20
-2.300350021683507
 30
0.0
 10
-26.98750000000003
 20
-1.901748396686572
 30
0.0
 10
-26.98749999999998
 20
-1.03582886276433
 30
0.0
 10
-26.98749999999998
 20
-0.5686049780229119
 30
0.0
 10
-26.98749999999998
 20
0.3454039966006477
 30
0.0
 10
-26.98749999999998
 20
0.789870840301208
 30
0.0
 10
-26.98749999999998
 20
1.54523599878917
 30
0.0
 10
-26.9875
 20
1.853912511825565
 30
0.0
 10
-26.98749999999998
 20
2.281238754075044
 30
0.0
 10
-26.98749999999998
 20
2.400593059339755
 30
0.0
 10
-26.9875
 20
2.439783411021014
 30
0.0
  0
SPLINE
  5
30D
330
1F
100
AcDbEntity
  8
0
  6
Continuous
 62
     1
370
    15
100
AcDbSpline
210
0.0
220
0.0
230
1.0
 70
     8
 71
     3
 72
    46
 73
    42
 74
     0
 42
0.000000001
 43
0.00000001
 40
0.0
 40
0.0
 40
0.0
 40
0.0
 40
0.0624999999999998
 40
0.0624999999999998
 40
0.1249999999999996
 40
0.1249999999999996
 40
0.1874999999999993
 40
0.1874999999999993
 40
0.2499999999999991
 40
0.2499999999999991
 40
0.3124999999999989
 40
0.3124999999999989
 40
0.3437499999999994
 40
0.3437499999999994
 40
0.3749999999999999
 40
0.3749999999999999
 40
0.4374999999999997
 40
0.4374999999999997
 40
0.4687500000000002
 40
0.4687500000000002
 40
0.5000000000000007
 40
0.5000000000000007
 40
0.5312500000000011
 40
0.5312500000000011
 40
0.5625000000000016
 40
0.5625000000000016
 40
0.6250000000000013
 40
0.6250000000000013
 40
0.6562500000000012
 40
0.6562500000000012
 40
0.6875000000000011
 40
0.6875000000000011
 40
0.7500000000000009
 40
0.7500000000000009
 40
0.8125000000000007
 40
0.8125000000000007
 40
0.8750000000000004
 40
0.8750000000000004
 40
0.9375000000000002
 40
0.9375000000000002
 40
1.0
 40
1.0
 40
1.0
 40
1.0
 10
-52.38749999999995
 20
6.349999999999997
 30
0.0
 10
-51.86122572742331
 20
6.30051905797801
 30
0.0
 10
-51.32895658586929
 20
6.252288692202245
 30
0.0
 10
-50.26895434411099
 20
6.112820052242429
 30
0.0
 10
-49.74355296790278
 20
6.021846046122557
 30
0.0
 10
-48.6828174417119
 20
5.79818864572947
 30
0.0
 10
-48.15299580483545
 20
5.665796403288875
 30
0.0
 10
-47.09826289984772
 20
5.363174405315934
 30
0.0
 10
-46.56570292894596
 20
5.192165273757669
 30
0.0
 10
-45.50675150982575
 20
4.815923516719965
 30
0.0
 10
-44.98081677467496
 20
4.610868312438757
 30
0.0
 10
-44.18495387042824
 20
4.279451191950943
 30
0.0
 10
-43.91950362892978
 20
4.165133970202137
 30
0.0
 10
-43.39035000554366
 20
3.929722372965702
 30
0.0
 10
-43.12761190912476
 20
3.808783928733955
 30
0.0
 10
-42.33515817508984
 20
3.435741949477577
 30
0.0
 10
-41.80246869661655
 20
3.173517719357878
 30
0.0
 10
-41.00928061545394
 20
2.76598848605532
 30
0.0
 10
-40.74663475685227
 20
2.627933357752137
 30
0.0
 10
-40.21792309971422
 20
2.346912328030693
 30
0.0
 10
-39.95257195190458
 20
2.204064786450025
 30
0.0
 10
-39.42194851950119
 20
1.914796729119121
 30
0.0
 10
-39.15667803608348
 20
1.76837719717367
 30
0.0
 10
-38.62828694418791
 20
1.473123448413566
 30
0.0
 10
-38.36558068859539
 20
1.324371305302424
 30
0.0
 10
-37.57195851055999
 20
0.8740235471062718
 30
0.0
 10
-37.03930097774215
 20
0.5690237682067931
 30
0.0
 10
-36.24737472276413
 20
0.1114949353664081
 30
0.0
 10
-35.98445545039288
 20
-0.041040221536403
 30
0.0
 10
-35.45504366858309
 20
-0.3464622354186317
 30
0.0
 10
-35.18954433537274
 20
-0.4991572032721094
 30
0.0
 10
-34.39377602998152
 20
-0.9554024017020353
 30
0.0
 10
-33.86811608803364
 20
-1.256376783647106
 30
0.0
 10
-32.8087109599011
 20
-1.849062086314444
 30
0.0
 10
-32.27624679353712
 20
-2.140489256154876
 30
0.0
 10
-31.22234100343618
 20
-2.70452316463835
 30
0.0
 10
-30.69161402112689
 20
-2.978793348982695
 30
0.0
 10
-29.63113063229064
 20
-3.504563373382947
 30
0.0
 10
-29.10579303643566
 20
-3.75539320946
 30
0.0
 10
-28.04546262565517
 20
-4.230795219553973
 30
0.0
 10
-27.5142250441633
 20
-4.454711916967921
 30
0.0
 10
-26.9875
 20
-4.661835863626405
 30
0.0
  0
LINE
  5
30E
330
1F
100
AcDbEntity
  8
0
  6
Continuous
 62
     1
370
    15
100
AcDbLine
 10
-52.38749999999995
 20
6.349999999999997
 30
0.0
 11
-52.38749999999998
 21
5.751076567773995
 31
0.0
  0
LINE
  5
30F
330
1F
100
AcDbEntity
  8
외형선
  6
Continuous
370
    15
100
AcDbLine
 10
-26.9875
 20
-4.661835863626412
 30
0.0
 11
-26.98749999999998
 21
-5.86258960761428
 31
0.0
  0
SPLINE
  5
310
330
1F
100
AcDbEntity
  8
0
  6
Continuous
 62
     1
370
    15
100
AcDbSpline
210
0.0
220
0.0
230
1.0
 70
     8
 71
     3
 72
    13
 73
     9
 74
     0
 42
0.000000001
 43
0.00000001
 40
0.0
 40
0.0
 40
0.0
 40
0.0
 40
0.1031202220144403
 40
0.2824888638419647
 40
0.4618609018910974
 40
0.6412365971656514
 40
0.8206162099976025
 40
1.0
 40
1.0
 40
1.0
 40
1.0
 10
-39.92523092519391
 20
-6.324826305536125
 30
0.0
 10
-40.35356074623802
 20
-6.326230079716137
 30
0.0
 10
-41.52693297268106
 20
-6.330075596778198
 30
0.0
 10
-43.44561220717295
 20
-6.062712781984037
 30
0.0
 10
-45.68098586708557
 20
-5.540369191632064
 30
0.0
 10
-47.91644045504525
 20
-4.777614749407118
 30
0.0
 10
-50.1519458732967
 20
-3.828868965272936
 30
0.0
 10
-51.64230950687553
 20
-3.071052662108965
 30
0.0
 10
-52.38749999999998
 20
-2.69214009880627
 30
0.0
  0
LINE
  5
311
330
1F
100
AcDbEntity
  8
0
  6
Continuous
 62
     1
370
    15
100
AcDbLine
 10
-52.38749999999998
 20
-0.5440765677740493
 30
0.0
 11
-52.38749999999998
 21
-2.69214009880627
 31
0.0
  0
SPLINE
  5
312
330
1F
100
AcDbEntity
  8
0
  6
Continuous
 62
     1
370
    15
100
AcDbSpline
210
0.0
220
0.0
230
1.0
 70
     8
 71
     3
 72
    12
 73
     8
 74
     0
 42
0.000000001
 43
0.00000001
 40
0.0
 40
0.0
 40
0.0
 40
0.0
 40
0.0138689990599011
 40
0.2603943358709947
 40
0.5069243760290133
 40
0.7534594781699459
 40
1.0
 40
1.0
 40
1.0
 40
1.0
 10
-36.05496748243194
 20
6.343057498219383
 30
0.0
 10
-36.01304898032344
 20
6.345350454971192
 30
0.0
 10
-35.22601738055837
 20
6.388401359221038
 30
0.0
 10
-33.69385132439916
 20
6.229395762616977
 30
0.0
 10
-31.45845235154402
 20
5.846259403076568
 30
0.0
 10
-29.22299821567869
 20
5.206229799654596
 30
0.0
 10
-27.73267153225023
 20
4.60980375499351
 30
0.0
 10
-26.98750000000003
 20
4.31158745482526
 30
0.0
  0
LINE
  5
313
330
1F
100
AcDbEntity
  8
외형선
  6
Continuous
370
    15
100
AcDbLine
 10
-26.9875
 20
4.311587454825246
 30
0.0
 11
-26.9875
 21
2.439783411021021
 31
0.0
  0
SPLINE
  5
314
330
1F
100
AcDbEntity
  8
0
  6
Continuous
 62
     1
370
    15
100
AcDbSpline
210
0.0
220
0.0
230
1.0
 70
     8
 71
     3
 72
    10
 73
     6
 74
     0
 42
0.000000001
 43
0.00000001
 40
0.0
 40
0.0
 40
0.0
 40
0.0
 40
0.3516915457669005
 40
0.7032671883119581
 40
1.0
 40
1.0
 40
1.0
 40
1.0
 10
-52.38749999999995
 20
-6.349999999999992
 30
0.0
 10
-51.70981404609133
 20
-6.271348234039881
 30
0.0
 10
-50.35466547598696
 20
-6.160766014412798
 30
0.0
 10
-48.42789837920881
 20
-5.766019756812729
 30
0.0
 10
-47.17881777757008
 20
-5.369534064437912
 30
0.0
 10
-46.60710967083607
 20
-5.188061320215209
 30
0.0
  0
LINE
  5
315
330
1F
100
AcDbEntity
  8
0
  6
Continuous
 62
     1
370
    15
100
AcDbLine
 10
-52.38749999999998
 20
-2.668500027570361
 30
0.0
 11
-52.38749999999995
 21
-6.349999999999992
 31
0.0
  0
SPLINE
  5
316
330
1F
100
AcDbEntity
  8
0
  6
Continuous
 62
     1
370
    15
100
AcDbSpline
210
0.0
220
0.0
230
1.0
 70
     8
 71
     3
 72
     9
 73
     5
 74
     0
 42
0.000000001
 43
0.00000001
 40
0.0
 40
0.0
 40
0.0
 40
0.0
 40
0.8626328276449376
 40
1.0
 40
1.0
 40
1.0
 40
1.0
 10
-26.98749999999998
 20
5.862589607614285
 30
0.0
 10
-27.66512627232586
 20
5.705935486276192
 30
0.0
 10
-28.45065894695852
 20
5.524335486464255
 30
0.0
 10
-29.23611941564803
 20
5.237787537679327
 30
0.0
 10
-29.34401589922862
 20
5.198425256210593
 30
0.0
  0
SPLINE
  5
317
330
1F
100
AcDbEntity
  8
외형선
  6
Continuous
370
    15
100
AcDbSpline
210
0.0
220
0.0
230
1.0
 70
    24
 71
     3
 72
    11
 73
     7
 74
     0
 42
0.000000001
 43
0.00000001
 40
0.0
 40
0.0
 40
0.0
 40
0.0
 40
0.0765702368750985
 40
0.4825566272294744
 40
0.9003166504076023
 40
1.0
 40
1.0
 40
1.0
 40
1.0
 10
-26.9875
 20
4.384160485189436
 30
0.0
 10
-26.98750000000003
 20
4.417773619654642
 30
0.0
 10
-26.98750000000006
 20
4.629608419442479
 30
0.0
 10
-26.98749999999986
 20
5.075898201974932
 30
0.0
 10
-26.9875
 20
5.543497773992928
 30
0.0
 10
-26.9875
 20
5.811047287940997
 30
0.0
 10
-26.98749999999998
 20
5.862589607614278
 30
0.0
  0
LINE
  5
318
330
1F
100
AcDbEntity
  8
외형선
  6
Continuous
370
    15
100
AcDbLine
 10
-26.48766089253882
 20
-5.967489125043881
 30
0.0
 11
-26.48766089253882
 21
-6.349999999999992
 31
0.0
  0
SPLINE
  5
319
330
1F
100
AcDbEntity
  8
외형선
  6
Continuous
370
    15
100
AcDbSpline
210
0.0
220
0.0
230
1.0
 70
     8
 71
     3
 72
     8
 73
     4
 74
     0
 42
0.000000001
 43
0.00000001
 40
0.0
 40
0.0
 40
0.0
 40
0.0
 40
1.0
 40
1.0
 40
1.0
 40
1.0
 10
-26.9875
 20
-5.862589607614273
 30
0.0
 10
-26.82136463559782
 20
-5.899557314105775
 30
0.0
 10
-26.65466600259864
 20
-5.934546764193908
 30
0.0
 10
-26.48766089253882
 20
-5.967493100155704
 30
0.0
  0
SPLINE
  5
31A
330
1F
100
AcDbEntity
  8
외형선
  6
Continuous
370
    15
100
AcDbSpline
210
0.0
220
0.0
230
1.0
 70
     8
 71
     3
 72
     8
 73
     4
 74
     0
 42
0.000000001
 43
0.00000001
 40
0.0
 40
0.0
 40
0.0
 40
0.0
 40
1.0
 40
1.0
 40
1.0
 40
1.0
 10
-26.98749999999998
 20
-4.661835863626433
 30
0.0
 10
-26.8213646355978
 20
-4.72716522803739
 30
0.0
 10
-26.65466600259864
 20
-4.79096207324977
 30
0.0
 10
-26.48766089253882
 20
-4.853118986118642
 30
0.0
  0
LINE
  5
31B
330
1F
100
AcDbEntity
  8
외형선
  6
Continuous
370
    15
100
AcDbLine
 10
-26.48766089253882
 20
2.170615936199489
 30
0.0
 11
-26.48766089253882
 21
-4.853118499837312
 31
0.0
  0
SPLINE
  5
31C
330
1F
100
AcDbEntity
  8
외형선
  6
Continuous
370
    15
100
AcDbSpline
210
0.0
220
0.0
230
1.0
 70
     8
 71
     3
 72
     8
 73
     4
 74
     0
 42
0.000000001
 43
0.00000001
 40
0.0
 40
0.0
 40
0.0
 40
0.0
 40
1.0
 40
1.0
 40
1.0
 40
1.0
 10
-26.9875
 20
2.439783411021025
 30
0.0
 10
-26.82136463559782
 20
2.350953193176518
 30
0.0
 10
-26.65466600259864
 20
2.261182073494101
 30
0.0
 10
-26.48766089253882
 20
2.170605007732689
 30
0.0
  0
SPLINE
  5
31D
330
1F
100
AcDbEntity
  8
외형선
  6
Continuous
370
    15
100
AcDbSpline
210
0.0
220
0.0
230
1.0
 70
     8
 71
     3
 72
     8
 73
     4
 74
     0
 42
0.000000001
 43
0.00000001
 40
0.0
 40
0.0
 40
0.0
 40
0.0
 40
1.0
 40
1.0
 40
1.0
 40
1.0
 10
-26.98749999999998
 20
4.311587454825225
 30
0.0
 10
-26.8213646355978
 20
4.240951110984379
 30
0.0
 10
-26.65466600259864
 20
4.168749462198153
 30
0.0
 10
-26.48766089253882
 20
4.095086825279121
 30
0.0
  0
LINE
  5
31E
330
1F
100
AcDbEntity
  8
외형선
  6
Continuous
370
    15
100
AcDbLine
 10
-26.48766089253882
 20
6.350000000000011
 30
0.0
 11
-26.48766089253882
 21
4.095087401574804
 31
0.0
  0
SPLINE
  5
31F
330
1F
100
AcDbEntity
  8
외형선
  6
Continuous
370
    15
100
AcDbSpline
210
0.0
220
0.0
230
1.0
 70
     8
 71
     3
 72
     8
 73
     4
 74
     0
 42
0.000000001
 43
0.00000001
 40
0.0
 40
0.0
 40
0.0
 40
0.0
 40
1.0
 40
1.0
 40
1.0
 40
1.0
 10
-26.9875
 20
5.862589607614271
 30
0.0
 10
-26.82136463559782
 20
5.899557314105773
 30
0.0
 10
-26.65466600259864
 20
5.934546764193914
 30
0.0
 10
-26.48766089253882
 20
5.96749310015571
 30
0.0
  0
SPLINE
  5
320
330
1F
100
AcDbEntity
  8
외형선
  6
Continuous
370
    15
100
AcDbSpline
210
0.0
220
0.0
230
1.0
 70
    24
 71
     3
 72
    22
 73
    18
 74
     0
 42
0.000000001
 43
0.00000001
 40
0.0
 40
0.0
 40
0.0
 40
0.0
 40
0.125
 40
0.125
 40
0.25
 40
0.25
 40
0.375
 40
0.375
 40
0.5
 40
0.5
 40
0.625
 40
0.625
 40
0.75
 40
0.75
 40
0.875
 40
0.875
 40
1.0
 40
1.0
 40
1.0
 40
1.0
 10
-26.98749999999998
 20
2.439783411021
 30
0.0
 10
-26.98749999999995
 20
2.40059305933973
 30
0.0
 10
-26.98749999999998
 20
2.281238754075008
 30
0.0
 10
-26.98749999999998
 20
1.853912511825502
 30
0.0
 10
-26.9875
 20
1.545235998789099
 30
0.0
 10
-26.9875
 20
0.7898708403011299
 30
0.0
 10
-26.9875
 20
0.3454039966005731
 30
0.0
 10
-26.98749999999998
 20
-0.5686049780229865
 30
0.0
 10
-26.98749999999998
 20
-1.035828862764398
 30
0.0
 10
-26.98749999999998
 20
-1.901748396686625
 30
0.0
 10
-26.98749999999998
 20
-2.300350021683553
 30
0.0
 10
-26.98749999999998
 20
-2.995789414402541
 30
0.0
 10
-26.98749999999998
 20
-3.293563123317949
 30
0.0
 10
-26.98749999999998
 20
-3.795924396895711
 30
0.0
 10
-26.9875
 20
-4.001204600499588
 30
0.0
 10
-26.9875
 20
-4.340797059347122
 30
0.0
 10
-26.9875
 20
-4.509512668145985
 30
0.0
 10
-26.98749999999998
 20
-4.661835863626419
 30
0.0
  0
SPLINE
  5
321
330
1F
100
AcDbEntity
  8
외형선
  6
Continuous
370
    15
100
AcDbSpline
210
0.0
220
0.0
230
1.0
 70
    24
 71
     3
 72
    11
 73
     7
 74
     0
 42
0.000000001
 43
0.00000001
 40
0.0
 40
0.0
 40
0.0
 40
0.0
 40
0.2703332294843422
 40
0.544040738743129
 40
0.9502834276236782
 40
1.0
 40
1.0
 40
1.0
 40
1.0
 10
-26.9875
 20
5.862589607614278
 30
0.0
 10
-26.9875
 20
5.722971475658691
 30
0.0
 10
-26.98749999999998
 20
5.441992508345126
 30
0.0
 10
-26.98750000000006
 20
4.96682024994747
 30
0.0
 10
-26.98749999999989
 20
4.604938582442112
 30
0.0
 10
-26.9875
 20
4.405857726640991
 30
0.0
 10
-26.9875
 20
4.38415048518944
 30
0.0
  0
LINE
  5
3A1
330
1F
100
AcDbEntity
  8
외형선
  6
Continuous
370
    15
100
AcDbLine
 10
-4.203700000000026
 20
4.825999999999996
 30
0.0
 11
4.203700000000026
 21
4.825999999999996
 31
0.0
  0
LINE
  5
3A2
330
1F
100
AcDbEntity
  8
외형선
  6
Continuous
370
    15
100
AcDbLine
 10
-4.203700000000026
 20
4.825999999999996
 30
0.0
 11
-5.727700000000027
 21
6.349999999999997
 31
0.0
  0
LINE
  5
3A3
330
1F
100
AcDbEntity
  8
외형선
  6
Continuous
370
    15
100
AcDbLine
 10
4.203700000000026
 20
4.825999999999996
 30
0.0
 11
5.727700000000027
 21
6.349999999999997
 31
0.0
  0
LINE
  5
3A4
330
1F
100
AcDbEntity
  8
외형선
  6
Continuous
370
    15
100
AcDbLine
 10
-5.727700000000031
 20
6.349999999999997
 30
0.0
 11
-26.48766089253883
 21
6.349999999999997
 31
0.0
  0
ENDSEC
  0
SECTION
  2
OBJECTS
  0
DICTIONARY
  5
C
330
0
100
AcDbDictionary
281
     1
  3
ACAD_GROUP
350
D
  3
ACAD_IMAGE_VARS
350
147
  3
ACAD_LAYOUT
350
1A
  3
ACAD_MLINESTYLE
350
17
  3
ACAD_PLOTSETTINGS
350
19
  3
ACAD_PLOTSTYLENAME
350
E
  3
ACAD_SCALELIST
350
47
  3
APPDATA
350
145
  3
DWGPROPS
350
3EB
  0
DICTIONARY
  5
1CE
330
2
100
AcDbDictionary
280
     1
281
     1
  3
ACAD_LAYERSTATES
360
1CF
  0
DICTIONARY
  5
D
102
{ACAD_REACTORS
330
C
102
}
330
C
100
AcDbDictionary
281
     1
  0
RASTERVARIABLES
  5
147
102
{ACAD_REACTORS
330
C
102
}
330
C
100
AcDbRasterVariables
 90
        0
 70
     1
 71
     1
 72
     1
  0
DICTIONARY
  5
1A
102
{ACAD_REACTORS
330
C
102
}
330
C
100
AcDbDictionary
281
     1
  3
Layout1
350
1E
  3
Layout2
350
26
  3
Model
350
22
  0
DICTIONARY
  5
17
102
{ACAD_REACTORS
330
C
102
}
330
C
100
AcDbDictionary
281
     1
  3
Standard
350
18
  0
DICTIONARY
  5
19
102
{ACAD_REACTORS
330
C
102
}
330
C
100
AcDbDictionary
281
     1
  0
ACDBDICTIONARYWDFLT
  5
E
102
{ACAD_REACTORS
330
C
102
}
330
C
100
AcDbDictionary
281
     1
  3
Normal
350
F
100
AcDbDictionaryWithDefault
340
F
  0
DICTIONARY
  5
47
102
{ACAD_REACTORS
330
C
102
}
330
C
100
AcDbDictionary
281
     1
  3
A0
350
48
  3
A1
350
49
  3
A2
350
4A
  3
A3
350
4B
  3
A4
350
4C
  3
A5
350
4D
  3
A6
350
4E
  3
A7
350
4F
  3
A8
350
50
  3
A9
350
51
  3
B0
350
52
  3
B1
350
53
  3
B2
350
54
  3
B3
350
55
  3
B4
350
56
  3
B5
350
57
  3
B6
350
58
  3
B7
350
59
  3
B8
350
5A
  3
B9
350
5B
  3
C0
350
5C
  3
C1
350
5D
  3
C2
350
5E
  3
C3
350
5F
  3
C4
350
60
  3
C5
350
61
  3
C6
350
62
  3
C7
350
63
  3
C8
350
64
  3
C9
350
65
  3
D0
350
66
  3
D1
350
67
  3
D2
350
68
  0
DICTIONARY
  5
145
102
{ACAD_REACTORS
330
C
102
}
330
C
100
AcDbDictionary
281
     1
  0
XRECORD
  5
3EB
102
{ACAD_REACTORS
330
C
102
}
330
C
100
AcDbXrecord
280
     1
  1
DWGPROPS COOKIE
  2

  3

  4

  6

  7

  8
12016016
  9

300
=
301
=
302
=
303
=
304
=
305
=
306
=
307
=
308
=
309
=
 40
0.0
 41
2458313.099201343
 42
2458319.104173901
  1

 90
        0
  0
DICTIONARY
  5
1CF
102
{ACAD_REACTORS
330
1CE
102
}
330
1CE
100
AcDbDictionary
281
     1
  0
LAYOUT
  5
1E
102
{ACAD_REACTORS
330
1A
102
}
330
1A
100
AcDbPlotSettings
  1

  2
none_device
  4

  6

 40
0.0
 41
0.0
 42
0.0
 43
0.0
 44
0.0
 45
0.0
 46
0.0
 47
0.0
 48
0.0
 49
0.0
140
0.0
141
0.0
142
1.0
143
1.0
 70
   688
 72
     1
 73
     0
 74
     5
  7

 75
    16
147
1.0
148
0.0
149
0.0
100
AcDbLayout
  1
Layout1
 70
     1
 71
     1
 10
0.0
 20
0.0
 11
420.0
 21
297.0
 12
0.0
 22
0.0
 32
0.0
 14
1.000000000000000E+20
 24
1.000000000000000E+20
 34
1.000000000000000E+20
 15
-1.000000000000000E+20
 25
-1.000000000000000E+20
 35
-1.000000000000000E+20
146
0.0
 13
0.0
 23
0.0
 33
0.0
 16
1.0
 26
0.0
 36
0.0
 17
0.0
 27
1.0
 37
0.0
 76
     0
330
1B
  0
LAYOUT
  5
26
102
{ACAD_REACTORS
330
1A
102
}
330
1A
100
AcDbPlotSettings
  1

  2
none_device
  4

  6

 40
0.0
 41
0.0
 42
0.0
 43
0.0
 44
0.0
 45
0.0
 46
0.0
 47
0.0
 48
0.0
 49
0.0
140
0.0
141
0.0
142
1.0
143
1.0
 70
   688
 72
     1
 73
     0
 74
     5
  7

 75
    16
147
1.0
148
0.0
149
0.0
100
AcDbLayout
  1
Layout2
 70
     1
 71
     2
 10
0.0
 20
0.0
 11
0.0
 21
0.0
 12
0.0
 22
0.0
 32
0.0
 14
0.0
 24
0.0
 34
0.0
 15
0.0
 25
0.0
 35
0.0
146
0.0
 13
0.0
 23
0.0
 33
0.0
 16
1.0
 26
0.0
 36
0.0
 17
0.0
 27
1.0
 37
0.0
 76
     0
330
23
  0
LAYOUT
  5
22
102
{ACAD_REACTORS
330
1A
102
}
330
1A
100
AcDbPlotSettings
  1

  2
none_device
  4
ANSI_A_(11.00_x_8.50_Inches)
  6

 40
6.35
 41
19.05
 42
6.35000508
 43
19.05000254
 44
279.4
 45
215.9
 46
61.47075058006798
 47
76.30195550580297
 48
0.0
 49
0.0
140
0.0
141
0.0
142
0.0418462529351176
143
1.0
 70
  1696
 72
     0
 73
     0
 74
     0
  7

 75
     0
147
0.0235690232323232
148
0.0
149
0.0
100
AcDbLayout
  1
Model
 70
     1
 71
     0
 10
0.0
 20
0.0
 11
420.0
 21
297.0
 12
0.0
 22
0.0
 32
0.0
 14
-68.96875000000007
 24
-49.97180738881174
 34
0.0
 15
81.41936447236121
 25
39.86025000000006
 35
0.0
146
0.0
 13
0.0
 23
0.0
 33
0.0
 16
1.0
 26
0.0
 36
0.0
 17
0.0
 27
1.0
 37
0.0
 76
     0
330
1F
331
29
  0
MLINESTYLE
  5
18
102
{ACAD_REACTORS
330
17
102
}
330
17
100
AcDbMlineStyle
  2
Standard
 70
     0
  3

 62
   256
 51
90.0
 52
90.0
 71
     2
 49
0.5
 62
   256
  6
BYLAYER
 49
-0.5
 62
   256
  6
BYLAYER
  0
ACDBPLACEHOLDER
  5
F
102
{ACAD_REACTORS
330
E
102
}
330
E
  0
SCALE
  5
48
102
{ACAD_REACTORS
330
47
102
}
330
47
100
AcDbScale
 70
     0
300
1:1
140
1.0
141
1.0
290
     1
  0
SCALE
  5
49
102
{ACAD_REACTORS
330
47
102
}
330
47
100
AcDbScale
 70
     0
300
1:2
140
1.0
141
2.0
290
     0
  0
SCALE
  5
4A
102
{ACAD_REACTORS
330
47
102
}
330
47
100
AcDbScale
 70
     0
300
1:4
140
1.0
141
4.0
290
     0
  0
SCALE
  5
4B
102
{ACAD_REACTORS
330
47
102
}
330
47
100
AcDbScale
 70
     0
300
1:5
140
1.0
141
5.0
290
     0
  0
SCALE
  5
4C
102
{ACAD_REACTORS
330
47
102
}
330
47
100
AcDbScale
 70
     0
300
1:8
140
1.0
141
8.0
290
     0
  0
SCALE
  5
4D
102
{ACAD_REACTORS
330
47
102
}
330
47
100
AcDbScale
 70
     0
300
1:10
140
1.0
141
10.0
290
     0
  0
SCALE
  5
4E
102
{ACAD_REACTORS
330
47
102
}
330
47
100
AcDbScale
 70
     0
300
1:16
140
1.0
141
16.0
290
     0
  0
SCALE
  5
4F
102
{ACAD_REACTORS
330
47
102
}
330
47
100
AcDbScale
 70
     0
300
1:20
140
1.0
141
20.0
290
     0
  0
SCALE
  5
50
102
{ACAD_REACTORS
330
47
102
}
330
47
100
AcDbScale
 70
     0
300
1:30
140
1.0
141
30.0
290
     0
  0
SCALE
  5
51
102
{ACAD_REACTORS
330
47
102
}
330
47
100
AcDbScale
 70
     0
300
1:40
140
1.0
141
40.0
290
     0
  0
SCALE
  5
52
102
{ACAD_REACTORS
330
47
102
}
330
47
100
AcDbScale
 70
     0
300
1:50
140
1.0
141
50.0
290
     0
  0
SCALE
  5
53
102
{ACAD_REACTORS
330
47
102
}
330
47
100
AcDbScale
 70
     0
300
1:100
140
1.0
141
100.0
290
     0
  0
SCALE
  5
54
102
{ACAD_REACTORS
330
47
102
}
330
47
100
AcDbScale
 70
     0
300
2:1
140
2.0
141
1.0
290
     0
  0
SCALE
  5
55
102
{ACAD_REACTORS
330
47
102
}
330
47
100
AcDbScale
 70
     0
300
4:1
140
4.0
141
1.0
290
     0
  0
SCALE
  5
56
102
{ACAD_REACTORS
330
47
102
}
330
47
100
AcDbScale
 70
     0
300
8:1
140
8.0
141
1.0
290
     0
  0
SCALE
  5
57
102
{ACAD_REACTORS
330
47
102
}
330
47
100
AcDbScale
 70
     0
300
10:1
140
10.0
141
1.0
290
     0
  0
SCALE
  5
58
102
{ACAD_REACTORS
330
47
102
}
330
47
100
AcDbScale
 70
     0
300
100:1
140
100.0
141
1.0
290
     0
  0
SCALE
  5
59
102
{ACAD_REACTORS
330
47
102
}
330
47
100
AcDbScale
 70
     0
300
1/128" = 1'-0"
140
0.0078125
141
12.0
290
     0
  0
SCALE
  5
5A
102
{ACAD_REACTORS
330
47
102
}
330
47
100
AcDbScale
 70
     0
300
1/64" = 1'-0"
140
0.015625
141
12.0
290
     0
  0
SCALE
  5
5B
102
{ACAD_REACTORS
330
47
102
}
330
47
100
AcDbScale
 70
     0
300
1/32" = 1'-0"
140
0.03125
141
12.0
290
     0
  0
SCALE
  5
5C
102
{ACAD_REACTORS
330
47
102
}
330
47
100
AcDbScale
 70
     0
300
1/16" = 1'-0"
140
0.0625
141
12.0
290
     0
  0
SCALE
  5
5D
102
{ACAD_REACTORS
330
47
102
}
330
47
100
AcDbScale
 70
     0
300
3/32" = 1'-0"
140
0.09375
141
12.0
290
     0
  0
SCALE
  5
5E
102
{ACAD_REACTORS
330
47
102
}
330
47
100
AcDbScale
 70
     0
300
1/8" = 1'-0"
140
0.125
141
12.0
290
     0
  0
SCALE
  5
5F
102
{ACAD_REACTORS
330
47
102
}
330
47
100
AcDbScale
 70
     0
300
3/16" = 1'-0"
140
0.1875
141
12.0
290
     0
  0
SCALE
  5
60
102
{ACAD_REACTORS
330
47
102
}
330
47
100
AcDbScale
 70
     0
300
1/4" = 1'-0"
140
0.25
141
12.0
290
     0
  0
SCALE
  5
61
102
{ACAD_REACTORS
330
47
102
}
330
47
100
AcDbScale
 70
     0
300
3/8" = 1'-0"
140
0.375
141
12.0
290
     0
  0
SCALE
  5
62
102
{ACAD_REACTORS
330
47
102
}
330
47
100
AcDbScale
 70
     0
300
1/2" = 1'-0"
140
0.5
141
12.0
290
     0
  0
SCALE
  5
63
102
{ACAD_REACTORS
330
47
102
}
330
47
100
AcDbScale
 70
     0
300
3/4" = 1'-0"
140
0.75
141
12.0
290
     0
  0
SCALE
  5
64
102
{ACAD_REACTORS
330
47
102
}
330
47
100
AcDbScale
 70
     0
300
1" = 1'-0"
140
1.0
141
12.0
290
     0
  0
SCALE
  5
65
102
{ACAD_REACTORS
330
47
102
}
330
47
100
AcDbScale
 70
     0
300
1-1/2" = 1'-0"
140
1.5
141
12.0
290
     0
  0
SCALE
  5
66
102
{ACAD_REACTORS
330
47
102
}
330
47
100
AcDbScale
 70
     0
300
3" = 1'-0"
140
3.0
141
12.0
290
     0
  0
SCALE
  5
67
102
{ACAD_REACTORS
330
47
102
}
330
47
100
AcDbScale
 70
     0
300
6" = 1'-0"
140
6.0
141
12.0
290
     0
  0
SCALE
  5
68
102
{ACAD_REACTORS
330
47
102
}
330
47
100
AcDbScale
 70
     0
300
1'-0" = 1'-0"
140
12.0
141
12.0
290
     0
  0
ENDSEC
  0
EOF
