  0
SECTION
  2
HEADER
  9
$ACADVER
  1
AC1015
  9
$ACADMAINTVER
 70
     6
  9
$DWGCODEPAGE
  3
ANSI_949
  9
$INSBASE
 10
0.0
 20
0.0
 30
0.0
  9
$EXTMIN
 10
-79.76375000000007
 20
-49.97180738881174
 30
0.0
  9
$EXTMAX
 10
85.52928572687773
 20
43.49775000000012
 30
0.0
  9
$LIMMIN
 10
0.0
 20
0.0
  9
$LIMMAX
 10
420.0
 20
297.0
  9
$ORTHOMODE
 70
     1
  9
$REGENMODE
 70
     1
  9
$FILLMODE
 70
     1
  9
$QTEXTMODE
 70
     0
  9
$MIRRTEXT
 70
     1
  9
$LTSCALE
 40
1.0
  9
$ATTMODE
 70
     1
  9
$TEXTSIZE
 40
3.5
  9
$TRACEWID
 40
1.0
  9
$TEXTSTYLE
  7
Standard
  9
$CLAYER
  8
0
  9
$CELTYPE
  6
ByLayer
  9
$CECOLOR
 62
   256
  9
$CELTSCALE
 40
1.0
  9
$DISPSILH
 70
     0
  9
$DIMSCALE
 40
1.0
  9
$DIMASZ
 40
3.302
  9
$DIMEXO
 40
1.0
  9
$DIMDLI
 40
3.75
  9
$DIMRND
 40
0.0
  9
$DIMDLE
 40
0.0
  9
$DIMEXE
 40
1.0
  9
$DIMTP
 40
0.0
  9
$DIMTM
 40
0.0
  9
$DIMTXT
 40
3.5
  9
$DIMCEN
 40
2.5
  9
$DIMTSZ
 40
0.0
  9
$DIMTOL
 70
     0
  9
$DIMLIM
 70
     0
  9
$DIMTIH
 70
     1
  9
$DIMTOH
 70
     1
  9
$DIMSE1
 70
     0
  9
$DIMSE2
 70
     0
  9
$DIMTAD
 70
     1
  9
$DIMZIN
 70
     0
  9
$DIMBLK
  1

  9
$DIMASO
 70
     1
  9
$DIMSHO
 70
     1
  9
$DIMPOST
  1

  9
$DIMAPOST
  1

  9
$DIMALT
 70
     0
  9
$DIMALTD
 70
     3
  9
$DIMALTF
 40
0.0393700787401575
  9
$DIMLFAC
 40
1.0
  9
$DIMTOFL
 70
     1
  9
$DIMTVP
 40
0.0
  9
$DIMTIX
 70
     0
  9
$DIMSOXD
 70
     0
  9
$DIMSAH
 70
     0
  9
$DIMBLK1
  1

  9
$DIMBLK2
  1

  9
$DIMSTYLE
  2
ISO-25
  9
$DIMCLRD
 70
     0
  9
$DIMCLRE
 70
     0
  9
$DIMCLRT
 70
     0
  9
$DIMTFAC
 40
1.0
  9
$DIMGAP
 40
1.524
  9
$DIMJUST
 70
     0
  9
$DIMSD1
 70
     0
  9
$DIMSD2
 70
     0
  9
$DIMTOLJ
 70
     0
  9
$DIMTZIN
 70
     0
  9
$DIMALTZ
 70
     0
  9
$DIMALTTZ
 70
     0
  9
$DIMUPT
 70
     0
  9
$DIMDEC
 70
     2
  9
$DIMTDEC
 70
     2
  9
$DIMALTU
 70
     2
  9
$DIMALTTD
 70
     3
  9
$DIMTXSTY
  7
Standard
  9
$DIMAUNIT
 70
     0
  9
$DIMADEC
 70
     2
  9
$DIMALTRND
 40
0.0
  9
$DIMAZIN
 70
     0
  9
$DIMDSEP
 70
    44
  9
$DIMATFIT
 70
     3
  9
$DIMFRAC
 70
     0
  9
$DIMLDRBLK
  1

  9
$DIMLUNIT
 70
     2
  9
$DIMLWD
 70
    -2
  9
$DIMLWE
 70
    -2
  9
$DIMTMOVE
 70
     0
  9
$LUNITS
 70
     2
  9
$LUPREC
 70
     2
  9
$SKETCHINC
 40
1.0
  9
$FILLETRAD
 40
10.0
  9
$AUNITS
 70
     0
  9
$AUPREC
 70
     2
  9
$MENU
  1
.
  9
$ELEVATION
 40
0.0
  9
$PELEVATION
 40
0.0
  9
$THICKNESS
 40
0.0
  9
$LIMCHECK
 70
     0
  9
$CHAMFERA
 40
0.0
  9
$CHAMFERB
 40
0.0
  9
$CHAMFERC
 40
0.0
  9
$CHAMFERD
 40
0.0
  9
$SKPOLY
 70
     0
  9
$TDCREATE
 40
2458313.474412952
  9
$TDUCREATE
 40
2458313.099412952
  9
$TDUPDATE
 40
2458319.389931724
  9
$TDUUPDATE
 40
2458319.014931724
  9
$TDINDWG
 40
0.0020865278
  9
$TDUSRTIMER
 40
2458319.014827917
  9
$USRTIMER
 70
     1
  9
$ANGBASE
 50
0.0
  9
$ANGDIR
 70
     0
  9
$PDMODE
 70
     0
  9
$PDSIZE
 40
-1.0
  9
$PLINEWID
 40
0.0
  9
$SPLFRAME
 70
     0
  9
$SPLINETYPE
 70
     6
  9
$SPLINESEGS
 70
     8
  9
$HANDSEED
  5
3D1
  9
$SURFTAB1
 70
     6
  9
$SURFTAB2
 70
     6
  9
$SURFTYPE
 70
     6
  9
$SURFU
 70
     6
  9
$SURFV
 70
     6
  9
$UCSBASE
  2

  9
$UCSNAME
  2

  9
$UCSORG
 10
0.0
 20
0.0
 30
0.0
  9
$UCSXDIR
 10
1.0
 20
0.0
 30
0.0
  9
$UCSYDIR
 10
0.0
 20
1.0
 30
0.0
  9
$UCSORTHOREF
  2

  9
$UCSORTHOVIEW
 70
     0
  9
$UCSORGTOP
 10
0.0
 20
0.0
 30
0.0
  9
$UCSORGBOTTOM
 10
0.0
 20
0.0
 30
0.0
  9
$UCSORGLEFT
 10
0.0
 20
0.0
 30
0.0
  9
$UCSORGRIGHT
 10
0.0
 20
0.0
 30
0.0
  9
$UCSORGFRONT
 10
0.0
 20
0.0
 30
0.0
  9
$UCSORGBACK
 10
0.0
 20
0.0
 30
0.0
  9
$PUCSBASE
  2

  9
$PUCSNAME
  2

  9
$PUCSORG
 10
0.0
 20
0.0
 30
0.0
  9
$PUCSXDIR
 10
1.0
 20
0.0
 30
0.0
  9
$PUCSYDIR
 10
0.0
 20
1.0
 30
0.0
  9
$PUCSORTHOREF
  2

  9
$PUCSORTHOVIEW
 70
     0
  9
$PUCSORGTOP
 10
0.0
 20
0.0
 30
0.0
  9
$PUCSORGBOTTOM
 10
0.0
 20
0.0
 30
0.0
  9
$PUCSORGLEFT
 10
0.0
 20
0.0
 30
0.0
  9
$PUCSORGRIGHT
 10
0.0
 20
0.0
 30
0.0
  9
$PUCSORGFRONT
 10
0.0
 20
0.0
 30
0.0
  9
$PUCSORGBACK
 10
0.0
 20
0.0
 30
0.0
  9
$USERI1
 70
     0
  9
$USERI2
 70
     0
  9
$USERI3
 70
     0
  9
$USERI4
 70
     0
  9
$USERI5
 70
     0
  9
$USERR1
 40
0.0
  9
$USERR2
 40
0.0
  9
$USERR3
 40
0.0
  9
$USERR4
 40
0.0
  9
$USERR5
 40
0.0
  9
$WORLDVIEW
 70
     1
  9
$SHADEDGE
 70
     3
  9
$SHADEDIF
 70
    70
  9
$TILEMODE
 70
     1
  9
$MAXACTVP
 70
    64
  9
$PINSBASE
 10
0.0
 20
0.0
 30
0.0
  9
$PLIMCHECK
 70
     0
  9
$PEXTMIN
 10
1.000000000000000E+20
 20
1.000000000000000E+20
 30
1.000000000000000E+20
  9
$PEXTMAX
 10
-1.000000000000000E+20
 20
-1.000000000000000E+20
 30
-1.000000000000000E+20
  9
$PLIMMIN
 10
0.0
 20
0.0
  9
$PLIMMAX
 10
0.0
 20
0.0
  9
$UNITMODE
 70
     0
  9
$VISRETAIN
 70
     1
  9
$PLINEGEN
 70
     0
  9
$PSLTSCALE
 70
     1
  9
$TREEDEPTH
 70
  3020
  9
$CMLSTYLE
  2
Standard
  9
$CMLJUST
 70
     0
  9
$CMLSCALE
 40
20.0
  9
$PROXYGRAPHICS
 70
     1
  9
$MEASUREMENT
 70
     1
  9
$CELWEIGHT
370
    -1
  9
$ENDCAPS
280
     0
  9
$JOINSTYLE
280
     0
  9
$LWDISPLAY
290
     1
  9
$INSUNITS
 70
     4
  9
$HYPERLINKBASE
  1

  9
$STYLESHEET
  1

  9
$XEDIT
290
     1
  9
$CEPSNTYPE
380
     0
  9
$PSTYLEMODE
290
     1
  9
$FINGERPRINTGUID
  2
{8AE511E3-128C-4EC4-B73A-04B126DB182C}
  9
$VERSIONGUID
  2
{FAEB1C32-E019-11D5-929B-00C0DF256EC4}
  9
$EXTNAMES
290
     1
  9
$PSVPSCALE
 40
0.0
  9
$OLESTARTUP
290
     0
  0
ENDSEC
  0
SECTION
  2
CLASSES
  0
CLASS
  1
ACDBDICTIONARYWDFLT
  2
AcDbDictionaryWithDefault
  3
ObjectDBX Classes
 90
        0
280
     0
281
     0
  0
CLASS
  1
VISUALSTYLE
  2
AcDbVisualStyle
  3
ObjectDBX Classes
 90
     4095
280
     0
281
     0
  0
CLASS
  1
MATERIAL
  2
AcDbMaterial
  3
ObjectDBX Classes
 90
     1153
280
     0
281
     0
  0
CLASS
  1
SCALE
  2
AcDbScale
  3
ObjectDBX Classes
 90
     1153
280
     0
281
     0
  0
CLASS
  1
SUN
  2
AcDbSun
  3
SCENEOE
 90
     1153
280
     0
281
     0
  0
CLASS
  1
ACDBPLACEHOLDER
  2
AcDbPlaceHolder
  3
ObjectDBX Classes
 90
        0
280
     0
281
     0
  0
CLASS
  1
LAYOUT
  2
AcDbLayout
  3
ObjectDBX Classes
 90
        0
280
     0
281
     0
  0
CLASS
  1
TABLESTYLE
  2
AcDbTableStyle
  3
ObjectDBX Classes
 90
     4095
280
     0
281
     0
  0
CLASS
  1
MLEADERSTYLE
  2
AcDbMLeaderStyle
  3
ACDB_MLEADERSTYLE_CLASS
 90
     4095
280
     0
281
     0
  0
CLASS
  1
RASTERVARIABLES
  2
AcDbRasterVariables
  3
ISM
 90
        0
280
     0
281
     0
  0
ENDSEC
  0
SECTION
  2
TABLES
  0
TABLE
  2
VPORT
  5
8
330
0
100
AcDbSymbolTable
 70
     1
  0
VPORT
  5
29
330
8
100
AcDbSymbolTableRecord
100
AcDbViewportTableRecord
  2
*Active
 70
     0
 10
0.0
 20
0.0
 11
1.0
 21
1.0
 12
28.63987431415802
 22
-13.28996562828255
 13
0.0
 23
0.0
 14
10.0
 24
10.0
 15
10.0
 25
10.0
 16
0.0
 26
0.0
 36
1.0
 17
0.0
 27
0.0
 37
0.0
 40
131.5276704235209
 41
1.632093933463796
 42
50.0
 43
0.0
 44
0.0
 50
0.0
 51
0.0
 71
    16
 72
  2000
 73
     1
 74
     3
 75
     0
 76
     0
 77
     0
 78
     0
281
     0
 65
     1
110
0.0
120
0.0
130
0.0
111
1.0
121
0.0
131
0.0
112
0.0
122
1.0
132
0.0
 79
     0
146
0.0
  0
ENDTAB
  0
TABLE
  2
LTYPE
  5
5
330
0
100
AcDbSymbolTable
 70
     6
  0
LTYPE
  5
14
330
5
100
AcDbSymbolTableRecord
100
AcDbLinetypeTableRecord
  2
ByBlock
 70
     0
  3

 72
    65
 73
     0
 40
0.0
  0
LTYPE
  5
15
330
5
100
AcDbSymbolTableRecord
100
AcDbLinetypeTableRecord
  2
ByLayer
 70
     0
  3

 72
    65
 73
     0
 40
0.0
  0
LTYPE
  5
16
330
5
100
AcDbSymbolTableRecord
100
AcDbLinetypeTableRecord
  2
Continuous
 70
     0
  3
Solid line
 72
    65
 73
     0
 40
0.0
  0
LTYPE
  5
6A
330
5
100
AcDbSymbolTableRecord
100
AcDbLinetypeTableRecord
  2
HIDDEN
 70
     0
  3
Hidden __ __ __ __ __ __ __ __ __ __ __ __ __ __
 72
    65
 73
     2
 40
1.905
 49
1.27
 74
     0
 49
-0.635
 74
     0
  0
LTYPE
  5
6B
330
5
100
AcDbSymbolTableRecord
100
AcDbLinetypeTableRecord
  2
PHANTOM
 70
     0
  3
Phantom ______  __  __  ______  __  __  ______
 72
    65
 73
     6
 40
12.7
 49
6.35
 74
     0
 49
-1.27
 74
     0
 49
1.27
 74
     0
 49
-1.27
 74
     0
 49
1.27
 74
     0
 49
-1.27
 74
     0
  0
LTYPE
  5
6C
330
5
100
AcDbSymbolTableRecord
100
AcDbLinetypeTableRecord
  2
CENTER
 70
     0
  3
Center ____ _ ____ _ ____ _ ____ _ ____ _ ____
 72
    65
 73
     4
 40
10.16
 49
6.35
 74
     0
 49
-1.27
 74
     0
 49
1.27
 74
     0
 49
-1.27
 74
     0
  0
LTYPE
  5
6D
330
5
100
AcDbSymbolTableRecord
100
AcDbLinetypeTableRecord
  2
CENTERX2
 70
     0
  3
Center (2x) ________  __  ________  __  _____
 72
    65
 73
     4
 40
20.32
 49
12.7
 74
     0
 49
-2.54
 74
     0
 49
2.54
 74
     0
 49
-2.54
 74
     0
  0
LTYPE
  5
6E
330
5
100
AcDbSymbolTableRecord
100
AcDbLinetypeTableRecord
  2
DOT2
 70
     0
  3
Dot (.5x) ........................................
 72
    65
 73
     2
 40
0.635
 49
0.0
 74
     0
 49
-0.635
 74
     0
  0
ENDTAB
  0
TABLE
  2
LAYER
  5
2
102
{ACAD_XDICTIONARY
360
1CD
102
}
330
0
100
AcDbSymbolTable
 70
    18
  0
LAYER
  5
10
330
2
100
AcDbSymbolTableRecord
100
AcDbLayerTableRecord
  2
0
 70
     0
 62
     7
  6
Continuous
370
    -3
390
F
  0
LAYER
  5
6F
330
2
100
AcDbSymbolTableRecord
100
AcDbLayerTableRecord
  2
FORMAT
 70
     0
 62
     2
  6
Continuous
370
    -3
390
F
  0
LAYER
  5
70
330
2
100
AcDbSymbolTableRecord
100
AcDbLayerTableRecord
  2
외형선
 70
     0
 62
     4
  6
Continuous
370
    30
390
F
  0
LAYER
  5
71
330
2
100
AcDbSymbolTableRecord
100
AcDbLayerTableRecord
  2
숨은선
 70
     0
 62
     2
  6
HIDDEN
370
    15
390
F
  0
LAYER
  5
72
330
2
100
AcDbSymbolTableRecord
100
AcDbLayerTableRecord
  2
중심선
 70
     0
 62
     1
  6
CENTERX2
370
    -3
390
F
  0
LAYER
  5
73
330
2
100
AcDbSymbolTableRecord
100
AcDbLayerTableRecord
  2
파단선
 70
     0
 62
     4
  6
Continuous
370
    -3
390
F
  0
LAYER
  5
74
330
2
100
AcDbSymbolTableRecord
100
AcDbLayerTableRecord
  2
해칭선
 70
     0
 62
   100
  6
Continuous
370
    -3
390
F
  0
LAYER
  5
75
330
2
100
AcDbSymbolTableRecord
100
AcDbLayerTableRecord
  2
가는실선
 70
     0
 62
     4
  6
Continuous
370
    -3
390
F
  0
LAYER
  5
76
330
2
100
AcDbSymbolTableRecord
100
AcDbLayerTableRecord
  2
치수_보조선
 70
     0
 62
     4
  6
Continuous
370
    -3
390
F
  0
LAYER
  5
77
330
2
100
AcDbSymbolTableRecord
100
AcDbLayerTableRecord
  2
치수문자_일반주서
 70
     0
 62
     7
  6
Continuous
370
    15
390
F
  0
LAYER
  5
78
330
2
100
AcDbSymbolTableRecord
100
AcDbLayerTableRecord
  2
개별주서
 70
     0
 62
   100
  6
Continuous
370
    30
390
F
  0
LAYER
  5
79
330
2
100
AcDbSymbolTableRecord
100
AcDbLayerTableRecord
  2
중간선
 70
     0
 62
     2
  6
Continuous
370
    15
390
F
  0
LAYER
  5
7A
330
2
100
AcDbSymbolTableRecord
100
AcDbLayerTableRecord
  2
윤곽선
 70
     0
 62
     3
  6
Continuous
370
    40
390
F
  0
LAYER
  5
7B
330
2
100
AcDbSymbolTableRecord
100
AcDbLayerTableRecord
  2
중심마크
 70
     0
 62
   100
  6
Continuous
370
    30
390
F
  0
LAYER
  5
7C
330
2
100
AcDbSymbolTableRecord
100
AcDbLayerTableRecord
  2
가상선
 70
     0
 62
     4
  6
PHANTOM
370
    -3
390
F
  0
LAYER
  5
7D
330
2
100
AcDbSymbolTableRecord
100
AcDbLayerTableRecord
  2
특수지정선
 70
     0
 62
     5
  6
CENTERX2
370
    60
390
F
  0
LAYER
  5
7E
330
2
100
AcDbSymbolTableRecord
100
AcDbLayerTableRecord
  2
참조1
 70
     0
 62
    -4
  6
Continuous
370
    -3
390
F
  0
LAYER
  5
150
330
2
100
AcDbSymbolTableRecord
100
AcDbLayerTableRecord
  2
Defpoints
 70
     0
 62
     7
  6
Continuous
290
     0
370
    -3
390
F
  0
ENDTAB
  0
TABLE
  2
STYLE
  5
3
330
0
100
AcDbSymbolTable
 70
     2
  0
STYLE
  5
11
330
3
100
AcDbSymbolTableRecord
100
AcDbTextStyleTableRecord
  2
Standard
 70
     0
 40
0.0
 41
1.0
 50
0.0
 71
     0
 42
3.5
  3
txt
  4

  0
STYLE
  5
94
330
3
100
AcDbSymbolTableRecord
100
AcDbTextStyleTableRecord
  2
SLDTEXTSTYLE0
 70
     0
 40
0.0
 41
0.75
 50
0.0
 71
     0
 42
3.5
  3
TXT
  4

  0
ENDTAB
  0
TABLE
  2
VIEW
  5
6
330
0
100
AcDbSymbolTable
 70
     0
  0
ENDTAB
  0
TABLE
  2
UCS
  5
7
330
0
100
AcDbSymbolTable
 70
     0
  0
ENDTAB
  0
TABLE
  2
APPID
  5
9
330
0
100
AcDbSymbolTable
 70
     1
  0
APPID
  5
12
330
9
100
AcDbSymbolTableRecord
100
AcDbRegAppTableRecord
  2
ACAD
 70
     0
  0
ENDTAB
  0
TABLE
  2
DIMSTYLE
  5
A
330
0
100
AcDbSymbolTable
 70
     4
100
AcDbDimStyleTable
  0
DIMSTYLE
105
27
330
A
100
AcDbSymbolTableRecord
100
AcDbDimStyleTableRecord
  2
ISO-25
 70
     0
 41
2.5
 42
0.625
 43
3.75
 44
1.25
 73
     0
 74
     0
 77
     1
 78
     8
140
2.5
141
2.5
143
0.03937007874016
147
0.625
171
     3
172
     1
178
     0
271
     2
272
     2
274
     3
278
    44
283
     0
284
     8
340
11
  0
DIMSTYLE
105
CE
330
A
100
AcDbSymbolTableRecord
100
AcDbDimStyleTableRecord
  2
SLDDIMSTYLE0
 70
     0
 41
3.302
 44
0.0
 45
0.000000001
 73
     0
 74
     0
 77
     1
 78
    12
 79
     3
140
3.5
143
0.0393700787401575
147
0.875
148
0.000000001
170
     1
173
     1
178
     0
271
     2
272
     2
276
     2
284
    12
340
94
  0
DIMSTYLE
105
109
330
A
100
AcDbSymbolTableRecord
100
AcDbDimStyleTableRecord
  2
SLDDIMSTYLE1
 70
     0
 41
3.302
 44
0.0
 45
0.000000001
 73
     0
 74
     0
 77
     1
 78
    12
 79
     3
140
3.5
143
0.0393700787401575
147
0.875
148
0.000000001
170
     1
172
     1
173
     1
178
     0
271
     2
272
     2
276
     2
284
    12
289
     0
340
94
  0
DIMSTYLE
105
159
102
{ACAD_REACTORS
330
CD
330
E1
330
F5
330
108
102
}
330
A
100
AcDbSymbolTableRecord
100
AcDbDimStyleTableRecord
  2
SLDDIMSTYLE2
 70
     0
 41
3.302
 44
0.0
 45
0.000000001
 73
     0
 74
     0
 77
     1
 78
     4
 79
     1
140
3.5
143
0.0393700787401575
147
0.875
148
0.000000001
170
     1
172
     1
173
     1
178
     0
271
     2
272
     2
276
     2
284
    12
289
     0
340
94
  0
ENDTAB
  0
TABLE
  2
BLOCK_RECORD
  5
1
330
0
100
AcDbSymbolTable
 70
    19
  0
BLOCK_RECORD
  5
1F
330
1
100
AcDbSymbolTableRecord
100
AcDbBlockTableRecord
  2
*Model_Space
340
22
  0
BLOCK_RECORD
  5
1B
330
1
100
AcDbSymbolTableRecord
100
AcDbBlockTableRecord
  2
*Paper_Space
340
1E
  0
BLOCK_RECORD
  5
23
330
1
100
AcDbSymbolTableRecord
100
AcDbBlockTableRecord
  2
*Paper_Space0
340
26
  0
BLOCK_RECORD
  5
7F
330
1
100
AcDbSymbolTableRecord
100
AcDbBlockTableRecord
  2
블럭10
340
0
102
{BLKREFS
331
C6
102
}
  0
BLOCK_RECORD
  5
CF
330
1
100
AcDbSymbolTableRecord
100
AcDbBlockTableRecord
  2
_D
340
0
  0
BLOCK_RECORD
  5
E2
330
1
100
AcDbSymbolTableRecord
100
AcDbBlockTableRecord
  2
_D_1
340
0
  0
BLOCK_RECORD
  5
F6
330
1
100
AcDbSymbolTableRecord
100
AcDbBlockTableRecord
  2
_D_2
340
0
  0
BLOCK_RECORD
  5
10A
330
1
100
AcDbSymbolTableRecord
100
AcDbBlockTableRecord
  2
_D_3
340
0
  0
BLOCK_RECORD
  5
124
330
1
100
AcDbSymbolTableRecord
100
AcDbBlockTableRecord
  2
SW_DOWELSYMBOL_0
340
0
102
{BLKREFS
331
12A
102
}
  0
BLOCK_RECORD
  5
1D1
330
1
100
AcDbSymbolTableRecord
100
AcDbBlockTableRecord
  2
*D7
340
0
  0
BLOCK_RECORD
  5
1E0
330
1
100
AcDbSymbolTableRecord
100
AcDbBlockTableRecord
  2
*D8
340
0
  0
BLOCK_RECORD
  5
1EF
330
1
100
AcDbSymbolTableRecord
100
AcDbBlockTableRecord
  2
*D9
340
0
  0
BLOCK_RECORD
  5
220
330
1
100
AcDbSymbolTableRecord
100
AcDbBlockTableRecord
  2
*D10
340
0
  0
BLOCK_RECORD
  5
22F
330
1
100
AcDbSymbolTableRecord
100
AcDbBlockTableRecord
  2
*D11
340
0
  0
BLOCK_RECORD
  5
23E
330
1
100
AcDbSymbolTableRecord
100
AcDbBlockTableRecord
  2
*D12
340
0
  0
BLOCK_RECORD
  5
2D8
330
1
100
AcDbSymbolTableRecord
100
AcDbBlockTableRecord
  2
*D13
340
0
  0
BLOCK_RECORD
  5
2E7
330
1
100
AcDbSymbolTableRecord
100
AcDbBlockTableRecord
  2
*D14
340
0
  0
BLOCK_RECORD
  5
2F6
330
1
100
AcDbSymbolTableRecord
100
AcDbBlockTableRecord
  2
*D15
340
0
  0
BLOCK_RECORD
  5
32F
330
1
100
AcDbSymbolTableRecord
100
AcDbBlockTableRecord
  2
*D16
340
0
  0
BLOCK_RECORD
  5
33E
330
1
100
AcDbSymbolTableRecord
100
AcDbBlockTableRecord
  2
*D17
340
0
  0
BLOCK_RECORD
  5
34D
330
1
100
AcDbSymbolTableRecord
100
AcDbBlockTableRecord
  2
*D18
340
0
  0
ENDTAB
  0
ENDSEC
  0
SECTION
  2
BLOCKS
  0
BLOCK
  5
20
330
1F
100
AcDbEntity
  8
0
100
AcDbBlockBegin
  2
*Model_Space
 70
     0
 10
0.0
 20
0.0
 30
0.0
  3
*Model_Space
  1
*Model_Space
  0
ENDBLK
  5
21
330
1F
100
AcDbEntity
  8
0
100
AcDbBlockEnd
  0
BLOCK
  5
1C
330
1B
100
AcDbEntity
 67
     1
  8
0
100
AcDbBlockBegin
  2
*Paper_Space
 70
     0
 10
0.0
 20
0.0
 30
0.0
  3
*Paper_Space
  1
*Paper_Space
  0
ENDBLK
  5
1D
330
1B
100
AcDbEntity
 67
     1
  8
0
100
AcDbBlockEnd
  0
BLOCK
  5
24
330
23
100
AcDbEntity
  8
0
100
AcDbBlockBegin
  2
*Paper_Space0
 70
     0
 10
0.0
 20
0.0
 30
0.0
  3
*Paper_Space0
  1
*Paper_Space0
  0
ENDBLK
  5
25
330
23
100
AcDbEntity
  8
0
100
AcDbBlockEnd
  0
BLOCK
  5
80
330
7F
100
AcDbEntity
  8
0
100
AcDbBlockBegin
  2
블럭10
 70
     2
 10
0.0
 20
0.0
 30
0.0
  3
블럭10
  1
블럭10
  0
ELLIPSE
  5
82
330
7F
100
AcDbEntity
  8
중심선
100
AcDbEllipse
 10
20.54032771741204
 20
12.0471743016438
 30
0.0
 11
6.600054785286829
 21
-1.261213355974178E-13
 31
0.0
210
0.0
220
0.0
230
1.0
 40
0.636358354079598
 41
0.9219305317359503
 42
6.513795318482858
  0
ELLIPSE
  5
83
330
7F
100
AcDbEntity
  8
중심선
100
AcDbEllipse
 10
20.54032771746488
 20
12.04717430159265
 30
0.0
 11
3.960054785062283
 21
1.540847449632565E-10
 31
0.0
210
0.0
220
0.0
230
1.0
 40
0.3939339440162632
 41
1.131841032648279
 42
5.62031148352944
  0
LINE
  5
84
330
7F
100
AcDbEntity
  8
중심선
100
AcDbLine
 10
2.268634060543552
 20
16.24717430164393
 30
0.0
 11
5.714909304380834
 21
16.24717430164393
 31
0.0
  0
LINE
  5
85
330
7F
100
AcDbEntity
  8
중심선
100
AcDbLine
 10
5.245725140726316
 20
7.84717430164391
 30
0.0
 11
8.692000384563599
 21
7.84717430164391
 31
0.0
  0
LINE
  5
86
330
7F
100
AcDbEntity
  8
중심선
100
AcDbLine
 10
15.74043728645272
 20
16.24717430164393
 30
0.0
 11
8.692000384563599
 21
7.84717430164391
 31
0.0
  0
LINE
  5
87
330
7F
100
AcDbEntity
  8
중심선
100
AcDbLine
 10
0.1404042013395286
 20
13.71084872107135
 30
0.0
 11
3.58671253028996
 21
13.71088815037384
 31
0.0
  0
LINE
  5
88
330
7F
100
AcDbEntity
  8
중심선
100
AcDbLine
 10
2.750260043222114
 20
10.84717430164391
 30
0.0
 11
6.196535287059397
 21
10.84717430164391
 31
0.0
  0
LINE
  5
89
330
7F
100
AcDbEntity
  8
중심선
100
AcDbLine
 10
12.29416204261559
 20
16.24717430164393
 30
0.0
 11
5.245725140726316
 21
7.84717430164391
 31
0.0
  0
LINE
  5
8A
330
7F
100
AcDbEntity
  8
중심선
100
AcDbLine
 10
10.72767329541681
 20
16.24717430164393
 30
0.0
 11
6.196535287059397
 21
10.84717430164391
 31
0.0
  0
LINE
  5
8B
330
7F
100
AcDbEntity
  8
중심선
100
AcDbLine
 10
7.28139805157953
 20
16.24717430164393
 30
0.0
 11
2.750260043222114
 21
10.84717430164391
 31
0.0
  0
LINE
  5
8C
330
7F
100
AcDbEntity
  8
중심선
100
AcDbLine
 10
5.714909304380834
 20
16.24717430164393
 30
0.0
 11
3.58671253028996
 21
13.71088815037384
 31
0.0
  0
LINE
  5
8D
330
7F
100
AcDbEntity
  8
중심선
100
AcDbLine
 10
2.268634060543552
 20
16.24717430164393
 30
0.0
 11
0.1404042013395286
 21
13.71084872107135
 31
0.0
  0
LINE
  5
8E
330
7F
100
AcDbEntity
  8
중심선
100
AcDbLine
 10
7.28139805157953
 20
16.24717430164393
 30
0.0
 11
10.72767329541681
 21
16.24717430164393
 31
0.0
  0
LINE
  5
8F
330
7F
100
AcDbEntity
  8
중심선
100
AcDbLine
 10
12.29416204261559
 20
16.24717430164393
 30
0.0
 11
15.74043728645272
 21
16.24717430164393
 31
0.0
  0
LINE
  5
90
330
7F
100
AcDbEntity
  8
중심선
100
AcDbLine
 10
19.22036997980202
 20
11.08717430171403
 30
0.0
 11
23.66174974927406
 21
11.08717430171406
 31
0.0
  0
LINE
  5
91
330
7F
100
AcDbEntity
  8
중심선
100
AcDbLine
 10
19.22039502424796
 20
13.00717430171391
 30
0.0
 11
19.22036997980202
 21
11.08717430171403
 31
0.0
  0
LINE
  5
92
330
7F
100
AcDbEntity
  8
중심선
100
AcDbLine
 10
19.22039502424796
 20
13.00717430171391
 30
0.0
 11
26.96566020931264
 21
13.00717430171391
 31
0.0
  0
LINE
  5
93
330
7F
100
AcDbEntity
  8
중심선
100
AcDbLine
 10
22.22332737316547
 20
13.45928029700563
 30
0.0
 11
24.52862924686651
 21
15.39360700705356
 31
0.0
  0
ATTDEF
  5
95
330
7F
100
AcDbEntity
  8
FORMAT
 62
     2
100
AcDbText
 10
4.408487351596664
 20
2.075366912832191
 30
0.0
 40
4.233333333333333
  1
E1053036
 41
0.75
  7
SLDTEXTSTYLE0
 11
4.408487351596664
 21
-0.0412997538344756
 31
0.0
100
AcDbAttributeDefinition
  3

  2
AUTOATTR0
 70
     0
 74
     1
  0
ENDBLK
  5
81
330
7F
100
AcDbEntity
  8
0
100
AcDbBlockEnd
  0
BLOCK
  5
D0
330
CF
100
AcDbEntity
  8
0
100
AcDbBlockBegin
  2
_D
 70
     0
 10
0.0
 20
0.0
 30
0.0
  3
_D
  1
_D
  0
LINE
  5
D2
330
CF
100
AcDbEntity
  8
치수문자_일반주서
 62
     0
370
    -2
100
AcDbLine
 10
63.56250000000003
 20
7.143750000000008
 30
0.0
 11
84.97895239354433
 21
7.143750000000086
 31
0.0
  0
LINE
  5
D3
330
CF
100
AcDbEntity
  8
치수문자_일반주서
 62
     0
370
    -2
100
AcDbLine
 10
63.5625
 20
-7.143749999999992
 30
0.0
 11
84.97895239354439
 21
-7.143749999999915
 31
0.0
  0
LINE
  5
D4
330
CF
100
AcDbEntity
  8
치수문자_일반주서
 62
     0
370
    -2
100
AcDbLine
 10
84.97895239354433
 20
7.143750000000086
 30
0.0
 11
84.97895239354419
 21
43.49775000000012
 31
0.0
  0
LINE
  5
D5
330
CF
100
AcDbEntity
  8
치수문자_일반주서
 62
     0
370
    -2
100
AcDbLine
 10
84.97895239354433
 20
7.143750000000086
 30
0.0
 11
84.97895239354439
 21
-7.143749999999915
 31
0.0
  0
LINE
  5
D6
330
CF
100
AcDbEntity
  8
치수문자_일반주서
 62
     0
370
    -2
100
AcDbLine
 10
84.97895239354432
 20
10.44575000000009
 30
0.0
 11
84.9789523935443
 21
13.74775000000009
 31
0.0
  0
LINE
  5
D7
330
CF
100
AcDbEntity
  8
치수문자_일반주서
 62
     0
370
    -2
100
AcDbLine
 10
84.9789523935444
 20
-10.44574999999992
 30
0.0
 11
84.97895239354442
 21
-13.74774999999991
 31
0.0
  0
SOLID
  5
D8
330
CF
100
AcDbEntity
  8
치수문자_일반주서
 62
     0
100
AcDbTrace
 10
84.42861906021099
 20
10.44575000000008
 30
0.0
 11
85.52928572687765
 21
10.44575000000009
 31
0.0
 12
84.97895239354433
 22
7.143750000000086
 32
0.0
 13
84.97895239354433
 23
7.143750000000086
 33
0.0
  0
SOLID
  5
D9
330
CF
100
AcDbEntity
  8
치수문자_일반주서
 62
     0
100
AcDbTrace
 10
85.52928572687773
 20
-10.44574999999991
 30
0.0
 11
84.42861906021108
 21
-10.44574999999992
 31
0.0
 12
84.97895239354439
 22
-7.143749999999915
 32
0.0
 13
84.97895239354439
 23
-7.143749999999915
 33
0.0
  0
MTEXT
  5
DA
330
CF
100
AcDbEntity
  8
치수문자_일반주서
 62
     0
100
AcDbMText
 10
80.60395239354425
 20
28.6227500000001
 30
0.0
 40
3.5
 41
0.0
 71
     2
 72
     1
  1
\A1;%%c14.29 [9/16]
  7
SLDTEXTSTYLE0
 11
-3.978542002506248E-15
 21
1.0
 31
0.0
 73
     1
 44
1.0
  0
POINT
  5
DB
330
CF
100
AcDbEntity
  8
Defpoints
 62
     0
100
AcDbPoint
 10
63.50000000000003
 20
7.143750000000008
 30
0.0
  0
POINT
  5
24A
330
CF
100
AcDbEntity
  8
Defpoints
 62
     0
100
AcDbPoint
 10
63.5
 20
-7.143749999999992
 30
0.0
  0
POINT
  5
24B
330
CF
100
AcDbEntity
  8
Defpoints
 62
     0
100
AcDbPoint
 10
84.97895239354439
 20
-7.143749999999912
 30
0.0
  0
ENDBLK
  5
D1
330
CF
100
AcDbEntity
  8
0
100
AcDbBlockEnd
  0
BLOCK
  5
E3
330
E2
100
AcDbEntity
  8
0
100
AcDbBlockBegin
  2
_D_1
 70
     0
 10
0.0
 20
0.0
 30
0.0
  3
_D_1
  1
_D_1
  0
LINE
  5
E5
330
E2
100
AcDbEntity
  8
치수문자_일반주서
 62
     0
370
    -2
100
AcDbLine
 10
63.50000000000001
 20
7.206250000000007
 30
0.0
 11
63.50000000000001
 21
18.92646324814505
 31
0.0
  0
LINE
  5
E6
330
E2
100
AcDbEntity
  8
치수문자_일반주서
 62
     0
370
    -2
100
AcDbLine
 10
28.57500000000001
 20
7.206249999999995
 30
0.0
 11
28.57500000000001
 21
18.92646324814505
 31
0.0
  0
LINE
  5
E7
330
E2
100
AcDbEntity
  8
치수문자_일반주서
 62
     0
370
    -2
100
AcDbLine
 10
28.57500000000001
 20
18.92646324814505
 30
0.0
 11
-8.65399999999999
 21
18.92646324814505
 31
0.0
  0
LINE
  5
E8
330
E2
100
AcDbEntity
  8
치수문자_일반주서
 62
     0
370
    -2
100
AcDbLine
 10
63.50000000000001
 20
18.92646324814505
 30
0.0
 11
28.57500000000001
 21
18.92646324814505
 31
0.0
  0
LINE
  5
E9
330
E2
100
AcDbEntity
  8
치수문자_일반주서
 62
     0
370
    -2
100
AcDbLine
 10
66.80200000000002
 20
18.92646324814505
 30
0.0
 11
70.10400000000001
 21
18.92646324814505
 31
0.0
  0
LINE
  5
EA
330
E2
100
AcDbEntity
  8
치수문자_일반주서
 62
     0
370
    -2
100
AcDbLine
 10
25.27300000000001
 20
18.92646324814505
 30
0.0
 11
21.97100000000001
 21
18.92646324814505
 31
0.0
  0
SOLID
  5
EB
330
E2
100
AcDbEntity
  8
치수문자_일반주서
 62
     0
100
AcDbTrace
 10
66.80200000000002
 20
19.47679658147839
 30
0.0
 11
66.80200000000002
 21
18.37612991481172
 31
0.0
 12
63.50000000000001
 22
18.92646324814505
 32
0.0
 13
63.50000000000001
 23
18.92646324814505
 33
0.0
  0
SOLID
  5
EC
330
E2
100
AcDbEntity
  8
치수문자_일반주서
 62
     0
100
AcDbTrace
 10
25.27300000000001
 20
18.37612991481172
 30
0.0
 11
25.27300000000001
 21
19.47679658147839
 31
0.0
 12
28.57500000000001
 22
18.92646324814505
 32
0.0
 13
28.57500000000001
 23
18.92646324814505
 33
0.0
  0
MTEXT
  5
ED
330
E2
100
AcDbEntity
  8
치수문자_일반주서
 62
     0
100
AcDbMText
 10
6.658500000000011
 20
23.30146324814505
 30
0.0
 40
3.5
 41
0.0
 71
     2
 72
     1
  1
\A1;34.93 [1 3/8]
  7
SLDTEXTSTYLE0
 73
     1
 44
1.0
  0
POINT
  5
EE
330
E2
100
AcDbEntity
  8
Defpoints
 62
     0
100
AcDbPoint
 10
63.50000000000001
 20
7.143750000000007
 30
0.0
  0
POINT
  5
24C
330
E2
100
AcDbEntity
  8
Defpoints
 62
     0
100
AcDbPoint
 10
28.57500000000001
 20
7.143749999999995
 30
0.0
  0
POINT
  5
24D
330
E2
100
AcDbEntity
  8
Defpoints
 62
     0
100
AcDbPoint
 10
28.57500000000001
 20
18.92646324814505
 30
0.0
  0
ENDBLK
  5
E4
330
E2
100
AcDbEntity
  8
0
100
AcDbBlockEnd
  0
BLOCK
  5
F7
330
F6
100
AcDbEntity
  8
0
100
AcDbBlockBegin
  2
_D_2
 70
     0
 10
0.0
 20
0.0
 30
0.0
  3
_D_2
  1
_D_2
  0
LINE
  5
F9
330
F6
100
AcDbEntity
  8
치수문자_일반주서
 62
     0
370
    -2
100
AcDbLine
 10
63.50000000000001
 20
7.206250000000007
 30
0.0
 11
63.50000000000001
 21
34.0080668467325
 31
0.0
  0
LINE
  5
FA
330
F6
100
AcDbEntity
  8
치수문자_일반주서
 62
     0
370
    -2
100
AcDbLine
 10
-63.5
 20
7.206249999999995
 30
0.0
 11
-63.5
 21
34.0080668467325
 31
0.0
  0
LINE
  5
FB
330
F6
100
AcDbEntity
  8
치수문자_일반주서
 62
     0
370
    -2
100
AcDbLine
 10
60.19800000000001
 20
34.0080668467325
 30
0.0
 11
-60.198
 21
34.0080668467325
 31
0.0
  0
SOLID
  5
FC
330
F6
100
AcDbEntity
  8
치수문자_일반주서
 62
     0
100
AcDbTrace
 10
60.19800000000001
 20
33.45773351339917
 30
0.0
 11
60.19800000000001
 21
34.55840018006584
 31
0.0
 12
63.50000000000001
 22
34.0080668467325
 32
0.0
 13
63.50000000000001
 23
34.0080668467325
 33
0.0
  0
SOLID
  5
FD
330
F6
100
AcDbEntity
  8
치수문자_일반주서
 62
     0
100
AcDbTrace
 10
-60.198
 20
34.55840018006584
 30
0.0
 11
-60.198
 21
33.45773351339917
 31
0.0
 12
-63.5
 22
34.0080668467325
 32
0.0
 13
-63.5
 23
34.0080668467325
 33
0.0
  0
MTEXT
  5
FE
330
F6
100
AcDbEntity
  8
치수문자_일반주서
 62
     0
100
AcDbMText
 10
0.0795785358960188
 20
38.3830668467325
 30
0.0
 40
3.5
 41
0.0
 71
     2
 72
     1
  1
\A1;127.00 [5]
  7
SLDTEXTSTYLE0
 73
     1
 44
1.0
  0
POINT
  5
FF
330
F6
100
AcDbEntity
  8
Defpoints
 62
     0
100
AcDbPoint
 10
63.50000000000001
 20
7.143750000000007
 30
0.0
  0
POINT
  5
100
330
F6
100
AcDbEntity
  8
Defpoints
 62
     0
100
AcDbPoint
 10
-63.5
 20
7.143749999999995
 30
0.0
  0
POINT
  5
101
330
F6
100
AcDbEntity
  8
Defpoints
 62
     0
100
AcDbPoint
 10
-63.5
 20
34.0080668467325
 30
0.0
  0
ENDBLK
  5
F8
330
F6
100
AcDbEntity
  8
0
100
AcDbBlockEnd
  0
BLOCK
  5
10B
330
10A
100
AcDbEntity
  8
0
100
AcDbBlockBegin
  2
_D_3
 70
     0
 10
0.0
 20
0.0
 30
0.0
  3
_D_3
  1
_D_3
  0
LINE
  5
10D
330
10A
100
AcDbEntity
  8
치수문자_일반주서
 62
     0
370
    -2
100
AcDbLine
 10
-24.67518467149216
 20
7.937500000000012
 30
0.0
 11
-75.38875000000004
 21
7.937499999999822
 31
0.0
  0
LINE
  5
10E
330
10A
100
AcDbEntity
  8
치수문자_일반주서
 62
     0
370
    -2
100
AcDbLine
 10
-24.67518467149216
 20
-7.937500000000009
 30
0.0
 11
-75.38874999999999
 21
-7.937500000000199
 31
0.0
  0
LINE
  5
10F
330
10A
100
AcDbEntity
  8
치수문자_일반주서
 62
     0
370
    -2
100
AcDbLine
 10
-75.38875000000003
 20
4.635499999999823
 30
0.0
 11
-75.38875
 21
-4.635500000000199
 31
0.0
  0
SOLID
  5
110
330
10A
100
AcDbEntity
  8
치수문자_일반주서
 62
     0
100
AcDbTrace
 10
-74.8384166666667
 20
4.635499999999825
 30
0.0
 11
-75.93908333333336
 21
4.635499999999821
 31
0.0
 12
-75.38875000000004
 22
7.937499999999822
 32
0.0
 13
-75.38875000000004
 23
7.937499999999822
 33
0.0
  0
SOLID
  5
111
330
10A
100
AcDbEntity
  8
치수문자_일반주서
 62
     0
100
AcDbTrace
 10
-75.93908333333333
 20
-4.635500000000201
 30
0.0
 11
-74.83841666666667
 21
-4.635500000000198
 31
0.0
 12
-75.38874999999999
 22
-7.937500000000199
 32
0.0
 13
-75.38874999999999
 23
-7.937500000000199
 33
0.0
  0
MTEXT
  5
112
330
10A
100
AcDbEntity
  8
치수문자_일반주서
 62
     0
100
AcDbMText
 10
-79.76375000000002
 20
-0.0000000000000065
 30
0.0
 40
3.5
 41
0.0
 71
     2
 72
     1
  1
\A1;%%c15.88 [5/8]
  7
SLDTEXTSTYLE0
 11
-3.580687802255618E-15
 21
1.0
 31
0.0
 73
     1
 44
1.0
  0
POINT
  5
113
330
10A
100
AcDbEntity
  8
Defpoints
 62
     0
100
AcDbPoint
 10
-24.61268467149216
 20
7.937500000000012
 30
0.0
  0
POINT
  5
114
330
10A
100
AcDbEntity
  8
Defpoints
 62
     0
100
AcDbPoint
 10
-24.61268467149216
 20
-7.937500000000009
 30
0.0
  0
POINT
  5
115
330
10A
100
AcDbEntity
  8
Defpoints
 62
     0
100
AcDbPoint
 10
-75.38874999999999
 20
-7.937500000000199
 30
0.0
  0
ENDBLK
  5
10C
330
10A
100
AcDbEntity
  8
0
100
AcDbBlockEnd
  0
BLOCK
  5
125
330
124
100
AcDbEntity
  8
0
100
AcDbBlockBegin
  2
SW_DOWELSYMBOL_0
 70
     0
 10
0.0
 20
0.0
 30
0.0
  3
SW_DOWELSYMBOL_0
  1
SW_DOWELSYMBOL_0
  0
CIRCLE
  5
127
330
124
100
AcDbEntity
  8
해칭선
 62
     0
100
AcDbCircle
 10
0.0
 20
0.0
 30
0.0
 40
3.000000000000008
  0
HATCH
  5
128
330
124
100
AcDbEntity
  8
0
  6
Continuous
 62
     0
370
     0
100
AcDbHatch
 10
0.0
 20
0.0
 30
0.0
210
0.0
220
0.0
230
1.0
  2
SOLID
 70
     1
 71
     0
 91
        1
 92
        0
 93
        3
 72
     2
 10
0.0
 20
0.0
 40
3.000000000000008
 50
0.0
 51
90.0
 73
     1
 72
     1
 10
0.0
 20
3.000000000000008
 11
0.0
 21
0.0
 72
     1
 10
0.0
 20
0.0
 11
3.00000000000001
 21
0.0
 97
        0
 75
     0
 76
     1
 98
        1
 10
0.0
 20
0.0
  0
HATCH
  5
129
330
124
100
AcDbEntity
  8
0
  6
Continuous
 62
     0
370
     0
100
AcDbHatch
 10
0.0
 20
0.0
 30
0.0
210
0.0
220
0.0
230
1.0
  2
SOLID
 70
     1
 71
     0
 91
        1
 92
        0
 93
        3
 72
     2
 10
0.0
 20
0.0
 40
3.000000000000008
 50
180.0
 51
270.0000000000007
 73
     1
 72
     1
 10
0.0
 20
-3.000000000000008
 11
0.0
 21
0.0
 72
     1
 10
0.0
 20
0.0
 11
-3.00000000000001
 21
0.0
 97
        0
 75
     0
 76
     1
 98
        1
 10
0.0
 20
0.0
  0
ENDBLK
  5
126
330
124
100
AcDbEntity
  8
0
100
AcDbBlockEnd
  0
BLOCK
  5
1D2
330
1D1
100
AcDbEntity
  8
0
100
AcDbBlockBegin
  2
*D7
 70
     1
 10
0.0
 20
0.0
 30
0.0
  3
*D7
  1
*D8
  0
LINE
  5
1D4
330
1D1
100
AcDbEntity
  8
치수문자_일반주서
 62
     0
370
    -2
100
AcDbLine
 10
107.8375
 20
19.30399999999993
 30
0.0
 11
124.8422721138663
 21
19.30399999999999
 31
0.0
  0
LINE
  5
1D5
330
1D1
100
AcDbEntity
  8
치수문자_일반주서
 62
     0
370
    -2
100
AcDbLine
 10
107.8375
 20
6.603999999999933
 30
0.0
 11
124.8422721138663
 21
6.603999999999999
 31
0.0
  0
LINE
  5
1D6
330
1D1
100
AcDbEntity
  8
치수문자_일반주서
 62
     0
370
    -2
100
AcDbLine
 10
124.8422721138663
 20
19.30399999999999
 30
0.0
 11
124.8422721138661
 21
52.81424999999999
 31
0.0
  0
LINE
  5
1D7
330
1D1
100
AcDbEntity
  8
치수문자_일반주서
 62
     0
370
    -2
100
AcDbLine
 10
124.8422721138663
 20
19.30399999999999
 30
0.0
 11
124.8422721138663
 21
6.603999999999999
 31
0.0
  0
LINE
  5
1D8
330
1D1
100
AcDbEntity
  8
치수문자_일반주서
 62
     0
370
    -2
100
AcDbLine
 10
124.8422721138662
 20
22.60599999999999
 30
0.0
 11
124.8422721138662
 21
25.90799999999999
 31
0.0
  0
LINE
  5
1D9
330
1D1
100
AcDbEntity
  8
치수문자_일반주서
 62
     0
370
    -2
100
AcDbLine
 10
124.8422721138663
 20
3.302
 30
0.0
 11
124.8422721138663
 21
0.0
 31
0.0
  0
SOLID
  5
1DA
330
1D1
100
AcDbEntity
  8
치수문자_일반주서
 62
     0
100
AcDbTrace
 10
124.2919387805329
 20
22.60599999999999
 30
0.0
 11
125.3926054471996
 21
22.606
 31
0.0
 12
124.8422721138663
 22
19.30399999999999
 32
0.0
 13
124.8422721138663
 23
19.30399999999999
 33
0.0
  0
SOLID
  5
1DB
330
1D1
100
AcDbEntity
  8
치수문자_일반주서
 62
     0
100
AcDbTrace
 10
125.3926054471996
 20
3.302000000000001
 30
0.0
 11
124.291938780533
 21
3.301999999999998
 31
0.0
 12
124.8422721138663
 22
6.603999999999999
 32
0.0
 13
124.8422721138663
 23
6.603999999999999
 33
0.0
  0
MTEXT
  5
1DC
330
1D1
100
AcDbEntity
  8
치수문자_일반주서
 62
     0
100
AcDbMText
 10
120.4672721138662
 20
39.47049999999998
 30
0.0
 40
3.5
 41
0.0
 71
     2
 72
     1
  1
\A1;%%c12.70 [1/2]
  7
SLDTEXTSTYLE0
 11
-3.356894814614647E-15
 21
1.0
 31
0.0
 73
     1
 44
1.0
  0
POINT
  5
1DD
330
1D1
100
AcDbEntity
  8
Defpoints
 62
     0
100
AcDbPoint
 10
107.775
 20
19.30399999999993
 30
0.0
  0
POINT
  5
1DE
330
1D1
100
AcDbEntity
  8
Defpoints
 62
     0
100
AcDbPoint
 10
107.775
 20
6.603999999999933
 30
0.0
  0
POINT
  5
1DF
330
1D1
100
AcDbEntity
  8
Defpoints
 62
     0
100
AcDbPoint
 10
124.8422721138663
 20
6.603999999999997
 30
0.0
  0
ENDBLK
  5
1D3
330
1D1
100
AcDbEntity
  8
0
100
AcDbBlockEnd
  0
BLOCK
  5
1E1
330
1E0
100
AcDbEntity
  8
0
100
AcDbBlockBegin
  2
*D8
 70
     1
 10
0.0
 20
0.0
 30
0.0
  3
*D8
  1
*D9
  0
LINE
  5
1E3
330
1E0
100
AcDbEntity
  8
치수문자_일반주서
 62
     0
370
    -2
100
AcDbLine
 10
107.775
 20
19.36649999999993
 30
0.0
 11
107.775
 21
29.17975832437662
 31
0.0
  0
LINE
  5
1E4
330
1E0
100
AcDbEntity
  8
치수문자_일반주서
 62
     0
370
    -2
100
AcDbLine
 10
82.375
 20
18.87908960761421
 30
0.0
 11
82.375
 21
29.17975832437662
 31
0.0
  0
LINE
  5
1E5
330
1E0
100
AcDbEntity
  8
치수문자_일반주서
 62
     0
370
    -2
100
AcDbLine
 10
82.375
 20
29.17975832437662
 30
0.0
 11
56.0835
 21
29.17975832437662
 31
0.0
  0
LINE
  5
1E6
330
1E0
100
AcDbEntity
  8
치수문자_일반주서
 62
     0
370
    -2
100
AcDbLine
 10
107.775
 20
29.17975832437662
 30
0.0
 11
82.375
 21
29.17975832437662
 31
0.0
  0
LINE
  5
1E7
330
1E0
100
AcDbEntity
  8
치수문자_일반주서
 62
     0
370
    -2
100
AcDbLine
 10
111.077
 20
29.17975832437662
 30
0.0
 11
114.379
 21
29.17975832437662
 31
0.0
  0
LINE
  5
1E8
330
1E0
100
AcDbEntity
  8
치수문자_일반주서
 62
     0
370
    -2
100
AcDbLine
 10
79.07300000000001
 20
29.17975832437662
 30
0.0
 11
75.77100000000002
 21
29.17975832437662
 31
0.0
  0
SOLID
  5
1E9
330
1E0
100
AcDbEntity
  8
치수문자_일반주서
 62
     0
100
AcDbTrace
 10
111.077
 20
29.73009165770996
 30
0.0
 11
111.077
 21
28.62942499104329
 31
0.0
 12
107.775
 22
29.17975832437662
 32
0.0
 13
107.775
 23
29.17975832437662
 33
0.0
  0
SOLID
  5
1EA
330
1E0
100
AcDbEntity
  8
치수문자_일반주서
 62
     0
100
AcDbTrace
 10
79.07300000000001
 20
28.62942499104329
 30
0.0
 11
79.07300000000001
 21
29.73009165770996
 31
0.0
 12
82.375
 22
29.17975832437662
 32
0.0
 13
82.375
 23
29.17975832437662
 33
0.0
  0
MTEXT
  5
1EB
330
1E0
100
AcDbEntity
  8
치수문자_일반주서
 62
     0
100
AcDbMText
 10
65.92725
 20
33.55475832437662
 30
0.0
 40
3.5
 41
0.0
 71
     2
 72
     1
  1
\A1;25.40 [1]
  7
SLDTEXTSTYLE0
 73
     1
 44
1.0
  0
POINT
  5
1EC
330
1E0
100
AcDbEntity
  8
Defpoints
 62
     0
100
AcDbPoint
 10
107.775
 20
19.30399999999993
 30
0.0
  0
POINT
  5
1ED
330
1E0
100
AcDbEntity
  8
Defpoints
 62
     0
100
AcDbPoint
 10
82.375
 20
18.81658960761421
 30
0.0
  0
POINT
  5
1EE
330
1E0
100
AcDbEntity
  8
Defpoints
 62
     0
100
AcDbPoint
 10
82.375
 20
29.17975832437662
 30
0.0
  0
ENDBLK
  5
1E2
330
1E0
100
AcDbEntity
  8
0
100
AcDbBlockEnd
  0
BLOCK
  5
1F0
330
1EF
100
AcDbEntity
  8
0
100
AcDbBlockBegin
  2
*D9
 70
     1
 10
0.0
 20
0.0
 30
0.0
  3
*D9
  1
*D10
  0
LINE
  5
1F2
330
1EF
100
AcDbEntity
  8
치수문자_일반주서
 62
     0
370
    -2
100
AcDbLine
 10
107.775
 20
19.36649999999993
 30
0.0
 11
107.775
 21
44.13878315417978
 31
0.0
  0
LINE
  5
1F3
330
1EF
100
AcDbEntity
  8
치수문자_일반주서
 62
     0
370
    -2
100
AcDbLine
 10
3.000000000000007
 20
18.09649999999993
 30
0.0
 11
2.999999999999993
 21
44.13878315417978
 31
0.0
  0
LINE
  5
1F4
330
1EF
100
AcDbEntity
  8
치수문자_일반주서
 62
     0
370
    -2
100
AcDbLine
 10
104.473
 20
44.13878315417978
 30
0.0
 11
6.301999999999992
 21
44.13878315417978
 31
0.0
  0
SOLID
  5
1F5
330
1EF
100
AcDbEntity
  8
치수문자_일반주서
 62
     0
100
AcDbTrace
 10
104.473
 20
43.58844982084644
 30
0.0
 11
104.473
 21
44.68911648751311
 31
0.0
 12
107.775
 22
44.13878315417978
 32
0.0
 13
107.775
 23
44.13878315417978
 33
0.0
  0
SOLID
  5
1F6
330
1EF
100
AcDbEntity
  8
치수문자_일반주서
 62
     0
100
AcDbTrace
 10
6.301999999999992
 20
44.68911648751311
 30
0.0
 11
6.301999999999992
 21
43.58844982084644
 31
0.0
 12
2.999999999999993
 22
44.13878315417978
 32
0.0
 13
2.999999999999993
 23
44.13878315417978
 33
0.0
  0
MTEXT
  5
1F7
330
1EF
100
AcDbEntity
  8
치수문자_일반주서
 62
     0
100
AcDbMText
 10
58.32235318984793
 20
48.51378315417978
 30
0.0
 40
3.5
 41
0.0
 71
     2
 72
     1
  1
\A1;104.78 [4 1/8]
  7
SLDTEXTSTYLE0
 73
     1
 44
1.0
  0
POINT
  5
1F8
330
1EF
100
AcDbEntity
  8
Defpoints
 62
     0
100
AcDbPoint
 10
107.775
 20
19.30399999999993
 30
0.0
  0
POINT
  5
1F9
330
1EF
100
AcDbEntity
  8
Defpoints
 62
     0
100
AcDbPoint
 10
3.000000000000007
 20
18.03399999999993
 30
0.0
  0
POINT
  5
1FA
330
1EF
100
AcDbEntity
  8
Defpoints
 62
     0
100
AcDbPoint
 10
3.000000000000007
 20
44.13878315417978
 30
0.0
  0
ENDBLK
  5
1F1
330
1EF
100
AcDbEntity
  8
0
100
AcDbBlockEnd
  0
BLOCK
  5
221
330
220
100
AcDbEntity
  8
0
100
AcDbBlockBegin
  2
*D10
 70
     1
 10
0.0
 20
0.0
 30
0.0
  3
*D10
  1
*D11
  0
LINE
  5
223
330
220
100
AcDbEntity
  8
치수문자_일반주서
 62
     0
370
    -2
100
AcDbLine
 10
212.0916804171495
 20
-31.96736632481351
 30
0.0
 11
229.0964525310158
 21
-31.96736632481345
 31
0.0
  0
LINE
  5
224
330
220
100
AcDbEntity
  8
치수문자_일반주서
 62
     0
370
    -2
100
AcDbLine
 10
212.0916804171495
 20
-44.66736632481351
 30
0.0
 11
229.0964525310159
 21
-44.66736632481344
 31
0.0
  0
LINE
  5
225
330
220
100
AcDbEntity
  8
치수문자_일반주서
 62
     0
370
    -2
100
AcDbLine
 10
229.0964525310158
 20
-31.96736632481345
 30
0.0
 11
229.0964525310157
 21
1.542883675186552
 31
0.0
  0
LINE
  5
226
330
220
100
AcDbEntity
  8
치수문자_일반주서
 62
     0
370
    -2
100
AcDbLine
 10
229.0964525310158
 20
-31.96736632481345
 30
0.0
 11
229.0964525310159
 21
-44.66736632481344
 31
0.0
  0
LINE
  5
227
330
220
100
AcDbEntity
  8
치수문자_일반주서
 62
     0
370
    -2
100
AcDbLine
 10
229.0964525310158
 20
-28.66536632481345
 30
0.0
 11
229.0964525310158
 21
-25.36336632481345
 31
0.0
  0
LINE
  5
228
330
220
100
AcDbEntity
  8
치수문자_일반주서
 62
     0
370
    -2
100
AcDbLine
 10
229.0964525310159
 20
-47.96936632481344
 30
0.0
 11
229.0964525310159
 21
-51.27136632481344
 31
0.0
  0
SOLID
  5
229
330
220
100
AcDbEntity
  8
치수문자_일반주서
 62
     0
100
AcDbTrace
 10
228.5461191976825
 20
-28.66536632481345
 30
0.0
 11
229.6467858643491
 21
-28.66536632481344
 31
0.0
 12
229.0964525310158
 22
-31.96736632481345
 32
0.0
 13
229.0964525310158
 23
-31.96736632481345
 33
0.0
  0
SOLID
  5
22A
330
220
100
AcDbEntity
  8
치수문자_일반주서
 62
     0
100
AcDbTrace
 10
229.6467858643492
 20
-47.96936632481344
 30
0.0
 11
228.5461191976826
 21
-47.96936632481344
 31
0.0
 12
229.0964525310159
 22
-44.66736632481344
 32
0.0
 13
229.0964525310159
 23
-44.66736632481344
 33
0.0
  0
MTEXT
  5
22B
330
220
100
AcDbEntity
  8
치수문자_일반주서
 62
     0
100
AcDbMText
 10
224.7214525310157
 20
-11.80086632481347
 30
0.0
 40
3.5
 41
0.0
 71
     2
 72
     1
  1
\A1;%%c12.70 [1/2]
  7
SLDTEXTSTYLE0
 11
-4.475859752819530E-15
 21
1.0
 31
0.0
 73
     1
 44
1.0
  0
POINT
  5
22C
330
220
100
AcDbEntity
  8
Defpoints
 62
     0
100
AcDbPoint
 10
212.0291804171495
 20
-31.96736632481351
 30
0.0
  0
POINT
  5
22D
330
220
100
AcDbEntity
  8
Defpoints
 62
     0
100
AcDbPoint
 10
212.0291804171495
 20
-44.66736632481351
 30
0.0
  0
POINT
  5
22E
330
220
100
AcDbEntity
  8
Defpoints
 62
     0
100
AcDbPoint
 10
229.0964525310158
 20
-44.66736632481344
 30
0.0
  0
ENDBLK
  5
222
330
220
100
AcDbEntity
  8
0
100
AcDbBlockEnd
  0
BLOCK
  5
230
330
22F
100
AcDbEntity
  8
0
100
AcDbBlockBegin
  2
*D11
 70
     1
 10
0.0
 20
0.0
 30
0.0
  3
*D11
  1
*D12
  0
LINE
  5
232
330
22F
100
AcDbEntity
  8
치수문자_일반주서
 62
     0
370
    -2
100
AcDbLine
 10
212.0291804171495
 20
-31.90486632481351
 30
0.0
 11
212.0291804171495
 21
-22.09160800043682
 31
0.0
  0
LINE
  5
233
330
22F
100
AcDbEntity
  8
치수문자_일반주서
 62
     0
370
    -2
100
AcDbLine
 10
186.6291804171495
 20
-32.39227671719923
 30
0.0
 11
186.6291804171495
 21
-22.09160800043682
 31
0.0
  0
LINE
  5
234
330
22F
100
AcDbEntity
  8
치수문자_일반주서
 62
     0
370
    -2
100
AcDbLine
 10
186.6291804171495
 20
-22.09160800043682
 30
0.0
 11
160.3376804171496
 21
-22.09160800043682
 31
0.0
  0
LINE
  5
235
330
22F
100
AcDbEntity
  8
치수문자_일반주서
 62
     0
370
    -2
100
AcDbLine
 10
212.0291804171495
 20
-22.09160800043682
 30
0.0
 11
186.6291804171495
 21
-22.09160800043682
 31
0.0
  0
LINE
  5
236
330
22F
100
AcDbEntity
  8
치수문자_일반주서
 62
     0
370
    -2
100
AcDbLine
 10
215.3311804171495
 20
-22.09160800043682
 30
0.0
 11
218.6331804171495
 21
-22.09160800043682
 31
0.0
  0
LINE
  5
237
330
22F
100
AcDbEntity
  8
치수문자_일반주서
 62
     0
370
    -2
100
AcDbLine
 10
183.3271804171495
 20
-22.09160800043682
 30
0.0
 11
180.0251804171496
 21
-22.09160800043682
 31
0.0
  0
SOLID
  5
238
330
22F
100
AcDbEntity
  8
치수문자_일반주서
 62
     0
100
AcDbTrace
 10
215.3311804171495
 20
-21.54127466710348
 30
0.0
 11
215.3311804171495
 21
-22.64194133377015
 31
0.0
 12
212.0291804171495
 22
-22.09160800043682
 32
0.0
 13
212.0291804171495
 23
-22.09160800043682
 33
0.0
  0
SOLID
  5
239
330
22F
100
AcDbEntity
  8
치수문자_일반주서
 62
     0
100
AcDbTrace
 10
183.3271804171495
 20
-22.64194133377015
 30
0.0
 11
183.3271804171495
 21
-21.54127466710348
 31
0.0
 12
186.6291804171495
 22
-22.09160800043682
 32
0.0
 13
186.6291804171495
 23
-22.09160800043682
 33
0.0
  0
MTEXT
  5
23A
330
22F
100
AcDbEntity
  8
치수문자_일반주서
 62
     0
100
AcDbMText
 10
170.1814304171496
 20
-17.71660800043682
 30
0.0
 40
3.5
 41
0.0
 71
     2
 72
     1
  1
\A1;25.40 [1]
  7
SLDTEXTSTYLE0
 73
     1
 44
1.0
  0
POINT
  5
23B
330
22F
100
AcDbEntity
  8
Defpoints
 62
     0
100
AcDbPoint
 10
212.0291804171495
 20
-31.96736632481351
 30
0.0
  0
POINT
  5
23C
330
22F
100
AcDbEntity
  8
Defpoints
 62
     0
100
AcDbPoint
 10
186.6291804171495
 20
-32.45477671719923
 30
0.0
  0
POINT
  5
23D
330
22F
100
AcDbEntity
  8
Defpoints
 62
     0
100
AcDbPoint
 10
186.6291804171495
 20
-22.09160800043682
 30
0.0
  0
ENDBLK
  5
231
330
22F
100
AcDbEntity
  8
0
100
AcDbBlockEnd
  0
BLOCK
  5
23F
330
23E
100
AcDbEntity
  8
0
100
AcDbBlockBegin
  2
*D12
 70
     1
 10
0.0
 20
0.0
 30
0.0
  3
*D12
  1
*D13
  0
LINE
  5
241
330
23E
100
AcDbEntity
  8
치수문자_일반주서
 62
     0
370
    -2
100
AcDbLine
 10
212.0291804171495
 20
-31.90486632481351
 30
0.0
 11
212.0291804171495
 21
-7.132583170633666
 31
0.0
  0
LINE
  5
242
330
23E
100
AcDbEntity
  8
치수문자_일반주서
 62
     0
370
    -2
100
AcDbLine
 10
107.2541804171495
 20
-33.17486632481351
 30
0.0
 11
107.2541804171495
 21
-7.132583170633666
 31
0.0
  0
LINE
  5
243
330
23E
100
AcDbEntity
  8
치수문자_일반주서
 62
     0
370
    -2
100
AcDbLine
 10
208.7271804171495
 20
-7.132583170633666
 30
0.0
 11
110.5561804171495
 21
-7.132583170633666
 31
0.0
  0
SOLID
  5
244
330
23E
100
AcDbEntity
  8
치수문자_일반주서
 62
     0
100
AcDbTrace
 10
208.7271804171495
 20
-7.682916503966999
 30
0.0
 11
208.7271804171495
 21
-6.582249837300332
 31
0.0
 12
212.0291804171495
 22
-7.132583170633666
 32
0.0
 13
212.0291804171495
 23
-7.132583170633666
 33
0.0
  0
SOLID
  5
245
330
23E
100
AcDbEntity
  8
치수문자_일반주서
 62
     0
100
AcDbTrace
 10
110.5561804171495
 20
-6.582249837300332
 30
0.0
 11
110.5561804171495
 21
-7.682916503966999
 31
0.0
 12
107.2541804171495
 22
-7.132583170633666
 32
0.0
 13
107.2541804171495
 23
-7.132583170633666
 33
0.0
  0
MTEXT
  5
246
330
23E
100
AcDbEntity
  8
치수문자_일반주서
 62
     0
100
AcDbMText
 10
162.5765336069975
 20
-2.757583170633666
 30
0.0
 40
3.5
 41
0.0
 71
     2
 72
     1
  1
\A1;104.78 [4 1/8]
  7
SLDTEXTSTYLE0
 73
     1
 44
1.0
  0
POINT
  5
247
330
23E
100
AcDbEntity
  8
Defpoints
 62
     0
100
AcDbPoint
 10
212.0291804171495
 20
-31.96736632481351
 30
0.0
  0
POINT
  5
248
330
23E
100
AcDbEntity
  8
Defpoints
 62
     0
100
AcDbPoint
 10
107.2541804171495
 20
-33.23736632481351
 30
0.0
  0
POINT
  5
249
330
23E
100
AcDbEntity
  8
Defpoints
 62
     0
100
AcDbPoint
 10
107.2541804171495
 20
-7.132583170633666
 30
0.0
  0
ENDBLK
  5
240
330
23E
100
AcDbEntity
  8
0
100
AcDbBlockEnd
  0
BLOCK
  5
2D9
330
2D8
100
AcDbEntity
  8
0
100
AcDbBlockBegin
  2
*D13
 70
     1
 10
0.0
 20
0.0
 30
0.0
  3
*D13
  1
*D15
  0
LINE
  5
2DB
330
2D8
100
AcDbEntity
  8
치수문자_일반주서
 62
     0
370
    -2
100
AcDbLine
 10
130.0625
 20
20.89149999999992
 30
0.0
 11
151.4789523935443
 21
20.8915
 31
0.0
  0
LINE
  5
2DC
330
2D8
100
AcDbEntity
  8
치수문자_일반주서
 62
     0
370
    -2
100
AcDbLine
 10
130.0625
 20
6.603999999999921
 30
0.0
 11
151.4789523935444
 21
6.603999999999999
 31
0.0
  0
LINE
  5
2DD
330
2D8
100
AcDbEntity
  8
치수문자_일반주서
 62
     0
370
    -2
100
AcDbLine
 10
151.4789523935443
 20
20.8915
 30
0.0
 11
151.4789523935442
 21
57.24550000000004
 31
0.0
  0
LINE
  5
2DE
330
2D8
100
AcDbEntity
  8
치수문자_일반주서
 62
     0
370
    -2
100
AcDbLine
 10
151.4789523935443
 20
20.8915
 30
0.0
 11
151.4789523935444
 21
6.603999999999999
 31
0.0
  0
LINE
  5
2DF
330
2D8
100
AcDbEntity
  8
치수문자_일반주서
 62
     0
370
    -2
100
AcDbLine
 10
151.4789523935443
 20
24.1935
 30
0.0
 11
151.4789523935443
 21
27.4955
 31
0.0
  0
LINE
  5
2E0
330
2D8
100
AcDbEntity
  8
치수문자_일반주서
 62
     0
370
    -2
100
AcDbLine
 10
151.4789523935444
 20
3.302
 30
0.0
 11
151.4789523935444
 21
0.0
 31
0.0
  0
SOLID
  5
2E1
330
2D8
100
AcDbEntity
  8
치수문자_일반주서
 62
     0
100
AcDbTrace
 10
150.928619060211
 20
24.1935
 30
0.0
 11
152.0292857268777
 21
24.1935
 31
0.0
 12
151.4789523935443
 22
20.8915
 32
0.0
 13
151.4789523935443
 23
20.8915
 33
0.0
  0
SOLID
  5
2E2
330
2D8
100
AcDbEntity
  8
치수문자_일반주서
 62
     0
100
AcDbTrace
 10
152.0292857268777
 20
3.302000000000002
 30
0.0
 11
150.9286190602111
 21
3.301999999999997
 31
0.0
 12
151.4789523935444
 22
6.603999999999999
 32
0.0
 13
151.4789523935444
 23
6.603999999999999
 33
0.0
  0
MTEXT
  5
2E3
330
2D8
100
AcDbEntity
  8
치수문자_일반주서
 62
     0
100
AcDbMText
 10
147.1039523935443
 20
42.37050000000002
 30
0.0
 40
3.5
 41
0.0
 71
     2
 72
     1
  1
\A1;%%c14.29 [9/16]
  7
SLDTEXTSTYLE0
 11
-3.978542002506248E-15
 21
1.0
 31
0.0
 73
     1
 44
1.0
  0
POINT
  5
2E4
330
2D8
100
AcDbEntity
  8
Defpoints
 62
     0
100
AcDbPoint
 10
130.0
 20
20.89149999999992
 30
0.0
  0
POINT
  5
2E5
330
2D8
100
AcDbEntity
  8
Defpoints
 62
     0
100
AcDbPoint
 10
130.0
 20
6.603999999999921
 30
0.0
  0
POINT
  5
2E6
330
2D8
100
AcDbEntity
  8
Defpoints
 62
     0
100
AcDbPoint
 10
151.4789523935444
 20
6.604000000000001
 30
0.0
  0
ENDBLK
  5
2DA
330
2D8
100
AcDbEntity
  8
0
100
AcDbBlockEnd
  0
BLOCK
  5
2E8
330
2E7
100
AcDbEntity
  8
0
100
AcDbBlockBegin
  2
*D14
 70
     1
 10
0.0
 20
0.0
 30
0.0
  3
*D14
  1
*D16
  0
LINE
  5
2EA
330
2E7
100
AcDbEntity
  8
치수문자_일반주서
 62
     0
370
    -2
100
AcDbLine
 10
130.0
 20
20.95399999999992
 30
0.0
 11
130.0
 21
32.67421324814497
 31
0.0
  0
LINE
  5
2EB
330
2E7
100
AcDbEntity
  8
치수문자_일반주서
 62
     0
370
    -2
100
AcDbLine
 10
95.07500000000002
 20
20.95399999999991
 30
0.0
 11
95.07500000000002
 21
32.67421324814497
 31
0.0
  0
LINE
  5
2EC
330
2E7
100
AcDbEntity
  8
치수문자_일반주서
 62
     0
370
    -2
100
AcDbLine
 10
95.07500000000002
 20
32.67421324814497
 30
0.0
 11
57.846
 21
32.67421324814497
 31
0.0
  0
LINE
  5
2ED
330
2E7
100
AcDbEntity
  8
치수문자_일반주서
 62
     0
370
    -2
100
AcDbLine
 10
130.0
 20
32.67421324814497
 30
0.0
 11
95.07500000000002
 21
32.67421324814497
 31
0.0
  0
LINE
  5
2EE
330
2E7
100
AcDbEntity
  8
치수문자_일반주서
 62
     0
370
    -2
100
AcDbLine
 10
133.302
 20
32.67421324814497
 30
0.0
 11
136.604
 21
32.67421324814497
 31
0.0
  0
LINE
  5
2EF
330
2E7
100
AcDbEntity
  8
치수문자_일반주서
 62
     0
370
    -2
100
AcDbLine
 10
91.77300000000002
 20
32.67421324814497
 30
0.0
 11
88.47100000000003
 21
32.67421324814497
 31
0.0
  0
SOLID
  5
2F0
330
2E7
100
AcDbEntity
  8
치수문자_일반주서
 62
     0
100
AcDbTrace
 10
133.302
 20
33.2245465814783
 30
0.0
 11
133.302
 21
32.12387991481163
 31
0.0
 12
130.0
 22
32.67421324814497
 32
0.0
 13
130.0
 23
32.67421324814497
 33
0.0
  0
SOLID
  5
2F1
330
2E7
100
AcDbEntity
  8
치수문자_일반주서
 62
     0
100
AcDbTrace
 10
91.77300000000002
 20
32.12387991481163
 30
0.0
 11
91.77300000000002
 21
33.2245465814783
 31
0.0
 12
95.07500000000002
 22
32.67421324814497
 32
0.0
 13
95.07500000000002
 23
32.67421324814497
 33
0.0
  0
MTEXT
  5
2F2
330
2E7
100
AcDbEntity
  8
치수문자_일반주서
 62
     0
100
AcDbMText
 10
73.1585
 20
37.04921324814497
 30
0.0
 40
3.5
 41
0.0
 71
     2
 72
     1
  1
\A1;34.93 [1 3/8]
  7
SLDTEXTSTYLE0
 73
     1
 44
1.0
  0
POINT
  5
2F3
330
2E7
100
AcDbEntity
  8
Defpoints
 62
     0
100
AcDbPoint
 10
130.0
 20
20.89149999999992
 30
0.0
  0
POINT
  5
2F4
330
2E7
100
AcDbEntity
  8
Defpoints
 62
     0
100
AcDbPoint
 10
95.07500000000002
 20
20.89149999999991
 30
0.0
  0
POINT
  5
2F5
330
2E7
100
AcDbEntity
  8
Defpoints
 62
     0
100
AcDbPoint
 10
95.07500000000002
 20
32.67421324814497
 30
0.0
  0
ENDBLK
  5
2E9
330
2E7
100
AcDbEntity
  8
0
100
AcDbBlockEnd
  0
BLOCK
  5
2F7
330
2F6
100
AcDbEntity
  8
0
100
AcDbBlockBegin
  2
*D15
 70
     1
 10
0.0
 20
0.0
 30
0.0
  3
*D15
  1
*D17
  0
LINE
  5
2F9
330
2F6
100
AcDbEntity
  8
치수문자_일반주서
 62
     0
370
    -2
100
AcDbLine
 10
130.0
 20
20.95399999999992
 30
0.0
 11
130.0
 21
47.75581684673242
 31
0.0
  0
LINE
  5
2FA
330
2F6
100
AcDbEntity
  8
치수문자_일반주서
 62
     0
370
    -2
100
AcDbLine
 10
3.000000000000007
 20
20.16024999999991
 30
0.0
 11
3.000000000000007
 21
47.75581684673242
 31
0.0
  0
LINE
  5
2FB
330
2F6
100
AcDbEntity
  8
치수문자_일반주서
 62
     0
370
    -2
100
AcDbLine
 10
126.698
 20
47.75581684673242
 30
0.0
 11
6.302000000000007
 21
47.75581684673242
 31
0.0
  0
SOLID
  5
2FC
330
2F6
100
AcDbEntity
  8
치수문자_일반주서
 62
     0
100
AcDbTrace
 10
126.698
 20
47.20548351339908
 30
0.0
 11
126.698
 21
48.30615018006575
 31
0.0
 12
130.0
 22
47.75581684673242
 32
0.0
 13
130.0
 23
47.75581684673242
 33
0.0
  0
SOLID
  5
2FD
330
2F6
100
AcDbEntity
  8
치수문자_일반주서
 62
     0
100
AcDbTrace
 10
6.302000000000007
 20
48.30615018006575
 30
0.0
 11
6.302000000000007
 21
47.20548351339908
 31
0.0
 12
3.000000000000007
 22
47.75581684673242
 32
0.0
 13
3.000000000000007
 23
47.75581684673242
 33
0.0
  0
MTEXT
  5
2FE
330
2F6
100
AcDbEntity
  8
치수문자_일반주서
 62
     0
100
AcDbMText
 10
66.57957853589602
 20
52.13081684673242
 30
0.0
 40
3.5
 41
0.0
 71
     2
 72
     1
  1
\A1;127.00 [5]
  7
SLDTEXTSTYLE0
 73
     1
 44
1.0
  0
POINT
  5
2FF
330
2F6
100
AcDbEntity
  8
Defpoints
 62
     0
100
AcDbPoint
 10
130.0
 20
20.89149999999992
 30
0.0
  0
POINT
  5
300
330
2F6
100
AcDbEntity
  8
Defpoints
 62
     0
100
AcDbPoint
 10
3.000000000000007
 20
20.09774999999991
 30
0.0
  0
POINT
  5
301
330
2F6
100
AcDbEntity
  8
Defpoints
 62
     0
100
AcDbPoint
 10
3.000000000000007
 20
47.75581684673242
 30
0.0
  0
ENDBLK
  5
2F8
330
2F6
100
AcDbEntity
  8
0
100
AcDbBlockEnd
  0
BLOCK
  5
330
330
32F
100
AcDbEntity
  8
0
100
AcDbBlockBegin
  2
*D16
 70
     1
 10
0.0
 20
0.0
 30
0.0
  3
*D16
  1
*D18
  0
LINE
  5
332
330
32F
100
AcDbEntity
  8
치수문자_일반주서
 62
     0
370
    -2
100
AcDbLine
 10
266.9614898967558
 20
-30.09035540580829
 30
0.0
 11
288.3779422903001
 21
-30.09035540580821
 31
0.0
  0
LINE
  5
333
330
32F
100
AcDbEntity
  8
치수문자_일반주서
 62
     0
370
    -2
100
AcDbLine
 10
266.9614898967557
 20
-44.37785540580829
 30
0.0
 11
288.3779422903002
 21
-44.37785540580821
 31
0.0
  0
LINE
  5
334
330
32F
100
AcDbEntity
  8
치수문자_일반주서
 62
     0
370
    -2
100
AcDbLine
 10
288.3779422903001
 20
-30.09035540580821
 30
0.0
 11
288.3779422902999
 21
6.263644594191824
 31
0.0
  0
LINE
  5
335
330
32F
100
AcDbEntity
  8
치수문자_일반주서
 62
     0
370
    -2
100
AcDbLine
 10
288.3779422903001
 20
-30.09035540580821
 30
0.0
 11
288.3779422903002
 21
-44.37785540580821
 31
0.0
  0
LINE
  5
336
330
32F
100
AcDbEntity
  8
치수문자_일반주서
 62
     0
370
    -2
100
AcDbLine
 10
288.3779422903001
 20
-26.78835540580821
 30
0.0
 11
288.3779422903001
 21
-23.48635540580821
 31
0.0
  0
LINE
  5
337
330
32F
100
AcDbEntity
  8
치수문자_일반주서
 62
     0
370
    -2
100
AcDbLine
 10
288.3779422903002
 20
-47.67985540580821
 30
0.0
 11
288.3779422903002
 21
-50.98185540580821
 31
0.0
  0
SOLID
  5
338
330
32F
100
AcDbEntity
  8
치수문자_일반주서
 62
     0
100
AcDbTrace
 10
287.8276089569667
 20
-26.78835540580821
 30
0.0
 11
288.9282756236335
 21
-26.78835540580821
 31
0.0
 12
288.3779422903001
 22
-30.09035540580821
 32
0.0
 13
288.3779422903001
 23
-30.09035540580821
 33
0.0
  0
SOLID
  5
339
330
32F
100
AcDbEntity
  8
치수문자_일반주서
 62
     0
100
AcDbTrace
 10
288.9282756236335
 20
-47.67985540580821
 30
0.0
 11
287.8276089569668
 21
-47.67985540580821
 31
0.0
 12
288.3779422903002
 22
-44.37785540580821
 32
0.0
 13
288.3779422903002
 23
-44.37785540580821
 33
0.0
  0
MTEXT
  5
33A
330
32F
100
AcDbEntity
  8
치수문자_일반주서
 62
     0
100
AcDbMText
 10
284.0029422903
 20
-8.611355405808194
 30
0.0
 40
3.5
 41
0.0
 71
     2
 72
     1
  1
\A1;%%c14.29 [9/16]
  7
SLDTEXTSTYLE0
 11
-3.978542002506247E-15
 21
1.0
 31
0.0
 73
     1
 44
1.0
  0
POINT
  5
33B
330
32F
100
AcDbEntity
  8
Defpoints
 62
     0
100
AcDbPoint
 10
266.8989898967558
 20
-30.09035540580829
 30
0.0
  0
POINT
  5
33C
330
32F
100
AcDbEntity
  8
Defpoints
 62
     0
100
AcDbPoint
 10
266.8989898967557
 20
-44.37785540580829
 30
0.0
  0
POINT
  5
33D
330
32F
100
AcDbEntity
  8
Defpoints
 62
     0
100
AcDbPoint
 10
288.3779422903001
 20
-44.37785540580821
 30
0.0
  0
ENDBLK
  5
331
330
32F
100
AcDbEntity
  8
0
100
AcDbBlockEnd
  0
BLOCK
  5
33F
330
33E
100
AcDbEntity
  8
0
100
AcDbBlockBegin
  2
*D17
 70
     1
 10
0.0
 20
0.0
 30
0.0
  3
*D17
  1
*D19
  0
LINE
  5
341
330
33E
100
AcDbEntity
  8
치수문자_일반주서
 62
     0
370
    -2
100
AcDbLine
 10
266.8989898967557
 20
-30.02785540580829
 30
0.0
 11
266.8989898967557
 21
-18.30764215766325
 31
0.0
  0
LINE
  5
342
330
33E
100
AcDbEntity
  8
치수문자_일반주서
 62
     0
370
    -2
100
AcDbLine
 10
231.9739898967557
 20
-30.0278554058083
 30
0.0
 11
231.9739898967557
 21
-18.30764215766325
 31
0.0
  0
LINE
  5
343
330
33E
100
AcDbEntity
  8
치수문자_일반주서
 62
     0
370
    -2
100
AcDbLine
 10
231.9739898967557
 20
-18.30764215766325
 30
0.0
 11
194.7449898967557
 21
-18.30764215766325
 31
0.0
  0
LINE
  5
344
330
33E
100
AcDbEntity
  8
치수문자_일반주서
 62
     0
370
    -2
100
AcDbLine
 10
266.8989898967557
 20
-18.30764215766325
 30
0.0
 11
231.9739898967557
 21
-18.30764215766325
 31
0.0
  0
LINE
  5
345
330
33E
100
AcDbEntity
  8
치수문자_일반주서
 62
     0
370
    -2
100
AcDbLine
 10
270.2009898967557
 20
-18.30764215766325
 30
0.0
 11
273.5029898967558
 21
-18.30764215766325
 31
0.0
  0
LINE
  5
346
330
33E
100
AcDbEntity
  8
치수문자_일반주서
 62
     0
370
    -2
100
AcDbLine
 10
228.6719898967557
 20
-18.30764215766325
 30
0.0
 11
225.3699898967558
 21
-18.30764215766325
 31
0.0
  0
SOLID
  5
347
330
33E
100
AcDbEntity
  8
치수문자_일반주서
 62
     0
100
AcDbTrace
 10
270.2009898967557
 20
-17.75730882432991
 30
0.0
 11
270.2009898967557
 21
-18.85797549099658
 31
0.0
 12
266.8989898967557
 22
-18.30764215766325
 32
0.0
 13
266.8989898967557
 23
-18.30764215766325
 33
0.0
  0
SOLID
  5
348
330
33E
100
AcDbEntity
  8
치수문자_일반주서
 62
     0
100
AcDbTrace
 10
228.6719898967557
 20
-18.85797549099658
 30
0.0
 11
228.6719898967557
 21
-17.75730882432991
 31
0.0
 12
231.9739898967557
 22
-18.30764215766325
 32
0.0
 13
231.9739898967557
 23
-18.30764215766325
 33
0.0
  0
MTEXT
  5
349
330
33E
100
AcDbEntity
  8
치수문자_일반주서
 62
     0
100
AcDbMText
 10
210.0574898967557
 20
-13.93264215766325
 30
0.0
 40
3.5
 41
0.0
 71
     2
 72
     1
  1
\A1;34.93 [1 3/8]
  7
SLDTEXTSTYLE0
 73
     1
 44
1.0
  0
POINT
  5
34A
330
33E
100
AcDbEntity
  8
Defpoints
 62
     0
100
AcDbPoint
 10
266.8989898967557
 20
-30.09035540580829
 30
0.0
  0
POINT
  5
34B
330
33E
100
AcDbEntity
  8
Defpoints
 62
     0
100
AcDbPoint
 10
231.9739898967557
 20
-30.0903554058083
 30
0.0
  0
POINT
  5
34C
330
33E
100
AcDbEntity
  8
Defpoints
 62
     0
100
AcDbPoint
 10
231.9739898967557
 20
-18.30764215766325
 30
0.0
  0
ENDBLK
  5
340
330
33E
100
AcDbEntity
  8
0
100
AcDbBlockEnd
  0
BLOCK
  5
34E
330
34D
100
AcDbEntity
  8
0
100
AcDbBlockBegin
  2
*D18
 70
     1
 10
0.0
 20
0.0
 30
0.0
  3
*D18
  1
*D20
  0
LINE
  5
350
330
34D
100
AcDbEntity
  8
치수문자_일반주서
 62
     0
370
    -2
100
AcDbLine
 10
266.8989898967557
 20
-30.02785540580829
 30
0.0
 11
266.8989898967557
 21
-3.226038559075796
 31
0.0
  0
LINE
  5
351
330
34D
100
AcDbEntity
  8
치수문자_일반주서
 62
     0
370
    -2
100
AcDbLine
 10
139.8989898967557
 20
-30.8216054058083
 30
0.0
 11
139.8989898967557
 21
-3.226038559075796
 31
0.0
  0
LINE
  5
352
330
34D
100
AcDbEntity
  8
치수문자_일반주서
 62
     0
370
    -2
100
AcDbLine
 10
263.5969898967557
 20
-3.226038559075796
 30
0.0
 11
143.2009898967557
 21
-3.226038559075796
 31
0.0
  0
SOLID
  5
353
330
34D
100
AcDbEntity
  8
치수문자_일반주서
 62
     0
100
AcDbTrace
 10
263.5969898967557
 20
-3.776371892409129
 30
0.0
 11
263.5969898967557
 21
-2.675705225742463
 31
0.0
 12
266.8989898967557
 22
-3.226038559075796
 32
0.0
 13
266.8989898967557
 23
-3.226038559075796
 33
0.0
  0
SOLID
  5
354
330
34D
100
AcDbEntity
  8
치수문자_일반주서
 62
     0
100
AcDbTrace
 10
143.2009898967557
 20
-2.675705225742463
 30
0.0
 11
143.2009898967557
 21
-3.776371892409129
 31
0.0
 12
139.8989898967557
 22
-3.226038559075796
 32
0.0
 13
139.8989898967557
 23
-3.226038559075796
 33
0.0
  0
MTEXT
  5
355
330
34D
100
AcDbEntity
  8
치수문자_일반주서
 62
     0
100
AcDbMText
 10
203.4785684326517
 20
1.148961440924204
 30
0.0
 40
3.5
 41
0.0
 71
     2
 72
     1
  1
\A1;127.00 [5]
  7
SLDTEXTSTYLE0
 73
     1
 44
1.0
  0
POINT
  5
356
330
34D
100
AcDbEntity
  8
Defpoints
 62
     0
100
AcDbPoint
 10
266.8989898967557
 20
-30.09035540580829
 30
0.0
  0
POINT
  5
357
330
34D
100
AcDbEntity
  8
Defpoints
 62
     0
100
AcDbPoint
 10
139.8989898967557
 20
-30.8841054058083
 30
0.0
  0
POINT
  5
358
330
34D
100
AcDbEntity
  8
Defpoints
 62
     0
100
AcDbPoint
 10
139.8989898967557
 20
-3.226038559075796
 30
0.0
  0
ENDBLK
  5
34F
330
34D
100
AcDbEntity
  8
0
100
AcDbBlockEnd
  0
ENDSEC
  0
SECTION
  2
ENTITIES
  0
LINE
  5
96
330
1F
100
AcDbEntity
  8
0
  6
Continuous
 62
     1
370
    15
100
AcDbLine
 10
45.12572724633428
 20
-7.143750000000004
 30
0.0
 11
49.48198162378623
 21
-7.143750000000004
 31
0.0
  0
LINE
  5
97
330
1F
100
AcDbEntity
  8
0
  6
Continuous
 62
     1
370
    15
100
AcDbLine
 10
30.04606677479818
 20
7.143749999999997
 30
0.0
 11
28.57500000000001
 21
7.143749999999997
 31
0.0
  0
LINE
  5
98
330
1F
100
AcDbEntity
  8
0
  6
Continuous
 62
     1
370
    15
100
AcDbLine
 10
49.4819816237862
 20
7.143749999999997
 30
0.0
 11
45.12572724633436
 21
7.143749999999997
 31
0.0
  0
LINE
  5
99
330
1F
100
AcDbEntity
  8
0
  6
Continuous
 62
     1
370
    15
100
AcDbLine
 10
28.57500000000001
 20
-7.143750000000004
 30
0.0
 11
30.04606677479812
 21
-7.143750000000004
 31
0.0
  0
LINE
  5
9A
330
1F
100
AcDbEntity
  8
외형선
  6
Continuous
370
    15
100
AcDbLine
 10
24.61268467149217
 20
-7.937500000000014
 30
0.0
 11
27.57500000000001
 21
-7.143750000000002
 31
0.0
  0
LINE
  5
9B
330
1F
100
AcDbEntity
  8
외형선
  6
Continuous
370
    15
100
AcDbLine
 10
27.57500000000001
 20
7.143749999999995
 30
0.0
 11
24.61268467149217
 21
7.937500000000007
 31
0.0
  0
LINE
  5
9C
330
1F
100
AcDbEntity
  8
외형선
  6
Continuous
370
    15
100
AcDbLine
 10
-24.61268467149217
 20
-7.937500000000009
 30
0.0
 11
24.61268467149217
 21
-7.937500000000009
 31
0.0
  0
LINE
  5
9D
330
1F
100
AcDbEntity
  8
외형선
  6
Continuous
370
    15
100
AcDbLine
 10
24.61268467149217
 20
7.937500000000002
 30
0.0
 11
6.743700000000107
 21
7.937500000000002
 31
0.0
  0
LINE
  5
A0
330
1F
100
AcDbEntity
  8
외형선
  6
Continuous
370
    15
100
AcDbLine
 10
27.57500000000001
 20
-7.143750000000002
 30
0.0
 11
28.57500000000001
 21
-7.143750000000002
 31
0.0
  0
LINE
  5
A1
330
1F
100
AcDbEntity
  8
외형선
  6
Continuous
370
    15
100
AcDbLine
 10
28.57500000000001
 20
7.143749999999995
 30
0.0
 11
27.57500000000001
 21
7.143749999999995
 31
0.0
  0
SPLINE
  5
A2
330
1F
100
AcDbEntity
  8
0
  6
Continuous
 62
     1
370
    15
100
AcDbSpline
210
0.0
220
0.0
230
1.0
 70
     8
 71
     3
 72
    19
 73
    15
 74
     0
 42
0.000000001
 43
0.00000001
 40
0.0
 40
0.0
 40
0.0
 40
0.0
 40
0.0859674615322438
 40
0.1719349016656697
 40
0.2579023193698728
 40
0.3438697136146166
 40
0.4298370833698354
 40
0.5158044276056426
 40
0.6017717452923401
 40
0.6877390354004251
 40
0.7778004370231759
 40
0.867859061959398
 40
0.957914255554642
 40
1.0
 40
1.0
 40
1.0
 40
1.0
 10
28.57500000000001
 20
0.847092328274845
 30
0.0
 10
29.389942533796
 20
0.3767197376228959
 30
0.0
 10
31.01982739853442
 20
-0.5640253265969654
 30
0.0
 10
33.46465420989714
 20
-1.962026929138289
 30
0.0
 10
35.90948034003539
 20
-3.281313294894271
 30
0.0
 10
38.35430538285839
 20
-4.473541060998538
 30
0.0
 10
40.79913065276304
 20
-5.491534529767695
 30
0.0
 10
43.24395108735655
 20
-6.295812261987241
 30
0.0
 10
45.68878541094585
 20
-6.855329425888458
 30
0.0
 10
48.17237393787694
 20
-7.151804024752193
 30
0.0
 10
50.69496346864608
 20
-7.162724286396927
 30
0.0
 10
53.25622663291007
 20
-6.854158690953881
 30
0.0
 10
55.36268275615878
 20
-6.402089358869555
 30
0.0
 10
56.61536397765219
 20
-5.967646249248776
 30
0.0
 10
57.01433209866754
 20
-5.829279881046297
 30
0.0
  0
SPLINE
  5
A3
330
1F
100
AcDbEntity
  8
외형선
  6
Continuous
370
    15
100
AcDbSpline
210
0.0
220
0.0
230
1.0
 70
    24
 71
     3
 72
    17
 73
    13
 74
     0
 42
0.000000001
 43
0.00000001
 40
0.0
 40
0.0
 40
0.0
 40
0.0
 40
0.0884940581094835
 40
0.1789154110684704
 40
0.2804018799748382
 40
0.3848314633546724
 40
0.4863179322610444
 40
0.5907475156408825
 40
0.6922339845472543
 40
0.7966635679270928
 40
0.8981500368334642
 40
1.0
 40
1.0
 40
1.0
 40
1.0
 10
28.57500000000001
 20
6.950435044633043
 30
0.0
 10
28.575
 20
6.768131616873522
 30
0.0
 10
28.57499999999997
 20
6.399554410521064
 30
0.0
 10
28.57500000000004
 20
5.772014147890799
 30
0.0
 10
28.57499999999997
 20
5.085836486594447
 30
0.0
 10
28.57500000000005
 20
4.363359683269318
 30
0.0
 10
28.5749999999999
 20
3.645691467184682
 30
0.0
 10
28.57500000000008
 20
2.965922616531494
 30
0.0
 10
28.575
 20
2.33039353312474
 30
0.0
 10
28.57499999999995
 20
1.771328724945896
 30
0.0
 10
28.57500000000011
 20
1.287994108316028
 30
0.0
 10
28.57500000000007
 20
1.052880633347817
 30
0.0
 10
28.57500000000001
 20
0.935113745627064
 30
0.0
  0
SPLINE
  5
A4
330
1F
100
AcDbEntity
  8
0
  6
Continuous
 62
     1
370
    15
100
AcDbSpline
210
0.0
220
0.0
230
1.0
 70
     8
 71
     3
 72
    56
 73
    52
 74
     0
 42
0.000000001
 43
0.00000001
 40
0.0
 40
0.0
 40
0.0
 40
0.0
 40
0.0625
 40
0.0625
 40
0.09375
 40
0.09375
 40
0.125
 40
0.125
 40
0.15625
 40
0.15625
 40
0.1875
 40
0.1875
 40
0.21875
 40
0.21875
 40
0.2499999999999999
 40
0.2499999999999999
 40
0.3124999999999999
 40
0.3124999999999999
 40
0.3749999999999998
 40
0.3749999999999998
 40
0.4062499999999997
 40
0.4062499999999997
 40
0.4374999999999997
 40
0.4374999999999997
 40
0.4687499999999996
 40
0.4687499999999996
 40
0.4999999999999996
 40
0.4999999999999996
 40
0.5312499999999994
 40
0.5312499999999994
 40
0.5624999999999993
 40
0.5624999999999993
 40
0.6249999999999992
 40
0.6249999999999992
 40
0.6874999999999991
 40
0.6874999999999991
 40
0.718749999999999
 40
0.718749999999999
 40
0.7499999999999989
 40
0.7499999999999989
 40
0.7812499999999988
 40
0.7812499999999988
 40
0.8124999999999987
 40
0.8124999999999987
 40
0.8437499999999986
 40
0.8437499999999986
 40
0.8749999999999984
 40
0.8749999999999984
 40
0.9374999999999992
 40
0.9374999999999992
 40
1.0
 40
1.0
 40
1.0
 40
1.0
 10
63.5
 20
-7.143749999999992
 30
0.0
 10
62.77588526865877
 20
-7.081543368513408
 30
0.0
 10
62.04232247870409
 20
-7.008365250791646
 30
0.0
 10
60.95327914480663
 20
-6.84513358894911
 30
0.0
 10
60.59096944050526
 20
-6.781833571051219
 30
0.0
 10
59.86208462232419
 20
-6.63754835266473
 30
0.0
 10
59.4969206320268
 20
-6.556630375177158
 30
0.0
 10
58.76940629495121
 20
-6.378219288156337
 30
0.0
 10
58.40797353734666
 20
-6.280837190319414
 30
0.0
 10
57.67995833046585
 20
-6.069590978354658
 30
0.0
 10
57.31474784429267
 20
-5.95582541926072
 30
0.0
 10
56.5861797115284
 20
-5.713324207047006
 30
0.0
 10
56.22439314654305
 20
-5.584792127422894
 30
0.0
 10
55.4976801967412
 20
-5.313243279103436
 30
0.0
 10
55.13264192743117
 20
-5.170185631448395
 30
0.0
 10
54.03885965026944
 20
-4.721594981988464
 30
0.0
 10
53.31514163437376
 20
-4.39722448500705
 30
0.0
 10
51.85639511295787
 20
-3.704630246232767
 30
0.0
 10
51.13260085365901
 20
-3.33818751520735
 30
0.0
 10
50.03891636496215
 20
-2.764112147859613
 30
0.0
 10
49.67383838520723
 20
-2.568818740368559
 30
0.0
 10
48.94690293721767
 20
-2.172659263589114
 30
0.0
 10
48.58524772591684
 20
-1.971841879968392
 30
0.0
 10
47.85680984813767
 20
-1.564670959401466
 30
0.0
 10
47.4915923975623
 20
-1.358600832713108
 30
0.0
 10
46.76341934759222
 20
-0.9438956657555204
 30
0.0
 10
46.40193359485821
 20
-0.7355465629403597
 30
0.0
 10
45.67461431671455
 20
-0.3166538611617695
 30
0.0
 10
45.30947612198439
 20
-0.1062407815880106
 30
0.0
 10
44.58049842912472
 20
0.314066921902756
 30
0.0
 10
44.2179514858143
 20
0.5237118636615539
 30
0.0
 10
43.12929736611895
 20
1.14999605133066
 30
0.0
 10
42.39570631957395
 20
1.565176448272614
 30
0.0
 10
40.94684916358462
 20
2.37165272314138
 30
0.0
 10
40.21394563446998
 20
2.766193754044643
 30
0.0
 10
39.12452751390934
 20
3.331709440822166
 30
0.0
 10
38.76242747483777
 20
3.515970219983237
 30
0.0
 10
38.03364527676653
 20
3.875664548509538
 30
0.0
 10
37.66846039577995
 20
4.050834619598065
 30
0.0
 10
36.94076068414925
 20
4.389793295014193
 30
0.0
 10
36.57935330893969
 20
4.553433498995152
 30
0.0
 10
35.85150565182219
 20
4.869248873478079
 30
0.0
 10
35.48630703701566
 20
5.021217786859618
 30
0.0
 10
34.75761838057679
 20
5.311491221765365
 30
0.0
 10
34.39567286489152
 20
5.449613637550075
 30
0.0
 10
33.66919206201774
 20
5.71173340562892
 30
0.0
 10
33.30419840239127
 20
5.835760412336735
 30
0.0
 10
32.21033297521234
 20
6.184489600911293
 30
0.0
 10
31.48666836654187
 20
6.385488375543831
 30
0.0
 10
30.0279413795762
 20
6.72032780390429
 30
0.0
 10
29.30404804409859
 20
6.853304967785838
 30
0.0
 10
28.57500000000001
 20
6.950435044633049
 30
0.0
  0
LINE
  5
A5
330
1F
100
AcDbEntity
  8
0
  6
Continuous
 62
     1
370
    15
100
AcDbLine
 10
63.50000000000001
 20
-6.469961138745733
 30
0.0
 11
63.50000000000001
 21
0.6120861387458181
 31
0.0
  0
SPLINE
  5
A6
330
1F
100
AcDbEntity
  8
0
  6
Continuous
 62
     1
370
    15
100
AcDbSpline
210
0.0
220
0.0
230
1.0
 70
     8
 71
     3
 72
    21
 73
    17
 74
     0
 42
0.000000001
 43
0.00000001
 40
0.0
 40
0.0
 40
0.0
 40
0.0
 40
0.029107881603241
 40
0.1021892111892678
 40
0.1752705217081065
 40
0.2483518122839474
 40
0.3214330820411256
 40
0.3945143301041318
 40
0.4675955555976132
 40
0.5406767576463847
 40
0.617238383359057
 40
0.6937976485973075
 40
0.7703539968362799
 40
0.8469068731437234
 40
0.92345572448069
 40
1.0
 40
1.0
 40
1.0
 40
1.0
 10
30.04606677479821
 20
7.110361010900951
 30
0.0
 10
30.37065370968904
 20
7.118711329457001
 30
0.0
 10
31.5101829715898
 20
7.148026841937535
 30
0.0
 10
33.46465420627078
 20
6.906796703141779
 30
0.0
 10
35.9094803409302
 20
6.400864822855207
 30
0.0
 10
38.35430538290574
 20
5.628545523175631
 30
0.0
 10
40.79913065167882
 20
4.641835742841157
 30
0.0
 10
43.24395109164604
 20
3.473255084131846
 30
0.0
 10
45.68878539487204
 20
2.169842041611075
 30
0.0
 10
48.17237399909034
 20
0.7599025656143548
 30
0.0
 10
50.69496322804773
 20
-0.7042958631321196
 30
0.0
 10
53.25622752940218
 20
-2.160572728245085
 30
0.0
 10
55.81739199237794
 20
-3.526006249157864
 30
0.0
 10
58.37841188550604
 20
-4.735568560682827
 30
0.0
 10
60.9392739249357
 20
-5.762771934611178
 30
0.0
 10
62.64644165022116
 20
-6.23423610124935
 30
0.0
 10
63.50000000000001
 20
-6.469961138745734
 30
0.0
  0
SPLINE
  5
A7
330
1F
100
AcDbEntity
  8
0
  6
Continuous
 62
     1
370
    15
100
AcDbSpline
210
0.0
220
0.0
230
1.0
 70
     8
 71
     3
 72
    18
 73
    14
 74
     0
 42
0.000000001
 43
0.00000001
 40
0.0
 40
0.0
 40
0.0
 40
0.0
 40
0.0943757104501968
 40
0.1887515090721982
 40
0.2831273947579948
 40
0.3775033663989389
 40
0.4718794228857583
 40
0.5662555631085606
 40
0.660631785956839
 40
0.7550080903194903
 40
0.8538647038477688
 40
0.9527265657972926
 40
1.0
 40
1.0
 40
1.0
 40
1.0
 10
63.50000000000001
 20
0.6120861387458181
 30
0.0
 10
62.6850915046392
 20
1.07854202340047
 30
0.0
 10
61.05527375257806
 20
2.011454228502596
 30
0.0
 10
58.61054541901477
 20
3.326170422245408
 30
0.0
 10
56.16581438648785
 20
4.513162410671542
 30
0.0
 10
53.72108077349135
 20
5.524094983326759
 30
0.0
 10
51.27634415455712
 20
6.320127467089367
 30
0.0
 10
48.83160631977549
 20
6.870439266264146
 30
0.0
 10
46.38686074107525
 20
7.152496554823473
 30
0.0
 10
43.90344658631579
 20
7.159758748366383
 30
0.0
 10
41.38122376810216
 20
6.859417310255076
 30
0.0
 10
39.26572364819828
 20
6.407484790150096
 30
0.0
 10
38.00383221712305
 20
5.970993306174649
 30
0.0
 10
37.59562185926571
 20
5.829792295939174
 30
0.0
  0
SPLINE
  5
A8
330
1F
100
AcDbEntity
  8
0
  6
Continuous
 62
     1
370
    15
100
AcDbSpline
210
0.0
220
0.0
230
1.0
 70
     8
 71
     3
 72
    14
 73
    10
 74
     0
 42
0.000000001
 43
0.00000001
 40
0.0
 40
0.0
 40
0.0
 40
0.0
 40
0.0715166196255744
 40
0.2262470469556931
 40
0.3809856891177093
 40
0.5357314285273531
 40
0.6904831437304773
 40
0.8452397100105492
 40
1.0
 40
1.0
 40
1.0
 40
1.0
 10
45.12572724633428
 20
-7.108952284006404
 30
0.0
 10
44.73119286949428
 20
-7.115939132004357
 30
0.0
 10
43.48306008371817
 20
-7.138042437995905
 30
0.0
 10
41.38122358161733
 20
-6.857979656082812
 30
0.0
 10
38.82021682097761
 20
-6.283210937024607
 30
0.0
 10
36.25906422443575
 20
-5.424646409669205
 30
0.0
 10
33.69779413850187
 20
-4.337371448576943
 30
0.0
 10
31.13642798932745
 20
-3.06882004306751
 30
0.0
 10
29.42881617770671
 20
-2.123371349578404
 30
0.0
 10
28.57500000000001
 20
-1.650641315621514
 30
0.0
  0
LINE
  5
A9
330
1F
100
AcDbEntity
  8
외형선
  6
Continuous
370
    15
100
AcDbLine
 10
28.57500000000001
 20
-1.650641315621525
 30
0.0
 11
28.575
 21
0.8470923282748349
 31
0.0
  0
LINE
  5
AA
330
1F
100
AcDbEntity
  8
0
  6
Continuous
 62
     1
370
    15
100
AcDbLine
 10
63.5
 20
-7.143749999999992
 30
0.0
 11
63.50000000000001
 21
-6.469961138745733
 31
0.0
  0
LINE
  5
AB
330
1F
100
AcDbEntity
  8
외형선
  6
Continuous
370
    15
100
AcDbLine
 10
28.57500000000001
 20
6.950435044633043
 30
0.0
 11
28.57500000000001
 21
7.143749999999997
 31
0.0
  0
SPLINE
  5
AC
330
1F
100
AcDbEntity
  8
0
  6
Continuous
 62
     1
370
    15
100
AcDbSpline
210
0.0
220
0.0
230
1.0
 70
     8
 71
     3
 72
    13
 73
     9
 74
     0
 42
0.000000001
 43
0.00000001
 40
0.0
 40
0.0
 40
0.0
 40
0.0
 40
0.0865291898963167
 40
0.2692399189706268
 40
0.4519436865483313
 40
0.6346391682688132
 40
0.817325044289865
 40
1.0
 40
1.0
 40
1.0
 40
1.0
 10
49.4819816237862
 20
7.105628727245731
 30
0.0
 10
49.88631351352225
 20
7.113630355360657
 30
0.0
 10
51.14441248983559
 20
7.138527822999928
 30
0.0
 10
53.25622989403556
 20
6.852241005248255
 30
0.0
 10
55.81739135903496
 20
6.275443407370859
 30
0.0
 10
58.3784120543847
 20
5.411570555546072
 30
0.0
 10
60.93927388271987
 20
4.330430547432385
 30
0.0
 10
62.6464416361495
 20
3.462573276754372
 30
0.0
 10
63.49999999999999
 20
3.028657611157063
 30
0.0
  0
LINE
  5
AD
330
1F
100
AcDbEntity
  8
0
  6
Continuous
 62
     1
370
    15
100
AcDbLine
 10
63.50000000000001
 20
0.6120861387458185
 30
0.0
 11
63.50000000000001
 21
3.028657611157062
 31
0.0
  0
SPLINE
  5
AE
330
1F
100
AcDbEntity
  8
0
  6
Continuous
 62
     1
370
    15
100
AcDbSpline
210
0.0
220
0.0
230
1.0
 70
     8
 71
     3
 72
    11
 73
     7
 74
     0
 42
0.000000001
 43
0.00000001
 40
0.0
 40
0.0
 40
0.0
 40
0.0
 40
0.2710264811957955
 40
0.5420528949283132
 40
0.8130792379490402
 40
1.0
 40
1.0
 40
1.0
 40
1.0
 10
28.57500000000001
 20
-7.093348902308268
 30
0.0
 10
29.38994253300739
 20
-7.122852370560017
 30
0.0
 10
31.01982739616859
 20
-7.181859299719584
 30
0.0
 10
33.46465421936055
 20
-6.908946210718761
 30
0.0
 10
35.65658565234588
 20
-6.469641255524618
 30
0.0
 10
37.0335747424523
 20
-6.015258282416184
 30
0.0
 10
37.59562185926562
 20
-5.829792295939178
 30
0.0
  0
SPLINE
  5
AF
330
1F
100
AcDbEntity
  8
외형선
  6
Continuous
370
    15
100
AcDbSpline
210
0.0
220
0.0
230
1.0
 70
    24
 71
     3
 72
    17
 73
    13
 74
     0
 42
0.000000001
 43
0.00000001
 40
0.0
 40
0.0
 40
0.0
 40
0.0
 40
0.015493568422839
 40
0.1359573283513502
 40
0.2530260863666171
 40
0.3734898462951282
 40
0.4905586043103956
 40
0.6110223642389062
 40
0.7280911222541747
 40
0.8485548821826878
 40
0.923839290603179
 40
0.9999999999999999
 40
0.9999999999999999
 40
0.9999999999999999
 40
0.9999999999999999
 10
28.57500000000004
 20
-1.738672732973754
 30
0.0
 10
28.57500000000002
 20
-1.753858423131663
 30
0.0
 10
28.57499999999997
 20
-1.887114094562225
 30
0.0
 10
28.57499999999991
 20
-2.23330006086199
 30
0.0
 10
28.57500000000007
 20
-2.773177368944797
 30
0.0
 10
28.575
 20
-3.390461243766714
 30
0.0
 10
28.57500000000001
 20
-4.065998728026551
 30
0.0
 10
28.57500000000004
 20
-4.771889486395923
 30
0.0
 10
28.57500000000004
 20
-5.500104431855915
 30
0.0
 10
28.57500000000014
 20
-6.132132027088372
 30
0.0
 10
28.57499999999992
 20
-6.666628739292801
 30
0.0
 10
28.57500000000001
 20
-6.950561212173215
 30
0.0
 10
28.57500000000001
 20
-7.093348902308271
 30
0.0
  0
SPLINE
  5
B0
330
1F
100
AcDbEntity
  8
0
  6
Continuous
 62
     1
370
    15
100
AcDbSpline
210
0.0
220
0.0
230
1.0
 70
     8
 71
     3
 72
    10
 73
     6
 74
     0
 42
0.000000001
 43
0.00000001
 40
0.0
 40
0.0
 40
0.0
 40
0.0
 40
0.376942824344788
 40
0.7538860008535904
 40
1.0
 40
1.0
 40
1.0
 40
1.0
 10
63.50000000000003
 20
7.143750000000008
 30
0.0
 10
62.68509150163111
 20
7.048608777016341
 30
0.0
 10
61.0552737435538
 20
6.910867240244675
 30
0.0
 10
58.89338440994823
 20
6.452144735243548
 30
0.0
 10
57.54640344703016
 20
6.005649927175832
 30
0.0
 10
57.01433209866755
 20
5.829279881046287
 30
0.0
  0
LINE
  5
B1
330
1F
100
AcDbEntity
  8
0
  6
Continuous
 62
     1
370
    15
100
AcDbLine
 10
63.50000000000001
 20
3.012439582069585
 30
0.0
 11
63.50000000000001
 21
7.143750000000007
 31
0.0
  0
LINE
  5
B2
330
1F
100
AcDbEntity
  8
외형선
  6
Continuous
370
    15
100
AcDbLine
 10
27.57500000000001
 20
-0.000000000000004
 30
0.0
 11
27.57500000000001
 21
7.143750000000002
 31
0.0
  0
LINE
  5
B3
330
1F
100
AcDbEntity
  8
외형선
  6
Continuous
370
    15
100
AcDbLine
 10
27.57500000000001
 20
-7.143750000000017
 30
0.0
 11
27.57500000000001
 21
-0.000000000000004
 31
0.0
  0
LINE
  5
B4
330
1F
100
AcDbEntity
  8
외형선
  6
Continuous
370
    15
100
AcDbLine
 10
24.61268467149217
 20
-0.000000000000004
 30
0.0
 11
24.61268467149217
 21
7.937500000000007
 31
0.0
  0
LINE
  5
B5
330
1F
100
AcDbEntity
  8
외형선
  6
Continuous
370
    15
100
AcDbLine
 10
24.61268467149217
 20
-7.937500000000014
 30
0.0
 11
24.61268467149217
 21
-0.000000000000004
 31
0.0
  0
SPLINE
  5
BA
330
1F
100
AcDbEntity
  8
외형선
  6
Continuous
370
    15
100
AcDbSpline
210
0.0
220
0.0
230
1.0
 70
     8
 71
     3
 72
     8
 73
     4
 74
     0
 42
0.000000001
 43
0.00000001
 40
0.0
 40
0.0
 40
0.0
 40
0.0
 40
1.0
 40
1.0
 40
1.0
 40
1.0
 10
28.57500000000001
 20
6.950435044633044
 30
0.0
 10
28.40836795555907
 20
6.972635204708597
 30
0.0
 10
28.24161267564127
 20
6.992954204811317
 30
0.0
 10
28.07493771678584
 20
7.011366753628677
 30
0.0
  0
LINE
  5
BB
330
1F
100
AcDbEntity
  8
외형선
  6
Continuous
370
    15
100
AcDbLine
 10
28.07493771678583
 20
1.132509676596545
 30
0.0
 11
28.07493771678583
 21
7.011377051385725
 31
0.0
  0
SPLINE
  5
BC
330
1F
100
AcDbEntity
  8
외형선
  6
Continuous
370
    15
100
AcDbSpline
210
0.0
220
0.0
230
1.0
 70
     8
 71
     3
 72
     8
 73
     4
 74
     0
 42
0.000000001
 43
0.00000001
 40
0.0
 40
0.0
 40
0.0
 40
0.0
 40
1.0
 40
1.0
 40
1.0
 40
1.0
 10
28.57500000000001
 20
0.847092328274845
 30
0.0
 10
28.40836795555906
 20
0.9424937214259035
 30
0.0
 10
28.24161267564126
 20
1.037688687219083
 30
0.0
 10
28.07493771678581
 20
1.132560950843294
 30
0.0
  0
SPLINE
  5
BD
330
1F
100
AcDbEntity
  8
외형선
  6
Continuous
370
    15
100
AcDbSpline
210
0.0
220
0.0
230
1.0
 70
     8
 71
     3
 72
     8
 73
     4
 74
     0
 42
0.000000001
 43
0.00000001
 40
0.0
 40
0.0
 40
0.0
 40
0.0
 40
1.0
 40
1.0
 40
1.0
 40
1.0
 10
28.57500000000001
 20
-1.650641315621515
 30
0.0
 10
28.40836795555907
 20
-1.557162030252067
 30
0.0
 10
28.24161267564127
 20
-1.463211659525485
 30
0.0
 10
28.07493771678584
 20
-1.368904784347822
 30
0.0
  0
LINE
  5
BE
330
1F
100
AcDbEntity
  8
외형선
  6
Continuous
370
    15
100
AcDbLine
 10
28.07493771678583
 20
-7.053409522700009
 30
0.0
 11
28.07493771678583
 21
-1.368852039411674
 31
0.0
  0
SPLINE
  5
BF
330
1F
100
AcDbEntity
  8
외형선
  6
Continuous
370
    15
100
AcDbSpline
210
0.0
220
0.0
230
1.0
 70
     8
 71
     3
 72
     8
 73
     4
 74
     0
 42
0.000000001
 43
0.00000001
 40
0.0
 40
0.0
 40
0.0
 40
0.0
 40
1.0
 40
1.0
 40
1.0
 40
1.0
 10
28.57500000000001
 20
-7.093348902308268
 30
0.0
 10
28.40836795555906
 20
-7.081956006039102
 30
0.0
 10
28.24161267564126
 20
-7.068634879492451
 30
0.0
 10
28.07493771678581
 20
-7.053401289812236
 30
0.0
  0
SPLINE
  5
C0
330
1F
100
AcDbEntity
  8
외형선
  6
Continuous
370
    15
100
AcDbSpline
210
0.0
220
0.0
230
1.0
 70
    24
 71
     3
 72
    17
 73
    13
 74
     0
 42
0.000000001
 43
0.00000001
 40
0.0
 40
0.0
 40
0.0
 40
0.0
 40
0.073934791050113
 40
0.176580552494311
 40
0.2792263139385089
 40
0.3818720753827077
 40
0.4845178368269066
 40
0.5871635982710975
 40
0.6898093597152885
 40
0.7924551211594975
 40
0.8951008826037061
 40
1.0
 40
1.0
 40
1.0
 40
1.0
 10
28.57500000000002
 20
0.935123745627064
 30
0.0
 10
28.57500000000002
 20
1.014012323338458
 30
0.0
 10
28.57500000000005
 20
1.202424144619274
 30
0.0
 10
28.57500000000005
 20
1.622586583522054
 30
0.0
 10
28.57500000000001
 20
2.15894677715675
 30
0.0
 10
28.57500000000011
 20
2.774273942749466
 30
0.0
 10
28.57500000000011
 20
3.443669604353524
 30
0.0
 10
28.57500000000004
 20
4.151232336796097
 30
0.0
 10
28.575
 20
4.875808358215401
 30
0.0
 10
28.57500000000001
 20
5.595730829676962
 30
0.0
 10
28.57500000000002
 20
6.301725216436465
 30
0.0
 10
28.575
 20
6.732638929989422
 30
0.0
 10
28.57500000000001
 20
6.950435044633149
 30
0.0
  0
SPLINE
  5
C1
330
1F
100
AcDbEntity
  8
외형선
  6
Continuous
370
    15
100
AcDbSpline
210
0.0
220
0.0
230
1.0
 70
    24
 71
     3
 72
    16
 73
    12
 74
     0
 42
0.000000001
 43
0.00000001
 40
0.0
 40
0.0
 40
0.0
 40
0.0
 40
0.1179066150255893
 40
0.2358132300511787
 40
0.3543379826031733
 40
0.4728627351551682
 40
0.5913874877072127
 40
0.709912240259257
 40
0.828436992811275
 40
0.946961745363293
 40
0.9999999999999999
 40
0.9999999999999999
 40
0.9999999999999999
 40
0.9999999999999999
 10
28.575
 20
-7.093348902308269
 30
0.0
 10
28.57499999999998
 20
-6.869947475294417
 30
0.0
 10
28.57500000000001
 20
-6.423144621266719
 30
0.0
 10
28.57500000000011
 20
-5.708122718062071
 30
0.0
 10
28.575
 20
-4.984617079256492
 30
0.0
 10
28.57499999999997
 20
-4.268411461288903
 30
0.0
 10
28.57499999999997
 20
-3.583695214223642
 30
0.0
 10
28.57500000000004
 20
-2.945930410347182
 30
0.0
 10
28.57500000000008
 20
-2.383188402336368
 30
0.0
 10
28.575
 20
-1.973041646821138
 30
0.0
 10
28.57500000000005
 20
-1.794009922090502
 30
0.0
 10
28.57500000000005
 20
-1.738662732973755
 30
0.0
  0
LINE
  5
C2
330
1F
100
AcDbEntity
  8
중심선
 48
0.8
100
AcDbLine
 10
-66.5
 20
-0.0000000000000079
 30
0.0
 11
66.50000000000001
 21
0.0000000000000079
 31
0.0
  0
LINE
  5
C3
330
1F
100
AcDbEntity
  8
참조1
100
AcDbLine
 10
24.00588065701562
 20
0.0010749287238892
 30
0.0
 11
24.00588065701562
 21
-39.99892507127611
 31
0.0
  0
LINE
  5
C4
330
1F
100
AcDbEntity
  8
참조1
100
AcDbLine
 10
24.00588065701562
 20
-39.99892507127611
 30
0.0
 11
-29.25297615729306
 21
-39.9989250712761
 31
0.0
  0
CIRCLE
  5
C5
330
1F
100
AcDbEntity
  8
해칭선
100
AcDbCircle
 10
0.0
 20
0.0
 30
0.0
 40
3.000000000000004
  0
INSERT
  5
C6
330
1F
100
AcDbEntity
  8
0
  6
Continuous
 62
     7
100
AcDbBlockReference
 66
     1
  2
블럭10
 10
-18.46475401170142
 20
-52.04717430164393
 30
0.0
  0
ATTRIB
  5
C7
330
C6
100
AcDbEntity
  8
FORMAT
 62
     2
100
AcDbText
 10
-27.6460493004427
 20
-49.97180738881174
 30
0.0
 40
4.233333333333333
  1
E1051036 [ 4 FLUTE ]
 41
0.75
  7
SLDTEXTSTYLE0
 11
-27.6460493004427
 21
-52.08847405547841
 31
0.0
100
AcDbAttribute
  2
AUTOATTR0
 70
     0
 74
     1
  0
SEQEND
  5
C8
330
C6
100
AcDbEntity
  8
0
  6
Continuous
 62
     7
  0
HATCH
  5
C9
330
1F
100
AcDbEntity
  8
중심선
100
AcDbHatch
 10
0.0
 20
0.0
 30
0.0
210
0.0
220
0.0
230
1.0
  2
SOLID
 70
     1
 71
     0
 91
        1
 92
        0
 93
        4
 72
     1
 10
-12.74984470732058
 20
-35.8
 11
-16.19611995115786
 21
-35.8
 72
     1
 10
-16.19611995115786
 20
-35.8
 11
-18.32434981036189
 21
-38.3363255805726
 72
     1
 10
-18.32434981036189
 20
-38.3363255805726
 11
-14.87804148141146
 21
-38.33628615127011
 72
     1
 10
-14.87804148141146
 20
-38.33628615127011
 11
-12.74984470732058
 21
-35.8
 97
        0
 75
     0
 76
     1
 98
        1
 10
-28.53036173659183
 20
-0.0010749287238972
  0
HATCH
  5
CA
330
1F
100
AcDbEntity
  8
중심선
100
AcDbHatch
 10
0.0
 20
0.0
 30
0.0
210
0.0
220
0.0
230
1.0
  2
SOLID
 70
     1
 71
     0
 91
        1
 92
        0
 93
        4
 72
     1
 10
-7.73708071628463
 20
-35.8
 11
-11.18335596012186
 21
-35.79999999999998
 72
     1
 10
-11.18335596012186
 20
-35.79999999999998
 11
-15.7144939684793
 21
-41.20000000000002
 72
     1
 10
-15.7144939684793
 20
-41.20000000000002
 11
-12.26821872464202
 21
-41.20000000000002
 72
     1
 10
-12.26821872464202
 20
-41.20000000000002
 11
-7.73708071628463
 21
-35.8
 97
        0
 75
     0
 76
     1
 98
        1
 10
-28.53036173659183
 20
-0.0010749287238972
  0
HATCH
  5
CB
330
1F
100
AcDbEntity
  8
중심선
100
AcDbHatch
 10
0.0
 20
0.0
 30
0.0
210
0.0
220
0.0
230
1.0
  2
SOLID
 70
     1
 71
     0
 91
        1
 92
        0
 93
        4
 72
     1
 10
-2.724316725248734
 20
-35.79999999999998
 11
-6.170591969085852
 21
-35.79999999999998
 72
     1
 10
-6.170591969085852
 20
-35.79999999999998
 11
-13.2190288709751
 21
-44.20000000000002
 72
     1
 10
-13.2190288709751
 20
-44.20000000000002
 11
-9.772753627137817
 21
-44.20000000000002
 72
     1
 10
-9.772753627137817
 20
-44.20000000000002
 11
-2.724316725248734
 21
-35.79999999999998
 97
        0
 75
     0
 76
     1
 98
        1
 10
-28.53036173659183
 20
-0.0010749287238972
  0
HATCH
  5
CC
330
1F
100
AcDbEntity
  8
중심선
100
AcDbHatch
 10
0.0
 20
0.0
 30
0.0
210
0.0
220
0.0
230
1.0
  2
SOLID
 70
     1
 71
     0
 91
        1
 92
        0
 93
        6
 72
     3
 10
2.075573705763464
 20
-40.00000000005127
 11
3.960054785062287
 21
1.540882976769353E-10
 40
0.3939339440162625
 50
17.09539180608459
 51
320.001965768507
 73
     0
 72
     1
 10
3.75857336146403
 20
-38.58789400463827
 11
6.063875235165071
 21
-36.65356729459038
 72
     3
 10
2.075573705710617
 20
-40.00000000000015
 11
6.600054785286829
 21
-1.278976924368180E-13
 40
0.636358354079598
 50
39.9987384933743
 51
368.4976242363725
 73
     1
 72
     1
 10
8.5009061976112
 20
-39.03999999993002
 11
0.7556410125465689
 21
-39.03999999993002
 72
     1
 10
0.7556410125465689
 20
-39.03999999993002
 11
0.7556159681006065
 21
-40.95999999992991
 72
     1
 10
0.7556159681006065
 20
-40.95999999992991
 11
5.196995737572614
 21
-40.95999999992988
 97
        0
 75
     0
 76
     1
 98
        1
 10
-28.53036173659183
 20
-0.0010749287238972
  0
DIMENSION
  5
CD
330
1F
100
AcDbEntity
  8
치수문자_일반주서
100
AcDbDimension
  2
_D
 10
84.97895239354439
 20
-7.143749999999915
 30
0.0
 11
84.97895239354425
 21
28.62275000000012
 31
0.0
 70
   160
  1
%%c<>
 71
     2
 42
14.2875
 52
-270.0
  3
SLDDIMSTYLE2
100
AcDbAlignedDimension
 13
63.50000000000003
 23
7.143750000000008
 33
0.0
 14
63.5
 24
-7.143749999999992
 34
0.0
 50
90.0000000000002
100
AcDbRotatedDimension
1001
ACAD
1000
DSTYLE
1002
{
1070
   171
1070
     6
1070
   273
1070
     5
1002
}
  0
DIMENSION
  5
E1
330
1F
100
AcDbEntity
  8
치수문자_일반주서
100
AcDbDimension
  2
_D_1
 10
28.57500000000001
 20
18.92646324814505
 30
0.0
 11
6.658500000000011
 21
18.92646324814505
 31
0.0
 70
   160
  1
<>
 71
     2
 42
34.925
  3
SLDDIMSTYLE2
100
AcDbAlignedDimension
 13
63.50000000000001
 23
7.143750000000007
 33
0.0
 14
28.57500000000001
 24
7.143749999999995
 34
0.0
 50
-0.0000000000000466
100
AcDbRotatedDimension
1001
ACAD
1000
DSTYLE
1002
{
1070
   171
1070
     6
1070
   273
1070
     5
1002
}
  0
DIMENSION
  5
F5
330
1F
100
AcDbEntity
  8
치수문자_일반주서
100
AcDbDimension
  2
_D_2
 10
-63.5
 20
34.0080668467325
 30
0.0
 11
0.0795785358960188
 21
34.0080668467325
 31
0.0
 70
   160
  1
<>
 71
     2
 42
127.0
  3
SLDDIMSTYLE2
100
AcDbAlignedDimension
 13
63.50000000000001
 23
7.143750000000007
 33
0.0
 14
-63.5
 24
7.143749999999995
 34
0.0
 50
0.0000000000000064
100
AcDbRotatedDimension
1001
ACAD
1000
DSTYLE
1002
{
1070
   171
1070
     6
1070
   273
1070
     5
1002
}
  0
DIMENSION
  5
108
330
1F
100
AcDbEntity
  8
치수문자_일반주서
100
AcDbDimension
  2
_D_3
 10
-75.38874999999999
 20
-7.937500000000199
 30
0.0
 11
-75.38875000000002
 21
0.000000000000009
 31
0.0
 70
   160
  1
%%c<>
 71
     2
 42
15.87500000000002
 52
-270.0
  3
SLDDIMSTYLE2
100
AcDbAlignedDimension
 13
-24.61268467149216
 23
7.937500000000012
 33
0.0
 14
-24.61268467149216
 24
-7.937500000000009
 34
0.0
 50
90.0000000000002
100
AcDbRotatedDimension
1001
ACAD
1000
DSTYLE
1002
{
1070
   171
1070
     6
1070
   273
1070
     5
1002
}
  0
LINE
  5
11D
330
1F
100
AcDbEntity
  8
참조1
100
AcDbLine
 10
68.7193644723612
 20
7.441074928723896
 30
0.0
 11
68.7193644723612
 21
-7.438925071276109
 31
0.0
  0
LINE
  5
11E
330
1F
100
AcDbEntity
  8
참조1
100
AcDbLine
 10
81.41936447236121
 20
5.441074928723896
 30
0.0
 11
68.7193644723612
 21
5.441074928723896
 31
0.0
  0
SOLID
  5
11F
330
1F
100
AcDbEntity
  8
참조1
100
AcDbTrace
 10
68.7193644723612
 20
5.441074928723896
 30
0.0
 11
75.0693644723612
 21
4.425074928723896
 31
0.0
 12
75.0693644723612
 22
6.457074928723896
 32
0.0
 13
75.0693644723612
 23
6.457074928723896
 33
0.0
  0
LINE
  5
120
330
1F
100
AcDbEntity
  8
참조1
100
AcDbLine
 10
81.41936447236121
 20
-5.438925071276109
 30
0.0
 11
68.7193644723612
 21
-5.438925071276109
 31
0.0
  0
SOLID
  5
121
330
1F
100
AcDbEntity
  8
참조1
100
AcDbTrace
 10
68.7193644723612
 20
-5.438925071276109
 30
0.0
 11
75.0693644723612
 21
-6.454925071276109
 31
0.0
 12
75.0693644723612
 22
-4.422925071276109
 32
0.0
 13
75.0693644723612
 23
-4.422925071276109
 33
0.0
  0
MTEXT
  5
122
330
1F
100
AcDbEntity
  8
참조1
100
AcDbMText
 10
78.1037146049872
 20
11.01136670591223
 30
0.0
 40
3.5
 41
0.0
 71
     1
 72
     1
  1
A
  7
SLDTEXTSTYLE0
 73
     1
 44
1.0
  0
MTEXT
  5
123
330
1F
100
AcDbEntity
  8
참조1
100
AcDbMText
 10
78.1037146049872
 20
0.1313667059122219
 30
0.0
 40
3.5
 41
0.0
 71
     1
 72
     1
  1
A
  7
SLDTEXTSTYLE0
 73
     1
 44
1.0
  0
INSERT
  5
12A
330
1F
100
AcDbEntity
  8
해칭선
100
AcDbBlockReference
  2
SW_DOWELSYMBOL_0
 10
0.0
 20
0.0
 30
0.0
  0
LINE
  5
303
330
1F
100
AcDbEntity
  8
0
  6
Continuous
 62
     1
370
    15
100
AcDbLine
 10
-45.12572724633429
 20
7.143750000000002
 30
0.0
 11
-49.48198162378623
 21
7.143750000000002
 31
0.0
  0
LINE
  5
304
330
1F
100
AcDbEntity
  8
0
  6
Continuous
 62
     1
370
    15
100
AcDbLine
 10
-30.04606677479819
 20
-7.143749999999999
 30
0.0
 11
-28.57500000000002
 21
-7.143749999999999
 31
0.0
  0
LINE
  5
305
330
1F
100
AcDbEntity
  8
0
  6
Continuous
 62
     1
370
    15
100
AcDbLine
 10
-49.4819816237862
 20
-7.143749999999992
 30
0.0
 11
-45.12572724633435
 21
-7.143749999999992
 31
0.0
  0
LINE
  5
306
330
1F
100
AcDbEntity
  8
0
  6
Continuous
 62
     1
370
    15
100
AcDbLine
 10
-28.57500000000002
 20
7.143750000000002
 30
0.0
 11
-30.04606677479813
 21
7.143750000000002
 31
0.0
  0
LINE
  5
307
330
1F
100
AcDbEntity
  8
외형선
  6
Continuous
370
    15
100
AcDbLine
 10
-24.61268467149216
 20
7.937500000000012
 30
0.0
 11
-27.57500000000002
 21
7.143750000000002
 31
0.0
  0
LINE
  5
308
330
1F
100
AcDbEntity
  8
외형선
  6
Continuous
370
    15
100
AcDbLine
 10
-27.57500000000002
 20
-7.143749999999999
 30
0.0
 11
-24.61268467149216
 21
-7.937500000000009
 31
0.0
  0
LINE
  5
30B
330
1F
100
AcDbEntity
  8
외형선
  6
Continuous
370
    15
100
AcDbLine
 10
-27.57500000000002
 20
7.143750000000002
 30
0.0
 11
-28.57500000000002
 21
7.143750000000002
 31
0.0
  0
LINE
  5
30C
330
1F
100
AcDbEntity
  8
외형선
  6
Continuous
370
    15
100
AcDbLine
 10
-28.57500000000002
 20
-7.143749999999999
 30
0.0
 11
-27.57500000000002
 21
-7.143749999999999
 31
0.0
  0
SPLINE
  5
30D
330
1F
100
AcDbEntity
  8
0
  6
Continuous
 62
     1
370
    15
100
AcDbSpline
210
0.0
220
0.0
230
1.0
 70
     8
 71
     3
 72
    19
 73
    15
 74
     0
 42
0.000000001
 43
0.00000001
 40
0.0
 40
0.0
 40
0.0
 40
0.0
 40
0.0859674615322438
 40
0.1719349016656697
 40
0.2579023193698728
 40
0.3438697136146166
 40
0.4298370833698354
 40
0.5158044276056426
 40
0.6017717452923401
 40
0.6877390354004251
 40
0.7778004370231759
 40
0.867859061959398
 40
0.957914255554642
 40
1.0
 40
1.0
 40
1.0
 40
1.0
 10
-28.57500000000002
 20
-0.8470923282748493
 30
0.0
 10
-29.38994253379599
 20
-0.3767197376229012
 30
0.0
 10
-31.0198273985344
 20
0.5640253265969599
 30
0.0
 10
-33.46465420989713
 20
1.962026929138281
 30
0.0
 10
-35.90948034003537
 20
3.281313294894266
 30
0.0
 10
-38.3543053828584
 20
4.473541060998533
 30
0.0
 10
-40.79913065276304
 20
5.491534529767696
 30
0.0
 10
-43.24395108735655
 20
6.295812261987235
 30
0.0
 10
-45.68878541094585
 20
6.855329425888455
 30
0.0
 10
-48.17237393787696
 20
7.151804024752186
 30
0.0
 10
-50.69496346864608
 20
7.162724286396921
 30
0.0
 10
-53.25622663291006
 20
6.854158690953879
 30
0.0
 10
-55.36268275615879
 20
6.402089358869551
 30
0.0
 10
-56.61536397765218
 20
5.967646249248771
 30
0.0
 10
-57.01433209866752
 20
5.829279881046295
 30
0.0
  0
SPLINE
  5
30E
330
1F
100
AcDbEntity
  8
외형선
  6
Continuous
370
    15
100
AcDbSpline
210
0.0
220
0.0
230
1.0
 70
    24
 71
     3
 72
    17
 73
    13
 74
     0
 42
0.000000001
 43
0.00000001
 40
0.0
 40
0.0
 40
0.0
 40
0.0
 40
0.0884940581094835
 40
0.1789154110684704
 40
0.2804018799748382
 40
0.3848314633546724
 40
0.4863179322610444
 40
0.5907475156408825
 40
0.6922339845472543
 40
0.7966635679270928
 40
0.8981500368334642
 40
1.0
 40
1.0
 40
1.0
 40
1.0
 10
-28.57500000000002
 20
-6.950435044633048
 30
0.0
 10
-28.57499999999999
 20
-6.768131616873527
 30
0.0
 10
-28.57499999999996
 20
-6.399554410521072
 30
0.0
 10
-28.57500000000005
 20
-5.772014147890802
 30
0.0
 10
-28.57499999999996
 20
-5.085836486594454
 30
0.0
 10
-28.57500000000005
 20
-4.363359683269318
 30
0.0
 10
-28.5749999999999
 20
-3.645691467184685
 30
0.0
 10
-28.57500000000007
 20
-2.965922616531496
 30
0.0
 10
-28.57499999999999
 20
-2.330393533124744
 30
0.0
 10
-28.57499999999996
 20
-1.771328724945898
 30
0.0
 10
-28.5750000000001
 20
-1.287994108316037
 30
0.0
 10
-28.57500000000007
 20
-1.052880633347821
 30
0.0
 10
-28.57500000000002
 20
-0.9351137456270655
 30
0.0
  0
SPLINE
  5
30F
330
1F
100
AcDbEntity
  8
0
  6
Continuous
 62
     1
370
    15
100
AcDbSpline
210
0.0
220
0.0
230
1.0
 70
     8
 71
     3
 72
    56
 73
    52
 74
     0
 42
0.000000001
 43
0.00000001
 40
0.0
 40
0.0
 40
0.0
 40
0.0
 40
0.0625
 40
0.0625
 40
0.09375
 40
0.09375
 40
0.125
 40
0.125
 40
0.15625
 40
0.15625
 40
0.1875
 40
0.1875
 40
0.21875
 40
0.21875
 40
0.2499999999999999
 40
0.2499999999999999
 40
0.3124999999999999
 40
0.3124999999999999
 40
0.3749999999999998
 40
0.3749999999999998
 40
0.4062499999999997
 40
0.4062499999999997
 40
0.4374999999999997
 40
0.4374999999999997
 40
0.4687499999999996
 40
0.4687499999999996
 40
0.4999999999999996
 40
0.4999999999999996
 40
0.5312499999999994
 40
0.5312499999999994
 40
0.5624999999999993
 40
0.5624999999999993
 40
0.6249999999999992
 40
0.6249999999999992
 40
0.6874999999999991
 40
0.6874999999999991
 40
0.718749999999999
 40
0.718749999999999
 40
0.7499999999999989
 40
0.7499999999999989
 40
0.7812499999999988
 40
0.7812499999999988
 40
0.8124999999999987
 40
0.8124999999999987
 40
0.8437499999999986
 40
0.8437499999999986
 40
0.8749999999999984
 40
0.8749999999999984
 40
0.9374999999999992
 40
0.9374999999999992
 40
1.0
 40
1.0
 40
1.0
 40
1.0
 10
-63.5
 20
7.143749999999995
 30
0.0
 10
-62.77588526865878
 20
7.081543368513413
 30
0.0
 10
-62.04232247870408
 20
7.008365250791647
 30
0.0
 10
-60.95327914480663
 20
6.845133588949116
 30
0.0
 10
-60.59096944050526
 20
6.781833571051221
 30
0.0
 10
-59.86208462232418
 20
6.637548352664735
 30
0.0
 10
-59.49692063202679
 20
6.556630375177162
 30
0.0
 10
-58.76940629495124
 20
6.378219288156343
 30
0.0
 10
-58.40797353734666
 20
6.280837190319415
 30
0.0
 10
-57.67995833046587
 20
6.069590978354652
 30
0.0
 10
-57.31474784429264
 20
5.955825419260718
 30
0.0
 10
-56.58617971152842
 20
5.713324207047
 30
0.0
 10
-56.22439314654304
 20
5.584792127422892
 30
0.0
 10
-55.49768019674121
 20
5.313243279103437
 30
0.0
 10
-55.13264192743117
 20
5.170185631448396
 30
0.0
 10
-54.03885965026944
 20
4.721594981988458
 30
0.0
 10
-53.31514163437379
 20
4.397224485007049
 30
0.0
 10
-51.85639511295787
 20
3.704630246232765
 30
0.0
 10
-51.13260085365903
 20
3.338187515207343
 30
0.0
 10
-50.03891636496215
 20
2.764112147859611
 30
0.0
 10
-49.67383838520723
 20
2.568818740368554
 30
0.0
 10
-48.94690293721766
 20
2.172659263589109
 30
0.0
 10
-48.58524772591684
 20
1.971841879968385
 30
0.0
 10
-47.85680984813769
 20
1.564670959401459
 30
0.0
 10
-47.4915923975623
 20
1.358600832713099
 30
0.0
 10
-46.76341934759222
 20
0.9438956657555175
 30
0.0
 10
-46.40193359485821
 20
0.7355465629403548
 30
0.0
 10
-45.67461431671455
 20
0.3166538611617662
 30
0.0
 10
-45.3094761219844
 20
0.1062407815880044
 30
0.0
 10
-44.5804984291247
 20
-0.3140669219027592
 30
0.0
 10
-44.2179514858143
 20
-0.5237118636615554
 30
0.0
 10
-43.12929736611895
 20
-1.149996051330662
 30
0.0
 10
-42.39570631957395
 20
-1.565176448272618
 30
0.0
 10
-40.9468491635846
 20
-2.371652723141383
 30
0.0
 10
-40.21394563446998
 20
-2.766193754044645
 30
0.0
 10
-39.12452751390936
 20
-3.331709440822169
 30
0.0
 10
-38.76242747483778
 20
-3.51597021998324
 30
0.0
 10
-38.03364527676655
 20
-3.875664548509543
 30
0.0
 10
-37.66846039577996
 20
-4.050834619598072
 30
0.0
 10
-36.94076068414924
 20
-4.389793295014195
 30
0.0
 10
-36.57935330893969
 20
-4.553433498995156
 30
0.0
 10
-35.85150565182221
 20
-4.86924887347808
 30
0.0
 10
-35.48630703701565
 20
-5.021217786859618
 30
0.0
 10
-34.75761838057679
 20
-5.311491221765367
 30
0.0
 10
-34.39567286489151
 20
-5.449613637550081
 30
0.0
 10
-33.66919206201774
 20
-5.711733405628921
 30
0.0
 10
-33.30419840239128
 20
-5.835760412336734
 30
0.0
 10
-32.21033297521234
 20
-6.1844896009113
 30
0.0
 10
-31.48666836654186
 20
-6.385488375543838
 30
0.0
 10
-30.02794137957619
 20
-6.720327803904292
 30
0.0
 10
-29.30404804409858
 20
-6.85330496778584
 30
0.0
 10
-28.57500000000002
 20
-6.950435044633048
 30
0.0
  0
LINE
  5
310
330
1F
100
AcDbEntity
  8
0
  6
Continuous
 62
     1
370
    15
100
AcDbLine
 10
-63.5
 20
6.469961138745736
 30
0.0
 11
-63.5
 21
-0.6120861387458112
 31
0.0
  0
SPLINE
  5
311
330
1F
100
AcDbEntity
  8
0
  6
Continuous
 62
     1
370
    15
100
AcDbSpline
210
0.0
220
0.0
230
1.0
 70
     8
 71
     3
 72
    21
 73
    17
 74
     0
 42
0.000000001
 43
0.00000001
 40
0.0
 40
0.0
 40
0.0
 40
0.0
 40
0.029107881603241
 40
0.1021892111892678
 40
0.1752705217081065
 40
0.2483518122839474
 40
0.3214330820411256
 40
0.3945143301041318
 40
0.4675955555976132
 40
0.5406767576463847
 40
0.617238383359057
 40
0.6937976485973075
 40
0.7703539968362799
 40
0.8469068731437234
 40
0.92345572448069
 40
1.0
 40
1.0
 40
1.0
 40
1.0
 10
-30.04606677479822
 20
-7.110361010900954
 30
0.0
 10
-30.37065370968904
 20
-7.118711329457009
 30
0.0
 10
-31.51018297158981
 20
-7.148026841937538
 30
0.0
 10
-33.46465420627078
 20
-6.906796703141781
 30
0.0
 10
-35.9094803409302
 20
-6.400864822855207
 30
0.0
 10
-38.35430538290575
 20
-5.628545523175633
 30
0.0
 10
-40.79913065167881
 20
-4.641835742841161
 30
0.0
 10
-43.24395109164604
 20
-3.473255084131852
 30
0.0
 10
-45.68878539487204
 20
-2.169842041611079
 30
0.0
 10
-48.17237399909033
 20
-0.759902565614363
 30
0.0
 10
-50.69496322804773
 20
0.704295863132115
 30
0.0
 10
-53.25622752940217
 20
2.160572728245076
 30
0.0
 10
-55.81739199237796
 20
3.526006249157857
 30
0.0
 10
-58.37841188550607
 20
4.735568560682834
 30
0.0
 10
-60.93927392493572
 20
5.762771934611179
 30
0.0
 10
-62.64644165022116
 20
6.234236101249357
 30
0.0
 10
-63.5
 20
6.469961138745736
 30
0.0
  0
SPLINE
  5
312
330
1F
100
AcDbEntity
  8
0
  6
Continuous
 62
     1
370
    15
100
AcDbSpline
210
0.0
220
0.0
230
1.0
 70
     8
 71
     3
 72
    18
 73
    14
 74
     0
 42
0.000000001
 43
0.00000001
 40
0.0
 40
0.0
 40
0.0
 40
0.0
 40
0.0943757104501968
 40
0.1887515090721982
 40
0.2831273947579948
 40
0.3775033663989389
 40
0.4718794228857583
 40
0.5662555631085606
 40
0.660631785956839
 40
0.7550080903194903
 40
0.8538647038477688
 40
0.9527265657972926
 40
1.0
 40
1.0
 40
1.0
 40
1.0
 10
-63.5
 20
-0.6120861387458112
 30
0.0
 10
-62.68509150463922
 20
-1.078542023400468
 30
0.0
 10
-61.05527375257805
 20
-2.011454228502588
 30
0.0
 10
-58.61054541901478
 20
-3.326170422245406
 30
0.0
 10
-56.16581438648785
 20
-4.51316241067155
 30
0.0
 10
-53.72108077349134
 20
-5.524094983326757
 30
0.0
 10
-51.27634415455714
 20
-6.320127467089366
 30
0.0
 10
-48.83160631977549
 20
-6.870439266264151
 30
0.0
 10
-46.38686074107525
 20
-7.152496554823474
 30
0.0
 10
-43.90344658631579
 20
-7.15975874836638
 30
0.0
 10
-41.38122376810216
 20
-6.859417310255077
 30
0.0
 10
-39.26572364819827
 20
-6.407484790150102
 30
0.0
 10
-38.00383221712303
 20
-5.970993306174657
 30
0.0
 10
-37.59562185926569
 20
-5.82979229593918
 30
0.0
  0
SPLINE
  5
313
330
1F
100
AcDbEntity
  8
0
  6
Continuous
 62
     1
370
    15
100
AcDbSpline
210
0.0
220
0.0
230
1.0
 70
     8
 71
     3
 72
    14
 73
    10
 74
     0
 42
0.000000001
 43
0.00000001
 40
0.0
 40
0.0
 40
0.0
 40
0.0
 40
0.0715166196255744
 40
0.2262470469556931
 40
0.3809856891177093
 40
0.5357314285273531
 40
0.6904831437304773
 40
0.8452397100105492
 40
1.0
 40
1.0
 40
1.0
 40
1.0
 10
-45.12572724633429
 20
7.108952284006397
 30
0.0
 10
-44.73119286949429
 20
7.115939132004355
 30
0.0
 10
-43.48306008371816
 20
7.138042437995898
 30
0.0
 10
-41.38122358161735
 20
6.85797965608281
 30
0.0
 10
-38.82021682097761
 20
6.283210937024604
 30
0.0
 10
-36.25906422443575
 20
5.424646409669199
 30
0.0
 10
-33.69779413850188
 20
4.337371448576937
 30
0.0
 10
-31.13642798932744
 20
3.068820043067509
 30
0.0
 10
-29.42881617770672
 20
2.123371349578397
 30
0.0
 10
-28.57500000000002
 20
1.650641315621511
 30
0.0
  0
LINE
  5
314
330
1F
100
AcDbEntity
  8
외형선
  6
Continuous
370
    15
100
AcDbLine
 10
-28.57500000000002
 20
1.650641315621518
 30
0.0
 11
-28.57499999999999
 21
-0.847092328274835
 31
0.0
  0
LINE
  5
315
330
1F
100
AcDbEntity
  8
0
  6
Continuous
 62
     1
370
    15
100
AcDbLine
 10
-63.5
 20
7.143749999999995
 30
0.0
 11
-63.5
 21
6.469961138745736
 31
0.0
  0
LINE
  5
316
330
1F
100
AcDbEntity
  8
외형선
  6
Continuous
370
    15
100
AcDbLine
 10
-28.57500000000002
 20
-6.950435044633048
 30
0.0
 11
-28.57500000000002
 21
-7.143749999999999
 31
0.0
  0
SPLINE
  5
317
330
1F
100
AcDbEntity
  8
0
  6
Continuous
 62
     1
370
    15
100
AcDbSpline
210
0.0
220
0.0
230
1.0
 70
     8
 71
     3
 72
    13
 73
     9
 74
     0
 42
0.000000001
 43
0.00000001
 40
0.0
 40
0.0
 40
0.0
 40
0.0
 40
0.0865291898963167
 40
0.2692399189706268
 40
0.4519436865483313
 40
0.6346391682688132
 40
0.817325044289865
 40
1.0
 40
1.0
 40
1.0
 40
1.0
 10
-49.4819816237862
 20
-7.105628727245731
 30
0.0
 10
-49.88631351352225
 20
-7.113630355360657
 30
0.0
 10
-51.14441248983559
 20
-7.138527822999928
 30
0.0
 10
-53.25622989403558
 20
-6.852241005248255
 30
0.0
 10
-55.81739135903496
 20
-6.27544340737086
 30
0.0
 10
-58.37841205438468
 20
-5.411570555546072
 30
0.0
 10
-60.93927388271987
 20
-4.33043054743238
 30
0.0
 10
-62.64644163614952
 20
-3.462573276754372
 30
0.0
 10
-63.5
 20
-3.02865761115706
 30
0.0
  0
LINE
  5
318
330
1F
100
AcDbEntity
  8
0
  6
Continuous
 62
     1
370
    15
100
AcDbLine
 10
-63.5
 20
-0.6120861387458112
 30
0.0
 11
-63.5
 21
-3.02865761115706
 31
0.0
  0
SPLINE
  5
319
330
1F
100
AcDbEntity
  8
0
  6
Continuous
 62
     1
370
    15
100
AcDbSpline
210
0.0
220
0.0
230
1.0
 70
     8
 71
     3
 72
    11
 73
     7
 74
     0
 42
0.000000001
 43
0.00000001
 40
0.0
 40
0.0
 40
0.0
 40
0.0
 40
0.2710264811957955
 40
0.5420528949283132
 40
0.8130792379490402
 40
1.0
 40
1.0
 40
1.0
 40
1.0
 10
-28.57500000000002
 20
7.093348902308263
 30
0.0
 10
-29.3899425330074
 20
7.122852370560016
 30
0.0
 10
-31.01982739616858
 20
7.181859299719582
 30
0.0
 10
-33.46465421936054
 20
6.908946210718758
 30
0.0
 10
-35.65658565234588
 20
6.469641255524612
 30
0.0
 10
-37.03357474245229
 20
6.015258282416182
 30
0.0
 10
-37.59562185926563
 20
5.829792295939177
 30
0.0
  0
SPLINE
  5
31A
330
1F
100
AcDbEntity
  8
외형선
  6
Continuous
370
    15
100
AcDbSpline
210
0.0
220
0.0
230
1.0
 70
    24
 71
     3
 72
    17
 73
    13
 74
     0
 42
0.000000001
 43
0.00000001
 40
0.0
 40
0.0
 40
0.0
 40
0.0
 40
0.015493568422839
 40
0.1359573283513502
 40
0.2530260863666171
 40
0.3734898462951282
 40
0.4905586043103956
 40
0.6110223642389062
 40
0.7280911222541747
 40
0.8485548821826878
 40
0.923839290603179
 40
0.9999999999999999
 40
0.9999999999999999
 40
0.9999999999999999
 40
0.9999999999999999
 10
-28.57500000000005
 20
1.738672732973752
 30
0.0
 10
-28.57500000000002
 20
1.753858423131659
 30
0.0
 10
-28.57499999999996
 20
1.88711409456222
 30
0.0
 10
-28.5749999999999
 20
2.233300060861983
 30
0.0
 10
-28.57500000000007
 20
2.773177368944791
 30
0.0
 10
-28.57499999999999
 20
3.390461243766713
 30
0.0
 10
-28.57500000000002
 20
4.065998728026548
 30
0.0
 10
-28.57500000000005
 20
4.771889486395919
 30
0.0
 10
-28.57500000000005
 20
5.500104431855908
 30
0.0
 10
-28.57500000000013
 20
6.132132027088366
 30
0.0
 10
-28.57499999999993
 20
6.666628739292795
 30
0.0
 10
-28.57500000000002
 20
6.950561212173211
 30
0.0
 10
-28.57500000000002
 20
7.09334890230827
 30
0.0
  0
SPLINE
  5
31B
330
1F
100
AcDbEntity
  8
0
  6
Continuous
 62
     1
370
    15
100
AcDbSpline
210
0.0
220
0.0
230
1.0
 70
     8
 71
     3
 72
    10
 73
     6
 74
     0
 42
0.000000001
 43
0.00000001
 40
0.0
 40
0.0
 40
0.0
 40
0.0
 40
0.376942824344788
 40
0.7538860008535904
 40
1.0
 40
1.0
 40
1.0
 40
1.0
 10
-63.50000000000006
 20
-7.143750000000006
 30
0.0
 10
-62.68509150163112
 20
-7.048608777016335
 30
0.0
 10
-61.05527374355381
 20
-6.910867240244679
 30
0.0
 10
-58.89338440994823
 20
-6.452144735243545
 30
0.0
 10
-57.54640344703017
 20
-6.005649927175833
 30
0.0
 10
-57.01433209866758
 20
-5.829279881046284
 30
0.0
  0
LINE
  5
31C
330
1F
100
AcDbEntity
  8
0
  6
Continuous
 62
     1
370
    15
100
AcDbLine
 10
-63.5
 20
-3.012439582069578
 30
0.0
 11
-63.5
 21
-7.143750000000006
 31
0.0
  0
LINE
  5
31D
330
1F
100
AcDbEntity
  8
외형선
  6
Continuous
370
    15
100
AcDbLine
 10
-27.57500000000002
 20
-0.000000000000002
 30
0.0
 11
-27.57500000000002
 21
-7.143750000000006
 31
0.0
  0
LINE
  5
31E
330
1F
100
AcDbEntity
  8
외형선
  6
Continuous
370
    15
100
AcDbLine
 10
-27.57500000000002
 20
7.143750000000017
 30
0.0
 11
-27.57500000000002
 21
-0.000000000000002
 31
0.0
  0
LINE
  5
31F
330
1F
100
AcDbEntity
  8
외형선
  6
Continuous
370
    15
100
AcDbLine
 10
-24.61268467149216
 20
-0.000000000000002
 30
0.0
 11
-24.61268467149216
 21
-7.937500000000009
 31
0.0
  0
LINE
  5
320
330
1F
100
AcDbEntity
  8
외형선
  6
Continuous
370
    15
100
AcDbLine
 10
-24.61268467149216
 20
7.937500000000012
 30
0.0
 11
-24.61268467149216
 21
-0.000000000000002
 31
0.0
  0
SPLINE
  5
321
330
1F
100
AcDbEntity
  8
외형선
  6
Continuous
370
    15
100
AcDbSpline
210
0.0
220
0.0
230
1.0
 70
     8
 71
     3
 72
     8
 73
     4
 74
     0
 42
0.000000001
 43
0.00000001
 40
0.0
 40
0.0
 40
0.0
 40
0.0
 40
1.0
 40
1.0
 40
1.0
 40
1.0
 10
-28.57500000000002
 20
-6.950435044633048
 30
0.0
 10
-28.40836795555907
 20
-6.972635204708604
 30
0.0
 10
-28.24161267564128
 20
-6.992954204811321
 30
0.0
 10
-28.07493771678583
 20
-7.01136675362868
 30
0.0
  0
LINE
  5
322
330
1F
100
AcDbEntity
  8
외형선
  6
Continuous
370
    15
100
AcDbLine
 10
-28.07493771678583
 20
-1.13250967659655
 30
0.0
 11
-28.07493771678583
 21
-7.011377051385731
 31
0.0
  0
SPLINE
  5
323
330
1F
100
AcDbEntity
  8
외형선
  6
Continuous
370
    15
100
AcDbSpline
210
0.0
220
0.0
230
1.0
 70
     8
 71
     3
 72
     8
 73
     4
 74
     0
 42
0.000000001
 43
0.00000001
 40
0.0
 40
0.0
 40
0.0
 40
0.0
 40
1.0
 40
1.0
 40
1.0
 40
1.0
 10
-28.57500000000002
 20
-0.8470923282748493
 30
0.0
 10
-28.40836795555907
 20
-0.9424937214259066
 30
0.0
 10
-28.24161267564125
 20
-1.037688687219083
 30
0.0
 10
-28.07493771678583
 20
-1.132560950843294
 30
0.0
  0
SPLINE
  5
324
330
1F
100
AcDbEntity
  8
외형선
  6
Continuous
370
    15
100
AcDbSpline
210
0.0
220
0.0
230
1.0
 70
     8
 71
     3
 72
     8
 73
     4
 74
     0
 42
0.000000001
 43
0.00000001
 40
0.0
 40
0.0
 40
0.0
 40
0.0
 40
1.0
 40
1.0
 40
1.0
 40
1.0
 10
-28.57500000000002
 20
1.650641315621511
 30
0.0
 10
-28.40836795555907
 20
1.557162030252064
 30
0.0
 10
-28.24161267564128
 20
1.463211659525482
 30
0.0
 10
-28.07493771678583
 20
1.368904784347817
 30
0.0
  0
LINE
  5
325
330
1F
100
AcDbEntity
  8
외형선
  6
Continuous
370
    15
100
AcDbLine
 10
-28.07493771678583
 20
7.053409522700006
 30
0.0
 11
-28.07493771678583
 21
1.368852039411669
 31
0.0
  0
SPLINE
  5
326
330
1F
100
AcDbEntity
  8
외형선
  6
Continuous
370
    15
100
AcDbSpline
210
0.0
220
0.0
230
1.0
 70
     8
 71
     3
 72
     8
 73
     4
 74
     0
 42
0.000000001
 43
0.00000001
 40
0.0
 40
0.0
 40
0.0
 40
0.0
 40
1.0
 40
1.0
 40
1.0
 40
1.0
 10
-28.57500000000002
 20
7.093348902308263
 30
0.0
 10
-28.40836795555907
 20
7.081956006039098
 30
0.0
 10
-28.24161267564125
 20
7.068634879492448
 30
0.0
 10
-28.07493771678583
 20
7.053401289812234
 30
0.0
  0
SPLINE
  5
327
330
1F
100
AcDbEntity
  8
외형선
  6
Continuous
370
    15
100
AcDbSpline
210
0.0
220
0.0
230
1.0
 70
    24
 71
     3
 72
    17
 73
    13
 74
     0
 42
0.000000001
 43
0.00000001
 40
0.0
 40
0.0
 40
0.0
 40
0.0
 40
0.073934791050113
 40
0.176580552494311
 40
0.2792263139385089
 40
0.3818720753827077
 40
0.4845178368269066
 40
0.5871635982710975
 40
0.6898093597152885
 40
0.7924551211594975
 40
0.8951008826037061
 40
1.0
 40
1.0
 40
1.0
 40
1.0
 10
-28.57500000000002
 20
-0.9351237456270687
 30
0.0
 10
-28.57500000000002
 20
-1.014012323338458
 30
0.0
 10
-28.57500000000005
 20
-1.202424144619281
 30
0.0
 10
-28.57500000000005
 20
-1.622586583522059
 30
0.0
 10
-28.57500000000002
 20
-2.158946777156752
 30
0.0
 10
-28.5750000000001
 20
-2.774273942749469
 30
0.0
 10
-28.5750000000001
 20
-3.443669604353526
 30
0.0
 10
-28.57500000000005
 20
-4.151232336796101
 30
0.0
 10
-28.57499999999999
 20
-4.875808358215403
 30
0.0
 10
-28.57500000000002
 20
-5.595730829676961
 30
0.0
 10
-28.57500000000002
 20
-6.301725216436468
 30
0.0
 10
-28.57499999999999
 20
-6.732638929989429
 30
0.0
 10
-28.57500000000002
 20
-6.950435044633155
 30
0.0
  0
SPLINE
  5
328
330
1F
100
AcDbEntity
  8
외형선
  6
Continuous
370
    15
100
AcDbSpline
210
0.0
220
0.0
230
1.0
 70
    24
 71
     3
 72
    16
 73
    12
 74
     0
 42
0.000000001
 43
0.00000001
 40
0.0
 40
0.0
 40
0.0
 40
0.0
 40
0.1179066150255893
 40
0.2358132300511787
 40
0.3543379826031733
 40
0.4728627351551682
 40
0.5913874877072127
 40
0.709912240259257
 40
0.828436992811275
 40
0.946961745363293
 40
0.9999999999999999
 40
0.9999999999999999
 40
0.9999999999999999
 40
0.9999999999999999
 10
-28.57499999999999
 20
7.093348902308263
 30
0.0
 10
-28.57499999999999
 20
6.869947475294415
 30
0.0
 10
-28.57500000000002
 20
6.423144621266713
 30
0.0
 10
-28.5750000000001
 20
5.708122718062063
 30
0.0
 10
-28.57499999999999
 20
4.984617079256486
 30
0.0
 10
-28.57499999999996
 20
4.268411461288897
 30
0.0
 10
-28.57499999999996
 20
3.583695214223636
 30
0.0
 10
-28.57500000000005
 20
2.945930410347179
 30
0.0
 10
-28.57500000000007
 20
2.383188402336363
 30
0.0
 10
-28.57499999999999
 20
1.973041646821135
 30
0.0
 10
-28.57500000000005
 20
1.794009922090501
 30
0.0
 10
-28.57500000000005
 20
1.738662732973749
 30
0.0
  0
LINE
  5
3A6
330
1F
100
AcDbEntity
  8
외형선
  6
Continuous
370
    15
100
AcDbLine
 10
-5.092699999999923
 20
6.286500000000006
 30
0.0
 11
5.092700000000036
 21
6.286500000000006
 31
0.0
  0
LINE
  5
3A7
330
1F
100
AcDbEntity
  8
외형선
  6
Continuous
370
    15
100
AcDbLine
 10
5.092700000000036
 20
6.286500000000006
 30
0.0
 11
6.743700000000104
 21
7.937500000000002
 31
0.0
  0
LINE
  5
3A8
330
1F
100
AcDbEntity
  8
외형선
  6
Continuous
370
    15
100
AcDbLine
 10
-5.092699999999923
 20
6.286500000000006
 30
0.0
 11
-6.743699999999876
 21
7.937500000000002
 31
0.0
  0
LINE
  5
3AC
330
1F
100
AcDbEntity
  8
외형선
  6
Continuous
370
    15
100
AcDbLine
 10
-6.743699999999876
 20
7.937500000000002
 30
0.0
 11
-24.6126846714922
 21
7.937500000000002
 31
0.0
  0
ENDSEC
  0
SECTION
  2
OBJECTS
  0
DICTIONARY
  5
C
330
0
100
AcDbDictionary
281
     1
  3
ACAD_GROUP
350
D
  3
ACAD_IMAGE_VARS
350
14E
  3
ACAD_LAYOUT
350
1A
  3
ACAD_MLINESTYLE
350
17
  3
ACAD_PLOTSETTINGS
350
19
  3
ACAD_PLOTSTYLENAME
350
E
  3
ACAD_SCALELIST
350
47
  3
APPDATA
350
14C
  3
DWGPROPS
350
3D0
  0
DICTIONARY
  5
1CD
330
2
100
AcDbDictionary
280
     1
281
     1
  3
ACAD_LAYERSTATES
360
1CE
  0
DICTIONARY
  5
D
102
{ACAD_REACTORS
330
C
102
}
330
C
100
AcDbDictionary
281
     1
  0
RASTERVARIABLES
  5
14E
102
{ACAD_REACTORS
330
C
102
}
330
C
100
AcDbRasterVariables
 90
        0
 70
     1
 71
     1
 72
     1
  0
DICTIONARY
  5
1A
102
{ACAD_REACTORS
330
C
102
}
330
C
100
AcDbDictionary
281
     1
  3
Layout1
350
1E
  3
Layout2
350
26
  3
Model
350
22
  0
DICTIONARY
  5
17
102
{ACAD_REACTORS
330
C
102
}
330
C
100
AcDbDictionary
281
     1
  3
Standard
350
18
  0
DICTIONARY
  5
19
102
{ACAD_REACTORS
330
C
102
}
330
C
100
AcDbDictionary
281
     1
  0
ACDBDICTIONARYWDFLT
  5
E
102
{ACAD_REACTORS
330
C
102
}
330
C
100
AcDbDictionary
281
     1
  3
Normal
350
F
100
AcDbDictionaryWithDefault
340
F
  0
DICTIONARY
  5
47
102
{ACAD_REACTORS
330
C
102
}
330
C
100
AcDbDictionary
281
     1
  3
A0
350
48
  3
A1
350
49
  3
A2
350
4A
  3
A3
350
4B
  3
A4
350
4C
  3
A5
350
4D
  3
A6
350
4E
  3
A7
350
4F
  3
A8
350
50
  3
A9
350
51
  3
B0
350
52
  3
B1
350
53
  3
B2
350
54
  3
B3
350
55
  3
B4
350
56
  3
B5
350
57
  3
B6
350
58
  3
B7
350
59
  3
B8
350
5A
  3
B9
350
5B
  3
C0
350
5C
  3
C1
350
5D
  3
C2
350
5E
  3
C3
350
5F
  3
C4
350
60
  3
C5
350
61
  3
C6
350
62
  3
C7
350
63
  3
C8
350
64
  3
C9
350
65
  3
D0
350
66
  3
D1
350
67
  3
D2
350
68
  0
DICTIONARY
  5
14C
102
{ACAD_REACTORS
330
C
102
}
330
C
100
AcDbDictionary
281
     1
  0
XRECORD
  5
3D0
102
{ACAD_REACTORS
330
C
102
}
330
C
100
AcDbXrecord
280
     1
  1
DWGPROPS COOKIE
  2

  3

  4

  6

  7

  8
12017012
  9

300
=
301
=
302
=
303
=
304
=
305
=
306
=
307
=
308
=
309
=
 40
0.0
 41
2458313.099412952
 42
2458319.014931724
  1

 90
        0
  0
DICTIONARY
  5
1CE
102
{ACAD_REACTORS
330
1CD
102
}
330
1CD
100
AcDbDictionary
281
     1
  0
LAYOUT
  5
1E
102
{ACAD_REACTORS
330
1A
102
}
330
1A
100
AcDbPlotSettings
  1

  2
none_device
  4

  6

 40
0.0
 41
0.0
 42
0.0
 43
0.0
 44
0.0
 45
0.0
 46
0.0
 47
0.0
 48
0.0
 49
0.0
140
0.0
141
0.0
142
1.0
143
1.0
 70
   688
 72
     1
 73
     0
 74
     5
  7

 75
    16
147
1.0
148
0.0
149
0.0
100
AcDbLayout
  1
Layout1
 70
     1
 71
     1
 10
0.0
 20
0.0
 11
420.0
 21
297.0
 12
0.0
 22
0.0
 32
0.0
 14
1.000000000000000E+20
 24
1.000000000000000E+20
 34
1.000000000000000E+20
 15
-1.000000000000000E+20
 25
-1.000000000000000E+20
 35
-1.000000000000000E+20
146
0.0
 13
0.0
 23
0.0
 33
0.0
 16
1.0
 26
0.0
 36
0.0
 17
0.0
 27
1.0
 37
0.0
 76
     0
330
1B
  0
LAYOUT
  5
26
102
{ACAD_REACTORS
330
1A
102
}
330
1A
100
AcDbPlotSettings
  1

  2
none_device
  4

  6

 40
0.0
 41
0.0
 42
0.0
 43
0.0
 44
0.0
 45
0.0
 46
0.0
 47
0.0
 48
0.0
 49
0.0
140
0.0
141
0.0
142
1.0
143
1.0
 70
   688
 72
     1
 73
     0
 74
     5
  7

 75
    16
147
1.0
148
0.0
149
0.0
100
AcDbLayout
  1
Layout2
 70
     1
 71
     2
 10
0.0
 20
0.0
 11
0.0
 21
0.0
 12
0.0
 22
0.0
 32
0.0
 14
0.0
 24
0.0
 34
0.0
 15
0.0
 25
0.0
 35
0.0
146
0.0
 13
0.0
 23
0.0
 33
0.0
 16
1.0
 26
0.0
 36
0.0
 17
0.0
 27
1.0
 37
0.0
 76
     0
330
23
  0
LAYOUT
  5
22
102
{ACAD_REACTORS
330
1A
102
}
330
1A
100
AcDbPlotSettings
  1

  2
none_device
  4
ANSI_A_(11.00_x_8.50_Inches)
  6

 40
6.35
 41
19.05
 42
6.35000508
 43
19.05000254
 44
279.4
 45
215.9
 46
47.34685472475666
 47
75.4623337067087
 48
0.0
 49
0.0
140
0.0
141
0.0
142
0.0331166003392172
143
1.0
 70
  1696
 72
     0
 73
     0
 74
     0
  7

 75
     0
147
0.0235690232323232
148
0.0
149
0.0
100
AcDbLayout
  1
Model
 70
     1
 71
     0
 10
0.0
 20
0.0
 11
420.0
 21
297.0
 12
0.0
 22
0.0
 32
0.0
 14
-79.76375000000007
 24
-49.97180738881174
 34
0.0
 15
85.52928572687773
 25
43.49775000000012
 35
0.0
146
0.0
 13
0.0
 23
0.0
 33
0.0
 16
1.0
 26
0.0
 36
0.0
 17
0.0
 27
1.0
 37
0.0
 76
     0
330
1F
331
29
  0
MLINESTYLE
  5
18
102
{ACAD_REACTORS
330
17
102
}
330
17
100
AcDbMlineStyle
  2
Standard
 70
     0
  3

 62
   256
 51
90.0
 52
90.0
 71
     2
 49
0.5
 62
   256
  6
BYLAYER
 49
-0.5
 62
   256
  6
BYLAYER
  0
ACDBPLACEHOLDER
  5
F
102
{ACAD_REACTORS
330
E
102
}
330
E
  0
SCALE
  5
48
102
{ACAD_REACTORS
330
47
102
}
330
47
100
AcDbScale
 70
     0
300
1:1
140
1.0
141
1.0
290
     1
  0
SCALE
  5
49
102
{ACAD_REACTORS
330
47
102
}
330
47
100
AcDbScale
 70
     0
300
1:2
140
1.0
141
2.0
290
     0
  0
SCALE
  5
4A
102
{ACAD_REACTORS
330
47
102
}
330
47
100
AcDbScale
 70
     0
300
1:4
140
1.0
141
4.0
290
     0
  0
SCALE
  5
4B
102
{ACAD_REACTORS
330
47
102
}
330
47
100
AcDbScale
 70
     0
300
1:5
140
1.0
141
5.0
290
     0
  0
SCALE
  5
4C
102
{ACAD_REACTORS
330
47
102
}
330
47
100
AcDbScale
 70
     0
300
1:8
140
1.0
141
8.0
290
     0
  0
SCALE
  5
4D
102
{ACAD_REACTORS
330
47
102
}
330
47
100
AcDbScale
 70
     0
300
1:10
140
1.0
141
10.0
290
     0
  0
SCALE
  5
4E
102
{ACAD_REACTORS
330
47
102
}
330
47
100
AcDbScale
 70
     0
300
1:16
140
1.0
141
16.0
290
     0
  0
SCALE
  5
4F
102
{ACAD_REACTORS
330
47
102
}
330
47
100
AcDbScale
 70
     0
300
1:20
140
1.0
141
20.0
290
     0
  0
SCALE
  5
50
102
{ACAD_REACTORS
330
47
102
}
330
47
100
AcDbScale
 70
     0
300
1:30
140
1.0
141
30.0
290
     0
  0
SCALE
  5
51
102
{ACAD_REACTORS
330
47
102
}
330
47
100
AcDbScale
 70
     0
300
1:40
140
1.0
141
40.0
290
     0
  0
SCALE
  5
52
102
{ACAD_REACTORS
330
47
102
}
330
47
100
AcDbScale
 70
     0
300
1:50
140
1.0
141
50.0
290
     0
  0
SCALE
  5
53
102
{ACAD_REACTORS
330
47
102
}
330
47
100
AcDbScale
 70
     0
300
1:100
140
1.0
141
100.0
290
     0
  0
SCALE
  5
54
102
{ACAD_REACTORS
330
47
102
}
330
47
100
AcDbScale
 70
     0
300
2:1
140
2.0
141
1.0
290
     0
  0
SCALE
  5
55
102
{ACAD_REACTORS
330
47
102
}
330
47
100
AcDbScale
 70
     0
300
4:1
140
4.0
141
1.0
290
     0
  0
SCALE
  5
56
102
{ACAD_REACTORS
330
47
102
}
330
47
100
AcDbScale
 70
     0
300
8:1
140
8.0
141
1.0
290
     0
  0
SCALE
  5
57
102
{ACAD_REACTORS
330
47
102
}
330
47
100
AcDbScale
 70
     0
300
10:1
140
10.0
141
1.0
290
     0
  0
SCALE
  5
58
102
{ACAD_REACTORS
330
47
102
}
330
47
100
AcDbScale
 70
     0
300
100:1
140
100.0
141
1.0
290
     0
  0
SCALE
  5
59
102
{ACAD_REACTORS
330
47
102
}
330
47
100
AcDbScale
 70
     0
300
1/128" = 1'-0"
140
0.0078125
141
12.0
290
     0
  0
SCALE
  5
5A
102
{ACAD_REACTORS
330
47
102
}
330
47
100
AcDbScale
 70
     0
300
1/64" = 1'-0"
140
0.015625
141
12.0
290
     0
  0
SCALE
  5
5B
102
{ACAD_REACTORS
330
47
102
}
330
47
100
AcDbScale
 70
     0
300
1/32" = 1'-0"
140
0.03125
141
12.0
290
     0
  0
SCALE
  5
5C
102
{ACAD_REACTORS
330
47
102
}
330
47
100
AcDbScale
 70
     0
300
1/16" = 1'-0"
140
0.0625
141
12.0
290
     0
  0
SCALE
  5
5D
102
{ACAD_REACTORS
330
47
102
}
330
47
100
AcDbScale
 70
     0
300
3/32" = 1'-0"
140
0.09375
141
12.0
290
     0
  0
SCALE
  5
5E
102
{ACAD_REACTORS
330
47
102
}
330
47
100
AcDbScale
 70
     0
300
1/8" = 1'-0"
140
0.125
141
12.0
290
     0
  0
SCALE
  5
5F
102
{ACAD_REACTORS
330
47
102
}
330
47
100
AcDbScale
 70
     0
300
3/16" = 1'-0"
140
0.1875
141
12.0
290
     0
  0
SCALE
  5
60
102
{ACAD_REACTORS
330
47
102
}
330
47
100
AcDbScale
 70
     0
300
1/4" = 1'-0"
140
0.25
141
12.0
290
     0
  0
SCALE
  5
61
102
{ACAD_REACTORS
330
47
102
}
330
47
100
AcDbScale
 70
     0
300
3/8" = 1'-0"
140
0.375
141
12.0
290
     0
  0
SCALE
  5
62
102
{ACAD_REACTORS
330
47
102
}
330
47
100
AcDbScale
 70
     0
300
1/2" = 1'-0"
140
0.5
141
12.0
290
     0
  0
SCALE
  5
63
102
{ACAD_REACTORS
330
47
102
}
330
47
100
AcDbScale
 70
     0
300
3/4" = 1'-0"
140
0.75
141
12.0
290
     0
  0
SCALE
  5
64
102
{ACAD_REACTORS
330
47
102
}
330
47
100
AcDbScale
 70
     0
300
1" = 1'-0"
140
1.0
141
12.0
290
     0
  0
SCALE
  5
65
102
{ACAD_REACTORS
330
47
102
}
330
47
100
AcDbScale
 70
     0
300
1-1/2" = 1'-0"
140
1.5
141
12.0
290
     0
  0
SCALE
  5
66
102
{ACAD_REACTORS
330
47
102
}
330
47
100
AcDbScale
 70
     0
300
3" = 1'-0"
140
3.0
141
12.0
290
     0
  0
SCALE
  5
67
102
{ACAD_REACTORS
330
47
102
}
330
47
100
AcDbScale
 70
     0
300
6" = 1'-0"
140
6.0
141
12.0
290
     0
  0
SCALE
  5
68
102
{ACAD_REACTORS
330
47
102
}
330
47
100
AcDbScale
 70
     0
300
1'-0" = 1'-0"
140
12.0
141
12.0
290
     0
  0
ENDSEC
  0
EOF
