  0
SECTION
  2
HEADER
  9
$ACADVER
  1
AC1015
  9
$ACADMAINTVER
 70
     6
  9
$DWGCODEPAGE
  3
ANSI_949
  9
$INSBASE
 10
0.0
 20
0.0
 30
0.0
  9
$EXTMIN
 10
-87.38375000000008
 20
-49.97180738881174
 30
0.0
  9
$EXTMAX
 10
92.45905620488037
 20
46.15656390547218
 30
0.0
  9
$LIMMIN
 10
0.0
 20
0.0
  9
$LIMMAX
 10
420.0
 20
297.0
  9
$ORTHOMODE
 70
     1
  9
$REGENMODE
 70
     1
  9
$FILLMODE
 70
     1
  9
$QTEXTMODE
 70
     0
  9
$MIRRTEXT
 70
     1
  9
$LTSCALE
 40
1.0
  9
$ATTMODE
 70
     1
  9
$TEXTSIZE
 40
3.5
  9
$TRACEWID
 40
1.0
  9
$TEXTSTYLE
  7
Standard
  9
$CLAYER
  8
0
  9
$CELTYPE
  6
ByLayer
  9
$CECOLOR
 62
   256
  9
$CELTSCALE
 40
1.0
  9
$DISPSILH
 70
     0
  9
$DIMSCALE
 40
1.0
  9
$DIMASZ
 40
3.302
  9
$DIMEXO
 40
1.0
  9
$DIMDLI
 40
3.75
  9
$DIMRND
 40
0.0
  9
$DIMDLE
 40
0.0
  9
$DIMEXE
 40
1.0
  9
$DIMTP
 40
0.0
  9
$DIMTM
 40
0.0
  9
$DIMTXT
 40
3.5
  9
$DIMCEN
 40
2.5
  9
$DIMTSZ
 40
0.0
  9
$DIMTOL
 70
     0
  9
$DIMLIM
 70
     0
  9
$DIMTIH
 70
     1
  9
$DIMTOH
 70
     1
  9
$DIMSE1
 70
     0
  9
$DIMSE2
 70
     0
  9
$DIMTAD
 70
     1
  9
$DIMZIN
 70
     0
  9
$DIMBLK
  1

  9
$DIMASO
 70
     1
  9
$DIMSHO
 70
     1
  9
$DIMPOST
  1

  9
$DIMAPOST
  1

  9
$DIMALT
 70
     0
  9
$DIMALTD
 70
     3
  9
$DIMALTF
 40
0.0393700787401575
  9
$DIMLFAC
 40
1.0
  9
$DIMTOFL
 70
     1
  9
$DIMTVP
 40
0.0
  9
$DIMTIX
 70
     0
  9
$DIMSOXD
 70
     0
  9
$DIMSAH
 70
     0
  9
$DIMBLK1
  1

  9
$DIMBLK2
  1

  9
$DIMSTYLE
  2
ISO-25
  9
$DIMCLRD
 70
     0
  9
$DIMCLRE
 70
     0
  9
$DIMCLRT
 70
     0
  9
$DIMTFAC
 40
1.0
  9
$DIMGAP
 40
1.524
  9
$DIMJUST
 70
     0
  9
$DIMSD1
 70
     0
  9
$DIMSD2
 70
     0
  9
$DIMTOLJ
 70
     0
  9
$DIMTZIN
 70
     0
  9
$DIMALTZ
 70
     0
  9
$DIMALTTZ
 70
     0
  9
$DIMUPT
 70
     0
  9
$DIMDEC
 70
     2
  9
$DIMTDEC
 70
     2
  9
$DIMALTU
 70
     2
  9
$DIMALTTD
 70
     3
  9
$DIMTXSTY
  7
Standard
  9
$DIMAUNIT
 70
     0
  9
$DIMADEC
 70
     2
  9
$DIMALTRND
 40
0.0
  9
$DIMAZIN
 70
     0
  9
$DIMDSEP
 70
    44
  9
$DIMATFIT
 70
     3
  9
$DIMFRAC
 70
     0
  9
$DIMLDRBLK
  1

  9
$DIMLUNIT
 70
     2
  9
$DIMLWD
 70
    -2
  9
$DIMLWE
 70
    -2
  9
$DIMTMOVE
 70
     0
  9
$LUNITS
 70
     2
  9
$LUPREC
 70
     2
  9
$SKETCHINC
 40
1.0
  9
$FILLETRAD
 40
10.0
  9
$AUNITS
 70
     0
  9
$AUPREC
 70
     2
  9
$MENU
  1
.
  9
$ELEVATION
 40
0.0
  9
$PELEVATION
 40
0.0
  9
$THICKNESS
 40
0.0
  9
$LIMCHECK
 70
     0
  9
$CHAMFERA
 40
0.0
  9
$CHAMFERB
 40
0.0
  9
$CHAMFERC
 40
0.0
  9
$CHAMFERD
 40
0.0
  9
$SKPOLY
 70
     0
  9
$TDCREATE
 40
2458313.475048519
  9
$TDUCREATE
 40
2458313.100048519
  9
$TDUPDATE
 40
2458319.389669491
  9
$TDUUPDATE
 40
2458319.014669491
  9
$TDINDWG
 40
0.0023360417
  9
$TDUSRTIMER
 40
2458319.014571042
  9
$USRTIMER
 70
     1
  9
$ANGBASE
 50
0.0
  9
$ANGDIR
 70
     0
  9
$PDMODE
 70
     0
  9
$PDSIZE
 40
-1.0
  9
$PLINEWID
 40
0.0
  9
$SPLFRAME
 70
     0
  9
$SPLINETYPE
 70
     6
  9
$SPLINESEGS
 70
     8
  9
$HANDSEED
  5
3CC
  9
$SURFTAB1
 70
     6
  9
$SURFTAB2
 70
     6
  9
$SURFTYPE
 70
     6
  9
$SURFU
 70
     6
  9
$SURFV
 70
     6
  9
$UCSBASE
  2

  9
$UCSNAME
  2

  9
$UCSORG
 10
0.0
 20
0.0
 30
0.0
  9
$UCSXDIR
 10
1.0
 20
0.0
 30
0.0
  9
$UCSYDIR
 10
0.0
 20
1.0
 30
0.0
  9
$UCSORTHOREF
  2

  9
$UCSORTHOVIEW
 70
     0
  9
$UCSORGTOP
 10
0.0
 20
0.0
 30
0.0
  9
$UCSORGBOTTOM
 10
0.0
 20
0.0
 30
0.0
  9
$UCSORGLEFT
 10
0.0
 20
0.0
 30
0.0
  9
$UCSORGRIGHT
 10
0.0
 20
0.0
 30
0.0
  9
$UCSORGFRONT
 10
0.0
 20
0.0
 30
0.0
  9
$UCSORGBACK
 10
0.0
 20
0.0
 30
0.0
  9
$PUCSBASE
  2

  9
$PUCSNAME
  2

  9
$PUCSORG
 10
0.0
 20
0.0
 30
0.0
  9
$PUCSXDIR
 10
1.0
 20
0.0
 30
0.0
  9
$PUCSYDIR
 10
0.0
 20
1.0
 30
0.0
  9
$PUCSORTHOREF
  2

  9
$PUCSORTHOVIEW
 70
     0
  9
$PUCSORGTOP
 10
0.0
 20
0.0
 30
0.0
  9
$PUCSORGBOTTOM
 10
0.0
 20
0.0
 30
0.0
  9
$PUCSORGLEFT
 10
0.0
 20
0.0
 30
0.0
  9
$PUCSORGRIGHT
 10
0.0
 20
0.0
 30
0.0
  9
$PUCSORGFRONT
 10
0.0
 20
0.0
 30
0.0
  9
$PUCSORGBACK
 10
0.0
 20
0.0
 30
0.0
  9
$USERI1
 70
     0
  9
$USERI2
 70
     0
  9
$USERI3
 70
     0
  9
$USERI4
 70
     0
  9
$USERI5
 70
     0
  9
$USERR1
 40
0.0
  9
$USERR2
 40
0.0
  9
$USERR3
 40
0.0
  9
$USERR4
 40
0.0
  9
$USERR5
 40
0.0
  9
$WORLDVIEW
 70
     1
  9
$SHADEDGE
 70
     3
  9
$SHADEDIF
 70
    70
  9
$TILEMODE
 70
     1
  9
$MAXACTVP
 70
    64
  9
$PINSBASE
 10
0.0
 20
0.0
 30
0.0
  9
$PLIMCHECK
 70
     0
  9
$PEXTMIN
 10
1.000000000000000E+20
 20
1.000000000000000E+20
 30
1.000000000000000E+20
  9
$PEXTMAX
 10
-1.000000000000000E+20
 20
-1.000000000000000E+20
 30
-1.000000000000000E+20
  9
$PLIMMIN
 10
0.0
 20
0.0
  9
$PLIMMAX
 10
0.0
 20
0.0
  9
$UNITMODE
 70
     0
  9
$VISRETAIN
 70
     1
  9
$PLINEGEN
 70
     0
  9
$PSLTSCALE
 70
     1
  9
$TREEDEPTH
 70
  3020
  9
$CMLSTYLE
  2
Standard
  9
$CMLJUST
 70
     0
  9
$CMLSCALE
 40
20.0
  9
$PROXYGRAPHICS
 70
     1
  9
$MEASUREMENT
 70
     1
  9
$CELWEIGHT
370
    -1
  9
$ENDCAPS
280
     0
  9
$JOINSTYLE
280
     0
  9
$LWDISPLAY
290
     1
  9
$INSUNITS
 70
     4
  9
$HYPERLINKBASE
  1

  9
$STYLESHEET
  1

  9
$XEDIT
290
     1
  9
$CEPSNTYPE
380
     0
  9
$PSTYLEMODE
290
     1
  9
$FINGERPRINTGUID
  2
{45396C83-D2D2-43A3-A76C-3AE40E2B8D4A}
  9
$VERSIONGUID
  2
{FAEB1C32-E019-11D5-929B-00C0DF256EC4}
  9
$EXTNAMES
290
     1
  9
$PSVPSCALE
 40
0.0
  9
$OLESTARTUP
290
     0
  0
ENDSEC
  0
SECTION
  2
CLASSES
  0
CLASS
  1
ACDBDICTIONARYWDFLT
  2
AcDbDictionaryWithDefault
  3
ObjectDBX Classes
 90
        0
280
     0
281
     0
  0
CLASS
  1
VISUALSTYLE
  2
AcDbVisualStyle
  3
ObjectDBX Classes
 90
     4095
280
     0
281
     0
  0
CLASS
  1
MATERIAL
  2
AcDbMaterial
  3
ObjectDBX Classes
 90
     1153
280
     0
281
     0
  0
CLASS
  1
SCALE
  2
AcDbScale
  3
ObjectDBX Classes
 90
     1153
280
     0
281
     0
  0
CLASS
  1
SUN
  2
AcDbSun
  3
SCENEOE
 90
     1153
280
     0
281
     0
  0
CLASS
  1
ACDBPLACEHOLDER
  2
AcDbPlaceHolder
  3
ObjectDBX Classes
 90
        0
280
     0
281
     0
  0
CLASS
  1
LAYOUT
  2
AcDbLayout
  3
ObjectDBX Classes
 90
        0
280
     0
281
     0
  0
CLASS
  1
TABLESTYLE
  2
AcDbTableStyle
  3
ObjectDBX Classes
 90
     4095
280
     0
281
     0
  0
CLASS
  1
MLEADERSTYLE
  2
AcDbMLeaderStyle
  3
ACDB_MLEADERSTYLE_CLASS
 90
     4095
280
     0
281
     0
  0
CLASS
  1
RASTERVARIABLES
  2
AcDbRasterVariables
  3
ISM
 90
        0
280
     0
281
     0
  0
ENDSEC
  0
SECTION
  2
TABLES
  0
TABLE
  2
VPORT
  5
8
330
0
100
AcDbSymbolTable
 70
     1
  0
VPORT
  5
29
330
8
100
AcDbSymbolTableRecord
100
AcDbViewportTableRecord
  2
*Active
 70
     0
 10
0.0
 20
0.0
 11
1.0
 21
1.0
 12
0.9551456723084613
 22
1.199904010468579
 13
0.0
 23
0.0
 14
10.0
 24
10.0
 15
10.0
 25
10.0
 16
0.0
 26
0.0
 36
1.0
 17
0.0
 27
0.0
 37
0.0
 40
150.200861680806
 41
1.632093933463796
 42
50.0
 43
0.0
 44
0.0
 50
0.0
 51
0.0
 71
    16
 72
  2000
 73
     1
 74
     3
 75
     0
 76
     0
 77
     0
 78
     0
281
     0
 65
     1
110
0.0
120
0.0
130
0.0
111
1.0
121
0.0
131
0.0
112
0.0
122
1.0
132
0.0
 79
     0
146
0.0
  0
ENDTAB
  0
TABLE
  2
LTYPE
  5
5
330
0
100
AcDbSymbolTable
 70
     6
  0
LTYPE
  5
14
330
5
100
AcDbSymbolTableRecord
100
AcDbLinetypeTableRecord
  2
ByBlock
 70
     0
  3

 72
    65
 73
     0
 40
0.0
  0
LTYPE
  5
15
330
5
100
AcDbSymbolTableRecord
100
AcDbLinetypeTableRecord
  2
ByLayer
 70
     0
  3

 72
    65
 73
     0
 40
0.0
  0
LTYPE
  5
16
330
5
100
AcDbSymbolTableRecord
100
AcDbLinetypeTableRecord
  2
Continuous
 70
     0
  3
Solid line
 72
    65
 73
     0
 40
0.0
  0
LTYPE
  5
6A
330
5
100
AcDbSymbolTableRecord
100
AcDbLinetypeTableRecord
  2
HIDDEN
 70
     0
  3
Hidden __ __ __ __ __ __ __ __ __ __ __ __ __ __
 72
    65
 73
     2
 40
1.905
 49
1.27
 74
     0
 49
-0.635
 74
     0
  0
LTYPE
  5
6B
330
5
100
AcDbSymbolTableRecord
100
AcDbLinetypeTableRecord
  2
PHANTOM
 70
     0
  3
Phantom ______  __  __  ______  __  __  ______
 72
    65
 73
     6
 40
12.7
 49
6.35
 74
     0
 49
-1.27
 74
     0
 49
1.27
 74
     0
 49
-1.27
 74
     0
 49
1.27
 74
     0
 49
-1.27
 74
     0
  0
LTYPE
  5
6C
330
5
100
AcDbSymbolTableRecord
100
AcDbLinetypeTableRecord
  2
CENTER
 70
     0
  3
Center ____ _ ____ _ ____ _ ____ _ ____ _ ____
 72
    65
 73
     4
 40
10.16
 49
6.35
 74
     0
 49
-1.27
 74
     0
 49
1.27
 74
     0
 49
-1.27
 74
     0
  0
LTYPE
  5
6D
330
5
100
AcDbSymbolTableRecord
100
AcDbLinetypeTableRecord
  2
CENTERX2
 70
     0
  3
Center (2x) ________  __  ________  __  _____
 72
    65
 73
     4
 40
20.32
 49
12.7
 74
     0
 49
-2.54
 74
     0
 49
2.54
 74
     0
 49
-2.54
 74
     0
  0
LTYPE
  5
6E
330
5
100
AcDbSymbolTableRecord
100
AcDbLinetypeTableRecord
  2
DOT2
 70
     0
  3
Dot (.5x) ........................................
 72
    65
 73
     2
 40
0.635
 49
0.0
 74
     0
 49
-0.635
 74
     0
  0
ENDTAB
  0
TABLE
  2
LAYER
  5
2
102
{ACAD_XDICTIONARY
360
1CF
102
}
330
0
100
AcDbSymbolTable
 70
    18
  0
LAYER
  5
10
330
2
100
AcDbSymbolTableRecord
100
AcDbLayerTableRecord
  2
0
 70
     0
 62
     7
  6
Continuous
370
    -3
390
F
  0
LAYER
  5
6F
330
2
100
AcDbSymbolTableRecord
100
AcDbLayerTableRecord
  2
FORMAT
 70
     0
 62
     2
  6
Continuous
370
    -3
390
F
  0
LAYER
  5
70
330
2
100
AcDbSymbolTableRecord
100
AcDbLayerTableRecord
  2
외형선
 70
     0
 62
     4
  6
Continuous
370
    30
390
F
  0
LAYER
  5
71
330
2
100
AcDbSymbolTableRecord
100
AcDbLayerTableRecord
  2
숨은선
 70
     0
 62
     2
  6
HIDDEN
370
    15
390
F
  0
LAYER
  5
72
330
2
100
AcDbSymbolTableRecord
100
AcDbLayerTableRecord
  2
중심선
 70
     0
 62
     1
  6
CENTERX2
370
    -3
390
F
  0
LAYER
  5
73
330
2
100
AcDbSymbolTableRecord
100
AcDbLayerTableRecord
  2
파단선
 70
     0
 62
     4
  6
Continuous
370
    -3
390
F
  0
LAYER
  5
74
330
2
100
AcDbSymbolTableRecord
100
AcDbLayerTableRecord
  2
해칭선
 70
     0
 62
   100
  6
Continuous
370
    -3
390
F
  0
LAYER
  5
75
330
2
100
AcDbSymbolTableRecord
100
AcDbLayerTableRecord
  2
가는실선
 70
     0
 62
     4
  6
Continuous
370
    -3
390
F
  0
LAYER
  5
76
330
2
100
AcDbSymbolTableRecord
100
AcDbLayerTableRecord
  2
치수_보조선
 70
     0
 62
     4
  6
Continuous
370
    -3
390
F
  0
LAYER
  5
77
330
2
100
AcDbSymbolTableRecord
100
AcDbLayerTableRecord
  2
치수문자_일반주서
 70
     0
 62
     7
  6
Continuous
370
    15
390
F
  0
LAYER
  5
78
330
2
100
AcDbSymbolTableRecord
100
AcDbLayerTableRecord
  2
개별주서
 70
     0
 62
   100
  6
Continuous
370
    30
390
F
  0
LAYER
  5
79
330
2
100
AcDbSymbolTableRecord
100
AcDbLayerTableRecord
  2
중간선
 70
     0
 62
     2
  6
Continuous
370
    15
390
F
  0
LAYER
  5
7A
330
2
100
AcDbSymbolTableRecord
100
AcDbLayerTableRecord
  2
윤곽선
 70
     0
 62
     3
  6
Continuous
370
    40
390
F
  0
LAYER
  5
7B
330
2
100
AcDbSymbolTableRecord
100
AcDbLayerTableRecord
  2
중심마크
 70
     0
 62
   100
  6
Continuous
370
    30
390
F
  0
LAYER
  5
7C
330
2
100
AcDbSymbolTableRecord
100
AcDbLayerTableRecord
  2
가상선
 70
     0
 62
     4
  6
PHANTOM
370
    -3
390
F
  0
LAYER
  5
7D
330
2
100
AcDbSymbolTableRecord
100
AcDbLayerTableRecord
  2
특수지정선
 70
     0
 62
     5
  6
CENTERX2
370
    60
390
F
  0
LAYER
  5
7E
330
2
100
AcDbSymbolTableRecord
100
AcDbLayerTableRecord
  2
참조1
 70
     0
 62
    -4
  6
Continuous
370
    -3
390
F
  0
LAYER
  5
149
330
2
100
AcDbSymbolTableRecord
100
AcDbLayerTableRecord
  2
Defpoints
 70
     0
 62
     7
  6
Continuous
290
     0
370
    -3
390
F
  0
ENDTAB
  0
TABLE
  2
STYLE
  5
3
330
0
100
AcDbSymbolTable
 70
     2
  0
STYLE
  5
11
330
3
100
AcDbSymbolTableRecord
100
AcDbTextStyleTableRecord
  2
Standard
 70
     0
 40
0.0
 41
1.0
 50
0.0
 71
     0
 42
3.5
  3
txt
  4

  0
STYLE
  5
94
330
3
100
AcDbSymbolTableRecord
100
AcDbTextStyleTableRecord
  2
SLDTEXTSTYLE0
 70
     0
 40
0.0
 41
0.75
 50
0.0
 71
     0
 42
3.5
  3
TXT
  4

  0
ENDTAB
  0
TABLE
  2
VIEW
  5
6
330
0
100
AcDbSymbolTable
 70
     0
  0
ENDTAB
  0
TABLE
  2
UCS
  5
7
330
0
100
AcDbSymbolTable
 70
     0
  0
ENDTAB
  0
TABLE
  2
APPID
  5
9
330
0
100
AcDbSymbolTable
 70
     1
  0
APPID
  5
12
330
9
100
AcDbSymbolTableRecord
100
AcDbRegAppTableRecord
  2
ACAD
 70
     0
  0
ENDTAB
  0
TABLE
  2
DIMSTYLE
  5
A
330
0
100
AcDbSymbolTable
 70
     3
100
AcDbDimStyleTable
  0
DIMSTYLE
105
27
330
A
100
AcDbSymbolTableRecord
100
AcDbDimStyleTableRecord
  2
ISO-25
 70
     0
 41
2.5
 42
0.625
 43
3.75
 44
1.25
 73
     0
 74
     0
 77
     1
 78
     8
140
2.5
141
2.5
143
0.03937007874016
147
0.625
171
     3
172
     1
178
     0
271
     2
272
     2
274
     3
278
    44
283
     0
284
     8
340
11
  0
DIMSTYLE
105
C7
330
A
100
AcDbSymbolTableRecord
100
AcDbDimStyleTableRecord
  2
SLDDIMSTYLE0
 70
     0
 41
3.302
 44
0.0
 45
0.000000001
 73
     0
 74
     0
 77
     1
 78
    12
 79
     3
140
3.5
143
0.0393700787401575
147
0.875
148
0.000000001
170
     1
173
     1
178
     0
271
     2
272
     2
276
     2
284
    12
340
94
  0
DIMSTYLE
105
102
102
{ACAD_REACTORS
330
101
330
C6
330
DA
330
EE
102
}
330
A
100
AcDbSymbolTableRecord
100
AcDbDimStyleTableRecord
  2
SLDDIMSTYLE1
 70
     0
 41
3.302
 44
0.0
 45
0.000000001
 73
     0
 74
     0
 77
     1
 78
    12
 79
     3
140
3.5
143
0.0393700787401575
147
0.875
148
0.000000001
170
     1
172
     1
173
     1
178
     0
271
     2
272
     2
276
     2
284
    12
289
     0
340
94
  0
ENDTAB
  0
TABLE
  2
BLOCK_RECORD
  5
1
330
0
100
AcDbSymbolTable
 70
    19
  0
BLOCK_RECORD
  5
1F
330
1
100
AcDbSymbolTableRecord
100
AcDbBlockTableRecord
  2
*Model_Space
340
22
  0
BLOCK_RECORD
  5
1B
330
1
100
AcDbSymbolTableRecord
100
AcDbBlockTableRecord
  2
*Paper_Space
340
1E
  0
BLOCK_RECORD
  5
23
330
1
100
AcDbSymbolTableRecord
100
AcDbBlockTableRecord
  2
*Paper_Space0
340
26
  0
BLOCK_RECORD
  5
7F
330
1
100
AcDbSymbolTableRecord
100
AcDbBlockTableRecord
  2
블럭10
340
0
102
{BLKREFS
331
BF
102
}
  0
BLOCK_RECORD
  5
C8
330
1
100
AcDbSymbolTableRecord
100
AcDbBlockTableRecord
  2
_D
340
0
  0
BLOCK_RECORD
  5
DB
330
1
100
AcDbSymbolTableRecord
100
AcDbBlockTableRecord
  2
_D_1
340
0
  0
BLOCK_RECORD
  5
EF
330
1
100
AcDbSymbolTableRecord
100
AcDbBlockTableRecord
  2
_D_2
340
0
  0
BLOCK_RECORD
  5
103
330
1
100
AcDbSymbolTableRecord
100
AcDbBlockTableRecord
  2
_D_3
340
0
  0
BLOCK_RECORD
  5
11D
330
1
100
AcDbSymbolTableRecord
100
AcDbBlockTableRecord
  2
SW_DOWELSYMBOL_0
340
0
102
{BLKREFS
331
123
102
}
  0
BLOCK_RECORD
  5
1D3
330
1
100
AcDbSymbolTableRecord
100
AcDbBlockTableRecord
  2
*D7
340
0
  0
BLOCK_RECORD
  5
1E2
330
1
100
AcDbSymbolTableRecord
100
AcDbBlockTableRecord
  2
*D8
340
0
  0
BLOCK_RECORD
  5
1F1
330
1
100
AcDbSymbolTableRecord
100
AcDbBlockTableRecord
  2
*D9
340
0
  0
BLOCK_RECORD
  5
22B
330
1
100
AcDbSymbolTableRecord
100
AcDbBlockTableRecord
  2
*D10
340
0
  0
BLOCK_RECORD
  5
23A
330
1
100
AcDbSymbolTableRecord
100
AcDbBlockTableRecord
  2
*D11
340
0
  0
BLOCK_RECORD
  5
249
330
1
100
AcDbSymbolTableRecord
100
AcDbBlockTableRecord
  2
*D12
340
0
  0
BLOCK_RECORD
  5
2DC
330
1
100
AcDbSymbolTableRecord
100
AcDbBlockTableRecord
  2
*D13
340
0
  0
BLOCK_RECORD
  5
2EB
330
1
100
AcDbSymbolTableRecord
100
AcDbBlockTableRecord
  2
*D14
340
0
  0
BLOCK_RECORD
  5
2FA
330
1
100
AcDbSymbolTableRecord
100
AcDbBlockTableRecord
  2
*D15
340
0
  0
BLOCK_RECORD
  5
32C
330
1
100
AcDbSymbolTableRecord
100
AcDbBlockTableRecord
  2
*D16
340
0
  0
BLOCK_RECORD
  5
33B
330
1
100
AcDbSymbolTableRecord
100
AcDbBlockTableRecord
  2
*D17
340
0
  0
BLOCK_RECORD
  5
34A
330
1
100
AcDbSymbolTableRecord
100
AcDbBlockTableRecord
  2
*D18
340
0
  0
ENDTAB
  0
ENDSEC
  0
SECTION
  2
BLOCKS
  0
BLOCK
  5
20
330
1F
100
AcDbEntity
  8
0
100
AcDbBlockBegin
  2
*Model_Space
 70
     0
 10
0.0
 20
0.0
 30
0.0
  3
*Model_Space
  1
*Model_Space
  0
ENDBLK
  5
21
330
1F
100
AcDbEntity
  8
0
100
AcDbBlockEnd
  0
BLOCK
  5
1C
330
1B
100
AcDbEntity
 67
     1
  8
0
100
AcDbBlockBegin
  2
*Paper_Space
 70
     0
 10
0.0
 20
0.0
 30
0.0
  3
*Paper_Space
  1
*Paper_Space
  0
ENDBLK
  5
1D
330
1B
100
AcDbEntity
 67
     1
  8
0
100
AcDbBlockEnd
  0
BLOCK
  5
24
330
23
100
AcDbEntity
  8
0
100
AcDbBlockBegin
  2
*Paper_Space0
 70
     0
 10
0.0
 20
0.0
 30
0.0
  3
*Paper_Space0
  1
*Paper_Space0
  0
ENDBLK
  5
25
330
23
100
AcDbEntity
  8
0
100
AcDbBlockEnd
  0
BLOCK
  5
80
330
7F
100
AcDbEntity
  8
0
100
AcDbBlockBegin
  2
블럭10
 70
     2
 10
0.0
 20
0.0
 30
0.0
  3
블럭10
  1
블럭10
  0
ELLIPSE
  5
82
330
7F
100
AcDbEntity
  8
중심선
100
AcDbEllipse
 10
20.54032771741204
 20
12.0471743016438
 30
0.0
 11
6.600054785286829
 21
-1.261213355974178E-13
 31
0.0
210
0.0
220
0.0
230
1.0
 40
0.636358354079598
 41
0.9219305317359503
 42
6.513795318482858
  0
ELLIPSE
  5
83
330
7F
100
AcDbEntity
  8
중심선
100
AcDbEllipse
 10
20.54032771746488
 20
12.04717430159265
 30
0.0
 11
3.960054785062283
 21
1.540847449632565E-10
 31
0.0
210
0.0
220
0.0
230
1.0
 40
0.3939339440162632
 41
1.131841032648279
 42
5.62031148352944
  0
LINE
  5
84
330
7F
100
AcDbEntity
  8
중심선
100
AcDbLine
 10
2.268634060543552
 20
16.24717430164393
 30
0.0
 11
5.714909304380834
 21
16.24717430164393
 31
0.0
  0
LINE
  5
85
330
7F
100
AcDbEntity
  8
중심선
100
AcDbLine
 10
5.245725140726316
 20
7.84717430164391
 30
0.0
 11
8.692000384563599
 21
7.84717430164391
 31
0.0
  0
LINE
  5
86
330
7F
100
AcDbEntity
  8
중심선
100
AcDbLine
 10
15.74043728645272
 20
16.24717430164393
 30
0.0
 11
8.692000384563599
 21
7.84717430164391
 31
0.0
  0
LINE
  5
87
330
7F
100
AcDbEntity
  8
중심선
100
AcDbLine
 10
0.1404042013395286
 20
13.71084872107135
 30
0.0
 11
3.58671253028996
 21
13.71088815037384
 31
0.0
  0
LINE
  5
88
330
7F
100
AcDbEntity
  8
중심선
100
AcDbLine
 10
2.750260043222114
 20
10.84717430164391
 30
0.0
 11
6.196535287059397
 21
10.84717430164391
 31
0.0
  0
LINE
  5
89
330
7F
100
AcDbEntity
  8
중심선
100
AcDbLine
 10
12.29416204261559
 20
16.24717430164393
 30
0.0
 11
5.245725140726316
 21
7.84717430164391
 31
0.0
  0
LINE
  5
8A
330
7F
100
AcDbEntity
  8
중심선
100
AcDbLine
 10
10.72767329541681
 20
16.24717430164393
 30
0.0
 11
6.196535287059397
 21
10.84717430164391
 31
0.0
  0
LINE
  5
8B
330
7F
100
AcDbEntity
  8
중심선
100
AcDbLine
 10
7.28139805157953
 20
16.24717430164393
 30
0.0
 11
2.750260043222114
 21
10.84717430164391
 31
0.0
  0
LINE
  5
8C
330
7F
100
AcDbEntity
  8
중심선
100
AcDbLine
 10
5.714909304380834
 20
16.24717430164393
 30
0.0
 11
3.58671253028996
 21
13.71088815037384
 31
0.0
  0
LINE
  5
8D
330
7F
100
AcDbEntity
  8
중심선
100
AcDbLine
 10
2.268634060543552
 20
16.24717430164393
 30
0.0
 11
0.1404042013395286
 21
13.71084872107135
 31
0.0
  0
LINE
  5
8E
330
7F
100
AcDbEntity
  8
중심선
100
AcDbLine
 10
7.28139805157953
 20
16.24717430164393
 30
0.0
 11
10.72767329541681
 21
16.24717430164393
 31
0.0
  0
LINE
  5
8F
330
7F
100
AcDbEntity
  8
중심선
100
AcDbLine
 10
12.29416204261559
 20
16.24717430164393
 30
0.0
 11
15.74043728645272
 21
16.24717430164393
 31
0.0
  0
LINE
  5
90
330
7F
100
AcDbEntity
  8
중심선
100
AcDbLine
 10
19.22036997980202
 20
11.08717430171403
 30
0.0
 11
23.66174974927406
 21
11.08717430171406
 31
0.0
  0
LINE
  5
91
330
7F
100
AcDbEntity
  8
중심선
100
AcDbLine
 10
19.22039502424796
 20
13.00717430171391
 30
0.0
 11
19.22036997980202
 21
11.08717430171403
 31
0.0
  0
LINE
  5
92
330
7F
100
AcDbEntity
  8
중심선
100
AcDbLine
 10
19.22039502424796
 20
13.00717430171391
 30
0.0
 11
26.96566020931264
 21
13.00717430171391
 31
0.0
  0
LINE
  5
93
330
7F
100
AcDbEntity
  8
중심선
100
AcDbLine
 10
22.22332737316547
 20
13.45928029700563
 30
0.0
 11
24.52862924686651
 21
15.39360700705356
 31
0.0
  0
ATTDEF
  5
95
330
7F
100
AcDbEntity
  8
FORMAT
 62
     2
100
AcDbText
 10
4.408487351596664
 20
2.075366912832191
 30
0.0
 40
4.233333333333333
  1
E1053048
 41
0.75
  7
SLDTEXTSTYLE0
 11
4.408487351596664
 21
-0.0412997538344756
 31
0.0
100
AcDbAttributeDefinition
  3

  2
AUTOATTR0
 70
     0
 74
     1
  0
ENDBLK
  5
81
330
7F
100
AcDbEntity
  8
0
100
AcDbBlockEnd
  0
BLOCK
  5
C9
330
C8
100
AcDbEntity
  8
0
100
AcDbBlockBegin
  2
_D
 70
     0
 10
0.0
 20
0.0
 30
0.0
  3
_D
  1
_D
  0
LINE
  5
CB
330
C8
100
AcDbEntity
  8
치수문자_일반주서
 62
     0
370
    -2
100
AcDbLine
 10
71.5
 20
9.52500000000001
 30
0.0
 11
91.90872287154696
 21
9.525000000000087
 31
0.0
  0
LINE
  5
CC
330
C8
100
AcDbEntity
  8
치수문자_일반주서
 62
     0
370
    -2
100
AcDbLine
 10
71.5
 20
-9.524999999999991
 30
0.0
 11
91.90872287154703
 21
-9.524999999999913
 31
0.0
  0
LINE
  5
CD
330
C8
100
AcDbEntity
  8
치수문자_일반주서
 62
     0
370
    -2
100
AcDbLine
 10
91.90872287154696
 20
9.525000000000087
 30
0.0
 11
91.90872287154683
 21
43.87522268430735
 31
0.0
  0
LINE
  5
CE
330
C8
100
AcDbEntity
  8
치수문자_일반주서
 62
     0
370
    -2
100
AcDbLine
 10
91.90872287154696
 20
9.525000000000087
 30
0.0
 11
91.90872287154703
 21
-9.524999999999913
 31
0.0
  0
LINE
  5
CF
330
C8
100
AcDbEntity
  8
치수문자_일반주서
 62
     0
370
    -2
100
AcDbLine
 10
91.90872287154694
 20
12.82700000000009
 30
0.0
 11
91.90872287154693
 21
16.12900000000009
 31
0.0
  0
LINE
  5
D0
330
C8
100
AcDbEntity
  8
치수문자_일반주서
 62
     0
370
    -2
100
AcDbLine
 10
91.90872287154704
 20
-12.82699999999991
 30
0.0
 11
91.90872287154706
 21
-16.12899999999991
 31
0.0
  0
SOLID
  5
D1
330
C8
100
AcDbEntity
  8
치수문자_일반주서
 62
     0
100
AcDbTrace
 10
91.35838953821361
 20
12.82700000000009
 30
0.0
 11
92.45905620488027
 21
12.82700000000009
 31
0.0
 12
91.90872287154696
 22
9.525000000000087
 32
0.0
 13
91.90872287154696
 23
9.525000000000087
 33
0.0
  0
SOLID
  5
D2
330
C8
100
AcDbEntity
  8
치수문자_일반주서
 62
     0
100
AcDbTrace
 10
92.45905620488037
 20
-12.82699999999991
 30
0.0
 11
91.35838953821371
 21
-12.82699999999991
 31
0.0
 12
91.90872287154703
 22
-9.524999999999913
 32
0.0
 13
91.90872287154703
 23
-9.524999999999913
 33
0.0
  0
MTEXT
  5
D3
330
C8
100
AcDbEntity
  8
치수문자_일반주서
 62
     0
100
AcDbMText
 10
87.53372287154689
 20
30.09397268430734
 30
0.0
 40
3.5
 41
0.0
 71
     2
 72
     1
  1
\A1;%%c19.05 [3/4]
  7
SLDTEXTSTYLE0
 11
-3.729883127349606E-15
 21
1.0
 31
0.0
 73
     1
 44
1.0
  0
POINT
  5
D4
330
C8
100
AcDbEntity
  8
Defpoints
 62
     0
100
AcDbPoint
 10
71.4375
 20
9.52500000000001
 30
0.0
  0
POINT
  5
255
330
C8
100
AcDbEntity
  8
Defpoints
 62
     0
100
AcDbPoint
 10
71.4375
 20
-9.524999999999991
 30
0.0
  0
POINT
  5
256
330
C8
100
AcDbEntity
  8
Defpoints
 62
     0
100
AcDbPoint
 10
91.90872287154703
 20
-9.524999999999915
 30
0.0
  0
ENDBLK
  5
CA
330
C8
100
AcDbEntity
  8
0
100
AcDbBlockEnd
  0
BLOCK
  5
DC
330
DB
100
AcDbEntity
  8
0
100
AcDbBlockBegin
  2
_D_1
 70
     0
 10
0.0
 20
0.0
 30
0.0
  3
_D_1
  1
_D_1
  0
LINE
  5
DE
330
DB
100
AcDbEntity
  8
치수문자_일반주서
 62
     0
370
    -2
100
AcDbLine
 10
71.4375
 20
9.58750000000001
 30
0.0
 11
71.4375
 21
25.79149174219262
 31
0.0
  0
LINE
  5
DF
330
DB
100
AcDbEntity
  8
치수문자_일반주서
 62
     0
370
    -2
100
AcDbLine
 10
30.16250000000002
 20
9.393946962362238
 30
0.0
 11
30.16250000000002
 21
25.79149174219262
 31
0.0
  0
LINE
  5
E0
330
DB
100
AcDbEntity
  8
치수문자_일반주서
 62
     0
370
    -2
100
AcDbLine
 10
30.16250000000002
 20
25.79149174219262
 30
0.0
 11
-10.65815495956366
 21
25.79149174219262
 31
0.0
  0
LINE
  5
E1
330
DB
100
AcDbEntity
  8
치수문자_일반주서
 62
     0
370
    -2
100
AcDbLine
 10
71.4375
 20
25.79149174219262
 30
0.0
 11
30.16250000000002
 21
25.79149174219262
 31
0.0
  0
LINE
  5
E2
330
DB
100
AcDbEntity
  8
치수문자_일반주서
 62
     0
370
    -2
100
AcDbLine
 10
74.73949999999999
 20
25.79149174219262
 30
0.0
 11
78.04149999999998
 21
25.79149174219262
 31
0.0
  0
LINE
  5
E3
330
DB
100
AcDbEntity
  8
치수문자_일반주서
 62
     0
370
    -2
100
AcDbLine
 10
26.86050000000002
 20
25.79149174219262
 30
0.0
 11
23.55850000000002
 21
25.79149174219262
 31
0.0
  0
SOLID
  5
E4
330
DB
100
AcDbEntity
  8
치수문자_일반주서
 62
     0
100
AcDbTrace
 10
74.73949999999999
 20
26.34182507552596
 30
0.0
 11
74.73949999999999
 21
25.24115840885929
 31
0.0
 12
71.4375
 22
25.79149174219262
 32
0.0
 13
71.4375
 23
25.79149174219262
 33
0.0
  0
SOLID
  5
E5
330
DB
100
AcDbEntity
  8
치수문자_일반주서
 62
     0
100
AcDbTrace
 10
26.86050000000002
 20
25.24115840885929
 30
0.0
 11
26.86050000000002
 21
26.34182507552596
 31
0.0
 12
30.16250000000002
 22
25.79149174219262
 32
0.0
 13
30.16250000000002
 23
25.79149174219262
 33
0.0
  0
MTEXT
  5
E6
330
DB
100
AcDbEntity
  8
치수문자_일반주서
 62
     0
100
AcDbMText
 10
4.21684504043634
 20
30.16649174219262
 30
0.0
 40
3.5
 41
0.0
 71
     2
 72
     1
  1
\A1;41.28 [1 5/8]
  7
SLDTEXTSTYLE0
 73
     1
 44
1.0
  0
POINT
  5
E7
330
DB
100
AcDbEntity
  8
Defpoints
 62
     0
100
AcDbPoint
 10
71.4375
 20
9.52500000000001
 30
0.0
  0
POINT
  5
257
330
DB
100
AcDbEntity
  8
Defpoints
 62
     0
100
AcDbPoint
 10
30.16250000000002
 20
9.331446962362238
 30
0.0
  0
POINT
  5
258
330
DB
100
AcDbEntity
  8
Defpoints
 62
     0
100
AcDbPoint
 10
30.16250000000002
 20
25.79149174219262
 30
0.0
  0
ENDBLK
  5
DD
330
DB
100
AcDbEntity
  8
0
100
AcDbBlockEnd
  0
BLOCK
  5
F0
330
EF
100
AcDbEntity
  8
0
100
AcDbBlockBegin
  2
_D_2
 70
     0
 10
0.0
 20
0.0
 30
0.0
  3
_D_2
  1
_D_2
  0
LINE
  5
F2
330
EF
100
AcDbEntity
  8
치수문자_일반주서
 62
     0
370
    -2
100
AcDbLine
 10
71.43750000000001
 20
9.552472684307276
 30
0.0
 11
71.4375
 21
41.78156390547218
 31
0.0
  0
LINE
  5
F3
330
EF
100
AcDbEntity
  8
치수문자_일반주서
 62
     0
370
    -2
100
AcDbLine
 10
-71.4375
 20
7.682500000000002
 30
0.0
 11
-71.43750000000001
 21
41.78156390547218
 31
0.0
  0
LINE
  5
F4
330
EF
100
AcDbEntity
  8
치수문자_일반주서
 62
     0
370
    -2
100
AcDbLine
 10
68.13550000000001
 20
41.78156390547218
 30
0.0
 11
-68.13550000000001
 21
41.78156390547218
 31
0.0
  0
SOLID
  5
F5
330
EF
100
AcDbEntity
  8
치수문자_일반주서
 62
     0
100
AcDbTrace
 10
68.13550000000001
 20
41.23123057213884
 30
0.0
 11
68.13550000000001
 21
42.33189723880551
 31
0.0
 12
71.4375
 22
41.78156390547218
 32
0.0
 13
71.4375
 23
41.78156390547218
 33
0.0
  0
SOLID
  5
F6
330
EF
100
AcDbEntity
  8
치수문자_일반주서
 62
     0
100
AcDbTrace
 10
-68.13550000000001
 20
42.33189723880551
 30
0.0
 11
-68.13550000000001
 21
41.23123057213884
 31
0.0
 12
-71.43750000000001
 22
41.78156390547218
 32
0.0
 13
-71.43750000000001
 23
41.78156390547218
 33
0.0
  0
MTEXT
  5
F7
330
EF
100
AcDbEntity
  8
치수문자_일반주서
 62
     0
100
AcDbMText
 10
-1.661857960769396
 20
46.15656390547218
 30
0.0
 40
3.5
 41
0.0
 71
     2
 72
     1
  1
\A1;142.88 [5 5/8]
  7
SLDTEXTSTYLE0
 73
     1
 44
1.0
  0
POINT
  5
F8
330
EF
100
AcDbEntity
  8
Defpoints
 62
     0
100
AcDbPoint
 10
71.43750000000001
 20
9.489972684307276
 30
0.0
  0
POINT
  5
F9
330
EF
100
AcDbEntity
  8
Defpoints
 62
     0
100
AcDbPoint
 10
-71.4375
 20
7.620000000000002
 30
0.0
  0
POINT
  5
FA
330
EF
100
AcDbEntity
  8
Defpoints
 62
     0
100
AcDbPoint
 10
-71.4375
 20
41.78156390547218
 30
0.0
  0
ENDBLK
  5
F1
330
EF
100
AcDbEntity
  8
0
100
AcDbBlockEnd
  0
BLOCK
  5
104
330
103
100
AcDbEntity
  8
0
100
AcDbBlockBegin
  2
_D_3
 70
     0
 10
0.0
 20
0.0
 30
0.0
  3
_D_3
  1
_D_3
  0
LINE
  5
106
330
103
100
AcDbEntity
  8
치수문자_일반주서
 62
     0
370
    -2
100
AcDbLine
 10
-29.72485173148851
 20
9.524999999999993
 30
0.0
 11
-83.00875000000005
 21
9.524999999999796
 31
0.0
  0
LINE
  5
107
330
103
100
AcDbEntity
  8
치수문자_일반주서
 62
     0
370
    -2
100
AcDbLine
 10
-29.72485173148851
 20
-9.52500000000001
 30
0.0
 11
-83.00874999999998
 21
-9.525000000000206
 31
0.0
  0
LINE
  5
108
330
103
100
AcDbEntity
  8
치수문자_일반주서
 62
     0
370
    -2
100
AcDbLine
 10
-83.00875000000003
 20
6.222999999999796
 30
0.0
 11
-83.00874999999999
 21
-6.223000000000207
 31
0.0
  0
SOLID
  5
109
330
103
100
AcDbEntity
  8
치수문자_일반주서
 62
     0
100
AcDbTrace
 10
-82.45841666666671
 20
6.222999999999798
 30
0.0
 11
-83.55908333333336
 21
6.222999999999795
 31
0.0
 12
-83.00875000000005
 22
9.524999999999796
 32
0.0
 13
-83.00875000000005
 23
9.524999999999796
 33
0.0
  0
SOLID
  5
10A
330
103
100
AcDbEntity
  8
치수문자_일반주서
 62
     0
100
AcDbTrace
 10
-83.55908333333332
 20
-6.223000000000209
 30
0.0
 11
-82.45841666666666
 21
-6.223000000000205
 31
0.0
 12
-83.00874999999998
 22
-9.525000000000206
 32
0.0
 13
-83.00874999999998
 23
-9.525000000000206
 33
0.0
  0
MTEXT
  5
10B
330
103
100
AcDbEntity
  8
치수문자_일반주서
 62
     0
100
AcDbMText
 10
-87.38375000000002
 20
-0.0000000000000134
 30
0.0
 40
3.5
 41
0.0
 71
     2
 72
     1
  1
\A1;%%c19.05 [3/4]
  7
SLDTEXTSTYLE0
 11
-3.729883127349606E-15
 21
1.0
 31
0.0
 73
     1
 44
1.0
  0
POINT
  5
10C
330
103
100
AcDbEntity
  8
Defpoints
 62
     0
100
AcDbPoint
 10
-29.66235173148851
 20
9.524999999999993
 30
0.0
  0
POINT
  5
10D
330
103
100
AcDbEntity
  8
Defpoints
 62
     0
100
AcDbPoint
 10
-29.66235173148851
 20
-9.52500000000001
 30
0.0
  0
POINT
  5
10E
330
103
100
AcDbEntity
  8
Defpoints
 62
     0
100
AcDbPoint
 10
-83.00874999999998
 20
-9.525000000000208
 30
0.0
  0
ENDBLK
  5
105
330
103
100
AcDbEntity
  8
0
100
AcDbBlockEnd
  0
BLOCK
  5
11E
330
11D
100
AcDbEntity
  8
0
100
AcDbBlockBegin
  2
SW_DOWELSYMBOL_0
 70
     0
 10
0.0
 20
0.0
 30
0.0
  3
SW_DOWELSYMBOL_0
  1
SW_DOWELSYMBOL_0
  0
CIRCLE
  5
120
330
11D
100
AcDbEntity
  8
해칭선
 62
     0
100
AcDbCircle
 10
0.0
 20
0.0
 30
0.0
 40
3.000000000000008
  0
HATCH
  5
121
330
11D
100
AcDbEntity
  8
0
  6
Continuous
 62
     0
370
     0
100
AcDbHatch
 10
0.0
 20
0.0
 30
0.0
210
0.0
220
0.0
230
1.0
  2
SOLID
 70
     1
 71
     0
 91
        1
 92
        0
 93
        3
 72
     2
 10
0.0
 20
0.0
 40
3.000000000000008
 50
0.0
 51
90.0
 73
     1
 72
     1
 10
0.0
 20
3.000000000000008
 11
0.0
 21
0.0
 72
     1
 10
0.0
 20
0.0
 11
3.00000000000001
 21
0.0
 97
        0
 75
     0
 76
     1
 98
        1
 10
0.0
 20
0.0
  0
HATCH
  5
122
330
11D
100
AcDbEntity
  8
0
  6
Continuous
 62
     0
370
     0
100
AcDbHatch
 10
0.0
 20
0.0
 30
0.0
210
0.0
220
0.0
230
1.0
  2
SOLID
 70
     1
 71
     0
 91
        1
 92
        0
 93
        3
 72
     2
 10
0.0
 20
0.0
 40
3.000000000000008
 50
180.0
 51
270.0000000000007
 73
     1
 72
     1
 10
0.0
 20
-3.000000000000008
 11
0.0
 21
0.0
 72
     1
 10
0.0
 20
0.0
 11
-3.00000000000001
 21
0.0
 97
        0
 75
     0
 76
     1
 98
        1
 10
0.0
 20
0.0
  0
ENDBLK
  5
11F
330
11D
100
AcDbEntity
  8
0
100
AcDbBlockEnd
  0
BLOCK
  5
1D4
330
1D3
100
AcDbEntity
  8
0
100
AcDbBlockBegin
  2
*D7
 70
     1
 10
0.0
 20
0.0
 30
0.0
  3
*D7
  1
*D8
  0
LINE
  5
1D6
330
1D3
100
AcDbEntity
  8
치수문자_일반주서
 62
     0
370
    -2
100
AcDbLine
 10
145.9375
 20
24.06649999999993
 30
0.0
 11
164.8128452503825
 21
24.0665
 31
0.0
  0
LINE
  5
1D7
330
1D3
100
AcDbEntity
  8
치수문자_일반주서
 62
     0
370
    -2
100
AcDbLine
 10
145.9375
 20
6.603999999999932
 30
0.0
 11
164.8128452503826
 21
6.603999999999999
 31
0.0
  0
LINE
  5
1D8
330
1D3
100
AcDbEntity
  8
치수문자_일반주서
 62
     0
370
    -2
100
AcDbLine
 10
164.8128452503825
 20
24.0665
 30
0.0
 11
164.8128452503824
 21
61.32589162728166
 31
0.0
  0
LINE
  5
1D9
330
1D3
100
AcDbEntity
  8
치수문자_일반주서
 62
     0
370
    -2
100
AcDbLine
 10
164.8128452503825
 20
24.0665
 30
0.0
 11
164.8128452503826
 21
6.603999999999999
 31
0.0
  0
LINE
  5
1DA
330
1D3
100
AcDbEntity
  8
치수문자_일반주서
 62
     0
370
    -2
100
AcDbLine
 10
164.8128452503825
 20
27.3685
 30
0.0
 11
164.8128452503825
 21
30.6705
 31
0.0
  0
LINE
  5
1DB
330
1D3
100
AcDbEntity
  8
치수문자_일반주서
 62
     0
370
    -2
100
AcDbLine
 10
164.8128452503826
 20
3.302
 30
0.0
 11
164.8128452503826
 21
0.0
 31
0.0
  0
SOLID
  5
1DC
330
1D3
100
AcDbEntity
  8
치수문자_일반주서
 62
     0
100
AcDbTrace
 10
164.2625119170492
 20
27.36849999999999
 30
0.0
 11
165.3631785837159
 21
27.3685
 31
0.0
 12
164.8128452503825
 22
24.0665
 32
0.0
 13
164.8128452503825
 23
24.0665
 33
0.0
  0
SOLID
  5
1DD
330
1D3
100
AcDbEntity
  8
치수문자_일반주서
 62
     0
100
AcDbTrace
 10
165.3631785837159
 20
3.302000000000001
 30
0.0
 11
164.2625119170493
 21
3.301999999999998
 31
0.0
 12
164.8128452503826
 22
6.603999999999999
 32
0.0
 13
164.8128452503826
 23
6.603999999999999
 33
0.0
  0
MTEXT
  5
1DE
330
1D3
100
AcDbEntity
  8
치수문자_일반주서
 62
     0
100
AcDbMText
 10
160.4378452503825
 20
46.01339162728165
 30
0.0
 40
3.5
 41
0.0
 71
     2
 72
     1
  1
\A1;%%c17.46 [11/16]
  7
SLDTEXTSTYLE0
 11
-3.255170729323294E-15
 21
1.0
 31
0.0
 73
     1
 44
1.0
  0
POINT
  5
1DF
330
1D3
100
AcDbEntity
  8
Defpoints
 62
     0
100
AcDbPoint
 10
145.875
 20
24.06649999999993
 30
0.0
  0
POINT
  5
1E0
330
1D3
100
AcDbEntity
  8
Defpoints
 62
     0
100
AcDbPoint
 10
145.875
 20
6.603999999999932
 30
0.0
  0
POINT
  5
1E1
330
1D3
100
AcDbEntity
  8
Defpoints
 62
     0
100
AcDbPoint
 10
164.8128452503826
 20
6.604000000000003
 30
0.0
  0
ENDBLK
  5
1D5
330
1D3
100
AcDbEntity
  8
0
100
AcDbBlockEnd
  0
BLOCK
  5
1E3
330
1E2
100
AcDbEntity
  8
0
100
AcDbBlockBegin
  2
*D8
 70
     1
 10
0.0
 20
0.0
 30
0.0
  3
*D8
  1
*D9
  0
LINE
  5
1E5
330
1E2
100
AcDbEntity
  8
치수문자_일반주서
 62
     0
370
    -2
100
AcDbLine
 10
145.875
 20
24.12899999999993
 30
0.0
 11
145.875
 21
40.50417030937545
 31
0.0
  0
LINE
  5
1E6
330
1E2
100
AcDbEntity
  8
치수문자_일반주서
 62
     0
370
    -2
100
AcDbLine
 10
104.6
 20
24.12616997580468
 30
0.0
 11
104.6
 21
40.50417030937545
 31
0.0
  0
LINE
  5
1E7
330
1E2
100
AcDbEntity
  8
치수문자_일반주서
 62
     0
370
    -2
100
AcDbLine
 10
104.6
 20
40.50417030937545
 30
0.0
 11
62.91466988565912
 21
40.50417030937545
 31
0.0
  0
LINE
  5
1E8
330
1E2
100
AcDbEntity
  8
치수문자_일반주서
 62
     0
370
    -2
100
AcDbLine
 10
145.875
 20
40.50417030937545
 30
0.0
 11
104.6
 21
40.50417030937545
 31
0.0
  0
LINE
  5
1E9
330
1E2
100
AcDbEntity
  8
치수문자_일반주서
 62
     0
370
    -2
100
AcDbLine
 10
149.177
 20
40.50417030937545
 30
0.0
 11
152.479
 21
40.50417030937545
 31
0.0
  0
LINE
  5
1EA
330
1E2
100
AcDbEntity
  8
치수문자_일반주서
 62
     0
370
    -2
100
AcDbLine
 10
101.298
 20
40.50417030937545
 30
0.0
 11
97.99600000000004
 21
40.50417030937545
 31
0.0
  0
SOLID
  5
1EB
330
1E2
100
AcDbEntity
  8
치수문자_일반주서
 62
     0
100
AcDbTrace
 10
149.177
 20
41.05450364270878
 30
0.0
 11
149.177
 21
39.95383697604211
 31
0.0
 12
145.875
 22
40.50417030937545
 32
0.0
 13
145.875
 23
40.50417030937545
 33
0.0
  0
SOLID
  5
1EC
330
1E2
100
AcDbEntity
  8
치수문자_일반주서
 62
     0
100
AcDbTrace
 10
101.298
 20
39.95383697604211
 30
0.0
 11
101.298
 21
41.05450364270878
 31
0.0
 12
104.6
 22
40.50417030937545
 32
0.0
 13
104.6
 23
40.50417030937545
 33
0.0
  0
MTEXT
  5
1ED
330
1E2
100
AcDbEntity
  8
치수문자_일반주서
 62
     0
100
AcDbMText
 10
77.78966988565912
 20
44.87917030937545
 30
0.0
 40
3.5
 41
0.0
 71
     2
 72
     1
  1
\A1;41.28 [1 5/8]
  7
SLDTEXTSTYLE0
 73
     1
 44
1.0
  0
POINT
  5
1EE
330
1E2
100
AcDbEntity
  8
Defpoints
 62
     0
100
AcDbPoint
 10
145.875
 20
24.06649999999993
 30
0.0
  0
POINT
  5
1EF
330
1E2
100
AcDbEntity
  8
Defpoints
 62
     0
100
AcDbPoint
 10
104.6
 20
24.06366997580468
 30
0.0
  0
POINT
  5
1F0
330
1E2
100
AcDbEntity
  8
Defpoints
 62
     0
100
AcDbPoint
 10
104.6
 20
40.50417030937545
 30
0.0
  0
ENDBLK
  5
1E4
330
1E2
100
AcDbEntity
  8
0
100
AcDbBlockEnd
  0
BLOCK
  5
1F2
330
1F1
100
AcDbEntity
  8
0
100
AcDbBlockBegin
  2
*D9
 70
     1
 10
0.0
 20
0.0
 30
0.0
  3
*D9
  1
*D10
  0
LINE
  5
1F4
330
1F1
100
AcDbEntity
  8
치수문자_일반주서
 62
     0
370
    -2
100
AcDbLine
 10
145.875
 20
24.12899999999993
 30
0.0
 11
145.875
 21
56.57874882829734
 31
0.0
  0
LINE
  5
1F5
330
1F1
100
AcDbEntity
  8
치수문자_일반주서
 62
     0
370
    -2
100
AcDbLine
 10
3.000000000000007
 20
23.01774999999992
 30
0.0
 11
3.0
 21
56.57874882829734
 31
0.0
  0
LINE
  5
1F6
330
1F1
100
AcDbEntity
  8
치수문자_일반주서
 62
     0
370
    -2
100
AcDbLine
 10
142.573
 20
56.57874882829734
 30
0.0
 11
6.302
 21
56.57874882829734
 31
0.0
  0
SOLID
  5
1F7
330
1F1
100
AcDbEntity
  8
치수문자_일반주서
 62
     0
100
AcDbTrace
 10
142.573
 20
56.02841549496401
 30
0.0
 11
142.573
 21
57.12908216163068
 31
0.0
 12
145.875
 22
56.57874882829734
 32
0.0
 13
145.875
 23
56.57874882829734
 33
0.0
  0
SOLID
  5
1F8
330
1F1
100
AcDbEntity
  8
치수문자_일반주서
 62
     0
100
AcDbTrace
 10
6.302
 20
57.12908216163068
 30
0.0
 11
6.302
 21
56.02841549496401
 31
0.0
 12
3.0
 22
56.57874882829734
 32
0.0
 13
3.0
 23
56.57874882829734
 33
0.0
  0
MTEXT
  5
1F9
330
1F1
100
AcDbEntity
  8
치수문자_일반주서
 62
     0
100
AcDbMText
 10
73.19693316596715
 20
60.95374882829734
 30
0.0
 40
3.5
 41
0.0
 71
     2
 72
     1
  1
\A1;142.88 [5 5/8]
  7
SLDTEXTSTYLE0
 73
     1
 44
1.0
  0
POINT
  5
1FA
330
1F1
100
AcDbEntity
  8
Defpoints
 62
     0
100
AcDbPoint
 10
145.875
 20
24.06649999999993
 30
0.0
  0
POINT
  5
1FB
330
1F1
100
AcDbEntity
  8
Defpoints
 62
     0
100
AcDbPoint
 10
3.000000000000007
 20
22.95524999999992
 30
0.0
  0
POINT
  5
1FC
330
1F1
100
AcDbEntity
  8
Defpoints
 62
     0
100
AcDbPoint
 10
3.000000000000007
 20
56.57874882829734
 30
0.0
  0
ENDBLK
  5
1F3
330
1F1
100
AcDbEntity
  8
0
100
AcDbBlockEnd
  0
BLOCK
  5
22C
330
22B
100
AcDbEntity
  8
0
100
AcDbBlockBegin
  2
*D10
 70
     1
 10
0.0
 20
0.0
 30
0.0
  3
*D10
  1
*D11
  0
LINE
  5
22E
330
22B
100
AcDbEntity
  8
치수문자_일반주서
 62
     0
370
    -2
100
AcDbLine
 10
268.1669431055674
 20
-44.03563132043931
 30
0.0
 11
287.0422883559499
 21
-44.03563132043924
 31
0.0
  0
LINE
  5
22F
330
22B
100
AcDbEntity
  8
치수문자_일반주서
 62
     0
370
    -2
100
AcDbLine
 10
268.1669431055674
 20
-61.49813132043931
 30
0.0
 11
287.0422883559499
 21
-61.49813132043924
 31
0.0
  0
LINE
  5
230
330
22B
100
AcDbEntity
  8
치수문자_일반주서
 62
     0
370
    -2
100
AcDbLine
 10
287.0422883559499
 20
-44.03563132043924
 30
0.0
 11
287.0422883559498
 21
-6.776239693157578
 31
0.0
  0
LINE
  5
231
330
22B
100
AcDbEntity
  8
치수문자_일반주서
 62
     0
370
    -2
100
AcDbLine
 10
287.0422883559499
 20
-44.03563132043924
 30
0.0
 11
287.0422883559499
 21
-61.49813132043924
 31
0.0
  0
LINE
  5
232
330
22B
100
AcDbEntity
  8
치수문자_일반주서
 62
     0
370
    -2
100
AcDbLine
 10
287.0422883559499
 20
-40.73363132043924
 30
0.0
 11
287.0422883559499
 21
-37.43163132043924
 31
0.0
  0
LINE
  5
233
330
22B
100
AcDbEntity
  8
치수문자_일반주서
 62
     0
370
    -2
100
AcDbLine
 10
287.0422883559499
 20
-64.80013132043925
 30
0.0
 11
287.0422883559499
 21
-68.10213132043924
 31
0.0
  0
SOLID
  5
234
330
22B
100
AcDbEntity
  8
치수문자_일반주서
 62
     0
100
AcDbTrace
 10
286.4919550226165
 20
-40.73363132043924
 30
0.0
 11
287.5926216892832
 21
-40.73363132043924
 31
0.0
 12
287.0422883559499
 22
-44.03563132043924
 32
0.0
 13
287.0422883559499
 23
-44.03563132043924
 33
0.0
  0
SOLID
  5
235
330
22B
100
AcDbEntity
  8
치수문자_일반주서
 62
     0
100
AcDbTrace
 10
287.5926216892833
 20
-64.80013132043925
 30
0.0
 11
286.4919550226166
 21
-64.80013132043925
 31
0.0
 12
287.0422883559499
 22
-61.49813132043924
 32
0.0
 13
287.0422883559499
 23
-61.49813132043924
 33
0.0
  0
MTEXT
  5
236
330
22B
100
AcDbEntity
  8
치수문자_일반주서
 62
     0
100
AcDbMText
 10
282.6672883559498
 20
-22.08873969315759
 30
0.0
 40
3.5
 41
0.0
 71
     2
 72
     1
  1
\A1;%%c17.46 [11/16]
  7
SLDTEXTSTYLE0
 11
-3.255170729323294E-15
 21
1.0
 31
0.0
 73
     1
 44
1.0
  0
POINT
  5
237
330
22B
100
AcDbEntity
  8
Defpoints
 62
     0
100
AcDbPoint
 10
268.1044431055674
 20
-44.03563132043931
 30
0.0
  0
POINT
  5
238
330
22B
100
AcDbEntity
  8
Defpoints
 62
     0
100
AcDbPoint
 10
268.1044431055674
 20
-61.49813132043931
 30
0.0
  0
POINT
  5
239
330
22B
100
AcDbEntity
  8
Defpoints
 62
     0
100
AcDbPoint
 10
287.0422883559499
 20
-61.49813132043924
 30
0.0
  0
ENDBLK
  5
22D
330
22B
100
AcDbEntity
  8
0
100
AcDbBlockEnd
  0
BLOCK
  5
23B
330
23A
100
AcDbEntity
  8
0
100
AcDbBlockBegin
  2
*D11
 70
     1
 10
0.0
 20
0.0
 30
0.0
  3
*D11
  1
*D12
  0
LINE
  5
23D
330
23A
100
AcDbEntity
  8
치수문자_일반주서
 62
     0
370
    -2
100
AcDbLine
 10
268.1044431055674
 20
-43.97313132043931
 30
0.0
 11
268.1044431055674
 21
-27.59796101106379
 31
0.0
  0
LINE
  5
23E
330
23A
100
AcDbEntity
  8
치수문자_일반주서
 62
     0
370
    -2
100
AcDbLine
 10
226.8294431055674
 20
-43.97596134463456
 30
0.0
 11
226.8294431055674
 21
-27.59796101106379
 31
0.0
  0
LINE
  5
23F
330
23A
100
AcDbEntity
  8
치수문자_일반주서
 62
     0
370
    -2
100
AcDbLine
 10
226.8294431055674
 20
-27.59796101106379
 30
0.0
 11
185.1441129912265
 21
-27.59796101106379
 31
0.0
  0
LINE
  5
240
330
23A
100
AcDbEntity
  8
치수문자_일반주서
 62
     0
370
    -2
100
AcDbLine
 10
268.1044431055674
 20
-27.59796101106379
 30
0.0
 11
226.8294431055674
 21
-27.59796101106379
 31
0.0
  0
LINE
  5
241
330
23A
100
AcDbEntity
  8
치수문자_일반주서
 62
     0
370
    -2
100
AcDbLine
 10
271.4064431055674
 20
-27.59796101106379
 30
0.0
 11
274.7084431055674
 21
-27.59796101106379
 31
0.0
  0
LINE
  5
242
330
23A
100
AcDbEntity
  8
치수문자_일반주서
 62
     0
370
    -2
100
AcDbLine
 10
223.5274431055674
 20
-27.59796101106379
 30
0.0
 11
220.2254431055674
 21
-27.59796101106379
 31
0.0
  0
SOLID
  5
243
330
23A
100
AcDbEntity
  8
치수문자_일반주서
 62
     0
100
AcDbTrace
 10
271.4064431055674
 20
-27.04762767773046
 30
0.0
 11
271.4064431055674
 21
-28.14829434439713
 31
0.0
 12
268.1044431055674
 22
-27.59796101106379
 32
0.0
 13
268.1044431055674
 23
-27.59796101106379
 33
0.0
  0
SOLID
  5
244
330
23A
100
AcDbEntity
  8
치수문자_일반주서
 62
     0
100
AcDbTrace
 10
223.5274431055674
 20
-28.14829434439713
 30
0.0
 11
223.5274431055674
 21
-27.04762767773046
 31
0.0
 12
226.8294431055674
 22
-27.59796101106379
 32
0.0
 13
226.8294431055674
 23
-27.59796101106379
 33
0.0
  0
MTEXT
  5
245
330
23A
100
AcDbEntity
  8
치수문자_일반주서
 62
     0
100
AcDbMText
 10
200.0191129912265
 20
-23.22296101106379
 30
0.0
 40
3.5
 41
0.0
 71
     2
 72
     1
  1
\A1;41.28 [1 5/8]
  7
SLDTEXTSTYLE0
 73
     1
 44
1.0
  0
POINT
  5
246
330
23A
100
AcDbEntity
  8
Defpoints
 62
     0
100
AcDbPoint
 10
268.1044431055674
 20
-44.03563132043931
 30
0.0
  0
POINT
  5
247
330
23A
100
AcDbEntity
  8
Defpoints
 62
     0
100
AcDbPoint
 10
226.8294431055674
 20
-44.03846134463456
 30
0.0
  0
POINT
  5
248
330
23A
100
AcDbEntity
  8
Defpoints
 62
     0
100
AcDbPoint
 10
226.8294431055674
 20
-27.59796101106379
 30
0.0
  0
ENDBLK
  5
23C
330
23A
100
AcDbEntity
  8
0
100
AcDbBlockEnd
  0
BLOCK
  5
24A
330
249
100
AcDbEntity
  8
0
100
AcDbBlockBegin
  2
*D12
 70
     1
 10
0.0
 20
0.0
 30
0.0
  3
*D12
  1
*D13
  0
LINE
  5
24C
330
249
100
AcDbEntity
  8
치수문자_일반주서
 62
     0
370
    -2
100
AcDbLine
 10
268.1044431055674
 20
-43.97313132043931
 30
0.0
 11
268.1044431055674
 21
-11.5233824921419
 31
0.0
  0
LINE
  5
24D
330
249
100
AcDbEntity
  8
치수문자_일반주서
 62
     0
370
    -2
100
AcDbLine
 10
125.2294431055674
 20
-45.08438132043932
 30
0.0
 11
125.2294431055674
 21
-11.5233824921419
 31
0.0
  0
LINE
  5
24E
330
249
100
AcDbEntity
  8
치수문자_일반주서
 62
     0
370
    -2
100
AcDbLine
 10
264.8024431055674
 20
-11.5233824921419
 30
0.0
 11
128.5314431055673
 21
-11.5233824921419
 31
0.0
  0
SOLID
  5
24F
330
249
100
AcDbEntity
  8
치수문자_일반주서
 62
     0
100
AcDbTrace
 10
264.8024431055674
 20
-12.07371582547523
 30
0.0
 11
264.8024431055674
 21
-10.97304915880857
 31
0.0
 12
268.1044431055674
 22
-11.5233824921419
 32
0.0
 13
268.1044431055674
 23
-11.5233824921419
 33
0.0
  0
SOLID
  5
250
330
249
100
AcDbEntity
  8
치수문자_일반주서
 62
     0
100
AcDbTrace
 10
128.5314431055673
 20
-10.97304915880857
 30
0.0
 11
128.5314431055673
 21
-12.07371582547523
 31
0.0
 12
125.2294431055674
 22
-11.5233824921419
 32
0.0
 13
125.2294431055674
 23
-11.5233824921419
 33
0.0
  0
MTEXT
  5
251
330
249
100
AcDbEntity
  8
치수문자_일반주서
 62
     0
100
AcDbMText
 10
195.4263762715345
 20
-7.148382492141899
 30
0.0
 40
3.5
 41
0.0
 71
     2
 72
     1
  1
\A1;142.88 [5 5/8]
  7
SLDTEXTSTYLE0
 73
     1
 44
1.0
  0
POINT
  5
252
330
249
100
AcDbEntity
  8
Defpoints
 62
     0
100
AcDbPoint
 10
268.1044431055674
 20
-44.03563132043931
 30
0.0
  0
POINT
  5
253
330
249
100
AcDbEntity
  8
Defpoints
 62
     0
100
AcDbPoint
 10
125.2294431055674
 20
-45.14688132043932
 30
0.0
  0
POINT
  5
254
330
249
100
AcDbEntity
  8
Defpoints
 62
     0
100
AcDbPoint
 10
125.2294431055674
 20
-11.5233824921419
 30
0.0
  0
ENDBLK
  5
24B
330
249
100
AcDbEntity
  8
0
100
AcDbBlockEnd
  0
BLOCK
  5
2DD
330
2DC
100
AcDbEntity
  8
0
100
AcDbBlockBegin
  2
*D13
 70
     1
 10
0.0
 20
0.0
 30
0.0
  3
*D13
  1
*D15
  0
LINE
  5
2DF
330
2DC
100
AcDbEntity
  8
치수문자_일반주서
 62
     0
370
    -2
100
AcDbLine
 10
145.9375
 20
25.65399999999992
 30
0.0
 11
166.346222871547
 21
25.654
 31
0.0
  0
LINE
  5
2E0
330
2DC
100
AcDbEntity
  8
치수문자_일반주서
 62
     0
370
    -2
100
AcDbLine
 10
145.9375
 20
6.603999999999921
 30
0.0
 11
166.346222871547
 21
6.603999999999999
 31
0.0
  0
LINE
  5
2E1
330
2DC
100
AcDbEntity
  8
치수문자_일반주서
 62
     0
370
    -2
100
AcDbLine
 10
166.346222871547
 20
25.654
 30
0.0
 11
166.3462228715469
 21
60.00422268430727
 31
0.0
  0
LINE
  5
2E2
330
2DC
100
AcDbEntity
  8
치수문자_일반주서
 62
     0
370
    -2
100
AcDbLine
 10
166.346222871547
 20
25.654
 30
0.0
 11
166.346222871547
 21
6.603999999999999
 31
0.0
  0
LINE
  5
2E3
330
2DC
100
AcDbEntity
  8
치수문자_일반주서
 62
     0
370
    -2
100
AcDbLine
 10
166.346222871547
 20
28.956
 30
0.0
 11
166.346222871547
 21
32.258
 31
0.0
  0
LINE
  5
2E4
330
2DC
100
AcDbEntity
  8
치수문자_일반주서
 62
     0
370
    -2
100
AcDbLine
 10
166.346222871547
 20
3.302
 30
0.0
 11
166.346222871547
 21
0.0
 31
0.0
  0
SOLID
  5
2E5
330
2DC
100
AcDbEntity
  8
치수문자_일반주서
 62
     0
100
AcDbTrace
 10
165.7958895382136
 20
28.956
 30
0.0
 11
166.8965562048803
 21
28.956
 31
0.0
 12
166.346222871547
 22
25.654
 32
0.0
 13
166.346222871547
 23
25.654
 33
0.0
  0
SOLID
  5
2E6
330
2DC
100
AcDbEntity
  8
치수문자_일반주서
 62
     0
100
AcDbTrace
 10
166.8965562048803
 20
3.302000000000001
 30
0.0
 11
165.7958895382137
 21
3.301999999999998
 31
0.0
 12
166.346222871547
 22
6.603999999999999
 32
0.0
 13
166.346222871547
 23
6.603999999999999
 33
0.0
  0
MTEXT
  5
2E7
330
2DC
100
AcDbEntity
  8
치수문자_일반주서
 62
     0
100
AcDbMText
 10
161.9712228715469
 20
46.22297268430725
 30
0.0
 40
3.5
 41
0.0
 71
     2
 72
     1
  1
\A1;%%c19.05 [3/4]
  7
SLDTEXTSTYLE0
 11
-2.983906501879685E-15
 21
1.0
 31
0.0
 73
     1
 44
1.0
  0
POINT
  5
2E8
330
2DC
100
AcDbEntity
  8
Defpoints
 62
     0
100
AcDbPoint
 10
145.875
 20
25.65399999999992
 30
0.0
  0
POINT
  5
2E9
330
2DC
100
AcDbEntity
  8
Defpoints
 62
     0
100
AcDbPoint
 10
145.875
 20
6.603999999999921
 30
0.0
  0
POINT
  5
2EA
330
2DC
100
AcDbEntity
  8
Defpoints
 62
     0
100
AcDbPoint
 10
166.346222871547
 20
6.603999999999997
 30
0.0
  0
ENDBLK
  5
2DE
330
2DC
100
AcDbEntity
  8
0
100
AcDbBlockEnd
  0
BLOCK
  5
2EC
330
2EB
100
AcDbEntity
  8
0
100
AcDbBlockBegin
  2
*D14
 70
     1
 10
0.0
 20
0.0
 30
0.0
  3
*D14
  1
*D16
  0
LINE
  5
2EE
330
2EB
100
AcDbEntity
  8
치수문자_일반주서
 62
     0
370
    -2
100
AcDbLine
 10
145.875
 20
25.71649999999992
 30
0.0
 11
145.875
 21
41.92049174219254
 31
0.0
  0
LINE
  5
2EF
330
2EB
100
AcDbEntity
  8
치수문자_일반주서
 62
     0
370
    -2
100
AcDbLine
 10
104.6
 20
25.52294696236215
 30
0.0
 11
104.6
 21
41.92049174219254
 31
0.0
  0
LINE
  5
2F0
330
2EB
100
AcDbEntity
  8
치수문자_일반주서
 62
     0
370
    -2
100
AcDbLine
 10
104.6
 20
41.92049174219254
 30
0.0
 11
63.77934504043634
 21
41.92049174219254
 31
0.0
  0
LINE
  5
2F1
330
2EB
100
AcDbEntity
  8
치수문자_일반주서
 62
     0
370
    -2
100
AcDbLine
 10
145.875
 20
41.92049174219254
 30
0.0
 11
104.6
 21
41.92049174219254
 31
0.0
  0
LINE
  5
2F2
330
2EB
100
AcDbEntity
  8
치수문자_일반주서
 62
     0
370
    -2
100
AcDbLine
 10
149.177
 20
41.92049174219254
 30
0.0
 11
152.479
 21
41.92049174219254
 31
0.0
  0
LINE
  5
2F3
330
2EB
100
AcDbEntity
  8
치수문자_일반주서
 62
     0
370
    -2
100
AcDbLine
 10
101.298
 20
41.92049174219254
 30
0.0
 11
97.99600000000004
 21
41.92049174219254
 31
0.0
  0
SOLID
  5
2F4
330
2EB
100
AcDbEntity
  8
치수문자_일반주서
 62
     0
100
AcDbTrace
 10
149.177
 20
42.47082507552587
 30
0.0
 11
149.177
 21
41.3701584088592
 31
0.0
 12
145.875
 22
41.92049174219254
 32
0.0
 13
145.875
 23
41.92049174219254
 33
0.0
  0
SOLID
  5
2F5
330
2EB
100
AcDbEntity
  8
치수문자_일반주서
 62
     0
100
AcDbTrace
 10
101.298
 20
41.3701584088592
 30
0.0
 11
101.298
 21
42.47082507552587
 31
0.0
 12
104.6
 22
41.92049174219254
 32
0.0
 13
104.6
 23
41.92049174219254
 33
0.0
  0
MTEXT
  5
2F6
330
2EB
100
AcDbEntity
  8
치수문자_일반주서
 62
     0
100
AcDbMText
 10
78.65434504043634
 20
46.29549174219254
 30
0.0
 40
3.5
 41
0.0
 71
     2
 72
     1
  1
\A1;41.28 [1 5/8]
  7
SLDTEXTSTYLE0
 73
     1
 44
1.0
  0
POINT
  5
2F7
330
2EB
100
AcDbEntity
  8
Defpoints
 62
     0
100
AcDbPoint
 10
145.875
 20
25.65399999999992
 30
0.0
  0
POINT
  5
2F8
330
2EB
100
AcDbEntity
  8
Defpoints
 62
     0
100
AcDbPoint
 10
104.6
 20
25.46044696236215
 30
0.0
  0
POINT
  5
2F9
330
2EB
100
AcDbEntity
  8
Defpoints
 62
     0
100
AcDbPoint
 10
104.6
 20
41.92049174219254
 30
0.0
  0
ENDBLK
  5
2ED
330
2EB
100
AcDbEntity
  8
0
100
AcDbBlockEnd
  0
BLOCK
  5
2FB
330
2FA
100
AcDbEntity
  8
0
100
AcDbBlockBegin
  2
*D15
 70
     1
 10
0.0
 20
0.0
 30
0.0
  3
*D15
  1
*D17
  0
LINE
  5
2FD
330
2FA
100
AcDbEntity
  8
치수문자_일반주서
 62
     0
370
    -2
100
AcDbLine
 10
145.875
 20
25.68147268430719
 30
0.0
 11
145.875
 21
57.91056390547209
 31
0.0
  0
LINE
  5
2FE
330
2FA
100
AcDbEntity
  8
치수문자_일반주서
 62
     0
370
    -2
100
AcDbLine
 10
3.000000000000007
 20
23.81149999999991
 30
0.0
 11
3.0
 21
57.91056390547209
 31
0.0
  0
LINE
  5
2FF
330
2FA
100
AcDbEntity
  8
치수문자_일반주서
 62
     0
370
    -2
100
AcDbLine
 10
142.573
 20
57.91056390547209
 30
0.0
 11
6.302
 21
57.91056390547209
 31
0.0
  0
SOLID
  5
300
330
2FA
100
AcDbEntity
  8
치수문자_일반주서
 62
     0
100
AcDbTrace
 10
142.573
 20
57.36023057213875
 30
0.0
 11
142.573
 21
58.46089723880542
 31
0.0
 12
145.875
 22
57.91056390547209
 32
0.0
 13
145.875
 23
57.91056390547209
 33
0.0
  0
SOLID
  5
301
330
2FA
100
AcDbEntity
  8
치수문자_일반주서
 62
     0
100
AcDbTrace
 10
6.302
 20
58.46089723880542
 30
0.0
 11
6.302
 21
57.36023057213875
 31
0.0
 12
3.0
 22
57.91056390547209
 32
0.0
 13
3.0
 23
57.91056390547209
 33
0.0
  0
MTEXT
  5
302
330
2FA
100
AcDbEntity
  8
치수문자_일반주서
 62
     0
100
AcDbMText
 10
72.7756420392306
 20
62.28556390547209
 30
0.0
 40
3.5
 41
0.0
 71
     2
 72
     1
  1
\A1;142.88 [5 5/8]
  7
SLDTEXTSTYLE0
 73
     1
 44
1.0
  0
POINT
  5
303
330
2FA
100
AcDbEntity
  8
Defpoints
 62
     0
100
AcDbPoint
 10
145.875
 20
25.61897268430719
 30
0.0
  0
POINT
  5
304
330
2FA
100
AcDbEntity
  8
Defpoints
 62
     0
100
AcDbPoint
 10
3.000000000000007
 20
23.74899999999991
 30
0.0
  0
POINT
  5
305
330
2FA
100
AcDbEntity
  8
Defpoints
 62
     0
100
AcDbPoint
 10
3.000000000000007
 20
57.91056390547209
 30
0.0
  0
ENDBLK
  5
2FC
330
2FA
100
AcDbEntity
  8
0
100
AcDbBlockEnd
  0
BLOCK
  5
32D
330
32C
100
AcDbEntity
  8
0
100
AcDbBlockBegin
  2
*D16
 70
     1
 10
0.0
 20
0.0
 30
0.0
  3
*D16
  1
*D18
  0
LINE
  5
32F
330
32C
100
AcDbEntity
  8
치수문자_일반주서
 62
     0
370
    -2
100
AcDbLine
 10
431.11390057842
 20
-62.85631247662793
 30
0.0
 11
451.5226234499669
 21
-62.85631247662786
 31
0.0
  0
LINE
  5
330
330
32C
100
AcDbEntity
  8
치수문자_일반주서
 62
     0
370
    -2
100
AcDbLine
 10
431.11390057842
 20
-81.90631247662793
 30
0.0
 11
451.522623449967
 21
-81.90631247662785
 31
0.0
  0
LINE
  5
331
330
32C
100
AcDbEntity
  8
치수문자_일반주서
 62
     0
370
    -2
100
AcDbLine
 10
451.5226234499669
 20
-62.85631247662786
 30
0.0
 11
451.5226234499668
 21
-28.50608979232059
 31
0.0
  0
LINE
  5
332
330
32C
100
AcDbEntity
  8
치수문자_일반주서
 62
     0
370
    -2
100
AcDbLine
 10
451.5226234499669
 20
-62.85631247662786
 30
0.0
 11
451.522623449967
 21
-81.90631247662785
 31
0.0
  0
LINE
  5
333
330
32C
100
AcDbEntity
  8
치수문자_일반주서
 62
     0
370
    -2
100
AcDbLine
 10
451.5226234499669
 20
-59.55431247662786
 30
0.0
 11
451.5226234499669
 21
-56.25231247662786
 31
0.0
  0
LINE
  5
334
330
32C
100
AcDbEntity
  8
치수문자_일반주서
 62
     0
370
    -2
100
AcDbLine
 10
451.522623449967
 20
-85.20831247662784
 30
0.0
 11
451.522623449967
 21
-88.51031247662783
 31
0.0
  0
SOLID
  5
335
330
32C
100
AcDbEntity
  8
치수문자_일반주서
 62
     0
100
AcDbTrace
 10
450.9722901166336
 20
-59.55431247662786
 30
0.0
 11
452.0729567833003
 21
-59.55431247662786
 31
0.0
 12
451.5226234499669
 22
-62.85631247662786
 32
0.0
 13
451.5226234499669
 23
-62.85631247662786
 33
0.0
  0
SOLID
  5
336
330
32C
100
AcDbEntity
  8
치수문자_일반주서
 62
     0
100
AcDbTrace
 10
452.0729567833004
 20
-85.20831247662784
 30
0.0
 11
450.9722901166336
 21
-85.20831247662784
 31
0.0
 12
451.522623449967
 22
-81.90631247662785
 32
0.0
 13
451.522623449967
 23
-81.90631247662785
 33
0.0
  0
MTEXT
  5
337
330
32C
100
AcDbEntity
  8
치수문자_일반주서
 62
     0
100
AcDbMText
 10
447.1476234499669
 20
-42.28733979232061
 30
0.0
 40
3.5
 41
0.0
 71
     2
 72
     1
  1
\A1;%%c19.05 [3/4]
  7
SLDTEXTSTYLE0
 11
-2.983906501879685E-15
 21
1.0
 31
0.0
 73
     1
 44
1.0
  0
POINT
  5
338
330
32C
100
AcDbEntity
  8
Defpoints
 62
     0
100
AcDbPoint
 10
431.05140057842
 20
-62.85631247662793
 30
0.0
  0
POINT
  5
339
330
32C
100
AcDbEntity
  8
Defpoints
 62
     0
100
AcDbPoint
 10
431.05140057842
 20
-81.90631247662793
 30
0.0
  0
POINT
  5
33A
330
32C
100
AcDbEntity
  8
Defpoints
 62
     0
100
AcDbPoint
 10
451.522623449967
 20
-81.90631247662786
 30
0.0
  0
ENDBLK
  5
32E
330
32C
100
AcDbEntity
  8
0
100
AcDbBlockEnd
  0
BLOCK
  5
33C
330
33B
100
AcDbEntity
  8
0
100
AcDbBlockBegin
  2
*D17
 70
     1
 10
0.0
 20
0.0
 30
0.0
  3
*D17
  1
*D19
  0
LINE
  5
33E
330
33B
100
AcDbEntity
  8
치수문자_일반주서
 62
     0
370
    -2
100
AcDbLine
 10
431.05140057842
 20
-62.79381247662793
 30
0.0
 11
431.05140057842
 21
-46.58982073443532
 31
0.0
  0
LINE
  5
33F
330
33B
100
AcDbEntity
  8
치수문자_일반주서
 62
     0
370
    -2
100
AcDbLine
 10
389.77640057842
 20
-62.98736551426571
 30
0.0
 11
389.77640057842
 21
-46.58982073443532
 31
0.0
  0
LINE
  5
340
330
33B
100
AcDbEntity
  8
치수문자_일반주서
 62
     0
370
    -2
100
AcDbLine
 10
389.77640057842
 20
-46.58982073443532
 30
0.0
 11
348.9557456188563
 21
-46.58982073443532
 31
0.0
  0
LINE
  5
341
330
33B
100
AcDbEntity
  8
치수문자_일반주서
 62
     0
370
    -2
100
AcDbLine
 10
431.05140057842
 20
-46.58982073443532
 30
0.0
 11
389.77640057842
 21
-46.58982073443532
 31
0.0
  0
LINE
  5
342
330
33B
100
AcDbEntity
  8
치수문자_일반주서
 62
     0
370
    -2
100
AcDbLine
 10
434.35340057842
 20
-46.58982073443532
 30
0.0
 11
437.65540057842
 21
-46.58982073443532
 31
0.0
  0
LINE
  5
343
330
33B
100
AcDbEntity
  8
치수문자_일반주서
 62
     0
370
    -2
100
AcDbLine
 10
386.47440057842
 20
-46.58982073443532
 30
0.0
 11
383.17240057842
 21
-46.58982073443532
 31
0.0
  0
SOLID
  5
344
330
33B
100
AcDbEntity
  8
치수문자_일반주서
 62
     0
100
AcDbTrace
 10
434.35340057842
 20
-46.03948740110199
 30
0.0
 11
434.35340057842
 21
-47.14015406776866
 31
0.0
 12
431.05140057842
 22
-46.58982073443532
 32
0.0
 13
431.05140057842
 23
-46.58982073443532
 33
0.0
  0
SOLID
  5
345
330
33B
100
AcDbEntity
  8
치수문자_일반주서
 62
     0
100
AcDbTrace
 10
386.47440057842
 20
-47.14015406776866
 30
0.0
 11
386.47440057842
 21
-46.03948740110199
 31
0.0
 12
389.77640057842
 22
-46.58982073443532
 32
0.0
 13
389.77640057842
 23
-46.58982073443532
 33
0.0
  0
MTEXT
  5
346
330
33B
100
AcDbEntity
  8
치수문자_일반주서
 62
     0
100
AcDbMText
 10
363.8307456188563
 20
-42.21482073443532
 30
0.0
 40
3.5
 41
0.0
 71
     2
 72
     1
  1
\A1;41.28 [1 5/8]
  7
SLDTEXTSTYLE0
 73
     1
 44
1.0
  0
POINT
  5
347
330
33B
100
AcDbEntity
  8
Defpoints
 62
     0
100
AcDbPoint
 10
431.05140057842
 20
-62.85631247662793
 30
0.0
  0
POINT
  5
348
330
33B
100
AcDbEntity
  8
Defpoints
 62
     0
100
AcDbPoint
 10
389.77640057842
 20
-63.04986551426571
 30
0.0
  0
POINT
  5
349
330
33B
100
AcDbEntity
  8
Defpoints
 62
     0
100
AcDbPoint
 10
389.77640057842
 20
-46.58982073443532
 30
0.0
  0
ENDBLK
  5
33D
330
33B
100
AcDbEntity
  8
0
100
AcDbBlockEnd
  0
BLOCK
  5
34B
330
34A
100
AcDbEntity
  8
0
100
AcDbBlockBegin
  2
*D18
 70
     1
 10
0.0
 20
0.0
 30
0.0
  3
*D18
  1
*D20
  0
LINE
  5
34D
330
34A
100
AcDbEntity
  8
치수문자_일반주서
 62
     0
370
    -2
100
AcDbLine
 10
431.05140057842
 20
-62.82883979232067
 30
0.0
 11
431.05140057842
 21
-30.59974857115577
 31
0.0
  0
LINE
  5
34E
330
34A
100
AcDbEntity
  8
치수문자_일반주서
 62
     0
370
    -2
100
AcDbLine
 10
288.17640057842
 20
-64.69881247662795
 30
0.0
 11
288.17640057842
 21
-30.59974857115577
 31
0.0
  0
LINE
  5
34F
330
34A
100
AcDbEntity
  8
치수문자_일반주서
 62
     0
370
    -2
100
AcDbLine
 10
427.74940057842
 20
-30.59974857115577
 30
0.0
 11
291.47840057842
 21
-30.59974857115577
 31
0.0
  0
SOLID
  5
350
330
34A
100
AcDbEntity
  8
치수문자_일반주서
 62
     0
100
AcDbTrace
 10
427.74940057842
 20
-31.15008190448911
 30
0.0
 11
427.74940057842
 21
-30.04941523782244
 31
0.0
 12
431.05140057842
 22
-30.59974857115577
 32
0.0
 13
431.05140057842
 23
-30.59974857115577
 33
0.0
  0
SOLID
  5
351
330
34A
100
AcDbEntity
  8
치수문자_일반주서
 62
     0
100
AcDbTrace
 10
291.47840057842
 20
-30.04941523782244
 30
0.0
 11
291.47840057842
 21
-31.15008190448911
 31
0.0
 12
288.17640057842
 22
-30.59974857115577
 32
0.0
 13
288.17640057842
 23
-30.59974857115577
 33
0.0
  0
MTEXT
  5
352
330
34A
100
AcDbEntity
  8
치수문자_일반주서
 62
     0
100
AcDbMText
 10
357.9520426176506
 20
-26.22474857115577
 30
0.0
 40
3.5
 41
0.0
 71
     2
 72
     1
  1
\A1;142.88 [5 5/8]
  7
SLDTEXTSTYLE0
 73
     1
 44
1.0
  0
POINT
  5
353
330
34A
100
AcDbEntity
  8
Defpoints
 62
     0
100
AcDbPoint
 10
431.05140057842
 20
-62.89133979232067
 30
0.0
  0
POINT
  5
354
330
34A
100
AcDbEntity
  8
Defpoints
 62
     0
100
AcDbPoint
 10
288.17640057842
 20
-64.76131247662795
 30
0.0
  0
POINT
  5
355
330
34A
100
AcDbEntity
  8
Defpoints
 62
     0
100
AcDbPoint
 10
288.17640057842
 20
-30.59974857115577
 30
0.0
  0
ENDBLK
  5
34C
330
34A
100
AcDbEntity
  8
0
100
AcDbBlockEnd
  0
ENDSEC
  0
SECTION
  2
ENTITIES
  0
LINE
  5
96
330
1F
100
AcDbEntity
  8
0
  6
Continuous
 62
     1
370
    15
100
AcDbLine
 10
67.89022478836777
 20
2.823242439515939
 30
0.0
 11
67.82703188051939
 21
2.857404530685533
 31
0.0
  0
LINE
  5
97
330
1F
100
AcDbEntity
  8
0
  6
Continuous
 62
     1
370
    15
100
AcDbLine
 10
52.74609558460729
 20
9.524999999999997
 30
0.0
 11
46.93797694754807
 21
9.524999999999997
 31
0.0
  0
LINE
  5
98
330
1F
100
AcDbEntity
  8
0
  6
Continuous
 62
     1
370
    15
100
AcDbLine
 10
46.93797694754794
 20
-9.525000000000007
 30
0.0
 11
52.74609558460729
 21
-9.525000000000007
 31
0.0
  0
LINE
  5
99
330
1F
100
AcDbEntity
  8
외형선
  6
Continuous
370
    15
100
AcDbLine
 10
-29.66235173148851
 20
-9.525000000000004
 30
0.0
 11
29.66235173148853
 21
-9.525000000000004
 31
0.0
  0
LINE
  5
9A
330
1F
100
AcDbEntity
  8
외형선
  6
Continuous
370
    15
100
AcDbLine
 10
29.66235173148853
 20
9.524999999999993
 30
0.0
 11
7.696199999999973
 21
9.524999999999993
 31
0.0
  0
LINE
  5
9D
330
1F
100
AcDbEntity
  8
0
  6
Continuous
 62
     1
370
    15
100
AcDbLine
 10
71.43750000000001
 20
-8.626614851660989
 30
0.0
 11
71.43750000000001
 21
0.8161148516610905
 31
0.0
  0
SPLINE
  5
9E
330
1F
100
AcDbEntity
  8
0
  6
Continuous
 62
     1
370
    15
100
AcDbSpline
210
0.0
220
0.0
230
1.0
 70
     8
 71
     3
 72
    58
 73
    54
 74
     0
 42
0.000000001
 43
0.00000001
 40
0.0
 40
0.0
 40
0.0
 40
0.0
 40
0.0625000000000037
 40
0.0625000000000037
 40
0.0937500000000048
 40
0.0937500000000048
 40
0.1250000000000059
 40
0.1250000000000059
 40
0.1562500000000069
 40
0.1562500000000069
 40
0.187500000000008
 40
0.187500000000008
 40
0.2500000000000087
 40
0.2500000000000087
 40
0.2812500000000083
 40
0.2812500000000083
 40
0.3125000000000078
 40
0.3125000000000078
 40
0.3437500000000074
 40
0.3437500000000074
 40
0.375000000000007
 40
0.375000000000007
 40
0.4375000000000062
 40
0.4375000000000062
 40
0.4687500000000058
 40
0.4687500000000058
 40
0.5000000000000053
 40
0.5000000000000053
 40
0.531250000000005
 40
0.531250000000005
 40
0.5625000000000046
 40
0.5625000000000046
 40
0.6250000000000037
 40
0.6250000000000037
 40
0.6562500000000032
 40
0.6562500000000032
 40
0.6875000000000029
 40
0.6875000000000029
 40
0.7187500000000024
 40
0.7187500000000024
 40
0.7500000000000021
 40
0.7500000000000021
 40
0.812500000000002
 40
0.812500000000002
 40
0.8750000000000019
 40
0.8750000000000019
 40
0.9062500000000014
 40
0.9062500000000014
 40
0.937500000000001
 40
0.937500000000001
 40
0.9687500000000004
 40
0.9687500000000004
 40
1.0
 40
1.0
 40
1.0
 40
1.0
 10
71.43750000000006
 20
-8.626614851660987
 30
0.0
 10
70.5812774521228
 20
-8.416436300352311
 30
0.0
 10
69.71573955791543
 20
-8.17023292440364
 30
0.0
 10
68.42711191650768
 20
-7.753452351307297
 30
0.0
 10
67.99945101321546
 20
-7.606707245003471
 30
0.0
 10
67.13889886341408
 20
-7.297426413323089
 30
0.0
 10
66.7075445700097
 20
-7.135049795215469
 30
0.0
 10
65.8466325012443
 20
-6.796306062188433
 30
0.0
 10
65.41857405304896
 20
-6.620156602053473
 30
0.0
 10
64.56010911173223
 20
-6.254441391661006
 30
0.0
 10
64.12908311023484
 20
-6.064768599425807
 30
0.0
 10
62.83653896278462
 20
-5.477839402657755
 30
0.0
 10
61.98095802018926
 20
-5.063555258014662
 30
0.0
 10
60.68880700079775
 20
-4.412351865436702
 30
0.0
 10
60.25755094110119
 20
-4.190464946911314
 30
0.0
 10
59.39791068044727
 20
-3.739104056824866
 30
0.0
 10
58.97044820181246
 20
-3.509805824634982
 30
0.0
 10
58.11032132912239
 20
-3.043605956943443
 30
0.0
 10
57.67899998837136
 20
-2.806935256344925
 30
0.0
 10
56.81779345006751
 20
-2.328613582090439
 30
0.0
 10
56.3891384372314
 20
-2.087197180791377
 30
0.0
 10
55.10246849929069
 20
-1.357193973977199
 30
0.0
 10
54.23679780490797
 20
-0.8614992408533863
 30
0.0
 10
52.95011981212369
 20
-0.117968619602436
 30
0.0
 10
52.52147000582237
 20
0.1302006182344539
 30
0.0
 10
51.66026542919815
 20
0.6265194898348038
 30
0.0
 10
51.22894371924467
 20
0.8744301817469895
 30
0.0
 10
50.36881341930246
 20
1.367484257892489
 30
0.0
 10
49.94135019490682
 20
1.612374400212085
 30
0.0
 10
49.08171384968186
 20
2.099270358102498
 30
0.0
 10
48.65045840583417
 20
2.341096202968382
 30
0.0
 10
47.35830518028084
 20
3.058369728226154
 30
0.0
 10
46.50272548397909
 20
3.524952091185641
 30
0.0
 10
45.21018207400455
 20
4.202115866052741
 30
0.0
 10
44.77915496574238
 20
4.423805002669729
 30
0.0
 10
43.92068513937522
 20
4.857121857881
 30
0.0
 10
43.49263040788119
 20
5.068866449580644
 30
0.0
 10
42.63172079120255
 20
5.482381878485528
 30
0.0
 10
42.20036637533632
 20
5.683896244166008
 30
0.0
 10
41.33981128732812
 20
6.074596244077233
 30
0.0
 10
40.91214814694176
 20
6.263568731465284
 30
0.0
 10
39.62352710945538
 20
6.811629857479841
 30
0.0
 10
38.75798822087735
 20
7.151496058669347
 30
0.0
 10
37.04553046153518
 20
7.768014338214929
 30
0.0
 10
36.18000622614518
 20
8.046883724468726
 30
0.0
 10
34.89137198628221
 20
8.413327548309667
 30
0.0
 10
34.4637133089181
 20
8.526870994133077
 30
0.0
 10
33.60316410098851
 20
8.736819177093626
 30
0.0
 10
33.17180993189406
 20
8.833069263490529
 30
0.0
 10
32.31089541471202
 20
9.007231787753803
 30
0.0
 10
31.88283323865509
 20
9.085068890884347
 30
0.0
 10
31.02437318602421
 20
9.22226204782362
 30
0.0
 10
30.5933482931347
 20
9.281624943734315
 30
0.0
 10
30.1625
 20
9.331446962362236
 30
0.0
  0
SPLINE
  5
9F
330
1F
100
AcDbEntity
  8
0
  6
Continuous
 62
     1
370
    15
100
AcDbSpline
210
0.0
220
0.0
230
1.0
 70
     8
 71
     3
 72
    19
 73
    15
 74
     0
 42
0.000000001
 43
0.00000001
 40
0.0
 40
0.0
 40
0.0
 40
0.0
 40
0.0836210794141825
 40
0.1672375504349137
 40
0.2508499469019145
 40
0.3344588044686516
 40
0.4180646603657857
 40
0.5016680531631134
 40
0.5852695225302379
 40
0.6688696089961895
 40
0.7564542727466084
 40
0.8440389219519938
 40
0.9316235580257014
 40
1.0
 40
1.0
 40
1.0
 40
1.0
 10
71.43750000000001
 20
0.8161148516610895
 30
0.0
 10
70.47422755371012
 20
1.367718414162784
 30
0.0
 10
68.5477357474869
 20
2.470895140057923
 30
0.0
 10
65.65811284426175
 20
4.043401906382666
 30
0.0
 10
62.7686562289659
 20
5.49396403026028
 30
0.0
 10
59.87934733523325
 20
6.775944874825986
 30
0.0
 10
56.99016151537369
 20
7.850758447696914
 30
0.0
 10
54.10108232988163
 20
8.685323801447678
 30
0.0
 10
51.21206623991225
 20
9.25434971728355
 30
0.0
 10
48.27726280101739
 20
9.544270232178743
 30
0.0
 10
45.29633962515865
 20
9.532604667468318
 30
0.0
 10
42.26958259369316
 20
9.19248789627796
 30
0.0
 10
39.46407546289804
 20
8.619883437138554
 30
0.0
 10
37.66749598413398
 20
8.040151858524148
 30
0.0
 10
36.87983976875365
 20
7.785985991360836
 30
0.0
  0
SPLINE
  5
A0
330
1F
100
AcDbEntity
  8
0
  6
Continuous
 62
     1
370
    15
100
AcDbSpline
210
0.0
220
0.0
230
1.0
 70
     8
 71
     3
 72
    19
 73
    15
 74
     0
 42
0.000000001
 43
0.00000001
 40
0.0
 40
0.0
 40
0.0
 40
0.0
 40
0.0885817990600039
 40
0.1771645897776004
 40
0.2657489454564256
 40
0.3543354387005551
 40
0.4429246411590582
 40
0.5315171232714694
 40
0.6201134540144118
 40
0.708714200649616
 40
0.801521794153409
 40
0.8943294835622498
 40
0.9871372703476409
 40
1.0
 40
1.0
 40
1.0
 40
1.0
 10
30.16249999999997
 20
-1.910424714198652
 30
0.0
 10
31.12546945332394
 20
-2.449484341935034
 30
0.0
 10
33.05141914024482
 20
-3.527609632085107
 30
0.0
 10
35.94037327319026
 20
-5.021229886285886
 30
0.0
 10
38.82938845417686
 20
-6.365458969717569
 30
0.0
 10
41.71848731844365
 20
-7.51384440702054
 30
0.0
 10
44.60769223373165
 20
-8.432717513440624
 30
0.0
 10
47.49702528008723
 20
-9.09343043280515
 30
0.0
 10
50.38650965871955
 20
-9.476415515204307
 30
0.0
 10
53.32184426742916
 20
-9.569290679673655
 30
0.0
 10
56.30300760800182
 20
-9.360896763651299
 30
0.0
 10
59.32989635160934
 20
-8.810363150057956
 30
0.0
 10
61.48766374847861
 20
-8.272730693228544
 30
0.0
 10
62.63646693013038
 20
-7.853822838326149
 30
0.0
 10
62.7763048456388
 20
-7.802831335033614
 30
0.0
  0
SPLINE
  5
A1
330
1F
100
AcDbEntity
  8
외형선
  6
Continuous
370
    15
100
AcDbSpline
210
0.0
220
0.0
230
1.0
 70
    24
 71
     3
 72
    20
 73
    16
 74
     0
 42
0.000000001
 43
0.00000001
 40
0.0
 40
0.0
 40
0.0
 40
0.0
 40
0.0801796157830858
 40
0.1557896198252426
 40
0.2335923191068052
 40
0.3092023231489603
 40
0.3870050224305236
 40
0.4626150264726789
 40
0.5404177257542422
 40
0.6160277297963996
 40
0.693830429077964
 40
0.7694404331201193
 40
0.8472431324016827
 40
0.922853136443829
 40
1.0
 40
1.0
 40
1.0
 40
1.0
 10
30.16250000000003
 20
8.100492492871242
 30
0.0
 10
30.16250000000003
 20
7.868038452783329
 30
0.0
 10
30.16250000000003
 20
7.416378436974461
 30
0.0
 10
30.16249999999997
 20
6.598399286793746
 30
0.0
 10
30.1624999999999
 20
5.725137577527492
 30
0.0
 10
30.16250000000007
 20
4.785866042615939
 30
0.0
 10
30.16249999999977
 20
3.827126717296014
 30
0.0
 10
30.16250000000003
 20
2.857976949685761
 30
0.0
 10
30.16250000000004
 20
1.923530667991377
 30
0.0
 10
30.16249999999996
 20
1.033283973585733
 30
0.0
 10
30.16250000000007
 20
0.2287576061558272
 30
0.0
 10
30.16249999999994
 20
-0.4828220897768902
 30
0.0
 10
30.16250000000007
 20
-1.064551724777159
 30
0.0
 10
30.16249999999993
 20
-1.523915942325099
 30
0.0
 10
30.16249999999999
 20
-1.700020205076862
 30
0.0
 10
30.16250000000002
 20
-1.788958213192447
 30
0.0
  0
SPLINE
  5
A2
330
1F
100
AcDbEntity
  8
0
  6
Continuous
 62
     1
370
    15
100
AcDbSpline
210
0.0
220
0.0
230
1.0
 70
     8
 71
     3
 72
    58
 73
    54
 74
     0
 42
0.000000001
 43
0.00000001
 40
0.0
 40
0.0
 40
0.0
 40
0.0
 40
0.0625000000000017
 40
0.0625000000000017
 40
0.0937500000000017
 40
0.0937500000000017
 40
0.1250000000000018
 40
0.1250000000000018
 40
0.1562500000000019
 40
0.1562500000000019
 40
0.1875000000000019
 40
0.1875000000000019
 40
0.2500000000000036
 40
0.2500000000000036
 40
0.2812500000000037
 40
0.2812500000000037
 40
0.3125000000000037
 40
0.3125000000000037
 40
0.3437500000000038
 40
0.3437500000000038
 40
0.3750000000000038
 40
0.3750000000000038
 40
0.4375000000000039
 40
0.4375000000000039
 40
0.4687500000000039
 40
0.4687500000000039
 40
0.500000000000004
 40
0.500000000000004
 40
0.531250000000004
 40
0.531250000000004
 40
0.5625000000000041
 40
0.5625000000000041
 40
0.6250000000000042
 40
0.6250000000000042
 40
0.6562500000000042
 40
0.6562500000000042
 40
0.6875000000000043
 40
0.6875000000000043
 40
0.7187500000000043
 40
0.7187500000000043
 40
0.7500000000000043
 40
0.7500000000000043
 40
0.8125000000000037
 40
0.8125000000000037
 40
0.875000000000003
 40
0.875000000000003
 40
0.9062500000000023
 40
0.9062500000000023
 40
0.9375000000000016
 40
0.9375000000000016
 40
0.9687500000000009
 40
0.9687500000000009
 40
1.0
 40
1.0
 40
1.0
 40
1.0
 10
71.4375
 20
-9.524999999999991
 30
0.0
 10
70.5812774521228
 20
-9.44749598524306
 30
0.0
 10
69.71573955791546
 20
-9.366068701962668
 30
0.0
 10
68.42711191650763
 20
-9.187537458486307
 30
0.0
 10
67.99945101321538
 20
-9.118716338786584
 30
0.0
 10
67.13889886341397
 20
-8.962361138290678
 30
0.0
 10
66.70754457000976
 20
-8.874889517456625
 30
0.0
 10
65.84663250124427
 20
-8.682152251621044
 30
0.0
 10
65.41857405304899
 20
-8.577024519006054
 30
0.0
 10
64.56010911173226
 20
-8.349360532776942
 30
0.0
 10
64.12908311023487
 20
-8.226744642141274
 30
0.0
 10
62.83653896278456
 20
-7.834134546776868
 30
0.0
 10
61.98095802018921
 20
-7.540012493388425
 30
0.0
 10
60.68880700079775
 20
-7.053614599590411
 30
0.0
 10
60.25755094110113
 20
-6.884043642235071
 30
0.0
 10
59.39791068044721
 20
-6.531608251105289
 30
0.0
 10
58.97044820181246
 20
-6.348894224281838
 30
0.0
 10
58.11032132912239
 20
-5.970176317086228
 30
0.0
 10
57.67899998837142
 20
-5.774347266104019
 30
0.0
 10
56.8177934500674
 20
-5.371528456943382
 30
0.0
 10
56.38913843723131
 20
-5.164743718276086
 30
0.0
 10
55.10246849929072
 20
-4.529171976137239
 30
0.0
 10
54.23679780490794
 20
-4.083896999548688
 30
0.0
 10
52.95011981212369
 20
-3.395815777223151
 30
0.0
 10
52.52147000582241
 20
-3.162813251272489
 30
0.0
 10
51.66026542919811
 20
-2.690127382871669
 30
0.0
 10
51.22894371924465
 20
-2.450664380445632
 30
0.0
 10
50.36881341930244
 20
-1.967699082075455
 30
0.0
 10
49.94135019490685
 20
-1.724456918511396
 30
0.0
 10
49.08171384968182
 20
-1.234070606250357
 30
0.0
 10
48.65045840583413
 20
-0.9870954990886761
 30
0.0
 10
47.35830518028078
 20
-0.2442114496536399
 30
0.0
 10
46.50272548397905
 20
0.2529353808153806
 30
0.0
 10
45.21018207400455
 20
0.9958406432720096
 30
0.0
 10
44.77915496574234
 20
1.242744919423192
 30
0.0
 10
43.92068513937515
 20
1.732839417807949
 30
0.0
 10
43.49263040788115
 20
1.976150836700748
 30
0.0
 10
42.63172079120251
 20
2.459156367247022
 30
0.0
 10
42.20036637533627
 20
2.698562453426309
 30
0.0
 10
41.33981128732806
 20
3.170989469551726
 30
0.0
 10
40.91214814694169
 20
3.403738447996243
 30
0.0
 10
39.62352710945538
 20
4.091909421331647
 30
0.0
 10
38.75798822087734
 20
4.536939504940038
 30
0.0
 10
37.04553046153512
 20
5.383396145512061
 30
0.0
 10
36.18000622614517
 20
5.78786677220191
 30
0.0
 10
34.89137198628219
 20
6.355277212852203
 30
0.0
 10
34.46371330891805
 20
6.537871263391589
 30
0.0
 10
33.60316410098851
 20
6.890111642431796
 30
0.0
 10
33.17180993189402
 20
7.059525007627182
 30
0.0
 10
32.31089541471198
 20
7.383379533418579
 30
0.0
 10
31.88283323865503
 20
7.537653282439149
 30
0.0
 10
31.0243731860241
 20
7.830847365615242
 30
0.0
 10
30.59334829313467
 20
7.969816925726988
 30
0.0
 10
30.1625
 20
8.100492492871245
 30
0.0
  0
LINE
  5
A3
330
1F
100
AcDbEntity
  8
0
  6
Continuous
 62
     1
370
    15
100
AcDbLine
 10
71.4375
 20
-9.524999999999991
 30
0.0
 11
71.43750000000001
 21
-8.626614851660989
 31
0.0
  0
LINE
  5
A4
330
1F
100
AcDbEntity
  8
외형선
  6
Continuous
370
    15
100
AcDbLine
 10
30.16250000000003
 20
8.100492492871242
 30
0.0
 11
30.16250000000002
 21
9.331446962362238
 31
0.0
  0
SPLINE
  5
A5
330
1F
100
AcDbEntity
  8
0
  6
Continuous
 62
     1
370
    15
100
AcDbSpline
210
0.0
220
0.0
230
1.0
 70
     8
 71
     3
 72
    14
 73
    10
 74
     0
 42
0.000000001
 43
0.00000001
 40
0.0
 40
0.0
 40
0.0
 40
0.0
 40
0.0283567426295567
 40
0.1902968586073304
 40
0.3522371419299732
 40
0.5141775951651119
 40
0.6761182208789223
 40
0.8380590216361352
 40
0.9999999999999999
 40
0.9999999999999999
 40
0.9999999999999999
 40
0.9999999999999999
 10
52.74609558460729
 20
9.503151243181613
 30
0.0
 10
52.92276922949297
 20
9.509997177255364
 30
0.0
 10
54.10839340571316
 20
9.555938975489628
 30
0.0
 10
56.30300976719643
 20
9.339531420273518
 30
0.0
 10
59.32989576406737
 20
8.830302242537055
 30
0.0
 10
62.35679236781193
 20
7.997786306943242
 30
0.0
 10
65.38369103060242
 20
6.901589898827671
 30
0.0
 10
68.41059405594166
 20
5.581490432234406
 30
0.0
 10
70.42853098312273
 20
4.552637097614764
 30
0.0
 10
71.43750000000006
 20
4.038210148209425
 30
0.0
  0
LINE
  5
A6
330
1F
100
AcDbEntity
  8
0
  6
Continuous
 62
     1
370
    15
100
AcDbLine
 10
71.43750000000001
 20
0.8161148516610902
 30
0.0
 11
71.43750000000001
 21
4.038210148209425
 31
0.0
  0
SPLINE
  5
A7
330
1F
100
AcDbEntity
  8
0
  6
Continuous
 62
     1
370
    15
100
AcDbSpline
210
0.0
220
0.0
230
1.0
 70
     8
 71
     3
 72
    13
 73
     9
 74
     0
 42
0.000000001
 43
0.00000001
 40
0.0
 40
0.0
 40
0.0
 40
0.0
 40
0.0978586936593512
 40
0.2782870032073622
 40
0.4587152857035272
 40
0.6391435440596517
 40
0.8195717811877458
 40
1.0
 40
1.0
 40
1.0
 40
1.0
 10
46.93797694754794
 20
-9.485239608338457
 30
0.0
 10
46.39076814871459
 20
-9.491581295080419
 30
0.0
 10
44.83463561657469
 20
-9.509615553792722
 30
0.0
 10
42.2695796150941
 20
-9.187798561432443
 30
0.0
 10
39.24280905692872
 20
-8.558541534782437
 30
0.0
 10
36.21603899086571
 20
-7.623233857423439
 30
0.0
 10
33.18926934704955
 20
-6.448265457079913
 30
0.0
 10
31.17142308154353
 20
-5.48992385243436
 30
0.0
 10
30.16250000000002
 20
-5.010753074432656
 30
0.0
  0
LINE
  5
A8
330
1F
100
AcDbEntity
  8
외형선
  6
Continuous
370
    15
100
AcDbLine
 10
30.16250000000003
 20
-5.010753074432657
 30
0.0
 11
30.16249999999999
 21
-1.910424714198648
 31
0.0
  0
SPLINE
  5
A9
330
1F
100
AcDbEntity
  8
0
  6
Continuous
 62
     1
370
    15
100
AcDbSpline
210
0.0
220
0.0
230
1.0
 70
     8
 71
     3
 72
    10
 73
     6
 74
     0
 42
0.000000001
 43
0.00000001
 40
0.0
 40
0.0
 40
0.0
 40
0.0
 40
0.3336467828353751
 40
0.6672751782538474
 40
1.0
 40
1.0
 40
1.0
 40
1.0
 10
71.4375
 20
9.52500000000001
 30
0.0
 10
70.47422764860299
 20
9.413331504997323
 30
0.0
 10
68.54773603216023
 20
9.260053370105586
 30
0.0
 10
65.66067344326478
 20
8.685932044428878
 30
0.0
 10
63.73689149664915
 20
8.096932010530168
 30
0.0
 10
62.77630484563878
 20
7.802831335033605
 30
0.0
  0
LINE
  5
AA
330
1F
100
AcDbEntity
  8
0
  6
Continuous
 62
     1
370
    15
100
AcDbLine
 10
71.43750000000001
 20
4.038210148209425
 30
0.0
 11
71.4375
 21
9.52500000000001
 31
0.0
  0
SPLINE
  5
AB
330
1F
100
AcDbEntity
  8
0
  6
Continuous
 62
     1
370
    15
100
AcDbSpline
210
0.0
220
0.0
230
1.0
 70
     8
 71
     3
 72
    10
 73
     6
 74
     0
 42
0.000000001
 43
0.00000001
 40
0.0
 40
0.0
 40
0.0
 40
0.0
 40
0.4300682672228105
 40
0.8601413489838972
 40
0.9999999999999999
 40
0.9999999999999999
 40
0.9999999999999999
 40
0.9999999999999999
 10
30.16249999999994
 20
-9.331446962362238
 30
0.0
 10
31.12546961243913
 20
-9.189236867800647
 30
0.0
 10
33.05141961759215
 20
-8.90481508666058
 30
0.0
 10
35.29053170986487
 20
-8.346546338822465
 30
0.0
 10
36.56667902969522
 20
-7.896440029340501
 30
0.0
 10
36.87983976875354
 20
-7.785985991360846
 30
0.0
  0
SPLINE
  5
AC
330
1F
100
AcDbEntity
  8
외형선
  6
Continuous
370
    15
100
AcDbSpline
210
0.0
220
0.0
230
1.0
 70
    24
 71
     3
 72
    12
 73
     8
 74
     0
 42
0.000000001
 43
0.00000001
 40
0.0
 40
0.0
 40
0.0
 40
0.0
 40
0.1578862774032963
 40
0.3671750908857669
 40
0.5825332941375144
 40
0.7883839658742484
 40
1.0
 40
1.0
 40
1.0
 40
1.0
 10
30.1625
 20
-5.110010203040032
 30
0.0
 10
30.16250000000004
 20
-5.295542662536097
 30
0.0
 10
30.16250000000004
 20
-5.727010797690854
 30
0.0
 10
30.16249999999994
 20
-6.519852015687
 30
0.0
 10
30.16250000000006
 20
-7.427678717657983
 30
0.0
 10
30.16250000000002
 20
-8.379765087350284
 30
0.0
 10
30.16249999999997
 20
-9.011312373797374
 30
0.0
 10
30.16249999999996
 20
-9.331446962362232
 30
0.0
  0
LINE
  5
AD
330
1F
100
AcDbEntity
  8
외형선
  6
Continuous
370
    15
100
AcDbLine
 10
29.66235173148853
 20
9.385003196160438
 30
0.0
 11
29.66235173148853
 21
9.524999999999993
 31
0.0
  0
SPLINE
  5
AE
330
1F
100
AcDbEntity
  8
외형선
  6
Continuous
370
    15
100
AcDbSpline
210
0.0
220
0.0
230
1.0
 70
     8
 71
     3
 72
     8
 73
     4
 74
     0
 42
0.000000001
 43
0.00000001
 40
0.0
 40
0.0
 40
0.0
 40
0.0
 40
1.0
 40
1.0
 40
1.0
 40
1.0
 10
30.1625
 20
9.331446962362236
 30
0.0
 10
29.99571899198857
 20
9.350733023419767
 30
0.0
 10
29.82896470815832
 20
9.368591240140274
 30
0.0
 10
29.66235173148855
 20
9.385010776652505
 30
0.0
  0
SPLINE
  5
AF
330
1F
100
AcDbEntity
  8
외형선
  6
Continuous
370
    15
100
AcDbSpline
210
0.0
220
0.0
230
1.0
 70
     8
 71
     3
 72
     8
 73
     4
 74
     0
 42
0.000000001
 43
0.00000001
 40
0.0
 40
0.0
 40
0.0
 40
0.0
 40
1.0
 40
1.0
 40
1.0
 40
1.0
 10
30.16250000000004
 20
8.100492492871233
 30
0.0
 10
29.99571899198859
 20
8.15107689382643
 30
0.0
 10
29.82896470815833
 20
8.200419993525284
 30
0.0
 10
29.66235173148853
 20
8.248489128721879
 30
0.0
  0
LINE
  5
B0
330
1F
100
AcDbEntity
  8
외형선
  6
Continuous
370
    15
100
AcDbLine
 10
29.66235173148853
 20
-1.627064844454141
 30
0.0
 11
29.66235173148855
 21
8.2484999324243
 31
0.0
  0
SPLINE
  5
B1
330
1F
100
AcDbEntity
  8
외형선
  6
Continuous
370
    15
100
AcDbSpline
210
0.0
220
0.0
230
1.0
 70
     8
 71
     3
 72
     8
 73
     4
 74
     0
 42
0.000000001
 43
0.00000001
 40
0.0
 40
0.0
 40
0.0
 40
0.0
 40
1.0
 40
1.0
 40
1.0
 40
1.0
 10
30.1625
 20
-1.910424714198647
 30
0.0
 10
29.99571899198857
 20
-1.816222176651004
 30
0.0
 10
29.82896470815832
 20
-1.721732567748139
 30
0.0
 10
29.66235173148855
 20
-1.627021119136637
 30
0.0
  0
SPLINE
  5
B2
330
1F
100
AcDbEntity
  8
외형선
  6
Continuous
370
    15
100
AcDbSpline
210
0.0
220
0.0
230
1.0
 70
     8
 71
     3
 72
     8
 73
     4
 74
     0
 42
0.000000001
 43
0.00000001
 40
0.0
 40
0.0
 40
0.0
 40
0.0
 40
1.0
 40
1.0
 40
1.0
 40
1.0
 10
30.16250000000004
 20
-5.010753074432676
 30
0.0
 10
29.99571899198859
 20
-4.928977230740688
 30
0.0
 10
29.82896470815833
 20
-4.846439599279853
 30
0.0
 10
29.66235173148853
 20
-4.763197675234217
 30
0.0
  0
LINE
  5
B3
330
1F
100
AcDbEntity
  8
외형선
  6
Continuous
370
    15
100
AcDbLine
 10
29.66235173148853
 20
-9.525000000000004
 30
0.0
 11
29.66235173148855
 21
-4.763178966278297
 31
0.0
  0
SPLINE
  5
B4
330
1F
100
AcDbEntity
  8
외형선
  6
Continuous
370
    15
100
AcDbSpline
210
0.0
220
0.0
230
1.0
 70
     8
 71
     3
 72
     8
 73
     4
 74
     0
 42
0.000000001
 43
0.00000001
 40
0.0
 40
0.0
 40
0.0
 40
0.0
 40
1.0
 40
1.0
 40
1.0
 40
1.0
 10
30.1625
 20
-9.331446962362236
 30
0.0
 10
29.99571899198857
 20
-9.350733023419767
 30
0.0
 10
29.82896470815832
 20
-9.368591240140274
 30
0.0
 10
29.66235173148855
 20
-9.385010776652505
 30
0.0
  0
SPLINE
  5
B9
330
1F
100
AcDbEntity
  8
외형선
  6
Continuous
370
    15
100
AcDbSpline
210
0.0
220
0.0
230
1.0
 70
    24
 71
     3
 72
    20
 73
    16
 74
     0
 42
0.000000001
 43
0.00000001
 40
0.0
 40
0.0
 40
0.0
 40
0.0
 40
0.0696237825916024
 40
0.1472978918302947
 40
0.2227829298526193
 40
0.3004570390913112
 40
0.3759420771136371
 40
0.4536161863523301
 40
0.5291012243746556
 40
0.6067753336133476
 40
0.6822603716356687
 40
0.7599344808743568
 40
0.8354195188966863
 40
0.9130936281353834
 40
1.0
 40
1.0
 40
1.0
 40
1.0
 10
30.16249999999997
 20
-1.788958213192447
 30
0.0
 10
30.16249999999994
 20
-1.712864678379912
 30
0.0
 10
30.16249999999992
 20
-1.551879209872008
 30
0.0
 10
30.16250000000016
 20
-1.120113543689517
 30
0.0
 10
30.16250000000002
 20
-0.547061384907479
 30
0.0
 10
30.16249999999994
 20
0.1465268114717041
 30
0.0
 10
30.16249999999999
 20
0.9488991785089929
 30
0.0
 10
30.16249999999994
 20
1.824138284954602
 30
0.0
 10
30.16250000000006
 20
2.762876733668348
 30
0.0
 10
30.16250000000002
 20
3.721796723623909
 30
0.0
 10
30.16249999999993
 20
4.69076542118718
 30
0.0
 10
30.16249999999997
 20
5.625764053573951
 30
0.0
 10
30.16249999999993
 20
6.51400840955326
 30
0.0
 10
30.16250000000007
 20
7.366653748247631
 30
0.0
 10
30.16250000000004
 20
7.846899662565119
 30
0.0
 10
30.16250000000003
 20
8.100492492871274
 30
0.0
  0
SPLINE
  5
BA
330
1F
100
AcDbEntity
  8
외형선
  6
Continuous
370
    15
100
AcDbSpline
210
0.0
220
0.0
230
1.0
 70
    24
 71
     3
 72
    12
 73
     8
 74
     0
 42
0.000000001
 43
0.00000001
 40
0.0
 40
0.0
 40
0.0
 40
0.0
 40
0.1969065156236108
 40
0.39882715225792
 40
0.6083241814318783
 40
0.8238966386442177
 40
1.0
 40
1.0
 40
1.0
 40
1.0
 10
30.16249999999996
 20
-9.331446962362234
 30
0.0
 10
30.16249999999999
 20
-9.034008237406846
 30
0.0
 10
30.16250000000006
 20
-8.431556666571375
 30
0.0
 10
30.16249999999997
 20
-7.515786317936191
 30
0.0
 10
30.16249999999992
 20
-6.60857130802927
 30
0.0
 10
30.16250000000009
 20
-5.785388198430581
 30
0.0
 10
30.16250000000006
 20
-5.319479698613575
 30
0.0
 10
30.16250000000003
 20
-5.110000203040033
 30
0.0
  0
LINE
  5
BB
330
1F
100
AcDbEntity
  8
중심선
100
AcDbLine
 10
-74.4375
 20
-0.0000000000000089
 30
0.0
 11
74.43750000000001
 21
0.0000000000000089
 31
0.0
  0
LINE
  5
BC
330
1F
100
AcDbEntity
  8
참조1
100
AcDbLine
 10
31.94338065701562
 20
0.0010749287238892
 30
0.0
 11
31.94338065701562
 21
-39.99892507127611
 31
0.0
  0
LINE
  5
BD
330
1F
100
AcDbEntity
  8
참조1
100
AcDbLine
 10
31.94338065701562
 20
-39.99892507127611
 30
0.0
 11
-29.25297615729306
 21
-39.9989250712761
 31
0.0
  0
CIRCLE
  5
BE
330
1F
100
AcDbEntity
  8
해칭선
100
AcDbCircle
 10
0.0
 20
0.0
 30
0.0
 40
3.000000000000004
  0
INSERT
  5
BF
330
1F
100
AcDbEntity
  8
0
  6
Continuous
 62
     7
100
AcDbBlockReference
 66
     1
  2
블럭10
 10
-13.94027293212519
 20
-52.04717430164393
 30
0.0
  0
ATTRIB
  5
C0
330
BF
100
AcDbEntity
  8
FORMAT
 62
     2
100
AcDbText
 10
-23.12156822086647
 20
-49.97180738881174
 30
0.0
 40
4.233333333333333
  1
E1051048 [ 4 FLUTE ]
 41
0.75
  7
SLDTEXTSTYLE0
 11
-23.12156822086647
 21
-52.08847405547841
 31
0.0
100
AcDbAttribute
  2
AUTOATTR0
 70
     0
 74
     1
  0
SEQEND
  5
C1
330
BF
100
AcDbEntity
  8
0
  6
Continuous
 62
     7
  0
HATCH
  5
C2
330
1F
100
AcDbEntity
  8
중심선
100
AcDbHatch
 10
0.0
 20
0.0
 30
0.0
210
0.0
220
0.0
230
1.0
  2
SOLID
 70
     1
 71
     0
 91
        1
 92
        0
 93
        4
 72
     1
 10
-8.22536362774435
 20
-35.8
 11
-11.67163887158163
 21
-35.8
 72
     1
 10
-11.67163887158163
 20
-35.8
 11
-13.79986873078568
 21
-38.3363255805726
 72
     1
 10
-13.79986873078568
 20
-38.3363255805726
 11
-10.35356040183522
 21
-38.33628615127011
 72
     1
 10
-10.35356040183522
 20
-38.33628615127011
 11
-8.22536362774435
 21
-35.8
 97
        0
 75
     0
 76
     1
 98
        1
 10
-31.94338065701561
 20
-0.0010749287238981
  0
HATCH
  5
C3
330
1F
100
AcDbEntity
  8
중심선
100
AcDbHatch
 10
0.0
 20
0.0
 30
0.0
210
0.0
220
0.0
230
1.0
  2
SOLID
 70
     1
 71
     0
 91
        1
 92
        0
 93
        4
 72
     1
 10
-3.212599636708369
 20
-35.79999999999998
 11
-6.658874880545625
 21
-35.79999999999998
 72
     1
 10
-6.658874880545625
 20
-35.79999999999998
 11
-11.19001288890307
 21
-41.20000000000002
 72
     1
 10
-11.19001288890307
 20
-41.20000000000002
 11
-7.743737645065785
 21
-41.20000000000002
 72
     1
 10
-7.743737645065785
 20
-41.20000000000002
 11
-3.212599636708369
 21
-35.79999999999998
 97
        0
 75
     0
 76
     1
 98
        1
 10
-31.94338065701561
 20
-0.0010749287238981
  0
HATCH
  5
C4
330
1F
100
AcDbEntity
  8
중심선
100
AcDbHatch
 10
0.0
 20
0.0
 30
0.0
210
0.0
220
0.0
230
1.0
  2
SOLID
 70
     1
 71
     0
 91
        1
 92
        0
 93
        4
 72
     1
 10
1.800164354327471
 20
-35.79999999999998
 11
-1.64611088950959
 21
-35.79999999999998
 72
     1
 10
-1.64611088950959
 20
-35.79999999999998
 11
-8.694547791398868
 21
-44.20000000000002
 72
     1
 10
-8.694547791398868
 20
-44.20000000000002
 11
-5.248272547561584
 21
-44.20000000000002
 72
     1
 10
-5.248272547561584
 20
-44.20000000000002
 11
1.800164354327471
 21
-35.79999999999998
 97
        0
 75
     0
 76
     1
 98
        1
 10
-31.94338065701561
 20
-0.0010749287238981
  0
HATCH
  5
C5
330
1F
100
AcDbEntity
  8
중심선
100
AcDbHatch
 10
0.0
 20
0.0
 30
0.0
210
0.0
220
0.0
230
1.0
  2
SOLID
 70
     1
 71
     0
 91
        1
 92
        0
 93
        6
 72
     3
 10
6.600054785339665
 20
-40.00000000005127
 11
3.960054785062283
 21
1.540882976769353E-10
 40
0.3939339440162628
 50
17.0953918060842
 51
320.001965768509
 73
     0
 72
     1
 10
8.283054441040349
 20
-38.58789400463827
 11
10.58835631474133
 21
-36.65356729459038
 72
     3
 10
6.600054785286822
 20
-40.00000000000015
 11
6.600054785286829
 21
-1.278976924368180E-13
 40
0.636358354079598
 50
39.99873849337385
 51
368.4976242363724
 73
     1
 72
     1
 10
13.02538727718746
 20
-39.03999999993002
 11
5.280122092122717
 21
-39.03999999993002
 72
     1
 10
5.280122092122717
 20
-39.03999999993002
 11
5.280097047676811
 21
-40.95999999992991
 72
     1
 10
5.280097047676811
 20
-40.95999999992991
 11
9.721476817148876
 21
-40.95999999992988
 97
        0
 75
     0
 76
     1
 98
        1
 10
-31.94338065701561
 20
-0.0010749287238981
  0
DIMENSION
  5
C6
330
1F
100
AcDbEntity
  8
치수문자_일반주서
100
AcDbDimension
  2
_D
 10
91.90872287154703
 20
-9.524999999999913
 30
0.0
 11
91.90872287154689
 21
30.09397268430735
 31
0.0
 70
   160
  1
%%c<>
 71
     2
 42
19.05
 52
-270.0
  3
SLDDIMSTYLE1
100
AcDbAlignedDimension
 13
71.4375
 23
9.52500000000001
 33
0.0
 14
71.4375
 24
-9.524999999999991
 34
0.0
 50
90.0000000000002
100
AcDbRotatedDimension
1001
ACAD
1000
DSTYLE
1002
{
1070
   171
1070
     6
1070
   273
1070
     7
1002
}
  0
DIMENSION
  5
DA
330
1F
100
AcDbEntity
  8
치수문자_일반주서
100
AcDbDimension
  2
_D_1
 10
30.16250000000002
 20
25.79149174219262
 30
0.0
 11
4.21684504043634
 21
25.79149174219262
 31
0.0
 70
   160
  1
<>
 71
     2
 42
41.27499999999998
  3
SLDDIMSTYLE1
100
AcDbAlignedDimension
 13
71.4375
 23
9.52500000000001
 33
0.0
 14
30.16250000000002
 24
9.331446962362238
 34
0.0
 50
0.0000000000000099
100
AcDbRotatedDimension
1001
ACAD
1000
DSTYLE
1002
{
1070
   171
1070
     6
1070
   273
1070
     7
1002
}
  0
DIMENSION
  5
EE
330
1F
100
AcDbEntity
  8
치수문자_일반주서
100
AcDbDimension
  2
_D_2
 10
-71.43750000000001
 20
41.78156390547218
 30
0.0
 11
-1.661857960769396
 21
41.78156390547218
 31
0.0
 70
   160
  1
<>
 71
     2
 42
142.875
  3
SLDDIMSTYLE1
100
AcDbAlignedDimension
 13
71.43750000000001
 23
9.489972684307276
 33
0.0
 14
-71.4375
 24
7.620000000000002
 34
0.0
 50
0.0000000000000057
100
AcDbRotatedDimension
1001
ACAD
1000
DSTYLE
1002
{
1070
   171
1070
     6
1070
   273
1070
     7
1002
}
  0
DIMENSION
  5
101
330
1F
100
AcDbEntity
  8
치수문자_일반주서
100
AcDbDimension
  2
_D_3
 10
-83.00874999999998
 20
-9.525000000000206
 30
0.0
 11
-83.00875000000002
 21
0.0000000000000029
 31
0.0
 70
   160
  1
%%c<>
 71
     2
 42
19.05
 52
-270.0
  3
SLDDIMSTYLE1
100
AcDbAlignedDimension
 13
-29.66235173148851
 23
9.524999999999993
 33
0.0
 14
-29.66235173148851
 24
-9.52500000000001
 34
0.0
 50
90.0000000000002
100
AcDbRotatedDimension
1001
ACAD
1000
DSTYLE
1002
{
1070
   171
1070
     6
1070
   273
1070
     7
1002
}
  0
LINE
  5
116
330
1F
100
AcDbEntity
  8
참조1
100
AcDbLine
 10
68.7193644723612
 20
7.441074928723896
 30
0.0
 11
68.7193644723612
 21
-7.438925071276109
 31
0.0
  0
LINE
  5
117
330
1F
100
AcDbEntity
  8
참조1
100
AcDbLine
 10
81.41936447236121
 20
5.441074928723896
 30
0.0
 11
68.7193644723612
 21
5.441074928723896
 31
0.0
  0
SOLID
  5
118
330
1F
100
AcDbEntity
  8
참조1
100
AcDbTrace
 10
68.7193644723612
 20
5.441074928723896
 30
0.0
 11
75.0693644723612
 21
4.425074928723896
 31
0.0
 12
75.0693644723612
 22
6.457074928723896
 32
0.0
 13
75.0693644723612
 23
6.457074928723896
 33
0.0
  0
LINE
  5
119
330
1F
100
AcDbEntity
  8
참조1
100
AcDbLine
 10
81.41936447236121
 20
-5.438925071276109
 30
0.0
 11
68.7193644723612
 21
-5.438925071276109
 31
0.0
  0
SOLID
  5
11A
330
1F
100
AcDbEntity
  8
참조1
100
AcDbTrace
 10
68.7193644723612
 20
-5.438925071276109
 30
0.0
 11
75.0693644723612
 21
-6.454925071276109
 31
0.0
 12
75.0693644723612
 22
-4.422925071276109
 32
0.0
 13
75.0693644723612
 23
-4.422925071276109
 33
0.0
  0
MTEXT
  5
11B
330
1F
100
AcDbEntity
  8
참조1
100
AcDbMText
 10
78.1037146049872
 20
11.01136670591223
 30
0.0
 40
3.5
 41
0.0
 71
     1
 72
     1
  1
A
  7
SLDTEXTSTYLE0
 73
     1
 44
1.0
  0
MTEXT
  5
11C
330
1F
100
AcDbEntity
  8
참조1
100
AcDbMText
 10
78.1037146049872
 20
0.1313667059122219
 30
0.0
 40
3.5
 41
0.0
 71
     1
 72
     1
  1
A
  7
SLDTEXTSTYLE0
 73
     1
 44
1.0
  0
INSERT
  5
123
330
1F
100
AcDbEntity
  8
해칭선
100
AcDbBlockReference
  2
SW_DOWELSYMBOL_0
 10
0.0
 20
0.0
 30
0.0
  0
LINE
  5
307
330
1F
100
AcDbEntity
  8
0
  6
Continuous
 62
     1
370
    15
100
AcDbLine
 10
-67.89022478836779
 20
-2.823242439515954
 30
0.0
 11
-67.82703188051937
 21
-2.857404530685546
 31
0.0
  0
LINE
  5
308
330
1F
100
AcDbEntity
  8
0
  6
Continuous
 62
     1
370
    15
100
AcDbLine
 10
-52.7460955846073
 20
-9.52500000000001
 30
0.0
 11
-46.93797694754807
 21
-9.52500000000001
 31
0.0
  0
LINE
  5
309
330
1F
100
AcDbEntity
  8
0
  6
Continuous
 62
     1
370
    15
100
AcDbLine
 10
-46.93797694754795
 20
9.525000000000002
 30
0.0
 11
-52.7460955846073
 21
9.525000000000002
 31
0.0
  0
LINE
  5
30C
330
1F
100
AcDbEntity
  8
0
  6
Continuous
 62
     1
370
    15
100
AcDbLine
 10
-71.4375
 20
8.626614851660971
 30
0.0
 11
-71.4375
 21
-0.8161148516611009
 31
0.0
  0
SPLINE
  5
30D
330
1F
100
AcDbEntity
  8
0
  6
Continuous
 62
     1
370
    15
100
AcDbSpline
210
0.0
220
0.0
230
1.0
 70
     8
 71
     3
 72
    58
 73
    54
 74
     0
 42
0.000000001
 43
0.00000001
 40
0.0
 40
0.0
 40
0.0
 40
0.0
 40
0.0625000000000037
 40
0.0625000000000037
 40
0.0937500000000048
 40
0.0937500000000048
 40
0.1250000000000059
 40
0.1250000000000059
 40
0.1562500000000069
 40
0.1562500000000069
 40
0.187500000000008
 40
0.187500000000008
 40
0.2500000000000087
 40
0.2500000000000087
 40
0.2812500000000083
 40
0.2812500000000083
 40
0.3125000000000078
 40
0.3125000000000078
 40
0.3437500000000074
 40
0.3437500000000074
 40
0.375000000000007
 40
0.375000000000007
 40
0.4375000000000062
 40
0.4375000000000062
 40
0.4687500000000058
 40
0.4687500000000058
 40
0.5000000000000053
 40
0.5000000000000053
 40
0.531250000000005
 40
0.531250000000005
 40
0.5625000000000046
 40
0.5625000000000046
 40
0.6250000000000037
 40
0.6250000000000037
 40
0.6562500000000032
 40
0.6562500000000032
 40
0.6875000000000029
 40
0.6875000000000029
 40
0.7187500000000024
 40
0.7187500000000024
 40
0.7500000000000021
 40
0.7500000000000021
 40
0.812500000000002
 40
0.812500000000002
 40
0.8750000000000019
 40
0.8750000000000019
 40
0.9062500000000014
 40
0.9062500000000014
 40
0.937500000000001
 40
0.937500000000001
 40
0.9687500000000004
 40
0.9687500000000004
 40
1.0
 40
1.0
 40
1.0
 40
1.0
 10
-71.43750000000006
 20
8.626614851660971
 30
0.0
 10
-70.58127745212283
 20
8.416436300352299
 30
0.0
 10
-69.71573955791541
 20
8.170232924403631
 30
0.0
 10
-68.42711191650767
 20
7.753452351307286
 30
0.0
 10
-67.99945101321549
 20
7.60670724500346
 30
0.0
 10
-67.13889886341411
 20
7.297426413323078
 30
0.0
 10
-66.7075445700097
 20
7.135049795215463
 30
0.0
 10
-65.8466325012443
 20
6.796306062188418
 30
0.0
 10
-65.41857405304899
 20
6.620156602053467
 30
0.0
 10
-64.56010911173223
 20
6.254441391661001
 30
0.0
 10
-64.12908311023483
 20
6.064768599425801
 30
0.0
 10
-62.83653896278463
 20
5.477839402657747
 30
0.0
 10
-61.98095802018923
 20
5.063555258014657
 30
0.0
 10
-60.68880700079774
 20
4.412351865436688
 30
0.0
 10
-60.25755094110121
 20
4.190464946911303
 30
0.0
 10
-59.3979106804473
 20
3.739104056824854
 30
0.0
 10
-58.97044820181247
 20
3.509805824634978
 30
0.0
 10
-58.11032132912237
 20
3.043605956943435
 30
0.0
 10
-57.67899998837134
 20
2.806935256344911
 30
0.0
 10
-56.81779345006754
 20
2.328613582090437
 30
0.0
 10
-56.3891384372314
 20
2.087197180791375
 30
0.0
 10
-55.10246849929069
 20
1.357193973977186
 30
0.0
 10
-54.23679780490795
 20
0.8614992408533736
 30
0.0
 10
-52.95011981212366
 20
0.1179686196024333
 30
0.0
 10
-52.52147000582238
 20
-0.1302006182344572
 30
0.0
 10
-51.66026542919815
 20
-0.6265194898348087
 30
0.0
 10
-51.22894371924468
 20
-0.8744301817469905
 30
0.0
 10
-50.36881341930246
 20
-1.367484257892503
 30
0.0
 10
-49.94135019490682
 20
-1.612374400212093
 30
0.0
 10
-49.08171384968188
 20
-2.099270358102504
 30
0.0
 10
-48.65045840583417
 20
-2.34109620296839
 30
0.0
 10
-47.35830518028087
 20
-3.058369728226157
 30
0.0
 10
-46.50272548397908
 20
-3.524952091185657
 30
0.0
 10
-45.21018207400454
 20
-4.202115866052767
 30
0.0
 10
-44.77915496574241
 20
-4.423805002669755
 30
0.0
 10
-43.92068513937522
 20
-4.857121857881014
 30
0.0
 10
-43.49263040788122
 20
-5.06886644958067
 30
0.0
 10
-42.63172079120255
 20
-5.482381878485557
 30
0.0
 10
-42.20036637533633
 20
-5.683896244166038
 30
0.0
 10
-41.33981128732813
 20
-6.074596244077259
 30
0.0
 10
-40.91214814694177
 20
-6.263568731465301
 30
0.0
 10
-39.62352710945538
 20
-6.81162985747986
 30
0.0
 10
-38.75798822087734
 20
-7.151496058669369
 30
0.0
 10
-37.04553046153518
 20
-7.768014338214956
 30
0.0
 10
-36.18000622614517
 20
-8.046883724468746
 30
0.0
 10
-34.89137198628219
 20
-8.413327548309685
 30
0.0
 10
-34.4637133089181
 20
-8.526870994133095
 30
0.0
 10
-33.60316410098852
 20
-8.736819177093654
 30
0.0
 10
-33.17180993189407
 20
-8.833069263490547
 30
0.0
 10
-32.31089541471204
 20
-9.007231787753827
 30
0.0
 10
-31.88283323865511
 20
-9.085068890884376
 30
0.0
 10
-31.02437318602421
 20
-9.222262047823637
 30
0.0
 10
-30.59334829313468
 20
-9.281624943734332
 30
0.0
 10
-30.16249999999997
 20
-9.331446962362254
 30
0.0
  0
SPLINE
  5
30E
330
1F
100
AcDbEntity
  8
0
  6
Continuous
 62
     1
370
    15
100
AcDbSpline
210
0.0
220
0.0
230
1.0
 70
     8
 71
     3
 72
    19
 73
    15
 74
     0
 42
0.000000001
 43
0.00000001
 40
0.0
 40
0.0
 40
0.0
 40
0.0
 40
0.0836210794141825
 40
0.1672375504349137
 40
0.2508499469019145
 40
0.3344588044686516
 40
0.4180646603657857
 40
0.5016680531631134
 40
0.5852695225302379
 40
0.6688696089961895
 40
0.7564542727466084
 40
0.8440389219519938
 40
0.9316235580257014
 40
1.0
 40
1.0
 40
1.0
 40
1.0
 10
-71.4375
 20
-0.8161148516611009
 30
0.0
 10
-70.47422755371014
 20
-1.367718414162798
 30
0.0
 10
-68.54773574748691
 20
-2.470895140057937
 30
0.0
 10
-65.65811284426178
 20
-4.043401906382672
 30
0.0
 10
-62.76865622896588
 20
-5.493964030260289
 30
0.0
 10
-59.87934733523326
 20
-6.775944874825998
 30
0.0
 10
-56.9901615153737
 20
-7.850758447696921
 30
0.0
 10
-54.10108232988165
 20
-8.685323801447698
 30
0.0
 10
-51.21206623991225
 20
-9.254349717283564
 30
0.0
 10
-48.2772628010174
 20
-9.54427023217875
 30
0.0
 10
-45.29633962515862
 20
-9.532604667468338
 30
0.0
 10
-42.26958259369314
 20
-9.192487896277985
 30
0.0
 10
-39.46407546289805
 20
-8.619883437138572
 30
0.0
 10
-37.66749598413395
 20
-8.040151858524172
 30
0.0
 10
-36.87983976875364
 20
-7.785985991360863
 30
0.0
  0
SPLINE
  5
30F
330
1F
100
AcDbEntity
  8
0
  6
Continuous
 62
     1
370
    15
100
AcDbSpline
210
0.0
220
0.0
230
1.0
 70
     8
 71
     3
 72
    19
 73
    15
 74
     0
 42
0.000000001
 43
0.00000001
 40
0.0
 40
0.0
 40
0.0
 40
0.0
 40
0.0885817990600039
 40
0.1771645897776004
 40
0.2657489454564256
 40
0.3543354387005551
 40
0.4429246411590582
 40
0.5315171232714694
 40
0.6201134540144118
 40
0.708714200649616
 40
0.801521794153409
 40
0.8943294835622498
 40
0.9871372703476409
 40
1.0
 40
1.0
 40
1.0
 40
1.0
 10
-30.16249999999997
 20
1.910424714198623
 30
0.0
 10
-31.12546945332394
 20
2.449484341935016
 30
0.0
 10
-33.05141914024483
 20
3.527609632085085
 30
0.0
 10
-35.94037327319023
 20
5.021229886285863
 30
0.0
 10
-38.82938845417686
 20
6.365458969717548
 30
0.0
 10
-41.71848731844364
 20
7.513844407020511
 30
0.0
 10
-44.60769223373165
 20
8.432717513440604
 30
0.0
 10
-47.49702528008726
 20
9.093430432805146
 30
0.0
 10
-50.38650965871955
 20
9.476415515204291
 30
0.0
 10
-53.32184426742919
 20
9.569290679673639
 30
0.0
 10
-56.30300760800179
 20
9.360896763651294
 30
0.0
 10
-59.32989635160931
 20
8.810363150057949
 30
0.0
 10
-61.48766374847861
 20
8.272730693228535
 30
0.0
 10
-62.63646693013038
 20
7.853822838326136
 30
0.0
 10
-62.77630484563878
 20
7.802831335033599
 30
0.0
  0
SPLINE
  5
310
330
1F
100
AcDbEntity
  8
외형선
  6
Continuous
370
    15
100
AcDbSpline
210
0.0
220
0.0
230
1.0
 70
    24
 71
     3
 72
    20
 73
    16
 74
     0
 42
0.000000001
 43
0.00000001
 40
0.0
 40
0.0
 40
0.0
 40
0.0
 40
0.0801796157830858
 40
0.1557896198252426
 40
0.2335923191068052
 40
0.3092023231489603
 40
0.3870050224305236
 40
0.4626150264726789
 40
0.5404177257542422
 40
0.6160277297963996
 40
0.693830429077964
 40
0.7694404331201193
 40
0.8472431324016827
 40
0.922853136443829
 40
1.0
 40
1.0
 40
1.0
 40
1.0
 10
-30.16250000000002
 20
-8.100492492871258
 30
0.0
 10
-30.16250000000002
 20
-7.868038452783355
 30
0.0
 10
-30.16250000000002
 20
-7.416378436974486
 30
0.0
 10
-30.16249999999997
 20
-6.598399286793767
 30
0.0
 10
-30.16249999999991
 20
-5.725137577527522
 30
0.0
 10
-30.16250000000008
 20
-4.785866042615953
 30
0.0
 10
-30.16249999999974
 20
-3.827126717296042
 30
0.0
 10
-30.16250000000002
 20
-2.857976949685781
 30
0.0
 10
-30.16250000000008
 20
-1.923530667991403
 30
0.0
 10
-30.16249999999997
 20
-1.033283973585756
 30
0.0
 10
-30.16250000000008
 20
-0.2287576061558555
 30
0.0
 10
-30.16249999999997
 20
0.4828220897768715
 30
0.0
 10
-30.16250000000008
 20
1.064551724777129
 30
0.0
 10
-30.16249999999997
 20
1.523915942325072
 30
0.0
 10
-30.16249999999997
 20
1.700020205076836
 30
0.0
 10
-30.16250000000002
 20
1.788958213192427
 30
0.0
  0
SPLINE
  5
311
330
1F
100
AcDbEntity
  8
0
  6
Continuous
 62
     1
370
    15
100
AcDbSpline
210
0.0
220
0.0
230
1.0
 70
     8
 71
     3
 72
    58
 73
    54
 74
     0
 42
0.000000001
 43
0.00000001
 40
0.0
 40
0.0
 40
0.0
 40
0.0
 40
0.0625000000000017
 40
0.0625000000000017
 40
0.0937500000000017
 40
0.0937500000000017
 40
0.1250000000000018
 40
0.1250000000000018
 40
0.1562500000000019
 40
0.1562500000000019
 40
0.1875000000000019
 40
0.1875000000000019
 40
0.2500000000000036
 40
0.2500000000000036
 40
0.2812500000000037
 40
0.2812500000000037
 40
0.3125000000000037
 40
0.3125000000000037
 40
0.3437500000000038
 40
0.3437500000000038
 40
0.3750000000000038
 40
0.3750000000000038
 40
0.4375000000000039
 40
0.4375000000000039
 40
0.4687500000000039
 40
0.4687500000000039
 40
0.500000000000004
 40
0.500000000000004
 40
0.531250000000004
 40
0.531250000000004
 40
0.5625000000000041
 40
0.5625000000000041
 40
0.6250000000000042
 40
0.6250000000000042
 40
0.6562500000000042
 40
0.6562500000000042
 40
0.6875000000000043
 40
0.6875000000000043
 40
0.7187500000000043
 40
0.7187500000000043
 40
0.7500000000000043
 40
0.7500000000000043
 40
0.8125000000000037
 40
0.8125000000000037
 40
0.875000000000003
 40
0.875000000000003
 40
0.9062500000000023
 40
0.9062500000000023
 40
0.9375000000000016
 40
0.9375000000000016
 40
0.9687500000000009
 40
0.9687500000000009
 40
1.0
 40
1.0
 40
1.0
 40
1.0
 10
-71.4375
 20
9.524999999999974
 30
0.0
 10
-70.58127745212283
 20
9.447495985243048
 30
0.0
 10
-69.71573955791547
 20
9.366068701962657
 30
0.0
 10
-68.42711191650761
 20
9.1875374584863
 30
0.0
 10
-67.99945101321538
 20
9.11871633878658
 30
0.0
 10
-67.138898863414
 20
8.962361138290671
 30
0.0
 10
-66.70754457000976
 20
8.87488951745662
 30
0.0
 10
-65.8466325012443
 20
8.68215225162103
 30
0.0
 10
-65.41857405304899
 20
8.577024519006041
 30
0.0
 10
-64.56010911173229
 20
8.349360532776924
 30
0.0
 10
-64.12908311023489
 20
8.226744642141266
 30
0.0
 10
-62.83653896278457
 20
7.834134546776863
 30
0.0
 10
-61.98095802018923
 20
7.540012493388415
 30
0.0
 10
-60.68880700079774
 20
7.053614599590401
 30
0.0
 10
-60.2575509411011
 20
6.884043642235068
 30
0.0
 10
-59.39791068044718
 20
6.53160825110528
 30
0.0
 10
-58.97044820181247
 20
6.348894224281833
 30
0.0
 10
-58.11032132912237
 20
5.970176317086211
 30
0.0
 10
-57.6789999883714
 20
5.774347266104013
 30
0.0
 10
-56.81779345006743
 20
5.371528456943378
 30
0.0
 10
-56.38913843723134
 20
5.164743718276083
 30
0.0
 10
-55.10246849929075
 20
4.529171976137232
 30
0.0
 10
-54.23679780490795
 20
4.083896999548682
 30
0.0
 10
-52.95011981212366
 20
3.395815777223146
 30
0.0
 10
-52.52147000582244
 20
3.162813251272479
 30
0.0
 10
-51.66026542919809
 20
2.690127382871662
 30
0.0
 10
-51.22894371924468
 20
2.450664380445627
 30
0.0
 10
-50.36881341930246
 20
1.967699082075452
 30
0.0
 10
-49.94135019490687
 20
1.72445691851139
 30
0.0
 10
-49.08171384968182
 20
1.234070606250353
 30
0.0
 10
-48.65045840583412
 20
0.9870954990886643
 30
0.0
 10
-47.35830518028075
 20
0.2442114496536304
 30
0.0
 10
-46.50272548397908
 20
-0.2529353808154043
 30
0.0
 10
-45.21018207400454
 20
-0.9958406432720354
 30
0.0
 10
-44.77915496574235
 20
-1.24274491942322
 30
0.0
 10
-43.92068513937517
 20
-1.732839417807969
 30
0.0
 10
-43.49263040788117
 20
-1.976150836700771
 30
0.0
 10
-42.6317207912025
 20
-2.45915636724705
 30
0.0
 10
-42.20036637533627
 20
-2.698562453426337
 30
0.0
 10
-41.33981128732808
 20
-3.170989469551745
 30
0.0
 10
-40.91214814694166
 20
-3.403738447996264
 30
0.0
 10
-39.62352710945538
 20
-4.091909421331667
 30
0.0
 10
-38.75798822087734
 20
-4.536939504940068
 30
0.0
 10
-37.04553046153512
 20
-5.383396145512083
 30
0.0
 10
-36.18000622614517
 20
-5.787866772201926
 30
0.0
 10
-34.89137198628219
 20
-6.355277212852218
 30
0.0
 10
-34.46371330891805
 20
-6.537871263391611
 30
0.0
 10
-33.60316410098852
 20
-6.890111642431822
 30
0.0
 10
-33.17180993189402
 20
-7.059525007627204
 30
0.0
 10
-32.31089541471198
 20
-7.383379533418593
 30
0.0
 10
-31.882833238655
 20
-7.537653282439169
 30
0.0
 10
-31.02437318602409
 20
-7.830847365615273
 30
0.0
 10
-30.59334829313468
 20
-7.969816925727019
 30
0.0
 10
-30.16249999999997
 20
-8.100492492871272
 30
0.0
  0
LINE
  5
312
330
1F
100
AcDbEntity
  8
0
  6
Continuous
 62
     1
370
    15
100
AcDbLine
 10
-71.4375
 20
9.524999999999974
 30
0.0
 11
-71.4375
 21
8.626614851660971
 31
0.0
  0
LINE
  5
313
330
1F
100
AcDbEntity
  8
외형선
  6
Continuous
370
    15
100
AcDbLine
 10
-30.16250000000002
 20
-8.100492492871258
 30
0.0
 11
-30.16250000000002
 21
-9.331446962362254
 31
0.0
  0
SPLINE
  5
314
330
1F
100
AcDbEntity
  8
0
  6
Continuous
 62
     1
370
    15
100
AcDbSpline
210
0.0
220
0.0
230
1.0
 70
     8
 71
     3
 72
    14
 73
    10
 74
     0
 42
0.000000001
 43
0.00000001
 40
0.0
 40
0.0
 40
0.0
 40
0.0
 40
0.0283567426295567
 40
0.1902968586073304
 40
0.3522371419299732
 40
0.5141775951651119
 40
0.6761182208789223
 40
0.8380590216361352
 40
0.9999999999999999
 40
0.9999999999999999
 40
0.9999999999999999
 40
0.9999999999999999
 10
-52.7460955846073
 20
-9.503151243181637
 30
0.0
 10
-52.92276922949299
 20
-9.509997177255375
 30
0.0
 10
-54.10839340571317
 20
-9.555938975489656
 30
0.0
 10
-56.30300976719644
 20
-9.339531420273534
 30
0.0
 10
-59.32989576406737
 20
-8.830302242537076
 30
0.0
 10
-62.35679236781192
 20
-7.997786306943257
 30
0.0
 10
-65.38369103060239
 20
-6.901589898827683
 30
0.0
 10
-68.41059405594166
 20
-5.581490432234406
 30
0.0
 10
-70.4285309831227
 20
-4.552637097614766
 30
0.0
 10
-71.43750000000006
 20
-4.038210148209433
 30
0.0
  0
LINE
  5
315
330
1F
100
AcDbEntity
  8
0
  6
Continuous
 62
     1
370
    15
100
AcDbLine
 10
-71.4375
 20
-0.8161148516611009
 30
0.0
 11
-71.4375
 21
-4.038210148209433
 31
0.0
  0
SPLINE
  5
316
330
1F
100
AcDbEntity
  8
0
  6
Continuous
 62
     1
370
    15
100
AcDbSpline
210
0.0
220
0.0
230
1.0
 70
     8
 71
     3
 72
    13
 73
     9
 74
     0
 42
0.000000001
 43
0.00000001
 40
0.0
 40
0.0
 40
0.0
 40
0.0
 40
0.0978586936593512
 40
0.2782870032073622
 40
0.4587152857035272
 40
0.6391435440596517
 40
0.8195717811877458
 40
1.0
 40
1.0
 40
1.0
 40
1.0
 10
-46.93797694754795
 20
9.485239608338443
 30
0.0
 10
-46.39076814871459
 20
9.49158129508039
 30
0.0
 10
-44.8346356165747
 20
9.509615553792695
 30
0.0
 10
-42.26957961509407
 20
9.187798561432412
 30
0.0
 10
-39.24280905692871
 20
8.558541534782417
 30
0.0
 10
-36.21603899086568
 20
7.623233857423412
 30
0.0
 10
-33.18926934704956
 20
6.448265457079896
 30
0.0
 10
-31.17142308154354
 20
5.489923852434342
 30
0.0
 10
-30.16250000000002
 20
5.010753074432626
 30
0.0
  0
LINE
  5
317
330
1F
100
AcDbEntity
  8
외형선
  6
Continuous
370
    15
100
AcDbLine
 10
-30.16250000000002
 20
5.010753074432626
 30
0.0
 11
-30.16249999999997
 21
1.910424714198623
 31
0.0
  0
SPLINE
  5
318
330
1F
100
AcDbEntity
  8
0
  6
Continuous
 62
     1
370
    15
100
AcDbSpline
210
0.0
220
0.0
230
1.0
 70
     8
 71
     3
 72
    10
 73
     6
 74
     0
 42
0.000000001
 43
0.00000001
 40
0.0
 40
0.0
 40
0.0
 40
0.0
 40
0.3336467828353751
 40
0.6672751782538474
 40
1.0
 40
1.0
 40
1.0
 40
1.0
 10
-71.4375
 20
-9.525000000000038
 30
0.0
 10
-70.474227648603
 20
-9.413331504997334
 30
0.0
 10
-68.54773603216023
 20
-9.260053370105599
 30
0.0
 10
-65.66067344326478
 20
-8.685932044428885
 30
0.0
 10
-63.73689149664915
 20
-8.096932010530171
 30
0.0
 10
-62.77630484563878
 20
-7.802831335033605
 30
0.0
  0
LINE
  5
319
330
1F
100
AcDbEntity
  8
0
  6
Continuous
 62
     1
370
    15
100
AcDbLine
 10
-71.4375
 20
-4.038210148209433
 30
0.0
 11
-71.4375
 21
-9.525000000000038
 31
0.0
  0
SPLINE
  5
31A
330
1F
100
AcDbEntity
  8
0
  6
Continuous
 62
     1
370
    15
100
AcDbSpline
210
0.0
220
0.0
230
1.0
 70
     8
 71
     3
 72
     8
 73
     4
 74
     0
 42
0.000000001
 43
0.00000001
 40
0.9950310206067194
 40
0.9950310206067194
 40
0.9950310206067194
 40
0.9950310206067194
 40
0.9999999999999999
 40
0.9999999999999999
 40
0.9999999999999999
 40
0.9999999999999999
 10
-36.84646129883976
 20
7.797758460725157
 30
0.0
 10
-36.85758745546636
 20
7.793834541802823
 30
0.0
 10
-36.86871361210994
 20
7.78991026658182
 30
0.0
 10
-36.87983976875353
 20
7.785985991360815
 30
0.0
  0
SPLINE
  5
31B
330
1F
100
AcDbEntity
  8
외형선
  6
Continuous
370
    15
100
AcDbSpline
210
0.0
220
0.0
230
1.0
 70
    24
 71
     3
 72
    12
 73
     8
 74
     0
 42
0.000000001
 43
0.00000001
 40
0.0
 40
0.0
 40
0.0
 40
0.0
 40
0.1578862774032963
 40
0.3671750908857669
 40
0.5825332941375144
 40
0.7883839658742484
 40
1.0
 40
1.0
 40
1.0
 40
1.0
 10
-30.16249999999997
 20
5.110010203040003
 30
0.0
 10
-30.16250000000008
 20
5.295542662536076
 30
0.0
 10
-30.16250000000008
 20
5.727010797690835
 30
0.0
 10
-30.16249999999997
 20
6.519852015686976
 30
0.0
 10
-30.16250000000008
 20
7.427678717657966
 30
0.0
 10
-30.16250000000002
 20
8.379765087350261
 30
0.0
 10
-30.16249999999997
 20
9.011312373797349
 30
0.0
 10
-30.16249999999997
 20
9.331446962362204
 30
0.0
  0
LINE
  5
31C
330
1F
100
AcDbEntity
  8
외형선
  6
Continuous
370
    15
100
AcDbLine
 10
-29.66235173148851
 20
-9.385003196160458
 30
0.0
 11
-29.66235173148851
 21
-9.52500000000001
 31
0.0
  0
SPLINE
  5
31D
330
1F
100
AcDbEntity
  8
외형선
  6
Continuous
370
    15
100
AcDbSpline
210
0.0
220
0.0
230
1.0
 70
     8
 71
     3
 72
     8
 73
     4
 74
     0
 42
0.000000001
 43
0.00000001
 40
0.0
 40
0.0
 40
0.0
 40
0.0
 40
1.0
 40
1.0
 40
1.0
 40
1.0
 10
-30.16249999999997
 20
-9.331446962362254
 30
0.0
 10
-29.99571899198855
 20
-9.350733023419796
 30
0.0
 10
-29.82896470815831
 20
-9.368591240140294
 30
0.0
 10
-29.66235173148851
 20
-9.385010776652525
 30
0.0
  0
SPLINE
  5
31E
330
1F
100
AcDbEntity
  8
외형선
  6
Continuous
370
    15
100
AcDbSpline
210
0.0
220
0.0
230
1.0
 70
     8
 71
     3
 72
     8
 73
     4
 74
     0
 42
0.000000001
 43
0.00000001
 40
0.0
 40
0.0
 40
0.0
 40
0.0
 40
1.0
 40
1.0
 40
1.0
 40
1.0
 10
-30.16250000000008
 20
-8.100492492871258
 30
0.0
 10
-29.99571899198855
 20
-8.151076893826446
 30
0.0
 10
-29.82896470815837
 20
-8.200419993525305
 30
0.0
 10
-29.66235173148851
 20
-8.248489128721904
 30
0.0
  0
LINE
  5
31F
330
1F
100
AcDbEntity
  8
외형선
  6
Continuous
370
    15
100
AcDbLine
 10
-29.66235173148851
 20
1.627064844454122
 30
0.0
 11
-29.66235173148851
 21
-8.248499932424327
 31
0.0
  0
SPLINE
  5
320
330
1F
100
AcDbEntity
  8
외형선
  6
Continuous
370
    15
100
AcDbSpline
210
0.0
220
0.0
230
1.0
 70
     8
 71
     3
 72
     8
 73
     4
 74
     0
 42
0.000000001
 43
0.00000001
 40
0.0
 40
0.0
 40
0.0
 40
0.0
 40
1.0
 40
1.0
 40
1.0
 40
1.0
 10
-30.16249999999997
 20
1.910424714198623
 30
0.0
 10
-29.99571899198855
 20
1.816222176650979
 30
0.0
 10
-29.82896470815831
 20
1.721732567748117
 30
0.0
 10
-29.66235173148851
 20
1.627021119136611
 30
0.0
  0
SPLINE
  5
321
330
1F
100
AcDbEntity
  8
외형선
  6
Continuous
370
    15
100
AcDbSpline
210
0.0
220
0.0
230
1.0
 70
     8
 71
     3
 72
     8
 73
     4
 74
     0
 42
0.000000001
 43
0.00000001
 40
0.0
 40
0.0
 40
0.0
 40
0.0
 40
1.0
 40
1.0
 40
1.0
 40
1.0
 10
-30.16250000000008
 20
5.010753074432654
 30
0.0
 10
-29.99571899198855
 20
4.928977230740668
 30
0.0
 10
-29.82896470815837
 20
4.84643959927983
 30
0.0
 10
-29.66235173148851
 20
4.763197675234193
 30
0.0
  0
LINE
  5
322
330
1F
100
AcDbEntity
  8
외형선
  6
Continuous
370
    15
100
AcDbLine
 10
-29.66235173148851
 20
9.524999999999974
 30
0.0
 11
-29.66235173148851
 21
4.763178966278272
 31
0.0
  0
SPLINE
  5
323
330
1F
100
AcDbEntity
  8
외형선
  6
Continuous
370
    15
100
AcDbSpline
210
0.0
220
0.0
230
1.0
 70
     8
 71
     3
 72
     8
 73
     4
 74
     0
 42
0.000000001
 43
0.00000001
 40
0.0
 40
0.0
 40
0.0
 40
0.0
 40
1.0
 40
1.0
 40
1.0
 40
1.0
 10
-30.16249999999997
 20
9.331446962362218
 30
0.0
 10
-29.99571899198855
 20
9.350733023419746
 30
0.0
 10
-29.82896470815831
 20
9.368591240140244
 30
0.0
 10
-29.66235173148851
 20
9.385010776652475
 30
0.0
  0
SPLINE
  5
324
330
1F
100
AcDbEntity
  8
외형선
  6
Continuous
370
    15
100
AcDbSpline
210
0.0
220
0.0
230
1.0
 70
    24
 71
     3
 72
    20
 73
    16
 74
     0
 42
0.000000001
 43
0.00000001
 40
0.0
 40
0.0
 40
0.0
 40
0.0
 40
0.0696237825916024
 40
0.1472978918302947
 40
0.2227829298526193
 40
0.3004570390913112
 40
0.3759420771136371
 40
0.4536161863523301
 40
0.5291012243746556
 40
0.6067753336133476
 40
0.6822603716356687
 40
0.7599344808743568
 40
0.8354195188966863
 40
0.9130936281353834
 40
1.0
 40
1.0
 40
1.0
 40
1.0
 10
-30.16249999999997
 20
1.788958213192427
 30
0.0
 10
-30.16249999999997
 20
1.712864678379884
 30
0.0
 10
-30.16249999999991
 20
1.551879209871981
 30
0.0
 10
-30.16250000000019
 20
1.120113543689496
 30
0.0
 10
-30.16250000000002
 20
0.547061384907448
 30
0.0
 10
-30.16249999999997
 20
-0.1465268114717334
 30
0.0
 10
-30.16249999999997
 20
-0.9488991785090123
 30
0.0
 10
-30.16249999999997
 20
-1.824138284954631
 30
0.0
 10
-30.16250000000008
 20
-2.762876733668367
 30
0.0
 10
-30.16250000000002
 20
-3.721796723623942
 30
0.0
 10
-30.16249999999997
 20
-4.690765421187211
 30
0.0
 10
-30.16249999999997
 20
-5.625764053573977
 30
0.0
 10
-30.16249999999997
 20
-6.514008409553287
 30
0.0
 10
-30.16250000000008
 20
-7.36665374824766
 30
0.0
 10
-30.16250000000008
 20
-7.846899662565138
 30
0.0
 10
-30.16250000000002
 20
-8.1004924928713
 30
0.0
  0
SPLINE
  5
325
330
1F
100
AcDbEntity
  8
외형선
  6
Continuous
370
    15
100
AcDbSpline
210
0.0
220
0.0
230
1.0
 70
    24
 71
     3
 72
    12
 73
     8
 74
     0
 42
0.000000001
 43
0.00000001
 40
0.0
 40
0.0
 40
0.0
 40
0.0
 40
0.1969065156236108
 40
0.39882715225792
 40
0.6083241814318783
 40
0.8238966386442177
 40
1.0
 40
1.0
 40
1.0
 40
1.0
 10
-30.16249999999997
 20
9.331446962362204
 30
0.0
 10
-30.16249999999997
 20
9.03400823740682
 30
0.0
 10
-30.16250000000008
 20
8.43155666657135
 30
0.0
 10
-30.16249999999997
 20
7.515786317936173
 30
0.0
 10
-30.16249999999991
 20
6.608571308029252
 30
0.0
 10
-30.16250000000008
 20
5.785388198430565
 30
0.0
 10
-30.16250000000008
 20
5.31947969861356
 30
0.0
 10
-30.16250000000002
 20
5.110000203040014
 30
0.0
  0
LINE
  5
3A4
330
1F
100
AcDbEntity
  8
외형선
  6
Continuous
370
    15
100
AcDbLine
 10
-5.791200000000003
 20
7.619999999999992
 30
0.0
 11
5.791200000000003
 21
7.619999999999992
 31
0.0
  0
LINE
  5
3A5
330
1F
100
AcDbEntity
  8
외형선
  6
Continuous
370
    15
100
AcDbLine
 10
5.791200000000003
 20
7.619999999999992
 30
0.0
 11
7.696199999999976
 21
9.524999999999993
 31
0.0
  0
LINE
  5
3A6
330
1F
100
AcDbEntity
  8
외형선
  6
Continuous
370
    15
100
AcDbLine
 10
-5.791200000000003
 20
7.619999999999992
 30
0.0
 11
-7.696199999999976
 21
9.524999999999993
 31
0.0
  0
LINE
  5
3A7
330
1F
100
AcDbEntity
  8
외형선
  6
Continuous
370
    15
100
AcDbLine
 10
-7.696199999999973
 20
9.524999999999993
 30
0.0
 11
-29.66235173148851
 21
9.524999999999993
 31
0.0
  0
ENDSEC
  0
SECTION
  2
OBJECTS
  0
DICTIONARY
  5
C
330
0
100
AcDbDictionary
281
     1
  3
ACAD_GROUP
350
D
  3
ACAD_IMAGE_VARS
350
147
  3
ACAD_LAYOUT
350
1A
  3
ACAD_MLINESTYLE
350
17
  3
ACAD_PLOTSETTINGS
350
19
  3
ACAD_PLOTSTYLENAME
350
E
  3
ACAD_SCALELIST
350
47
  3
APPDATA
350
145
  3
DWGPROPS
350
3CB
  0
DICTIONARY
  5
1CF
330
2
100
AcDbDictionary
280
     1
281
     1
  3
ACAD_LAYERSTATES
360
1D0
  0
DICTIONARY
  5
D
102
{ACAD_REACTORS
330
C
102
}
330
C
100
AcDbDictionary
281
     1
  0
RASTERVARIABLES
  5
147
102
{ACAD_REACTORS
330
C
102
}
330
C
100
AcDbRasterVariables
 90
        0
 70
     1
 71
     1
 72
     1
  0
DICTIONARY
  5
1A
102
{ACAD_REACTORS
330
C
102
}
330
C
100
AcDbDictionary
281
     1
  3
Layout1
350
1E
  3
Layout2
350
26
  3
Model
350
22
  0
DICTIONARY
  5
17
102
{ACAD_REACTORS
330
C
102
}
330
C
100
AcDbDictionary
281
     1
  3
Standard
350
18
  0
DICTIONARY
  5
19
102
{ACAD_REACTORS
330
C
102
}
330
C
100
AcDbDictionary
281
     1
  0
ACDBDICTIONARYWDFLT
  5
E
102
{ACAD_REACTORS
330
C
102
}
330
C
100
AcDbDictionary
281
     1
  3
Normal
350
F
100
AcDbDictionaryWithDefault
340
F
  0
DICTIONARY
  5
47
102
{ACAD_REACTORS
330
C
102
}
330
C
100
AcDbDictionary
281
     1
  3
A0
350
48
  3
A1
350
49
  3
A2
350
4A
  3
A3
350
4B
  3
A4
350
4C
  3
A5
350
4D
  3
A6
350
4E
  3
A7
350
4F
  3
A8
350
50
  3
A9
350
51
  3
B0
350
52
  3
B1
350
53
  3
B2
350
54
  3
B3
350
55
  3
B4
350
56
  3
B5
350
57
  3
B6
350
58
  3
B7
350
59
  3
B8
350
5A
  3
B9
350
5B
  3
C0
350
5C
  3
C1
350
5D
  3
C2
350
5E
  3
C3
350
5F
  3
C4
350
60
  3
C5
350
61
  3
C6
350
62
  3
C7
350
63
  3
C8
350
64
  3
C9
350
65
  3
D0
350
66
  3
D1
350
67
  3
D2
350
68
  0
DICTIONARY
  5
145
102
{ACAD_REACTORS
330
C
102
}
330
C
100
AcDbDictionary
281
     1
  0
XRECORD
  5
3CB
102
{ACAD_REACTORS
330
C
102
}
330
C
100
AcDbXrecord
280
     1
  1
DWGPROPS COOKIE
  2

  3

  4

  6

  7

  8
12017012
  9

300
=
301
=
302
=
303
=
304
=
305
=
306
=
307
=
308
=
309
=
 40
0.0
 41
2458313.100048519
 42
2458319.014669491
  1

 90
        0
  0
DICTIONARY
  5
1D0
102
{ACAD_REACTORS
330
1CF
102
}
330
1CF
100
AcDbDictionary
281
     1
  0
LAYOUT
  5
1E
102
{ACAD_REACTORS
330
1A
102
}
330
1A
100
AcDbPlotSettings
  1

  2
none_device
  4

  6

 40
0.0
 41
0.0
 42
0.0
 43
0.0
 44
0.0
 45
0.0
 46
0.0
 47
0.0
 48
0.0
 49
0.0
140
0.0
141
0.0
142
1.0
143
1.0
 70
   688
 72
     1
 73
     0
 74
     5
  7

 75
    16
147
1.0
148
0.0
149
0.0
100
AcDbLayout
  1
Layout1
 70
     1
 71
     1
 10
0.0
 20
0.0
 11
420.0
 21
297.0
 12
0.0
 22
0.0
 32
0.0
 14
1.000000000000000E+20
 24
1.000000000000000E+20
 34
1.000000000000000E+20
 15
-1.000000000000000E+20
 25
-1.000000000000000E+20
 35
-1.000000000000000E+20
146
0.0
 13
0.0
 23
0.0
 33
0.0
 16
1.0
 26
0.0
 36
0.0
 17
0.0
 27
1.0
 37
0.0
 76
     0
330
1B
  0
LAYOUT
  5
26
102
{ACAD_REACTORS
330
1A
102
}
330
1A
100
AcDbPlotSettings
  1

  2
none_device
  4

  6

 40
0.0
 41
0.0
 42
0.0
 43
0.0
 44
0.0
 45
0.0
 46
0.0
 47
0.0
 48
0.0
 49
0.0
140
0.0
141
0.0
142
1.0
143
1.0
 70
   688
 72
     1
 73
     0
 74
     5
  7

 75
    16
147
1.0
148
0.0
149
0.0
100
AcDbLayout
  1
Layout2
 70
     1
 71
     2
 10
0.0
 20
0.0
 11
0.0
 21
0.0
 12
0.0
 22
0.0
 32
0.0
 14
0.0
 24
0.0
 34
0.0
 15
0.0
 25
0.0
 35
0.0
146
0.0
 13
0.0
 23
0.0
 33
0.0
 16
1.0
 26
0.0
 36
0.0
 17
0.0
 27
1.0
 37
0.0
 76
     0
330
23
  0
LAYOUT
  5
22
102
{ACAD_REACTORS
330
1A
102
}
330
1A
100
AcDbPlotSettings
  1

  2
none_device
  4
ANSI_A_(11.00_x_8.50_Inches)
  6

 40
6.35
 41
19.05
 42
6.35000508
 43
19.05000254
 44
279.4
 45
215.9
 46
40.61099338347624
 47
68.02306996369086
 48
0.0
 49
0.0
140
0.0
141
0.0
142
0.0289994960496331
143
1.0
 70
  1696
 72
     0
 73
     0
 74
     0
  7

 75
     0
147
0.0235690232323232
148
0.0
149
0.0
100
AcDbLayout
  1
Model
 70
     1
 71
     0
 10
0.0
 20
0.0
 11
420.0
 21
297.0
 12
0.0
 22
0.0
 32
0.0
 14
-87.38375000000008
 24
-49.97180738881174
 34
0.0
 15
92.45905620488037
 25
46.15656390547218
 35
0.0
146
0.0
 13
0.0
 23
0.0
 33
0.0
 16
1.0
 26
0.0
 36
0.0
 17
0.0
 27
1.0
 37
0.0
 76
     0
330
1F
331
29
  0
MLINESTYLE
  5
18
102
{ACAD_REACTORS
330
17
102
}
330
17
100
AcDbMlineStyle
  2
Standard
 70
     0
  3

 62
   256
 51
90.0
 52
90.0
 71
     2
 49
0.5
 62
   256
  6
BYLAYER
 49
-0.5
 62
   256
  6
BYLAYER
  0
ACDBPLACEHOLDER
  5
F
102
{ACAD_REACTORS
330
E
102
}
330
E
  0
SCALE
  5
48
102
{ACAD_REACTORS
330
47
102
}
330
47
100
AcDbScale
 70
     0
300
1:1
140
1.0
141
1.0
290
     1
  0
SCALE
  5
49
102
{ACAD_REACTORS
330
47
102
}
330
47
100
AcDbScale
 70
     0
300
1:2
140
1.0
141
2.0
290
     0
  0
SCALE
  5
4A
102
{ACAD_REACTORS
330
47
102
}
330
47
100
AcDbScale
 70
     0
300
1:4
140
1.0
141
4.0
290
     0
  0
SCALE
  5
4B
102
{ACAD_REACTORS
330
47
102
}
330
47
100
AcDbScale
 70
     0
300
1:5
140
1.0
141
5.0
290
     0
  0
SCALE
  5
4C
102
{ACAD_REACTORS
330
47
102
}
330
47
100
AcDbScale
 70
     0
300
1:8
140
1.0
141
8.0
290
     0
  0
SCALE
  5
4D
102
{ACAD_REACTORS
330
47
102
}
330
47
100
AcDbScale
 70
     0
300
1:10
140
1.0
141
10.0
290
     0
  0
SCALE
  5
4E
102
{ACAD_REACTORS
330
47
102
}
330
47
100
AcDbScale
 70
     0
300
1:16
140
1.0
141
16.0
290
     0
  0
SCALE
  5
4F
102
{ACAD_REACTORS
330
47
102
}
330
47
100
AcDbScale
 70
     0
300
1:20
140
1.0
141
20.0
290
     0
  0
SCALE
  5
50
102
{ACAD_REACTORS
330
47
102
}
330
47
100
AcDbScale
 70
     0
300
1:30
140
1.0
141
30.0
290
     0
  0
SCALE
  5
51
102
{ACAD_REACTORS
330
47
102
}
330
47
100
AcDbScale
 70
     0
300
1:40
140
1.0
141
40.0
290
     0
  0
SCALE
  5
52
102
{ACAD_REACTORS
330
47
102
}
330
47
100
AcDbScale
 70
     0
300
1:50
140
1.0
141
50.0
290
     0
  0
SCALE
  5
53
102
{ACAD_REACTORS
330
47
102
}
330
47
100
AcDbScale
 70
     0
300
1:100
140
1.0
141
100.0
290
     0
  0
SCALE
  5
54
102
{ACAD_REACTORS
330
47
102
}
330
47
100
AcDbScale
 70
     0
300
2:1
140
2.0
141
1.0
290
     0
  0
SCALE
  5
55
102
{ACAD_REACTORS
330
47
102
}
330
47
100
AcDbScale
 70
     0
300
4:1
140
4.0
141
1.0
290
     0
  0
SCALE
  5
56
102
{ACAD_REACTORS
330
47
102
}
330
47
100
AcDbScale
 70
     0
300
8:1
140
8.0
141
1.0
290
     0
  0
SCALE
  5
57
102
{ACAD_REACTORS
330
47
102
}
330
47
100
AcDbScale
 70
     0
300
10:1
140
10.0
141
1.0
290
     0
  0
SCALE
  5
58
102
{ACAD_REACTORS
330
47
102
}
330
47
100
AcDbScale
 70
     0
300
100:1
140
100.0
141
1.0
290
     0
  0
SCALE
  5
59
102
{ACAD_REACTORS
330
47
102
}
330
47
100
AcDbScale
 70
     0
300
1/128" = 1'-0"
140
0.0078125
141
12.0
290
     0
  0
SCALE
  5
5A
102
{ACAD_REACTORS
330
47
102
}
330
47
100
AcDbScale
 70
     0
300
1/64" = 1'-0"
140
0.015625
141
12.0
290
     0
  0
SCALE
  5
5B
102
{ACAD_REACTORS
330
47
102
}
330
47
100
AcDbScale
 70
     0
300
1/32" = 1'-0"
140
0.03125
141
12.0
290
     0
  0
SCALE
  5
5C
102
{ACAD_REACTORS
330
47
102
}
330
47
100
AcDbScale
 70
     0
300
1/16" = 1'-0"
140
0.0625
141
12.0
290
     0
  0
SCALE
  5
5D
102
{ACAD_REACTORS
330
47
102
}
330
47
100
AcDbScale
 70
     0
300
3/32" = 1'-0"
140
0.09375
141
12.0
290
     0
  0
SCALE
  5
5E
102
{ACAD_REACTORS
330
47
102
}
330
47
100
AcDbScale
 70
     0
300
1/8" = 1'-0"
140
0.125
141
12.0
290
     0
  0
SCALE
  5
5F
102
{ACAD_REACTORS
330
47
102
}
330
47
100
AcDbScale
 70
     0
300
3/16" = 1'-0"
140
0.1875
141
12.0
290
     0
  0
SCALE
  5
60
102
{ACAD_REACTORS
330
47
102
}
330
47
100
AcDbScale
 70
     0
300
1/4" = 1'-0"
140
0.25
141
12.0
290
     0
  0
SCALE
  5
61
102
{ACAD_REACTORS
330
47
102
}
330
47
100
AcDbScale
 70
     0
300
3/8" = 1'-0"
140
0.375
141
12.0
290
     0
  0
SCALE
  5
62
102
{ACAD_REACTORS
330
47
102
}
330
47
100
AcDbScale
 70
     0
300
1/2" = 1'-0"
140
0.5
141
12.0
290
     0
  0
SCALE
  5
63
102
{ACAD_REACTORS
330
47
102
}
330
47
100
AcDbScale
 70
     0
300
3/4" = 1'-0"
140
0.75
141
12.0
290
     0
  0
SCALE
  5
64
102
{ACAD_REACTORS
330
47
102
}
330
47
100
AcDbScale
 70
     0
300
1" = 1'-0"
140
1.0
141
12.0
290
     0
  0
SCALE
  5
65
102
{ACAD_REACTORS
330
47
102
}
330
47
100
AcDbScale
 70
     0
300
1-1/2" = 1'-0"
140
1.5
141
12.0
290
     0
  0
SCALE
  5
66
102
{ACAD_REACTORS
330
47
102
}
330
47
100
AcDbScale
 70
     0
300
3" = 1'-0"
140
3.0
141
12.0
290
     0
  0
SCALE
  5
67
102
{ACAD_REACTORS
330
47
102
}
330
47
100
AcDbScale
 70
     0
300
6" = 1'-0"
140
6.0
141
12.0
290
     0
  0
SCALE
  5
68
102
{ACAD_REACTORS
330
47
102
}
330
47
100
AcDbScale
 70
     0
300
1'-0" = 1'-0"
140
12.0
141
12.0
290
     0
  0
ENDSEC
  0
EOF
