  0
SECTION
  2
HEADER
  9
$ACADVER
  1
AC1015
  9
$ACADMAINTVER
 70
     6
  9
$DWGCODEPAGE
  3
ANSI_949
  9
$INSBASE
 10
0.0
 20
0.0
 30
0.0
  9
$EXTMIN
 10
-93.41625000000006
 20
-49.97180738881175
 30
0.0
  9
$EXTMAX
 10
96.89984870712225
 20
63.0370537413329
 30
0.0
  9
$LIMMIN
 10
0.0
 20
0.0
  9
$LIMMAX
 10
420.0
 20
297.0
  9
$ORTHOMODE
 70
     1
  9
$REGENMODE
 70
     1
  9
$FILLMODE
 70
     1
  9
$QTEXTMODE
 70
     0
  9
$MIRRTEXT
 70
     1
  9
$LTSCALE
 40
1.0
  9
$ATTMODE
 70
     1
  9
$TEXTSIZE
 40
3.5
  9
$TRACEWID
 40
1.0
  9
$TEXTSTYLE
  7
Standard
  9
$CLAYER
  8
0
  9
$CELTYPE
  6
ByLayer
  9
$CECOLOR
 62
   256
  9
$CELTSCALE
 40
1.0
  9
$DISPSILH
 70
     0
  9
$DIMSCALE
 40
1.0
  9
$DIMASZ
 40
3.302
  9
$DIMEXO
 40
1.0
  9
$DIMDLI
 40
3.75
  9
$DIMRND
 40
0.0
  9
$DIMDLE
 40
0.0
  9
$DIMEXE
 40
1.0
  9
$DIMTP
 40
0.0
  9
$DIMTM
 40
0.0
  9
$DIMTXT
 40
3.5
  9
$DIMCEN
 40
2.5
  9
$DIMTSZ
 40
0.0
  9
$DIMTOL
 70
     0
  9
$DIMLIM
 70
     0
  9
$DIMTIH
 70
     1
  9
$DIMTOH
 70
     1
  9
$DIMSE1
 70
     0
  9
$DIMSE2
 70
     0
  9
$DIMTAD
 70
     1
  9
$DIMZIN
 70
     0
  9
$DIMBLK
  1

  9
$DIMASO
 70
     1
  9
$DIMSHO
 70
     1
  9
$DIMPOST
  1

  9
$DIMAPOST
  1

  9
$DIMALT
 70
     0
  9
$DIMALTD
 70
     3
  9
$DIMALTF
 40
0.0393700787401575
  9
$DIMLFAC
 40
1.0
  9
$DIMTOFL
 70
     1
  9
$DIMTVP
 40
0.0
  9
$DIMTIX
 70
     0
  9
$DIMSOXD
 70
     0
  9
$DIMSAH
 70
     0
  9
$DIMBLK1
  1

  9
$DIMBLK2
  1

  9
$DIMSTYLE
  2
ISO-25
  9
$DIMCLRD
 70
     0
  9
$DIMCLRE
 70
     0
  9
$DIMCLRT
 70
     0
  9
$DIMTFAC
 40
1.0
  9
$DIMGAP
 40
1.524
  9
$DIMJUST
 70
     0
  9
$DIMSD1
 70
     0
  9
$DIMSD2
 70
     0
  9
$DIMTOLJ
 70
     0
  9
$DIMTZIN
 70
     0
  9
$DIMALTZ
 70
     0
  9
$DIMALTTZ
 70
     0
  9
$DIMUPT
 70
     0
  9
$DIMDEC
 70
     2
  9
$DIMTDEC
 70
     2
  9
$DIMALTU
 70
     2
  9
$DIMALTTD
 70
     3
  9
$DIMTXSTY
  7
Standard
  9
$DIMAUNIT
 70
     0
  9
$DIMADEC
 70
     2
  9
$DIMALTRND
 40
0.0
  9
$DIMAZIN
 70
     0
  9
$DIMDSEP
 70
    44
  9
$DIMATFIT
 70
     3
  9
$DIMFRAC
 70
     0
  9
$DIMLDRBLK
  1

  9
$DIMLUNIT
 70
     2
  9
$DIMLWD
 70
    -2
  9
$DIMLWE
 70
    -2
  9
$DIMTMOVE
 70
     0
  9
$LUNITS
 70
     2
  9
$LUPREC
 70
     2
  9
$SKETCHINC
 40
1.0
  9
$FILLETRAD
 40
10.0
  9
$AUNITS
 70
     0
  9
$AUPREC
 70
     2
  9
$MENU
  1
.
  9
$ELEVATION
 40
0.0
  9
$PELEVATION
 40
0.0
  9
$THICKNESS
 40
0.0
  9
$LIMCHECK
 70
     0
  9
$CHAMFERA
 40
0.0
  9
$CHAMFERB
 40
0.0
  9
$CHAMFERC
 40
0.0
  9
$CHAMFERD
 40
0.0
  9
$SKPOLY
 70
     0
  9
$TDCREATE
 40
2458313.475472269
  9
$TDUCREATE
 40
2458313.100472269
  9
$TDUPDATE
 40
2458319.389480729
  9
$TDUUPDATE
 40
2458319.014480729
  9
$TDINDWG
 40
0.0020921875
  9
$TDUSRTIMER
 40
2458319.014369815
  9
$USRTIMER
 70
     1
  9
$ANGBASE
 50
0.0
  9
$ANGDIR
 70
     0
  9
$PDMODE
 70
     0
  9
$PDSIZE
 40
-1.0
  9
$PLINEWID
 40
0.0
  9
$SPLFRAME
 70
     0
  9
$SPLINETYPE
 70
     6
  9
$SPLINESEGS
 70
     8
  9
$HANDSEED
  5
3C5
  9
$SURFTAB1
 70
     6
  9
$SURFTAB2
 70
     6
  9
$SURFTYPE
 70
     6
  9
$SURFU
 70
     6
  9
$SURFV
 70
     6
  9
$UCSBASE
  2

  9
$UCSNAME
  2

  9
$UCSORG
 10
0.0
 20
0.0
 30
0.0
  9
$UCSXDIR
 10
1.0
 20
0.0
 30
0.0
  9
$UCSYDIR
 10
0.0
 20
1.0
 30
0.0
  9
$UCSORTHOREF
  2

  9
$UCSORTHOVIEW
 70
     0
  9
$UCSORGTOP
 10
0.0
 20
0.0
 30
0.0
  9
$UCSORGBOTTOM
 10
0.0
 20
0.0
 30
0.0
  9
$UCSORGLEFT
 10
0.0
 20
0.0
 30
0.0
  9
$UCSORGRIGHT
 10
0.0
 20
0.0
 30
0.0
  9
$UCSORGFRONT
 10
0.0
 20
0.0
 30
0.0
  9
$UCSORGBACK
 10
0.0
 20
0.0
 30
0.0
  9
$PUCSBASE
  2

  9
$PUCSNAME
  2

  9
$PUCSORG
 10
0.0
 20
0.0
 30
0.0
  9
$PUCSXDIR
 10
1.0
 20
0.0
 30
0.0
  9
$PUCSYDIR
 10
0.0
 20
1.0
 30
0.0
  9
$PUCSORTHOREF
  2

  9
$PUCSORTHOVIEW
 70
     0
  9
$PUCSORGTOP
 10
0.0
 20
0.0
 30
0.0
  9
$PUCSORGBOTTOM
 10
0.0
 20
0.0
 30
0.0
  9
$PUCSORGLEFT
 10
0.0
 20
0.0
 30
0.0
  9
$PUCSORGRIGHT
 10
0.0
 20
0.0
 30
0.0
  9
$PUCSORGFRONT
 10
0.0
 20
0.0
 30
0.0
  9
$PUCSORGBACK
 10
0.0
 20
0.0
 30
0.0
  9
$USERI1
 70
     0
  9
$USERI2
 70
     0
  9
$USERI3
 70
     0
  9
$USERI4
 70
     0
  9
$USERI5
 70
     0
  9
$USERR1
 40
0.0
  9
$USERR2
 40
0.0
  9
$USERR3
 40
0.0
  9
$USERR4
 40
0.0
  9
$USERR5
 40
0.0
  9
$WORLDVIEW
 70
     1
  9
$SHADEDGE
 70
     3
  9
$SHADEDIF
 70
    70
  9
$TILEMODE
 70
     1
  9
$MAXACTVP
 70
    64
  9
$PINSBASE
 10
0.0
 20
0.0
 30
0.0
  9
$PLIMCHECK
 70
     0
  9
$PEXTMIN
 10
1.000000000000000E+20
 20
1.000000000000000E+20
 30
1.000000000000000E+20
  9
$PEXTMAX
 10
-1.000000000000000E+20
 20
-1.000000000000000E+20
 30
-1.000000000000000E+20
  9
$PLIMMIN
 10
0.0
 20
0.0
  9
$PLIMMAX
 10
0.0
 20
0.0
  9
$UNITMODE
 70
     0
  9
$VISRETAIN
 70
     1
  9
$PLINEGEN
 70
     0
  9
$PSLTSCALE
 70
     1
  9
$TREEDEPTH
 70
  3020
  9
$CMLSTYLE
  2
Standard
  9
$CMLJUST
 70
     0
  9
$CMLSCALE
 40
20.0
  9
$PROXYGRAPHICS
 70
     1
  9
$MEASUREMENT
 70
     1
  9
$CELWEIGHT
370
    -1
  9
$ENDCAPS
280
     0
  9
$JOINSTYLE
280
     0
  9
$LWDISPLAY
290
     1
  9
$INSUNITS
 70
     4
  9
$HYPERLINKBASE
  1

  9
$STYLESHEET
  1

  9
$XEDIT
290
     1
  9
$CEPSNTYPE
380
     0
  9
$PSTYLEMODE
290
     1
  9
$FINGERPRINTGUID
  2
{93D0CF2C-3A0B-4260-967B-6EF31645A8A5}
  9
$VERSIONGUID
  2
{FAEB1C32-E019-11D5-929B-00C0DF256EC4}
  9
$EXTNAMES
290
     1
  9
$PSVPSCALE
 40
0.0
  9
$OLESTARTUP
290
     0
  0
ENDSEC
  0
SECTION
  2
CLASSES
  0
CLASS
  1
ACDBDICTIONARYWDFLT
  2
AcDbDictionaryWithDefault
  3
ObjectDBX Classes
 90
        0
280
     0
281
     0
  0
CLASS
  1
VISUALSTYLE
  2
AcDbVisualStyle
  3
ObjectDBX Classes
 90
     4095
280
     0
281
     0
  0
CLASS
  1
MATERIAL
  2
AcDbMaterial
  3
ObjectDBX Classes
 90
     1153
280
     0
281
     0
  0
CLASS
  1
SCALE
  2
AcDbScale
  3
ObjectDBX Classes
 90
     1153
280
     0
281
     0
  0
CLASS
  1
SUN
  2
AcDbSun
  3
SCENEOE
 90
     1153
280
     0
281
     0
  0
CLASS
  1
ACDBPLACEHOLDER
  2
AcDbPlaceHolder
  3
ObjectDBX Classes
 90
        0
280
     0
281
     0
  0
CLASS
  1
LAYOUT
  2
AcDbLayout
  3
ObjectDBX Classes
 90
        0
280
     0
281
     0
  0
CLASS
  1
TABLESTYLE
  2
AcDbTableStyle
  3
ObjectDBX Classes
 90
     4095
280
     0
281
     0
  0
CLASS
  1
MLEADERSTYLE
  2
AcDbMLeaderStyle
  3
ACDB_MLEADERSTYLE_CLASS
 90
     4095
280
     0
281
     0
  0
CLASS
  1
RASTERVARIABLES
  2
AcDbRasterVariables
  3
ISM
 90
        0
280
     0
281
     0
  0
ENDSEC
  0
SECTION
  2
TABLES
  0
TABLE
  2
VPORT
  5
8
330
0
100
AcDbSymbolTable
 70
     1
  0
VPORT
  5
29
330
8
100
AcDbSymbolTableRecord
100
AcDbViewportTableRecord
  2
*Active
 70
     0
 10
0.0
 20
0.0
 11
1.0
 21
1.0
 12
3.106570926876344
 22
0.3322869113768618
 13
0.0
 23
0.0
 14
10.0
 24
10.0
 15
10.0
 25
10.0
 16
0.0
 26
0.0
 36
1.0
 17
0.0
 27
0.0
 37
0.0
 40
167.6041260316163
 41
1.632093933463796
 42
50.0
 43
0.0
 44
0.0
 50
0.0
 51
0.0
 71
    16
 72
  2000
 73
     1
 74
     3
 75
     0
 76
     0
 77
     0
 78
     0
281
     0
 65
     1
110
0.0
120
0.0
130
0.0
111
1.0
121
0.0
131
0.0
112
0.0
122
1.0
132
0.0
 79
     0
146
0.0
  0
ENDTAB
  0
TABLE
  2
LTYPE
  5
5
330
0
100
AcDbSymbolTable
 70
     6
  0
LTYPE
  5
14
330
5
100
AcDbSymbolTableRecord
100
AcDbLinetypeTableRecord
  2
ByBlock
 70
     0
  3

 72
    65
 73
     0
 40
0.0
  0
LTYPE
  5
15
330
5
100
AcDbSymbolTableRecord
100
AcDbLinetypeTableRecord
  2
ByLayer
 70
     0
  3

 72
    65
 73
     0
 40
0.0
  0
LTYPE
  5
16
330
5
100
AcDbSymbolTableRecord
100
AcDbLinetypeTableRecord
  2
Continuous
 70
     0
  3
Solid line
 72
    65
 73
     0
 40
0.0
  0
LTYPE
  5
6A
330
5
100
AcDbSymbolTableRecord
100
AcDbLinetypeTableRecord
  2
HIDDEN
 70
     0
  3
Hidden __ __ __ __ __ __ __ __ __ __ __ __ __ __
 72
    65
 73
     2
 40
1.905
 49
1.27
 74
     0
 49
-0.635
 74
     0
  0
LTYPE
  5
6B
330
5
100
AcDbSymbolTableRecord
100
AcDbLinetypeTableRecord
  2
PHANTOM
 70
     0
  3
Phantom ______  __  __  ______  __  __  ______
 72
    65
 73
     6
 40
12.7
 49
6.35
 74
     0
 49
-1.27
 74
     0
 49
1.27
 74
     0
 49
-1.27
 74
     0
 49
1.27
 74
     0
 49
-1.27
 74
     0
  0
LTYPE
  5
6C
330
5
100
AcDbSymbolTableRecord
100
AcDbLinetypeTableRecord
  2
CENTER
 70
     0
  3
Center ____ _ ____ _ ____ _ ____ _ ____ _ ____
 72
    65
 73
     4
 40
10.16
 49
6.35
 74
     0
 49
-1.27
 74
     0
 49
1.27
 74
     0
 49
-1.27
 74
     0
  0
LTYPE
  5
6D
330
5
100
AcDbSymbolTableRecord
100
AcDbLinetypeTableRecord
  2
CENTERX2
 70
     0
  3
Center (2x) ________  __  ________  __  _____
 72
    65
 73
     4
 40
20.32
 49
12.7
 74
     0
 49
-2.54
 74
     0
 49
2.54
 74
     0
 49
-2.54
 74
     0
  0
LTYPE
  5
6E
330
5
100
AcDbSymbolTableRecord
100
AcDbLinetypeTableRecord
  2
DOT2
 70
     0
  3
Dot (.5x) ........................................
 72
    65
 73
     2
 40
0.635
 49
0.0
 74
     0
 49
-0.635
 74
     0
  0
ENDTAB
  0
TABLE
  2
LAYER
  5
2
102
{ACAD_XDICTIONARY
360
1CD
102
}
330
0
100
AcDbSymbolTable
 70
    18
  0
LAYER
  5
10
330
2
100
AcDbSymbolTableRecord
100
AcDbLayerTableRecord
  2
0
 70
     0
 62
     7
  6
Continuous
370
    -3
390
F
  0
LAYER
  5
6F
330
2
100
AcDbSymbolTableRecord
100
AcDbLayerTableRecord
  2
FORMAT
 70
     0
 62
     2
  6
Continuous
370
    -3
390
F
  0
LAYER
  5
70
330
2
100
AcDbSymbolTableRecord
100
AcDbLayerTableRecord
  2
외형선
 70
     0
 62
     4
  6
Continuous
370
    30
390
F
  0
LAYER
  5
71
330
2
100
AcDbSymbolTableRecord
100
AcDbLayerTableRecord
  2
숨은선
 70
     0
 62
     2
  6
HIDDEN
370
    15
390
F
  0
LAYER
  5
72
330
2
100
AcDbSymbolTableRecord
100
AcDbLayerTableRecord
  2
중심선
 70
     0
 62
     1
  6
CENTERX2
370
    -3
390
F
  0
LAYER
  5
73
330
2
100
AcDbSymbolTableRecord
100
AcDbLayerTableRecord
  2
파단선
 70
     0
 62
     4
  6
Continuous
370
    -3
390
F
  0
LAYER
  5
74
330
2
100
AcDbSymbolTableRecord
100
AcDbLayerTableRecord
  2
해칭선
 70
     0
 62
   100
  6
Continuous
370
    -3
390
F
  0
LAYER
  5
75
330
2
100
AcDbSymbolTableRecord
100
AcDbLayerTableRecord
  2
가는실선
 70
     0
 62
     4
  6
Continuous
370
    -3
390
F
  0
LAYER
  5
76
330
2
100
AcDbSymbolTableRecord
100
AcDbLayerTableRecord
  2
치수_보조선
 70
     0
 62
     4
  6
Continuous
370
    -3
390
F
  0
LAYER
  5
77
330
2
100
AcDbSymbolTableRecord
100
AcDbLayerTableRecord
  2
치수문자_일반주서
 70
     0
 62
     7
  6
Continuous
370
    15
390
F
  0
LAYER
  5
78
330
2
100
AcDbSymbolTableRecord
100
AcDbLayerTableRecord
  2
개별주서
 70
     0
 62
   100
  6
Continuous
370
    30
390
F
  0
LAYER
  5
79
330
2
100
AcDbSymbolTableRecord
100
AcDbLayerTableRecord
  2
중간선
 70
     0
 62
     2
  6
Continuous
370
    15
390
F
  0
LAYER
  5
7A
330
2
100
AcDbSymbolTableRecord
100
AcDbLayerTableRecord
  2
윤곽선
 70
     0
 62
     3
  6
Continuous
370
    40
390
F
  0
LAYER
  5
7B
330
2
100
AcDbSymbolTableRecord
100
AcDbLayerTableRecord
  2
중심마크
 70
     0
 62
   100
  6
Continuous
370
    30
390
F
  0
LAYER
  5
7C
330
2
100
AcDbSymbolTableRecord
100
AcDbLayerTableRecord
  2
가상선
 70
     0
 62
     4
  6
PHANTOM
370
    -3
390
F
  0
LAYER
  5
7D
330
2
100
AcDbSymbolTableRecord
100
AcDbLayerTableRecord
  2
특수지정선
 70
     0
 62
     5
  6
CENTERX2
370
    60
390
F
  0
LAYER
  5
7E
330
2
100
AcDbSymbolTableRecord
100
AcDbLayerTableRecord
  2
참조1
 70
     0
 62
    -4
  6
Continuous
370
    -3
390
F
  0
LAYER
  5
149
330
2
100
AcDbSymbolTableRecord
100
AcDbLayerTableRecord
  2
Defpoints
 70
     0
 62
     7
  6
Continuous
290
     0
370
    -3
390
F
  0
ENDTAB
  0
TABLE
  2
STYLE
  5
3
330
0
100
AcDbSymbolTable
 70
     2
  0
STYLE
  5
11
330
3
100
AcDbSymbolTableRecord
100
AcDbTextStyleTableRecord
  2
Standard
 70
     0
 40
0.0
 41
1.0
 50
0.0
 71
     0
 42
3.5
  3
txt
  4

  0
STYLE
  5
94
330
3
100
AcDbSymbolTableRecord
100
AcDbTextStyleTableRecord
  2
SLDTEXTSTYLE0
 70
     0
 40
0.0
 41
0.75
 50
0.0
 71
     0
 42
3.5
  3
TXT
  4

  0
ENDTAB
  0
TABLE
  2
VIEW
  5
6
330
0
100
AcDbSymbolTable
 70
     0
  0
ENDTAB
  0
TABLE
  2
UCS
  5
7
330
0
100
AcDbSymbolTable
 70
     0
  0
ENDTAB
  0
TABLE
  2
APPID
  5
9
330
0
100
AcDbSymbolTable
 70
     1
  0
APPID
  5
12
330
9
100
AcDbSymbolTableRecord
100
AcDbRegAppTableRecord
  2
ACAD
 70
     0
  0
ENDTAB
  0
TABLE
  2
DIMSTYLE
  5
A
330
0
100
AcDbSymbolTable
 70
     3
100
AcDbDimStyleTable
  0
DIMSTYLE
105
27
330
A
100
AcDbSymbolTableRecord
100
AcDbDimStyleTableRecord
  2
ISO-25
 70
     0
 41
2.5
 42
0.625
 43
3.75
 44
1.25
 73
     0
 74
     0
 77
     1
 78
     8
140
2.5
141
2.5
143
0.03937007874016
147
0.625
171
     3
172
     1
178
     0
271
     2
272
     2
274
     3
278
    44
283
     0
284
     8
340
11
  0
DIMSTYLE
105
C7
330
A
100
AcDbSymbolTableRecord
100
AcDbDimStyleTableRecord
  2
SLDDIMSTYLE0
 70
     0
 41
3.302
 44
0.0
 45
0.000000001
 73
     0
 74
     0
 77
     1
 78
    12
 79
     3
140
3.5
143
0.0393700787401575
147
0.875
148
0.000000001
170
     1
173
     1
178
     0
271
     2
272
     2
276
     2
284
    12
340
94
  0
DIMSTYLE
105
102
102
{ACAD_REACTORS
330
101
330
DA
330
C6
330
EE
102
}
330
A
100
AcDbSymbolTableRecord
100
AcDbDimStyleTableRecord
  2
SLDDIMSTYLE1
 70
     0
 41
3.302
 44
0.0
 45
0.000000001
 73
     0
 74
     0
 77
     1
 78
    12
 79
     3
140
3.5
143
0.0393700787401575
147
0.875
148
0.000000001
170
     1
172
     1
173
     1
178
     0
271
     2
272
     2
276
     2
284
    12
289
     0
340
94
  0
ENDTAB
  0
TABLE
  2
BLOCK_RECORD
  5
1
330
0
100
AcDbSymbolTable
 70
    19
  0
BLOCK_RECORD
  5
1F
330
1
100
AcDbSymbolTableRecord
100
AcDbBlockTableRecord
  2
*Model_Space
340
22
  0
BLOCK_RECORD
  5
1B
330
1
100
AcDbSymbolTableRecord
100
AcDbBlockTableRecord
  2
*Paper_Space
340
1E
  0
BLOCK_RECORD
  5
23
330
1
100
AcDbSymbolTableRecord
100
AcDbBlockTableRecord
  2
*Paper_Space0
340
26
  0
BLOCK_RECORD
  5
7F
330
1
100
AcDbSymbolTableRecord
100
AcDbBlockTableRecord
  2
블럭10
340
0
102
{BLKREFS
331
BF
102
}
  0
BLOCK_RECORD
  5
C8
330
1
100
AcDbSymbolTableRecord
100
AcDbBlockTableRecord
  2
_D
340
0
  0
BLOCK_RECORD
  5
DB
330
1
100
AcDbSymbolTableRecord
100
AcDbBlockTableRecord
  2
_D_1
340
0
  0
BLOCK_RECORD
  5
EF
330
1
100
AcDbSymbolTableRecord
100
AcDbBlockTableRecord
  2
_D_2
340
0
  0
BLOCK_RECORD
  5
103
330
1
100
AcDbSymbolTableRecord
100
AcDbBlockTableRecord
  2
_D_3
340
0
  0
BLOCK_RECORD
  5
11D
330
1
100
AcDbSymbolTableRecord
100
AcDbBlockTableRecord
  2
SW_DOWELSYMBOL_0
340
0
102
{BLKREFS
331
123
102
}
  0
BLOCK_RECORD
  5
1D1
330
1
100
AcDbSymbolTableRecord
100
AcDbBlockTableRecord
  2
*D7
340
0
  0
BLOCK_RECORD
  5
1E0
330
1
100
AcDbSymbolTableRecord
100
AcDbBlockTableRecord
  2
*D8
340
0
  0
BLOCK_RECORD
  5
1EC
330
1
100
AcDbSymbolTableRecord
100
AcDbBlockTableRecord
  2
*D9
340
0
  0
BLOCK_RECORD
  5
227
330
1
100
AcDbSymbolTableRecord
100
AcDbBlockTableRecord
  2
*D10
340
0
  0
BLOCK_RECORD
  5
236
330
1
100
AcDbSymbolTableRecord
100
AcDbBlockTableRecord
  2
*D11
340
0
  0
BLOCK_RECORD
  5
242
330
1
100
AcDbSymbolTableRecord
100
AcDbBlockTableRecord
  2
*D12
340
0
  0
BLOCK_RECORD
  5
2D5
330
1
100
AcDbSymbolTableRecord
100
AcDbBlockTableRecord
  2
*D13
340
0
  0
BLOCK_RECORD
  5
2E4
330
1
100
AcDbSymbolTableRecord
100
AcDbBlockTableRecord
  2
*D14
340
0
  0
BLOCK_RECORD
  5
2F3
330
1
100
AcDbSymbolTableRecord
100
AcDbBlockTableRecord
  2
*D15
340
0
  0
BLOCK_RECORD
  5
325
330
1
100
AcDbSymbolTableRecord
100
AcDbBlockTableRecord
  2
*D16
340
0
  0
BLOCK_RECORD
  5
334
330
1
100
AcDbSymbolTableRecord
100
AcDbBlockTableRecord
  2
*D17
340
0
  0
BLOCK_RECORD
  5
343
330
1
100
AcDbSymbolTableRecord
100
AcDbBlockTableRecord
  2
*D18
340
0
  0
ENDTAB
  0
ENDSEC
  0
SECTION
  2
BLOCKS
  0
BLOCK
  5
20
330
1F
100
AcDbEntity
  8
0
100
AcDbBlockBegin
  2
*Model_Space
 70
     0
 10
0.0
 20
0.0
 30
0.0
  3
*Model_Space
  1
*Model_Space
  0
ENDBLK
  5
21
330
1F
100
AcDbEntity
  8
0
100
AcDbBlockEnd
  0
BLOCK
  5
1C
330
1B
100
AcDbEntity
 67
     1
  8
0
100
AcDbBlockBegin
  2
*Paper_Space
 70
     0
 10
0.0
 20
0.0
 30
0.0
  3
*Paper_Space
  1
*Paper_Space
  0
ENDBLK
  5
1D
330
1B
100
AcDbEntity
 67
     1
  8
0
100
AcDbBlockEnd
  0
BLOCK
  5
24
330
23
100
AcDbEntity
  8
0
100
AcDbBlockBegin
  2
*Paper_Space0
 70
     0
 10
0.0
 20
0.0
 30
0.0
  3
*Paper_Space0
  1
*Paper_Space0
  0
ENDBLK
  5
25
330
23
100
AcDbEntity
  8
0
100
AcDbBlockEnd
  0
BLOCK
  5
80
330
7F
100
AcDbEntity
  8
0
100
AcDbBlockBegin
  2
블럭10
 70
     2
 10
0.0
 20
0.0
 30
0.0
  3
블럭10
  1
블럭10
  0
ELLIPSE
  5
82
330
7F
100
AcDbEntity
  8
중심선
100
AcDbEllipse
 10
20.54032771741204
 20
12.0471743016438
 30
0.0
 11
6.600054785286829
 21
-1.261213355974178E-13
 31
0.0
210
0.0
220
0.0
230
1.0
 40
0.636358354079598
 41
0.9219305317359503
 42
6.513795318482858
  0
ELLIPSE
  5
83
330
7F
100
AcDbEntity
  8
중심선
100
AcDbEllipse
 10
20.54032771746488
 20
12.04717430159265
 30
0.0
 11
3.960054785062283
 21
1.540847449632565E-10
 31
0.0
210
0.0
220
0.0
230
1.0
 40
0.3939339440162632
 41
1.131841032648279
 42
5.62031148352944
  0
LINE
  5
84
330
7F
100
AcDbEntity
  8
중심선
100
AcDbLine
 10
2.268634060543552
 20
16.24717430164393
 30
0.0
 11
5.714909304380834
 21
16.24717430164393
 31
0.0
  0
LINE
  5
85
330
7F
100
AcDbEntity
  8
중심선
100
AcDbLine
 10
5.245725140726316
 20
7.84717430164391
 30
0.0
 11
8.692000384563599
 21
7.84717430164391
 31
0.0
  0
LINE
  5
86
330
7F
100
AcDbEntity
  8
중심선
100
AcDbLine
 10
15.74043728645272
 20
16.24717430164393
 30
0.0
 11
8.692000384563599
 21
7.84717430164391
 31
0.0
  0
LINE
  5
87
330
7F
100
AcDbEntity
  8
중심선
100
AcDbLine
 10
0.1404042013395286
 20
13.71084872107135
 30
0.0
 11
3.58671253028996
 21
13.71088815037384
 31
0.0
  0
LINE
  5
88
330
7F
100
AcDbEntity
  8
중심선
100
AcDbLine
 10
2.750260043222114
 20
10.84717430164391
 30
0.0
 11
6.196535287059397
 21
10.84717430164391
 31
0.0
  0
LINE
  5
89
330
7F
100
AcDbEntity
  8
중심선
100
AcDbLine
 10
12.29416204261559
 20
16.24717430164393
 30
0.0
 11
5.245725140726316
 21
7.84717430164391
 31
0.0
  0
LINE
  5
8A
330
7F
100
AcDbEntity
  8
중심선
100
AcDbLine
 10
10.72767329541681
 20
16.24717430164393
 30
0.0
 11
6.196535287059397
 21
10.84717430164391
 31
0.0
  0
LINE
  5
8B
330
7F
100
AcDbEntity
  8
중심선
100
AcDbLine
 10
7.28139805157953
 20
16.24717430164393
 30
0.0
 11
2.750260043222114
 21
10.84717430164391
 31
0.0
  0
LINE
  5
8C
330
7F
100
AcDbEntity
  8
중심선
100
AcDbLine
 10
5.714909304380834
 20
16.24717430164393
 30
0.0
 11
3.58671253028996
 21
13.71088815037384
 31
0.0
  0
LINE
  5
8D
330
7F
100
AcDbEntity
  8
중심선
100
AcDbLine
 10
2.268634060543552
 20
16.24717430164393
 30
0.0
 11
0.1404042013395286
 21
13.71084872107135
 31
0.0
  0
LINE
  5
8E
330
7F
100
AcDbEntity
  8
중심선
100
AcDbLine
 10
7.28139805157953
 20
16.24717430164393
 30
0.0
 11
10.72767329541681
 21
16.24717430164393
 31
0.0
  0
LINE
  5
8F
330
7F
100
AcDbEntity
  8
중심선
100
AcDbLine
 10
12.29416204261559
 20
16.24717430164393
 30
0.0
 11
15.74043728645272
 21
16.24717430164393
 31
0.0
  0
LINE
  5
90
330
7F
100
AcDbEntity
  8
중심선
100
AcDbLine
 10
19.22036997980202
 20
11.08717430171403
 30
0.0
 11
23.66174974927406
 21
11.08717430171406
 31
0.0
  0
LINE
  5
91
330
7F
100
AcDbEntity
  8
중심선
100
AcDbLine
 10
19.22039502424796
 20
13.00717430171391
 30
0.0
 11
19.22036997980202
 21
11.08717430171403
 31
0.0
  0
LINE
  5
92
330
7F
100
AcDbEntity
  8
중심선
100
AcDbLine
 10
19.22039502424796
 20
13.00717430171391
 30
0.0
 11
26.96566020931264
 21
13.00717430171391
 31
0.0
  0
LINE
  5
93
330
7F
100
AcDbEntity
  8
중심선
100
AcDbLine
 10
22.22332737316547
 20
13.45928029700563
 30
0.0
 11
24.52862924686651
 21
15.39360700705356
 31
0.0
  0
ATTDEF
  5
95
330
7F
100
AcDbEntity
  8
FORMAT
 62
     2
100
AcDbText
 10
4.408487351596664
 20
2.075366912832191
 30
0.0
 40
4.233333333333333
  1
E1053056
 41
0.75
  7
SLDTEXTSTYLE0
 11
4.408487351596664
 21
-0.0412997538344756
 31
0.0
100
AcDbAttributeDefinition
  3

  2
AUTOATTR0
 70
     0
 74
     1
  0
ENDBLK
  5
81
330
7F
100
AcDbEntity
  8
0
100
AcDbBlockEnd
  0
BLOCK
  5
C9
330
C8
100
AcDbEntity
  8
0
100
AcDbBlockBegin
  2
_D
 70
     0
 10
0.0
 20
0.0
 30
0.0
  3
_D
  1
_D
  0
LINE
  5
CB
330
C8
100
AcDbEntity
  8
치수문자_일반주서
 62
     0
370
    -2
100
AcDbLine
 10
77.85
 20
11.11250000000001
 30
0.0
 11
96.34951537378883
 21
11.11250000000008
 31
0.0
  0
LINE
  5
CC
330
C8
100
AcDbEntity
  8
치수문자_일반주서
 62
     0
370
    -2
100
AcDbLine
 10
77.84999999999994
 20
-11.11249999999999
 30
0.0
 11
96.3495153737889
 21
-11.11249999999992
 31
0.0
  0
LINE
  5
CD
330
C8
100
AcDbEntity
  8
치수문자_일반주서
 62
     0
370
    -2
100
AcDbLine
 10
96.34951537378883
 20
11.11250000000008
 30
0.0
 11
96.34951537378872
 21
48.82374124874968
 31
0.0
  0
LINE
  5
CE
330
C8
100
AcDbEntity
  8
치수문자_일반주서
 62
     0
370
    -2
100
AcDbLine
 10
96.34951537378883
 20
11.11250000000008
 30
0.0
 11
96.3495153737889
 21
-11.11249999999992
 31
0.0
  0
LINE
  5
CF
330
C8
100
AcDbEntity
  8
치수문자_일반주서
 62
     0
370
    -2
100
AcDbLine
 10
96.34951537378882
 20
14.41450000000008
 30
0.0
 11
96.3495153737888
 21
17.71650000000008
 31
0.0
  0
LINE
  5
D0
330
C8
100
AcDbEntity
  8
치수문자_일반주서
 62
     0
370
    -2
100
AcDbLine
 10
96.34951537378892
 20
-14.41449999999992
 30
0.0
 11
96.34951537378893
 21
-17.71649999999992
 31
0.0
  0
SOLID
  5
D1
330
C8
100
AcDbEntity
  8
치수문자_일반주서
 62
     0
100
AcDbTrace
 10
95.79918204045549
 20
14.41450000000008
 30
0.0
 11
96.89984870712215
 21
14.41450000000008
 31
0.0
 12
96.34951537378883
 22
11.11250000000008
 32
0.0
 13
96.34951537378883
 23
11.11250000000008
 33
0.0
  0
SOLID
  5
D2
330
C8
100
AcDbEntity
  8
치수문자_일반주서
 62
     0
100
AcDbTrace
 10
96.89984870712225
 20
-14.41449999999992
 30
0.0
 11
95.79918204045559
 21
-14.41449999999992
 31
0.0
 12
96.3495153737889
 22
-11.11249999999992
 32
0.0
 13
96.3495153737889
 23
-11.11249999999992
 33
0.0
  0
MTEXT
  5
D3
330
C8
100
AcDbEntity
  8
치수문자_일반주서
 62
     0
100
AcDbMText
 10
91.97451537378876
 20
34.38624124874966
 30
0.0
 40
3.5
 41
0.0
 71
     2
 72
     1
  1
\A1;%%c22.23 [7/8]
  7
SLDTEXTSTYLE0
 11
-3.197042680585377E-15
 21
1.0
 31
0.0
 73
     1
 44
1.0
  0
POINT
  5
D4
330
C8
100
AcDbEntity
  8
Defpoints
 62
     0
100
AcDbPoint
 10
77.7875
 20
11.11250000000001
 30
0.0
  0
POINT
  5
250
330
C8
100
AcDbEntity
  8
Defpoints
 62
     0
100
AcDbPoint
 10
77.78749999999994
 20
-11.11249999999999
 30
0.0
  0
POINT
  5
251
330
C8
100
AcDbEntity
  8
Defpoints
 62
     0
100
AcDbPoint
 10
96.34951537378893
 20
-11.11249999999992
 30
0.0
  0
ENDBLK
  5
CA
330
C8
100
AcDbEntity
  8
0
100
AcDbBlockEnd
  0
BLOCK
  5
DC
330
DB
100
AcDbEntity
  8
0
100
AcDbBlockBegin
  2
_D_1
 70
     0
 10
0.0
 20
0.0
 30
0.0
  3
_D_1
  1
_D_1
  0
LINE
  5
DE
330
DB
100
AcDbEntity
  8
치수문자_일반주서
 62
     0
370
    -2
100
AcDbLine
 10
77.7875
 20
11.17500000000001
 30
0.0
 11
77.7875
 21
27.72389524088822
 31
0.0
  0
LINE
  5
DF
330
DB
100
AcDbEntity
  8
치수문자_일반주서
 62
     0
370
    -2
100
AcDbLine
 10
30.16250000000001
 20
10.88393549245501
 30
0.0
 11
30.16250000000001
 21
27.72389524088822
 31
0.0
  0
LINE
  5
E0
330
DB
100
AcDbEntity
  8
치수문자_일반주서
 62
     0
370
    -2
100
AcDbLine
 10
30.16250000000001
 20
27.72389524088822
 30
0.0
 11
-7.066499999999991
 21
27.72389524088822
 31
0.0
  0
LINE
  5
E1
330
DB
100
AcDbEntity
  8
치수문자_일반주서
 62
     0
370
    -2
100
AcDbLine
 10
77.7875
 20
27.72389524088822
 30
0.0
 11
30.16250000000001
 21
27.72389524088822
 31
0.0
  0
LINE
  5
E2
330
DB
100
AcDbEntity
  8
치수문자_일반주서
 62
     0
370
    -2
100
AcDbLine
 10
81.08949999999999
 20
27.72389524088822
 30
0.0
 11
84.39149999999998
 21
27.72389524088822
 31
0.0
  0
LINE
  5
E3
330
DB
100
AcDbEntity
  8
치수문자_일반주서
 62
     0
370
    -2
100
AcDbLine
 10
26.86050000000001
 20
27.72389524088822
 30
0.0
 11
23.55850000000001
 21
27.72389524088822
 31
0.0
  0
SOLID
  5
E4
330
DB
100
AcDbEntity
  8
치수문자_일반주서
 62
     0
100
AcDbTrace
 10
81.08949999999999
 20
28.27422857422156
 30
0.0
 11
81.08949999999999
 21
27.17356190755489
 31
0.0
 12
77.7875
 22
27.72389524088822
 32
0.0
 13
77.7875
 23
27.72389524088822
 33
0.0
  0
SOLID
  5
E5
330
DB
100
AcDbEntity
  8
치수문자_일반주서
 62
     0
100
AcDbTrace
 10
26.86050000000001
 20
27.17356190755489
 30
0.0
 11
26.86050000000001
 21
28.27422857422156
 31
0.0
 12
30.16250000000001
 22
27.72389524088822
 32
0.0
 13
30.16250000000001
 23
27.72389524088822
 33
0.0
  0
MTEXT
  5
E6
330
DB
100
AcDbEntity
  8
치수문자_일반주서
 62
     0
100
AcDbMText
 10
8.24600000000001
 20
32.09889524088823
 30
0.0
 40
3.5
 41
0.0
 71
     2
 72
     1
  1
\A1;47.63 [1 7/8]
  7
SLDTEXTSTYLE0
 73
     1
 44
1.0
  0
POINT
  5
E7
330
DB
100
AcDbEntity
  8
Defpoints
 62
     0
100
AcDbPoint
 10
77.7875
 20
11.11250000000001
 30
0.0
  0
POINT
  5
24E
330
DB
100
AcDbEntity
  8
Defpoints
 62
     0
100
AcDbPoint
 10
30.16250000000001
 20
10.82143549245501
 30
0.0
  0
POINT
  5
24F
330
DB
100
AcDbEntity
  8
Defpoints
 62
     0
100
AcDbPoint
 10
30.16250000000001
 20
27.72389524088822
 30
0.0
  0
ENDBLK
  5
DD
330
DB
100
AcDbEntity
  8
0
100
AcDbBlockEnd
  0
BLOCK
  5
F0
330
EF
100
AcDbEntity
  8
0
100
AcDbBlockBegin
  2
_D_2
 70
     0
 10
0.0
 20
0.0
 30
0.0
  3
_D_2
  1
_D_2
  0
LINE
  5
F2
330
EF
100
AcDbEntity
  8
치수문자_일반주서
 62
     0
370
    -2
100
AcDbLine
 10
77.7875
 20
11.17500000000001
 30
0.0
 11
77.7875
 21
58.6620537413329
 31
0.0
  0
LINE
  5
F3
330
EF
100
AcDbEntity
  8
치수문자_일반주서
 62
     0
370
    -2
100
AcDbLine
 10
-77.7875
 20
8.952500000000004
 30
0.0
 11
-77.7875
 21
58.6620537413329
 31
0.0
  0
LINE
  5
F4
330
EF
100
AcDbEntity
  8
치수문자_일반주서
 62
     0
370
    -2
100
AcDbLine
 10
74.4855
 20
58.6620537413329
 30
0.0
 11
-74.4855
 21
58.6620537413329
 31
0.0
  0
SOLID
  5
F5
330
EF
100
AcDbEntity
  8
치수문자_일반주서
 62
     0
100
AcDbTrace
 10
74.4855
 20
58.11172040799957
 30
0.0
 11
74.4855
 21
59.21238707466624
 31
0.0
 12
77.7875
 22
58.6620537413329
 32
0.0
 13
77.7875
 23
58.6620537413329
 33
0.0
  0
SOLID
  5
F6
330
EF
100
AcDbEntity
  8
치수문자_일반주서
 62
     0
100
AcDbTrace
 10
-74.4855
 20
59.21238707466624
 30
0.0
 11
-74.4855
 21
58.11172040799957
 31
0.0
 12
-77.7875
 22
58.6620537413329
 32
0.0
 13
-77.7875
 23
58.6620537413329
 33
0.0
  0
MTEXT
  5
F7
330
EF
100
AcDbEntity
  8
치수문자_일반주서
 62
     0
100
AcDbMText
 10
-3.969488601107457
 20
63.0370537413329
 30
0.0
 40
3.5
 41
0.0
 71
     2
 72
     1
  1
\A1;155.58 [6 1/8]
  7
SLDTEXTSTYLE0
 73
     1
 44
1.0
  0
POINT
  5
F8
330
EF
100
AcDbEntity
  8
Defpoints
 62
     0
100
AcDbPoint
 10
77.7875
 20
11.11250000000001
 30
0.0
  0
POINT
  5
F9
330
EF
100
AcDbEntity
  8
Defpoints
 62
     0
100
AcDbPoint
 10
-77.7875
 20
8.890000000000004
 30
0.0
  0
POINT
  5
FA
330
EF
100
AcDbEntity
  8
Defpoints
 62
     0
100
AcDbPoint
 10
-77.7875
 20
58.6620537413329
 30
0.0
  0
ENDBLK
  5
F1
330
EF
100
AcDbEntity
  8
0
100
AcDbBlockEnd
  0
BLOCK
  5
104
330
103
100
AcDbEntity
  8
0
100
AcDbBlockBegin
  2
_D_3
 70
     0
 10
0.0
 20
0.0
 30
0.0
  3
_D_3
  1
_D_3
  0
LINE
  5
106
330
103
100
AcDbEntity
  8
치수문자_일반주서
 62
     0
370
    -2
100
AcDbLine
 10
-29.72513180995382
 20
11.1125
 30
0.0
 11
-89.04125000000005
 21
11.11249999999978
 31
0.0
  0
LINE
  5
107
330
103
100
AcDbEntity
  8
치수문자_일반주서
 62
     0
370
    -2
100
AcDbLine
 10
-29.72513180995381
 20
-11.11250000000001
 30
0.0
 11
-89.04124999999998
 21
-11.11250000000024
 31
0.0
  0
LINE
  5
108
330
103
100
AcDbEntity
  8
치수문자_일반주서
 62
     0
370
    -2
100
AcDbLine
 10
-89.04125000000003
 20
7.810499999999776
 30
0.0
 11
-89.04124999999999
 21
-7.810500000000236
 31
0.0
  0
SOLID
  5
109
330
103
100
AcDbEntity
  8
치수문자_일반주서
 62
     0
100
AcDbTrace
 10
-88.4909166666667
 20
7.810499999999777
 30
0.0
 11
-89.59158333333336
 21
7.810499999999774
 31
0.0
 12
-89.04125000000005
 22
11.11249999999978
 32
0.0
 13
-89.04125000000005
 23
11.11249999999978
 33
0.0
  0
SOLID
  5
10A
330
103
100
AcDbEntity
  8
치수문자_일반주서
 62
     0
100
AcDbTrace
 10
-89.59158333333332
 20
-7.810500000000237
 30
0.0
 11
-88.49091666666666
 21
-7.810500000000234
 31
0.0
 12
-89.04124999999998
 22
-11.11250000000024
 32
0.0
 13
-89.04124999999998
 23
-11.11250000000024
 33
0.0
  0
MTEXT
  5
10B
330
103
100
AcDbEntity
  8
치수문자_일반주서
 62
     0
100
AcDbMText
 10
-93.41625000000002
 20
-0.0000000000000246
 30
0.0
 40
3.5
 41
0.0
 71
     2
 72
     1
  1
\A1;%%c22.23 [7/8]
  7
SLDTEXTSTYLE0
 11
-3.197042680585376E-15
 21
1.0
 31
0.0
 73
     1
 44
1.0
  0
POINT
  5
10C
330
103
100
AcDbEntity
  8
Defpoints
 62
     0
100
AcDbPoint
 10
-29.66263180995382
 20
11.1125
 30
0.0
  0
POINT
  5
10D
330
103
100
AcDbEntity
  8
Defpoints
 62
     0
100
AcDbPoint
 10
-29.66263180995381
 20
-11.11250000000001
 30
0.0
  0
POINT
  5
10E
330
103
100
AcDbEntity
  8
Defpoints
 62
     0
100
AcDbPoint
 10
-89.04124999999996
 20
-11.11250000000024
 30
0.0
  0
ENDBLK
  5
105
330
103
100
AcDbEntity
  8
0
100
AcDbBlockEnd
  0
BLOCK
  5
11E
330
11D
100
AcDbEntity
  8
0
100
AcDbBlockBegin
  2
SW_DOWELSYMBOL_0
 70
     0
 10
0.0
 20
0.0
 30
0.0
  3
SW_DOWELSYMBOL_0
  1
SW_DOWELSYMBOL_0
  0
CIRCLE
  5
120
330
11D
100
AcDbEntity
  8
해칭선
 62
     0
100
AcDbCircle
 10
0.0
 20
0.0
 30
0.0
 40
3.000000000000008
  0
HATCH
  5
121
330
11D
100
AcDbEntity
  8
0
  6
Continuous
 62
     0
370
     0
100
AcDbHatch
 10
0.0
 20
0.0
 30
0.0
210
0.0
220
0.0
230
1.0
  2
SOLID
 70
     1
 71
     0
 91
        1
 92
        0
 93
        3
 72
     2
 10
0.0
 20
0.0
 40
3.000000000000008
 50
0.0
 51
90.0
 73
     1
 72
     1
 10
0.0
 20
3.000000000000008
 11
0.0
 21
0.0
 72
     1
 10
0.0
 20
0.0
 11
3.000000000000003
 21
0.0
 97
        0
 75
     0
 76
     1
 98
        1
 10
0.0
 20
0.0
  0
HATCH
  5
122
330
11D
100
AcDbEntity
  8
0
  6
Continuous
 62
     0
370
     0
100
AcDbHatch
 10
0.0
 20
0.0
 30
0.0
210
0.0
220
0.0
230
1.0
  2
SOLID
 70
     1
 71
     0
 91
        1
 92
        0
 93
        3
 72
     2
 10
0.0
 20
0.0
 40
3.000000000000008
 50
180.0
 51
270.0000000000007
 73
     1
 72
     1
 10
0.0
 20
-3.000000000000008
 11
0.0
 21
0.0
 72
     1
 10
0.0
 20
0.0
 11
-3.00000000000001
 21
0.0
 97
        0
 75
     0
 76
     1
 98
        1
 10
0.0
 20
0.0
  0
ENDBLK
  5
11F
330
11D
100
AcDbEntity
  8
0
100
AcDbBlockEnd
  0
BLOCK
  5
1D2
330
1D1
100
AcDbEntity
  8
0
100
AcDbBlockBegin
  2
*D7
 70
     1
 10
0.0
 20
0.0
 30
0.0
  3
*D7
  1
*D8
  0
LINE
  5
1D4
330
1D1
100
AcDbEntity
  8
치수문자_일반주서
 62
     0
370
    -2
100
AcDbLine
 10
158.6375
 20
27.24149999999993
 30
0.0
 11
177.6967539800593
 21
27.2415
 31
0.0
  0
LINE
  5
1D5
330
1D1
100
AcDbEntity
  8
치수문자_일반주서
 62
     0
370
    -2
100
AcDbLine
 10
158.6375
 20
6.60399999999993
 30
0.0
 11
177.6967539800594
 21
6.603999999999999
 31
0.0
  0
LINE
  5
1D6
330
1D1
100
AcDbEntity
  8
치수문자_일반주서
 62
     0
370
    -2
100
AcDbLine
 10
177.6967539800593
 20
27.2415
 30
0.0
 11
177.6967539800592
 21
65.78300000000004
 31
0.0
  0
LINE
  5
1D7
330
1D1
100
AcDbEntity
  8
치수문자_일반주서
 62
     0
370
    -2
100
AcDbLine
 10
177.6967539800593
 20
27.2415
 30
0.0
 11
177.6967539800594
 21
6.603999999999999
 31
0.0
  0
LINE
  5
1D8
330
1D1
100
AcDbEntity
  8
치수문자_일반주서
 62
     0
370
    -2
100
AcDbLine
 10
177.6967539800593
 20
30.5435
 30
0.0
 11
177.6967539800593
 21
33.8455
 31
0.0
  0
LINE
  5
1D9
330
1D1
100
AcDbEntity
  8
치수문자_일반주서
 62
     0
370
    -2
100
AcDbLine
 10
177.6967539800594
 20
3.302
 30
0.0
 11
177.6967539800594
 21
0.0
 31
0.0
  0
SOLID
  5
1DA
330
1D1
100
AcDbEntity
  8
치수문자_일반주서
 62
     0
100
AcDbTrace
 10
177.146420646726
 20
30.5435
 30
0.0
 11
178.2470873133926
 21
30.54350000000001
 31
0.0
 12
177.6967539800593
 22
27.2415
 32
0.0
 13
177.6967539800593
 23
27.2415
 33
0.0
  0
SOLID
  5
1DB
330
1D1
100
AcDbEntity
  8
치수문자_일반주서
 62
     0
100
AcDbTrace
 10
178.2470873133927
 20
3.302000000000002
 30
0.0
 11
177.1464206467261
 21
3.301999999999997
 31
0.0
 12
177.6967539800594
 22
6.603999999999999
 32
0.0
 13
177.6967539800594
 23
6.603999999999999
 33
0.0
  0
MTEXT
  5
1DC
330
1D1
100
AcDbEntity
  8
치수문자_일반주서
 62
     0
100
AcDbMText
 10
173.3217539800592
 20
49.81425000000003
 30
0.0
 40
3.5
 41
0.0
 71
     2
 72
     1
  1
\A1;%%c20.64 [13/16]
  7
SLDTEXTSTYLE0
 11
-4.131562848756488E-15
 21
1.0
 31
0.0
 73
     1
 44
1.0
  0
POINT
  5
1DD
330
1D1
100
AcDbEntity
  8
Defpoints
 62
     0
100
AcDbPoint
 10
158.575
 20
27.24149999999993
 30
0.0
  0
POINT
  5
1DE
330
1D1
100
AcDbEntity
  8
Defpoints
 62
     0
100
AcDbPoint
 10
158.575
 20
6.60399999999993
 30
0.0
  0
POINT
  5
1DF
330
1D1
100
AcDbEntity
  8
Defpoints
 62
     0
100
AcDbPoint
 10
177.6967539800594
 20
6.604000000000001
 30
0.0
  0
ENDBLK
  5
1D3
330
1D1
100
AcDbEntity
  8
0
100
AcDbBlockEnd
  0
BLOCK
  5
1E1
330
1E0
100
AcDbEntity
  8
0
100
AcDbBlockBegin
  2
*D8
 70
     1
 10
0.0
 20
0.0
 30
0.0
  3
*D8
  1
*D9
  0
LINE
  5
1E3
330
1E0
100
AcDbEntity
  8
치수문자_일반주서
 62
     0
370
    -2
100
AcDbLine
 10
158.575
 20
27.30399999999993
 30
0.0
 11
158.575
 21
40.26956675324948
 31
0.0
  0
LINE
  5
1E4
330
1E0
100
AcDbEntity
  8
치수문자_일반주서
 62
     0
370
    -2
100
AcDbLine
 10
110.95
 20
27.29613487245895
 30
0.0
 11
110.95
 21
40.26956675324948
 31
0.0
  0
LINE
  5
1E5
330
1E0
100
AcDbEntity
  8
치수문자_일반주서
 62
     0
370
    -2
100
AcDbLine
 10
155.273
 20
40.26956675324948
 30
0.0
 11
114.252
 21
40.26956675324948
 31
0.0
  0
SOLID
  5
1E6
330
1E0
100
AcDbEntity
  8
치수문자_일반주서
 62
     0
100
AcDbTrace
 10
155.273
 20
39.71923341991614
 30
0.0
 11
155.273
 21
40.81990008658281
 31
0.0
 12
158.575
 22
40.26956675324948
 32
0.0
 13
158.575
 23
40.26956675324948
 33
0.0
  0
SOLID
  5
1E7
330
1E0
100
AcDbEntity
  8
치수문자_일반주서
 62
     0
100
AcDbTrace
 10
114.252
 20
40.81990008658281
 30
0.0
 11
114.252
 21
39.71923341991614
 31
0.0
 12
110.95
 22
40.26956675324948
 32
0.0
 13
110.95
 23
40.26956675324948
 33
0.0
  0
MTEXT
  5
1E8
330
1E0
100
AcDbEntity
  8
치수문자_일반주서
 62
     0
100
AcDbMText
 10
131.450069728875
 20
44.64456675324948
 30
0.0
 40
3.5
 41
0.0
 71
     2
 72
     1
  1
\A1;47.63 [1 7/8]
  7
SLDTEXTSTYLE0
 73
     1
 44
1.0
  0
POINT
  5
1E9
330
1E0
100
AcDbEntity
  8
Defpoints
 62
     0
100
AcDbPoint
 10
158.575
 20
27.24149999999993
 30
0.0
  0
POINT
  5
1EA
330
1E0
100
AcDbEntity
  8
Defpoints
 62
     0
100
AcDbPoint
 10
110.95
 20
27.23363487245895
 30
0.0
  0
POINT
  5
1EB
330
1E0
100
AcDbEntity
  8
Defpoints
 62
     0
100
AcDbPoint
 10
110.95
 20
40.26956675324948
 30
0.0
  0
ENDBLK
  5
1E2
330
1E0
100
AcDbEntity
  8
0
100
AcDbBlockEnd
  0
BLOCK
  5
1ED
330
1EC
100
AcDbEntity
  8
0
100
AcDbBlockBegin
  2
*D9
 70
     1
 10
0.0
 20
0.0
 30
0.0
  3
*D9
  1
*D10
  0
LINE
  5
1EF
330
1EC
100
AcDbEntity
  8
치수문자_일반주서
 62
     0
370
    -2
100
AcDbLine
 10
158.575
 20
27.30399999999993
 30
0.0
 11
158.575
 21
65.36339959311518
 31
0.0
  0
LINE
  5
1F0
330
1EC
100
AcDbEntity
  8
치수문자_일반주서
 62
     0
370
    -2
100
AcDbLine
 10
3.000000000000007
 20
25.87524999999992
 30
0.0
 11
3.0
 21
65.36339959311518
 31
0.0
  0
LINE
  5
1F1
330
1EC
100
AcDbEntity
  8
치수문자_일반주서
 62
     0
370
    -2
100
AcDbLine
 10
155.273
 20
65.36339959311518
 30
0.0
 11
6.302
 21
65.36339959311518
 31
0.0
  0
SOLID
  5
1F2
330
1EC
100
AcDbEntity
  8
치수문자_일반주서
 62
     0
100
AcDbTrace
 10
155.273
 20
64.81306625978185
 30
0.0
 11
155.273
 21
65.9137329264485
 31
0.0
 12
158.575
 22
65.36339959311518
 32
0.0
 13
158.575
 23
65.36339959311518
 33
0.0
  0
SOLID
  5
1F3
330
1EC
100
AcDbEntity
  8
치수문자_일반주서
 62
     0
100
AcDbTrace
 10
6.302
 20
65.9137329264485
 30
0.0
 11
6.302
 21
64.81306625978185
 31
0.0
 12
3.0
 22
65.36339959311518
 32
0.0
 13
3.0
 23
65.36339959311518
 33
0.0
  0
MTEXT
  5
1F4
330
1EC
100
AcDbEntity
  8
치수문자_일반주서
 62
     0
100
AcDbMText
 10
78.06905675480786
 20
69.73839959311518
 30
0.0
 40
3.5
 41
0.0
 71
     2
 72
     1
  1
\A1;155.58 [6 1/8]
  7
SLDTEXTSTYLE0
 73
     1
 44
1.0
  0
POINT
  5
1F5
330
1EC
100
AcDbEntity
  8
Defpoints
 62
     0
100
AcDbPoint
 10
158.575
 20
27.24149999999993
 30
0.0
  0
POINT
  5
1F6
330
1EC
100
AcDbEntity
  8
Defpoints
 62
     0
100
AcDbPoint
 10
3.000000000000007
 20
25.81274999999992
 30
0.0
  0
POINT
  5
1F7
330
1EC
100
AcDbEntity
  8
Defpoints
 62
     0
100
AcDbPoint
 10
3.000000000000007
 20
65.36339959311518
 30
0.0
  0
ENDBLK
  5
1EE
330
1EC
100
AcDbEntity
  8
0
100
AcDbBlockEnd
  0
BLOCK
  5
228
330
227
100
AcDbEntity
  8
0
100
AcDbBlockBegin
  2
*D10
 70
     1
 10
0.0
 20
0.0
 30
0.0
  3
*D10
  1
*D11
  0
LINE
  5
22A
330
227
100
AcDbEntity
  8
치수문자_일반주서
 62
     0
370
    -2
100
AcDbLine
 10
282.0145336116615
 20
-65.23525225268378
 30
0.0
 11
301.0737875917208
 21
-65.23525225268371
 31
0.0
  0
LINE
  5
22B
330
227
100
AcDbEntity
  8
치수문자_일반주서
 62
     0
370
    -2
100
AcDbLine
 10
282.0145336116615
 20
-85.87275225268378
 30
0.0
 11
301.0737875917208
 21
-85.87275225268371
 31
0.0
  0
LINE
  5
22C
330
227
100
AcDbEntity
  8
치수문자_일반주서
 62
     0
370
    -2
100
AcDbLine
 10
301.0737875917208
 20
-65.23525225268371
 30
0.0
 11
301.0737875917206
 21
-26.69375225268366
 31
0.0
  0
LINE
  5
22D
330
227
100
AcDbEntity
  8
치수문자_일반주서
 62
     0
370
    -2
100
AcDbLine
 10
301.0737875917208
 20
-65.23525225268371
 30
0.0
 11
301.0737875917208
 21
-85.87275225268371
 31
0.0
  0
LINE
  5
22E
330
227
100
AcDbEntity
  8
치수문자_일반주서
 62
     0
370
    -2
100
AcDbLine
 10
301.0737875917208
 20
-61.93325225268371
 30
0.0
 11
301.0737875917208
 21
-58.63125225268371
 31
0.0
  0
LINE
  5
22F
330
227
100
AcDbEntity
  8
치수문자_일반주서
 62
     0
370
    -2
100
AcDbLine
 10
301.0737875917208
 20
-89.1747522526837
 30
0.0
 11
301.0737875917208
 21
-92.4767522526837
 31
0.0
  0
SOLID
  5
230
330
227
100
AcDbEntity
  8
치수문자_일반주서
 62
     0
100
AcDbTrace
 10
300.5234542583874
 20
-61.93325225268371
 30
0.0
 11
301.6241209250541
 21
-61.93325225268371
 31
0.0
 12
301.0737875917208
 22
-65.23525225268371
 32
0.0
 13
301.0737875917208
 23
-65.23525225268371
 33
0.0
  0
SOLID
  5
231
330
227
100
AcDbEntity
  8
치수문자_일반주서
 62
     0
100
AcDbTrace
 10
301.6241209250542
 20
-89.1747522526837
 30
0.0
 11
300.5234542583875
 21
-89.1747522526837
 31
0.0
 12
301.0737875917208
 22
-85.87275225268371
 32
0.0
 13
301.0737875917208
 23
-85.87275225268371
 33
0.0
  0
MTEXT
  5
232
330
227
100
AcDbEntity
  8
치수문자_일반주서
 62
     0
100
AcDbMText
 10
296.6987875917207
 20
-42.66250225268367
 30
0.0
 40
3.5
 41
0.0
 71
     2
 72
     1
  1
\A1;%%c20.64 [13/16]
  7
SLDTEXTSTYLE0
 11
-2.754375232504325E-15
 21
1.0
 31
0.0
 73
     1
 44
1.0
  0
POINT
  5
233
330
227
100
AcDbEntity
  8
Defpoints
 62
     0
100
AcDbPoint
 10
281.9520336116615
 20
-65.23525225268378
 30
0.0
  0
POINT
  5
234
330
227
100
AcDbEntity
  8
Defpoints
 62
     0
100
AcDbPoint
 10
281.9520336116615
 20
-85.87275225268378
 30
0.0
  0
POINT
  5
235
330
227
100
AcDbEntity
  8
Defpoints
 62
     0
100
AcDbPoint
 10
301.0737875917208
 20
-85.87275225268371
 30
0.0
  0
ENDBLK
  5
229
330
227
100
AcDbEntity
  8
0
100
AcDbBlockEnd
  0
BLOCK
  5
237
330
236
100
AcDbEntity
  8
0
100
AcDbBlockBegin
  2
*D11
 70
     1
 10
0.0
 20
0.0
 30
0.0
  3
*D11
  1
*D12
  0
LINE
  5
239
330
236
100
AcDbEntity
  8
치수문자_일반주서
 62
     0
370
    -2
100
AcDbLine
 10
281.9520336116615
 20
-65.17275225268378
 30
0.0
 11
281.9520336116615
 21
-52.20718549943423
 31
0.0
  0
LINE
  5
23A
330
236
100
AcDbEntity
  8
치수문자_일반주서
 62
     0
370
    -2
100
AcDbLine
 10
234.3270336116614
 20
-65.18061738022476
 30
0.0
 11
234.3270336116614
 21
-52.20718549943423
 31
0.0
  0
LINE
  5
23B
330
236
100
AcDbEntity
  8
치수문자_일반주서
 62
     0
370
    -2
100
AcDbLine
 10
278.6500336116615
 20
-52.20718549943423
 30
0.0
 11
237.6290336116614
 21
-52.20718549943423
 31
0.0
  0
SOLID
  5
23C
330
236
100
AcDbEntity
  8
치수문자_일반주서
 62
     0
100
AcDbTrace
 10
278.6500336116615
 20
-52.75751883276757
 30
0.0
 11
278.6500336116615
 21
-51.6568521661009
 31
0.0
 12
281.9520336116615
 22
-52.20718549943423
 32
0.0
 13
281.9520336116615
 23
-52.20718549943423
 33
0.0
  0
SOLID
  5
23D
330
236
100
AcDbEntity
  8
치수문자_일반주서
 62
     0
100
AcDbTrace
 10
237.6290336116614
 20
-51.6568521661009
 30
0.0
 11
237.6290336116614
 21
-52.75751883276757
 31
0.0
 12
234.3270336116614
 22
-52.20718549943423
 32
0.0
 13
234.3270336116614
 23
-52.20718549943423
 33
0.0
  0
MTEXT
  5
23E
330
236
100
AcDbEntity
  8
치수문자_일반주서
 62
     0
100
AcDbMText
 10
254.8271033405364
 20
-47.83218549943423
 30
0.0
 40
3.5
 41
0.0
 71
     2
 72
     1
  1
\A1;47.63 [1 7/8]
  7
SLDTEXTSTYLE0
 73
     1
 44
1.0
  0
POINT
  5
23F
330
236
100
AcDbEntity
  8
Defpoints
 62
     0
100
AcDbPoint
 10
281.9520336116615
 20
-65.23525225268378
 30
0.0
  0
POINT
  5
240
330
236
100
AcDbEntity
  8
Defpoints
 62
     0
100
AcDbPoint
 10
234.3270336116614
 20
-65.24311738022476
 30
0.0
  0
POINT
  5
241
330
236
100
AcDbEntity
  8
Defpoints
 62
     0
100
AcDbPoint
 10
234.3270336116614
 20
-52.20718549943423
 30
0.0
  0
ENDBLK
  5
238
330
236
100
AcDbEntity
  8
0
100
AcDbBlockEnd
  0
BLOCK
  5
243
330
242
100
AcDbEntity
  8
0
100
AcDbBlockBegin
  2
*D12
 70
     1
 10
0.0
 20
0.0
 30
0.0
  3
*D12
  1
*D13
  0
LINE
  5
245
330
242
100
AcDbEntity
  8
치수문자_일반주서
 62
     0
370
    -2
100
AcDbLine
 10
281.9520336116615
 20
-65.17275225268378
 30
0.0
 11
281.9520336116615
 21
-27.11335265956853
 31
0.0
  0
LINE
  5
246
330
242
100
AcDbEntity
  8
치수문자_일반주서
 62
     0
370
    -2
100
AcDbLine
 10
126.3770336116615
 20
-66.60150225268379
 30
0.0
 11
126.3770336116615
 21
-27.11335265956853
 31
0.0
  0
LINE
  5
247
330
242
100
AcDbEntity
  8
치수문자_일반주서
 62
     0
370
    -2
100
AcDbLine
 10
278.6500336116615
 20
-27.11335265956853
 30
0.0
 11
129.6790336116615
 21
-27.11335265956853
 31
0.0
  0
SOLID
  5
248
330
242
100
AcDbEntity
  8
치수문자_일반주서
 62
     0
100
AcDbTrace
 10
278.6500336116615
 20
-27.66368599290187
 30
0.0
 11
278.6500336116615
 21
-26.5630193262352
 31
0.0
 12
281.9520336116615
 22
-27.11335265956853
 32
0.0
 13
281.9520336116615
 23
-27.11335265956853
 33
0.0
  0
SOLID
  5
249
330
242
100
AcDbEntity
  8
치수문자_일반주서
 62
     0
100
AcDbTrace
 10
129.6790336116615
 20
-26.5630193262352
 30
0.0
 11
129.6790336116615
 21
-27.66368599290187
 31
0.0
 12
126.3770336116615
 22
-27.11335265956853
 32
0.0
 13
126.3770336116615
 23
-27.11335265956853
 33
0.0
  0
MTEXT
  5
24A
330
242
100
AcDbEntity
  8
치수문자_일반주서
 62
     0
100
AcDbMText
 10
201.4460903664693
 20
-22.73835265956853
 30
0.0
 40
3.5
 41
0.0
 71
     2
 72
     1
  1
\A1;155.58 [6 1/8]
  7
SLDTEXTSTYLE0
 73
     1
 44
1.0
  0
POINT
  5
24B
330
242
100
AcDbEntity
  8
Defpoints
 62
     0
100
AcDbPoint
 10
281.9520336116615
 20
-65.23525225268378
 30
0.0
  0
POINT
  5
24C
330
242
100
AcDbEntity
  8
Defpoints
 62
     0
100
AcDbPoint
 10
126.3770336116615
 20
-66.66400225268379
 30
0.0
  0
POINT
  5
24D
330
242
100
AcDbEntity
  8
Defpoints
 62
     0
100
AcDbPoint
 10
126.3770336116615
 20
-27.11335265956853
 30
0.0
  0
ENDBLK
  5
244
330
242
100
AcDbEntity
  8
0
100
AcDbBlockEnd
  0
BLOCK
  5
2D6
330
2D5
100
AcDbEntity
  8
0
100
AcDbBlockBegin
  2
*D13
 70
     1
 10
0.0
 20
0.0
 30
0.0
  3
*D13
  1
*D15
  0
LINE
  5
2D8
330
2D5
100
AcDbEntity
  8
치수문자_일반주서
 62
     0
370
    -2
100
AcDbLine
 10
158.6375
 20
28.82899999999993
 30
0.0
 11
177.1370153737888
 21
28.82899999999999
 31
0.0
  0
LINE
  5
2D9
330
2D5
100
AcDbEntity
  8
치수문자_일반주서
 62
     0
370
    -2
100
AcDbLine
 10
158.6374999999999
 20
6.603999999999925
 30
0.0
 11
177.1370153737889
 21
6.603999999999992
 31
0.0
  0
LINE
  5
2DA
330
2D5
100
AcDbEntity
  8
치수문자_일반주서
 62
     0
370
    -2
100
AcDbLine
 10
177.1370153737888
 20
28.82899999999999
 30
0.0
 11
177.1370153737887
 21
66.5402412487496
 31
0.0
  0
LINE
  5
2DB
330
2D5
100
AcDbEntity
  8
치수문자_일반주서
 62
     0
370
    -2
100
AcDbLine
 10
177.1370153737888
 20
28.82899999999999
 30
0.0
 11
177.1370153737889
 21
6.603999999999992
 31
0.0
  0
LINE
  5
2DC
330
2D5
100
AcDbEntity
  8
치수문자_일반주서
 62
     0
370
    -2
100
AcDbLine
 10
177.1370153737888
 20
32.13099999999999
 30
0.0
 11
177.1370153737888
 21
35.43299999999999
 31
0.0
  0
LINE
  5
2DD
330
2D5
100
AcDbEntity
  8
치수문자_일반주서
 62
     0
370
    -2
100
AcDbLine
 10
177.1370153737889
 20
3.301999999999992
 30
0.0
 11
177.1370153737889
 21
-0.0000000000000071
 31
0.0
  0
SOLID
  5
2DE
330
2D5
100
AcDbEntity
  8
치수문자_일반주서
 62
     0
100
AcDbTrace
 10
176.5866820404555
 20
32.13099999999999
 30
0.0
 11
177.6873487071222
 21
32.13099999999999
 31
0.0
 12
177.1370153737888
 22
28.82899999999999
 32
0.0
 13
177.1370153737888
 23
28.82899999999999
 33
0.0
  0
SOLID
  5
2DF
330
2D5
100
AcDbEntity
  8
치수문자_일반주서
 62
     0
100
AcDbTrace
 10
177.6873487071223
 20
3.301999999999995
 30
0.0
 11
176.5866820404556
 21
3.30199999999999
 31
0.0
 12
177.1370153737889
 22
6.603999999999992
 32
0.0
 13
177.1370153737889
 23
6.603999999999992
 33
0.0
  0
MTEXT
  5
2E0
330
2D5
100
AcDbEntity
  8
치수문자_일반주서
 62
     0
100
AcDbMText
 10
172.7620153737888
 20
52.10274124874958
 30
0.0
 40
3.5
 41
0.0
 71
     2
 72
     1
  1
\A1;%%c22.23 [7/8]
  7
SLDTEXTSTYLE0
 11
-3.836451216702453E-15
 21
1.0
 31
0.0
 73
     1
 44
1.0
  0
POINT
  5
2E1
330
2D5
100
AcDbEntity
  8
Defpoints
 62
     0
100
AcDbPoint
 10
158.575
 20
28.82899999999993
 30
0.0
  0
POINT
  5
2E2
330
2D5
100
AcDbEntity
  8
Defpoints
 62
     0
100
AcDbPoint
 10
158.5749999999999
 20
6.603999999999925
 30
0.0
  0
POINT
  5
2E3
330
2D5
100
AcDbEntity
  8
Defpoints
 62
     0
100
AcDbPoint
 10
177.1370153737889
 20
6.603999999999994
 30
0.0
  0
ENDBLK
  5
2D7
330
2D5
100
AcDbEntity
  8
0
100
AcDbBlockEnd
  0
BLOCK
  5
2E5
330
2E4
100
AcDbEntity
  8
0
100
AcDbBlockBegin
  2
*D14
 70
     1
 10
0.0
 20
0.0
 30
0.0
  3
*D14
  1
*D16
  0
LINE
  5
2E7
330
2E4
100
AcDbEntity
  8
치수문자_일반주서
 62
     0
370
    -2
100
AcDbLine
 10
158.575
 20
28.89149999999993
 30
0.0
 11
158.575
 21
45.44039524088814
 31
0.0
  0
LINE
  5
2E8
330
2E4
100
AcDbEntity
  8
치수문자_일반주서
 62
     0
370
    -2
100
AcDbLine
 10
110.95
 20
28.60043549245493
 30
0.0
 11
110.95
 21
45.44039524088814
 31
0.0
  0
LINE
  5
2E9
330
2E4
100
AcDbEntity
  8
치수문자_일반주서
 62
     0
370
    -2
100
AcDbLine
 10
110.95
 20
45.44039524088814
 30
0.0
 11
73.721
 21
45.44039524088814
 31
0.0
  0
LINE
  5
2EA
330
2E4
100
AcDbEntity
  8
치수문자_일반주서
 62
     0
370
    -2
100
AcDbLine
 10
158.575
 20
45.44039524088814
 30
0.0
 11
110.95
 21
45.44039524088814
 31
0.0
  0
LINE
  5
2EB
330
2E4
100
AcDbEntity
  8
치수문자_일반주서
 62
     0
370
    -2
100
AcDbLine
 10
161.877
 20
45.44039524088814
 30
0.0
 11
165.179
 21
45.44039524088814
 31
0.0
  0
LINE
  5
2EC
330
2E4
100
AcDbEntity
  8
치수문자_일반주서
 62
     0
370
    -2
100
AcDbLine
 10
107.648
 20
45.44039524088814
 30
0.0
 11
104.346
 21
45.44039524088814
 31
0.0
  0
SOLID
  5
2ED
330
2E4
100
AcDbEntity
  8
치수문자_일반주서
 62
     0
100
AcDbTrace
 10
161.877
 20
45.99072857422147
 30
0.0
 11
161.877
 21
44.8900619075548
 31
0.0
 12
158.575
 22
45.44039524088814
 32
0.0
 13
158.575
 23
45.44039524088814
 33
0.0
  0
SOLID
  5
2EE
330
2E4
100
AcDbEntity
  8
치수문자_일반주서
 62
     0
100
AcDbTrace
 10
107.648
 20
44.8900619075548
 30
0.0
 11
107.648
 21
45.99072857422147
 31
0.0
 12
110.95
 22
45.44039524088814
 32
0.0
 13
110.95
 23
45.44039524088814
 33
0.0
  0
MTEXT
  5
2EF
330
2E4
100
AcDbEntity
  8
치수문자_일반주서
 62
     0
100
AcDbMText
 10
89.0335
 20
49.81539524088814
 30
0.0
 40
3.5
 41
0.0
 71
     2
 72
     1
  1
\A1;47.63 [1 7/8]
  7
SLDTEXTSTYLE0
 73
     1
 44
1.0
  0
POINT
  5
2F0
330
2E4
100
AcDbEntity
  8
Defpoints
 62
     0
100
AcDbPoint
 10
158.575
 20
28.82899999999993
 30
0.0
  0
POINT
  5
2F1
330
2E4
100
AcDbEntity
  8
Defpoints
 62
     0
100
AcDbPoint
 10
110.95
 20
28.53793549245493
 30
0.0
  0
POINT
  5
2F2
330
2E4
100
AcDbEntity
  8
Defpoints
 62
     0
100
AcDbPoint
 10
110.95
 20
45.44039524088814
 30
0.0
  0
ENDBLK
  5
2E6
330
2E4
100
AcDbEntity
  8
0
100
AcDbBlockEnd
  0
BLOCK
  5
2F4
330
2F3
100
AcDbEntity
  8
0
100
AcDbBlockBegin
  2
*D15
 70
     1
 10
0.0
 20
0.0
 30
0.0
  3
*D15
  1
*D17
  0
LINE
  5
2F6
330
2F3
100
AcDbEntity
  8
치수문자_일반주서
 62
     0
370
    -2
100
AcDbLine
 10
158.575
 20
28.89149999999993
 30
0.0
 11
158.575
 21
76.37855374133282
 31
0.0
  0
LINE
  5
2F7
330
2F3
100
AcDbEntity
  8
치수문자_일반주서
 62
     0
370
    -2
100
AcDbLine
 10
3.000000000000007
 20
26.66899999999992
 30
0.0
 11
3.0
 21
76.37855374133282
 31
0.0
  0
LINE
  5
2F8
330
2F3
100
AcDbEntity
  8
치수문자_일반주서
 62
     0
370
    -2
100
AcDbLine
 10
155.273
 20
76.37855374133282
 30
0.0
 11
6.302
 21
76.37855374133282
 31
0.0
  0
SOLID
  5
2F9
330
2F3
100
AcDbEntity
  8
치수문자_일반주서
 62
     0
100
AcDbTrace
 10
155.273
 20
75.8282204079995
 30
0.0
 11
155.273
 21
76.92888707466615
 31
0.0
 12
158.575
 22
76.37855374133282
 32
0.0
 13
158.575
 23
76.37855374133282
 33
0.0
  0
SOLID
  5
2FA
330
2F3
100
AcDbEntity
  8
치수문자_일반주서
 62
     0
100
AcDbTrace
 10
6.302
 20
76.92888707466615
 30
0.0
 11
6.302
 21
75.8282204079995
 31
0.0
 12
3.0
 22
76.37855374133282
 32
0.0
 13
3.0
 23
76.37855374133282
 33
0.0
  0
MTEXT
  5
2FB
330
2F3
100
AcDbEntity
  8
치수문자_일반주서
 62
     0
100
AcDbMText
 10
76.81801139889254
 20
80.75355374133282
 30
0.0
 40
3.5
 41
0.0
 71
     2
 72
     1
  1
\A1;155.58 [6 1/8]
  7
SLDTEXTSTYLE0
 73
     1
 44
1.0
  0
POINT
  5
2FC
330
2F3
100
AcDbEntity
  8
Defpoints
 62
     0
100
AcDbPoint
 10
158.575
 20
28.82899999999993
 30
0.0
  0
POINT
  5
2FD
330
2F3
100
AcDbEntity
  8
Defpoints
 62
     0
100
AcDbPoint
 10
3.000000000000007
 20
26.60649999999992
 30
0.0
  0
POINT
  5
2FE
330
2F3
100
AcDbEntity
  8
Defpoints
 62
     0
100
AcDbPoint
 10
3.000000000000007
 20
76.37855374133282
 30
0.0
  0
ENDBLK
  5
2F5
330
2F3
100
AcDbEntity
  8
0
100
AcDbBlockEnd
  0
BLOCK
  5
326
330
325
100
AcDbEntity
  8
0
100
AcDbBlockBegin
  2
*D16
 70
     1
 10
0.0
 20
0.0
 30
0.0
  3
*D16
  1
*D18
  0
LINE
  5
328
330
325
100
AcDbEntity
  8
치수문자_일반주서
 62
     0
370
    -2
100
AcDbLine
 10
414.4023630417853
 20
-66.78535473980023
 30
0.0
 11
432.9018784155741
 21
-66.78535473980016
 31
0.0
  0
LINE
  5
329
330
325
100
AcDbEntity
  8
치수문자_일반주서
 62
     0
370
    -2
100
AcDbLine
 10
414.4023630417853
 20
-89.01035473980022
 30
0.0
 11
432.9018784155742
 21
-89.01035473980015
 31
0.0
  0
LINE
  5
32A
330
325
100
AcDbEntity
  8
치수문자_일반주서
 62
     0
370
    -2
100
AcDbLine
 10
432.9018784155741
 20
-66.78535473980016
 30
0.0
 11
432.901878415574
 21
-29.07411349105055
 31
0.0
  0
LINE
  5
32B
330
325
100
AcDbEntity
  8
치수문자_일반주서
 62
     0
370
    -2
100
AcDbLine
 10
432.9018784155741
 20
-66.78535473980016
 30
0.0
 11
432.9018784155742
 21
-89.01035473980015
 31
0.0
  0
LINE
  5
32C
330
325
100
AcDbEntity
  8
치수문자_일반주서
 62
     0
370
    -2
100
AcDbLine
 10
432.9018784155741
 20
-63.48335473980016
 30
0.0
 11
432.9018784155741
 21
-60.18135473980016
 31
0.0
  0
LINE
  5
32D
330
325
100
AcDbEntity
  8
치수문자_일반주서
 62
     0
370
    -2
100
AcDbLine
 10
432.9018784155742
 20
-92.31235473980016
 30
0.0
 11
432.9018784155742
 21
-95.61435473980015
 31
0.0
  0
SOLID
  5
32E
330
325
100
AcDbEntity
  8
치수문자_일반주서
 62
     0
100
AcDbTrace
 10
432.3515450822408
 20
-63.48335473980016
 30
0.0
 11
433.4522117489075
 21
-63.48335473980016
 31
0.0
 12
432.9018784155741
 22
-66.78535473980016
 32
0.0
 13
432.9018784155741
 23
-66.78535473980016
 33
0.0
  0
SOLID
  5
32F
330
325
100
AcDbEntity
  8
치수문자_일반주서
 62
     0
100
AcDbTrace
 10
433.4522117489075
 20
-92.31235473980016
 30
0.0
 11
432.3515450822408
 21
-92.31235473980016
 31
0.0
 12
432.9018784155742
 22
-89.01035473980015
 32
0.0
 13
432.9018784155742
 23
-89.01035473980015
 33
0.0
  0
MTEXT
  5
330
330
325
100
AcDbEntity
  8
치수문자_일반주서
 62
     0
100
AcDbMText
 10
428.5268784155741
 20
-43.51161349105057
 30
0.0
 40
3.5
 41
0.0
 71
     2
 72
     1
  1
\A1;%%c22.23 [7/8]
  7
SLDTEXTSTYLE0
 11
-2.557634144468303E-15
 21
1.0
 31
0.0
 73
     1
 44
1.0
  0
POINT
  5
331
330
325
100
AcDbEntity
  8
Defpoints
 62
     0
100
AcDbPoint
 10
414.3398630417853
 20
-66.78535473980023
 30
0.0
  0
POINT
  5
332
330
325
100
AcDbEntity
  8
Defpoints
 62
     0
100
AcDbPoint
 10
414.3398630417853
 20
-89.01035473980022
 30
0.0
  0
POINT
  5
333
330
325
100
AcDbEntity
  8
Defpoints
 62
     0
100
AcDbPoint
 10
432.9018784155743
 20
-89.01035473980015
 30
0.0
  0
ENDBLK
  5
327
330
325
100
AcDbEntity
  8
0
100
AcDbBlockEnd
  0
BLOCK
  5
335
330
334
100
AcDbEntity
  8
0
100
AcDbBlockBegin
  2
*D17
 70
     1
 10
0.0
 20
0.0
 30
0.0
  3
*D17
  1
*D19
  0
LINE
  5
337
330
334
100
AcDbEntity
  8
치수문자_일반주서
 62
     0
370
    -2
100
AcDbLine
 10
414.3398630417853
 20
-66.72285473980023
 30
0.0
 11
414.3398630417853
 21
-50.17395949891201
 31
0.0
  0
LINE
  5
338
330
334
100
AcDbEntity
  8
치수문자_일반주서
 62
     0
370
    -2
100
AcDbLine
 10
366.7148630417853
 20
-67.01391924734523
 30
0.0
 11
366.7148630417853
 21
-50.17395949891201
 31
0.0
  0
LINE
  5
339
330
334
100
AcDbEntity
  8
치수문자_일반주서
 62
     0
370
    -2
100
AcDbLine
 10
366.7148630417853
 20
-50.17395949891201
 30
0.0
 11
329.4858630417854
 21
-50.17395949891201
 31
0.0
  0
LINE
  5
33A
330
334
100
AcDbEntity
  8
치수문자_일반주서
 62
     0
370
    -2
100
AcDbLine
 10
414.3398630417853
 20
-50.17395949891201
 30
0.0
 11
366.7148630417853
 21
-50.17395949891201
 31
0.0
  0
LINE
  5
33B
330
334
100
AcDbEntity
  8
치수문자_일반주서
 62
     0
370
    -2
100
AcDbLine
 10
417.6418630417853
 20
-50.17395949891201
 30
0.0
 11
420.9438630417853
 21
-50.17395949891201
 31
0.0
  0
LINE
  5
33C
330
334
100
AcDbEntity
  8
치수문자_일반주서
 62
     0
370
    -2
100
AcDbLine
 10
363.4128630417853
 20
-50.17395949891201
 30
0.0
 11
360.1108630417853
 21
-50.17395949891201
 31
0.0
  0
SOLID
  5
33D
330
334
100
AcDbEntity
  8
치수문자_일반주서
 62
     0
100
AcDbTrace
 10
417.6418630417853
 20
-49.62362616557868
 30
0.0
 11
417.6418630417853
 21
-50.72429283224535
 31
0.0
 12
414.3398630417853
 22
-50.17395949891201
 32
0.0
 13
414.3398630417853
 23
-50.17395949891201
 33
0.0
  0
SOLID
  5
33E
330
334
100
AcDbEntity
  8
치수문자_일반주서
 62
     0
100
AcDbTrace
 10
363.4128630417853
 20
-50.72429283224535
 30
0.0
 11
363.4128630417853
 21
-49.62362616557868
 31
0.0
 12
366.7148630417853
 22
-50.17395949891201
 32
0.0
 13
366.7148630417853
 23
-50.17395949891201
 33
0.0
  0
MTEXT
  5
33F
330
334
100
AcDbEntity
  8
치수문자_일반주서
 62
     0
100
AcDbMText
 10
344.7983630417854
 20
-45.79895949891201
 30
0.0
 40
3.5
 41
0.0
 71
     2
 72
     1
  1
\A1;47.63 [1 7/8]
  7
SLDTEXTSTYLE0
 73
     1
 44
1.0
  0
POINT
  5
340
330
334
100
AcDbEntity
  8
Defpoints
 62
     0
100
AcDbPoint
 10
414.3398630417853
 20
-66.78535473980023
 30
0.0
  0
POINT
  5
341
330
334
100
AcDbEntity
  8
Defpoints
 62
     0
100
AcDbPoint
 10
366.7148630417853
 20
-67.07641924734523
 30
0.0
  0
POINT
  5
342
330
334
100
AcDbEntity
  8
Defpoints
 62
     0
100
AcDbPoint
 10
366.7148630417853
 20
-50.17395949891201
 30
0.0
  0
ENDBLK
  5
336
330
334
100
AcDbEntity
  8
0
100
AcDbBlockEnd
  0
BLOCK
  5
344
330
343
100
AcDbEntity
  8
0
100
AcDbBlockBegin
  2
*D18
 70
     1
 10
0.0
 20
0.0
 30
0.0
  3
*D18
  1
*D20
  0
LINE
  5
346
330
343
100
AcDbEntity
  8
치수문자_일반주서
 62
     0
370
    -2
100
AcDbLine
 10
414.3398630417853
 20
-66.72285473980023
 30
0.0
 11
414.3398630417853
 21
-19.23580099846733
 31
0.0
  0
LINE
  5
347
330
343
100
AcDbEntity
  8
치수문자_일반주서
 62
     0
370
    -2
100
AcDbLine
 10
258.7648630417854
 20
-68.94535473980022
 30
0.0
 11
258.7648630417854
 21
-19.23580099846733
 31
0.0
  0
LINE
  5
348
330
343
100
AcDbEntity
  8
치수문자_일반주서
 62
     0
370
    -2
100
AcDbLine
 10
411.0378630417853
 20
-19.23580099846733
 30
0.0
 11
262.0668630417854
 21
-19.23580099846733
 31
0.0
  0
SOLID
  5
349
330
343
100
AcDbEntity
  8
치수문자_일반주서
 62
     0
100
AcDbTrace
 10
411.0378630417853
 20
-19.78613433180066
 30
0.0
 11
411.0378630417853
 21
-18.68546766513399
 31
0.0
 12
414.3398630417853
 22
-19.23580099846733
 32
0.0
 13
414.3398630417853
 23
-19.23580099846733
 33
0.0
  0
SOLID
  5
34A
330
343
100
AcDbEntity
  8
치수문자_일반주서
 62
     0
100
AcDbTrace
 10
262.0668630417854
 20
-18.68546766513399
 30
0.0
 11
262.0668630417854
 21
-19.78613433180066
 31
0.0
 12
258.7648630417854
 22
-19.23580099846733
 32
0.0
 13
258.7648630417854
 23
-19.23580099846733
 33
0.0
  0
MTEXT
  5
34B
330
343
100
AcDbEntity
  8
치수문자_일반주서
 62
     0
100
AcDbMText
 10
332.5828744406779
 20
-14.86080099846733
 30
0.0
 40
3.5
 41
0.0
 71
     2
 72
     1
  1
\A1;155.58 [6 1/8]
  7
SLDTEXTSTYLE0
 73
     1
 44
1.0
  0
POINT
  5
34C
330
343
100
AcDbEntity
  8
Defpoints
 62
     0
100
AcDbPoint
 10
414.3398630417853
 20
-66.78535473980023
 30
0.0
  0
POINT
  5
34D
330
343
100
AcDbEntity
  8
Defpoints
 62
     0
100
AcDbPoint
 10
258.7648630417854
 20
-69.00785473980022
 30
0.0
  0
POINT
  5
34E
330
343
100
AcDbEntity
  8
Defpoints
 62
     0
100
AcDbPoint
 10
258.7648630417854
 20
-19.23580099846733
 30
0.0
  0
ENDBLK
  5
345
330
343
100
AcDbEntity
  8
0
100
AcDbBlockEnd
  0
ENDSEC
  0
SECTION
  2
ENTITIES
  0
LINE
  5
96
330
1F
100
AcDbEntity
  8
0
  6
Continuous
 62
     1
370
    15
100
AcDbLine
 10
73.65031200181026
 20
3.292992805481274
 30
0.0
 11
73.57507482800085
 21
3.333663909798752
 31
0.0
  0
LINE
  5
97
330
1F
100
AcDbEntity
  8
0
  6
Continuous
 62
     1
370
    15
100
AcDbLine
 10
55.98207379995218
 20
11.1125
 30
0.0
 11
49.20439058791889
 21
11.1125
 31
0.0
  0
LINE
  5
98
330
1F
100
AcDbEntity
  8
0
  6
Continuous
 62
     1
370
    15
100
AcDbLine
 10
49.20439058791878
 20
-11.11250000000001
 30
0.0
 11
55.9820737999522
 21
-11.11250000000001
 31
0.0
  0
LINE
  5
99
330
1F
100
AcDbEntity
  8
외형선
  6
Continuous
370
    15
100
AcDbLine
 10
-29.66263180995381
 20
-11.11250000000001
 30
0.0
 11
29.66263180995375
 21
-11.11250000000001
 31
0.0
  0
LINE
  5
9A
330
1F
100
AcDbEntity
  8
외형선
  6
Continuous
370
    15
100
AcDbLine
 10
29.66263180995375
 20
11.1125
 30
0.0
 11
7.442199999999964
 21
11.1125
 31
0.0
  0
LINE
  5
9D
330
1F
100
AcDbEntity
  8
0
  6
Continuous
 62
     1
370
    15
100
AcDbLine
 10
77.78749999999998
 20
-10.06438399360449
 30
0.0
 11
77.78749999999998
 21
0.9521339936046055
 31
0.0
  0
SPLINE
  5
9E
330
1F
100
AcDbEntity
  8
0
  6
Continuous
 62
     1
370
    15
100
AcDbSpline
210
0.0
220
0.0
230
1.0
 70
     8
 71
     3
 72
    60
 73
    56
 74
     0
 42
0.000000001
 43
0.00000001
 40
0.0
 40
0.0
 40
0.0
 40
0.0
 40
0.0625
 40
0.0625
 40
0.0937499999999999
 40
0.0937499999999999
 40
0.1249999999999999
 40
0.1249999999999999
 40
0.1562499999999999
 40
0.1562499999999999
 40
0.1874999999999999
 40
0.1874999999999999
 40
0.2187499999999999
 40
0.2187499999999999
 40
0.2499999999999998
 40
0.2499999999999998
 40
0.3124999999999998
 40
0.3124999999999998
 40
0.3437499999999998
 40
0.3437499999999998
 40
0.3749999999999998
 40
0.3749999999999998
 40
0.4062499999999997
 40
0.4062499999999997
 40
0.4374999999999997
 40
0.4374999999999997
 40
0.4687499999999997
 40
0.4687499999999997
 40
0.4999999999999997
 40
0.4999999999999997
 40
0.5624999999999983
 40
0.5624999999999983
 40
0.6249999999999969
 40
0.6249999999999969
 40
0.6562499999999969
 40
0.6562499999999969
 40
0.6874999999999969
 40
0.6874999999999969
 40
0.7187499999999969
 40
0.7187499999999969
 40
0.7499999999999969
 40
0.7499999999999969
 40
0.7812499999999968
 40
0.7812499999999968
 40
0.8124999999999968
 40
0.8124999999999968
 40
0.8749999999999974
 40
0.8749999999999974
 40
0.9062499999999981
 40
0.9062499999999981
 40
0.9374999999999987
 40
0.9374999999999987
 40
0.9687499999999993
 40
0.9687499999999993
 40
1.0
 40
1.0
 40
1.0
 40
1.0
 10
77.78749999999998
 20
-10.06438399360448
 30
0.0
 10
76.79906306642982
 20
-9.82182539251245
 30
0.0
 10
75.80058578100021
 20
-9.538195508390524
 30
0.0
 10
74.31450475228343
 20
-9.058595390938198
 30
0.0
 10
73.82022966844205
 20
-8.889677574594135
 30
0.0
 10
72.82678932977606
 20
-8.533898649428783
 30
0.0
 10
72.32920912021444
 20
-8.347205036763462
 30
0.0
 10
71.33678807702664
 20
-7.957900086760916
 30
0.0
 10
70.8432676198592
 20
-7.755488951499827
 30
0.0
 10
69.85100597078569
 20
-7.334918982926493
 30
0.0
 10
69.35344215330824
 20
-7.116901223488331
 30
0.0
 10
68.35990750081749
 20
-6.667335744473608
 30
0.0
 10
67.86544458639503
 20
-6.436032778317076
 30
0.0
 10
66.87494806035417
 20
-5.960847987368306
 30
0.0
 10
66.37769668297172
 20
-5.716756464228935
 30
0.0
 10
64.8866077122648
 20
-4.96820149534005
 30
0.0
 10
63.89874180630974
 20
-4.448399044772864
 30
0.0
 10
62.40775082187136
 20
-3.643639131013554
 30
0.0
 10
61.91040477896283
 20
-3.371414843805158
 30
0.0
 10
60.91946708327164
 20
-2.821484591422849
 30
0.0
 10
60.42535904932299
 20
-2.543691276924401
 30
0.0
 10
59.43202024015616
 20
-1.982630839729822
 30
0.0
 10
58.93442726718337
 20
-1.699666838226706
 30
0.0
 10
57.94185402087467
 20
-1.13141036164204
 30
0.0
 10
57.44831276479036
 20
-0.8463975585630017
 30
0.0
 10
56.45621769696778
 20
-0.2742945560442343
 30
0.0
 10
55.95867389984848
 20
0.0126033483021589
 30
0.0
 10
54.96505215149286
 20
0.5855210885602428
 30
0.0
 10
54.47038063033746
 20
0.8712699641080641
 30
0.0
 10
52.98498279764857
 20
1.725330644983255
 30
0.0
 10
51.98645389301397
 20
2.291643019203864
 30
0.0
 10
50.00846867277325
 20
3.397974321192963
 30
0.0
 10
49.01116342948968
 20
3.941303504044916
 30
0.0
 10
47.52444210382986
 20
4.727866725198343
 30
0.0
 10
47.03048033505105
 20
4.985330049200919
 30
0.0
 10
46.03725026859809
 20
5.49072520692651
 30
0.0
 10
45.53964816119796
 20
5.738358453093322
 30
0.0
 10
44.54692990644524
 20
6.221282408692841
 30
0.0
 10
44.05334705302951
 20
6.456343821559877
 30
0.0
 10
43.06142574956486
 20
6.913899806726595
 30
0.0
 10
42.56390560059026
 20
7.136246585869795
 30
0.0
 10
41.57020397643979
 20
7.566059998384669
 30
0.0
 10
41.0753030774372
 20
7.773355056812084
 30
0.0
 10
40.08527629878779
 20
8.172114265951182
 30
0.0
 10
39.58813406952534
 20
8.36383401406207
 30
0.0
 10
38.09699049635086
 20
8.913337224297232
 30
0.0
 10
37.10905559640052
 20
9.244826348979453
 30
0.0
 10
35.61820597252863
 20
9.685884590419853
 30
0.0
 10
35.12077975590054
 20
9.823419758922258
 30
0.0
 10
34.1294295109127
 20
10.07833910449768
 30
0.0
 10
33.63559321904783
 20
10.19574602230361
 30
0.0
 10
32.64247910588908
 20
10.41043652640113
 30
0.0
 10
32.1448714932678
 20
10.50756823419657
 30
0.0
 10
31.15201542825794
 20
10.68053933260854
 30
0.0
 10
30.65837018010137
 20
10.75631968096607
 30
0.0
 10
30.16250000000002
 20
10.82143549245502
 30
0.0
  0
SPLINE
  5
9F
330
1F
100
AcDbEntity
  8
0
  6
Continuous
 62
     1
370
    15
100
AcDbSpline
210
0.0
220
0.0
230
1.0
 70
     8
 71
     3
 72
    19
 73
    15
 74
     0
 42
0.000000001
 43
0.00000001
 40
0.0
 40
0.0
 40
0.0
 40
0.0
 40
0.0826813875045286
 40
0.1653626854353249
 40
0.2480438951558448
 40
0.3307250180302855
 40
0.4134060554235726
 40
0.4960870087013405
 40
0.5787678792299311
 40
0.6614486683763768
 40
0.7480545447150677
 40
0.8346585872735747
 40
0.9212643305796546
 40
1.0
 40
1.0
 40
1.0
 40
1.0
 10
77.78749999999992
 20
0.9521339936046054
 30
0.0
 10
76.67619025281033
 20
1.588618428009876
 30
0.0
 10
74.45357196237994
 20
2.861586607278452
 30
0.0
 10
71.11964723704169
 20
4.677765073790654
 30
0.0
 10
67.78572670539154
 20
6.355997157533456
 30
0.0
 10
64.45181046755607
 20
7.8434615109436
 30
0.0
 10
61.11789806811714
 20
9.09634945719011
 30
0.0
 10
57.78399083262899
 20
10.07693700525182
 30
0.0
 10
54.45008351809443
 20
10.75608822305299
 30
0.0
 10
51.06343798279225
 20
11.11851436913955
 30
0.0
 10
47.6240025086294
 20
11.13719759567526
 30
0.0
 10
44.13185575583825
 20
10.78325352677903
 30
0.0
 10
40.74546582937417
 20
10.12272591958555
 30
0.0
 10
38.52310502770838
 20
9.426954532761572
 30
0.0
 10
37.46481562200326
 20
9.095627825182564
 30
0.0
  0
SPLINE
  5
A0
330
1F
100
AcDbEntity
  8
0
  6
Continuous
 62
     1
370
    15
100
AcDbSpline
210
0.0
220
0.0
230
1.0
 70
     8
 71
     3
 72
    19
 73
    15
 74
     0
 42
0.000000001
 43
0.00000001
 40
0.0
 40
0.0
 40
0.0
 40
0.0
 40
0.0888291947850168
 40
0.1776583277866928
 40
0.2664874004852393
 40
0.3553164143613718
 40
0.4441453708963011
 40
0.5329742715717203
 40
0.6218031178697886
 40
0.710631911273125
 40
0.8036882395712465
 40
0.8967429482052729
 40
0.9897958252717763
 40
1.0
 40
1.0
 40
1.0
 40
1.0
 10
30.16250000000002
 20
-2.526695496619171
 30
0.0
 10
31.27378171826945
 20
-3.144172110724131
 30
0.0
 10
33.49634438187888
 20
-4.379124909460744
 30
0.0
 10
36.83018662904672
 20
-6.080240197964207
 30
0.0
 10
40.16402626159277
 20
-7.604825558151933
 30
0.0
 10
43.49786298509868
 20
-8.900359121548304
 30
0.0
 10
46.83169806571588
 20
-9.929962497999789
 30
0.0
 10
50.16552713340785
 20
-10.66215045884722
 30
0.0
 10
53.49936680243944
 20
-11.07581079228716
 30
0.0
 10
56.88604318815997
 20
-11.15731229650418
 30
0.0
 10
60.32577739195038
 20
-10.89517825335058
 30
0.0
 10
63.81828849046244
 20
-10.24167144820252
 30
0.0
 10
66.27427428622914
 20
-9.623112919808
 30
0.0
 10
67.56607684848625
 20
-9.150281825457656
 30
0.0
 10
67.69373669186278
 20
-9.10355522403115
 30
0.0
  0
SPLINE
  5
A1
330
1F
100
AcDbEntity
  8
외형선
  6
Continuous
370
    15
100
AcDbSpline
210
0.0
220
0.0
230
1.0
 70
    24
 71
     3
 72
    21
 73
    17
 74
     0
 42
0.000000001
 43
0.00000001
 40
0.0
 40
0.0
 40
0.0
 40
0.0
 40
0.0951135396868535
 40
0.1665392911673985
 40
0.2400363942796034
 40
0.3114621457601481
 40
0.3849592488723528
 40
0.4563850003528976
 40
0.5298821034651026
 40
0.6013078549456479
 40
0.6748049580578527
 40
0.7462307095383977
 40
0.8197278126506026
 40
0.8911535641311472
 40
0.9646506672433522
 40
1.0
 40
1.0
 40
1.0
 40
1.0
 10
30.16250000000005
 20
9.286619060113482
 30
0.0
 10
30.16249999999999
 20
8.950995306952318
 30
0.0
 10
30.16249999999988
 20
8.363334053523769
 30
0.0
 10
30.16250000000015
 20
7.31186115690555
 30
0.0
 10
30.16250000000001
 20
6.285114347879404
 30
0.0
 10
30.16250000000001
 20
5.184173973716339
 30
0.0
 10
30.16250000000004
 20
4.063976724778155
 30
0.0
 10
30.16249999999997
 20
2.935008463274674
 30
0.0
 10
30.16250000000002
 20
1.849814875132837
 30
0.0
 10
30.16250000000004
 20
0.8195544420645147
 30
0.0
 10
30.16250000000008
 20
-0.1082345491418508
 30
0.0
 10
30.16249999999995
 20
-0.9232980559396385
 30
0.0
 10
30.16250000000001
 20
-1.590491231162026
 30
0.0
 10
30.16249999999999
 20
-2.0932271806302
 30
0.0
 10
30.16249999999991
 20
-2.38584141620492
 30
0.0
 10
30.16249999999998
 20
-2.452546560631509
 30
0.0
 10
30.16249999999999
 20
-2.474209946557685
 30
0.0
  0
SPLINE
  5
A2
330
1F
100
AcDbEntity
  8
0
  6
Continuous
 62
     1
370
    15
100
AcDbSpline
210
0.0
220
0.0
230
1.0
 70
     8
 71
     3
 72
    60
 73
    56
 74
     0
 42
0.000000001
 43
0.00000001
 40
0.0
 40
0.0
 40
0.0
 40
0.0
 40
0.0625000000000022
 40
0.0625000000000022
 40
0.0937500000000026
 40
0.0937500000000026
 40
0.125000000000003
 40
0.125000000000003
 40
0.1562500000000034
 40
0.1562500000000034
 40
0.1875000000000038
 40
0.1875000000000038
 40
0.2187500000000042
 40
0.2187500000000042
 40
0.2500000000000047
 40
0.2500000000000047
 40
0.3125000000000055
 40
0.3125000000000055
 40
0.3437500000000052
 40
0.3437500000000052
 40
0.375000000000005
 40
0.375000000000005
 40
0.4062500000000047
 40
0.4062500000000047
 40
0.4375000000000045
 40
0.4375000000000045
 40
0.4687500000000042
 40
0.4687500000000042
 40
0.500000000000004
 40
0.500000000000004
 40
0.5625000000000034
 40
0.5625000000000034
 40
0.625000000000003
 40
0.625000000000003
 40
0.6562500000000028
 40
0.6562500000000028
 40
0.6875000000000024
 40
0.6875000000000024
 40
0.7187500000000022
 40
0.7187500000000022
 40
0.750000000000002
 40
0.750000000000002
 40
0.7812500000000018
 40
0.7812500000000018
 40
0.8125000000000014
 40
0.8125000000000014
 40
0.875000000000001
 40
0.875000000000001
 40
0.9062500000000008
 40
0.9062500000000008
 40
0.9375000000000004
 40
0.9375000000000004
 40
0.9687500000000002
 40
0.9687500000000002
 40
1.0
 40
1.0
 40
1.0
 40
1.0
 10
77.78749999999994
 20
-11.11249999999999
 30
0.0
 10
76.79906306642977
 20
-11.02261415072403
 30
0.0
 10
75.80058578100018
 20
-10.92914381262472
 30
0.0
 10
74.3145047522836
 20
-10.724613063038
 30
0.0
 10
73.82022966844205
 20
-10.64575269348249
 30
0.0
 10
72.82678932977606
 20
-10.46670381310435
 30
0.0
 10
72.32920912021439
 20
-10.36658372242328
 30
0.0
 10
71.33678807702661
 20
-10.14607089518826
 30
0.0
 10
70.84326761985912
 20
-10.02581050846558
 30
0.0
 10
69.85100597078564
 20
-9.76514664489546
 30
0.0
 10
69.35344215330827
 20
-9.6248130646711
 30
0.0
 10
68.35990750081751
 20
-9.325375638501603
 30
0.0
 10
67.86544458639493
 20
-9.166446415111501
 30
0.0
 10
66.8749480603542
 20
-8.830513019407555
 30
0.0
 10
66.37769668297163
 20
-8.653349651776399
 30
0.0
 10
64.88660771226475
 20
-8.096556202670833
 30
0.0
 10
63.89874180630972
 20
-7.692362637976067
 30
0.0
 10
62.40775082187146
 20
-7.041314497073945
 30
0.0
 10
61.91040477896286
 20
-6.81699549036965
 30
0.0
 10
60.91946708327164
 20
-6.355803631536426
 30
0.0
 10
60.42535904932299
 20
-6.118868471283609
 30
0.0
 10
59.43202024015622
 20
-5.632456384888645
 30
0.0
 10
58.93442726718345
 20
-5.383231500296033
 30
0.0
 10
57.94185402087473
 20
-4.874986355583704
 30
0.0
 10
57.44831276479023
 20
-4.616229132136384
 30
0.0
 10
56.45621769696784
 20
-4.089169204999729
 30
0.0
 10
55.95867389984851
 20
-3.821030848123832
 30
0.0
 10
54.96505215149271
 20
-3.277928391468431
 30
0.0
 10
54.47038063033732
 20
-3.003229418157038
 30
0.0
 10
52.98498279764854
 20
-2.17074317344218
 30
0.0
 10
51.98645389301403
 20
-1.603308199199376
 30
0.0
 10
50.00846867277325
 20
-0.4638001585923102
 30
0.0
 10
49.01116342948971
 20
0.1116706798396998
 30
0.0
 10
47.52444210382986
 20
0.9690196874601557
 30
0.0
 10
47.03048033505108
 20
1.253814099982299
 30
0.0
 10
46.03725026859811
 20
1.821352110902267
 30
0.0
 10
45.53964816119795
 20
2.103773005971807
 30
0.0
 10
44.54692990644521
 20
2.663389142990636
 30
0.0
 10
44.05334705302946
 20
2.940303691475422
 30
0.0
 10
43.06142574956489
 20
3.488614294467822
 30
0.0
 10
42.56390560059025
 20
3.759849045549845
 30
0.0
 10
41.57020397643984
 20
4.294033733233202
 30
0.0
 10
41.07530307743713
 20
4.556760638874224
 30
0.0
 10
40.08527629878775
 20
5.072674459021579
 30
0.0
 10
39.58813406952538
 20
5.32620258407738
 30
0.0
 10
38.09699049635071
 20
6.070031425073801
 30
0.0
 10
37.10905559640047
 20
6.542659649218868
 30
0.0
 10
35.61820597252859
 20
7.211138729094047
 30
0.0
 10
35.12077975590054
 20
7.427053301863492
 30
0.0
 10
34.12942951091271
 20
7.843161629303857
 30
0.0
 10
33.63559321904781
 20
8.043366433218988
 30
0.0
 10
32.64247910588908
 20
8.428079987361196
 30
0.0
 10
32.14487149326776
 20
8.612347577870901
 30
0.0
 10
31.15201542825791
 20
8.96305711386392
 30
0.0
 10
30.6583701801013
 20
9.129338341480604
 30
0.0
 10
30.16250000000001
 20
9.286619060113479
 30
0.0
  0
LINE
  5
A3
330
1F
100
AcDbEntity
  8
0
  6
Continuous
 62
     1
370
    15
100
AcDbLine
 10
77.7875
 20
-11.11249999999999
 30
0.0
 11
77.78749999999998
 21
-10.06438399360449
 31
0.0
  0
LINE
  5
A4
330
1F
100
AcDbEntity
  8
외형선
  6
Continuous
370
    15
100
AcDbLine
 10
30.16250000000004
 20
9.28661906011348
 30
0.0
 11
30.16250000000001
 21
10.82143549245501
 31
0.0
  0
SPLINE
  5
A5
330
1F
100
AcDbEntity
  8
0
  6
Continuous
 62
     1
370
    15
100
AcDbSpline
210
0.0
220
0.0
230
1.0
 70
     8
 71
     3
 72
    14
 73
    10
 74
     0
 42
0.000000001
 43
0.00000001
 40
0.0
 40
0.0
 40
0.0
 40
0.0
 40
0.039032932894585
 40
0.1992022940616893
 40
0.359368867448874
 40
0.5195322883261174
 40
0.6796921926902563
 40
0.8398482173482374
 40
1.0
 40
1.0
 40
1.0
 40
1.0
 10
55.98207379995218
 20
11.08084180830741
 30
0.0
 10
56.26577695446116
 20
11.09026666060891
 30
0.0
 10
57.71363943928533
 20
11.13836584405284
 30
0.0
 10
60.32578173529228
 20
10.87278907206625
 30
0.0
 10
63.81828837878705
 20
10.26468495008054
 30
0.0
 10
67.31073513344981
 20
9.292408138654338
 30
0.0
 10
70.80308348359901
 20
8.019525187537068
 30
0.0
 10
74.29533338403026
 20
6.492451380339862
 30
0.0
 10
76.62345473885881
 20
5.304975333262197
 30
0.0
 10
77.78749999999998
 20
4.711245172910997
 30
0.0
  0
LINE
  5
A6
330
1F
100
AcDbEntity
  8
0
  6
Continuous
 62
     1
370
    15
100
AcDbLine
 10
77.78749999999998
 20
0.9521339936046053
 30
0.0
 11
77.78749999999998
 21
4.711245172910997
 31
0.0
  0
SPLINE
  5
A7
330
1F
100
AcDbEntity
  8
0
  6
Continuous
 62
     1
370
    15
100
AcDbSpline
210
0.0
220
0.0
230
1.0
 70
     8
 71
     3
 72
    13
 73
     9
 74
     0
 42
0.000000001
 43
0.00000001
 40
0.0
 40
0.0
 40
0.0
 40
0.0
 40
0.0829965956698469
 40
0.2663891330084672
 40
0.4497852718465505
 40
0.6331860730356679
 40
0.8165911212035543
 40
1.0
 40
1.0
 40
1.0
 40
1.0
 10
49.20439058791878
 20
-11.06720970370949
 30
0.0
 10
48.67758834826773
 20
-11.0772881970867
 30
0.0
 10
46.98674319064465
 20
-11.10963652524546
 30
0.0
 10
44.13185577064495
 20
-10.77461244311977
 30
0.0
 10
40.63965403389959
 20
-10.08942834966586
 30
0.0
 10
37.14735682648883
 20
-9.048379977841831
 30
0.0
 10
33.65496301393163
 20
-7.730128653271648
 30
0.0
 10
31.32666244277188
 20
-6.645366540417552
 30
0.0
 10
30.16250000000001
 20
-6.10297981991885
 30
0.0
  0
LINE
  5
A8
330
1F
100
AcDbEntity
  8
외형선
  6
Continuous
370
    15
100
AcDbLine
 10
30.16250000000004
 20
-6.102979819918837
 30
0.0
 11
30.16250000000001
 21
-2.526695496619174
 31
0.0
  0
SPLINE
  5
A9
330
1F
100
AcDbEntity
  8
0
  6
Continuous
 62
     1
370
    15
100
AcDbSpline
210
0.0
220
0.0
230
1.0
 70
     8
 71
     3
 72
    11
 73
     7
 74
     0
 42
0.000000001
 43
0.00000001
 40
0.0
 40
0.0
 40
0.0
 40
0.0
 40
0.3302958723615689
 40
0.6605913868937046
 40
0.9908865490431447
 40
1.0
 40
1.0
 40
1.0
 40
1.0
 10
77.78749999999997
 20
11.11250000000001
 30
0.0
 10
76.67619024880983
 20
10.98624023821578
 30
0.0
 10
74.45357195037855
 20
10.81545121044341
 30
0.0
 10
71.11964728504762
 20
10.1177625926711
 30
0.0
 10
68.86636927035092
 20
9.536176201409654
 30
0.0
 10
67.72439968452927
 20
9.114867764804835
 30
0.0
 10
67.69373669186278
 20
9.103555224031139
 30
0.0
  0
LINE
  5
AA
330
1F
100
AcDbEntity
  8
0
  6
Continuous
 62
     1
370
    15
100
AcDbLine
 10
77.78749999999998
 20
4.68413285929024
 30
0.0
 11
77.7875
 21
11.11250000000001
 31
0.0
  0
SPLINE
  5
AB
330
1F
100
AcDbEntity
  8
0
  6
Continuous
 62
     1
370
    15
100
AcDbSpline
210
0.0
220
0.0
230
1.0
 70
     8
 71
     3
 72
    10
 73
     6
 74
     0
 42
0.000000001
 43
0.00000001
 40
0.0
 40
0.0
 40
0.0
 40
0.0
 40
0.4565462429942884
 40
0.9130921684471177
 40
1.0
 40
1.0
 40
1.0
 40
1.0
 10
30.16250000000004
 20
-10.82143549245501
 30
0.0
 10
31.27378170998854
 20
-10.63988625341567
 30
0.0
 10
33.49634435703612
 20
-10.27678790160989
 30
0.0
 10
35.93044949812513
 20
-9.648091464464963
 30
0.0
 10
37.25327285820727
 20
-9.171795881379712
 30
0.0
 10
37.46481562200312
 20
-9.095627825182577
 30
0.0
  0
SPLINE
  5
AC
330
1F
100
AcDbEntity
  8
외형선
  6
Continuous
370
    15
100
AcDbSpline
210
0.0
220
0.0
230
1.0
 70
    24
 71
     3
 72
    12
 73
     8
 74
     0
 42
0.000000001
 43
0.00000001
 40
0.0
 40
0.0
 40
0.0
 40
0.0
 40
0.158882405506199
 40
0.3830639653808253
 40
0.6137468056789537
 40
0.8048868229576124
 40
1.0
 40
1.0
 40
1.0
 40
1.0
 10
30.16249999999999
 20
-6.211335341749498
 30
0.0
 10
30.16250000000001
 20
-6.417752274867484
 30
0.0
 10
30.16249999999999
 20
-6.915421533272808
 30
0.0
 10
30.16249999999997
 20
-7.83405127536353
 30
0.0
 10
30.16249999999995
 20
-8.852846447130148
 30
0.0
 10
30.16250000000005
 20
-9.863220254218586
 30
0.0
 10
30.16250000000005
 20
-10.49984754270093
 30
0.0
 10
30.16250000000001
 20
-10.82143549245501
 30
0.0
  0
LINE
  5
AD
330
1F
100
AcDbEntity
  8
외형선
  6
Continuous
370
    15
100
AcDbLine
 10
29.66263180995375
 20
10.88336507338623
 30
0.0
 11
29.66263180995375
 21
11.1125
 31
0.0
  0
SPLINE
  5
AE
330
1F
100
AcDbEntity
  8
외형선
  6
Continuous
370
    15
100
AcDbSpline
210
0.0
220
0.0
230
1.0
 70
     8
 71
     3
 72
     8
 73
     4
 74
     0
 42
0.000000001
 43
0.00000001
 40
0.0
 40
0.0
 40
0.0
 40
0.0
 40
1.0
 40
1.0
 40
1.0
 40
1.0
 10
30.16250000000001
 20
10.82143549245501
 30
0.0
 10
29.99603197228413
 20
10.84329544924747
 30
0.0
 10
29.82938122986437
 20
10.86394821653894
 30
0.0
 10
29.66263180995377
 20
10.88338130191872
 30
0.0
  0
SPLINE
  5
AF
330
1F
100
AcDbEntity
  8
외형선
  6
Continuous
370
    15
100
AcDbSpline
210
0.0
220
0.0
230
1.0
 70
     8
 71
     3
 72
     8
 73
     4
 74
     0
 42
0.000000001
 43
0.00000001
 40
0.0
 40
0.0
 40
0.0
 40
0.0
 40
1.0
 40
1.0
 40
1.0
 40
1.0
 10
30.16250000000001
 20
9.28661906011348
 30
0.0
 10
29.9960319722841
 20
9.339419595574602
 30
0.0
 10
29.82938122986438
 20
9.391196607931553
 30
0.0
 10
29.66263180995377
 20
9.441922162357175
 30
0.0
  0
LINE
  5
B0
330
1F
100
AcDbEntity
  8
외형선
  6
Continuous
370
    15
100
AcDbLine
 10
29.66263180995375
 20
-2.24499909340676
 30
0.0
 11
29.66263180995377
 21
9.441956923902689
 31
0.0
  0
SPLINE
  5
B1
330
1F
100
AcDbEntity
  8
외형선
  6
Continuous
370
    15
100
AcDbSpline
210
0.0
220
0.0
230
1.0
 70
     8
 71
     3
 72
     8
 73
     4
 74
     0
 42
0.000000001
 43
0.00000001
 40
0.0
 40
0.0
 40
0.0
 40
0.0
 40
1.0
 40
1.0
 40
1.0
 40
1.0
 10
30.16250000000001
 20
-2.526695496619168
 30
0.0
 10
29.99603197228413
 20
-2.433072773733091
 30
0.0
 10
29.82938122986437
 20
-2.339132078346603
 30
0.0
 10
29.66263180995377
 20
-2.244920418867093
 30
0.0
  0
SPLINE
  5
B2
330
1F
100
AcDbEntity
  8
외형선
  6
Continuous
370
    15
100
AcDbSpline
210
0.0
220
0.0
230
1.0
 70
     8
 71
     3
 72
     8
 73
     4
 74
     0
 42
0.000000001
 43
0.00000001
 40
0.0
 40
0.0
 40
0.0
 40
0.0
 40
1.0
 40
1.0
 40
1.0
 40
1.0
 10
30.16250000000001
 20
-6.102979819918843
 30
0.0
 10
29.9960319722841
 20
-6.022635713684527
 30
0.0
 10
29.82938122986438
 20
-5.941576895300088
 30
0.0
 10
29.66263180995377
 20
-5.859843183054313
 30
0.0
  0
LINE
  5
B3
330
1F
100
AcDbEntity
  8
외형선
  6
Continuous
370
    15
100
AcDbLine
 10
29.66263180995375
 20
-11.11250000000001
 30
0.0
 11
29.66263180995377
 21
-5.859787171661243
 31
0.0
  0
SPLINE
  5
B4
330
1F
100
AcDbEntity
  8
외형선
  6
Continuous
370
    15
100
AcDbSpline
210
0.0
220
0.0
230
1.0
 70
     8
 71
     3
 72
     8
 73
     4
 74
     0
 42
0.000000001
 43
0.00000001
 40
0.0
 40
0.0
 40
0.0
 40
0.0
 40
1.0
 40
1.0
 40
1.0
 40
1.0
 10
30.16250000000001
 20
-10.821435492455
 30
0.0
 10
29.99603197228413
 20
-10.84329544924746
 30
0.0
 10
29.82938122986437
 20
-10.86394821653893
 30
0.0
 10
29.66263180995377
 20
-10.88338130191872
 30
0.0
  0
LINE
  5
B7
330
1F
100
AcDbEntity
  8
외형선
  6
Continuous
370
    15
100
AcDbLine
 10
-77.7875
 20
-0.0000000000000062
 30
0.0
 11
-77.7875
 21
8.890000000000013
 31
0.0
  0
LINE
  5
B8
330
1F
100
AcDbEntity
  8
외형선
  6
Continuous
370
    15
100
AcDbLine
 10
-77.7875
 20
-8.890000000000033
 30
0.0
 11
-77.7875
 21
-0.0000000000000062
 31
0.0
  0
SPLINE
  5
B9
330
1F
100
AcDbEntity
  8
외형선
  6
Continuous
370
    15
100
AcDbSpline
210
0.0
220
0.0
230
1.0
 70
    24
 71
     3
 72
    21
 73
    17
 74
     0
 42
0.000000001
 43
0.00000001
 40
0.0
 40
0.0
 40
0.0
 40
0.0
 40
0.0420270080399713
 40
0.11360870140098
 40
0.1872662687187467
 40
0.2588479620797552
 40
0.3325055293975213
 40
0.40408722275853
 40
0.4777447900762963
 40
0.5493264834373054
 40
0.6229840507550722
 40
0.6945657441160779
 40
0.7682233114338408
 40
0.8398050047948524
 40
0.9134625721126214
 40
0.9999999999999999
 40
0.9999999999999999
 40
0.9999999999999999
 40
0.9999999999999999
 10
30.16250000000001
 20
-2.467311011700864
 30
0.0
 10
30.16250000000001
 20
-2.439478357822107
 30
0.0
 10
30.16249999999992
 20
-2.36424027138252
 30
0.0
 10
30.16249999999987
 20
-2.045248642182166
 30
0.0
 10
30.16250000000012
 20
-1.528980364215594
 30
0.0
 10
30.1624999999998
 20
-0.8393425268841863
 30
0.0
 10
30.16250000000012
 20
-0.0177045572183563
 30
0.0
 10
30.16250000000009
 20
0.9299972906262416
 30
0.0
 10
30.16250000000004
 20
1.959209281792282
 30
0.0
 10
30.16249999999995
 20
3.059485778153256
 30
0.0
 10
30.16249999999995
 20
4.179905382802592
 30
0.0
 10
30.16250000000005
 20
5.308658563594082
 30
0.0
 10
30.16250000000007
 20
6.394500494747613
 30
0.0
 10
30.16249999999998
 20
7.422413148292848
 30
0.0
 10
30.16249999999998
 20
8.423665466175144
 30
0.0
 10
30.16250000000001
 20
8.983951970520708
 30
0.0
 10
30.16250000000005
 20
9.286619060113512
 30
0.0
  0
SPLINE
  5
BA
330
1F
100
AcDbEntity
  8
외형선
  6
Continuous
370
    15
100
AcDbSpline
210
0.0
220
0.0
230
1.0
 70
    24
 71
     3
 72
    12
 73
     8
 74
     0
 42
0.000000001
 43
0.00000001
 40
0.0
 40
0.0
 40
0.0
 40
0.0
 40
0.204425180953291
 40
0.4137395085527823
 40
0.6378662080687788
 40
0.868492597054161
 40
0.9999999999999999
 40
0.9999999999999999
 40
0.9999999999999999
 40
0.9999999999999999
 10
30.16250000000001
 20
-10.821435492455
 30
0.0
 10
30.16249999999999
 20
-10.48435822036337
 30
0.0
 10
30.16249999999997
 20
-9.802141948135322
 30
0.0
 10
30.16249999999995
 20
-8.75828539430143
 30
0.0
 10
30.16249999999984
 20
-7.717728922636282
 30
0.0
 10
30.16250000000002
 20
-6.845308572871243
 30
0.0
 10
30.16249999999999
 20
-6.38022025793816
 30
0.0
 10
30.16249999999995
 20
-6.211325341749497
 30
0.0
  0
LINE
  5
BB
330
1F
100
AcDbEntity
  8
중심선
100
AcDbLine
 10
-80.7875
 20
-0.0000000000000101
 30
0.0
 11
80.78749999999998
 21
0.0000000000000101
 31
0.0
  0
LINE
  5
BC
330
1F
100
AcDbEntity
  8
참조1
100
AcDbLine
 10
38.2933806570156
 20
0.0010749287238892
 30
0.0
 11
38.2933806570156
 21
-39.99892507127611
 31
0.0
  0
LINE
  5
BD
330
1F
100
AcDbEntity
  8
참조1
100
AcDbLine
 10
38.2933806570156
 20
-39.99892507127611
 30
0.0
 11
-29.25297615729306
 21
-39.9989250712761
 31
0.0
  0
CIRCLE
  5
BE
330
1F
100
AcDbEntity
  8
해칭선
100
AcDbCircle
 10
0.0
 20
0.0
 30
0.0
 40
3.000000000000011
  0
INSERT
  5
BF
330
1F
100
AcDbEntity
  8
0
  6
Continuous
 62
     7
100
AcDbBlockReference
 66
     1
  2
블럭10
 10
-13.94027293212521
 20
-52.04717430164394
 30
0.0
  0
ATTRIB
  5
C0
330
BF
100
AcDbEntity
  8
FORMAT
 62
     2
100
AcDbText
 10
-23.12156822086649
 20
-49.97180738881175
 30
0.0
 40
4.233333333333333
  1
E1051056 [ 4 FLUTE ]
 41
0.75
  7
SLDTEXTSTYLE0
 11
-23.12156822086649
 21
-52.08847405547842
 31
0.0
100
AcDbAttribute
  2
AUTOATTR0
 70
     0
 74
     1
  0
SEQEND
  5
C1
330
BF
100
AcDbEntity
  8
0
  6
Continuous
 62
     7
  0
HATCH
  5
C2
330
1F
100
AcDbEntity
  8
중심선
100
AcDbHatch
 10
0.0
 20
0.0
 30
0.0
210
0.0
220
0.0
230
1.0
  2
SOLID
 70
     1
 71
     0
 91
        1
 92
        0
 93
        4
 72
     1
 10
-8.225363627744404
 20
-35.8
 11
-11.67163887158166
 21
-35.8
 72
     1
 10
-11.67163887158166
 20
-35.8
 11
-13.79986873078568
 21
-38.33632558057263
 72
     1
 10
-13.79986873078568
 20
-38.33632558057263
 11
-10.35356040183533
 21
-38.33628615127014
 72
     1
 10
-10.35356040183533
 20
-38.33628615127014
 11
-8.225363627744404
 21
-35.8
 97
        0
 75
     0
 76
     1
 98
        1
 10
-38.2933806570156
 20
-0.0010749287238993
  0
HATCH
  5
C3
330
1F
100
AcDbEntity
  8
중심선
100
AcDbHatch
 10
0.0
 20
0.0
 30
0.0
210
0.0
220
0.0
230
1.0
  2
SOLID
 70
     1
 71
     0
 91
        1
 92
        0
 93
        4
 72
     1
 10
-3.212599636708397
 20
-35.79999999999998
 11
-6.658874880545682
 21
-35.79999999999998
 72
     1
 10
-6.658874880545682
 20
-35.79999999999998
 11
-11.1900128889031
 21
-41.20000000000002
 72
     1
 10
-11.1900128889031
 20
-41.20000000000002
 11
-7.743737645065814
 21
-41.20000000000002
 72
     1
 10
-7.743737645065814
 20
-41.20000000000002
 11
-3.212599636708397
 21
-35.79999999999998
 97
        0
 75
     0
 76
     1
 98
        1
 10
-38.2933806570156
 20
-0.0010749287238993
  0
HATCH
  5
C4
330
1F
100
AcDbEntity
  8
중심선
100
AcDbHatch
 10
0.0
 20
0.0
 30
0.0
210
0.0
220
0.0
230
1.0
  2
SOLID
 70
     1
 71
     0
 91
        1
 92
        0
 93
        4
 72
     1
 10
1.800164354327499
 20
-35.8
 11
-1.646110889509615
 21
-35.79999999999998
 72
     1
 10
-1.646110889509615
 20
-35.79999999999998
 11
-8.694547791398897
 21
-44.20000000000002
 72
     1
 10
-8.694547791398897
 20
-44.20000000000002
 11
-5.248272547561612
 21
-44.20000000000002
 72
     1
 10
-5.248272547561612
 20
-44.20000000000002
 11
1.800164354327499
 21
-35.8
 97
        0
 75
     0
 76
     1
 98
        1
 10
-38.2933806570156
 20
-0.0010749287238993
  0
HATCH
  5
C5
330
1F
100
AcDbEntity
  8
중심선
100
AcDbHatch
 10
0.0
 20
0.0
 30
0.0
210
0.0
220
0.0
230
1.0
  2
SOLID
 70
     1
 71
     0
 91
        1
 92
        0
 93
        6
 72
     3
 10
6.600054785339644
 20
-40.00000000005128
 11
3.960054785062283
 21
1.540882976769353E-10
 40
0.3939339440162628
 50
17.09539180608432
 51
320.0019657685087
 73
     0
 72
     1
 10
8.28305444104032
 20
-38.58789400463828
 11
10.5883563147413
 21
-36.65356729459039
 72
     3
 10
6.600054785286794
 20
-40.00000000000016
 11
6.600054785286829
 21
-1.278976924368180E-13
 40
0.636358354079598
 50
39.99873849337385
 51
368.4976242363724
 73
     1
 72
     1
 10
13.02538727718743
 20
-39.03999999993003
 11
5.280122092122802
 21
-39.03999999993003
 72
     1
 10
5.280122092122802
 20
-39.03999999993003
 11
5.280097047676783
 21
-40.95999999992992
 72
     1
 10
5.280097047676783
 20
-40.95999999992992
 11
9.721476817148847
 21
-40.95999999992989
 97
        0
 75
     0
 76
     1
 98
        1
 10
-38.2933806570156
 20
-0.0010749287238993
  0
DIMENSION
  5
C6
330
1F
100
AcDbEntity
  8
치수문자_일반주서
100
AcDbDimension
  2
_D
 10
96.3495153737889
 20
-11.11249999999992
 30
0.0
 11
96.34951537378876
 21
34.38624124874968
 31
0.0
 70
   160
  1
%%c<>
 71
     2
 42
22.225
 52
-270.0
  3
SLDDIMSTYLE1
100
AcDbAlignedDimension
 13
77.7875
 23
11.11250000000001
 33
0.0
 14
77.78749999999994
 24
-11.11249999999999
 34
0.0
 50
90.0000000000002
100
AcDbRotatedDimension
1001
ACAD
1000
DSTYLE
1002
{
1070
   171
1070
     6
1070
   273
1070
     7
1002
}
  0
DIMENSION
  5
DA
330
1F
100
AcDbEntity
  8
치수문자_일반주서
100
AcDbDimension
  2
_D_1
 10
30.16250000000001
 20
27.72389524088822
 30
0.0
 11
8.24600000000001
 21
27.72389524088822
 31
0.0
 70
   160
  1
<>
 71
     2
 42
47.62499999999999
  3
SLDDIMSTYLE1
100
AcDbAlignedDimension
 13
77.7875
 23
11.11250000000001
 33
0.0
 14
30.16250000000001
 24
10.82143549245501
 34
0.0
 50
0.0000000000000085
100
AcDbRotatedDimension
1001
ACAD
1000
DSTYLE
1002
{
1070
   171
1070
     6
1070
   273
1070
     7
1002
}
  0
DIMENSION
  5
EE
330
1F
100
AcDbEntity
  8
치수문자_일반주서
100
AcDbDimension
  2
_D_2
 10
-77.7875
 20
58.6620537413329
 30
0.0
 11
-3.969488601107457
 21
58.6620537413329
 31
0.0
 70
   160
  1
<>
 71
     2
 42
155.575
  3
SLDDIMSTYLE1
100
AcDbAlignedDimension
 13
77.7875
 23
11.11250000000001
 33
0.0
 14
-77.7875
 24
8.890000000000004
 34
0.0
 50
0.0000000000000026
100
AcDbRotatedDimension
1001
ACAD
1000
DSTYLE
1002
{
1070
   171
1070
     6
1070
   273
1070
     7
1002
}
  0
DIMENSION
  5
101
330
1F
100
AcDbEntity
  8
치수문자_일반주서
100
AcDbDimension
  2
_D_3
 10
-89.04124999999998
 20
-11.11250000000024
 30
0.0
 11
-89.04125000000002
 21
-0.0000000000000105
 31
0.0
 70
   160
  1
%%c<>
 71
     2
 42
22.22500000000001
 52
-270.0
  3
SLDDIMSTYLE1
100
AcDbAlignedDimension
 13
-29.66263180995382
 23
11.1125
 33
0.0
 14
-29.66263180995381
 24
-11.11250000000001
 34
0.0
 50
90.0000000000002
100
AcDbRotatedDimension
1001
ACAD
1000
DSTYLE
1002
{
1070
   171
1070
     6
1070
   273
1070
     7
1002
}
  0
LINE
  5
116
330
1F
100
AcDbEntity
  8
참조1
100
AcDbLine
 10
68.7193644723612
 20
7.441074928723896
 30
0.0
 11
68.7193644723612
 21
-7.438925071276109
 31
0.0
  0
LINE
  5
117
330
1F
100
AcDbEntity
  8
참조1
100
AcDbLine
 10
81.41936447236121
 20
5.441074928723896
 30
0.0
 11
68.7193644723612
 21
5.441074928723896
 31
0.0
  0
SOLID
  5
118
330
1F
100
AcDbEntity
  8
참조1
100
AcDbTrace
 10
68.7193644723612
 20
5.441074928723896
 30
0.0
 11
75.0693644723612
 21
4.425074928723896
 31
0.0
 12
75.0693644723612
 22
6.457074928723896
 32
0.0
 13
75.0693644723612
 23
6.457074928723896
 33
0.0
  0
LINE
  5
119
330
1F
100
AcDbEntity
  8
참조1
100
AcDbLine
 10
81.41936447236121
 20
-5.438925071276109
 30
0.0
 11
68.7193644723612
 21
-5.438925071276109
 31
0.0
  0
SOLID
  5
11A
330
1F
100
AcDbEntity
  8
참조1
100
AcDbTrace
 10
68.7193644723612
 20
-5.438925071276109
 30
0.0
 11
75.0693644723612
 21
-6.454925071276109
 31
0.0
 12
75.0693644723612
 22
-4.422925071276109
 32
0.0
 13
75.0693644723612
 23
-4.422925071276109
 33
0.0
  0
MTEXT
  5
11B
330
1F
100
AcDbEntity
  8
참조1
100
AcDbMText
 10
78.1037146049872
 20
11.01136670591223
 30
0.0
 40
3.5
 41
0.0
 71
     1
 72
     1
  1
A
  7
SLDTEXTSTYLE0
 73
     1
 44
1.0
  0
MTEXT
  5
11C
330
1F
100
AcDbEntity
  8
참조1
100
AcDbMText
 10
78.1037146049872
 20
0.1313667059122219
 30
0.0
 40
3.5
 41
0.0
 71
     1
 72
     1
  1
A
  7
SLDTEXTSTYLE0
 73
     1
 44
1.0
  0
INSERT
  5
123
330
1F
100
AcDbEntity
  8
해칭선
100
AcDbBlockReference
  2
SW_DOWELSYMBOL_0
 10
0.0
 20
0.0
 30
0.0
  0
LINE
  5
300
330
1F
100
AcDbEntity
  8
0
  6
Continuous
 62
     1
370
    15
100
AcDbLine
 10
-73.6503120018103
 20
-3.29299280548128
 30
0.0
 11
-73.57507482800085
 21
-3.333663909798763
 31
0.0
  0
LINE
  5
301
330
1F
100
AcDbEntity
  8
0
  6
Continuous
 62
     1
370
    15
100
AcDbLine
 10
-55.98207379995219
 20
-11.11250000000001
 30
0.0
 11
-49.20439058791894
 21
-11.11250000000001
 31
0.0
  0
LINE
  5
303
330
1F
100
AcDbEntity
  8
0
  6
Continuous
 62
     1
370
    15
100
AcDbLine
 10
-77.7875
 20
10.06438399360448
 30
0.0
 11
-77.7875
 21
-0.9521339936046089
 31
0.0
  0
SPLINE
  5
304
330
1F
100
AcDbEntity
  8
0
  6
Continuous
 62
     1
370
    15
100
AcDbSpline
210
0.0
220
0.0
230
1.0
 70
     8
 71
     3
 72
    60
 73
    56
 74
     0
 42
0.000000001
 43
0.00000001
 40
0.0
 40
0.0
 40
0.0
 40
0.0
 40
0.0625
 40
0.0625
 40
0.0937499999999999
 40
0.0937499999999999
 40
0.1249999999999999
 40
0.1249999999999999
 40
0.1562499999999999
 40
0.1562499999999999
 40
0.1874999999999999
 40
0.1874999999999999
 40
0.2187499999999999
 40
0.2187499999999999
 40
0.2499999999999998
 40
0.2499999999999998
 40
0.3124999999999998
 40
0.3124999999999998
 40
0.3437499999999998
 40
0.3437499999999998
 40
0.3749999999999998
 40
0.3749999999999998
 40
0.4062499999999997
 40
0.4062499999999997
 40
0.4374999999999997
 40
0.4374999999999997
 40
0.4687499999999997
 40
0.4687499999999997
 40
0.4999999999999997
 40
0.4999999999999997
 40
0.5624999999999983
 40
0.5624999999999983
 40
0.6249999999999969
 40
0.6249999999999969
 40
0.6562499999999969
 40
0.6562499999999969
 40
0.6874999999999969
 40
0.6874999999999969
 40
0.7187499999999969
 40
0.7187499999999969
 40
0.7499999999999969
 40
0.7499999999999969
 40
0.7812499999999968
 40
0.7812499999999968
 40
0.8124999999999968
 40
0.8124999999999968
 40
0.8749999999999974
 40
0.8749999999999974
 40
0.9062499999999981
 40
0.9062499999999981
 40
0.9374999999999987
 40
0.9374999999999987
 40
0.9687499999999993
 40
0.9687499999999993
 40
1.0
 40
1.0
 40
1.0
 40
1.0
 10
-77.7875
 20
10.06438399360448
 30
0.0
 10
-76.79906306642985
 20
9.821825392512448
 30
0.0
 10
-75.8005857810002
 20
9.538195508390512
 30
0.0
 10
-74.31450475228345
 20
9.05859539093819
 30
0.0
 10
-73.82022966844212
 20
8.889677574594128
 30
0.0
 10
-72.82678932977612
 20
8.533898649428775
 30
0.0
 10
-72.32920912021447
 20
8.347205036763452
 30
0.0
 10
-71.33678807702663
 20
7.957900086760911
 30
0.0
 10
-70.84326761985923
 20
7.755488951499824
 30
0.0
 10
-69.85100597078574
 20
7.334918982926491
 30
0.0
 10
-69.35344215330824
 20
7.116901223488308
 30
0.0
 10
-68.35990750081751
 20
6.667335744473585
 30
0.0
 10
-67.86544458639506
 20
6.436032778317052
 30
0.0
 10
-66.87494806035417
 20
5.960847987368278
 30
0.0
 10
-66.37769668297173
 20
5.716756464228918
 30
0.0
 10
-64.88660771226486
 20
4.968201495340021
 30
0.0
 10
-63.89874180630974
 20
4.448399044772837
 30
0.0
 10
-62.40775082187142
 20
3.643639131013525
 30
0.0
 10
-61.91040477896283
 20
3.371414843805137
 30
0.0
 10
-60.91946708327166
 20
2.821484591422827
 30
0.0
 10
-60.42535904932302
 20
2.543691276924374
 30
0.0
 10
-59.43202024015622
 20
1.982630839729804
 30
0.0
 10
-58.93442726718339
 20
1.699666838226686
 30
0.0
 10
-57.94185402087473
 20
1.131410361642021
 30
0.0
 10
-57.44831276479042
 20
0.8463975585629797
 30
0.0
 10
-56.45621769696785
 20
0.2742945560442067
 30
0.0
 10
-55.95867389984855
 20
-0.0126033483021828
 30
0.0
 10
-54.96505215149293
 20
-0.5855210885602602
 30
0.0
 10
-54.47038063033753
 20
-0.8712699641080845
 30
0.0
 10
-52.9849827976486
 20
-1.725330644983278
 30
0.0
 10
-51.98645389301404
 20
-2.291643019203879
 30
0.0
 10
-50.00846867277332
 20
-3.397974321192994
 30
0.0
 10
-49.01116342948976
 20
-3.941303504044943
 30
0.0
 10
-47.52444210382984
 20
-4.727866725198358
 30
0.0
 10
-47.03048033505107
 20
-4.985330049200944
 30
0.0
 10
-46.03725026859811
 20
-5.490725206926531
 30
0.0
 10
-45.53964816119796
 20
-5.738358453093345
 30
0.0
 10
-44.54692990644529
 20
-6.221282408692862
 30
0.0
 10
-44.05334705302957
 20
-6.456343821559902
 30
0.0
 10
-43.0614257495649
 20
-6.913899806726609
 30
0.0
 10
-42.56390560059029
 20
-7.136246585869817
 30
0.0
 10
-41.57020397643984
 20
-7.566059998384692
 30
0.0
 10
-41.07530307743721
 20
-7.773355056812112
 30
0.0
 10
-40.08527629878782
 20
-8.172114265951212
 30
0.0
 10
-39.58813406952535
 20
-8.363834014062082
 30
0.0
 10
-38.09699049635091
 20
-8.913337224297255
 30
0.0
 10
-37.10905559640057
 20
-9.244826348979476
 30
0.0
 10
-35.61820597252867
 20
-9.685884590419878
 30
0.0
 10
-35.12077975590054
 20
-9.823419758922274
 30
0.0
 10
-34.12942951091273
 20
-10.0783391044977
 30
0.0
 10
-33.63559321904788
 20
-10.19574602230363
 30
0.0
 10
-32.64247910588912
 20
-10.41043652640115
 30
0.0
 10
-32.1448714932678
 20
-10.5075682341966
 30
0.0
 10
-31.15201542825795
 20
-10.68053933260856
 30
0.0
 10
-30.6583701801014
 20
-10.75631968096609
 30
0.0
 10
-30.16250000000005
 20
-10.82143549245504
 30
0.0
  0
SPLINE
  5
305
330
1F
100
AcDbEntity
  8
0
  6
Continuous
 62
     1
370
    15
100
AcDbSpline
210
0.0
220
0.0
230
1.0
 70
     8
 71
     3
 72
    19
 73
    15
 74
     0
 42
0.000000001
 43
0.00000001
 40
0.0
 40
0.0
 40
0.0
 40
0.0
 40
0.0826813875045286
 40
0.1653626854353249
 40
0.2480438951558448
 40
0.3307250180302855
 40
0.4134060554235726
 40
0.4960870087013405
 40
0.5787678792299311
 40
0.6614486683763768
 40
0.7480545447150677
 40
0.8346585872735747
 40
0.9212643305796546
 40
1.0
 40
1.0
 40
1.0
 40
1.0
 10
-77.7875
 20
-0.9521339936046089
 30
0.0
 10
-76.67619025281036
 20
-1.588618428009885
 30
0.0
 10
-74.45357196237998
 20
-2.861586607278458
 30
0.0
 10
-71.11964723704168
 20
-4.677765073790657
 30
0.0
 10
-67.78572670539157
 20
-6.355997157533484
 30
0.0
 10
-64.4518104675561
 20
-7.843461510943617
 30
0.0
 10
-61.11789806811717
 20
-9.096349457190133
 30
0.0
 10
-57.78399083262897
 20
-10.07693700525185
 30
0.0
 10
-54.45008351809449
 20
-10.75608822305302
 30
0.0
 10
-51.06343798279224
 20
-11.11851436913956
 30
0.0
 10
-47.62400250862945
 20
-11.13719759567528
 30
0.0
 10
-44.13185575583825
 20
-10.78325352677904
 30
0.0
 10
-40.74546582937418
 20
-10.12272591958557
 30
0.0
 10
-38.5231050277084
 20
-9.426954532761602
 30
0.0
 10
-37.46481562200327
 20
-9.095627825182579
 30
0.0
  0
SPLINE
  5
306
330
1F
100
AcDbEntity
  8
0
  6
Continuous
 62
     1
370
    15
100
AcDbSpline
210
0.0
220
0.0
230
1.0
 70
     8
 71
     3
 72
    19
 73
    15
 74
     0
 42
0.000000001
 43
0.00000001
 40
0.0
 40
0.0
 40
0.0
 40
0.0
 40
0.0888291947850168
 40
0.1776583277866928
 40
0.2664874004852393
 40
0.3553164143613718
 40
0.4441453708963011
 40
0.5329742715717203
 40
0.6218031178697886
 40
0.710631911273125
 40
0.8036882395712465
 40
0.8967429482052729
 40
0.9897958252717763
 40
1.0
 40
1.0
 40
1.0
 40
1.0
 10
-30.16250000000005
 20
2.526695496619151
 30
0.0
 10
-31.27378171826948
 20
3.14417211072411
 30
0.0
 10
-33.49634438187891
 20
4.379124909460724
 30
0.0
 10
-36.83018662904678
 20
6.080240197964183
 30
0.0
 10
-40.1640262615928
 20
7.604825558151911
 30
0.0
 10
-43.49786298509869
 20
8.900359121548288
 30
0.0
 10
-46.83169806571593
 20
9.929962497999764
 30
0.0
 10
-50.16552713340783
 20
10.6621504588472
 30
0.0
 10
-53.49936680243943
 20
11.07581079228714
 30
0.0
 10
-56.88604318815996
 20
11.15731229650416
 30
0.0
 10
-60.32577739195037
 20
10.89517825335056
 30
0.0
 10
-63.81828849046244
 20
10.24167144820249
 30
0.0
 10
-66.2742742862292
 20
9.623112919807976
 30
0.0
 10
-67.56607684848629
 20
9.150281825457636
 30
0.0
 10
-67.69373669186277
 20
9.103555224031123
 30
0.0
  0
SPLINE
  5
307
330
1F
100
AcDbEntity
  8
외형선
  6
Continuous
370
    15
100
AcDbSpline
210
0.0
220
0.0
230
1.0
 70
    24
 71
     3
 72
    21
 73
    17
 74
     0
 42
0.000000001
 43
0.00000001
 40
0.0
 40
0.0
 40
0.0
 40
0.0
 40
0.0951135396868535
 40
0.1665392911673985
 40
0.2400363942796034
 40
0.3114621457601481
 40
0.3849592488723528
 40
0.4563850003528976
 40
0.5298821034651026
 40
0.6013078549456479
 40
0.6748049580578527
 40
0.7462307095383977
 40
0.8197278126506026
 40
0.8911535641311472
 40
0.9646506672433522
 40
1.0
 40
1.0
 40
1.0
 40
1.0
 10
-30.16250000000011
 20
-9.286619060113498
 30
0.0
 10
-30.16249999999999
 20
-8.95099530695234
 30
0.0
 10
-30.16249999999988
 20
-8.36333405352379
 30
0.0
 10
-30.16250000000016
 20
-7.311861156905569
 30
0.0
 10
-30.16250000000005
 20
-6.285114347879433
 30
0.0
 10
-30.16250000000005
 20
-5.184173973716359
 30
0.0
 10
-30.16250000000005
 20
-4.063976724778176
 30
0.0
 10
-30.16249999999999
 20
-2.935008463274688
 30
0.0
 10
-30.16250000000005
 20
-1.849814875132854
 30
0.0
 10
-30.16250000000005
 20
-0.8195544420645333
 30
0.0
 10
-30.16250000000011
 20
0.1082345491418366
 30
0.0
 10
-30.16249999999999
 20
0.9232980559396211
 30
0.0
 10
-30.16250000000005
 20
1.590491231162001
 30
0.0
 10
-30.16249999999999
 20
2.093227180630176
 30
0.0
 10
-30.16249999999994
 20
2.385841416204893
 30
0.0
 10
-30.16249999999999
 20
2.452546560631486
 30
0.0
 10
-30.16249999999999
 20
2.47420994655766
 30
0.0
  0
SPLINE
  5
308
330
1F
100
AcDbEntity
  8
0
  6
Continuous
 62
     1
370
    15
100
AcDbSpline
210
0.0
220
0.0
230
1.0
 70
     8
 71
     3
 72
    60
 73
    56
 74
     0
 42
0.000000001
 43
0.00000001
 40
0.0
 40
0.0
 40
0.0
 40
0.0
 40
0.0625000000000022
 40
0.0625000000000022
 40
0.0937500000000026
 40
0.0937500000000026
 40
0.125000000000003
 40
0.125000000000003
 40
0.1562500000000034
 40
0.1562500000000034
 40
0.1875000000000038
 40
0.1875000000000038
 40
0.2187500000000042
 40
0.2187500000000042
 40
0.2500000000000047
 40
0.2500000000000047
 40
0.3125000000000055
 40
0.3125000000000055
 40
0.3437500000000052
 40
0.3437500000000052
 40
0.375000000000005
 40
0.375000000000005
 40
0.4062500000000047
 40
0.4062500000000047
 40
0.4375000000000045
 40
0.4375000000000045
 40
0.4687500000000042
 40
0.4687500000000042
 40
0.500000000000004
 40
0.500000000000004
 40
0.5625000000000034
 40
0.5625000000000034
 40
0.625000000000003
 40
0.625000000000003
 40
0.6562500000000028
 40
0.6562500000000028
 40
0.6875000000000024
 40
0.6875000000000024
 40
0.7187500000000022
 40
0.7187500000000022
 40
0.750000000000002
 40
0.750000000000002
 40
0.7812500000000018
 40
0.7812500000000018
 40
0.8125000000000014
 40
0.8125000000000014
 40
0.875000000000001
 40
0.875000000000001
 40
0.9062500000000008
 40
0.9062500000000008
 40
0.9375000000000004
 40
0.9375000000000004
 40
0.9687500000000002
 40
0.9687500000000002
 40
1.0
 40
1.0
 40
1.0
 40
1.0
 10
-77.7875
 20
11.11249999999998
 30
0.0
 10
-76.7990630664298
 20
11.02261415072402
 30
0.0
 10
-75.8005857810002
 20
10.92914381262471
 30
0.0
 10
-74.31450475228363
 20
10.72461306303799
 30
0.0
 10
-73.82022966844212
 20
10.64575269348247
 30
0.0
 10
-72.82678932977612
 20
10.46670381310434
 30
0.0
 10
-72.32920912021441
 20
10.36658372242327
 30
0.0
 10
-71.33678807702663
 20
10.14607089518826
 30
0.0
 10
-70.84326761985912
 20
10.02581050846556
 30
0.0
 10
-69.85100597078562
 20
9.765146644895449
 30
0.0
 10
-69.3534421533083
 20
9.624813064671084
 30
0.0
 10
-68.35990750081757
 20
9.32537563850158
 30
0.0
 10
-67.865444586395
 20
9.166446415111476
 30
0.0
 10
-66.87494806035423
 20
8.83051301940753
 30
0.0
 10
-66.37769668297162
 20
8.653349651776377
 30
0.0
 10
-64.88660771226475
 20
8.096556202670808
 30
0.0
 10
-63.89874180630974
 20
7.692362637976042
 30
0.0
 10
-62.40775082187153
 20
7.041314497073922
 30
0.0
 10
-61.91040477896289
 20
6.816995490369631
 30
0.0
 10
-60.91946708327166
 20
6.355803631536399
 30
0.0
 10
-60.42535904932302
 20
6.118868471283586
 30
0.0
 10
-59.43202024015622
 20
5.632456384888623
 30
0.0
 10
-58.93442726718351
 20
5.383231500296016
 30
0.0
 10
-57.94185402087473
 20
4.874986355583682
 30
0.0
 10
-57.4483127647903
 20
4.616229132136364
 30
0.0
 10
-56.45621769696785
 20
4.089169204999702
 30
0.0
 10
-55.95867389984855
 20
3.821030848123808
 30
0.0
 10
-54.9650521514927
 20
3.277928391468403
 30
0.0
 10
-54.4703806303373
 20
3.003229418157015
 30
0.0
 10
-52.9849827976486
 20
2.170743173442158
 30
0.0
 10
-51.98645389301404
 20
1.603308199199357
 30
0.0
 10
-50.00846867277332
 20
0.463800158592288
 30
0.0
 10
-49.01116342948976
 20
-0.1116706798397231
 30
0.0
 10
-47.52444210382984
 20
-0.9690196874601795
 30
0.0
 10
-47.03048033505112
 20
-1.253814099982326
 30
0.0
 10
-46.03725026859817
 20
-1.821352110902286
 30
0.0
 10
-45.53964816119796
 20
-2.103773005971835
 30
0.0
 10
-44.54692990644523
 20
-2.663389142990657
 30
0.0
 10
-44.05334705302946
 20
-2.940303691475439
 30
0.0
 10
-43.0614257495649
 20
-3.488614294467841
 30
0.0
 10
-42.56390560059029
 20
-3.759849045549875
 30
0.0
 10
-41.57020397643984
 20
-4.294033733233225
 30
0.0
 10
-41.07530307743716
 20
-4.556760638874256
 30
0.0
 10
-40.08527629878776
 20
-5.072674459021603
 30
0.0
 10
-39.58813406952541
 20
-5.326202584077397
 30
0.0
 10
-38.09699049635074
 20
-6.070031425073826
 30
0.0
 10
-37.10905559640051
 20
-6.542659649218895
 30
0.0
 10
-35.61820597252861
 20
-7.211138729094064
 30
0.0
 10
-35.12077975590054
 20
-7.427053301863514
 30
0.0
 10
-34.12942951091273
 20
-7.843161629303883
 30
0.0
 10
-33.63559321904782
 20
-8.04336643321901
 30
0.0
 10
-32.64247910588912
 20
-8.428079987361219
 30
0.0
 10
-32.1448714932678
 20
-8.612347577870924
 30
0.0
 10
-31.15201542825795
 20
-8.963057113863943
 30
0.0
 10
-30.65837018010134
 20
-9.129338341480622
 30
0.0
 10
-30.16250000000005
 20
-9.286619060113498
 30
0.0
  0
LINE
  5
309
330
1F
100
AcDbEntity
  8
외형선
  6
Continuous
370
    15
100
AcDbLine
 10
-30.16250000000005
 20
-9.286619060113498
 30
0.0
 11
-30.16250000000005
 21
-10.82143549245503
 31
0.0
  0
SPLINE
  5
30A
330
1F
100
AcDbEntity
  8
0
  6
Continuous
 62
     1
370
    15
100
AcDbSpline
210
0.0
220
0.0
230
1.0
 70
     8
 71
     3
 72
    14
 73
    10
 74
     0
 42
0.000000001
 43
0.00000001
 40
0.0
 40
0.0
 40
0.0
 40
0.0
 40
0.039032932894585
 40
0.1992022940616893
 40
0.359368867448874
 40
0.5195322883261174
 40
0.6796921926902563
 40
0.8398482173482374
 40
1.0
 40
1.0
 40
1.0
 40
1.0
 10
-55.98207379995219
 20
-11.08084180830743
 30
0.0
 10
-56.26577695446119
 20
-11.09026666060892
 30
0.0
 10
-57.7136394392854
 20
-11.13836584405286
 30
0.0
 10
-60.32578173529234
 20
-10.87278907206627
 30
0.0
 10
-63.81828837878706
 20
-10.26468495008057
 30
0.0
 10
-67.31073513344981
 20
-9.292408138654356
 30
0.0
 10
-70.80308348359901
 20
-8.019525187537074
 30
0.0
 10
-74.29533338403027
 20
-6.492451380339877
 30
0.0
 10
-76.62345473885884
 20
-5.30497533326221
 30
0.0
 10
-77.7875
 20
-4.711245172910997
 30
0.0
  0
LINE
  5
30B
330
1F
100
AcDbEntity
  8
0
  6
Continuous
 62
     1
370
    15
100
AcDbLine
 10
-77.7875
 20
-0.9521339936046089
 30
0.0
 11
-77.7875
 21
-4.711245172910997
 31
0.0
  0
SPLINE
  5
30C
330
1F
100
AcDbEntity
  8
0
  6
Continuous
 62
     1
370
    15
100
AcDbSpline
210
0.0
220
0.0
230
1.0
 70
     8
 71
     3
 72
    13
 73
     9
 74
     0
 42
0.000000001
 43
0.00000001
 40
0.0
 40
0.0
 40
0.0
 40
0.0
 40
0.0829965956698469
 40
0.2663891330084672
 40
0.4497852718465505
 40
0.6331860730356679
 40
0.8165911212035543
 40
1.0
 40
1.0
 40
1.0
 40
1.0
 10
-49.20439058791882
 20
11.06720970370946
 30
0.0
 10
-48.67758834826779
 20
11.07728819708668
 30
0.0
 10
-46.98674319064466
 20
11.10963652524545
 30
0.0
 10
-44.13185577064499
 20
10.77461244311975
 30
0.0
 10
-40.63965403389963
 20
10.08942834966585
 30
0.0
 10
-37.14735682648885
 20
9.048379977841815
 30
0.0
 10
-33.65496301393168
 20
7.73012865327163
 30
0.0
 10
-31.32666244277189
 20
6.645366540417522
 30
0.0
 10
-30.16250000000005
 20
6.102979819918825
 30
0.0
  0
LINE
  5
30D
330
1F
100
AcDbEntity
  8
외형선
  6
Continuous
370
    15
100
AcDbLine
 10
-30.16250000000005
 20
6.102979819918811
 30
0.0
 11
-30.16250000000005
 21
2.526695496619151
 31
0.0
  0
SPLINE
  5
30E
330
1F
100
AcDbEntity
  8
0
  6
Continuous
 62
     1
370
    15
100
AcDbSpline
210
0.0
220
0.0
230
1.0
 70
     8
 71
     3
 72
    11
 73
     7
 74
     0
 42
0.000000001
 43
0.00000001
 40
0.0
 40
0.0
 40
0.0
 40
0.0
 40
0.3302958723615689
 40
0.6605913868937046
 40
0.9908865490431447
 40
1.0
 40
1.0
 40
1.0
 40
1.0
 10
-77.7875
 20
-11.11250000000001
 30
0.0
 10
-76.67619024880989
 20
-10.98624023821577
 30
0.0
 10
-74.45357195037857
 20
-10.81545121044342
 30
0.0
 10
-71.11964728504765
 20
-10.1177625926711
 30
0.0
 10
-68.86636927035099
 20
-9.536176201409678
 30
0.0
 10
-67.72439968452929
 20
-9.11486776480486
 30
0.0
 10
-67.69373669186277
 20
-9.103555224031158
 30
0.0
  0
LINE
  5
30F
330
1F
100
AcDbEntity
  8
0
  6
Continuous
 62
     1
370
    15
100
AcDbLine
 10
-77.7875
 20
-4.684132859290249
 30
0.0
 11
-77.7875
 21
-11.11250000000001
 31
0.0
  0
SPLINE
  5
310
330
1F
100
AcDbEntity
  8
0
  6
Continuous
 62
     1
370
    15
100
AcDbSpline
210
0.0
220
0.0
230
1.0
 70
     8
 71
     3
 72
    10
 73
     6
 74
     0
 42
0.000000001
 43
0.00000001
 40
0.0
 40
0.0
 40
0.0
 40
0.0
 40
0.4565462429942884
 40
0.9130921684471177
 40
1.0
 40
1.0
 40
1.0
 40
1.0
 10
-30.16250000000005
 20
10.82143549245499
 30
0.0
 10
-31.27378170998858
 20
10.63988625341565
 30
0.0
 10
-33.49634435703612
 20
10.27678790160988
 30
0.0
 10
-35.93044949812517
 20
9.648091464464937
 30
0.0
 10
-37.25327285820728
 20
9.17179588137969
 30
0.0
 10
-37.46481562200316
 20
9.095627825182557
 30
0.0
  0
SPLINE
  5
311
330
1F
100
AcDbEntity
  8
외형선
  6
Continuous
370
    15
100
AcDbSpline
210
0.0
220
0.0
230
1.0
 70
    24
 71
     3
 72
    12
 73
     8
 74
     0
 42
0.000000001
 43
0.00000001
 40
0.0
 40
0.0
 40
0.0
 40
0.0
 40
0.158882405506199
 40
0.3830639653808253
 40
0.6137468056789537
 40
0.8048868229576124
 40
1.0
 40
1.0
 40
1.0
 40
1.0
 10
-30.16249999999999
 20
6.211335341749471
 30
0.0
 10
-30.16250000000005
 20
6.417752274867463
 30
0.0
 10
-30.16249999999999
 20
6.915421533272787
 30
0.0
 10
-30.16249999999999
 20
7.834051275363502
 30
0.0
 10
-30.16249999999999
 20
8.85284644713013
 30
0.0
 10
-30.16250000000011
 20
9.863220254218572
 30
0.0
 10
-30.16250000000011
 20
10.4998475427009
 30
0.0
 10
-30.16250000000005
 20
10.82143549245499
 30
0.0
  0
LINE
  5
312
330
1F
100
AcDbEntity
  8
외형선
  6
Continuous
370
    15
100
AcDbLine
 10
-29.66263180995381
 20
-10.88336507338625
 30
0.0
 11
-29.66263180995381
 21
-11.11250000000001
 31
0.0
  0
SPLINE
  5
313
330
1F
100
AcDbEntity
  8
외형선
  6
Continuous
370
    15
100
AcDbSpline
210
0.0
220
0.0
230
1.0
 70
     8
 71
     3
 72
     8
 73
     4
 74
     0
 42
0.000000001
 43
0.00000001
 40
0.0
 40
0.0
 40
0.0
 40
0.0
 40
1.0
 40
1.0
 40
1.0
 40
1.0
 10
-30.16250000000005
 20
-10.82143549245503
 30
0.0
 10
-29.99603197228416
 20
-10.8432954492475
 30
0.0
 10
-29.82938122986442
 20
-10.86394821653896
 30
0.0
 10
-29.66263180995381
 20
-10.88338130191874
 30
0.0
  0
SPLINE
  5
314
330
1F
100
AcDbEntity
  8
외형선
  6
Continuous
370
    15
100
AcDbSpline
210
0.0
220
0.0
230
1.0
 70
     8
 71
     3
 72
     8
 73
     4
 74
     0
 42
0.000000001
 43
0.00000001
 40
0.0
 40
0.0
 40
0.0
 40
0.0
 40
1.0
 40
1.0
 40
1.0
 40
1.0
 10
-30.16250000000005
 20
-9.286619060113498
 30
0.0
 10
-29.99603197228416
 20
-9.339419595574629
 30
0.0
 10
-29.82938122986442
 20
-9.39119660793158
 30
0.0
 10
-29.66263180995381
 20
-9.44192216235719
 30
0.0
  0
LINE
  5
315
330
1F
100
AcDbEntity
  8
외형선
  6
Continuous
370
    15
100
AcDbLine
 10
-29.66263180995381
 20
2.244999093406743
 30
0.0
 11
-29.66263180995381
 21
-9.441956923902712
 31
0.0
  0
SPLINE
  5
316
330
1F
100
AcDbEntity
  8
외형선
  6
Continuous
370
    15
100
AcDbSpline
210
0.0
220
0.0
230
1.0
 70
     8
 71
     3
 72
     8
 73
     4
 74
     0
 42
0.000000001
 43
0.00000001
 40
0.0
 40
0.0
 40
0.0
 40
0.0
 40
1.0
 40
1.0
 40
1.0
 40
1.0
 10
-30.16250000000005
 20
2.526695496619151
 30
0.0
 10
-29.99603197228416
 20
2.433072773733069
 30
0.0
 10
-29.82938122986442
 20
2.339132078346576
 30
0.0
 10
-29.66263180995381
 20
2.244920418867064
 30
0.0
  0
SPLINE
  5
317
330
1F
100
AcDbEntity
  8
외형선
  6
Continuous
370
    15
100
AcDbSpline
210
0.0
220
0.0
230
1.0
 70
     8
 71
     3
 72
     8
 73
     4
 74
     0
 42
0.000000001
 43
0.00000001
 40
0.0
 40
0.0
 40
0.0
 40
0.0
 40
1.0
 40
1.0
 40
1.0
 40
1.0
 10
-30.16250000000005
 20
6.102979819918825
 30
0.0
 10
-29.99603197228416
 20
6.022635713684504
 30
0.0
 10
-29.82938122986442
 20
5.941576895300069
 30
0.0
 10
-29.66263180995381
 20
5.859843183054291
 30
0.0
  0
LINE
  5
318
330
1F
100
AcDbEntity
  8
외형선
  6
Continuous
370
    15
100
AcDbLine
 10
-29.66263180995381
 20
11.11249999999998
 30
0.0
 11
-29.66263180995381
 21
5.85978717166122
 31
0.0
  0
SPLINE
  5
319
330
1F
100
AcDbEntity
  8
외형선
  6
Continuous
370
    15
100
AcDbSpline
210
0.0
220
0.0
230
1.0
 70
    24
 71
     3
 72
    21
 73
    17
 74
     0
 42
0.000000001
 43
0.00000001
 40
0.0
 40
0.0
 40
0.0
 40
0.0
 40
0.0420270080399713
 40
0.11360870140098
 40
0.1872662687187467
 40
0.2588479620797552
 40
0.3325055293975213
 40
0.40408722275853
 40
0.4777447900762963
 40
0.5493264834373054
 40
0.6229840507550722
 40
0.6945657441160779
 40
0.7682233114338408
 40
0.8398050047948524
 40
0.9134625721126214
 40
0.9999999999999999
 40
0.9999999999999999
 40
0.9999999999999999
 40
0.9999999999999999
 10
-30.16250000000005
 20
2.467311011700839
 30
0.0
 10
-30.16250000000005
 20
2.439478357822093
 30
0.0
 10
-30.16249999999994
 20
2.364240271382495
 30
0.0
 10
-30.16249999999988
 20
2.045248642182141
 30
0.0
 10
-30.16250000000016
 20
1.528980364215566
 30
0.0
 10
-30.16249999999982
 20
0.8393425268841626
 30
0.0
 10
-30.16250000000016
 20
0.0177045572183332
 30
0.0
 10
-30.16250000000011
 20
-0.9299972906262652
 30
0.0
 10
-30.16250000000005
 20
-1.959209281792302
 30
0.0
 10
-30.16249999999999
 20
-3.059485778153278
 30
0.0
 10
-30.16249999999999
 20
-4.179905382802606
 30
0.0
 10
-30.16250000000011
 20
-5.308658563594112
 30
0.0
 10
-30.16250000000011
 20
-6.394500494747636
 30
0.0
 10
-30.16249999999999
 20
-7.42241314829288
 30
0.0
 10
-30.16249999999999
 20
-8.42366546617517
 30
0.0
 10
-30.16250000000005
 20
-8.983951970520724
 30
0.0
 10
-30.16250000000011
 20
-9.286619060113527
 30
0.0
  0
SPLINE
  5
31A
330
1F
100
AcDbEntity
  8
외형선
  6
Continuous
370
    15
100
AcDbSpline
210
0.0
220
0.0
230
1.0
 70
    24
 71
     3
 72
    12
 73
     8
 74
     0
 42
0.000000001
 43
0.00000001
 40
0.0
 40
0.0
 40
0.0
 40
0.0
 40
0.204425180953291
 40
0.4137395085527823
 40
0.6378662080687788
 40
0.868492597054161
 40
0.9999999999999999
 40
0.9999999999999999
 40
0.9999999999999999
 40
0.9999999999999999
 10
-30.16250000000005
 20
10.82143549245498
 30
0.0
 10
-30.16249999999999
 20
10.48435822036336
 30
0.0
 10
-30.16249999999999
 20
9.802141948135297
 30
0.0
 10
-30.16249999999999
 20
8.758285394301407
 30
0.0
 10
-30.16249999999988
 20
7.717728922636264
 30
0.0
 10
-30.16250000000005
 20
6.845308572871214
 30
0.0
 10
-30.16249999999999
 20
6.380220257938144
 30
0.0
 10
-30.16249999999999
 20
6.211325341749482
 30
0.0
  0
LINE
  5
321
330
1F
100
AcDbEntity
  8
0
  6
Continuous
 62
     1
370
    15
100
AcDbLine
 10
-49.20439058791882
 20
11.11249999999999
 30
0.0
 11
-55.98207379995219
 21
11.11249999999999
 31
0.0
  0
LINE
  5
323
330
1F
100
AcDbEntity
  8
0
  6
Continuous
 62
     1
370
    15
100
AcDbLine
 10
-77.7875
 20
11.11249999999998
 30
0.0
 11
-77.7875
 21
10.06438399360448
 31
0.0
  0
SPLINE
  5
324
330
1F
100
AcDbEntity
  8
외형선
  6
Continuous
370
    15
100
AcDbSpline
210
0.0
220
0.0
230
1.0
 70
     8
 71
     3
 72
     8
 73
     4
 74
     0
 42
0.000000001
 43
0.00000001
 40
0.0
 40
0.0
 40
0.0
 40
0.0
 40
1.0
 40
1.0
 40
1.0
 40
1.0
 10
-30.16250000000005
 20
10.82143549245498
 30
0.0
 10
-29.99603197228416
 20
10.84329544924745
 30
0.0
 10
-29.82938122986442
 20
10.86394821653891
 30
0.0
 10
-29.66263180995381
 20
10.8833813019187
 30
0.0
  0
LINE
  5
39C
330
1F
100
AcDbEntity
  8
외형선
  6
Continuous
370
    15
100
AcDbLine
 10
-5.7912
 20
9.461500000000004
 30
0.0
 11
5.791200000000007
 21
9.461500000000004
 31
0.0
  0
LINE
  5
39D
330
1F
100
AcDbEntity
  8
외형선
  6
Continuous
370
    15
100
AcDbLine
 10
5.791200000000007
 20
9.461500000000004
 30
0.0
 11
7.442199999999961
 21
11.1125
 31
0.0
  0
LINE
  5
39E
330
1F
100
AcDbEntity
  8
외형선
  6
Continuous
370
    15
100
AcDbLine
 10
-5.7912
 20
9.461500000000004
 30
0.0
 11
-7.442200000000067
 21
11.1125
 31
0.0
  0
LINE
  5
3A0
330
1F
100
AcDbEntity
  8
외형선
  6
Continuous
370
    15
100
AcDbLine
 10
-7.442200000000057
 20
11.1125
 30
0.0
 11
-29.66263180995382
 21
11.1125
 31
0.0
  0
ENDSEC
  0
SECTION
  2
OBJECTS
  0
DICTIONARY
  5
C
330
0
100
AcDbDictionary
281
     1
  3
ACAD_GROUP
350
D
  3
ACAD_IMAGE_VARS
350
147
  3
ACAD_LAYOUT
350
1A
  3
ACAD_MLINESTYLE
350
17
  3
ACAD_PLOTSETTINGS
350
19
  3
ACAD_PLOTSTYLENAME
350
E
  3
ACAD_SCALELIST
350
47
  3
APPDATA
350
145
  3
DWGPROPS
350
3C4
  0
DICTIONARY
  5
1CD
330
2
100
AcDbDictionary
280
     1
281
     1
  3
ACAD_LAYERSTATES
360
1CE
  0
DICTIONARY
  5
D
102
{ACAD_REACTORS
330
C
102
}
330
C
100
AcDbDictionary
281
     1
  0
RASTERVARIABLES
  5
147
102
{ACAD_REACTORS
330
C
102
}
330
C
100
AcDbRasterVariables
 90
        0
 70
     1
 71
     1
 72
     1
  0
DICTIONARY
  5
1A
102
{ACAD_REACTORS
330
C
102
}
330
C
100
AcDbDictionary
281
     1
  3
Layout1
350
1E
  3
Layout2
350
26
  3
Model
350
22
  0
DICTIONARY
  5
17
102
{ACAD_REACTORS
330
C
102
}
330
C
100
AcDbDictionary
281
     1
  3
Standard
350
18
  0
DICTIONARY
  5
19
102
{ACAD_REACTORS
330
C
102
}
330
C
100
AcDbDictionary
281
     1
  0
ACDBDICTIONARYWDFLT
  5
E
102
{ACAD_REACTORS
330
C
102
}
330
C
100
AcDbDictionary
281
     1
  3
Normal
350
F
100
AcDbDictionaryWithDefault
340
F
  0
DICTIONARY
  5
47
102
{ACAD_REACTORS
330
C
102
}
330
C
100
AcDbDictionary
281
     1
  3
A0
350
48
  3
A1
350
49
  3
A2
350
4A
  3
A3
350
4B
  3
A4
350
4C
  3
A5
350
4D
  3
A6
350
4E
  3
A7
350
4F
  3
A8
350
50
  3
A9
350
51
  3
B0
350
52
  3
B1
350
53
  3
B2
350
54
  3
B3
350
55
  3
B4
350
56
  3
B5
350
57
  3
B6
350
58
  3
B7
350
59
  3
B8
350
5A
  3
B9
350
5B
  3
C0
350
5C
  3
C1
350
5D
  3
C2
350
5E
  3
C3
350
5F
  3
C4
350
60
  3
C5
350
61
  3
C6
350
62
  3
C7
350
63
  3
C8
350
64
  3
C9
350
65
  3
D0
350
66
  3
D1
350
67
  3
D2
350
68
  0
DICTIONARY
  5
145
102
{ACAD_REACTORS
330
C
102
}
330
C
100
AcDbDictionary
281
     1
  0
XRECORD
  5
3C4
102
{ACAD_REACTORS
330
C
102
}
330
C
100
AcDbXrecord
280
     1
  1
DWGPROPS COOKIE
  2

  3

  4

  6

  7

  8
12017012
  9

300
=
301
=
302
=
303
=
304
=
305
=
306
=
307
=
308
=
309
=
 40
0.0
 41
2458313.100472269
 42
2458319.014480729
  1

 90
        0
  0
DICTIONARY
  5
1CE
102
{ACAD_REACTORS
330
1CD
102
}
330
1CD
100
AcDbDictionary
281
     1
  0
LAYOUT
  5
1E
102
{ACAD_REACTORS
330
1A
102
}
330
1A
100
AcDbPlotSettings
  1

  2
none_device
  4

  6

 40
0.0
 41
0.0
 42
0.0
 43
0.0
 44
0.0
 45
0.0
 46
0.0
 47
0.0
 48
0.0
 49
0.0
140
0.0
141
0.0
142
1.0
143
1.0
 70
   688
 72
     1
 73
     0
 74
     5
  7

 75
    16
147
1.0
148
0.0
149
0.0
100
AcDbLayout
  1
Layout1
 70
     1
 71
     1
 10
0.0
 20
0.0
 11
420.0
 21
297.0
 12
0.0
 22
0.0
 32
0.0
 14
1.000000000000000E+20
 24
1.000000000000000E+20
 34
1.000000000000000E+20
 15
-1.000000000000000E+20
 25
-1.000000000000000E+20
 35
-1.000000000000000E+20
146
0.0
 13
0.0
 23
0.0
 33
0.0
 16
1.0
 26
0.0
 36
0.0
 17
0.0
 27
1.0
 37
0.0
 76
     0
330
1B
  0
LAYOUT
  5
26
102
{ACAD_REACTORS
330
1A
102
}
330
1A
100
AcDbPlotSettings
  1

  2
none_device
  4

  6

 40
0.0
 41
0.0
 42
0.0
 43
0.0
 44
0.0
 45
0.0
 46
0.0
 47
0.0
 48
0.0
 49
0.0
140
0.0
141
0.0
142
1.0
143
1.0
 70
   688
 72
     1
 73
     0
 74
     5
  7

 75
    16
147
1.0
148
0.0
149
0.0
100
AcDbLayout
  1
Layout2
 70
     1
 71
     2
 10
0.0
 20
0.0
 11
0.0
 21
0.0
 12
0.0
 22
0.0
 32
0.0
 14
0.0
 24
0.0
 34
0.0
 15
0.0
 25
0.0
 35
0.0
146
0.0
 13
0.0
 23
0.0
 33
0.0
 16
1.0
 26
0.0
 36
0.0
 17
0.0
 27
1.0
 37
0.0
 76
     0
330
23
  0
LAYOUT
  5
22
102
{ACAD_REACTORS
330
1A
102
}
330
1A
100
AcDbPlotSettings
  1

  2
none_device
  4
ANSI_A_(11.00_x_8.50_Inches)
  6

 40
6.35
 41
19.05
 42
6.35000508
 43
19.05000254
 44
279.4
 45
215.9
 46
35.67024863135408
 47
64.74821880989393
 48
0.0
 49
0.0
140
0.0
141
0.0
142
0.025988317818276
143
1.0
 70
  1696
 72
     0
 73
     0
 74
     0
  7

 75
     0
147
0.0235690232323232
148
0.0
149
0.0
100
AcDbLayout
  1
Model
 70
     1
 71
     0
 10
0.0
 20
0.0
 11
420.0
 21
297.0
 12
0.0
 22
0.0
 32
0.0
 14
-93.41625000000006
 24
-49.97180738881175
 34
0.0
 15
96.89984870712225
 25
63.0370537413329
 35
0.0
146
0.0
 13
0.0
 23
0.0
 33
0.0
 16
1.0
 26
0.0
 36
0.0
 17
0.0
 27
1.0
 37
0.0
 76
     0
330
1F
331
29
  0
MLINESTYLE
  5
18
102
{ACAD_REACTORS
330
17
102
}
330
17
100
AcDbMlineStyle
  2
Standard
 70
     0
  3

 62
   256
 51
90.0
 52
90.0
 71
     2
 49
0.5
 62
   256
  6
BYLAYER
 49
-0.5
 62
   256
  6
BYLAYER
  0
ACDBPLACEHOLDER
  5
F
102
{ACAD_REACTORS
330
E
102
}
330
E
  0
SCALE
  5
48
102
{ACAD_REACTORS
330
47
102
}
330
47
100
AcDbScale
 70
     0
300
1:1
140
1.0
141
1.0
290
     1
  0
SCALE
  5
49
102
{ACAD_REACTORS
330
47
102
}
330
47
100
AcDbScale
 70
     0
300
1:2
140
1.0
141
2.0
290
     0
  0
SCALE
  5
4A
102
{ACAD_REACTORS
330
47
102
}
330
47
100
AcDbScale
 70
     0
300
1:4
140
1.0
141
4.0
290
     0
  0
SCALE
  5
4B
102
{ACAD_REACTORS
330
47
102
}
330
47
100
AcDbScale
 70
     0
300
1:5
140
1.0
141
5.0
290
     0
  0
SCALE
  5
4C
102
{ACAD_REACTORS
330
47
102
}
330
47
100
AcDbScale
 70
     0
300
1:8
140
1.0
141
8.0
290
     0
  0
SCALE
  5
4D
102
{ACAD_REACTORS
330
47
102
}
330
47
100
AcDbScale
 70
     0
300
1:10
140
1.0
141
10.0
290
     0
  0
SCALE
  5
4E
102
{ACAD_REACTORS
330
47
102
}
330
47
100
AcDbScale
 70
     0
300
1:16
140
1.0
141
16.0
290
     0
  0
SCALE
  5
4F
102
{ACAD_REACTORS
330
47
102
}
330
47
100
AcDbScale
 70
     0
300
1:20
140
1.0
141
20.0
290
     0
  0
SCALE
  5
50
102
{ACAD_REACTORS
330
47
102
}
330
47
100
AcDbScale
 70
     0
300
1:30
140
1.0
141
30.0
290
     0
  0
SCALE
  5
51
102
{ACAD_REACTORS
330
47
102
}
330
47
100
AcDbScale
 70
     0
300
1:40
140
1.0
141
40.0
290
     0
  0
SCALE
  5
52
102
{ACAD_REACTORS
330
47
102
}
330
47
100
AcDbScale
 70
     0
300
1:50
140
1.0
141
50.0
290
     0
  0
SCALE
  5
53
102
{ACAD_REACTORS
330
47
102
}
330
47
100
AcDbScale
 70
     0
300
1:100
140
1.0
141
100.0
290
     0
  0
SCALE
  5
54
102
{ACAD_REACTORS
330
47
102
}
330
47
100
AcDbScale
 70
     0
300
2:1
140
2.0
141
1.0
290
     0
  0
SCALE
  5
55
102
{ACAD_REACTORS
330
47
102
}
330
47
100
AcDbScale
 70
     0
300
4:1
140
4.0
141
1.0
290
     0
  0
SCALE
  5
56
102
{ACAD_REACTORS
330
47
102
}
330
47
100
AcDbScale
 70
     0
300
8:1
140
8.0
141
1.0
290
     0
  0
SCALE
  5
57
102
{ACAD_REACTORS
330
47
102
}
330
47
100
AcDbScale
 70
     0
300
10:1
140
10.0
141
1.0
290
     0
  0
SCALE
  5
58
102
{ACAD_REACTORS
330
47
102
}
330
47
100
AcDbScale
 70
     0
300
100:1
140
100.0
141
1.0
290
     0
  0
SCALE
  5
59
102
{ACAD_REACTORS
330
47
102
}
330
47
100
AcDbScale
 70
     0
300
1/128" = 1'-0"
140
0.0078125
141
12.0
290
     0
  0
SCALE
  5
5A
102
{ACAD_REACTORS
330
47
102
}
330
47
100
AcDbScale
 70
     0
300
1/64" = 1'-0"
140
0.015625
141
12.0
290
     0
  0
SCALE
  5
5B
102
{ACAD_REACTORS
330
47
102
}
330
47
100
AcDbScale
 70
     0
300
1/32" = 1'-0"
140
0.03125
141
12.0
290
     0
  0
SCALE
  5
5C
102
{ACAD_REACTORS
330
47
102
}
330
47
100
AcDbScale
 70
     0
300
1/16" = 1'-0"
140
0.0625
141
12.0
290
     0
  0
SCALE
  5
5D
102
{ACAD_REACTORS
330
47
102
}
330
47
100
AcDbScale
 70
     0
300
3/32" = 1'-0"
140
0.09375
141
12.0
290
     0
  0
SCALE
  5
5E
102
{ACAD_REACTORS
330
47
102
}
330
47
100
AcDbScale
 70
     0
300
1/8" = 1'-0"
140
0.125
141
12.0
290
     0
  0
SCALE
  5
5F
102
{ACAD_REACTORS
330
47
102
}
330
47
100
AcDbScale
 70
     0
300
3/16" = 1'-0"
140
0.1875
141
12.0
290
     0
  0
SCALE
  5
60
102
{ACAD_REACTORS
330
47
102
}
330
47
100
AcDbScale
 70
     0
300
1/4" = 1'-0"
140
0.25
141
12.0
290
     0
  0
SCALE
  5
61
102
{ACAD_REACTORS
330
47
102
}
330
47
100
AcDbScale
 70
     0
300
3/8" = 1'-0"
140
0.375
141
12.0
290
     0
  0
SCALE
  5
62
102
{ACAD_REACTORS
330
47
102
}
330
47
100
AcDbScale
 70
     0
300
1/2" = 1'-0"
140
0.5
141
12.0
290
     0
  0
SCALE
  5
63
102
{ACAD_REACTORS
330
47
102
}
330
47
100
AcDbScale
 70
     0
300
3/4" = 1'-0"
140
0.75
141
12.0
290
     0
  0
SCALE
  5
64
102
{ACAD_REACTORS
330
47
102
}
330
47
100
AcDbScale
 70
     0
300
1" = 1'-0"
140
1.0
141
12.0
290
     0
  0
SCALE
  5
65
102
{ACAD_REACTORS
330
47
102
}
330
47
100
AcDbScale
 70
     0
300
1-1/2" = 1'-0"
140
1.5
141
12.0
290
     0
  0
SCALE
  5
66
102
{ACAD_REACTORS
330
47
102
}
330
47
100
AcDbScale
 70
     0
300
3" = 1'-0"
140
3.0
141
12.0
290
     0
  0
SCALE
  5
67
102
{ACAD_REACTORS
330
47
102
}
330
47
100
AcDbScale
 70
     0
300
6" = 1'-0"
140
6.0
141
12.0
290
     0
  0
SCALE
  5
68
102
{ACAD_REACTORS
330
47
102
}
330
47
100
AcDbScale
 70
     0
300
1'-0" = 1'-0"
140
12.0
141
12.0
290
     0
  0
ENDSEC
  0
EOF
