  0
SECTION
  2
HEADER
  9
$ACADVER
  1
AC1015
  9
$ACADMAINTVER
 70
     6
  9
$DWGCODEPAGE
  3
ANSI_949
  9
$INSBASE
 10
0.0
 20
0.0
 30
0.0
  9
$EXTMIN
 10
-96.27375000000006
 20
-49.97180738881175
 30
0.0
  9
$EXTMAX
 10
118.2440885037777
 20
63.8278847983585
 30
0.0
  9
$LIMMIN
 10
0.0
 20
0.0
  9
$LIMMAX
 10
420.0
 20
297.0
  9
$ORTHOMODE
 70
     1
  9
$REGENMODE
 70
     1
  9
$FILLMODE
 70
     1
  9
$QTEXTMODE
 70
     0
  9
$MIRRTEXT
 70
     1
  9
$LTSCALE
 40
1.0
  9
$ATTMODE
 70
     1
  9
$TEXTSIZE
 40
3.5
  9
$TRACEWID
 40
1.0
  9
$TEXTSTYLE
  7
Standard
  9
$CLAYER
  8
0
  9
$CELTYPE
  6
ByLayer
  9
$CECOLOR
 62
   256
  9
$CELTSCALE
 40
1.0
  9
$DISPSILH
 70
     0
  9
$DIMSCALE
 40
1.0
  9
$DIMASZ
 40
3.302
  9
$DIMEXO
 40
1.0
  9
$DIMDLI
 40
3.75
  9
$DIMRND
 40
0.0
  9
$DIMDLE
 40
0.0
  9
$DIMEXE
 40
1.0
  9
$DIMTP
 40
0.0
  9
$DIMTM
 40
0.0
  9
$DIMTXT
 40
3.5
  9
$DIMCEN
 40
2.5
  9
$DIMTSZ
 40
0.0
  9
$DIMTOL
 70
     0
  9
$DIMLIM
 70
     0
  9
$DIMTIH
 70
     1
  9
$DIMTOH
 70
     1
  9
$DIMSE1
 70
     0
  9
$DIMSE2
 70
     0
  9
$DIMTAD
 70
     1
  9
$DIMZIN
 70
     0
  9
$DIMBLK
  1

  9
$DIMASO
 70
     1
  9
$DIMSHO
 70
     1
  9
$DIMPOST
  1

  9
$DIMAPOST
  1

  9
$DIMALT
 70
     0
  9
$DIMALTD
 70
     3
  9
$DIMALTF
 40
0.0393700787401575
  9
$DIMLFAC
 40
1.0
  9
$DIMTOFL
 70
     1
  9
$DIMTVP
 40
0.0
  9
$DIMTIX
 70
     0
  9
$DIMSOXD
 70
     0
  9
$DIMSAH
 70
     0
  9
$DIMBLK1
  1

  9
$DIMBLK2
  1

  9
$DIMSTYLE
  2
ISO-25
  9
$DIMCLRD
 70
     0
  9
$DIMCLRE
 70
     0
  9
$DIMCLRT
 70
     0
  9
$DIMTFAC
 40
1.0
  9
$DIMGAP
 40
1.524
  9
$DIMJUST
 70
     0
  9
$DIMSD1
 70
     0
  9
$DIMSD2
 70
     0
  9
$DIMTOLJ
 70
     0
  9
$DIMTZIN
 70
     0
  9
$DIMALTZ
 70
     0
  9
$DIMALTTZ
 70
     0
  9
$DIMUPT
 70
     0
  9
$DIMDEC
 70
     2
  9
$DIMTDEC
 70
     2
  9
$DIMALTU
 70
     2
  9
$DIMALTTD
 70
     3
  9
$DIMTXSTY
  7
Standard
  9
$DIMAUNIT
 70
     0
  9
$DIMADEC
 70
     2
  9
$DIMALTRND
 40
0.0
  9
$DIMAZIN
 70
     0
  9
$DIMDSEP
 70
    44
  9
$DIMATFIT
 70
     3
  9
$DIMFRAC
 70
     0
  9
$DIMLDRBLK
  1

  9
$DIMLUNIT
 70
     2
  9
$DIMLWD
 70
    -2
  9
$DIMLWE
 70
    -2
  9
$DIMTMOVE
 70
     0
  9
$LUNITS
 70
     2
  9
$LUPREC
 70
     2
  9
$SKETCHINC
 40
1.0
  9
$FILLETRAD
 40
10.0
  9
$AUNITS
 70
     0
  9
$AUPREC
 70
     2
  9
$MENU
  1
.
  9
$ELEVATION
 40
0.0
  9
$PELEVATION
 40
0.0
  9
$THICKNESS
 40
0.0
  9
$LIMCHECK
 70
     0
  9
$CHAMFERA
 40
0.0
  9
$CHAMFERB
 40
0.0
  9
$CHAMFERC
 40
0.0
  9
$CHAMFERD
 40
0.0
  9
$SKPOLY
 70
     0
  9
$TDCREATE
 40
2458313.475684074
  9
$TDUCREATE
 40
2458313.100684074
  9
$TDUPDATE
 40
2458319.389364757
  9
$TDUUPDATE
 40
2458319.014364757
  9
$TDINDWG
 40
0.0016298958
  9
$TDUSRTIMER
 40
2458319.014219143
  9
$USRTIMER
 70
     1
  9
$ANGBASE
 50
0.0
  9
$ANGDIR
 70
     0
  9
$PDMODE
 70
     0
  9
$PDSIZE
 40
-1.0
  9
$PLINEWID
 40
0.0
  9
$SPLFRAME
 70
     0
  9
$SPLINETYPE
 70
     6
  9
$SPLINESEGS
 70
     8
  9
$HANDSEED
  5
3D4
  9
$SURFTAB1
 70
     6
  9
$SURFTAB2
 70
     6
  9
$SURFTYPE
 70
     6
  9
$SURFU
 70
     6
  9
$SURFV
 70
     6
  9
$UCSBASE
  2

  9
$UCSNAME
  2

  9
$UCSORG
 10
0.0
 20
0.0
 30
0.0
  9
$UCSXDIR
 10
1.0
 20
0.0
 30
0.0
  9
$UCSYDIR
 10
0.0
 20
1.0
 30
0.0
  9
$UCSORTHOREF
  2

  9
$UCSORTHOVIEW
 70
     0
  9
$UCSORGTOP
 10
0.0
 20
0.0
 30
0.0
  9
$UCSORGBOTTOM
 10
0.0
 20
0.0
 30
0.0
  9
$UCSORGLEFT
 10
0.0
 20
0.0
 30
0.0
  9
$UCSORGRIGHT
 10
0.0
 20
0.0
 30
0.0
  9
$UCSORGFRONT
 10
0.0
 20
0.0
 30
0.0
  9
$UCSORGBACK
 10
0.0
 20
0.0
 30
0.0
  9
$PUCSBASE
  2

  9
$PUCSNAME
  2

  9
$PUCSORG
 10
0.0
 20
0.0
 30
0.0
  9
$PUCSXDIR
 10
1.0
 20
0.0
 30
0.0
  9
$PUCSYDIR
 10
0.0
 20
1.0
 30
0.0
  9
$PUCSORTHOREF
  2

  9
$PUCSORTHOVIEW
 70
     0
  9
$PUCSORGTOP
 10
0.0
 20
0.0
 30
0.0
  9
$PUCSORGBOTTOM
 10
0.0
 20
0.0
 30
0.0
  9
$PUCSORGLEFT
 10
0.0
 20
0.0
 30
0.0
  9
$PUCSORGRIGHT
 10
0.0
 20
0.0
 30
0.0
  9
$PUCSORGFRONT
 10
0.0
 20
0.0
 30
0.0
  9
$PUCSORGBACK
 10
0.0
 20
0.0
 30
0.0
  9
$USERI1
 70
     0
  9
$USERI2
 70
     0
  9
$USERI3
 70
     0
  9
$USERI4
 70
     0
  9
$USERI5
 70
     0
  9
$USERR1
 40
0.0
  9
$USERR2
 40
0.0
  9
$USERR3
 40
0.0
  9
$USERR4
 40
0.0
  9
$USERR5
 40
0.0
  9
$WORLDVIEW
 70
     1
  9
$SHADEDGE
 70
     3
  9
$SHADEDIF
 70
    70
  9
$TILEMODE
 70
     1
  9
$MAXACTVP
 70
    64
  9
$PINSBASE
 10
0.0
 20
0.0
 30
0.0
  9
$PLIMCHECK
 70
     0
  9
$PEXTMIN
 10
1.000000000000000E+20
 20
1.000000000000000E+20
 30
1.000000000000000E+20
  9
$PEXTMAX
 10
-1.000000000000000E+20
 20
-1.000000000000000E+20
 30
-1.000000000000000E+20
  9
$PLIMMIN
 10
0.0
 20
0.0
  9
$PLIMMAX
 10
0.0
 20
0.0
  9
$UNITMODE
 70
     0
  9
$VISRETAIN
 70
     1
  9
$PLINEGEN
 70
     0
  9
$PSLTSCALE
 70
     1
  9
$TREEDEPTH
 70
  3020
  9
$CMLSTYLE
  2
Standard
  9
$CMLJUST
 70
     0
  9
$CMLSCALE
 40
20.0
  9
$PROXYGRAPHICS
 70
     1
  9
$MEASUREMENT
 70
     1
  9
$CELWEIGHT
370
    -1
  9
$ENDCAPS
280
     0
  9
$JOINSTYLE
280
     0
  9
$LWDISPLAY
290
     1
  9
$INSUNITS
 70
     4
  9
$HYPERLINKBASE
  1

  9
$STYLESHEET
  1

  9
$XEDIT
290
     1
  9
$CEPSNTYPE
380
     0
  9
$PSTYLEMODE
290
     1
  9
$FINGERPRINTGUID
  2
{3319A69F-4BAB-4C61-8EAE-830DA15F8BD0}
  9
$VERSIONGUID
  2
{FAEB1C32-E019-11D5-929B-00C0DF256EC4}
  9
$EXTNAMES
290
     1
  9
$PSVPSCALE
 40
0.0
  9
$OLESTARTUP
290
     0
  0
ENDSEC
  0
SECTION
  2
CLASSES
  0
CLASS
  1
ACDBDICTIONARYWDFLT
  2
AcDbDictionaryWithDefault
  3
ObjectDBX Classes
 90
        0
280
     0
281
     0
  0
CLASS
  1
VISUALSTYLE
  2
AcDbVisualStyle
  3
ObjectDBX Classes
 90
     4095
280
     0
281
     0
  0
CLASS
  1
MATERIAL
  2
AcDbMaterial
  3
ObjectDBX Classes
 90
     1153
280
     0
281
     0
  0
CLASS
  1
SCALE
  2
AcDbScale
  3
ObjectDBX Classes
 90
     1153
280
     0
281
     0
  0
CLASS
  1
SUN
  2
AcDbSun
  3
SCENEOE
 90
     1153
280
     0
281
     0
  0
CLASS
  1
ACDBPLACEHOLDER
  2
AcDbPlaceHolder
  3
ObjectDBX Classes
 90
        0
280
     0
281
     0
  0
CLASS
  1
LAYOUT
  2
AcDbLayout
  3
ObjectDBX Classes
 90
        0
280
     0
281
     0
  0
CLASS
  1
TABLESTYLE
  2
AcDbTableStyle
  3
ObjectDBX Classes
 90
     4095
280
     0
281
     0
  0
CLASS
  1
MLEADERSTYLE
  2
AcDbMLeaderStyle
  3
ACDB_MLEADERSTYLE_CLASS
 90
     4095
280
     0
281
     0
  0
CLASS
  1
RASTERVARIABLES
  2
AcDbRasterVariables
  3
ISM
 90
        0
280
     0
281
     0
  0
ENDSEC
  0
SECTION
  2
TABLES
  0
TABLE
  2
VPORT
  5
8
330
0
100
AcDbSymbolTable
 70
     1
  0
VPORT
  5
29
330
8
100
AcDbSymbolTableRecord
100
AcDbViewportTableRecord
  2
*Active
 70
     0
 10
0.0
 20
0.0
 11
1.0
 21
1.0
 12
4.141962014755656
 22
-9.532953561557065
 13
0.0
 23
0.0
 14
10.0
 24
10.0
 15
10.0
 25
10.0
 16
0.0
 26
0.0
 36
1.0
 17
0.0
 27
0.0
 37
0.0
 40
170.0169871539184
 41
1.632093933463796
 42
50.0
 43
0.0
 44
0.0
 50
0.0
 51
0.0
 71
    16
 72
  2000
 73
     1
 74
     3
 75
     0
 76
     0
 77
     0
 78
     0
281
     0
 65
     1
110
0.0
120
0.0
130
0.0
111
1.0
121
0.0
131
0.0
112
0.0
122
1.0
132
0.0
 79
     0
146
0.0
  0
ENDTAB
  0
TABLE
  2
LTYPE
  5
5
330
0
100
AcDbSymbolTable
 70
     6
  0
LTYPE
  5
14
330
5
100
AcDbSymbolTableRecord
100
AcDbLinetypeTableRecord
  2
ByBlock
 70
     0
  3

 72
    65
 73
     0
 40
0.0
  0
LTYPE
  5
15
330
5
100
AcDbSymbolTableRecord
100
AcDbLinetypeTableRecord
  2
ByLayer
 70
     0
  3

 72
    65
 73
     0
 40
0.0
  0
LTYPE
  5
16
330
5
100
AcDbSymbolTableRecord
100
AcDbLinetypeTableRecord
  2
Continuous
 70
     0
  3
Solid line
 72
    65
 73
     0
 40
0.0
  0
LTYPE
  5
6A
330
5
100
AcDbSymbolTableRecord
100
AcDbLinetypeTableRecord
  2
HIDDEN
 70
     0
  3
Hidden __ __ __ __ __ __ __ __ __ __ __ __ __ __
 72
    65
 73
     2
 40
1.905
 49
1.27
 74
     0
 49
-0.635
 74
     0
  0
LTYPE
  5
6B
330
5
100
AcDbSymbolTableRecord
100
AcDbLinetypeTableRecord
  2
PHANTOM
 70
     0
  3
Phantom ______  __  __  ______  __  __  ______
 72
    65
 73
     6
 40
12.7
 49
6.35
 74
     0
 49
-1.27
 74
     0
 49
1.27
 74
     0
 49
-1.27
 74
     0
 49
1.27
 74
     0
 49
-1.27
 74
     0
  0
LTYPE
  5
6C
330
5
100
AcDbSymbolTableRecord
100
AcDbLinetypeTableRecord
  2
CENTER
 70
     0
  3
Center ____ _ ____ _ ____ _ ____ _ ____ _ ____
 72
    65
 73
     4
 40
10.16
 49
6.35
 74
     0
 49
-1.27
 74
     0
 49
1.27
 74
     0
 49
-1.27
 74
     0
  0
LTYPE
  5
6D
330
5
100
AcDbSymbolTableRecord
100
AcDbLinetypeTableRecord
  2
CENTERX2
 70
     0
  3
Center (2x) ________  __  ________  __  _____
 72
    65
 73
     4
 40
20.32
 49
12.7
 74
     0
 49
-2.54
 74
     0
 49
2.54
 74
     0
 49
-2.54
 74
     0
  0
LTYPE
  5
6E
330
5
100
AcDbSymbolTableRecord
100
AcDbLinetypeTableRecord
  2
DOT2
 70
     0
  3
Dot (.5x) ........................................
 72
    65
 73
     2
 40
0.635
 49
0.0
 74
     0
 49
-0.635
 74
     0
  0
ENDTAB
  0
TABLE
  2
LAYER
  5
2
102
{ACAD_XDICTIONARY
360
1CF
102
}
330
0
100
AcDbSymbolTable
 70
    18
  0
LAYER
  5
10
330
2
100
AcDbSymbolTableRecord
100
AcDbLayerTableRecord
  2
0
 70
     0
 62
     7
  6
Continuous
370
    -3
390
F
  0
LAYER
  5
6F
330
2
100
AcDbSymbolTableRecord
100
AcDbLayerTableRecord
  2
FORMAT
 70
     0
 62
     2
  6
Continuous
370
    -3
390
F
  0
LAYER
  5
70
330
2
100
AcDbSymbolTableRecord
100
AcDbLayerTableRecord
  2
외형선
 70
     0
 62
     4
  6
Continuous
370
    30
390
F
  0
LAYER
  5
71
330
2
100
AcDbSymbolTableRecord
100
AcDbLayerTableRecord
  2
숨은선
 70
     0
 62
     2
  6
HIDDEN
370
    15
390
F
  0
LAYER
  5
72
330
2
100
AcDbSymbolTableRecord
100
AcDbLayerTableRecord
  2
중심선
 70
     0
 62
     1
  6
CENTERX2
370
    -3
390
F
  0
LAYER
  5
73
330
2
100
AcDbSymbolTableRecord
100
AcDbLayerTableRecord
  2
파단선
 70
     0
 62
     4
  6
Continuous
370
    -3
390
F
  0
LAYER
  5
74
330
2
100
AcDbSymbolTableRecord
100
AcDbLayerTableRecord
  2
해칭선
 70
     0
 62
   100
  6
Continuous
370
    -3
390
F
  0
LAYER
  5
75
330
2
100
AcDbSymbolTableRecord
100
AcDbLayerTableRecord
  2
가는실선
 70
     0
 62
     4
  6
Continuous
370
    -3
390
F
  0
LAYER
  5
76
330
2
100
AcDbSymbolTableRecord
100
AcDbLayerTableRecord
  2
치수_보조선
 70
     0
 62
     4
  6
Continuous
370
    -3
390
F
  0
LAYER
  5
77
330
2
100
AcDbSymbolTableRecord
100
AcDbLayerTableRecord
  2
치수문자_일반주서
 70
     0
 62
     7
  6
Continuous
370
    15
390
F
  0
LAYER
  5
78
330
2
100
AcDbSymbolTableRecord
100
AcDbLayerTableRecord
  2
개별주서
 70
     0
 62
   100
  6
Continuous
370
    30
390
F
  0
LAYER
  5
79
330
2
100
AcDbSymbolTableRecord
100
AcDbLayerTableRecord
  2
중간선
 70
     0
 62
     2
  6
Continuous
370
    15
390
F
  0
LAYER
  5
7A
330
2
100
AcDbSymbolTableRecord
100
AcDbLayerTableRecord
  2
윤곽선
 70
     0
 62
     3
  6
Continuous
370
    40
390
F
  0
LAYER
  5
7B
330
2
100
AcDbSymbolTableRecord
100
AcDbLayerTableRecord
  2
중심마크
 70
     0
 62
   100
  6
Continuous
370
    30
390
F
  0
LAYER
  5
7C
330
2
100
AcDbSymbolTableRecord
100
AcDbLayerTableRecord
  2
가상선
 70
     0
 62
     4
  6
PHANTOM
370
    -3
390
F
  0
LAYER
  5
7D
330
2
100
AcDbSymbolTableRecord
100
AcDbLayerTableRecord
  2
특수지정선
 70
     0
 62
     5
  6
CENTERX2
370
    60
390
F
  0
LAYER
  5
7E
330
2
100
AcDbSymbolTableRecord
100
AcDbLayerTableRecord
  2
참조1
 70
     0
 62
    -4
  6
Continuous
370
    -3
390
F
  0
LAYER
  5
151
330
2
100
AcDbSymbolTableRecord
100
AcDbLayerTableRecord
  2
Defpoints
 70
     0
 62
     7
  6
Continuous
290
     0
370
    -3
390
F
  0
ENDTAB
  0
TABLE
  2
STYLE
  5
3
330
0
100
AcDbSymbolTable
 70
     2
  0
STYLE
  5
11
330
3
100
AcDbSymbolTableRecord
100
AcDbTextStyleTableRecord
  2
Standard
 70
     0
 40
0.0
 41
1.0
 50
0.0
 71
     0
 42
3.5
  3
txt
  4

  0
STYLE
  5
94
330
3
100
AcDbSymbolTableRecord
100
AcDbTextStyleTableRecord
  2
SLDTEXTSTYLE0
 70
     0
 40
0.0
 41
0.75
 50
0.0
 71
     0
 42
3.5
  3
TXT
  4

  0
ENDTAB
  0
TABLE
  2
VIEW
  5
6
330
0
100
AcDbSymbolTable
 70
     0
  0
ENDTAB
  0
TABLE
  2
UCS
  5
7
330
0
100
AcDbSymbolTable
 70
     0
  0
ENDTAB
  0
TABLE
  2
APPID
  5
9
330
0
100
AcDbSymbolTable
 70
     1
  0
APPID
  5
12
330
9
100
AcDbSymbolTableRecord
100
AcDbRegAppTableRecord
  2
ACAD
 70
     0
  0
ENDTAB
  0
TABLE
  2
DIMSTYLE
  5
A
330
0
100
AcDbSymbolTable
 70
     3
100
AcDbDimStyleTable
  0
DIMSTYLE
105
27
330
A
100
AcDbSymbolTableRecord
100
AcDbDimStyleTableRecord
  2
ISO-25
 70
     0
 41
2.5
 42
0.625
 43
3.75
 44
1.25
 73
     0
 74
     0
 77
     1
 78
     8
140
2.5
141
2.5
143
0.03937007874016
147
0.625
171
     3
172
     1
178
     0
271
     2
272
     2
274
     3
278
    44
283
     0
284
     8
340
11
  0
DIMSTYLE
105
CF
330
A
100
AcDbSymbolTableRecord
100
AcDbDimStyleTableRecord
  2
SLDDIMSTYLE0
 70
     0
 41
3.302
 44
0.0
 45
0.000000001
 73
     0
 74
     0
 77
     1
 78
    12
 79
     3
140
3.5
143
0.0393700787401575
147
0.875
148
0.000000001
170
     1
173
     1
178
     0
271
     2
272
     2
276
     2
284
    12
340
94
  0
DIMSTYLE
105
10A
102
{ACAD_REACTORS
330
109
330
E2
330
CE
330
F6
102
}
330
A
100
AcDbSymbolTableRecord
100
AcDbDimStyleTableRecord
  2
SLDDIMSTYLE1
 70
     0
 41
3.302
 44
0.0
 45
0.000000001
 73
     0
 74
     0
 77
     1
 78
     4
 79
     1
140
3.5
143
0.0393700787401575
147
0.875
148
0.000000001
170
     1
172
     1
173
     1
178
     0
271
     2
272
     2
276
     2
284
    12
289
     0
340
94
  0
ENDTAB
  0
TABLE
  2
BLOCK_RECORD
  5
1
330
0
100
AcDbSymbolTable
 70
    19
  0
BLOCK_RECORD
  5
1F
330
1
100
AcDbSymbolTableRecord
100
AcDbBlockTableRecord
  2
*Model_Space
340
22
  0
BLOCK_RECORD
  5
1B
330
1
100
AcDbSymbolTableRecord
100
AcDbBlockTableRecord
  2
*Paper_Space
340
1E
  0
BLOCK_RECORD
  5
23
330
1
100
AcDbSymbolTableRecord
100
AcDbBlockTableRecord
  2
*Paper_Space0
340
26
  0
BLOCK_RECORD
  5
7F
330
1
100
AcDbSymbolTableRecord
100
AcDbBlockTableRecord
  2
블럭10
340
0
102
{BLKREFS
331
C7
102
}
  0
BLOCK_RECORD
  5
D0
330
1
100
AcDbSymbolTableRecord
100
AcDbBlockTableRecord
  2
_D
340
0
  0
BLOCK_RECORD
  5
E3
330
1
100
AcDbSymbolTableRecord
100
AcDbBlockTableRecord
  2
_D_1
340
0
  0
BLOCK_RECORD
  5
F7
330
1
100
AcDbSymbolTableRecord
100
AcDbBlockTableRecord
  2
_D_2
340
0
  0
BLOCK_RECORD
  5
10B
330
1
100
AcDbSymbolTableRecord
100
AcDbBlockTableRecord
  2
_D_3
340
0
  0
BLOCK_RECORD
  5
125
330
1
100
AcDbSymbolTableRecord
100
AcDbBlockTableRecord
  2
SW_DOWELSYMBOL_0
340
0
102
{BLKREFS
331
12B
102
}
  0
BLOCK_RECORD
  5
1D3
330
1
100
AcDbSymbolTableRecord
100
AcDbBlockTableRecord
  2
*D7
340
0
  0
BLOCK_RECORD
  5
1E2
330
1
100
AcDbSymbolTableRecord
100
AcDbBlockTableRecord
  2
*D8
340
0
  0
BLOCK_RECORD
  5
1F1
330
1
100
AcDbSymbolTableRecord
100
AcDbBlockTableRecord
  2
*D9
340
0
  0
BLOCK_RECORD
  5
223
330
1
100
AcDbSymbolTableRecord
100
AcDbBlockTableRecord
  2
*D10
340
0
  0
BLOCK_RECORD
  5
232
330
1
100
AcDbSymbolTableRecord
100
AcDbBlockTableRecord
  2
*D11
340
0
  0
BLOCK_RECORD
  5
241
330
1
100
AcDbSymbolTableRecord
100
AcDbBlockTableRecord
  2
*D12
340
0
  0
BLOCK_RECORD
  5
2DC
330
1
100
AcDbSymbolTableRecord
100
AcDbBlockTableRecord
  2
*D13
340
0
  0
BLOCK_RECORD
  5
2EB
330
1
100
AcDbSymbolTableRecord
100
AcDbBlockTableRecord
  2
*D14
340
0
  0
BLOCK_RECORD
  5
2FA
330
1
100
AcDbSymbolTableRecord
100
AcDbBlockTableRecord
  2
*D15
340
0
  0
BLOCK_RECORD
  5
334
330
1
100
AcDbSymbolTableRecord
100
AcDbBlockTableRecord
  2
*D16
340
0
  0
BLOCK_RECORD
  5
343
330
1
100
AcDbSymbolTableRecord
100
AcDbBlockTableRecord
  2
*D17
340
0
  0
BLOCK_RECORD
  5
352
330
1
100
AcDbSymbolTableRecord
100
AcDbBlockTableRecord
  2
*D18
340
0
  0
ENDTAB
  0
ENDSEC
  0
SECTION
  2
BLOCKS
  0
BLOCK
  5
20
330
1F
100
AcDbEntity
  8
0
100
AcDbBlockBegin
  2
*Model_Space
 70
     0
 10
0.0
 20
0.0
 30
0.0
  3
*Model_Space
  1
*Model_Space
  0
ENDBLK
  5
21
330
1F
100
AcDbEntity
  8
0
100
AcDbBlockEnd
  0
BLOCK
  5
1C
330
1B
100
AcDbEntity
 67
     1
  8
0
100
AcDbBlockBegin
  2
*Paper_Space
 70
     0
 10
0.0
 20
0.0
 30
0.0
  3
*Paper_Space
  1
*Paper_Space
  0
ENDBLK
  5
1D
330
1B
100
AcDbEntity
 67
     1
  8
0
100
AcDbBlockEnd
  0
BLOCK
  5
24
330
23
100
AcDbEntity
  8
0
100
AcDbBlockBegin
  2
*Paper_Space0
 70
     0
 10
0.0
 20
0.0
 30
0.0
  3
*Paper_Space0
  1
*Paper_Space0
  0
ENDBLK
  5
25
330
23
100
AcDbEntity
  8
0
100
AcDbBlockEnd
  0
BLOCK
  5
80
330
7F
100
AcDbEntity
  8
0
100
AcDbBlockBegin
  2
블럭10
 70
     2
 10
0.0
 20
0.0
 30
0.0
  3
블럭10
  1
블럭10
  0
ELLIPSE
  5
82
330
7F
100
AcDbEntity
  8
중심선
100
AcDbEllipse
 10
20.54032771741204
 20
12.0471743016438
 30
0.0
 11
6.600054785286829
 21
-1.261213355974178E-13
 31
0.0
210
0.0
220
0.0
230
1.0
 40
0.636358354079598
 41
0.9219305317359503
 42
6.513795318482858
  0
ELLIPSE
  5
83
330
7F
100
AcDbEntity
  8
중심선
100
AcDbEllipse
 10
20.54032771746488
 20
12.04717430159265
 30
0.0
 11
3.960054785062283
 21
1.540847449632565E-10
 31
0.0
210
0.0
220
0.0
230
1.0
 40
0.3939339440162632
 41
1.131841032648279
 42
5.62031148352944
  0
LINE
  5
84
330
7F
100
AcDbEntity
  8
중심선
100
AcDbLine
 10
2.268634060543552
 20
16.24717430164393
 30
0.0
 11
5.714909304380834
 21
16.24717430164393
 31
0.0
  0
LINE
  5
85
330
7F
100
AcDbEntity
  8
중심선
100
AcDbLine
 10
5.245725140726316
 20
7.84717430164391
 30
0.0
 11
8.692000384563599
 21
7.84717430164391
 31
0.0
  0
LINE
  5
86
330
7F
100
AcDbEntity
  8
중심선
100
AcDbLine
 10
15.74043728645272
 20
16.24717430164393
 30
0.0
 11
8.692000384563599
 21
7.84717430164391
 31
0.0
  0
LINE
  5
87
330
7F
100
AcDbEntity
  8
중심선
100
AcDbLine
 10
0.1404042013395286
 20
13.71084872107135
 30
0.0
 11
3.58671253028996
 21
13.71088815037384
 31
0.0
  0
LINE
  5
88
330
7F
100
AcDbEntity
  8
중심선
100
AcDbLine
 10
2.750260043222114
 20
10.84717430164391
 30
0.0
 11
6.196535287059397
 21
10.84717430164391
 31
0.0
  0
LINE
  5
89
330
7F
100
AcDbEntity
  8
중심선
100
AcDbLine
 10
12.29416204261559
 20
16.24717430164393
 30
0.0
 11
5.245725140726316
 21
7.84717430164391
 31
0.0
  0
LINE
  5
8A
330
7F
100
AcDbEntity
  8
중심선
100
AcDbLine
 10
10.72767329541681
 20
16.24717430164393
 30
0.0
 11
6.196535287059397
 21
10.84717430164391
 31
0.0
  0
LINE
  5
8B
330
7F
100
AcDbEntity
  8
중심선
100
AcDbLine
 10
7.28139805157953
 20
16.24717430164393
 30
0.0
 11
2.750260043222114
 21
10.84717430164391
 31
0.0
  0
LINE
  5
8C
330
7F
100
AcDbEntity
  8
중심선
100
AcDbLine
 10
5.714909304380834
 20
16.24717430164393
 30
0.0
 11
3.58671253028996
 21
13.71088815037384
 31
0.0
  0
LINE
  5
8D
330
7F
100
AcDbEntity
  8
중심선
100
AcDbLine
 10
2.268634060543552
 20
16.24717430164393
 30
0.0
 11
0.1404042013395286
 21
13.71084872107135
 31
0.0
  0
LINE
  5
8E
330
7F
100
AcDbEntity
  8
중심선
100
AcDbLine
 10
7.28139805157953
 20
16.24717430164393
 30
0.0
 11
10.72767329541681
 21
16.24717430164393
 31
0.0
  0
LINE
  5
8F
330
7F
100
AcDbEntity
  8
중심선
100
AcDbLine
 10
12.29416204261559
 20
16.24717430164393
 30
0.0
 11
15.74043728645272
 21
16.24717430164393
 31
0.0
  0
LINE
  5
90
330
7F
100
AcDbEntity
  8
중심선
100
AcDbLine
 10
19.22036997980202
 20
11.08717430171403
 30
0.0
 11
23.66174974927406
 21
11.08717430171406
 31
0.0
  0
LINE
  5
91
330
7F
100
AcDbEntity
  8
중심선
100
AcDbLine
 10
19.22039502424796
 20
13.00717430171391
 30
0.0
 11
19.22036997980202
 21
11.08717430171403
 31
0.0
  0
LINE
  5
92
330
7F
100
AcDbEntity
  8
중심선
100
AcDbLine
 10
19.22039502424796
 20
13.00717430171391
 30
0.0
 11
26.96566020931264
 21
13.00717430171391
 31
0.0
  0
LINE
  5
93
330
7F
100
AcDbEntity
  8
중심선
100
AcDbLine
 10
22.22332737316547
 20
13.45928029700563
 30
0.0
 11
24.52862924686651
 21
15.39360700705356
 31
0.0
  0
ATTDEF
  5
95
330
7F
100
AcDbEntity
  8
FORMAT
 62
     2
100
AcDbText
 10
4.408487351596664
 20
2.075366912832191
 30
0.0
 40
4.233333333333333
  1
E1053060
 41
0.75
  7
SLDTEXTSTYLE0
 11
4.408487351596664
 21
-0.0412997538344756
 31
0.0
100
AcDbAttributeDefinition
  3

  2
AUTOATTR0
 70
     0
 74
     1
  0
ENDBLK
  5
81
330
7F
100
AcDbEntity
  8
0
100
AcDbBlockEnd
  0
BLOCK
  5
D1
330
D0
100
AcDbEntity
  8
0
100
AcDbBlockBegin
  2
_D
 70
     0
 10
0.0
 20
0.0
 30
0.0
  3
_D
  1
_D
  0
LINE
  5
D3
330
D0
100
AcDbEntity
  8
치수문자_일반주서
 62
     0
370
    -2
100
AcDbLine
 10
81.025
 20
11.90625000000001
 30
0.0
 11
117.6937551704443
 21
11.90625000000015
 31
0.0
  0
LINE
  5
D4
330
D0
100
AcDbEntity
  8
치수문자_일반주서
 62
     0
370
    -2
100
AcDbLine
 10
81.025
 20
-11.90624999999999
 30
0.0
 11
117.6937551704443
 21
-11.90624999999985
 31
0.0
  0
LINE
  5
D5
330
D0
100
AcDbEntity
  8
치수문자_일반주서
 62
     0
370
    -2
100
AcDbLine
 10
117.6937551704443
 20
11.90625000000015
 30
0.0
 11
117.6937551704441
 21
50.46646585538422
 31
0.0
  0
LINE
  5
D6
330
D0
100
AcDbEntity
  8
치수문자_일반주서
 62
     0
370
    -2
100
AcDbLine
 10
117.6937551704443
 20
11.90625000000015
 30
0.0
 11
117.6937551704443
 21
-11.90624999999985
 31
0.0
  0
LINE
  5
D7
330
D0
100
AcDbEntity
  8
치수문자_일반주서
 62
     0
370
    -2
100
AcDbLine
 10
117.6937551704442
 20
15.20825000000015
 30
0.0
 11
117.6937551704442
 21
18.51025000000015
 31
0.0
  0
LINE
  5
D8
330
D0
100
AcDbEntity
  8
치수문자_일반주서
 62
     0
370
    -2
100
AcDbLine
 10
117.6937551704444
 20
-15.20824999999985
 30
0.0
 11
117.6937551704444
 21
-18.51024999999985
 31
0.0
  0
SOLID
  5
D9
330
D0
100
AcDbEntity
  8
치수문자_일반주서
 62
     0
100
AcDbTrace
 10
117.1434218371109
 20
15.20825000000015
 30
0.0
 11
118.2440885037776
 21
15.20825000000015
 31
0.0
 12
117.6937551704443
 22
11.90625000000015
 32
0.0
 13
117.6937551704443
 23
11.90625000000015
 33
0.0
  0
SOLID
  5
DA
330
D0
100
AcDbEntity
  8
치수문자_일반주서
 62
     0
100
AcDbTrace
 10
118.2440885037777
 20
-15.20824999999985
 30
0.0
 11
117.143421837111
 21
-15.20824999999985
 31
0.0
 12
117.6937551704443
 22
-11.90624999999985
 32
0.0
 13
117.6937551704443
 23
-11.90624999999985
 33
0.0
  0
MTEXT
  5
DB
330
D0
100
AcDbEntity
  8
치수문자_일반주서
 62
     0
100
AcDbMText
 10
113.3187551704442
 20
34.71646585538421
 30
0.0
 40
3.5
 41
0.0
 71
     2
 72
     1
  1
\A1;%%c23.81 [15/16]
  7
SLDTEXTSTYLE0
 11
-3.580687802255622E-15
 21
1.0
 31
0.0
 73
     1
 44
1.0
  0
POINT
  5
DC
330
D0
100
AcDbEntity
  8
Defpoints
 62
     0
100
AcDbPoint
 10
80.9625
 20
11.90625000000001
 30
0.0
  0
POINT
  5
24F
330
D0
100
AcDbEntity
  8
Defpoints
 62
     0
100
AcDbPoint
 10
80.9625
 20
-11.90624999999999
 30
0.0
  0
POINT
  5
250
330
D0
100
AcDbEntity
  8
Defpoints
 62
     0
100
AcDbPoint
 10
117.6937551704443
 20
-11.90624999999985
 30
0.0
  0
ENDBLK
  5
D2
330
D0
100
AcDbEntity
  8
0
100
AcDbBlockEnd
  0
BLOCK
  5
E4
330
E3
100
AcDbEntity
  8
0
100
AcDbBlockBegin
  2
_D_1
 70
     0
 10
0.0
 20
0.0
 30
0.0
  3
_D_1
  1
_D_1
  0
LINE
  5
E6
330
E3
100
AcDbEntity
  8
치수문자_일반주서
 62
     0
370
    -2
100
AcDbLine
 10
80.9625
 20
11.96875000000001
 30
0.0
 11
80.9625
 21
29.54541812626186
 31
0.0
  0
LINE
  5
E7
330
E3
100
AcDbEntity
  8
치수문자_일반주서
 62
     0
370
    -2
100
AcDbLine
 10
33.33750000000001
 20
11.05496307791568
 30
0.0
 11
33.33750000000001
 21
29.54541812626186
 31
0.0
  0
LINE
  5
E8
330
E3
100
AcDbEntity
  8
치수문자_일반주서
 62
     0
370
    -2
100
AcDbLine
 10
33.33750000000001
 20
29.54541812626186
 30
0.0
 11
-9.38994174153126
 21
29.54541812626186
 31
0.0
  0
LINE
  5
E9
330
E3
100
AcDbEntity
  8
치수문자_일반주서
 62
     0
370
    -2
100
AcDbLine
 10
80.9625
 20
29.54541812626186
 30
0.0
 11
33.33750000000001
 21
29.54541812626186
 31
0.0
  0
LINE
  5
EA
330
E3
100
AcDbEntity
  8
치수문자_일반주서
 62
     0
370
    -2
100
AcDbLine
 10
84.2645
 20
29.54541812626186
 30
0.0
 11
87.56649999999999
 21
29.54541812626186
 31
0.0
  0
LINE
  5
EB
330
E3
100
AcDbEntity
  8
치수문자_일반주서
 62
     0
370
    -2
100
AcDbLine
 10
30.03550000000001
 20
29.54541812626186
 30
0.0
 11
26.73350000000001
 21
29.54541812626186
 31
0.0
  0
SOLID
  5
EC
330
E3
100
AcDbEntity
  8
치수문자_일반주서
 62
     0
100
AcDbTrace
 10
84.2645
 20
30.0957514595952
 30
0.0
 11
84.2645
 21
28.99508479292853
 31
0.0
 12
80.9625
 22
29.54541812626186
 32
0.0
 13
80.9625
 23
29.54541812626186
 33
0.0
  0
SOLID
  5
ED
330
E3
100
AcDbEntity
  8
치수문자_일반주서
 62
     0
100
AcDbTrace
 10
30.03550000000001
 20
28.99508479292853
 30
0.0
 11
30.03550000000001
 21
30.0957514595952
 31
0.0
 12
33.33750000000001
 22
29.54541812626186
 32
0.0
 13
33.33750000000001
 23
29.54541812626186
 33
0.0
  0
MTEXT
  5
EE
330
E3
100
AcDbEntity
  8
치수문자_일반주서
 62
     0
100
AcDbMText
 10
5.92255825846874
 20
33.92041812626186
 30
0.0
 40
3.5
 41
0.0
 71
     2
 72
     1
  1
\A1;47.63 [1 7/8]
  7
SLDTEXTSTYLE0
 73
     1
 44
1.0
  0
POINT
  5
EF
330
E3
100
AcDbEntity
  8
Defpoints
 62
     0
100
AcDbPoint
 10
80.9625
 20
11.90625000000001
 30
0.0
  0
POINT
  5
24D
330
E3
100
AcDbEntity
  8
Defpoints
 62
     0
100
AcDbPoint
 10
33.33750000000001
 20
10.99246307791568
 30
0.0
  0
POINT
  5
24E
330
E3
100
AcDbEntity
  8
Defpoints
 62
     0
100
AcDbPoint
 10
33.33750000000001
 20
29.54541812626186
 30
0.0
  0
ENDBLK
  5
E5
330
E3
100
AcDbEntity
  8
0
100
AcDbBlockEnd
  0
BLOCK
  5
F8
330
F7
100
AcDbEntity
  8
0
100
AcDbBlockBegin
  2
_D_2
 70
     0
 10
0.0
 20
0.0
 30
0.0
  3
_D_2
  1
_D_2
  0
LINE
  5
FA
330
F7
100
AcDbEntity
  8
치수문자_일반주서
 62
     0
370
    -2
100
AcDbLine
 10
80.9625
 20
11.96875000000001
 30
0.0
 11
80.9625
 21
59.4528847983585
 31
0.0
  0
LINE
  5
FB
330
F7
100
AcDbEntity
  8
치수문자_일반주서
 62
     0
370
    -2
100
AcDbLine
 10
-80.96250000000006
 20
11.96875000000001
 30
0.0
 11
-80.96250000000006
 21
59.4528847983585
 31
0.0
  0
LINE
  5
FC
330
F7
100
AcDbEntity
  8
치수문자_일반주서
 62
     0
370
    -2
100
AcDbLine
 10
77.66050000000001
 20
59.4528847983585
 30
0.0
 11
-77.66050000000007
 21
59.4528847983585
 31
0.0
  0
SOLID
  5
FD
330
F7
100
AcDbEntity
  8
치수문자_일반주서
 62
     0
100
AcDbTrace
 10
77.66050000000001
 20
58.90255146502517
 30
0.0
 11
77.66050000000001
 21
60.00321813169184
 31
0.0
 12
80.9625
 22
59.4528847983585
 32
0.0
 13
80.9625
 23
59.4528847983585
 33
0.0
  0
SOLID
  5
FE
330
F7
100
AcDbEntity
  8
치수문자_일반주서
 62
     0
100
AcDbTrace
 10
-77.66050000000007
 20
60.00321813169184
 30
0.0
 11
-77.66050000000007
 21
58.90255146502517
 31
0.0
 12
-80.96250000000006
 22
59.4528847983585
 32
0.0
 13
-80.96250000000006
 23
59.4528847983585
 33
0.0
  0
MTEXT
  5
FF
330
F7
100
AcDbEntity
  8
치수문자_일반주서
 62
     0
100
AcDbMText
 10
-4.131508544009797
 20
63.8278847983585
 30
0.0
 40
3.5
 41
0.0
 71
     2
 72
     1
  1
\A1;161.93 [6 3/8]
  7
SLDTEXTSTYLE0
 73
     1
 44
1.0
  0
POINT
  5
100
330
F7
100
AcDbEntity
  8
Defpoints
 62
     0
100
AcDbPoint
 10
80.9625
 20
11.90625000000001
 30
0.0
  0
POINT
  5
101
330
F7
100
AcDbEntity
  8
Defpoints
 62
     0
100
AcDbPoint
 10
-80.96250000000006
 20
11.90625000000001
 30
0.0
  0
POINT
  5
102
330
F7
100
AcDbEntity
  8
Defpoints
 62
     0
100
AcDbPoint
 10
-80.96250000000006
 20
59.4528847983585
 30
0.0
  0
ENDBLK
  5
F9
330
F7
100
AcDbEntity
  8
0
100
AcDbBlockEnd
  0
BLOCK
  5
10C
330
10B
100
AcDbEntity
  8
0
100
AcDbBlockBegin
  2
_D_3
 70
     0
 10
0.0
 20
0.0
 30
0.0
  3
_D_3
  1
_D_3
  0
LINE
  5
10E
330
10B
100
AcDbEntity
  8
치수문자_일반주서
 62
     0
370
    -2
100
AcDbLine
 10
-29.43768467149224
 20
12.70000000000003
 30
0.0
 11
-91.89875000000006
 21
12.6999999999998
 31
0.0
  0
LINE
  5
10F
330
10B
100
AcDbEntity
  8
치수문자_일반주서
 62
     0
370
    -2
100
AcDbLine
 10
-29.43768467149224
 20
-12.7
 30
0.0
 11
-91.89874999999998
 21
-12.70000000000024
 31
0.0
  0
LINE
  5
110
330
10B
100
AcDbEntity
  8
치수문자_일반주서
 62
     0
370
    -2
100
AcDbLine
 10
-91.89875000000005
 20
9.397999999999799
 30
0.0
 11
-91.89874999999999
 21
-9.398000000000236
 31
0.0
  0
SOLID
  5
111
330
10B
100
AcDbEntity
  8
치수문자_일반주서
 62
     0
100
AcDbTrace
 10
-91.34841666666672
 20
9.3979999999998
 30
0.0
 11
-92.44908333333338
 21
9.397999999999797
 31
0.0
 12
-91.89875000000006
 22
12.6999999999998
 32
0.0
 13
-91.89875000000006
 23
12.6999999999998
 33
0.0
  0
SOLID
  5
112
330
10B
100
AcDbEntity
  8
치수문자_일반주서
 62
     0
100
AcDbTrace
 10
-92.44908333333332
 20
-9.398000000000238
 30
0.0
 11
-91.34841666666667
 21
-9.398000000000234
 31
0.0
 12
-91.89874999999998
 22
-12.70000000000024
 32
0.0
 13
-91.89874999999998
 23
-12.70000000000024
 33
0.0
  0
MTEXT
  5
113
330
10B
100
AcDbEntity
  8
치수문자_일반주서
 62
     0
100
AcDbMText
 10
-96.27375000000002
 20
-0.0000000000000046
 30
0.0
 40
3.5
 41
0.0
 71
     2
 72
     1
  1
\A1;%%c25.40 [1]
  7
SLDTEXTSTYLE0
 11
-3.356894814614642E-15
 21
1.0
 31
0.0
 73
     1
 44
1.0
  0
POINT
  5
114
330
10B
100
AcDbEntity
  8
Defpoints
 62
     0
100
AcDbPoint
 10
-29.37518467149224
 20
12.70000000000003
 30
0.0
  0
POINT
  5
115
330
10B
100
AcDbEntity
  8
Defpoints
 62
     0
100
AcDbPoint
 10
-29.37518467149224
 20
-12.7
 30
0.0
  0
POINT
  5
116
330
10B
100
AcDbEntity
  8
Defpoints
 62
     0
100
AcDbPoint
 10
-91.89874999999998
 20
-12.70000000000024
 30
0.0
  0
ENDBLK
  5
10D
330
10B
100
AcDbEntity
  8
0
100
AcDbBlockEnd
  0
BLOCK
  5
126
330
125
100
AcDbEntity
  8
0
100
AcDbBlockBegin
  2
SW_DOWELSYMBOL_0
 70
     0
 10
0.0
 20
0.0
 30
0.0
  3
SW_DOWELSYMBOL_0
  1
SW_DOWELSYMBOL_0
  0
CIRCLE
  5
128
330
125
100
AcDbEntity
  8
해칭선
 62
     0
100
AcDbCircle
 10
0.0
 20
0.0
 30
0.0
 40
3.000000000000008
  0
HATCH
  5
129
330
125
100
AcDbEntity
  8
0
  6
Continuous
 62
     0
370
     0
100
AcDbHatch
 10
0.0
 20
0.0
 30
0.0
210
0.0
220
0.0
230
1.0
  2
SOLID
 70
     1
 71
     0
 91
        1
 92
        0
 93
        3
 72
     2
 10
0.0
 20
0.0
 40
3.000000000000008
 50
0.0
 51
90.0
 73
     1
 72
     1
 10
0.0
 20
3.000000000000008
 11
0.0
 21
0.0
 72
     1
 10
0.0
 20
0.0
 11
3.000000000000003
 21
0.0
 97
        0
 75
     0
 76
     1
 98
        1
 10
0.0
 20
0.0
  0
HATCH
  5
12A
330
125
100
AcDbEntity
  8
0
  6
Continuous
 62
     0
370
     0
100
AcDbHatch
 10
0.0
 20
0.0
 30
0.0
210
0.0
220
0.0
230
1.0
  2
SOLID
 70
     1
 71
     0
 91
        1
 92
        0
 93
        3
 72
     2
 10
0.0
 20
0.0
 40
3.000000000000008
 50
180.0
 51
270.0000000000007
 73
     1
 72
     1
 10
0.0
 20
-3.000000000000008
 11
0.0
 21
0.0
 72
     1
 10
0.0
 20
0.0
 11
-3.000000000000003
 21
0.0
 97
        0
 75
     0
 76
     1
 98
        1
 10
0.0
 20
0.0
  0
ENDBLK
  5
127
330
125
100
AcDbEntity
  8
0
100
AcDbBlockEnd
  0
BLOCK
  5
1D4
330
1D3
100
AcDbEntity
  8
0
100
AcDbBlockBegin
  2
*D7
 70
     1
 10
0.0
 20
0.0
 30
0.0
  3
*D7
  1
*D8
  0
LINE
  5
1D6
330
1D3
100
AcDbEntity
  8
치수문자_일반주서
 62
     0
370
    -2
100
AcDbLine
 10
158.6375
 20
28.82899999999993
 30
0.0
 11
177.1370153737888
 21
28.82899999999999
 31
0.0
  0
LINE
  5
1D7
330
1D3
100
AcDbEntity
  8
치수문자_일반주서
 62
     0
370
    -2
100
AcDbLine
 10
158.6374999999999
 20
6.603999999999925
 30
0.0
 11
177.1370153737889
 21
6.603999999999992
 31
0.0
  0
LINE
  5
1D8
330
1D3
100
AcDbEntity
  8
치수문자_일반주서
 62
     0
370
    -2
100
AcDbLine
 10
177.1370153737888
 20
28.82899999999999
 30
0.0
 11
177.1370153737887
 21
66.5402412487496
 31
0.0
  0
LINE
  5
1D9
330
1D3
100
AcDbEntity
  8
치수문자_일반주서
 62
     0
370
    -2
100
AcDbLine
 10
177.1370153737888
 20
28.82899999999999
 30
0.0
 11
177.1370153737889
 21
6.603999999999992
 31
0.0
  0
LINE
  5
1DA
330
1D3
100
AcDbEntity
  8
치수문자_일반주서
 62
     0
370
    -2
100
AcDbLine
 10
177.1370153737888
 20
32.13099999999999
 30
0.0
 11
177.1370153737888
 21
35.43299999999999
 31
0.0
  0
LINE
  5
1DB
330
1D3
100
AcDbEntity
  8
치수문자_일반주서
 62
     0
370
    -2
100
AcDbLine
 10
177.1370153737889
 20
3.301999999999992
 30
0.0
 11
177.1370153737889
 21
-0.0000000000000071
 31
0.0
  0
SOLID
  5
1DC
330
1D3
100
AcDbEntity
  8
치수문자_일반주서
 62
     0
100
AcDbTrace
 10
176.5866820404555
 20
32.13099999999999
 30
0.0
 11
177.6873487071222
 21
32.13099999999999
 31
0.0
 12
177.1370153737888
 22
28.82899999999999
 32
0.0
 13
177.1370153737888
 23
28.82899999999999
 33
0.0
  0
SOLID
  5
1DD
330
1D3
100
AcDbEntity
  8
치수문자_일반주서
 62
     0
100
AcDbTrace
 10
177.6873487071223
 20
3.301999999999995
 30
0.0
 11
176.5866820404556
 21
3.30199999999999
 31
0.0
 12
177.1370153737889
 22
6.603999999999992
 32
0.0
 13
177.1370153737889
 23
6.603999999999992
 33
0.0
  0
MTEXT
  5
1DE
330
1D3
100
AcDbEntity
  8
치수문자_일반주서
 62
     0
100
AcDbMText
 10
172.7620153737888
 20
52.10274124874958
 30
0.0
 40
3.5
 41
0.0
 71
     2
 72
     1
  1
\A1;%%c22.23 [7/8]
  7
SLDTEXTSTYLE0
 11
-3.836451216702453E-15
 21
1.0
 31
0.0
 73
     1
 44
1.0
  0
POINT
  5
1DF
330
1D3
100
AcDbEntity
  8
Defpoints
 62
     0
100
AcDbPoint
 10
158.575
 20
28.82899999999993
 30
0.0
  0
POINT
  5
1E0
330
1D3
100
AcDbEntity
  8
Defpoints
 62
     0
100
AcDbPoint
 10
158.5749999999999
 20
6.603999999999925
 30
0.0
  0
POINT
  5
1E1
330
1D3
100
AcDbEntity
  8
Defpoints
 62
     0
100
AcDbPoint
 10
177.1370153737889
 20
6.603999999999994
 30
0.0
  0
ENDBLK
  5
1D5
330
1D3
100
AcDbEntity
  8
0
100
AcDbBlockEnd
  0
BLOCK
  5
1E3
330
1E2
100
AcDbEntity
  8
0
100
AcDbBlockBegin
  2
*D8
 70
     1
 10
0.0
 20
0.0
 30
0.0
  3
*D8
  1
*D9
  0
LINE
  5
1E5
330
1E2
100
AcDbEntity
  8
치수문자_일반주서
 62
     0
370
    -2
100
AcDbLine
 10
158.575
 20
28.89149999999993
 30
0.0
 11
158.575
 21
45.44039524088814
 31
0.0
  0
LINE
  5
1E6
330
1E2
100
AcDbEntity
  8
치수문자_일반주서
 62
     0
370
    -2
100
AcDbLine
 10
110.95
 20
28.60043549245493
 30
0.0
 11
110.95
 21
45.44039524088814
 31
0.0
  0
LINE
  5
1E7
330
1E2
100
AcDbEntity
  8
치수문자_일반주서
 62
     0
370
    -2
100
AcDbLine
 10
110.95
 20
45.44039524088814
 30
0.0
 11
73.721
 21
45.44039524088814
 31
0.0
  0
LINE
  5
1E8
330
1E2
100
AcDbEntity
  8
치수문자_일반주서
 62
     0
370
    -2
100
AcDbLine
 10
158.575
 20
45.44039524088814
 30
0.0
 11
110.95
 21
45.44039524088814
 31
0.0
  0
LINE
  5
1E9
330
1E2
100
AcDbEntity
  8
치수문자_일반주서
 62
     0
370
    -2
100
AcDbLine
 10
161.877
 20
45.44039524088814
 30
0.0
 11
165.179
 21
45.44039524088814
 31
0.0
  0
LINE
  5
1EA
330
1E2
100
AcDbEntity
  8
치수문자_일반주서
 62
     0
370
    -2
100
AcDbLine
 10
107.648
 20
45.44039524088814
 30
0.0
 11
104.346
 21
45.44039524088814
 31
0.0
  0
SOLID
  5
1EB
330
1E2
100
AcDbEntity
  8
치수문자_일반주서
 62
     0
100
AcDbTrace
 10
161.877
 20
45.99072857422147
 30
0.0
 11
161.877
 21
44.8900619075548
 31
0.0
 12
158.575
 22
45.44039524088814
 32
0.0
 13
158.575
 23
45.44039524088814
 33
0.0
  0
SOLID
  5
1EC
330
1E2
100
AcDbEntity
  8
치수문자_일반주서
 62
     0
100
AcDbTrace
 10
107.648
 20
44.8900619075548
 30
0.0
 11
107.648
 21
45.99072857422147
 31
0.0
 12
110.95
 22
45.44039524088814
 32
0.0
 13
110.95
 23
45.44039524088814
 33
0.0
  0
MTEXT
  5
1ED
330
1E2
100
AcDbEntity
  8
치수문자_일반주서
 62
     0
100
AcDbMText
 10
89.0335
 20
49.81539524088814
 30
0.0
 40
3.5
 41
0.0
 71
     2
 72
     1
  1
\A1;47.63 [1 7/8]
  7
SLDTEXTSTYLE0
 73
     1
 44
1.0
  0
POINT
  5
1EE
330
1E2
100
AcDbEntity
  8
Defpoints
 62
     0
100
AcDbPoint
 10
158.575
 20
28.82899999999993
 30
0.0
  0
POINT
  5
1EF
330
1E2
100
AcDbEntity
  8
Defpoints
 62
     0
100
AcDbPoint
 10
110.95
 20
28.53793549245493
 30
0.0
  0
POINT
  5
1F0
330
1E2
100
AcDbEntity
  8
Defpoints
 62
     0
100
AcDbPoint
 10
110.95
 20
45.44039524088814
 30
0.0
  0
ENDBLK
  5
1E4
330
1E2
100
AcDbEntity
  8
0
100
AcDbBlockEnd
  0
BLOCK
  5
1F2
330
1F1
100
AcDbEntity
  8
0
100
AcDbBlockBegin
  2
*D9
 70
     1
 10
0.0
 20
0.0
 30
0.0
  3
*D9
  1
*D10
  0
LINE
  5
1F4
330
1F1
100
AcDbEntity
  8
치수문자_일반주서
 62
     0
370
    -2
100
AcDbLine
 10
158.575
 20
28.89149999999993
 30
0.0
 11
158.575
 21
76.37855374133282
 31
0.0
  0
LINE
  5
1F5
330
1F1
100
AcDbEntity
  8
치수문자_일반주서
 62
     0
370
    -2
100
AcDbLine
 10
3.000000000000007
 20
26.66899999999992
 30
0.0
 11
3.0
 21
76.37855374133282
 31
0.0
  0
LINE
  5
1F6
330
1F1
100
AcDbEntity
  8
치수문자_일반주서
 62
     0
370
    -2
100
AcDbLine
 10
155.273
 20
76.37855374133282
 30
0.0
 11
6.302
 21
76.37855374133282
 31
0.0
  0
SOLID
  5
1F7
330
1F1
100
AcDbEntity
  8
치수문자_일반주서
 62
     0
100
AcDbTrace
 10
155.273
 20
75.8282204079995
 30
0.0
 11
155.273
 21
76.92888707466615
 31
0.0
 12
158.575
 22
76.37855374133282
 32
0.0
 13
158.575
 23
76.37855374133282
 33
0.0
  0
SOLID
  5
1F8
330
1F1
100
AcDbEntity
  8
치수문자_일반주서
 62
     0
100
AcDbTrace
 10
6.302
 20
76.92888707466615
 30
0.0
 11
6.302
 21
75.8282204079995
 31
0.0
 12
3.0
 22
76.37855374133282
 32
0.0
 13
3.0
 23
76.37855374133282
 33
0.0
  0
MTEXT
  5
1F9
330
1F1
100
AcDbEntity
  8
치수문자_일반주서
 62
     0
100
AcDbMText
 10
76.81801139889254
 20
80.75355374133282
 30
0.0
 40
3.5
 41
0.0
 71
     2
 72
     1
  1
\A1;155.58 [6 1/8]
  7
SLDTEXTSTYLE0
 73
     1
 44
1.0
  0
POINT
  5
1FA
330
1F1
100
AcDbEntity
  8
Defpoints
 62
     0
100
AcDbPoint
 10
158.575
 20
28.82899999999993
 30
0.0
  0
POINT
  5
1FB
330
1F1
100
AcDbEntity
  8
Defpoints
 62
     0
100
AcDbPoint
 10
3.000000000000007
 20
26.60649999999992
 30
0.0
  0
POINT
  5
1FC
330
1F1
100
AcDbEntity
  8
Defpoints
 62
     0
100
AcDbPoint
 10
3.000000000000007
 20
76.37855374133282
 30
0.0
  0
ENDBLK
  5
1F3
330
1F1
100
AcDbEntity
  8
0
100
AcDbBlockEnd
  0
BLOCK
  5
224
330
223
100
AcDbEntity
  8
0
100
AcDbBlockBegin
  2
*D10
 70
     1
 10
0.0
 20
0.0
 30
0.0
  3
*D10
  1
*D11
  0
LINE
  5
226
330
223
100
AcDbEntity
  8
치수문자_일반주서
 62
     0
370
    -2
100
AcDbLine
 10
309.427848993155
 20
-67.09188639356718
 30
0.0
 11
327.9273643669438
 21
-67.09188639356711
 31
0.0
  0
LINE
  5
227
330
223
100
AcDbEntity
  8
치수문자_일반주서
 62
     0
370
    -2
100
AcDbLine
 10
309.427848993155
 20
-89.31688639356717
 30
0.0
 11
327.9273643669439
 21
-89.3168863935671
 31
0.0
  0
LINE
  5
228
330
223
100
AcDbEntity
  8
치수문자_일반주서
 62
     0
370
    -2
100
AcDbLine
 10
327.9273643669438
 20
-67.09188639356711
 30
0.0
 11
327.9273643669437
 21
-29.38064514481751
 31
0.0
  0
LINE
  5
229
330
223
100
AcDbEntity
  8
치수문자_일반주서
 62
     0
370
    -2
100
AcDbLine
 10
327.9273643669438
 20
-67.09188639356711
 30
0.0
 11
327.9273643669439
 21
-89.3168863935671
 31
0.0
  0
LINE
  5
22A
330
223
100
AcDbEntity
  8
치수문자_일반주서
 62
     0
370
    -2
100
AcDbLine
 10
327.9273643669438
 20
-63.78988639356711
 30
0.0
 11
327.9273643669438
 21
-60.48788639356711
 31
0.0
  0
LINE
  5
22B
330
223
100
AcDbEntity
  8
치수문자_일반주서
 62
     0
370
    -2
100
AcDbLine
 10
327.9273643669439
 20
-92.6188863935671
 30
0.0
 11
327.9273643669439
 21
-95.92088639356709
 31
0.0
  0
SOLID
  5
22C
330
223
100
AcDbEntity
  8
치수문자_일반주서
 62
     0
100
AcDbTrace
 10
327.3770310336105
 20
-63.78988639356711
 30
0.0
 11
328.4776977002772
 21
-63.78988639356711
 31
0.0
 12
327.9273643669438
 22
-67.09188639356711
 32
0.0
 13
327.9273643669438
 23
-67.09188639356711
 33
0.0
  0
SOLID
  5
22D
330
223
100
AcDbEntity
  8
치수문자_일반주서
 62
     0
100
AcDbTrace
 10
328.4776977002772
 20
-92.6188863935671
 30
0.0
 11
327.3770310336105
 21
-92.6188863935671
 31
0.0
 12
327.9273643669439
 22
-89.3168863935671
 32
0.0
 13
327.9273643669439
 23
-89.3168863935671
 33
0.0
  0
MTEXT
  5
22E
330
223
100
AcDbEntity
  8
치수문자_일반주서
 62
     0
100
AcDbMText
 10
323.5523643669438
 20
-43.81814514481752
 30
0.0
 40
3.5
 41
0.0
 71
     2
 72
     1
  1
\A1;%%c22.23 [7/8]
  7
SLDTEXTSTYLE0
 11
-2.557634144468303E-15
 21
1.0
 31
0.0
 73
     1
 44
1.0
  0
POINT
  5
22F
330
223
100
AcDbEntity
  8
Defpoints
 62
     0
100
AcDbPoint
 10
309.365348993155
 20
-67.09188639356718
 30
0.0
  0
POINT
  5
230
330
223
100
AcDbEntity
  8
Defpoints
 62
     0
100
AcDbPoint
 10
309.365348993155
 20
-89.31688639356717
 30
0.0
  0
POINT
  5
231
330
223
100
AcDbEntity
  8
Defpoints
 62
     0
100
AcDbPoint
 10
327.9273643669439
 20
-89.3168863935671
 30
0.0
  0
ENDBLK
  5
225
330
223
100
AcDbEntity
  8
0
100
AcDbBlockEnd
  0
BLOCK
  5
233
330
232
100
AcDbEntity
  8
0
100
AcDbBlockBegin
  2
*D11
 70
     1
 10
0.0
 20
0.0
 30
0.0
  3
*D11
  1
*D12
  0
LINE
  5
235
330
232
100
AcDbEntity
  8
치수문자_일반주서
 62
     0
370
    -2
100
AcDbLine
 10
309.365348993155
 20
-67.02938639356718
 30
0.0
 11
309.365348993155
 21
-50.48049115267897
 31
0.0
  0
LINE
  5
236
330
232
100
AcDbEntity
  8
치수문자_일반주서
 62
     0
370
    -2
100
AcDbLine
 10
261.740348993155
 20
-67.32045090111217
 30
0.0
 11
261.740348993155
 21
-50.48049115267897
 31
0.0
  0
LINE
  5
237
330
232
100
AcDbEntity
  8
치수문자_일반주서
 62
     0
370
    -2
100
AcDbLine
 10
261.740348993155
 20
-50.48049115267897
 30
0.0
 11
224.511348993155
 21
-50.48049115267897
 31
0.0
  0
LINE
  5
238
330
232
100
AcDbEntity
  8
치수문자_일반주서
 62
     0
370
    -2
100
AcDbLine
 10
309.365348993155
 20
-50.48049115267897
 30
0.0
 11
261.740348993155
 21
-50.48049115267897
 31
0.0
  0
LINE
  5
239
330
232
100
AcDbEntity
  8
치수문자_일반주서
 62
     0
370
    -2
100
AcDbLine
 10
312.667348993155
 20
-50.48049115267897
 30
0.0
 11
315.9693489931551
 21
-50.48049115267897
 31
0.0
  0
LINE
  5
23A
330
232
100
AcDbEntity
  8
치수문자_일반주서
 62
     0
370
    -2
100
AcDbLine
 10
258.438348993155
 20
-50.48049115267897
 30
0.0
 11
255.136348993155
 21
-50.48049115267897
 31
0.0
  0
SOLID
  5
23B
330
232
100
AcDbEntity
  8
치수문자_일반주서
 62
     0
100
AcDbTrace
 10
312.667348993155
 20
-49.93015781934563
 30
0.0
 11
312.667348993155
 21
-51.0308244860123
 31
0.0
 12
309.365348993155
 22
-50.48049115267897
 32
0.0
 13
309.365348993155
 23
-50.48049115267897
 33
0.0
  0
SOLID
  5
23C
330
232
100
AcDbEntity
  8
치수문자_일반주서
 62
     0
100
AcDbTrace
 10
258.438348993155
 20
-51.0308244860123
 30
0.0
 11
258.438348993155
 21
-49.93015781934563
 31
0.0
 12
261.740348993155
 22
-50.48049115267897
 32
0.0
 13
261.740348993155
 23
-50.48049115267897
 33
0.0
  0
MTEXT
  5
23D
330
232
100
AcDbEntity
  8
치수문자_일반주서
 62
     0
100
AcDbMText
 10
239.823848993155
 20
-46.10549115267897
 30
0.0
 40
3.5
 41
0.0
 71
     2
 72
     1
  1
\A1;47.63 [1 7/8]
  7
SLDTEXTSTYLE0
 73
     1
 44
1.0
  0
POINT
  5
23E
330
232
100
AcDbEntity
  8
Defpoints
 62
     0
100
AcDbPoint
 10
309.365348993155
 20
-67.09188639356718
 30
0.0
  0
POINT
  5
23F
330
232
100
AcDbEntity
  8
Defpoints
 62
     0
100
AcDbPoint
 10
261.740348993155
 20
-67.38295090111217
 30
0.0
  0
POINT
  5
240
330
232
100
AcDbEntity
  8
Defpoints
 62
     0
100
AcDbPoint
 10
261.740348993155
 20
-50.48049115267897
 30
0.0
  0
ENDBLK
  5
234
330
232
100
AcDbEntity
  8
0
100
AcDbBlockEnd
  0
BLOCK
  5
242
330
241
100
AcDbEntity
  8
0
100
AcDbBlockBegin
  2
*D12
 70
     1
 10
0.0
 20
0.0
 30
0.0
  3
*D12
  1
*D13
  0
LINE
  5
244
330
241
100
AcDbEntity
  8
치수문자_일반주서
 62
     0
370
    -2
100
AcDbLine
 10
309.365348993155
 20
-67.02938639356718
 30
0.0
 11
309.365348993155
 21
-19.54233265223428
 31
0.0
  0
LINE
  5
245
330
241
100
AcDbEntity
  8
치수문자_일반주서
 62
     0
370
    -2
100
AcDbLine
 10
153.790348993155
 20
-69.25188639356719
 30
0.0
 11
153.790348993155
 21
-19.54233265223428
 31
0.0
  0
LINE
  5
246
330
241
100
AcDbEntity
  8
치수문자_일반주서
 62
     0
370
    -2
100
AcDbLine
 10
306.063348993155
 20
-19.54233265223428
 30
0.0
 11
157.092348993155
 21
-19.54233265223428
 31
0.0
  0
SOLID
  5
247
330
241
100
AcDbEntity
  8
치수문자_일반주서
 62
     0
100
AcDbTrace
 10
306.063348993155
 20
-20.09266598556761
 30
0.0
 11
306.063348993155
 21
-18.99199931890094
 31
0.0
 12
309.365348993155
 22
-19.54233265223428
 32
0.0
 13
309.365348993155
 23
-19.54233265223428
 33
0.0
  0
SOLID
  5
248
330
241
100
AcDbEntity
  8
치수문자_일반주서
 62
     0
100
AcDbTrace
 10
157.092348993155
 20
-18.99199931890094
 30
0.0
 11
157.092348993155
 21
-20.09266598556761
 31
0.0
 12
153.790348993155
 22
-19.54233265223428
 32
0.0
 13
153.790348993155
 23
-19.54233265223428
 33
0.0
  0
MTEXT
  5
249
330
241
100
AcDbEntity
  8
치수문자_일반주서
 62
     0
100
AcDbMText
 10
227.6083603920476
 20
-15.16733265223428
 30
0.0
 40
3.5
 41
0.0
 71
     2
 72
     1
  1
\A1;155.58 [6 1/8]
  7
SLDTEXTSTYLE0
 73
     1
 44
1.0
  0
POINT
  5
24A
330
241
100
AcDbEntity
  8
Defpoints
 62
     0
100
AcDbPoint
 10
309.365348993155
 20
-67.09188639356718
 30
0.0
  0
POINT
  5
24B
330
241
100
AcDbEntity
  8
Defpoints
 62
     0
100
AcDbPoint
 10
153.790348993155
 20
-69.31438639356719
 30
0.0
  0
POINT
  5
24C
330
241
100
AcDbEntity
  8
Defpoints
 62
     0
100
AcDbPoint
 10
153.790348993155
 20
-19.54233265223428
 30
0.0
  0
ENDBLK
  5
243
330
241
100
AcDbEntity
  8
0
100
AcDbBlockEnd
  0
BLOCK
  5
2DD
330
2DC
100
AcDbEntity
  8
0
100
AcDbBlockBegin
  2
*D13
 70
     1
 10
0.0
 20
0.0
 30
0.0
  3
*D13
  1
*D15
  0
LINE
  5
2DF
330
2DC
100
AcDbEntity
  8
치수문자_일반주서
 62
     0
370
    -2
100
AcDbLine
 10
164.9875
 20
30.41649999999986
 30
0.0
 11
201.6562551704443
 21
30.4165
 31
0.0
  0
LINE
  5
2E0
330
2DC
100
AcDbEntity
  8
치수문자_일반주서
 62
     0
370
    -2
100
AcDbLine
 10
164.9875
 20
6.603999999999859
 30
0.0
 11
201.6562551704444
 21
6.603999999999992
 31
0.0
  0
LINE
  5
2E1
330
2DC
100
AcDbEntity
  8
치수문자_일반주서
 62
     0
370
    -2
100
AcDbLine
 10
201.6562551704443
 20
30.4165
 30
0.0
 11
201.6562551704441
 21
68.97671585538407
 31
0.0
  0
LINE
  5
2E2
330
2DC
100
AcDbEntity
  8
치수문자_일반주서
 62
     0
370
    -2
100
AcDbLine
 10
201.6562551704443
 20
30.4165
 30
0.0
 11
201.6562551704444
 21
6.603999999999992
 31
0.0
  0
LINE
  5
2E3
330
2DC
100
AcDbEntity
  8
치수문자_일반주서
 62
     0
370
    -2
100
AcDbLine
 10
201.6562551704443
 20
33.71849999999999
 30
0.0
 11
201.6562551704443
 21
37.02049999999999
 31
0.0
  0
LINE
  5
2E4
330
2DC
100
AcDbEntity
  8
치수문자_일반주서
 62
     0
370
    -2
100
AcDbLine
 10
201.6562551704444
 20
3.301999999999992
 30
0.0
 11
201.6562551704444
 21
-0.0000000000000071
 31
0.0
  0
SOLID
  5
2E5
330
2DC
100
AcDbEntity
  8
치수문자_일반주서
 62
     0
100
AcDbTrace
 10
201.1059218371109
 20
33.71849999999999
 30
0.0
 11
202.2065885037776
 21
33.71849999999999
 31
0.0
 12
201.6562551704443
 22
30.4165
 32
0.0
 13
201.6562551704443
 23
30.4165
 33
0.0
  0
SOLID
  5
2E6
330
2DC
100
AcDbEntity
  8
치수문자_일반주서
 62
     0
100
AcDbTrace
 10
202.2065885037777
 20
3.301999999999994
 30
0.0
 11
201.105921837111
 21
3.301999999999991
 31
0.0
 12
201.6562551704444
 22
6.603999999999992
 32
0.0
 13
201.6562551704444
 23
6.603999999999992
 33
0.0
  0
MTEXT
  5
2E7
330
2DC
100
AcDbEntity
  8
치수문자_일반주서
 62
     0
100
AcDbMText
 10
197.2812551704442
 20
53.22671585538406
 30
0.0
 40
3.5
 41
0.0
 71
     2
 72
     1
  1
\A1;%%c23.81 [15/16]
  7
SLDTEXTSTYLE0
 11
-3.580687802255623E-15
 21
1.0
 31
0.0
 73
     1
 44
1.0
  0
POINT
  5
2E8
330
2DC
100
AcDbEntity
  8
Defpoints
 62
     0
100
AcDbPoint
 10
164.925
 20
30.41649999999986
 30
0.0
  0
POINT
  5
2E9
330
2DC
100
AcDbEntity
  8
Defpoints
 62
     0
100
AcDbPoint
 10
164.925
 20
6.603999999999859
 30
0.0
  0
POINT
  5
2EA
330
2DC
100
AcDbEntity
  8
Defpoints
 62
     0
100
AcDbPoint
 10
201.6562551704444
 20
6.603999999999997
 30
0.0
  0
ENDBLK
  5
2DE
330
2DC
100
AcDbEntity
  8
0
100
AcDbBlockEnd
  0
BLOCK
  5
2EC
330
2EB
100
AcDbEntity
  8
0
100
AcDbBlockBegin
  2
*D14
 70
     1
 10
0.0
 20
0.0
 30
0.0
  3
*D14
  1
*D16
  0
LINE
  5
2EE
330
2EB
100
AcDbEntity
  8
치수문자_일반주서
 62
     0
370
    -2
100
AcDbLine
 10
164.925
 20
30.47899999999986
 30
0.0
 11
164.925
 21
48.05566812626171
 31
0.0
  0
LINE
  5
2EF
330
2EB
100
AcDbEntity
  8
치수문자_일반주서
 62
     0
370
    -2
100
AcDbLine
 10
117.3
 20
29.56521307791552
 30
0.0
 11
117.3
 21
48.05566812626171
 31
0.0
  0
LINE
  5
2F0
330
2EB
100
AcDbEntity
  8
치수문자_일반주서
 62
     0
370
    -2
100
AcDbLine
 10
117.3
 20
48.05566812626171
 30
0.0
 11
74.57255825846875
 21
48.05566812626171
 31
0.0
  0
LINE
  5
2F1
330
2EB
100
AcDbEntity
  8
치수문자_일반주서
 62
     0
370
    -2
100
AcDbLine
 10
164.925
 20
48.05566812626171
 30
0.0
 11
117.3
 21
48.05566812626171
 31
0.0
  0
LINE
  5
2F2
330
2EB
100
AcDbEntity
  8
치수문자_일반주서
 62
     0
370
    -2
100
AcDbLine
 10
168.227
 20
48.05566812626171
 30
0.0
 11
171.529
 21
48.05566812626171
 31
0.0
  0
LINE
  5
2F3
330
2EB
100
AcDbEntity
  8
치수문자_일반주서
 62
     0
370
    -2
100
AcDbLine
 10
113.998
 20
48.05566812626171
 30
0.0
 11
110.696
 21
48.05566812626171
 31
0.0
  0
SOLID
  5
2F4
330
2EB
100
AcDbEntity
  8
치수문자_일반주서
 62
     0
100
AcDbTrace
 10
168.227
 20
48.60600145959504
 30
0.0
 11
168.227
 21
47.50533479292837
 31
0.0
 12
164.925
 22
48.05566812626171
 32
0.0
 13
164.925
 23
48.05566812626171
 33
0.0
  0
SOLID
  5
2F5
330
2EB
100
AcDbEntity
  8
치수문자_일반주서
 62
     0
100
AcDbTrace
 10
113.998
 20
47.50533479292837
 30
0.0
 11
113.998
 21
48.60600145959504
 31
0.0
 12
117.3
 22
48.05566812626171
 32
0.0
 13
117.3
 23
48.05566812626171
 33
0.0
  0
MTEXT
  5
2F6
330
2EB
100
AcDbEntity
  8
치수문자_일반주서
 62
     0
100
AcDbMText
 10
89.88505825846875
 20
52.43066812626171
 30
0.0
 40
3.5
 41
0.0
 71
     2
 72
     1
  1
\A1;47.63 [1 7/8]
  7
SLDTEXTSTYLE0
 73
     1
 44
1.0
  0
POINT
  5
2F7
330
2EB
100
AcDbEntity
  8
Defpoints
 62
     0
100
AcDbPoint
 10
164.925
 20
30.41649999999986
 30
0.0
  0
POINT
  5
2F8
330
2EB
100
AcDbEntity
  8
Defpoints
 62
     0
100
AcDbPoint
 10
117.3
 20
29.50271307791552
 30
0.0
  0
POINT
  5
2F9
330
2EB
100
AcDbEntity
  8
Defpoints
 62
     0
100
AcDbPoint
 10
117.3
 20
48.05566812626171
 30
0.0
  0
ENDBLK
  5
2ED
330
2EB
100
AcDbEntity
  8
0
100
AcDbBlockEnd
  0
BLOCK
  5
2FB
330
2FA
100
AcDbEntity
  8
0
100
AcDbBlockBegin
  2
*D15
 70
     1
 10
0.0
 20
0.0
 30
0.0
  3
*D15
  1
*D17
  0
LINE
  5
2FD
330
2FA
100
AcDbEntity
  8
치수문자_일반주서
 62
     0
370
    -2
100
AcDbLine
 10
164.925
 20
30.47899999999986
 30
0.0
 11
164.925
 21
77.96313479835835
 31
0.0
  0
LINE
  5
2FE
330
2FA
100
AcDbEntity
  8
치수문자_일반주서
 62
     0
370
    -2
100
AcDbLine
 10
3.000000000000007
 20
28.73274999999985
 30
0.0
 11
3.0
 21
77.96313479835835
 31
0.0
  0
LINE
  5
2FF
330
2FA
100
AcDbEntity
  8
치수문자_일반주서
 62
     0
370
    -2
100
AcDbLine
 10
161.623
 20
77.96313479835835
 30
0.0
 11
6.302
 21
77.96313479835835
 31
0.0
  0
SOLID
  5
300
330
2FA
100
AcDbEntity
  8
치수문자_일반주서
 62
     0
100
AcDbTrace
 10
161.623
 20
77.41280146502503
 30
0.0
 11
161.623
 21
78.51346813169168
 31
0.0
 12
164.925
 22
77.96313479835835
 32
0.0
 13
164.925
 23
77.96313479835835
 33
0.0
  0
SOLID
  5
301
330
2FA
100
AcDbEntity
  8
치수문자_일반주서
 62
     0
100
AcDbTrace
 10
6.302
 20
78.51346813169168
 30
0.0
 11
6.302
 21
77.41280146502503
 31
0.0
 12
3.0
 22
77.96313479835835
 32
0.0
 13
3.0
 23
77.96313479835835
 33
0.0
  0
MTEXT
  5
302
330
2FA
100
AcDbEntity
  8
치수문자_일반주서
 62
     0
100
AcDbMText
 10
79.83099145599022
 20
82.33813479835835
 30
0.0
 40
3.5
 41
0.0
 71
     2
 72
     1
  1
\A1;161.93 [6 3/8]
  7
SLDTEXTSTYLE0
 73
     1
 44
1.0
  0
POINT
  5
303
330
2FA
100
AcDbEntity
  8
Defpoints
 62
     0
100
AcDbPoint
 10
164.925
 20
30.41649999999986
 30
0.0
  0
POINT
  5
304
330
2FA
100
AcDbEntity
  8
Defpoints
 62
     0
100
AcDbPoint
 10
3.000000000000007
 20
28.67024999999985
 30
0.0
  0
POINT
  5
305
330
2FA
100
AcDbEntity
  8
Defpoints
 62
     0
100
AcDbPoint
 10
3.000000000000007
 20
77.96313479835835
 30
0.0
  0
ENDBLK
  5
2FC
330
2FA
100
AcDbEntity
  8
0
100
AcDbBlockEnd
  0
BLOCK
  5
335
330
334
100
AcDbEntity
  8
0
100
AcDbBlockBegin
  2
*D16
 70
     1
 10
0.0
 20
0.0
 30
0.0
  3
*D16
  1
*D18
  0
LINE
  5
337
330
334
100
AcDbEntity
  8
치수문자_일반주서
 62
     0
370
    -2
100
AcDbLine
 10
442.5816711095308
 20
-27.43788786810732
 30
0.0
 11
479.250426279975
 21
-27.43788786810718
 31
0.0
  0
LINE
  5
338
330
334
100
AcDbEntity
  8
치수문자_일반주서
 62
     0
370
    -2
100
AcDbLine
 10
442.5816711095308
 20
-51.25038786810732
 30
0.0
 11
479.250426279975
 21
-51.25038786810718
 31
0.0
  0
LINE
  5
339
330
334
100
AcDbEntity
  8
치수문자_일반주서
 62
     0
370
    -2
100
AcDbLine
 10
479.250426279975
 20
-27.43788786810718
 30
0.0
 11
479.2504262799749
 21
11.1223279872769
 31
0.0
  0
LINE
  5
33A
330
334
100
AcDbEntity
  8
치수문자_일반주서
 62
     0
370
    -2
100
AcDbLine
 10
479.250426279975
 20
-27.43788786810718
 30
0.0
 11
479.250426279975
 21
-51.25038786810718
 31
0.0
  0
LINE
  5
33B
330
334
100
AcDbEntity
  8
치수문자_일반주서
 62
     0
370
    -2
100
AcDbLine
 10
479.250426279975
 20
-24.13588786810718
 30
0.0
 11
479.250426279975
 21
-20.83388786810718
 31
0.0
  0
LINE
  5
33C
330
334
100
AcDbEntity
  8
치수문자_일반주서
 62
     0
370
    -2
100
AcDbLine
 10
479.250426279975
 20
-54.55238786810718
 30
0.0
 11
479.250426279975
 21
-57.85438786810718
 31
0.0
  0
SOLID
  5
33D
330
334
100
AcDbEntity
  8
치수문자_일반주서
 62
     0
100
AcDbTrace
 10
478.7000929466416
 20
-24.13588786810718
 30
0.0
 11
479.8007596133083
 21
-24.13588786810718
 31
0.0
 12
479.250426279975
 22
-27.43788786810718
 32
0.0
 13
479.250426279975
 23
-27.43788786810718
 33
0.0
  0
SOLID
  5
33E
330
334
100
AcDbEntity
  8
치수문자_일반주서
 62
     0
100
AcDbTrace
 10
479.8007596133084
 20
-54.55238786810718
 30
0.0
 11
478.7000929466417
 21
-54.55238786810718
 31
0.0
 12
479.250426279975
 22
-51.25038786810718
 32
0.0
 13
479.250426279975
 23
-51.25038786810718
 33
0.0
  0
MTEXT
  5
33F
330
334
100
AcDbEntity
  8
치수문자_일반주서
 62
     0
100
AcDbMText
 10
474.8754262799749
 20
-4.627672012723114
 30
0.0
 40
3.5
 41
0.0
 71
     2
 72
     1
  1
\A1;%%c23.81 [15/16]
  7
SLDTEXTSTYLE0
 11
-2.387125201503748E-15
 21
1.0
 31
0.0
 73
     1
 44
1.0
  0
POINT
  5
340
330
334
100
AcDbEntity
  8
Defpoints
 62
     0
100
AcDbPoint
 10
442.5191711095308
 20
-27.43788786810732
 30
0.0
  0
POINT
  5
341
330
334
100
AcDbEntity
  8
Defpoints
 62
     0
100
AcDbPoint
 10
442.5191711095308
 20
-51.25038786810732
 30
0.0
  0
POINT
  5
342
330
334
100
AcDbEntity
  8
Defpoints
 62
     0
100
AcDbPoint
 10
479.2504262799751
 20
-51.25038786810718
 30
0.0
  0
ENDBLK
  5
336
330
334
100
AcDbEntity
  8
0
100
AcDbBlockEnd
  0
BLOCK
  5
344
330
343
100
AcDbEntity
  8
0
100
AcDbBlockBegin
  2
*D17
 70
     1
 10
0.0
 20
0.0
 30
0.0
  3
*D17
  1
*D19
  0
LINE
  5
346
330
343
100
AcDbEntity
  8
치수문자_일반주서
 62
     0
370
    -2
100
AcDbLine
 10
442.5191711095308
 20
-27.37538786810732
 30
0.0
 11
442.5191711095308
 21
-9.798719741845467
 31
0.0
  0
LINE
  5
347
330
343
100
AcDbEntity
  8
치수문자_일반주서
 62
     0
370
    -2
100
AcDbLine
 10
394.8941711095308
 20
-28.28917479019165
 30
0.0
 11
394.8941711095308
 21
-9.798719741845467
 31
0.0
  0
LINE
  5
348
330
343
100
AcDbEntity
  8
치수문자_일반주서
 62
     0
370
    -2
100
AcDbLine
 10
394.8941711095308
 20
-9.798719741845467
 30
0.0
 11
352.1667293679995
 21
-9.798719741845467
 31
0.0
  0
LINE
  5
349
330
343
100
AcDbEntity
  8
치수문자_일반주서
 62
     0
370
    -2
100
AcDbLine
 10
442.5191711095308
 20
-9.798719741845467
 30
0.0
 11
394.8941711095308
 21
-9.798719741845467
 31
0.0
  0
LINE
  5
34A
330
343
100
AcDbEntity
  8
치수문자_일반주서
 62
     0
370
    -2
100
AcDbLine
 10
445.8211711095308
 20
-9.798719741845467
 30
0.0
 11
449.1231711095308
 21
-9.798719741845467
 31
0.0
  0
LINE
  5
34B
330
343
100
AcDbEntity
  8
치수문자_일반주서
 62
     0
370
    -2
100
AcDbLine
 10
391.5921711095307
 20
-9.798719741845467
 30
0.0
 11
388.2901711095307
 21
-9.798719741845467
 31
0.0
  0
SOLID
  5
34C
330
343
100
AcDbEntity
  8
치수문자_일반주서
 62
     0
100
AcDbTrace
 10
445.8211711095308
 20
-9.248386408512134
 30
0.0
 11
445.8211711095308
 21
-10.3490530751788
 31
0.0
 12
442.5191711095308
 22
-9.798719741845467
 32
0.0
 13
442.5191711095308
 23
-9.798719741845467
 33
0.0
  0
SOLID
  5
34D
330
343
100
AcDbEntity
  8
치수문자_일반주서
 62
     0
100
AcDbTrace
 10
391.5921711095307
 20
-10.3490530751788
 30
0.0
 11
391.5921711095307
 21
-9.248386408512134
 31
0.0
 12
394.8941711095308
 22
-9.798719741845467
 32
0.0
 13
394.8941711095308
 23
-9.798719741845467
 33
0.0
  0
MTEXT
  5
34E
330
343
100
AcDbEntity
  8
치수문자_일반주서
 62
     0
100
AcDbMText
 10
367.4792293679995
 20
-5.423719741845467
 30
0.0
 40
3.5
 41
0.0
 71
     2
 72
     1
  1
\A1;47.63 [1 7/8]
  7
SLDTEXTSTYLE0
 73
     1
 44
1.0
  0
POINT
  5
34F
330
343
100
AcDbEntity
  8
Defpoints
 62
     0
100
AcDbPoint
 10
442.5191711095308
 20
-27.43788786810732
 30
0.0
  0
POINT
  5
350
330
343
100
AcDbEntity
  8
Defpoints
 62
     0
100
AcDbPoint
 10
394.8941711095308
 20
-28.35167479019165
 30
0.0
  0
POINT
  5
351
330
343
100
AcDbEntity
  8
Defpoints
 62
     0
100
AcDbPoint
 10
394.8941711095308
 20
-9.798719741845467
 30
0.0
  0
ENDBLK
  5
345
330
343
100
AcDbEntity
  8
0
100
AcDbBlockEnd
  0
BLOCK
  5
353
330
352
100
AcDbEntity
  8
0
100
AcDbBlockBegin
  2
*D18
 70
     1
 10
0.0
 20
0.0
 30
0.0
  3
*D18
  1
*D20
  0
LINE
  5
355
330
352
100
AcDbEntity
  8
치수문자_일반주서
 62
     0
370
    -2
100
AcDbLine
 10
442.5191711095308
 20
-27.37538786810732
 30
0.0
 11
442.5191711095308
 21
20.10874693025118
 31
0.0
  0
LINE
  5
356
330
352
100
AcDbEntity
  8
치수문자_일반주서
 62
     0
370
    -2
100
AcDbLine
 10
280.5941711095307
 20
-29.12163786810733
 30
0.0
 11
280.5941711095307
 21
20.10874693025118
 31
0.0
  0
LINE
  5
357
330
352
100
AcDbEntity
  8
치수문자_일반주서
 62
     0
370
    -2
100
AcDbLine
 10
439.2171711095307
 20
20.10874693025118
 30
0.0
 11
283.8961711095308
 21
20.10874693025118
 31
0.0
  0
SOLID
  5
358
330
352
100
AcDbEntity
  8
치수문자_일반주서
 62
     0
100
AcDbTrace
 10
439.2171711095307
 20
19.55841359691784
 30
0.0
 11
439.2171711095307
 21
20.65908026358451
 31
0.0
 12
442.5191711095308
 22
20.10874693025118
 32
0.0
 13
442.5191711095308
 23
20.10874693025118
 33
0.0
  0
SOLID
  5
359
330
352
100
AcDbEntity
  8
치수문자_일반주서
 62
     0
100
AcDbTrace
 10
283.8961711095308
 20
20.65908026358451
 30
0.0
 11
283.8961711095308
 21
19.55841359691784
 31
0.0
 12
280.5941711095307
 22
20.10874693025118
 32
0.0
 13
280.5941711095307
 23
20.10874693025118
 33
0.0
  0
MTEXT
  5
35A
330
352
100
AcDbEntity
  8
치수문자_일반주서
 62
     0
100
AcDbMText
 10
357.425162565521
 20
24.48374693025118
 30
0.0
 40
3.5
 41
0.0
 71
     2
 72
     1
  1
\A1;161.93 [6 3/8]
  7
SLDTEXTSTYLE0
 73
     1
 44
1.0
  0
POINT
  5
35B
330
352
100
AcDbEntity
  8
Defpoints
 62
     0
100
AcDbPoint
 10
442.5191711095308
 20
-27.43788786810732
 30
0.0
  0
POINT
  5
35C
330
352
100
AcDbEntity
  8
Defpoints
 62
     0
100
AcDbPoint
 10
280.5941711095307
 20
-29.18413786810733
 30
0.0
  0
POINT
  5
35D
330
352
100
AcDbEntity
  8
Defpoints
 62
     0
100
AcDbPoint
 10
280.5941711095307
 20
20.10874693025118
 30
0.0
  0
ENDBLK
  5
354
330
352
100
AcDbEntity
  8
0
100
AcDbBlockEnd
  0
ENDSEC
  0
SECTION
  2
ENTITIES
  0
LINE
  5
96
330
1F
100
AcDbEntity
  8
0
  6
Continuous
 62
     1
370
    15
100
AcDbLine
 10
76.51877347296856
 20
3.534168057625684
 30
0.0
 11
76.44901602314319
 21
3.571877068271523
 31
0.0
  0
LINE
  5
97
330
1F
100
AcDbEntity
  8
0
  6
Continuous
 62
     1
370
    15
100
AcDbLine
 10
57.59639610294003
 20
11.90625
 30
0.0
 11
50.33952076933559
 21
11.90625
 31
0.0
  0
LINE
  5
98
330
1F
100
AcDbEntity
  8
0
  6
Continuous
 62
     1
370
    15
100
AcDbLine
 10
50.33952076933545
 20
-11.90625000000001
 30
0.0
 11
57.59639610294003
 21
-11.90625000000001
 31
0.0
  0
LINE
  5
99
330
1F
100
AcDbEntity
  8
외형선
  6
Continuous
370
    15
100
AcDbLine
 10
29.37518467149218
 20
-12.70000000000002
 30
0.0
 11
32.33750000000001
 21
-11.90625000000001
 31
0.0
  0
LINE
  5
9A
330
1F
100
AcDbEntity
  8
외형선
  6
Continuous
370
    15
100
AcDbLine
 10
32.33750000000001
 20
11.90624999999999
 30
0.0
 11
29.37518467149218
 21
12.70000000000001
 31
0.0
  0
LINE
  5
9B
330
1F
100
AcDbEntity
  8
외형선
  6
Continuous
370
    15
100
AcDbLine
 10
-29.37518467149218
 20
-12.70000000000001
 30
0.0
 11
29.37518467149218
 21
-12.70000000000001
 31
0.0
  0
LINE
  5
9C
330
1F
100
AcDbEntity
  8
외형선
  6
Continuous
370
    15
100
AcDbLine
 10
29.37518467149218
 20
12.7
 30
0.0
 11
8.458200000000023
 21
12.7
 31
0.0
  0
LINE
  5
9F
330
1F
100
AcDbEntity
  8
외형선
  6
Continuous
370
    15
100
AcDbLine
 10
32.33750000000001
 20
-11.90625000000001
 30
0.0
 11
32.837611243482
 21
-11.90625000000001
 31
0.0
  0
LINE
  5
A0
330
1F
100
AcDbEntity
  8
외형선
  6
Continuous
370
    15
100
AcDbLine
 10
32.837611243482
 20
11.90624999999999
 30
0.0
 11
32.33750000000001
 21
11.90624999999999
 31
0.0
  0
LINE
  5
A1
330
1F
100
AcDbEntity
  8
0
  6
Continuous
 62
     1
370
    15
100
AcDbLine
 10
80.96249999999999
 20
-10.78326856457623
 30
0.0
 11
80.96249999999999
 21
1.020143564576362
 31
0.0
  0
SPLINE
  5
A2
330
1F
100
AcDbEntity
  8
0
  6
Continuous
 62
     1
370
    15
100
AcDbSpline
210
0.0
220
0.0
230
1.0
 70
     8
 71
     3
 72
    56
 73
    52
 74
     0
 42
0.000000001
 43
0.00000001
 40
0.0
 40
0.0
 40
0.0
 40
0.0
 40
0.0625000000000021
 40
0.0625000000000021
 40
0.0937500000000032
 40
0.0937500000000032
 40
0.1250000000000042
 40
0.1250000000000042
 40
0.1875000000000064
 40
0.1875000000000064
 40
0.2187500000000068
 40
0.2187500000000068
 40
0.2500000000000072
 40
0.2500000000000072
 40
0.2812500000000075
 40
0.2812500000000075
 40
0.3125000000000079
 40
0.3125000000000079
 40
0.3750000000000074
 40
0.3750000000000074
 40
0.4375000000000069
 40
0.4375000000000069
 40
0.4687500000000066
 40
0.4687500000000066
 40
0.5000000000000063
 40
0.5000000000000063
 40
0.5625000000000058
 40
0.5625000000000058
 40
0.5937500000000056
 40
0.5937500000000056
 40
0.6250000000000052
 40
0.6250000000000052
 40
0.656250000000005
 40
0.656250000000005
 40
0.6875000000000047
 40
0.6875000000000047
 40
0.7500000000000028
 40
0.7500000000000028
 40
0.7812500000000026
 40
0.7812500000000026
 40
0.8125000000000023
 40
0.8125000000000023
 40
0.843750000000002
 40
0.843750000000002
 40
0.8750000000000018
 40
0.8750000000000018
 40
0.9375000000000012
 40
0.9375000000000012
 40
0.9687500000000006
 40
0.9687500000000006
 40
1.0
 40
1.0
 40
1.0
 40
1.0
 10
80.96249999999999
 20
-10.78326856457623
 30
0.0
 10
79.97406089435687
 20
-10.5407094304659
 30
0.0
 10
78.97625041041142
 20
-10.25984437662531
 30
0.0
 10
77.48873391844535
 20
-9.787459903743786
 30
0.0
 10
76.99512189705567
 20
-9.621618972160668
 30
0.0
 10
76.00254543548247
 20
-9.272932839329924
 30
0.0
 10
75.50503835467023
 20
-9.090233340948712
 30
0.0
 10
74.01468809030473
 20
-8.519181955029257
 30
0.0
 10
73.026794854238
 20
-8.108302187281746
 30
0.0
 10
71.53564777631479
 20
-7.450649255314734
 30
0.0
 10
71.03851113869014
 20
-7.224743881912262
 30
0.0
 10
70.04793804874915
 20
-6.761365778228261
 30
0.0
 10
69.55367957956618
 20
-6.523779105851106
 30
0.0
 10
68.56041071250523
 20
-6.03692876142189
 30
0.0
 10
68.06287443010925
 20
-5.787893597541538
 30
0.0
 10
67.06988394427725
 20
-5.280551147426841
 30
0.0
 10
66.57598871401589
 20
-5.022523248427472
 30
0.0
 10
65.08936411327866
 20
-4.235200281763829
 30
0.0
 10
64.09143570400643
 20
-3.692518932285437
 30
0.0
 10
62.11290867806942
 20
-2.588478045317713
 30
0.0
 10
61.11687742472034
 20
-2.024277765033834
 30
0.0
 10
59.62856625503154
 20
-1.171443288689828
 30
0.0
 10
59.13503383936217
 20
-0.8863946708643671
 30
0.0
 10
58.14293640748862
 20
-0.3142903071077953
 30
0.0
 10
57.64549129774493
 20
-0.0274482144774077
 30
0.0
 10
56.15479190282362
 20
0.8320887768599646
 30
0.0
 10
55.16711862839179
 20
1.403035879005055
 30
0.0
 10
53.67606955820025
 20
2.251012505471139
 30
0.0
 10
53.17878701454408
 20
2.532008243942348
 30
0.0
 10
52.18756874609331
 20
3.088491713166774
 30
0.0
 10
51.69375264206913
 20
3.363964319466224
 30
0.0
 10
50.70084690777551
 20
3.909568575315172
 30
0.0
 10
50.20331419970056
 20
4.179405494452912
 30
0.0
 10
49.20997478561114
 20
4.711038416895417
 30
0.0
 10
48.71559280512454
 20
4.972588156934843
 30
0.0
 10
47.22995711437454
 20
5.744076162554268
 30
0.0
 10
46.23197695444547
 20
6.241466408994967
 30
0.0
 10
44.74694149769101
 20
6.950564248789291
 30
0.0
 10
44.25219539890595
 20
7.181071738366767
 30
0.0
 10
43.25868798561898
 20
7.629831220272423
 30
0.0
 10
42.76117174143799
 20
7.84788278546891
 30
0.0
 10
41.76849943459496
 20
8.26963791615018
 30
0.0
 10
41.27484300412267
 20
8.473149941380468
 30
0.0
 10
40.28328950266861
 20
8.865713491148007
 30
0.0
 10
39.78593911985487
 20
9.05467030061208
 30
0.0
 10
38.29498850404657
 20
9.597296352139166
 30
0.0
 10
37.3073636035457
 20
9.926204622514677
 30
0.0
 10
35.81651052734634
 20
10.36726033720291
 30
0.0
 10
35.31911479779224
 20
10.50542866262644
 30
0.0
 10
34.3273160595174
 20
10.76302435068643
 30
0.0
 10
33.83373876203332
 20
10.88240891195547
 30
0.0
 10
33.33750000000001
 20
10.99246307791568
 30
0.0
  0
SPLINE
  5
A3
330
1F
100
AcDbEntity
  8
0
  6
Continuous
 62
     1
370
    15
100
AcDbSpline
210
0.0
220
0.0
230
1.0
 70
     8
 71
     3
 72
    19
 73
    15
 74
     0
 42
0.000000001
 43
0.00000001
 40
0.0
 40
0.0
 40
0.0
 40
0.0
 40
0.08821955958896
 40
0.1764439190024722
 40
0.2646724461857956
 40
0.3529045069878787
 40
0.4411394654782377
 40
0.5293766842657514
 40
0.617615524819068
 40
0.6984964410010422
 40
0.7793776914001911
 40
0.8602593587684848
 40
0.9411415258044586
 40
1.0
 40
1.0
 40
1.0
 40
1.0
 10
80.96249999999999
 20
1.020143564576364
 30
0.0
 10
79.69269043819953
 20
1.747299661416044
 30
0.0
 10
77.15300222716334
 20
3.201651417996231
 30
0.0
 10
73.34332160619977
 20
5.264867827531661
 30
0.0
 10
69.5334276658427
 20
7.151425805890991
 30
0.0
 10
65.72335266061646
 20
8.79392326182685
 30
0.0
 10
61.91311694554585
 20
10.13730268480006
 30
0.0
 10
58.10280447516067
 20
11.13553029186563
 30
0.0
 10
54.39818757992641
 20
11.73769619532026
 30
0.0
 10
50.79996056960769
 20
11.95987108656855
 30
0.0
 10
47.30749601015954
 20
11.8359209650692
 30
0.0
 10
43.81504327097807
 20
11.36351648030237
 30
0.0
 10
40.63955846752279
 20
10.67153828137132
 30
0.0
 10
38.62822588057369
 20
10.01454304592707
 30
0.0
 10
37.78105668108884
 20
9.737817987481668
 30
0.0
  0
SPLINE
  5
A4
330
1F
100
AcDbEntity
  8
0
  6
Continuous
 62
     1
370
    15
100
AcDbSpline
210
0.0
220
0.0
230
1.0
 70
     8
 71
     3
 72
    17
 73
    13
 74
     0
 42
0.000000001
 43
0.00000001
 40
0.0
 40
0.0
 40
0.0
 40
0.0
 40
0.103400383183564
 40
0.2067965990295967
 40
0.3101879044469726
 40
0.4135735667213191
 40
0.5169596437063352
 40
0.620351319615042
 40
0.7237478536398274
 40
0.8185391141585544
 40
0.9133315240872509
 40
1.0
 40
1.0
 40
1.0
 40
1.0
 10
33.33750000000001
 20
-4.574335420928548
 30
0.0
 10
34.6075286214336
 20
-5.23623767225454
 30
0.0
 10
37.14753467843694
 20
-6.560015498312017
 30
0.0
 10
40.95741936055811
 20
-8.280692324640508
 30
0.0
 10
44.76709309092554
 20
-9.730678119762956
 30
0.0
 10
48.57658442998238
 20
-10.84645661162163
 30
0.0
 10
52.38609265591801
 20
-11.59400645768863
 30
0.0
 10
56.19576124360569
 20
-11.94620013258552
 30
0.0
 10
59.89998941311526
 20
-11.89528603922651
 30
0.0
 10
63.49830264563835
 20
-11.47267620829659
 30
0.0
 10
66.8912458011622
 20
-10.77926719586095
 30
0.0
 10
69.11995343739629
 20
-10.07938075114551
 30
0.0
 10
70.18441806398411
 20
-9.745104352161759
 30
0.0
  0
SPLINE
  5
A5
330
1F
100
AcDbEntity
  8
외형선
  6
Continuous
370
    15
100
AcDbSpline
210
0.0
220
0.0
230
1.0
 70
    24
 71
     3
 72
    30
 73
    26
 74
     0
 42
0.000000001
 43
0.00000001
 40
0.0
 40
0.0
 40
0.0
 40
0.0
 40
0.1250000000000001
 40
0.1250000000000001
 40
0.25
 40
0.25
 40
0.375
 40
0.375
 40
0.4999999999999999
 40
0.4999999999999999
 40
0.5625
 40
0.5625
 40
0.625
 40
0.625
 40
0.6875
 40
0.6875
 40
0.75
 40
0.75
 40
0.8125
 40
0.8125
 40
0.875
 40
0.875
 40
0.9375
 40
0.9375
 40
1.0
 40
1.0
 40
1.0
 40
1.0
 10
33.33750000000005
 20
8.741132333813512
 30
0.0
 10
33.33750000000003
 20
8.45551460543032
 30
0.0
 10
33.33749999999996
 20
8.139163071136485
 30
0.0
 10
33.33750000000001
 20
7.502410781292617
 30
0.0
 10
33.33750000000001
 20
7.117502075960632
 30
0.0
 10
33.33750000000001
 20
6.175559132032055
 30
0.0
 10
33.33750000000002
 20
5.617226191551119
 30
0.0
 10
33.33750000000002
 20
4.313266267115039
 30
0.0
 10
33.33750000000002
 20
3.565884426509443
 30
0.0
 10
33.33749999999999
 20
2.348184226065414
 30
0.0
 10
33.33749999999998
 20
1.926971181043931
 30
0.0
 10
33.33749999999999
 20
1.071745371348172
 30
0.0
 10
33.33750000000002
 20
0.6378038823472126
 30
0.0
 10
33.33750000000001
 20
-0.2190725752545839
 30
0.0
 10
33.33750000000002
 20
-0.6418660992211378
 30
0.0
 10
33.33750000000005
 20
-1.449888641429784
 30
0.0
 10
33.33750000000002
 20
-1.834944973000778
 30
0.0
 10
33.33750000000003
 20
-2.543085098903881
 30
0.0
 10
33.33750000000001
 20
-2.866030892108412
 30
0.0
 10
33.33750000000002
 20
-3.432615672503407
 30
0.0
 10
33.33750000000001
 20
-3.676205058018336
 30
0.0
 10
33.33750000000001
 20
-4.076804152068446
 30
0.0
 10
33.33749999999998
 20
-4.233860469169723
 30
0.0
 10
33.33750000000001
 20
-4.464207176942286
 30
0.0
 10
33.33750000000002
 20
-4.537604075116689
 30
0.0
 10
33.33750000000001
 20
-4.574335420928538
 30
0.0
  0
SPLINE
  5
A6
330
1F
100
AcDbEntity
  8
0
  6
Continuous
 62
     1
370
    15
100
AcDbSpline
210
0.0
220
0.0
230
1.0
 70
     8
 71
     3
 72
    56
 73
    52
 74
     0
 42
0.000000001
 43
0.00000001
 40
0.0
 40
0.0
 40
0.0
 40
0.0
 40
0.0624999999999983
 40
0.0624999999999983
 40
0.0937499999999981
 40
0.0937499999999981
 40
0.1249999999999979
 40
0.1249999999999979
 40
0.1874999999999974
 40
0.1874999999999974
 40
0.2187499999999979
 40
0.2187499999999979
 40
0.2499999999999983
 40
0.2499999999999983
 40
0.2812499999999988
 40
0.2812499999999988
 40
0.3124999999999993
 40
0.3124999999999993
 40
0.3750000000000002
 40
0.3750000000000002
 40
0.4375000000000011
 40
0.4375000000000011
 40
0.4687500000000015
 40
0.4687500000000015
 40
0.500000000000002
 40
0.500000000000002
 40
0.5625000000000028
 40
0.5625000000000028
 40
0.5937500000000027
 40
0.5937500000000027
 40
0.6250000000000024
 40
0.6250000000000024
 40
0.6562500000000022
 40
0.6562500000000022
 40
0.687500000000002
 40
0.687500000000002
 40
0.7500000000000017
 40
0.7500000000000017
 40
0.7812500000000008
 40
0.7812500000000008
 40
0.8125000000000006
 40
0.8125000000000006
 40
0.8437500000000004
 40
0.8437500000000004
 40
0.8750000000000002
 40
0.8750000000000002
 40
0.9375000000000003
 40
0.9375000000000003
 40
0.9687500000000002
 40
0.9687500000000002
 40
1.0
 40
1.0
 40
1.0
 40
1.0
 10
80.9625
 20
-11.90624999999999
 30
0.0
 10
79.97406089435692
 20
-11.81344510002763
 30
0.0
 10
78.97625041041142
 20
-11.72296910871723
 30
0.0
 10
77.48873391844529
 20
-11.52698267604495
 30
0.0
 10
76.9951218970557
 20
-11.45170958250436
 30
0.0
 10
76.00254543548243
 20
-11.28115232215843
 30
0.0
 10
75.50503835467025
 20
-11.18592146886675
 30
0.0
 10
74.01468809030465
 20
-10.87145867455525
 30
0.0
 10
73.02679485423799
 20
-10.62373831317768
 30
0.0
 10
71.5356477763147
 20
-10.19739652413023
 30
0.0
 10
71.03851113869014
 20
-10.04627575550929
 30
0.0
 10
70.04793804874906
 20
-9.727262174035335
 30
0.0
 10
69.55367957956622
 20
-9.559301450996543
 30
0.0
 10
68.56041071250526
 20
-9.206532423655972
 30
0.0
 10
68.06287443010919
 20
-9.021879644170916
 30
0.0
 10
67.06988394427722
 20
-8.637484138863808
 30
0.0
 10
66.57598871401595
 20
-8.43796425604918
 30
0.0
 10
65.08936411327863
 20
-7.817330119405729
 30
0.0
 10
64.09143570400651
 20
-7.373921815685977
 30
0.0
 10
62.11290867806945
 20
-6.44168119218895
 30
0.0
 10
61.11687742472034
 20
-5.950466423919678
 30
0.0
 10
59.62856625503143
 20
-5.186155811457659
 30
0.0
 10
59.13503383936208
 20
-4.927111018232887
 30
0.0
 10
58.14293640748856
 20
-4.40004936658776
 30
0.0
 10
57.64549129774495
 20
-4.132218105834256
 30
0.0
 10
56.15479190282362
 20
-3.318941104164847
 30
0.0
 10
55.16711862839179
 20
-2.764463505002094
 30
0.0
 10
53.67606955820028
 20
-1.919476691038599
 30
0.0
 10
53.17878701454408
 20
-1.635849049364681
 30
0.0
 10
52.18756874609325
 20
-1.066885795526223
 30
0.0
 10
51.69375264206916
 20
-0.7815761080714819
 30
0.0
 10
50.70084690777561
 20
-0.2090836863472185
 30
0.0
 10
50.20331419970061
 20
0.0778004780210974
 30
0.0
 10
49.20997478561119
 20
0.6506041886252546
 30
0.0
 10
48.71559280512449
 20
0.9362496885035552
 30
0.0
 10
47.22995711437457
 20
1.79048845948566
 30
0.0
 10
46.23197695444539
 20
2.357160754822579
 30
0.0
 10
44.74694149769098
 20
3.189730379624534
 30
0.0
 10
44.2521953989059
 20
3.464681589820416
 30
0.0
 10
43.25868798561895
 20
4.008828639042051
 30
0.0
 10
42.76117174143796
 20
4.277790049024039
 30
0.0
 10
41.76849943459499
 20
4.807394153602783
 30
0.0
 10
41.27484300412267
 20
5.067781705267408
 30
0.0
 10
40.28328950266861
 20
5.580062716421923
 30
0.0
 10
39.78593911985486
 20
5.831848271784945
 30
0.0
 10
38.2949885040466
 20
6.571155407538082
 30
0.0
 10
37.30736360354567
 20
7.04186960657707
 30
0.0
 10
35.81651052734632
 20
7.710347607826414
 30
0.0
 10
35.31911479779228
 20
7.926723904440307
 30
0.0
 10
34.32731605951737
 20
8.34491636473581
 30
0.0
 10
33.83373876203332
 20
8.546638467388838
 30
0.0
 10
33.33750000000003
 20
8.7411323338135
 30
0.0
  0
LINE
  5
A7
330
1F
100
AcDbEntity
  8
0
  6
Continuous
 62
     1
370
    15
100
AcDbLine
 10
80.9625
 20
-11.90624999999999
 30
0.0
 11
80.96249999999999
 21
-10.78326856457623
 31
0.0
  0
LINE
  5
A8
330
1F
100
AcDbEntity
  8
외형선
  6
Continuous
370
    15
100
AcDbLine
 10
33.33750000000005
 20
8.741132333813509
 30
0.0
 11
33.33750000000001
 21
10.99246307791568
 31
0.0
  0
SPLINE
  5
A9
330
1F
100
AcDbEntity
  8
0
  6
Continuous
 62
     1
370
    15
100
AcDbSpline
210
0.0
220
0.0
230
1.0
 70
     8
 71
     3
 72
    14
 73
    10
 74
     0
 42
0.000000001
 43
0.00000001
 40
0.0
 40
0.0
 40
0.0
 40
0.0
 40
0.1031046571862688
 40
0.252582178235663
 40
0.4020615118039747
 40
0.5515428095217553
 40
0.701026222768722
 40
0.8505119026545875
 40
1.0
 40
1.0
 40
1.0
 40
1.0
 10
57.59639610294003
 20
11.85904954646124
 30
0.0
 10
58.39948280826101
 20
11.86221440964327
 30
0.0
 10
60.36685649319173
 20
11.86996758062653
 30
0.0
 10
63.49830103018274
 20
11.46757495076769
 30
0.0
 10
66.99104070102254
 20
10.74577156844113
 30
0.0
 10
70.48381299417841
 20
9.70238311089407
 30
0.0
 10
73.97665081749196
 20
8.382541206948645
 30
0.0
 10
77.4695497216699
 20
6.832125110481374
 30
0.0
 10
79.7981769642401
 20
5.642553366571094
 30
0.0
 10
80.96249999999999
 20
5.047762685261776
 30
0.0
  0
LINE
  5
AA
330
1F
100
AcDbEntity
  8
0
  6
Continuous
 62
     1
370
    15
100
AcDbLine
 10
80.96249999999999
 20
1.020143564576364
 30
0.0
 11
80.96249999999999
 21
5.047762685261777
 31
0.0
  0
SPLINE
  5
AB
330
1F
100
AcDbEntity
  8
0
  6
Continuous
 62
     1
370
    15
100
AcDbSpline
210
0.0
220
0.0
230
1.0
 70
     8
 71
     3
 72
    12
 73
     8
 74
     0
 42
0.000000001
 43
0.00000001
 40
0.0
 40
0.0
 40
0.0
 40
0.0
 40
0.1783330065274618
 40
0.3837476415725453
 40
0.5891635456203276
 40
0.7945809285371624
 40
1.0
 40
1.0
 40
1.0
 40
1.0
 10
50.33952076933545
 20
-11.88673773730414
 30
0.0
 10
49.32884970273093
 20
-11.86977881648865
 30
0.0
 10
47.15402718519903
 20
-11.83328559522085
 30
0.0
 10
43.8150418511449
 20
-11.36482055740729
 30
0.0
 10
40.32255622512507
 20
-10.57834543833526
 30
0.0
 10
36.83004081262526
 20
-9.49694086620217
 30
0.0
 10
34.50168346074011
 20
-8.554995540314634
 30
0.0
 10
33.33750000000002
 20
-8.084020941663848
 30
0.0
  0
LINE
  5
AC
330
1F
100
AcDbEntity
  8
외형선
  6
Continuous
370
    15
100
AcDbLine
 10
33.33750000000005
 20
-8.084020941663844
 30
0.0
 11
33.33750000000001
 21
-4.574335420928562
 31
0.0
  0
SPLINE
  5
AD
330
1F
100
AcDbEntity
  8
0
  6
Continuous
 62
     1
370
    15
100
AcDbSpline
210
0.0
220
0.0
230
1.0
 70
     8
 71
     3
 72
    10
 73
     6
 74
     0
 42
0.000000001
 43
0.00000001
 40
0.0
 40
0.0
 40
0.0
 40
0.0
 40
0.3534464648700787
 40
0.7069121599542723
 40
1.0
 40
1.0
 40
1.0
 40
1.0
 10
80.9625
 20
11.90625000000001
 30
0.0
 10
79.6926902756089
 20
11.75873854682662
 30
0.0
 10
77.15300173938272
 20
11.55127828614594
 30
0.0
 10
73.56030299224693
 20
10.81596739449644
 30
0.0
 10
71.23740577611255
 20
10.07912214272998
 30
0.0
 10
70.18441806398411
 20
9.745104352161745
 30
0.0
  0
LINE
  5
AE
330
1F
100
AcDbEntity
  8
0
  6
Continuous
 62
     1
370
    15
100
AcDbLine
 10
80.96249999999999
 20
5.028979397248917
 30
0.0
 11
80.9625
 21
11.90625000000001
 31
0.0
  0
SPLINE
  5
AF
330
1F
100
AcDbEntity
  8
0
  6
Continuous
 62
     1
370
    15
100
AcDbSpline
210
0.0
220
0.0
230
1.0
 70
     8
 71
     3
 72
     9
 73
     5
 74
     0
 42
0.000000001
 43
0.00000001
 40
0.0
 40
0.0
 40
0.0
 40
0.0
 40
0.8574381617762187
 40
1.0
 40
1.0
 40
1.0
 40
1.0
 10
33.33750000000001
 20
-10.99246307791567
 30
0.0
 10
34.60753086839468
 20
-10.69846645101381
 30
0.0
 10
36.08872324472156
 20
-10.35558851531191
 30
0.0
 10
37.5698977245187
 20
-9.81489959400976
 30
0.0
 10
37.7810566810887
 20
-9.737817987481687
 30
0.0
  0
SPLINE
  5
B0
330
1F
100
AcDbEntity
  8
외형선
  6
Continuous
370
    15
100
AcDbSpline
210
0.0
220
0.0
230
1.0
 70
    24
 71
     3
 72
    11
 73
     7
 74
     0
 42
0.000000001
 43
0.00000001
 40
0.0
 40
0.0
 40
0.0
 40
0.0
 40
0.0857718234666484
 40
0.4880043248185091
 40
0.9019015959587401
 40
1.0
 40
1.0
 40
1.0
 40
1.0
 10
33.33750000000001
 20
-8.1972313916355
 30
0.0
 10
33.33750000000001
 20
-8.268451138176715
 30
0.0
 10
33.33749999999999
 20
-8.673660482223193
 30
0.0
 10
33.33749999999985
 20
-9.51904740728593
 30
0.0
 10
33.33750000000001
 20
-10.39547133588024
 30
0.0
 10
33.33750000000001
 20
-10.89647142824404
 30
0.0
 10
33.33750000000001
 20
-10.99246307791567
 30
0.0
  0
LINE
  5
B1
330
1F
100
AcDbEntity
  8
외형선
  6
Continuous
370
    15
100
AcDbLine
 10
32.33750000000001
 20
-0.0000000000000066
 30
0.0
 11
32.33750000000001
 21
11.90624999999999
 31
0.0
  0
LINE
  5
B2
330
1F
100
AcDbEntity
  8
외형선
  6
Continuous
370
    15
100
AcDbLine
 10
32.33750000000001
 20
-11.90624999999998
 30
0.0
 11
32.33750000000001
 21
-0.0000000000000066
 31
0.0
  0
LINE
  5
B3
330
1F
100
AcDbEntity
  8
외형선
  6
Continuous
370
    15
100
AcDbLine
 10
29.37518467149218
 20
-0.0000000000000066
 30
0.0
 11
29.37518467149218
 21
12.70000000000001
 31
0.0
  0
LINE
  5
B4
330
1F
100
AcDbEntity
  8
외형선
  6
Continuous
370
    15
100
AcDbLine
 10
29.37518467149218
 20
-12.70000000000002
 30
0.0
 11
29.37518467149218
 21
-0.0000000000000066
 31
0.0
  0
LINE
  5
B9
330
1F
100
AcDbEntity
  8
외형선
  6
Continuous
370
    15
100
AcDbLine
 10
32.837611243482
 20
11.10001688300621
 30
0.0
 11
32.837611243482
 21
11.90624999999999
 31
0.0
  0
SPLINE
  5
BA
330
1F
100
AcDbEntity
  8
외형선
  6
Continuous
370
    15
100
AcDbSpline
210
0.0
220
0.0
230
1.0
 70
     8
 71
     3
 72
     8
 73
     4
 74
     0
 42
0.000000001
 43
0.00000001
 40
0.0
 40
0.0
 40
0.0
 40
0.0
 40
1.0
 40
1.0
 40
1.0
 40
1.0
 10
33.33750000000001
 20
10.99246307791568
 30
0.0
 10
33.17098751223355
 20
11.02939165819831
 30
0.0
 10
33.00433351773391
 20
11.06525591760772
 30
0.0
 10
32.83761124348199
 20
11.10003871878137
 30
0.0
  0
SPLINE
  5
BB
330
1F
100
AcDbEntity
  8
외형선
  6
Continuous
370
    15
100
AcDbSpline
210
0.0
220
0.0
230
1.0
 70
     8
 71
     3
 72
     8
 73
     4
 74
     0
 42
0.000000001
 43
0.00000001
 40
0.0
 40
0.0
 40
0.0
 40
0.0
 40
1.0
 40
1.0
 40
1.0
 40
1.0
 10
33.33750000000005
 20
8.7411323338135
 30
0.0
 10
33.17098751223359
 20
8.806394582616862
 30
0.0
 10
33.00433351773393
 20
8.870820656619356
 30
0.0
 10
32.83761124348199
 20
8.934381125319131
 30
0.0
  0
LINE
  5
BC
330
1F
100
AcDbEntity
  8
외형선
  6
Continuous
370
    15
100
AcDbLine
 10
32.837611243482
 20
-4.306786999548267
 30
0.0
 11
32.837611243482
 21
8.934402721629946
 31
0.0
  0
SPLINE
  5
BD
330
1F
100
AcDbEntity
  8
외형선
  6
Continuous
370
    15
100
AcDbSpline
210
0.0
220
0.0
230
1.0
 70
     8
 71
     3
 72
     8
 73
     4
 74
     0
 42
0.000000001
 43
0.00000001
 40
0.0
 40
0.0
 40
0.0
 40
0.0
 40
1.0
 40
1.0
 40
1.0
 40
1.0
 10
33.33750000000001
 20
-4.574335420928555
 30
0.0
 10
33.17098751223355
 20
-4.485593337560689
 30
0.0
 10
33.00433351773391
 20
-4.396378870653034
 30
0.0
 10
32.83761124348199
 20
-4.306730721098716
 30
0.0
  0
SPLINE
  5
BE
330
1F
100
AcDbEntity
  8
외형선
  6
Continuous
370
    15
100
AcDbSpline
210
0.0
220
0.0
230
1.0
 70
     8
 71
     3
 72
     8
 73
     4
 74
     0
 42
0.000000001
 43
0.00000001
 40
0.0
 40
0.0
 40
0.0
 40
0.0
 40
1.0
 40
1.0
 40
1.0
 40
1.0
 10
33.33750000000005
 20
-8.084020941663853
 30
0.0
 10
33.17098751223359
 20
-8.013453836839528
 30
0.0
 10
33.00433351773393
 20
-7.942076339004228
 30
0.0
 10
32.83761124348199
 20
-7.869918866801661
 30
0.0
  0
LINE
  5
BF
330
1F
100
AcDbEntity
  8
외형선
  6
Continuous
370
    15
100
AcDbLine
 10
32.837611243482
 20
-11.90625000000001
 30
0.0
 11
32.837611243482
 21
-7.869894349369051
 31
0.0
  0
SPLINE
  5
C0
330
1F
100
AcDbEntity
  8
외형선
  6
Continuous
370
    15
100
AcDbSpline
210
0.0
220
0.0
230
1.0
 70
     8
 71
     3
 72
     8
 73
     4
 74
     0
 42
0.000000001
 43
0.00000001
 40
0.0
 40
0.0
 40
0.0
 40
0.0
 40
1.0
 40
1.0
 40
1.0
 40
1.0
 10
33.33750000000001
 20
-10.99246307791566
 30
0.0
 10
33.17098751223355
 20
-11.02939165819829
 30
0.0
 10
33.00433351773391
 20
-11.0652559176077
 30
0.0
 10
32.83761124348199
 20
-11.10003871878136
 30
0.0
  0
SPLINE
  5
C1
330
1F
100
AcDbEntity
  8
외형선
  6
Continuous
370
    15
100
AcDbSpline
210
0.0
220
0.0
230
1.0
 70
    24
 71
     3
 72
    30
 73
    26
 74
     0
 42
0.000000001
 43
0.00000001
 40
0.0
 40
0.0
 40
0.0
 40
0.0
 40
0.0625
 40
0.0625
 40
0.1249999999999999
 40
0.1249999999999999
 40
0.1874999999999999
 40
0.1874999999999999
 40
0.2499999999999998
 40
0.2499999999999998
 40
0.3124999999999998
 40
0.3124999999999998
 40
0.3749999999999998
 40
0.3749999999999998
 40
0.4374999999999997
 40
0.4374999999999997
 40
0.4999999999999997
 40
0.4999999999999997
 40
0.6249999999999997
 40
0.6249999999999997
 40
0.7499999999999997
 40
0.7499999999999997
 40
0.8749999999999998
 40
0.8749999999999998
 40
1.0
 40
1.0
 40
1.0
 40
1.0
 10
33.33750000000001
 20
-4.574335420928522
 30
0.0
 10
33.33750000000003
 20
-4.537604075116661
 30
0.0
 10
33.33750000000001
 20
-4.464207176942246
 30
0.0
 10
33.33749999999998
 20
-4.233860469169664
 30
0.0
 10
33.33750000000001
 20
-4.076804152068374
 30
0.0
 10
33.33749999999999
 20
-3.676205058018243
 30
0.0
 10
33.33750000000001
 20
-3.43261567250331
 30
0.0
 10
33.33750000000002
 20
-2.866030892108303
 30
0.0
 10
33.33750000000001
 20
-2.543085098903757
 30
0.0
 10
33.33750000000001
 20
-1.834944973000646
 30
0.0
 10
33.33750000000002
 20
-1.449888641429654
 30
0.0
 10
33.33750000000001
 20
-0.6418660992210069
 30
0.0
 10
33.33750000000001
 20
-0.2190725752544481
 30
0.0
 10
33.33750000000002
 20
0.6378038823473418
 30
0.0
 10
33.33750000000001
 20
1.071745371348288
 30
0.0
 10
33.33749999999999
 20
1.926971181044037
 30
0.0
 10
33.33750000000003
 20
2.348184226065515
 30
0.0
 10
33.33750000000001
 20
3.565884426509519
 30
0.0
 10
33.33750000000002
 20
4.313266267115109
 30
0.0
 10
33.33750000000002
 20
5.617226191551167
 30
0.0
 10
33.33750000000001
 20
6.175559132032085
 30
0.0
 10
33.33749999999996
 20
7.117502075960643
 30
0.0
 10
33.33750000000001
 20
7.502410781292628
 30
0.0
 10
33.33750000000001
 20
8.139163071136494
 30
0.0
 10
33.33750000000006
 20
8.455514605430325
 30
0.0
 10
33.33750000000005
 20
8.741132333813512
 30
0.0
  0
SPLINE
  5
C2
330
1F
100
AcDbEntity
  8
외형선
  6
Continuous
370
    15
100
AcDbSpline
210
0.0
220
0.0
230
1.0
 70
    24
 71
     3
 72
    11
 73
     7
 74
     0
 42
0.000000001
 43
0.00000001
 40
0.0
 40
0.0
 40
0.0
 40
0.0
 40
0.2682100717697014
 40
0.539777665643006
 40
0.9422571998772545
 40
1.0
 40
1.0
 40
1.0
 40
1.0
 10
33.33750000000001
 20
-10.99246307791567
 30
0.0
 10
33.33750000000003
 20
-10.73031632600604
 30
0.0
 10
33.33750000000008
 20
-10.20274120226806
 30
0.0
 10
33.33749999999992
 20
-9.310932333510268
 30
0.0
 10
33.33750000000009
 20
-8.624831279894522
 30
0.0
 10
33.33750000000003
 20
-8.2448913807228
 30
0.0
 10
33.33750000000003
 20
-8.197221391635502
 30
0.0
  0
LINE
  5
C3
330
1F
100
AcDbEntity
  8
중심선
100
AcDbLine
 10
-83.9625
 20
-0.0000000000000105
 30
0.0
 11
83.96249999999999
 21
0.0000000000000105
 31
0.0
  0
LINE
  5
C4
330
1F
100
AcDbEntity
  8
참조1
100
AcDbLine
 10
41.46838065701561
 20
0.0010749287238892
 30
0.0
 11
41.46838065701562
 21
-39.99892507127611
 31
0.0
  0
LINE
  5
C5
330
1F
100
AcDbEntity
  8
참조1
100
AcDbLine
 10
41.46838065701562
 20
-39.99892507127611
 30
0.0
 11
-29.25297615729306
 21
-39.9989250712761
 31
0.0
  0
CIRCLE
  5
C6
330
1F
100
AcDbEntity
  8
해칭선
100
AcDbCircle
 10
0.0
 20
0.0
 30
0.0
 40
3.000000000000018
  0
INSERT
  5
C7
330
1F
100
AcDbEntity
  8
0
  6
Continuous
 62
     7
100
AcDbBlockReference
 66
     1
  2
블럭10
 10
-13.94027293212521
 20
-52.04717430164394
 30
0.0
  0
ATTRIB
  5
C8
330
C7
100
AcDbEntity
  8
FORMAT
 62
     2
100
AcDbText
 10
-23.12156822086649
 20
-49.97180738881175
 30
0.0
 40
4.233333333333333
  1
E1051060 [ 4 FLUTE ]
 41
0.75
  7
SLDTEXTSTYLE0
 11
-23.12156822086649
 21
-52.08847405547842
 31
0.0
100
AcDbAttribute
  2
AUTOATTR0
 70
     0
 74
     1
  0
SEQEND
  5
C9
330
C7
100
AcDbEntity
  8
0
  6
Continuous
 62
     7
  0
HATCH
  5
CA
330
1F
100
AcDbEntity
  8
중심선
100
AcDbHatch
 10
0.0
 20
0.0
 30
0.0
210
0.0
220
0.0
230
1.0
  2
SOLID
 70
     1
 71
     0
 91
        1
 92
        0
 93
        4
 72
     1
 10
-8.225363627744379
 20
-35.8
 11
-11.67163887158166
 21
-35.8
 72
     1
 10
-11.67163887158166
 20
-35.8
 11
-13.79986873078563
 21
-38.33632558057258
 72
     1
 10
-13.79986873078563
 20
-38.33632558057258
 11
-10.35356040183531
 21
-38.33628615127009
 72
     1
 10
-10.35356040183531
 20
-38.33628615127009
 11
-8.225363627744379
 21
-35.8
 97
        0
 75
     0
 76
     1
 98
        1
 10
-41.46838065701562
 20
-0.0010749287238997
  0
HATCH
  5
CB
330
1F
100
AcDbEntity
  8
중심선
100
AcDbHatch
 10
0.0
 20
0.0
 30
0.0
210
0.0
220
0.0
230
1.0
  2
SOLID
 70
     1
 71
     0
 91
        1
 92
        0
 93
        4
 72
     1
 10
-3.212599636708369
 20
-35.79999999999998
 11
-6.65887488054571
 21
-35.8
 72
     1
 10
-6.65887488054571
 20
-35.8
 11
-11.19001288890312
 21
-41.20000000000002
 72
     1
 10
-11.19001288890312
 20
-41.20000000000002
 11
-7.743737645065842
 21
-41.20000000000002
 72
     1
 10
-7.743737645065842
 20
-41.20000000000002
 11
-3.212599636708369
 21
-35.79999999999998
 97
        0
 75
     0
 76
     1
 98
        1
 10
-41.46838065701562
 20
-0.0010749287238997
  0
HATCH
  5
CC
330
1F
100
AcDbEntity
  8
중심선
100
AcDbHatch
 10
0.0
 20
0.0
 30
0.0
210
0.0
220
0.0
230
1.0
  2
SOLID
 70
     1
 71
     0
 91
        1
 92
        0
 93
        4
 72
     1
 10
1.800164354327528
 20
-35.79999999999998
 11
-1.646110889509643
 21
-35.79999999999998
 72
     1
 10
-1.646110889509643
 20
-35.79999999999998
 11
-8.694547791398925
 21
-44.20000000000002
 72
     1
 10
-8.694547791398925
 20
-44.20000000000002
 11
-5.248272547561641
 21
-44.20000000000002
 72
     1
 10
-5.248272547561641
 20
-44.20000000000002
 11
1.800164354327528
 21
-35.79999999999998
 97
        0
 75
     0
 76
     1
 98
        1
 10
-41.46838065701562
 20
-0.0010749287238997
  0
HATCH
  5
CD
330
1F
100
AcDbEntity
  8
중심선
100
AcDbHatch
 10
0.0
 20
0.0
 30
0.0
210
0.0
220
0.0
230
1.0
  2
SOLID
 70
     1
 71
     0
 91
        1
 92
        0
 93
        6
 72
     3
 10
6.600054785339665
 20
-40.00000000005128
 11
3.960054785062283
 21
1.540882976769353E-10
 40
0.3939339440162628
 50
17.09539180608455
 51
320.0019657685078
 73
     0
 72
     1
 10
8.283054441040292
 20
-38.58789400463828
 11
10.58835631474128
 21
-36.65356729459039
 72
     3
 10
6.600054785286822
 20
-40.00000000000016
 11
6.600054785286829
 21
-1.278976924368180E-13
 40
0.636358354079598
 50
39.99873849337429
 51
368.4976242363724
 73
     1
 72
     1
 10
13.02538727718741
 20
-39.03999999993003
 11
5.280122092122774
 21
-39.03999999993003
 72
     1
 10
5.280122092122774
 20
-39.03999999993003
 11
5.280097047676811
 21
-40.95999999992992
 72
     1
 10
5.280097047676811
 20
-40.95999999992992
 11
9.721476817148819
 21
-40.95999999992989
 97
        0
 75
     0
 76
     1
 98
        1
 10
-41.46838065701562
 20
-0.0010749287238997
  0
DIMENSION
  5
CE
330
1F
100
AcDbEntity
  8
치수문자_일반주서
100
AcDbDimension
  2
_D
 10
117.6937551704443
 20
-11.90624999999985
 30
0.0
 11
117.6937551704442
 21
34.71646585538422
 31
0.0
 70
   160
  1
%%c<>
 71
     2
 42
23.8125
 52
-270.0
  3
SLDDIMSTYLE1
100
AcDbAlignedDimension
 13
80.9625
 23
11.90625000000001
 33
0.0
 14
80.9625
 24
-11.90624999999999
 34
0.0
 50
90.0000000000002
100
AcDbRotatedDimension
1001
ACAD
1000
DSTYLE
1002
{
1070
   171
1070
     6
1070
   273
1070
     7
1002
}
  0
DIMENSION
  5
E2
330
1F
100
AcDbEntity
  8
치수문자_일반주서
100
AcDbDimension
  2
_D_1
 10
33.33750000000001
 20
29.54541812626186
 30
0.0
 11
5.92255825846874
 21
29.54541812626186
 31
0.0
 70
   160
  1
<>
 71
     2
 42
47.625
  3
SLDDIMSTYLE1
100
AcDbAlignedDimension
 13
80.9625
 23
11.90625000000001
 33
0.0
 14
33.33750000000001
 24
10.99246307791568
 34
0.0
100
AcDbRotatedDimension
1001
ACAD
1000
DSTYLE
1002
{
1070
   171
1070
     6
1070
   273
1070
     7
1002
}
  0
DIMENSION
  5
F6
330
1F
100
AcDbEntity
  8
치수문자_일반주서
100
AcDbDimension
  2
_D_2
 10
-80.96250000000006
 20
59.4528847983585
 30
0.0
 11
-4.131508544009797
 21
59.4528847983585
 31
0.0
 70
   160
  1
<>
 71
     2
 42
161.9250000000001
  3
SLDDIMSTYLE1
100
AcDbAlignedDimension
 13
80.9625
 23
11.90625000000001
 33
0.0
 14
-80.96250000000006
 24
11.90625000000001
 34
0.0
 50
0.0000000000000075
100
AcDbRotatedDimension
1001
ACAD
1000
DSTYLE
1002
{
1070
   171
1070
     6
1070
   273
1070
     7
1002
}
  0
DIMENSION
  5
109
330
1F
100
AcDbEntity
  8
치수문자_일반주서
100
AcDbDimension
  2
_D_3
 10
-91.89874999999998
 20
-12.70000000000024
 30
0.0
 11
-91.89875000000002
 21
0.0000000000000099
 31
0.0
 70
   160
  1
%%c<>
 71
     2
 42
25.40000000000003
 52
-270.0
  3
SLDDIMSTYLE1
100
AcDbAlignedDimension
 13
-29.37518467149224
 23
12.70000000000003
 33
0.0
 14
-29.37518467149224
 24
-12.7
 34
0.0
 50
90.0000000000002
100
AcDbRotatedDimension
1001
ACAD
1000
DSTYLE
1002
{
1070
   171
1070
     6
1070
   273
1070
     7
1002
}
  0
LINE
  5
11E
330
1F
100
AcDbEntity
  8
참조1
100
AcDbLine
 10
68.7193644723612
 20
7.441074928723896
 30
0.0
 11
68.7193644723612
 21
-7.438925071276109
 31
0.0
  0
LINE
  5
11F
330
1F
100
AcDbEntity
  8
참조1
100
AcDbLine
 10
81.41936447236121
 20
5.441074928723896
 30
0.0
 11
68.7193644723612
 21
5.441074928723896
 31
0.0
  0
SOLID
  5
120
330
1F
100
AcDbEntity
  8
참조1
100
AcDbTrace
 10
68.7193644723612
 20
5.441074928723896
 30
0.0
 11
75.0693644723612
 21
4.425074928723896
 31
0.0
 12
75.0693644723612
 22
6.457074928723896
 32
0.0
 13
75.0693644723612
 23
6.457074928723896
 33
0.0
  0
LINE
  5
121
330
1F
100
AcDbEntity
  8
참조1
100
AcDbLine
 10
81.41936447236121
 20
-5.438925071276109
 30
0.0
 11
68.7193644723612
 21
-5.438925071276109
 31
0.0
  0
SOLID
  5
122
330
1F
100
AcDbEntity
  8
참조1
100
AcDbTrace
 10
68.7193644723612
 20
-5.438925071276109
 30
0.0
 11
75.0693644723612
 21
-6.454925071276109
 31
0.0
 12
75.0693644723612
 22
-4.422925071276109
 32
0.0
 13
75.0693644723612
 23
-4.422925071276109
 33
0.0
  0
MTEXT
  5
123
330
1F
100
AcDbEntity
  8
참조1
100
AcDbMText
 10
78.1037146049872
 20
11.01136670591223
 30
0.0
 40
3.5
 41
0.0
 71
     1
 72
     1
  1
A
  7
SLDTEXTSTYLE0
 73
     1
 44
1.0
  0
MTEXT
  5
124
330
1F
100
AcDbEntity
  8
참조1
100
AcDbMText
 10
78.1037146049872
 20
0.1313667059122219
 30
0.0
 40
3.5
 41
0.0
 71
     1
 72
     1
  1
A
  7
SLDTEXTSTYLE0
 73
     1
 44
1.0
  0
INSERT
  5
12B
330
1F
100
AcDbEntity
  8
해칭선
100
AcDbBlockReference
  2
SW_DOWELSYMBOL_0
 10
0.0
 20
0.0
 30
0.0
  0
LINE
  5
307
330
1F
100
AcDbEntity
  8
0
  6
Continuous
 62
     1
370
    15
100
AcDbLine
 10
-76.5187734729686
 20
-3.534168057625661
 30
0.0
 11
-76.44901602314323
 21
-3.571877068271502
 31
0.0
  0
LINE
  5
308
330
1F
100
AcDbEntity
  8
0
  6
Continuous
 62
     1
370
    15
100
AcDbLine
 10
-57.59639610294008
 20
-11.90624999999998
 30
0.0
 11
-50.33952076933568
 21
-11.90624999999998
 31
0.0
  0
LINE
  5
309
330
1F
100
AcDbEntity
  8
0
  6
Continuous
 62
     1
370
    15
100
AcDbLine
 10
-50.33952076933551
 20
11.90625000000002
 30
0.0
 11
-57.59639610294008
 21
11.90625000000002
 31
0.0
  0
LINE
  5
30A
330
1F
100
AcDbEntity
  8
외형선
  6
Continuous
370
    15
100
AcDbLine
 10
-29.37518467149224
 20
12.70000000000003
 30
0.0
 11
-32.33750000000006
 21
11.90625000000002
 31
0.0
  0
LINE
  5
30B
330
1F
100
AcDbEntity
  8
외형선
  6
Continuous
370
    15
100
AcDbLine
 10
-32.33750000000006
 20
-11.90624999999998
 30
0.0
 11
-29.37518467149224
 21
-12.7
 31
0.0
  0
LINE
  5
30E
330
1F
100
AcDbEntity
  8
외형선
  6
Continuous
370
    15
100
AcDbLine
 10
-32.33750000000006
 20
11.90625000000002
 30
0.0
 11
-32.83761124348203
 21
11.90625000000002
 31
0.0
  0
LINE
  5
30F
330
1F
100
AcDbEntity
  8
외형선
  6
Continuous
370
    15
100
AcDbLine
 10
-32.83761124348203
 20
-11.90624999999998
 30
0.0
 11
-32.33750000000006
 21
-11.90624999999998
 31
0.0
  0
SPLINE
  5
311
330
1F
100
AcDbEntity
  8
0
  6
Continuous
 62
     1
370
    15
100
AcDbSpline
210
0.0
220
0.0
230
1.0
 70
     8
 71
     3
 72
    56
 73
    52
 74
     0
 42
0.000000001
 43
0.00000001
 40
0.0
 40
0.0
 40
0.0
 40
0.0
 40
0.0625000000000021
 40
0.0625000000000021
 40
0.0937500000000032
 40
0.0937500000000032
 40
0.1250000000000042
 40
0.1250000000000042
 40
0.1875000000000064
 40
0.1875000000000064
 40
0.2187500000000068
 40
0.2187500000000068
 40
0.2500000000000072
 40
0.2500000000000072
 40
0.2812500000000075
 40
0.2812500000000075
 40
0.3125000000000079
 40
0.3125000000000079
 40
0.3750000000000074
 40
0.3750000000000074
 40
0.4375000000000069
 40
0.4375000000000069
 40
0.4687500000000066
 40
0.4687500000000066
 40
0.5000000000000063
 40
0.5000000000000063
 40
0.5625000000000058
 40
0.5625000000000058
 40
0.5937500000000056
 40
0.5937500000000056
 40
0.6250000000000052
 40
0.6250000000000052
 40
0.656250000000005
 40
0.656250000000005
 40
0.6875000000000047
 40
0.6875000000000047
 40
0.7500000000000028
 40
0.7500000000000028
 40
0.7812500000000026
 40
0.7812500000000026
 40
0.8125000000000023
 40
0.8125000000000023
 40
0.843750000000002
 40
0.843750000000002
 40
0.8750000000000018
 40
0.8750000000000018
 40
0.9375000000000012
 40
0.9375000000000012
 40
0.9687500000000006
 40
0.9687500000000006
 40
1.0
 40
1.0
 40
1.0
 40
1.0
 10
-80.96250000000006
 20
10.78326856457625
 30
0.0
 10
-79.97406089435694
 20
10.54070943046591
 30
0.0
 10
-78.9762504104115
 20
10.25984437662533
 30
0.0
 10
-77.48873391844543
 20
9.787459903743803
 30
0.0
 10
-76.99512189705572
 20
9.621618972160684
 30
0.0
 10
-76.00254543548252
 20
9.272932839329942
 30
0.0
 10
-75.50503835467029
 20
9.09023334094873
 30
0.0
 10
-74.01468809030476
 20
8.519181955029277
 30
0.0
 10
-73.02679485423803
 20
8.10830218728176
 30
0.0
 10
-71.53564777631485
 20
7.450649255314747
 30
0.0
 10
-71.03851113869021
 20
7.22474388191227
 30
0.0
 10
-70.04793804874922
 20
6.761365778228277
 30
0.0
 10
-69.55367957956625
 20
6.523779105851115
 30
0.0
 10
-68.56041071250527
 20
6.0369287614219
 30
0.0
 10
-68.0628744301093
 20
5.78789359754155
 30
0.0
 10
-67.06988394427734
 20
5.280551147426858
 30
0.0
 10
-66.57598871401595
 20
5.022523248427485
 30
0.0
 10
-65.08936411327872
 20
4.235200281763841
 30
0.0
 10
-64.0914357040065
 20
3.692518932285448
 30
0.0
 10
-62.11290867806949
 20
2.588478045317724
 30
0.0
 10
-61.1168774247204
 20
2.024277765033847
 30
0.0
 10
-59.62856625503159
 20
1.171443288689839
 30
0.0
 10
-59.13503383936225
 20
0.8863946708643792
 30
0.0
 10
-58.14293640748869
 20
0.3142903071078063
 30
0.0
 10
-57.645491297745
 20
0.0274482144774194
 30
0.0
 10
-56.15479190282369
 20
-0.8320887768599522
 30
0.0
 10
-55.16711862839182
 20
-1.403035879005043
 30
0.0
 10
-53.67606955820034
 20
-2.251012505471128
 30
0.0
 10
-53.17878701454416
 20
-2.532008243942333
 30
0.0
 10
-52.18756874609338
 20
-3.088491713166765
 30
0.0
 10
-51.6937526420692
 20
-3.36396431946621
 30
0.0
 10
-50.70084690777557
 20
-3.90956857531516
 30
0.0
 10
-50.2033141997006
 20
-4.179405494452898
 30
0.0
 10
-49.20997478561119
 20
-4.711038416895403
 30
0.0
 10
-48.7155928051246
 20
-4.97258815693483
 30
0.0
 10
-47.22995711437457
 20
-5.744076162554255
 30
0.0
 10
-46.23197695444551
 20
-6.241466408994957
 30
0.0
 10
-44.7469414976911
 20
-6.950564248789282
 30
0.0
 10
-44.25219539890603
 20
-7.181071738366758
 30
0.0
 10
-43.25868798561905
 20
-7.629831220272412
 30
0.0
 10
-42.76117174143806
 20
-7.847882785468895
 30
0.0
 10
-41.76849943459504
 20
-8.269637916150172
 30
0.0
 10
-41.27484300412274
 20
-8.473149941380454
 30
0.0
 10
-40.28328950266868
 20
-8.865713491147998
 30
0.0
 10
-39.78593911985493
 20
-9.054670300612072
 30
0.0
 10
-38.29498850404664
 20
-9.597296352139152
 30
0.0
 10
-37.30736360354572
 20
-9.926204622514666
 30
0.0
 10
-35.81651052734642
 20
-10.36726033720291
 30
0.0
 10
-35.31911479779231
 20
-10.50542866262643
 30
0.0
 10
-34.32731605951747
 20
-10.76302435068642
 30
0.0
 10
-33.83373876203339
 20
-10.88240891195546
 30
0.0
 10
-33.33750000000006
 20
-10.99246307791567
 30
0.0
  0
SPLINE
  5
312
330
1F
100
AcDbEntity
  8
0
  6
Continuous
 62
     1
370
    15
100
AcDbSpline
210
0.0
220
0.0
230
1.0
 70
     8
 71
     3
 72
    19
 73
    15
 74
     0
 42
0.000000001
 43
0.00000001
 40
0.0
 40
0.0
 40
0.0
 40
0.0
 40
0.08821955958896
 40
0.1764439190024722
 40
0.2646724461857956
 40
0.3529045069878787
 40
0.4411394654782377
 40
0.5293766842657514
 40
0.617615524819068
 40
0.6984964410010422
 40
0.7793776914001911
 40
0.8602593587684848
 40
0.9411415258044586
 40
1.0
 40
1.0
 40
1.0
 40
1.0
 10
-80.96250000000006
 20
-1.020143564576341
 30
0.0
 10
-79.6926904381996
 20
-1.74729966141602
 30
0.0
 10
-77.1530022271634
 20
-3.201651417996215
 30
0.0
 10
-73.3433216061998
 20
-5.26486782753165
 30
0.0
 10
-69.53342766584277
 20
-7.151425805890978
 30
0.0
 10
-65.72335266061648
 20
-8.793923261826832
 30
0.0
 10
-61.91311694554591
 20
-10.13730268480005
 30
0.0
 10
-58.10280447516075
 20
-11.13553029186562
 30
0.0
 10
-54.39818757992649
 20
-11.73769619532024
 30
0.0
 10
-50.79996056960775
 20
-11.95987108656855
 30
0.0
 10
-47.30749601015961
 20
-11.83592096506919
 30
0.0
 10
-43.81504327097812
 20
-11.36351648030236
 30
0.0
 10
-40.63955846752285
 20
-10.67153828137131
 30
0.0
 10
-38.62822588057375
 20
-10.01454304592706
 30
0.0
 10
-37.78105668108893
 20
-9.73781798748166
 30
0.0
  0
SPLINE
  5
313
330
1F
100
AcDbEntity
  8
0
  6
Continuous
 62
     1
370
    15
100
AcDbSpline
210
0.0
220
0.0
230
1.0
 70
     8
 71
     3
 72
    17
 73
    13
 74
     0
 42
0.000000001
 43
0.00000001
 40
0.0
 40
0.0
 40
0.0
 40
0.0
 40
0.103400383183564
 40
0.2067965990295967
 40
0.3101879044469726
 40
0.4135735667213191
 40
0.5169596437063352
 40
0.620351319615042
 40
0.7237478536398274
 40
0.8185391141585544
 40
0.9133315240872509
 40
1.0
 40
1.0
 40
1.0
 40
1.0
 10
-33.33750000000006
 20
4.574335420928558
 30
0.0
 10
-34.60752862143366
 20
5.236237672254556
 30
0.0
 10
-37.14753467843698
 20
6.560015498312029
 30
0.0
 10
-40.95741936055813
 20
8.28069232464052
 30
0.0
 10
-44.76709309092561
 20
9.730678119762965
 30
0.0
 10
-48.57658442998243
 20
10.84645661162164
 30
0.0
 10
-52.38609265591808
 20
11.59400645768864
 30
0.0
 10
-56.19576124360574
 20
11.94620013258553
 30
0.0
 10
-59.89998941311532
 20
11.89528603922652
 30
0.0
 10
-63.4983026456384
 20
11.4726762082966
 30
0.0
 10
-66.89124580116223
 20
10.77926719586096
 30
0.0
 10
-69.11995343739633
 20
10.07938075114552
 30
0.0
 10
-70.18441806398417
 20
9.74510435216177
 30
0.0
  0
SPLINE
  5
314
330
1F
100
AcDbEntity
  8
외형선
  6
Continuous
370
    15
100
AcDbSpline
210
0.0
220
0.0
230
1.0
 70
    24
 71
     3
 72
    30
 73
    26
 74
     0
 42
0.000000001
 43
0.00000001
 40
0.0
 40
0.0
 40
0.0
 40
0.0
 40
0.1250000000000001
 40
0.1250000000000001
 40
0.25
 40
0.25
 40
0.375
 40
0.375
 40
0.4999999999999999
 40
0.4999999999999999
 40
0.5625
 40
0.5625
 40
0.625
 40
0.625
 40
0.6875
 40
0.6875
 40
0.75
 40
0.75
 40
0.8125
 40
0.8125
 40
0.875
 40
0.875
 40
0.9375
 40
0.9375
 40
1.0
 40
1.0
 40
1.0
 40
1.0
 10
-33.33750000000012
 20
-8.741132333813502
 30
0.0
 10
-33.33750000000012
 20
-8.455514605430308
 30
0.0
 10
-33.33750000000001
 20
-8.139163071136478
 30
0.0
 10
-33.33750000000006
 20
-7.502410781292608
 30
0.0
 10
-33.33750000000006
 20
-7.11750207596062
 30
0.0
 10
-33.33750000000006
 20
-6.175559132032039
 30
0.0
 10
-33.33750000000006
 20
-5.617226191551102
 30
0.0
 10
-33.33750000000006
 20
-4.31326626711503
 30
0.0
 10
-33.33750000000006
 20
-3.565884426509432
 30
0.0
 10
-33.33750000000006
 20
-2.348184226065404
 30
0.0
 10
-33.33750000000001
 20
-1.926971181043915
 30
0.0
 10
-33.33750000000006
 20
-1.071745371348162
 30
0.0
 10
-33.33750000000006
 20
-0.6378038823472042
 30
0.0
 10
-33.33750000000006
 20
0.2190725752545955
 30
0.0
 10
-33.33750000000006
 20
0.6418660992211497
 30
0.0
 10
-33.33750000000012
 20
1.449888641429797
 30
0.0
 10
-33.33750000000006
 20
1.83494497300079
 30
0.0
 10
-33.33750000000012
 20
2.543085098903897
 30
0.0
 10
-33.33750000000006
 20
2.866030892108422
 30
0.0
 10
-33.33750000000006
 20
3.432615672503419
 30
0.0
 10
-33.33750000000006
 20
3.67620505801835
 30
0.0
 10
-33.33750000000006
 20
4.076804152068457
 30
0.0
 10
-33.33750000000001
 20
4.233860469169737
 30
0.0
 10
-33.33750000000006
 20
4.464207176942298
 30
0.0
 10
-33.33750000000006
 20
4.537604075116699
 30
0.0
 10
-33.33750000000006
 20
4.574335420928551
 30
0.0
  0
SPLINE
  5
315
330
1F
100
AcDbEntity
  8
0
  6
Continuous
 62
     1
370
    15
100
AcDbSpline
210
0.0
220
0.0
230
1.0
 70
     8
 71
     3
 72
    56
 73
    52
 74
     0
 42
0.000000001
 43
0.00000001
 40
0.0
 40
0.0
 40
0.0
 40
0.0
 40
0.0624999999999983
 40
0.0624999999999983
 40
0.0937499999999981
 40
0.0937499999999981
 40
0.1249999999999979
 40
0.1249999999999979
 40
0.1874999999999974
 40
0.1874999999999974
 40
0.2187499999999979
 40
0.2187499999999979
 40
0.2499999999999983
 40
0.2499999999999983
 40
0.2812499999999988
 40
0.2812499999999988
 40
0.3124999999999993
 40
0.3124999999999993
 40
0.3750000000000002
 40
0.3750000000000002
 40
0.4375000000000011
 40
0.4375000000000011
 40
0.4687500000000015
 40
0.4687500000000015
 40
0.500000000000002
 40
0.500000000000002
 40
0.5625000000000028
 40
0.5625000000000028
 40
0.5937500000000027
 40
0.5937500000000027
 40
0.6250000000000024
 40
0.6250000000000024
 40
0.6562500000000022
 40
0.6562500000000022
 40
0.687500000000002
 40
0.687500000000002
 40
0.7500000000000017
 40
0.7500000000000017
 40
0.7812500000000008
 40
0.7812500000000008
 40
0.8125000000000006
 40
0.8125000000000006
 40
0.8437500000000004
 40
0.8437500000000004
 40
0.8750000000000002
 40
0.8750000000000002
 40
0.9375000000000003
 40
0.9375000000000003
 40
0.9687500000000002
 40
0.9687500000000002
 40
1.0
 40
1.0
 40
1.0
 40
1.0
 10
-80.96250000000006
 20
11.90625000000001
 30
0.0
 10
-79.974060894357
 20
11.81344510002764
 30
0.0
 10
-78.9762504104115
 20
11.72296910871725
 30
0.0
 10
-77.48873391844532
 20
11.52698267604497
 30
0.0
 10
-76.99512189705572
 20
11.45170958250438
 30
0.0
 10
-76.00254543548252
 20
11.28115232215845
 30
0.0
 10
-75.50503835467029
 20
11.18592146886677
 30
0.0
 10
-74.0146880903047
 20
10.87145867455527
 30
0.0
 10
-73.02679485423803
 20
10.62373831317769
 30
0.0
 10
-71.53564777631473
 20
10.19739652413024
 30
0.0
 10
-71.03851113869021
 20
10.04627575550931
 30
0.0
 10
-70.0479380487491
 20
9.727262174035348
 30
0.0
 10
-69.5536795795663
 20
9.559301450996552
 30
0.0
 10
-68.56041071250533
 20
9.20653242365598
 30
0.0
 10
-68.06287443010925
 20
9.021879644170925
 30
0.0
 10
-67.06988394427728
 20
8.63748413886382
 30
0.0
 10
-66.575988714016
 20
8.437964256049193
 30
0.0
 10
-65.08936411327866
 20
7.817330119405741
 30
0.0
 10
-64.09143570400656
 20
7.373921815685985
 30
0.0
 10
-62.11290867806949
 20
6.441681192188962
 30
0.0
 10
-61.1168774247204
 20
5.950466423919688
 30
0.0
 10
-59.62856625503147
 20
5.186155811457669
 30
0.0
 10
-59.13503383936214
 20
4.927111018232902
 30
0.0
 10
-58.14293640748863
 20
4.400049366587775
 30
0.0
 10
-57.645491297745
 20
4.132218105834265
 30
0.0
 10
-56.15479190282369
 20
3.31894110416486
 30
0.0
 10
-55.16711862839182
 20
2.764463505002108
 30
0.0
 10
-53.67606955820034
 20
1.919476691038613
 30
0.0
 10
-53.17878701454416
 20
1.635849049364689
 30
0.0
 10
-52.18756874609332
 20
1.066885795526235
 30
0.0
 10
-51.6937526420692
 20
0.7815761080714932
 30
0.0
 10
-50.70084690777568
 20
0.2090836863472301
 30
0.0
 10
-50.20331419970066
 20
-0.0778004780210867
 30
0.0
 10
-49.20997478561125
 20
-0.6506041886252422
 30
0.0
 10
-48.71559280512454
 20
-0.9362496885035415
 30
0.0
 10
-47.22995711437463
 20
-1.790488459485649
 30
0.0
 10
-46.23197695444546
 20
-2.357160754822563
 30
0.0
 10
-44.74694149769104
 20
-3.189730379624526
 30
0.0
 10
-44.25219539890597
 20
-3.464681589820406
 30
0.0
 10
-43.25868798561899
 20
-4.008828639042041
 30
0.0
 10
-42.76117174143801
 20
-4.277790049024024
 30
0.0
 10
-41.76849943459504
 20
-4.807394153602769
 30
0.0
 10
-41.27484300412274
 20
-5.067781705267397
 30
0.0
 10
-40.28328950266868
 20
-5.580062716421911
 30
0.0
 10
-39.78593911985493
 20
-5.831848271784932
 30
0.0
 10
-38.29498850404664
 20
-6.571155407538069
 30
0.0
 10
-37.30736360354572
 20
-7.041869606577056
 30
0.0
 10
-35.81651052734637
 20
-7.710347607826404
 30
0.0
 10
-35.31911479779231
 20
-7.926723904440292
 30
0.0
 10
-34.32731605951741
 20
-8.3449163647358
 30
0.0
 10
-33.83373876203339
 20
-8.54663846738883
 30
0.0
 10
-33.33750000000012
 20
-8.741132333813487
 30
0.0
  0
LINE
  5
316
330
1F
100
AcDbEntity
  8
0
  6
Continuous
 62
     1
370
    15
100
AcDbLine
 10
-80.96250000000006
 20
11.90625000000001
 30
0.0
 11
-80.96250000000006
 21
10.78326856457625
 31
0.0
  0
LINE
  5
317
330
1F
100
AcDbEntity
  8
외형선
  6
Continuous
370
    15
100
AcDbLine
 10
-33.33750000000012
 20
-8.741132333813495
 30
0.0
 11
-33.33750000000006
 21
-10.99246307791566
 31
0.0
  0
SPLINE
  5
318
330
1F
100
AcDbEntity
  8
0
  6
Continuous
 62
     1
370
    15
100
AcDbSpline
210
0.0
220
0.0
230
1.0
 70
     8
 71
     3
 72
    14
 73
    10
 74
     0
 42
0.000000001
 43
0.00000001
 40
0.0
 40
0.0
 40
0.0
 40
0.0
 40
0.1031046571862688
 40
0.252582178235663
 40
0.4020615118039747
 40
0.5515428095217553
 40
0.701026222768722
 40
0.8505119026545875
 40
1.0
 40
1.0
 40
1.0
 40
1.0
 10
-57.59639610294008
 20
-11.85904954646123
 30
0.0
 10
-58.39948280826107
 20
-11.86221440964326
 30
0.0
 10
-60.36685649319182
 20
-11.86996758062651
 30
0.0
 10
-63.49830103018283
 20
-11.46757495076768
 30
0.0
 10
-66.99104070102263
 20
-10.74577156844111
 30
0.0
 10
-70.48381299417846
 20
-9.70238311089406
 30
0.0
 10
-73.97665081749201
 20
-8.382541206948629
 30
0.0
 10
-77.46954972166995
 20
-6.832125110481354
 30
0.0
 10
-79.79817696424018
 20
-5.642553366571076
 30
0.0
 10
-80.96250000000006
 20
-5.047762685261756
 30
0.0
  0
LINE
  5
319
330
1F
100
AcDbEntity
  8
0
  6
Continuous
 62
     1
370
    15
100
AcDbLine
 10
-80.96250000000006
 20
10.78326856457625
 30
0.0
 11
-80.96250000000006
 21
-5.047762685261756
 31
0.0
  0
SPLINE
  5
31A
330
1F
100
AcDbEntity
  8
0
  6
Continuous
 62
     1
370
    15
100
AcDbSpline
210
0.0
220
0.0
230
1.0
 70
     8
 71
     3
 72
    12
 73
     8
 74
     0
 42
0.000000001
 43
0.00000001
 40
0.0
 40
0.0
 40
0.0
 40
0.0
 40
0.1783330065274618
 40
0.3837476415725453
 40
0.5891635456203276
 40
0.7945809285371624
 40
1.0
 40
1.0
 40
1.0
 40
1.0
 10
-50.33952076933551
 20
11.88673773730415
 30
0.0
 10
-49.32884970273099
 20
11.86977881648866
 30
0.0
 10
-47.15402718519911
 20
11.83328559522085
 30
0.0
 10
-43.81504185114497
 20
11.36482055740731
 30
0.0
 10
-40.32255622512511
 20
10.57834543833527
 30
0.0
 10
-36.8300408126253
 20
9.496940866202182
 30
0.0
 10
-34.50168346074017
 20
8.554995540314644
 30
0.0
 10
-33.33750000000006
 20
8.08402094166386
 30
0.0
  0
LINE
  5
31B
330
1F
100
AcDbEntity
  8
외형선
  6
Continuous
370
    15
100
AcDbLine
 10
-33.33750000000012
 20
8.084020941663853
 30
0.0
 11
-33.33750000000006
 21
4.574335420928572
 31
0.0
  0
SPLINE
  5
31C
330
1F
100
AcDbEntity
  8
0
  6
Continuous
 62
     1
370
    15
100
AcDbSpline
210
0.0
220
0.0
230
1.0
 70
     8
 71
     3
 72
    10
 73
     6
 74
     0
 42
0.000000001
 43
0.00000001
 40
0.0
 40
0.0
 40
0.0
 40
0.0
 40
0.3534464648700787
 40
0.7069121599542723
 40
1.0
 40
1.0
 40
1.0
 40
1.0
 10
-80.96250000000006
 20
-11.90625
 30
0.0
 10
-79.69269027560895
 20
-11.7587385468266
 30
0.0
 10
-77.15300173938274
 20
-11.55127828614593
 30
0.0
 10
-73.56030299224702
 20
-10.81596739449642
 30
0.0
 10
-71.23740577611264
 20
-10.07912214272997
 30
0.0
 10
-70.18441806398417
 20
-9.74510435216173
 30
0.0
  0
LINE
  5
31D
330
1F
100
AcDbEntity
  8
0
  6
Continuous
 62
     1
370
    15
100
AcDbLine
 10
-80.96250000000006
 20
-5.028979397248901
 30
0.0
 11
-80.96250000000006
 21
-11.90625
 31
0.0
  0
SPLINE
  5
31E
330
1F
100
AcDbEntity
  8
0
  6
Continuous
 62
     1
370
    15
100
AcDbSpline
210
0.0
220
0.0
230
1.0
 70
     8
 71
     3
 72
     9
 73
     5
 74
     0
 42
0.000000001
 43
0.00000001
 40
0.0
 40
0.0
 40
0.0
 40
0.0
 40
0.8574381617762187
 40
1.0
 40
1.0
 40
1.0
 40
1.0
 10
-33.33750000000006
 20
10.99246307791567
 30
0.0
 10
-34.60753086839472
 20
10.69846645101382
 30
0.0
 10
-36.08872324472159
 20
10.35558851531192
 30
0.0
 10
-37.56989772451877
 20
9.814899594009768
 30
0.0
 10
-37.78105668108876
 20
9.7378179874817
 30
0.0
  0
SPLINE
  5
31F
330
1F
100
AcDbEntity
  8
외형선
  6
Continuous
370
    15
100
AcDbSpline
210
0.0
220
0.0
230
1.0
 70
    24
 71
     3
 72
    11
 73
     7
 74
     0
 42
0.000000001
 43
0.00000001
 40
0.0
 40
0.0
 40
0.0
 40
0.0
 40
0.0857718234666484
 40
0.4880043248185091
 40
0.9019015959587401
 40
1.0
 40
1.0
 40
1.0
 40
1.0
 10
-33.33750000000006
 20
8.197231391635507
 30
0.0
 10
-33.33750000000006
 20
8.268451138176724
 30
0.0
 10
-33.33750000000006
 20
8.673660482223207
 30
0.0
 10
-33.33749999999989
 20
9.51904740728594
 30
0.0
 10
-33.33750000000006
 20
10.39547133588025
 30
0.0
 10
-33.33750000000006
 20
10.89647142824405
 30
0.0
 10
-33.33750000000006
 20
10.99246307791568
 30
0.0
  0
LINE
  5
320
330
1F
100
AcDbEntity
  8
외형선
  6
Continuous
370
    15
100
AcDbLine
 10
-32.33750000000006
 20
0.0000000000000238
 30
0.0
 11
-32.33750000000006
 21
-11.90624999999998
 31
0.0
  0
LINE
  5
321
330
1F
100
AcDbEntity
  8
외형선
  6
Continuous
370
    15
100
AcDbLine
 10
-32.33750000000006
 20
11.90624999999999
 30
0.0
 11
-32.33750000000006
 21
0.0000000000000238
 31
0.0
  0
LINE
  5
322
330
1F
100
AcDbEntity
  8
외형선
  6
Continuous
370
    15
100
AcDbLine
 10
-29.37518467149224
 20
0.0000000000000238
 30
0.0
 11
-29.37518467149224
 21
-12.7
 31
0.0
  0
LINE
  5
323
330
1F
100
AcDbEntity
  8
외형선
  6
Continuous
370
    15
100
AcDbLine
 10
-29.37518467149224
 20
12.70000000000003
 30
0.0
 11
-29.37518467149224
 21
0.0000000000000238
 31
0.0
  0
LINE
  5
324
330
1F
100
AcDbEntity
  8
외형선
  6
Continuous
370
    15
100
AcDbLine
 10
-32.83761124348203
 20
-11.1000168830062
 30
0.0
 11
-32.83761124348203
 21
-11.90624999999998
 31
0.0
  0
SPLINE
  5
325
330
1F
100
AcDbEntity
  8
외형선
  6
Continuous
370
    15
100
AcDbSpline
210
0.0
220
0.0
230
1.0
 70
     8
 71
     3
 72
     8
 73
     4
 74
     0
 42
0.000000001
 43
0.00000001
 40
0.0
 40
0.0
 40
0.0
 40
0.0
 40
1.0
 40
1.0
 40
1.0
 40
1.0
 10
-33.33750000000006
 20
-10.99246307791567
 30
0.0
 10
-33.17098751223361
 20
-11.0293916581983
 30
0.0
 10
-33.00433351773395
 20
-11.06525591760771
 30
0.0
 10
-32.83761124348203
 20
-11.10003871878136
 30
0.0
  0
SPLINE
  5
326
330
1F
100
AcDbEntity
  8
외형선
  6
Continuous
370
    15
100
AcDbSpline
210
0.0
220
0.0
230
1.0
 70
     8
 71
     3
 72
     8
 73
     4
 74
     0
 42
0.000000001
 43
0.00000001
 40
0.0
 40
0.0
 40
0.0
 40
0.0
 40
1.0
 40
1.0
 40
1.0
 40
1.0
 10
-33.33750000000012
 20
-8.741132333813487
 30
0.0
 10
-33.17098751223367
 20
-8.806394582616852
 30
0.0
 10
-33.00433351773395
 20
-8.870820656619342
 30
0.0
 10
-32.83761124348203
 20
-8.934381125319119
 30
0.0
  0
LINE
  5
327
330
1F
100
AcDbEntity
  8
외형선
  6
Continuous
370
    15
100
AcDbLine
 10
-32.83761124348203
 20
4.306786999548275
 30
0.0
 11
-32.83761124348203
 21
-8.934402721629935
 31
0.0
  0
SPLINE
  5
328
330
1F
100
AcDbEntity
  8
외형선
  6
Continuous
370
    15
100
AcDbSpline
210
0.0
220
0.0
230
1.0
 70
     8
 71
     3
 72
     8
 73
     4
 74
     0
 42
0.000000001
 43
0.00000001
 40
0.0
 40
0.0
 40
0.0
 40
0.0
 40
1.0
 40
1.0
 40
1.0
 40
1.0
 10
-33.33750000000006
 20
4.574335420928565
 30
0.0
 10
-33.17098751223361
 20
4.485593337560704
 30
0.0
 10
-33.00433351773395
 20
4.396378870653048
 30
0.0
 10
-32.83761124348203
 20
4.306730721098726
 30
0.0
  0
SPLINE
  5
329
330
1F
100
AcDbEntity
  8
외형선
  6
Continuous
370
    15
100
AcDbSpline
210
0.0
220
0.0
230
1.0
 70
     8
 71
     3
 72
     8
 73
     4
 74
     0
 42
0.000000001
 43
0.00000001
 40
0.0
 40
0.0
 40
0.0
 40
0.0
 40
1.0
 40
1.0
 40
1.0
 40
1.0
 10
-33.33750000000012
 20
8.08402094166386
 30
0.0
 10
-33.17098751223367
 20
8.01345383683954
 30
0.0
 10
-33.00433351773395
 20
7.942076339004241
 30
0.0
 10
-32.83761124348203
 20
7.869918866801672
 30
0.0
  0
LINE
  5
32A
330
1F
100
AcDbEntity
  8
외형선
  6
Continuous
370
    15
100
AcDbLine
 10
-32.83761124348203
 20
11.90625000000002
 30
0.0
 11
-32.83761124348203
 21
7.869894349369065
 31
0.0
  0
SPLINE
  5
32B
330
1F
100
AcDbEntity
  8
외형선
  6
Continuous
370
    15
100
AcDbSpline
210
0.0
220
0.0
230
1.0
 70
     8
 71
     3
 72
     8
 73
     4
 74
     0
 42
0.000000001
 43
0.00000001
 40
0.0
 40
0.0
 40
0.0
 40
0.0
 40
1.0
 40
1.0
 40
1.0
 40
1.0
 10
-33.33750000000006
 20
10.99246307791567
 30
0.0
 10
-33.17098751223361
 20
11.0293916581983
 30
0.0
 10
-33.00433351773395
 20
11.06525591760772
 30
0.0
 10
-32.83761124348203
 20
11.10003871878137
 30
0.0
  0
SPLINE
  5
32C
330
1F
100
AcDbEntity
  8
외형선
  6
Continuous
370
    15
100
AcDbSpline
210
0.0
220
0.0
230
1.0
 70
    24
 71
     3
 72
    30
 73
    26
 74
     0
 42
0.000000001
 43
0.00000001
 40
0.0
 40
0.0
 40
0.0
 40
0.0
 40
0.0625
 40
0.0625
 40
0.1249999999999999
 40
0.1249999999999999
 40
0.1874999999999999
 40
0.1874999999999999
 40
0.2499999999999998
 40
0.2499999999999998
 40
0.3124999999999998
 40
0.3124999999999998
 40
0.3749999999999998
 40
0.3749999999999998
 40
0.4374999999999997
 40
0.4374999999999997
 40
0.4999999999999997
 40
0.4999999999999997
 40
0.6249999999999997
 40
0.6249999999999997
 40
0.7499999999999997
 40
0.7499999999999997
 40
0.8749999999999998
 40
0.8749999999999998
 40
1.0
 40
1.0
 40
1.0
 40
1.0
 10
-33.33750000000006
 20
4.57433542092853
 30
0.0
 10
-33.33750000000012
 20
4.537604075116671
 30
0.0
 10
-33.33750000000006
 20
4.464207176942263
 30
0.0
 10
-33.33750000000001
 20
4.23386046916968
 30
0.0
 10
-33.33750000000006
 20
4.076804152068386
 30
0.0
 10
-33.33750000000006
 20
3.676205058018257
 30
0.0
 10
-33.33750000000006
 20
3.43261567250332
 30
0.0
 10
-33.33750000000006
 20
2.866030892108316
 30
0.0
 10
-33.33750000000006
 20
2.543085098903769
 30
0.0
 10
-33.33750000000006
 20
1.834944973000655
 30
0.0
 10
-33.33750000000006
 20
1.449888641429662
 30
0.0
 10
-33.33750000000006
 20
0.6418660992210147
 30
0.0
 10
-33.33750000000006
 20
0.2190725752544605
 30
0.0
 10
-33.33750000000006
 20
-0.6378038823473321
 30
0.0
 10
-33.33750000000006
 20
-1.071745371348276
 30
0.0
 10
-33.33750000000006
 20
-1.926971181044029
 30
0.0
 10
-33.33750000000012
 20
-2.348184226065503
 30
0.0
 10
-33.33750000000006
 20
-3.565884426509503
 30
0.0
 10
-33.33750000000006
 20
-4.313266267115101
 30
0.0
 10
-33.33750000000006
 20
-5.617226191551159
 30
0.0
 10
-33.33750000000006
 20
-6.175559132032068
 30
0.0
 10
-33.33750000000001
 20
-7.117502075960634
 30
0.0
 10
-33.33750000000006
 20
-7.502410781292615
 30
0.0
 10
-33.33750000000006
 20
-8.139163071136485
 30
0.0
 10
-33.33750000000012
 20
-8.455514605430315
 30
0.0
 10
-33.33750000000012
 20
-8.741132333813502
 30
0.0
  0
SPLINE
  5
32D
330
1F
100
AcDbEntity
  8
외형선
  6
Continuous
370
    15
100
AcDbSpline
210
0.0
220
0.0
230
1.0
 70
    24
 71
     3
 72
    11
 73
     7
 74
     0
 42
0.000000001
 43
0.00000001
 40
0.0
 40
0.0
 40
0.0
 40
0.0
 40
0.2682100717697014
 40
0.539777665643006
 40
0.9422571998772545
 40
1.0
 40
1.0
 40
1.0
 40
1.0
 10
-33.33750000000006
 20
10.99246307791567
 30
0.0
 10
-33.33750000000012
 20
10.73031632600605
 30
0.0
 10
-33.33750000000012
 20
10.20274120226807
 30
0.0
 10
-33.33750000000001
 20
9.310932333510275
 30
0.0
 10
-33.33750000000012
 20
8.624831279894531
 30
0.0
 10
-33.33750000000012
 20
8.244891380722814
 30
0.0
 10
-33.33750000000012
 20
8.19722139163551
 30
0.0
  0
LINE
  5
3AC
330
1F
100
AcDbEntity
  8
외형선
  6
Continuous
370
    15
100
AcDbLine
 10
-6.553199999999947
 20
10.795
 30
0.0
 11
6.553200000000061
 21
10.795
 31
0.0
  0
LINE
  5
3AD
330
1F
100
AcDbEntity
  8
외형선
  6
Continuous
370
    15
100
AcDbLine
 10
6.553200000000061
 20
10.795
 30
0.0
 11
8.458200000000033
 21
12.7
 31
0.0
  0
LINE
  5
3AE
330
1F
100
AcDbEntity
  8
외형선
  6
Continuous
370
    15
100
AcDbLine
 10
-6.553199999999947
 20
10.795
 30
0.0
 11
-8.45819999999992
 21
12.7
 31
0.0
  0
LINE
  5
3AF
330
1F
100
AcDbEntity
  8
외형선
  6
Continuous
370
    15
100
AcDbLine
 10
-8.458199999999927
 20
12.7
 30
0.0
 11
-29.37518467149222
 21
12.7
 31
0.0
  0
ENDSEC
  0
SECTION
  2
OBJECTS
  0
DICTIONARY
  5
C
330
0
100
AcDbDictionary
281
     1
  3
ACAD_GROUP
350
D
  3
ACAD_IMAGE_VARS
350
14F
  3
ACAD_LAYOUT
350
1A
  3
ACAD_MLINESTYLE
350
17
  3
ACAD_PLOTSETTINGS
350
19
  3
ACAD_PLOTSTYLENAME
350
E
  3
ACAD_SCALELIST
350
47
  3
APPDATA
350
14D
  3
DWGPROPS
350
3D3
  0
DICTIONARY
  5
1CF
330
2
100
AcDbDictionary
280
     1
281
     1
  3
ACAD_LAYERSTATES
360
1D0
  0
DICTIONARY
  5
D
102
{ACAD_REACTORS
330
C
102
}
330
C
100
AcDbDictionary
281
     1
  0
RASTERVARIABLES
  5
14F
102
{ACAD_REACTORS
330
C
102
}
330
C
100
AcDbRasterVariables
 90
        0
 70
     1
 71
     1
 72
     1
  0
DICTIONARY
  5
1A
102
{ACAD_REACTORS
330
C
102
}
330
C
100
AcDbDictionary
281
     1
  3
Layout1
350
1E
  3
Layout2
350
26
  3
Model
350
22
  0
DICTIONARY
  5
17
102
{ACAD_REACTORS
330
C
102
}
330
C
100
AcDbDictionary
281
     1
  3
Standard
350
18
  0
DICTIONARY
  5
19
102
{ACAD_REACTORS
330
C
102
}
330
C
100
AcDbDictionary
281
     1
  0
ACDBDICTIONARYWDFLT
  5
E
102
{ACAD_REACTORS
330
C
102
}
330
C
100
AcDbDictionary
281
     1
  3
Normal
350
F
100
AcDbDictionaryWithDefault
340
F
  0
DICTIONARY
  5
47
102
{ACAD_REACTORS
330
C
102
}
330
C
100
AcDbDictionary
281
     1
  3
A0
350
48
  3
A1
350
49
  3
A2
350
4A
  3
A3
350
4B
  3
A4
350
4C
  3
A5
350
4D
  3
A6
350
4E
  3
A7
350
4F
  3
A8
350
50
  3
A9
350
51
  3
B0
350
52
  3
B1
350
53
  3
B2
350
54
  3
B3
350
55
  3
B4
350
56
  3
B5
350
57
  3
B6
350
58
  3
B7
350
59
  3
B8
350
5A
  3
B9
350
5B
  3
C0
350
5C
  3
C1
350
5D
  3
C2
350
5E
  3
C3
350
5F
  3
C4
350
60
  3
C5
350
61
  3
C6
350
62
  3
C7
350
63
  3
C8
350
64
  3
C9
350
65
  3
D0
350
66
  3
D1
350
67
  3
D2
350
68
  0
DICTIONARY
  5
14D
102
{ACAD_REACTORS
330
C
102
}
330
C
100
AcDbDictionary
281
     1
  0
XRECORD
  5
3D3
102
{ACAD_REACTORS
330
C
102
}
330
C
100
AcDbXrecord
280
     1
  1
DWGPROPS COOKIE
  2

  3

  4

  6

  7

  8
12017012
  9

300
=
301
=
302
=
303
=
304
=
305
=
306
=
307
=
308
=
309
=
 40
0.0
 41
2458313.100684074
 42
2458319.014364757
  1

 90
        0
  0
DICTIONARY
  5
1D0
102
{ACAD_REACTORS
330
1CF
102
}
330
1CF
100
AcDbDictionary
281
     1
  0
LAYOUT
  5
1E
102
{ACAD_REACTORS
330
1A
102
}
330
1A
100
AcDbPlotSettings
  1

  2
none_device
  4

  6

 40
0.0
 41
0.0
 42
0.0
 43
0.0
 44
0.0
 45
0.0
 46
0.0
 47
0.0
 48
0.0
 49
0.0
140
0.0
141
0.0
142
1.0
143
1.0
 70
   688
 72
     1
 73
     0
 74
     5
  7

 75
    16
147
1.0
148
0.0
149
0.0
100
AcDbLayout
  1
Layout1
 70
     1
 71
     1
 10
0.0
 20
0.0
 11
420.0
 21
297.0
 12
0.0
 22
0.0
 32
0.0
 14
1.000000000000000E+20
 24
1.000000000000000E+20
 34
1.000000000000000E+20
 15
-1.000000000000000E+20
 25
-1.000000000000000E+20
 35
-1.000000000000000E+20
146
0.0
 13
0.0
 23
0.0
 33
0.0
 16
1.0
 26
0.0
 36
0.0
 17
0.0
 27
1.0
 37
0.0
 76
     0
330
1B
  0
LAYOUT
  5
26
102
{ACAD_REACTORS
330
1A
102
}
330
1A
100
AcDbPlotSettings
  1

  2
none_device
  4

  6

 40
0.0
 41
0.0
 42
0.0
 43
0.0
 44
0.0
 45
0.0
 46
0.0
 47
0.0
 48
0.0
 49
0.0
140
0.0
141
0.0
142
1.0
143
1.0
 70
   688
 72
     1
 73
     0
 74
     5
  7

 75
    16
147
1.0
148
0.0
149
0.0
100
AcDbLayout
  1
Layout2
 70
     1
 71
     2
 10
0.0
 20
0.0
 11
0.0
 21
0.0
 12
0.0
 22
0.0
 32
0.0
 14
0.0
 24
0.0
 34
0.0
 15
0.0
 25
0.0
 35
0.0
146
0.0
 13
0.0
 23
0.0
 33
0.0
 16
1.0
 26
0.0
 36
0.0
 17
0.0
 27
1.0
 37
0.0
 76
     0
330
23
  0
LAYOUT
  5
22
102
{ACAD_REACTORS
330
1A
102
}
330
1A
100
AcDbPlotSettings
  1

  2
none_device
  4
ANSI_A_(11.00_x_8.50_Inches)
  6

 40
6.35
 41
19.05
 42
6.35000508
 43
19.05000254
 44
279.4
 45
215.9
 46
34.88711980504698
 47
62.40828940818859
 48
0.0
 49
0.0
140
0.0
141
0.0
142
0.0256194946627346
143
1.0
 70
  1696
 72
     0
 73
     0
 74
     0
  7

 75
     0
147
0.0235690232323232
148
0.0
149
0.0
100
AcDbLayout
  1
Model
 70
     1
 71
     0
 10
0.0
 20
0.0
 11
420.0
 21
297.0
 12
0.0
 22
0.0
 32
0.0
 14
-96.27375000000006
 24
-49.97180738881175
 34
0.0
 15
118.2440885037777
 25
63.8278847983585
 35
0.0
146
0.0
 13
0.0
 23
0.0
 33
0.0
 16
1.0
 26
0.0
 36
0.0
 17
0.0
 27
1.0
 37
0.0
 76
     0
330
1F
331
29
  0
MLINESTYLE
  5
18
102
{ACAD_REACTORS
330
17
102
}
330
17
100
AcDbMlineStyle
  2
Standard
 70
     0
  3

 62
   256
 51
90.0
 52
90.0
 71
     2
 49
0.5
 62
   256
  6
BYLAYER
 49
-0.5
 62
   256
  6
BYLAYER
  0
ACDBPLACEHOLDER
  5
F
102
{ACAD_REACTORS
330
E
102
}
330
E
  0
SCALE
  5
48
102
{ACAD_REACTORS
330
47
102
}
330
47
100
AcDbScale
 70
     0
300
1:1
140
1.0
141
1.0
290
     1
  0
SCALE
  5
49
102
{ACAD_REACTORS
330
47
102
}
330
47
100
AcDbScale
 70
     0
300
1:2
140
1.0
141
2.0
290
     0
  0
SCALE
  5
4A
102
{ACAD_REACTORS
330
47
102
}
330
47
100
AcDbScale
 70
     0
300
1:4
140
1.0
141
4.0
290
     0
  0
SCALE
  5
4B
102
{ACAD_REACTORS
330
47
102
}
330
47
100
AcDbScale
 70
     0
300
1:5
140
1.0
141
5.0
290
     0
  0
SCALE
  5
4C
102
{ACAD_REACTORS
330
47
102
}
330
47
100
AcDbScale
 70
     0
300
1:8
140
1.0
141
8.0
290
     0
  0
SCALE
  5
4D
102
{ACAD_REACTORS
330
47
102
}
330
47
100
AcDbScale
 70
     0
300
1:10
140
1.0
141
10.0
290
     0
  0
SCALE
  5
4E
102
{ACAD_REACTORS
330
47
102
}
330
47
100
AcDbScale
 70
     0
300
1:16
140
1.0
141
16.0
290
     0
  0
SCALE
  5
4F
102
{ACAD_REACTORS
330
47
102
}
330
47
100
AcDbScale
 70
     0
300
1:20
140
1.0
141
20.0
290
     0
  0
SCALE
  5
50
102
{ACAD_REACTORS
330
47
102
}
330
47
100
AcDbScale
 70
     0
300
1:30
140
1.0
141
30.0
290
     0
  0
SCALE
  5
51
102
{ACAD_REACTORS
330
47
102
}
330
47
100
AcDbScale
 70
     0
300
1:40
140
1.0
141
40.0
290
     0
  0
SCALE
  5
52
102
{ACAD_REACTORS
330
47
102
}
330
47
100
AcDbScale
 70
     0
300
1:50
140
1.0
141
50.0
290
     0
  0
SCALE
  5
53
102
{ACAD_REACTORS
330
47
102
}
330
47
100
AcDbScale
 70
     0
300
1:100
140
1.0
141
100.0
290
     0
  0
SCALE
  5
54
102
{ACAD_REACTORS
330
47
102
}
330
47
100
AcDbScale
 70
     0
300
2:1
140
2.0
141
1.0
290
     0
  0
SCALE
  5
55
102
{ACAD_REACTORS
330
47
102
}
330
47
100
AcDbScale
 70
     0
300
4:1
140
4.0
141
1.0
290
     0
  0
SCALE
  5
56
102
{ACAD_REACTORS
330
47
102
}
330
47
100
AcDbScale
 70
     0
300
8:1
140
8.0
141
1.0
290
     0
  0
SCALE
  5
57
102
{ACAD_REACTORS
330
47
102
}
330
47
100
AcDbScale
 70
     0
300
10:1
140
10.0
141
1.0
290
     0
  0
SCALE
  5
58
102
{ACAD_REACTORS
330
47
102
}
330
47
100
AcDbScale
 70
     0
300
100:1
140
100.0
141
1.0
290
     0
  0
SCALE
  5
59
102
{ACAD_REACTORS
330
47
102
}
330
47
100
AcDbScale
 70
     0
300
1/128" = 1'-0"
140
0.0078125
141
12.0
290
     0
  0
SCALE
  5
5A
102
{ACAD_REACTORS
330
47
102
}
330
47
100
AcDbScale
 70
     0
300
1/64" = 1'-0"
140
0.015625
141
12.0
290
     0
  0
SCALE
  5
5B
102
{ACAD_REACTORS
330
47
102
}
330
47
100
AcDbScale
 70
     0
300
1/32" = 1'-0"
140
0.03125
141
12.0
290
     0
  0
SCALE
  5
5C
102
{ACAD_REACTORS
330
47
102
}
330
47
100
AcDbScale
 70
     0
300
1/16" = 1'-0"
140
0.0625
141
12.0
290
     0
  0
SCALE
  5
5D
102
{ACAD_REACTORS
330
47
102
}
330
47
100
AcDbScale
 70
     0
300
3/32" = 1'-0"
140
0.09375
141
12.0
290
     0
  0
SCALE
  5
5E
102
{ACAD_REACTORS
330
47
102
}
330
47
100
AcDbScale
 70
     0
300
1/8" = 1'-0"
140
0.125
141
12.0
290
     0
  0
SCALE
  5
5F
102
{ACAD_REACTORS
330
47
102
}
330
47
100
AcDbScale
 70
     0
300
3/16" = 1'-0"
140
0.1875
141
12.0
290
     0
  0
SCALE
  5
60
102
{ACAD_REACTORS
330
47
102
}
330
47
100
AcDbScale
 70
     0
300
1/4" = 1'-0"
140
0.25
141
12.0
290
     0
  0
SCALE
  5
61
102
{ACAD_REACTORS
330
47
102
}
330
47
100
AcDbScale
 70
     0
300
3/8" = 1'-0"
140
0.375
141
12.0
290
     0
  0
SCALE
  5
62
102
{ACAD_REACTORS
330
47
102
}
330
47
100
AcDbScale
 70
     0
300
1/2" = 1'-0"
140
0.5
141
12.0
290
     0
  0
SCALE
  5
63
102
{ACAD_REACTORS
330
47
102
}
330
47
100
AcDbScale
 70
     0
300
3/4" = 1'-0"
140
0.75
141
12.0
290
     0
  0
SCALE
  5
64
102
{ACAD_REACTORS
330
47
102
}
330
47
100
AcDbScale
 70
     0
300
1" = 1'-0"
140
1.0
141
12.0
290
     0
  0
SCALE
  5
65
102
{ACAD_REACTORS
330
47
102
}
330
47
100
AcDbScale
 70
     0
300
1-1/2" = 1'-0"
140
1.5
141
12.0
290
     0
  0
SCALE
  5
66
102
{ACAD_REACTORS
330
47
102
}
330
47
100
AcDbScale
 70
     0
300
3" = 1'-0"
140
3.0
141
12.0
290
     0
  0
SCALE
  5
67
102
{ACAD_REACTORS
330
47
102
}
330
47
100
AcDbScale
 70
     0
300
6" = 1'-0"
140
6.0
141
12.0
290
     0
  0
SCALE
  5
68
102
{ACAD_REACTORS
330
47
102
}
330
47
100
AcDbScale
 70
     0
300
1'-0" = 1'-0"
140
12.0
141
12.0
290
     0
  0
ENDSEC
  0
EOF
