  0
SECTION
  2
HEADER
  9
$ACADVER
  1
AC1015
  9
$ACADMAINTVER
 70
     6
  9
$DWGCODEPAGE
  3
ANSI_949
  9
$INSBASE
 10
0.0
 20
0.0
 30
0.0
  9
$EXTMIN
 10
-96.27375000000006
 20
-49.97180738881175
 30
0.0
  9
$EXTMAX
 10
111.5376950753426
 20
64.61871585538411
 30
0.0
  9
$LIMMIN
 10
0.0
 20
0.0
  9
$LIMMAX
 10
420.0
 20
297.0
  9
$ORTHOMODE
 70
     1
  9
$REGENMODE
 70
     1
  9
$FILLMODE
 70
     1
  9
$QTEXTMODE
 70
     0
  9
$MIRRTEXT
 70
     1
  9
$LTSCALE
 40
1.0
  9
$ATTMODE
 70
     1
  9
$TEXTSIZE
 40
3.5
  9
$TRACEWID
 40
1.0
  9
$TEXTSTYLE
  7
Standard
  9
$CLAYER
  8
0
  9
$CELTYPE
  6
ByLayer
  9
$CECOLOR
 62
   256
  9
$CELTSCALE
 40
1.0
  9
$DISPSILH
 70
     0
  9
$DIMSCALE
 40
1.0
  9
$DIMASZ
 40
3.302
  9
$DIMEXO
 40
1.0
  9
$DIMDLI
 40
3.75
  9
$DIMRND
 40
0.0
  9
$DIMDLE
 40
0.0
  9
$DIMEXE
 40
1.0
  9
$DIMTP
 40
0.0
  9
$DIMTM
 40
0.0
  9
$DIMTXT
 40
3.5
  9
$DIMCEN
 40
2.5
  9
$DIMTSZ
 40
0.0
  9
$DIMTOL
 70
     0
  9
$DIMLIM
 70
     0
  9
$DIMTIH
 70
     1
  9
$DIMTOH
 70
     1
  9
$DIMSE1
 70
     0
  9
$DIMSE2
 70
     0
  9
$DIMTAD
 70
     1
  9
$DIMZIN
 70
     0
  9
$DIMBLK
  1

  9
$DIMASO
 70
     1
  9
$DIMSHO
 70
     1
  9
$DIMPOST
  1

  9
$DIMAPOST
  1

  9
$DIMALT
 70
     0
  9
$DIMALTD
 70
     3
  9
$DIMALTF
 40
0.0393700787401575
  9
$DIMLFAC
 40
1.0
  9
$DIMTOFL
 70
     1
  9
$DIMTVP
 40
0.0
  9
$DIMTIX
 70
     0
  9
$DIMSOXD
 70
     0
  9
$DIMSAH
 70
     0
  9
$DIMBLK1
  1

  9
$DIMBLK2
  1

  9
$DIMSTYLE
  2
ISO-25
  9
$DIMCLRD
 70
     0
  9
$DIMCLRE
 70
     0
  9
$DIMCLRT
 70
     0
  9
$DIMTFAC
 40
1.0
  9
$DIMGAP
 40
1.524
  9
$DIMJUST
 70
     0
  9
$DIMSD1
 70
     0
  9
$DIMSD2
 70
     0
  9
$DIMTOLJ
 70
     0
  9
$DIMTZIN
 70
     0
  9
$DIMALTZ
 70
     0
  9
$DIMALTTZ
 70
     0
  9
$DIMUPT
 70
     0
  9
$DIMDEC
 70
     2
  9
$DIMTDEC
 70
     2
  9
$DIMALTU
 70
     2
  9
$DIMALTTD
 70
     3
  9
$DIMTXSTY
  7
Standard
  9
$DIMAUNIT
 70
     0
  9
$DIMADEC
 70
     2
  9
$DIMALTRND
 40
0.0
  9
$DIMAZIN
 70
     0
  9
$DIMDSEP
 70
    44
  9
$DIMATFIT
 70
     3
  9
$DIMFRAC
 70
     0
  9
$DIMLDRBLK
  1

  9
$DIMLUNIT
 70
     2
  9
$DIMLWD
 70
    -2
  9
$DIMLWE
 70
    -2
  9
$DIMTMOVE
 70
     0
  9
$LUNITS
 70
     2
  9
$LUPREC
 70
     2
  9
$SKETCHINC
 40
1.0
  9
$FILLETRAD
 40
10.0
  9
$AUNITS
 70
     0
  9
$AUPREC
 70
     2
  9
$MENU
  1
.
  9
$ELEVATION
 40
0.0
  9
$PELEVATION
 40
0.0
  9
$THICKNESS
 40
0.0
  9
$LIMCHECK
 70
     0
  9
$CHAMFERA
 40
0.0
  9
$CHAMFERB
 40
0.0
  9
$CHAMFERC
 40
0.0
  9
$CHAMFERD
 40
0.0
  9
$SKPOLY
 70
     0
  9
$TDCREATE
 40
2458313.475895868
  9
$TDUCREATE
 40
2458313.100895868
  9
$TDUPDATE
 40
2458319.389215035
  9
$TDUUPDATE
 40
2458319.014215035
  9
$TDINDWG
 40
0.0021825347
  9
$TDUSRTIMER
 40
2458319.014127662
  9
$USRTIMER
 70
     1
  9
$ANGBASE
 50
0.0
  9
$ANGDIR
 70
     0
  9
$PDMODE
 70
     0
  9
$PDSIZE
 40
-1.0
  9
$PLINEWID
 40
0.0
  9
$SPLFRAME
 70
     0
  9
$SPLINETYPE
 70
     6
  9
$SPLINESEGS
 70
     8
  9
$HANDSEED
  5
3CD
  9
$SURFTAB1
 70
     6
  9
$SURFTAB2
 70
     6
  9
$SURFTYPE
 70
     6
  9
$SURFU
 70
     6
  9
$SURFV
 70
     6
  9
$UCSBASE
  2

  9
$UCSNAME
  2

  9
$UCSORG
 10
0.0
 20
0.0
 30
0.0
  9
$UCSXDIR
 10
1.0
 20
0.0
 30
0.0
  9
$UCSYDIR
 10
0.0
 20
1.0
 30
0.0
  9
$UCSORTHOREF
  2

  9
$UCSORTHOVIEW
 70
     0
  9
$UCSORGTOP
 10
0.0
 20
0.0
 30
0.0
  9
$UCSORGBOTTOM
 10
0.0
 20
0.0
 30
0.0
  9
$UCSORGLEFT
 10
0.0
 20
0.0
 30
0.0
  9
$UCSORGRIGHT
 10
0.0
 20
0.0
 30
0.0
  9
$UCSORGFRONT
 10
0.0
 20
0.0
 30
0.0
  9
$UCSORGBACK
 10
0.0
 20
0.0
 30
0.0
  9
$PUCSBASE
  2

  9
$PUCSNAME
  2

  9
$PUCSORG
 10
0.0
 20
0.0
 30
0.0
  9
$PUCSXDIR
 10
1.0
 20
0.0
 30
0.0
  9
$PUCSYDIR
 10
0.0
 20
1.0
 30
0.0
  9
$PUCSORTHOREF
  2

  9
$PUCSORTHOVIEW
 70
     0
  9
$PUCSORGTOP
 10
0.0
 20
0.0
 30
0.0
  9
$PUCSORGBOTTOM
 10
0.0
 20
0.0
 30
0.0
  9
$PUCSORGLEFT
 10
0.0
 20
0.0
 30
0.0
  9
$PUCSORGRIGHT
 10
0.0
 20
0.0
 30
0.0
  9
$PUCSORGFRONT
 10
0.0
 20
0.0
 30
0.0
  9
$PUCSORGBACK
 10
0.0
 20
0.0
 30
0.0
  9
$USERI1
 70
     0
  9
$USERI2
 70
     0
  9
$USERI3
 70
     0
  9
$USERI4
 70
     0
  9
$USERI5
 70
     0
  9
$USERR1
 40
0.0
  9
$USERR2
 40
0.0
  9
$USERR3
 40
0.0
  9
$USERR4
 40
0.0
  9
$USERR5
 40
0.0
  9
$WORLDVIEW
 70
     1
  9
$SHADEDGE
 70
     3
  9
$SHADEDIF
 70
    70
  9
$TILEMODE
 70
     1
  9
$MAXACTVP
 70
    64
  9
$PINSBASE
 10
0.0
 20
0.0
 30
0.0
  9
$PLIMCHECK
 70
     0
  9
$PEXTMIN
 10
1.000000000000000E+20
 20
1.000000000000000E+20
 30
1.000000000000000E+20
  9
$PEXTMAX
 10
-1.000000000000000E+20
 20
-1.000000000000000E+20
 30
-1.000000000000000E+20
  9
$PLIMMIN
 10
0.0
 20
0.0
  9
$PLIMMAX
 10
0.0
 20
0.0
  9
$UNITMODE
 70
     0
  9
$VISRETAIN
 70
     1
  9
$PLINEGEN
 70
     0
  9
$PSLTSCALE
 70
     1
  9
$TREEDEPTH
 70
  3020
  9
$CMLSTYLE
  2
Standard
  9
$CMLJUST
 70
     0
  9
$CMLSCALE
 40
20.0
  9
$PROXYGRAPHICS
 70
     1
  9
$MEASUREMENT
 70
     1
  9
$CELWEIGHT
370
    -1
  9
$ENDCAPS
280
     0
  9
$JOINSTYLE
280
     0
  9
$LWDISPLAY
290
     1
  9
$INSUNITS
 70
     4
  9
$HYPERLINKBASE
  1

  9
$STYLESHEET
  1

  9
$XEDIT
290
     1
  9
$CEPSNTYPE
380
     0
  9
$PSTYLEMODE
290
     1
  9
$FINGERPRINTGUID
  2
{1A395374-4CA3-4A6F-92BE-DB44BD7800B5}
  9
$VERSIONGUID
  2
{FAEB1C32-E019-11D5-929B-00C0DF256EC4}
  9
$EXTNAMES
290
     1
  9
$PSVPSCALE
 40
0.0
  9
$OLESTARTUP
290
     0
  0
ENDSEC
  0
SECTION
  2
CLASSES
  0
CLASS
  1
ACDBDICTIONARYWDFLT
  2
AcDbDictionaryWithDefault
  3
ObjectDBX Classes
 90
        0
280
     0
281
     0
  0
CLASS
  1
VISUALSTYLE
  2
AcDbVisualStyle
  3
ObjectDBX Classes
 90
     4095
280
     0
281
     0
  0
CLASS
  1
MATERIAL
  2
AcDbMaterial
  3
ObjectDBX Classes
 90
     1153
280
     0
281
     0
  0
CLASS
  1
SCALE
  2
AcDbScale
  3
ObjectDBX Classes
 90
     1153
280
     0
281
     0
  0
CLASS
  1
SUN
  2
AcDbSun
  3
SCENEOE
 90
     1153
280
     0
281
     0
  0
CLASS
  1
ACDBPLACEHOLDER
  2
AcDbPlaceHolder
  3
ObjectDBX Classes
 90
        0
280
     0
281
     0
  0
CLASS
  1
LAYOUT
  2
AcDbLayout
  3
ObjectDBX Classes
 90
        0
280
     0
281
     0
  0
CLASS
  1
TABLESTYLE
  2
AcDbTableStyle
  3
ObjectDBX Classes
 90
     4095
280
     0
281
     0
  0
CLASS
  1
MLEADERSTYLE
  2
AcDbMLeaderStyle
  3
ACDB_MLEADERSTYLE_CLASS
 90
     4095
280
     0
281
     0
  0
CLASS
  1
RASTERVARIABLES
  2
AcDbRasterVariables
  3
ISM
 90
        0
280
     0
281
     0
  0
ENDSEC
  0
SECTION
  2
TABLES
  0
TABLE
  2
VPORT
  5
8
330
0
100
AcDbSymbolTable
 70
     1
  0
VPORT
  5
29
330
8
100
AcDbSymbolTableRecord
100
AcDbViewportTableRecord
  2
*Active
 70
     0
 10
0.0
 20
0.0
 11
1.0
 21
1.0
 12
12.70275885830009
 22
17.19697066803834
 13
0.0
 23
0.0
 14
10.0
 24
10.0
 15
10.0
 25
10.0
 16
0.0
 26
0.0
 36
1.0
 17
0.0
 27
0.0
 37
0.0
 40
170.0169871539182
 41
1.632093933463796
 42
50.0
 43
0.0
 44
0.0
 50
0.0
 51
0.0
 71
    16
 72
  2000
 73
     1
 74
     3
 75
     0
 76
     0
 77
     0
 78
     0
281
     0
 65
     1
110
0.0
120
0.0
130
0.0
111
1.0
121
0.0
131
0.0
112
0.0
122
1.0
132
0.0
 79
     0
146
0.0
  0
ENDTAB
  0
TABLE
  2
LTYPE
  5
5
330
0
100
AcDbSymbolTable
 70
     6
  0
LTYPE
  5
14
330
5
100
AcDbSymbolTableRecord
100
AcDbLinetypeTableRecord
  2
ByBlock
 70
     0
  3

 72
    65
 73
     0
 40
0.0
  0
LTYPE
  5
15
330
5
100
AcDbSymbolTableRecord
100
AcDbLinetypeTableRecord
  2
ByLayer
 70
     0
  3

 72
    65
 73
     0
 40
0.0
  0
LTYPE
  5
16
330
5
100
AcDbSymbolTableRecord
100
AcDbLinetypeTableRecord
  2
Continuous
 70
     0
  3
Solid line
 72
    65
 73
     0
 40
0.0
  0
LTYPE
  5
6A
330
5
100
AcDbSymbolTableRecord
100
AcDbLinetypeTableRecord
  2
HIDDEN
 70
     0
  3
Hidden __ __ __ __ __ __ __ __ __ __ __ __ __ __
 72
    65
 73
     2
 40
1.905
 49
1.27
 74
     0
 49
-0.635
 74
     0
  0
LTYPE
  5
6B
330
5
100
AcDbSymbolTableRecord
100
AcDbLinetypeTableRecord
  2
PHANTOM
 70
     0
  3
Phantom ______  __  __  ______  __  __  ______
 72
    65
 73
     6
 40
12.7
 49
6.35
 74
     0
 49
-1.27
 74
     0
 49
1.27
 74
     0
 49
-1.27
 74
     0
 49
1.27
 74
     0
 49
-1.27
 74
     0
  0
LTYPE
  5
6C
330
5
100
AcDbSymbolTableRecord
100
AcDbLinetypeTableRecord
  2
CENTER
 70
     0
  3
Center ____ _ ____ _ ____ _ ____ _ ____ _ ____
 72
    65
 73
     4
 40
10.16
 49
6.35
 74
     0
 49
-1.27
 74
     0
 49
1.27
 74
     0
 49
-1.27
 74
     0
  0
LTYPE
  5
6D
330
5
100
AcDbSymbolTableRecord
100
AcDbLinetypeTableRecord
  2
CENTERX2
 70
     0
  3
Center (2x) ________  __  ________  __  _____
 72
    65
 73
     4
 40
20.32
 49
12.7
 74
     0
 49
-2.54
 74
     0
 49
2.54
 74
     0
 49
-2.54
 74
     0
  0
LTYPE
  5
6E
330
5
100
AcDbSymbolTableRecord
100
AcDbLinetypeTableRecord
  2
DOT2
 70
     0
  3
Dot (.5x) ........................................
 72
    65
 73
     2
 40
0.635
 49
0.0
 74
     0
 49
-0.635
 74
     0
  0
ENDTAB
  0
TABLE
  2
LAYER
  5
2
102
{ACAD_XDICTIONARY
360
1D0
102
}
330
0
100
AcDbSymbolTable
 70
    18
  0
LAYER
  5
10
330
2
100
AcDbSymbolTableRecord
100
AcDbLayerTableRecord
  2
0
 70
     0
 62
     7
  6
Continuous
370
    -3
390
F
  0
LAYER
  5
6F
330
2
100
AcDbSymbolTableRecord
100
AcDbLayerTableRecord
  2
FORMAT
 70
     0
 62
     2
  6
Continuous
370
    -3
390
F
  0
LAYER
  5
70
330
2
100
AcDbSymbolTableRecord
100
AcDbLayerTableRecord
  2
외형선
 70
     0
 62
     4
  6
Continuous
370
    30
390
F
  0
LAYER
  5
71
330
2
100
AcDbSymbolTableRecord
100
AcDbLayerTableRecord
  2
숨은선
 70
     0
 62
     2
  6
HIDDEN
370
    15
390
F
  0
LAYER
  5
72
330
2
100
AcDbSymbolTableRecord
100
AcDbLayerTableRecord
  2
중심선
 70
     0
 62
     1
  6
CENTERX2
370
    -3
390
F
  0
LAYER
  5
73
330
2
100
AcDbSymbolTableRecord
100
AcDbLayerTableRecord
  2
파단선
 70
     0
 62
     4
  6
Continuous
370
    -3
390
F
  0
LAYER
  5
74
330
2
100
AcDbSymbolTableRecord
100
AcDbLayerTableRecord
  2
해칭선
 70
     0
 62
   100
  6
Continuous
370
    -3
390
F
  0
LAYER
  5
75
330
2
100
AcDbSymbolTableRecord
100
AcDbLayerTableRecord
  2
가는실선
 70
     0
 62
     4
  6
Continuous
370
    -3
390
F
  0
LAYER
  5
76
330
2
100
AcDbSymbolTableRecord
100
AcDbLayerTableRecord
  2
치수_보조선
 70
     0
 62
     4
  6
Continuous
370
    -3
390
F
  0
LAYER
  5
77
330
2
100
AcDbSymbolTableRecord
100
AcDbLayerTableRecord
  2
치수문자_일반주서
 70
     0
 62
     7
  6
Continuous
370
    15
390
F
  0
LAYER
  5
78
330
2
100
AcDbSymbolTableRecord
100
AcDbLayerTableRecord
  2
개별주서
 70
     0
 62
   100
  6
Continuous
370
    30
390
F
  0
LAYER
  5
79
330
2
100
AcDbSymbolTableRecord
100
AcDbLayerTableRecord
  2
중간선
 70
     0
 62
     2
  6
Continuous
370
    15
390
F
  0
LAYER
  5
7A
330
2
100
AcDbSymbolTableRecord
100
AcDbLayerTableRecord
  2
윤곽선
 70
     0
 62
     3
  6
Continuous
370
    40
390
F
  0
LAYER
  5
7B
330
2
100
AcDbSymbolTableRecord
100
AcDbLayerTableRecord
  2
중심마크
 70
     0
 62
   100
  6
Continuous
370
    30
390
F
  0
LAYER
  5
7C
330
2
100
AcDbSymbolTableRecord
100
AcDbLayerTableRecord
  2
가상선
 70
     0
 62
     4
  6
PHANTOM
370
    -3
390
F
  0
LAYER
  5
7D
330
2
100
AcDbSymbolTableRecord
100
AcDbLayerTableRecord
  2
특수지정선
 70
     0
 62
     5
  6
CENTERX2
370
    60
390
F
  0
LAYER
  5
7E
330
2
100
AcDbSymbolTableRecord
100
AcDbLayerTableRecord
  2
참조1
 70
     0
 62
    -4
  6
Continuous
370
    -3
390
F
  0
LAYER
  5
14A
330
2
100
AcDbSymbolTableRecord
100
AcDbLayerTableRecord
  2
Defpoints
 70
     0
 62
     7
  6
Continuous
290
     0
370
    -3
390
F
  0
ENDTAB
  0
TABLE
  2
STYLE
  5
3
330
0
100
AcDbSymbolTable
 70
     2
  0
STYLE
  5
11
330
3
100
AcDbSymbolTableRecord
100
AcDbTextStyleTableRecord
  2
Standard
 70
     0
 40
0.0
 41
1.0
 50
0.0
 71
     0
 42
3.5
  3
txt
  4

  0
STYLE
  5
94
330
3
100
AcDbSymbolTableRecord
100
AcDbTextStyleTableRecord
  2
SLDTEXTSTYLE0
 70
     0
 40
0.0
 41
0.75
 50
0.0
 71
     0
 42
3.5
  3
TXT
  4

  0
ENDTAB
  0
TABLE
  2
VIEW
  5
6
330
0
100
AcDbSymbolTable
 70
     0
  0
ENDTAB
  0
TABLE
  2
UCS
  5
7
330
0
100
AcDbSymbolTable
 70
     0
  0
ENDTAB
  0
TABLE
  2
APPID
  5
9
330
0
100
AcDbSymbolTable
 70
     1
  0
APPID
  5
12
330
9
100
AcDbSymbolTableRecord
100
AcDbRegAppTableRecord
  2
ACAD
 70
     0
  0
ENDTAB
  0
TABLE
  2
DIMSTYLE
  5
A
330
0
100
AcDbSymbolTable
 70
     4
100
AcDbDimStyleTable
  0
DIMSTYLE
105
27
330
A
100
AcDbSymbolTableRecord
100
AcDbDimStyleTableRecord
  2
ISO-25
 70
     0
 41
2.5
 42
0.625
 43
3.75
 44
1.25
 73
     0
 74
     0
 77
     1
 78
     8
140
2.5
141
2.5
143
0.03937007874016
147
0.625
171
     3
172
     1
178
     0
271
     2
272
     2
274
     3
278
    44
283
     0
284
     8
340
11
  0
DIMSTYLE
105
C7
330
A
100
AcDbSymbolTableRecord
100
AcDbDimStyleTableRecord
  2
SLDDIMSTYLE0
 70
     0
 41
3.302
 44
0.0
 45
0.000000001
 73
     0
 74
     0
 77
     1
 78
     4
 79
     1
140
3.5
143
0.0393700787401575
147
0.875
148
0.000000001
170
     1
173
     1
178
     0
271
     2
272
     2
276
     2
284
    12
340
94
  0
DIMSTYLE
105
DB
330
A
100
AcDbSymbolTableRecord
100
AcDbDimStyleTableRecord
  2
SLDDIMSTYLE1
 70
     0
 41
3.302
 44
0.0
 45
0.000000001
 73
     0
 74
     0
 77
     1
 78
    12
 79
     3
140
3.5
143
0.0393700787401575
147
0.875
148
0.000000001
170
     1
173
     1
178
     0
271
     2
272
     2
276
     2
284
    12
340
94
  0
DIMSTYLE
105
103
102
{ACAD_REACTORS
330
102
330
C6
330
DA
330
EF
102
}
330
A
100
AcDbSymbolTableRecord
100
AcDbDimStyleTableRecord
  2
SLDDIMSTYLE2
 70
     0
 41
3.302
 44
0.0
 45
0.000000001
 73
     0
 74
     0
 77
     1
 78
     4
 79
     1
140
3.5
143
0.0393700787401575
147
0.875
148
0.000000001
170
     1
172
     1
173
     1
178
     0
271
     2
272
     2
276
     2
284
    12
289
     0
340
94
  0
ENDTAB
  0
TABLE
  2
BLOCK_RECORD
  5
1
330
0
100
AcDbSymbolTable
 70
    19
  0
BLOCK_RECORD
  5
1F
330
1
100
AcDbSymbolTableRecord
100
AcDbBlockTableRecord
  2
*Model_Space
340
22
  0
BLOCK_RECORD
  5
1B
330
1
100
AcDbSymbolTableRecord
100
AcDbBlockTableRecord
  2
*Paper_Space
340
1E
  0
BLOCK_RECORD
  5
23
330
1
100
AcDbSymbolTableRecord
100
AcDbBlockTableRecord
  2
*Paper_Space0
340
26
  0
BLOCK_RECORD
  5
7F
330
1
100
AcDbSymbolTableRecord
100
AcDbBlockTableRecord
  2
블럭10
340
0
102
{BLKREFS
331
BF
102
}
  0
BLOCK_RECORD
  5
C8
330
1
100
AcDbSymbolTableRecord
100
AcDbBlockTableRecord
  2
_D
340
0
  0
BLOCK_RECORD
  5
DC
330
1
100
AcDbSymbolTableRecord
100
AcDbBlockTableRecord
  2
_D_1
340
0
  0
BLOCK_RECORD
  5
F0
330
1
100
AcDbSymbolTableRecord
100
AcDbBlockTableRecord
  2
_D_2
340
0
  0
BLOCK_RECORD
  5
104
330
1
100
AcDbSymbolTableRecord
100
AcDbBlockTableRecord
  2
_D_3
340
0
  0
BLOCK_RECORD
  5
11E
330
1
100
AcDbSymbolTableRecord
100
AcDbBlockTableRecord
  2
SW_DOWELSYMBOL_0
340
0
102
{BLKREFS
331
124
102
}
  0
BLOCK_RECORD
  5
1D4
330
1
100
AcDbSymbolTableRecord
100
AcDbBlockTableRecord
  2
*D7
340
0
  0
BLOCK_RECORD
  5
1E1
330
1
100
AcDbSymbolTableRecord
100
AcDbBlockTableRecord
  2
*D8
340
0
  0
BLOCK_RECORD
  5
1EE
330
1
100
AcDbSymbolTableRecord
100
AcDbBlockTableRecord
  2
*D9
340
0
  0
BLOCK_RECORD
  5
228
330
1
100
AcDbSymbolTableRecord
100
AcDbBlockTableRecord
  2
*D10
340
0
  0
BLOCK_RECORD
  5
235
330
1
100
AcDbSymbolTableRecord
100
AcDbBlockTableRecord
  2
*D11
340
0
  0
BLOCK_RECORD
  5
242
330
1
100
AcDbSymbolTableRecord
100
AcDbBlockTableRecord
  2
*D12
340
0
  0
BLOCK_RECORD
  5
2DD
330
1
100
AcDbSymbolTableRecord
100
AcDbBlockTableRecord
  2
*D13
340
0
  0
BLOCK_RECORD
  5
2EA
330
1
100
AcDbSymbolTableRecord
100
AcDbBlockTableRecord
  2
*D14
340
0
  0
BLOCK_RECORD
  5
2F7
330
1
100
AcDbSymbolTableRecord
100
AcDbBlockTableRecord
  2
*D15
340
0
  0
BLOCK_RECORD
  5
331
330
1
100
AcDbSymbolTableRecord
100
AcDbBlockTableRecord
  2
*D16
340
0
  0
BLOCK_RECORD
  5
33E
330
1
100
AcDbSymbolTableRecord
100
AcDbBlockTableRecord
  2
*D17
340
0
  0
BLOCK_RECORD
  5
34B
330
1
100
AcDbSymbolTableRecord
100
AcDbBlockTableRecord
  2
*D18
340
0
  0
ENDTAB
  0
ENDSEC
  0
SECTION
  2
BLOCKS
  0
BLOCK
  5
20
330
1F
100
AcDbEntity
  8
0
100
AcDbBlockBegin
  2
*Model_Space
 70
     0
 10
0.0
 20
0.0
 30
0.0
  3
*Model_Space
  1
*Model_Space
  0
ENDBLK
  5
21
330
1F
100
AcDbEntity
  8
0
100
AcDbBlockEnd
  0
BLOCK
  5
1C
330
1B
100
AcDbEntity
 67
     1
  8
0
100
AcDbBlockBegin
  2
*Paper_Space
 70
     0
 10
0.0
 20
0.0
 30
0.0
  3
*Paper_Space
  1
*Paper_Space
  0
ENDBLK
  5
1D
330
1B
100
AcDbEntity
 67
     1
  8
0
100
AcDbBlockEnd
  0
BLOCK
  5
24
330
23
100
AcDbEntity
  8
0
100
AcDbBlockBegin
  2
*Paper_Space0
 70
     0
 10
0.0
 20
0.0
 30
0.0
  3
*Paper_Space0
  1
*Paper_Space0
  0
ENDBLK
  5
25
330
23
100
AcDbEntity
  8
0
100
AcDbBlockEnd
  0
BLOCK
  5
80
330
7F
100
AcDbEntity
  8
0
100
AcDbBlockBegin
  2
블럭10
 70
     2
 10
0.0
 20
0.0
 30
0.0
  3
블럭10
  1
블럭10
  0
ELLIPSE
  5
82
330
7F
100
AcDbEntity
  8
중심선
100
AcDbEllipse
 10
20.54032771741204
 20
12.0471743016438
 30
0.0
 11
6.600054785286829
 21
-1.261213355974178E-13
 31
0.0
210
0.0
220
0.0
230
1.0
 40
0.636358354079598
 41
0.9219305317359503
 42
6.513795318482858
  0
ELLIPSE
  5
83
330
7F
100
AcDbEntity
  8
중심선
100
AcDbEllipse
 10
20.54032771746488
 20
12.04717430159265
 30
0.0
 11
3.960054785062283
 21
1.540847449632565E-10
 31
0.0
210
0.0
220
0.0
230
1.0
 40
0.3939339440162632
 41
1.131841032648279
 42
5.62031148352944
  0
LINE
  5
84
330
7F
100
AcDbEntity
  8
중심선
100
AcDbLine
 10
2.268634060543552
 20
16.24717430164393
 30
0.0
 11
5.714909304380834
 21
16.24717430164393
 31
0.0
  0
LINE
  5
85
330
7F
100
AcDbEntity
  8
중심선
100
AcDbLine
 10
5.245725140726316
 20
7.84717430164391
 30
0.0
 11
8.692000384563599
 21
7.84717430164391
 31
0.0
  0
LINE
  5
86
330
7F
100
AcDbEntity
  8
중심선
100
AcDbLine
 10
15.74043728645272
 20
16.24717430164393
 30
0.0
 11
8.692000384563599
 21
7.84717430164391
 31
0.0
  0
LINE
  5
87
330
7F
100
AcDbEntity
  8
중심선
100
AcDbLine
 10
0.1404042013395286
 20
13.71084872107135
 30
0.0
 11
3.58671253028996
 21
13.71088815037384
 31
0.0
  0
LINE
  5
88
330
7F
100
AcDbEntity
  8
중심선
100
AcDbLine
 10
2.750260043222114
 20
10.84717430164391
 30
0.0
 11
6.196535287059397
 21
10.84717430164391
 31
0.0
  0
LINE
  5
89
330
7F
100
AcDbEntity
  8
중심선
100
AcDbLine
 10
12.29416204261559
 20
16.24717430164393
 30
0.0
 11
5.245725140726316
 21
7.84717430164391
 31
0.0
  0
LINE
  5
8A
330
7F
100
AcDbEntity
  8
중심선
100
AcDbLine
 10
10.72767329541681
 20
16.24717430164393
 30
0.0
 11
6.196535287059397
 21
10.84717430164391
 31
0.0
  0
LINE
  5
8B
330
7F
100
AcDbEntity
  8
중심선
100
AcDbLine
 10
7.28139805157953
 20
16.24717430164393
 30
0.0
 11
2.750260043222114
 21
10.84717430164391
 31
0.0
  0
LINE
  5
8C
330
7F
100
AcDbEntity
  8
중심선
100
AcDbLine
 10
5.714909304380834
 20
16.24717430164393
 30
0.0
 11
3.58671253028996
 21
13.71088815037384
 31
0.0
  0
LINE
  5
8D
330
7F
100
AcDbEntity
  8
중심선
100
AcDbLine
 10
2.268634060543552
 20
16.24717430164393
 30
0.0
 11
0.1404042013395286
 21
13.71084872107135
 31
0.0
  0
LINE
  5
8E
330
7F
100
AcDbEntity
  8
중심선
100
AcDbLine
 10
7.28139805157953
 20
16.24717430164393
 30
0.0
 11
10.72767329541681
 21
16.24717430164393
 31
0.0
  0
LINE
  5
8F
330
7F
100
AcDbEntity
  8
중심선
100
AcDbLine
 10
12.29416204261559
 20
16.24717430164393
 30
0.0
 11
15.74043728645272
 21
16.24717430164393
 31
0.0
  0
LINE
  5
90
330
7F
100
AcDbEntity
  8
중심선
100
AcDbLine
 10
19.22036997980202
 20
11.08717430171403
 30
0.0
 11
23.66174974927406
 21
11.08717430171406
 31
0.0
  0
LINE
  5
91
330
7F
100
AcDbEntity
  8
중심선
100
AcDbLine
 10
19.22039502424796
 20
13.00717430171391
 30
0.0
 11
19.22036997980202
 21
11.08717430171403
 31
0.0
  0
LINE
  5
92
330
7F
100
AcDbEntity
  8
중심선
100
AcDbLine
 10
19.22039502424796
 20
13.00717430171391
 30
0.0
 11
26.96566020931264
 21
13.00717430171391
 31
0.0
  0
LINE
  5
93
330
7F
100
AcDbEntity
  8
중심선
100
AcDbLine
 10
22.22332737316547
 20
13.45928029700563
 30
0.0
 11
24.52862924686651
 21
15.39360700705356
 31
0.0
  0
ATTDEF
  5
95
330
7F
100
AcDbEntity
  8
FORMAT
 62
     2
100
AcDbText
 10
4.408487351596664
 20
2.075366912832191
 30
0.0
 40
4.233333333333333
  1
E1053064
 41
0.75
  7
SLDTEXTSTYLE0
 11
4.408487351596664
 21
-0.0412997538344756
 31
0.0
100
AcDbAttributeDefinition
  3

  2
AUTOATTR0
 70
     0
 74
     1
  0
ENDBLK
  5
81
330
7F
100
AcDbEntity
  8
0
100
AcDbBlockEnd
  0
BLOCK
  5
C9
330
C8
100
AcDbEntity
  8
0
100
AcDbBlockBegin
  2
_D
 70
     0
 10
0.0
 20
0.0
 30
0.0
  3
_D
  1
_D
  0
LINE
  5
CB
330
C8
100
AcDbEntity
  8
치수문자_일반주서
 62
     0
370
    -2
100
AcDbLine
 10
81.025
 20
12.70000000000001
 30
0.0
 11
110.9873617420092
 21
12.70000000000012
 31
0.0
  0
LINE
  5
CC
330
C8
100
AcDbEntity
  8
치수문자_일반주서
 62
     0
370
    -2
100
AcDbLine
 10
81.025
 20
-12.69999999999999
 30
0.0
 11
110.9873617420093
 21
-12.69999999999987
 31
0.0
  0
LINE
  5
CD
330
C8
100
AcDbEntity
  8
치수문자_일반주서
 62
     0
370
    -2
100
AcDbLine
 10
110.9873617420092
 20
12.70000000000012
 30
0.0
 11
110.987361742009
 21
48.33181130945849
 31
0.0
  0
LINE
  5
CE
330
C8
100
AcDbEntity
  8
치수문자_일반주서
 62
     0
370
    -2
100
AcDbLine
 10
110.9873617420092
 20
12.70000000000012
 30
0.0
 11
110.9873617420093
 21
-12.69999999999987
 31
0.0
  0
LINE
  5
CF
330
C8
100
AcDbEntity
  8
치수문자_일반주서
 62
     0
370
    -2
100
AcDbLine
 10
110.9873617420092
 20
16.00200000000012
 30
0.0
 11
110.9873617420091
 21
19.30400000000012
 31
0.0
  0
LINE
  5
D0
330
C8
100
AcDbEntity
  8
치수문자_일반주서
 62
     0
370
    -2
100
AcDbLine
 10
110.9873617420093
 20
-16.00199999999987
 30
0.0
 11
110.9873617420093
 21
-19.30399999999987
 31
0.0
  0
SOLID
  5
D1
330
C8
100
AcDbEntity
  8
치수문자_일반주서
 62
     0
100
AcDbTrace
 10
110.4370284086758
 20
16.00200000000012
 30
0.0
 11
111.5376950753425
 21
16.00200000000012
 31
0.0
 12
110.9873617420092
 22
12.70000000000012
 32
0.0
 13
110.9873617420092
 23
12.70000000000012
 33
0.0
  0
SOLID
  5
D2
330
C8
100
AcDbEntity
  8
치수문자_일반주서
 62
     0
100
AcDbTrace
 10
111.5376950753426
 20
-16.00199999999987
 30
0.0
 11
110.4370284086759
 21
-16.00199999999988
 31
0.0
 12
110.9873617420093
 22
-12.69999999999987
 32
0.0
 13
110.9873617420093
 23
-12.69999999999987
 33
0.0
  0
MTEXT
  5
D3
330
C8
100
AcDbEntity
  8
치수문자_일반주서
 62
     0
100
AcDbMText
 10
106.6123617420091
 20
37.17556130945848
 30
0.0
 40
3.5
 41
0.0
 71
     2
 72
     1
  1
\A1;%%c25.40 [1]
  7
SLDTEXTSTYLE0
 11
-3.356894814614647E-15
 21
1.0
 31
0.0
 73
     1
 44
1.0
  0
POINT
  5
D4
330
C8
100
AcDbEntity
  8
Defpoints
 62
     0
100
AcDbPoint
 10
80.9625
 20
12.70000000000001
 30
0.0
  0
POINT
  5
24E
330
C8
100
AcDbEntity
  8
Defpoints
 62
     0
100
AcDbPoint
 10
80.9625
 20
-12.69999999999999
 30
0.0
  0
POINT
  5
24F
330
C8
100
AcDbEntity
  8
Defpoints
 62
     0
100
AcDbPoint
 10
110.9873617420093
 20
-12.69999999999988
 30
0.0
  0
ENDBLK
  5
CA
330
C8
100
AcDbEntity
  8
0
100
AcDbBlockEnd
  0
BLOCK
  5
DD
330
DC
100
AcDbEntity
  8
0
100
AcDbBlockBegin
  2
_D_1
 70
     0
 10
0.0
 20
0.0
 30
0.0
  3
_D_1
  1
_D_1
  0
LINE
  5
DF
330
DC
100
AcDbEntity
  8
치수문자_일반주서
 62
     0
370
    -2
100
AcDbLine
 10
80.9625
 20
12.76250000000001
 30
0.0
 11
80.9625
 21
34.57623114871488
 31
0.0
  0
LINE
  5
E0
330
DC
100
AcDbEntity
  8
치수문자_일반주서
 62
     0
370
    -2
100
AcDbLine
 10
33.33750000000002
 20
10.96393940523146
 30
0.0
 11
33.33750000000002
 21
34.57623114871488
 31
0.0
  0
LINE
  5
E1
330
DC
100
AcDbEntity
  8
치수문자_일반주서
 62
     0
370
    -2
100
AcDbLine
 10
33.33750000000002
 20
34.57623114871488
 30
0.0
 11
-22.85459358789976
 21
34.57623114871488
 31
0.0
  0
LINE
  5
E2
330
DC
100
AcDbEntity
  8
치수문자_일반주서
 62
     0
370
    -2
100
AcDbLine
 10
80.9625
 20
34.57623114871488
 30
0.0
 11
33.33750000000002
 21
34.57623114871488
 31
0.0
  0
LINE
  5
E3
330
DC
100
AcDbEntity
  8
치수문자_일반주서
 62
     0
370
    -2
100
AcDbLine
 10
84.2645
 20
34.57623114871488
 30
0.0
 11
87.56649999999999
 21
34.57623114871488
 31
0.0
  0
LINE
  5
E4
330
DC
100
AcDbEntity
  8
치수문자_일반주서
 62
     0
370
    -2
100
AcDbLine
 10
30.03550000000002
 20
34.57623114871488
 30
0.0
 11
26.73350000000002
 21
34.57623114871488
 31
0.0
  0
SOLID
  5
E5
330
DC
100
AcDbEntity
  8
치수문자_일반주서
 62
     0
100
AcDbTrace
 10
84.2645
 20
35.12656448204821
 30
0.0
 11
84.2645
 21
34.02589781538154
 31
0.0
 12
80.9625
 22
34.57623114871488
 32
0.0
 13
80.9625
 23
34.57623114871488
 33
0.0
  0
SOLID
  5
E6
330
DC
100
AcDbEntity
  8
치수문자_일반주서
 62
     0
100
AcDbTrace
 10
30.03550000000002
 20
34.02589781538154
 30
0.0
 11
30.03550000000002
 21
35.12656448204821
 31
0.0
 12
33.33750000000002
 22
34.57623114871488
 32
0.0
 13
33.33750000000002
 23
34.57623114871488
 33
0.0
  0
MTEXT
  5
E7
330
DC
100
AcDbEntity
  8
치수문자_일반주서
 62
     0
100
AcDbMText
 10
-7.542093587899757
 20
38.95123114871488
 30
0.0
 40
3.5
 41
0.0
 71
     2
 72
     1
  1
\A1;47.63 [1 7/8]
  7
SLDTEXTSTYLE0
 73
     1
 44
1.0
  0
POINT
  5
E8
330
DC
100
AcDbEntity
  8
Defpoints
 62
     0
100
AcDbPoint
 10
80.9625
 20
12.70000000000001
 30
0.0
  0
POINT
  5
250
330
DC
100
AcDbEntity
  8
Defpoints
 62
     0
100
AcDbPoint
 10
33.33750000000002
 20
10.90143940523146
 30
0.0
  0
POINT
  5
251
330
DC
100
AcDbEntity
  8
Defpoints
 62
     0
100
AcDbPoint
 10
33.33750000000002
 20
34.57623114871488
 30
0.0
  0
ENDBLK
  5
DE
330
DC
100
AcDbEntity
  8
0
100
AcDbBlockEnd
  0
BLOCK
  5
F1
330
F0
100
AcDbEntity
  8
0
100
AcDbBlockBegin
  2
_D_2
 70
     0
 10
0.0
 20
0.0
 30
0.0
  3
_D_2
  1
_D_2
  0
LINE
  5
F3
330
F0
100
AcDbEntity
  8
치수문자_일반주서
 62
     0
370
    -2
100
AcDbLine
 10
80.9625
 20
12.76250000000001
 30
0.0
 11
80.9625
 21
60.24371585538411
 31
0.0
  0
LINE
  5
F4
330
F0
100
AcDbEntity
  8
치수문자_일반주서
 62
     0
370
    -2
100
AcDbLine
 10
-80.96250000000006
 20
11.96874999999999
 30
0.0
 11
-80.96250000000006
 21
60.24371585538411
 31
0.0
  0
LINE
  5
F5
330
F0
100
AcDbEntity
  8
치수문자_일반주서
 62
     0
370
    -2
100
AcDbLine
 10
77.66050000000001
 20
60.24371585538411
 30
0.0
 11
-77.66050000000007
 21
60.24371585538411
 31
0.0
  0
SOLID
  5
F6
330
F0
100
AcDbEntity
  8
치수문자_일반주서
 62
     0
100
AcDbTrace
 10
77.66050000000001
 20
59.69338252205078
 30
0.0
 11
77.66050000000001
 21
60.79404918871744
 31
0.0
 12
80.9625
 22
60.24371585538411
 32
0.0
 13
80.9625
 23
60.24371585538411
 33
0.0
  0
SOLID
  5
F7
330
F0
100
AcDbEntity
  8
치수문자_일반주서
 62
     0
100
AcDbTrace
 10
-77.66050000000007
 20
60.79404918871744
 30
0.0
 11
-77.66050000000007
 21
59.69338252205078
 31
0.0
 12
-80.96250000000006
 22
60.24371585538411
 32
0.0
 13
-80.96250000000006
 23
60.24371585538411
 33
0.0
  0
MTEXT
  5
F8
330
F0
100
AcDbEntity
  8
치수문자_일반주서
 62
     0
100
AcDbMText
 10
-4.131508544009797
 20
64.61871585538411
 30
0.0
 40
3.5
 41
0.0
 71
     2
 72
     1
  1
\A1;161.93 [6 3/8]
  7
SLDTEXTSTYLE0
 73
     1
 44
1.0
  0
POINT
  5
F9
330
F0
100
AcDbEntity
  8
Defpoints
 62
     0
100
AcDbPoint
 10
80.9625
 20
12.70000000000001
 30
0.0
  0
POINT
  5
FA
330
F0
100
AcDbEntity
  8
Defpoints
 62
     0
100
AcDbPoint
 10
-80.96250000000006
 20
11.90624999999999
 30
0.0
  0
POINT
  5
FB
330
F0
100
AcDbEntity
  8
Defpoints
 62
     0
100
AcDbPoint
 10
-80.96250000000006
 20
60.24371585538411
 30
0.0
  0
ENDBLK
  5
F2
330
F0
100
AcDbEntity
  8
0
100
AcDbBlockEnd
  0
BLOCK
  5
105
330
104
100
AcDbEntity
  8
0
100
AcDbBlockBegin
  2
_D_3
 70
     0
 10
0.0
 20
0.0
 30
0.0
  3
_D_3
  1
_D_3
  0
LINE
  5
107
330
104
100
AcDbEntity
  8
치수문자_일반주서
 62
     0
370
    -2
100
AcDbLine
 10
-29.43768467149224
 20
12.69999999999999
 30
0.0
 11
-91.89875000000006
 21
12.69999999999976
 31
0.0
  0
LINE
  5
108
330
104
100
AcDbEntity
  8
치수문자_일반주서
 62
     0
370
    -2
100
AcDbLine
 10
-29.43768467149224
 20
-12.70000000000001
 30
0.0
 11
-91.89874999999998
 21
-12.70000000000024
 31
0.0
  0
LINE
  5
109
330
104
100
AcDbEntity
  8
치수문자_일반주서
 62
     0
370
    -2
100
AcDbLine
 10
-91.89875000000005
 20
9.397999999999758
 30
0.0
 11
-91.89874999999999
 21
-9.398000000000241
 31
0.0
  0
SOLID
  5
10A
330
104
100
AcDbEntity
  8
치수문자_일반주서
 62
     0
100
AcDbTrace
 10
-91.34841666666672
 20
9.39799999999976
 30
0.0
 11
-92.44908333333338
 21
9.397999999999756
 31
0.0
 12
-91.89875000000006
 22
12.69999999999976
 32
0.0
 13
-91.89875000000006
 23
12.69999999999976
 33
0.0
  0
SOLID
  5
10B
330
104
100
AcDbEntity
  8
치수문자_일반주서
 62
     0
100
AcDbTrace
 10
-92.44908333333332
 20
-9.398000000000243
 30
0.0
 11
-91.34841666666667
 21
-9.39800000000024
 31
0.0
 12
-91.89874999999998
 22
-12.70000000000024
 32
0.0
 13
-91.89874999999998
 23
-12.70000000000024
 33
0.0
  0
MTEXT
  5
10C
330
104
100
AcDbEntity
  8
치수문자_일반주서
 62
     0
100
AcDbMText
 10
-96.27375000000002
 20
-0.0000000000000324
 30
0.0
 40
3.5
 41
0.0
 71
     2
 72
     1
  1
\A1;%%c25.40 [1]
  7
SLDTEXTSTYLE0
 11
-3.356894814614647E-15
 21
1.0
 31
0.0
 73
     1
 44
1.0
  0
POINT
  5
10D
330
104
100
AcDbEntity
  8
Defpoints
 62
     0
100
AcDbPoint
 10
-29.37518467149224
 20
12.69999999999999
 30
0.0
  0
POINT
  5
10E
330
104
100
AcDbEntity
  8
Defpoints
 62
     0
100
AcDbPoint
 10
-29.37518467149224
 20
-12.70000000000001
 30
0.0
  0
POINT
  5
10F
330
104
100
AcDbEntity
  8
Defpoints
 62
     0
100
AcDbPoint
 10
-91.89874999999998
 20
-12.70000000000024
 30
0.0
  0
ENDBLK
  5
106
330
104
100
AcDbEntity
  8
0
100
AcDbBlockEnd
  0
BLOCK
  5
11F
330
11E
100
AcDbEntity
  8
0
100
AcDbBlockBegin
  2
SW_DOWELSYMBOL_0
 70
     0
 10
0.0
 20
0.0
 30
0.0
  3
SW_DOWELSYMBOL_0
  1
SW_DOWELSYMBOL_0
  0
CIRCLE
  5
121
330
11E
100
AcDbEntity
  8
해칭선
 62
     0
100
AcDbCircle
 10
0.0
 20
0.0
 30
0.0
 40
3.000000000000008
  0
HATCH
  5
122
330
11E
100
AcDbEntity
  8
0
  6
Continuous
 62
     0
370
     0
100
AcDbHatch
 10
0.0
 20
0.0
 30
0.0
210
0.0
220
0.0
230
1.0
  2
SOLID
 70
     1
 71
     0
 91
        1
 92
        0
 93
        3
 72
     2
 10
0.0
 20
0.0
 40
3.000000000000008
 50
0.0
 51
90.0
 73
     1
 72
     1
 10
0.0
 20
3.000000000000008
 11
0.0
 21
0.0
 72
     1
 10
0.0
 20
0.0
 11
3.000000000000003
 21
0.0
 97
        0
 75
     0
 76
     1
 98
        1
 10
0.0
 20
0.0
  0
HATCH
  5
123
330
11E
100
AcDbEntity
  8
0
  6
Continuous
 62
     0
370
     0
100
AcDbHatch
 10
0.0
 20
0.0
 30
0.0
210
0.0
220
0.0
230
1.0
  2
SOLID
 70
     1
 71
     0
 91
        1
 92
        0
 93
        3
 72
     2
 10
0.0
 20
0.0
 40
3.000000000000008
 50
180.0
 51
270.0000000000007
 73
     1
 72
     1
 10
0.0
 20
-3.000000000000008
 11
0.0
 21
0.0
 72
     1
 10
0.0
 20
0.0
 11
-3.000000000000003
 21
0.0
 97
        0
 75
     0
 76
     1
 98
        1
 10
0.0
 20
0.0
  0
ENDBLK
  5
120
330
11E
100
AcDbEntity
  8
0
100
AcDbBlockEnd
  0
BLOCK
  5
1D5
330
1D4
100
AcDbEntity
  8
0
100
AcDbBlockBegin
  2
*D7
 70
     1
 10
0.0
 20
0.0
 30
0.0
  3
*D7
  1
*D8
  0
LINE
  5
1D7
330
1D4
100
AcDbEntity
  8
치수문자_일반주서
 62
     0
370
    -2
100
AcDbLine
 10
164.9875
 20
30.41649999999986
 30
0.0
 11
201.6562551704443
 21
30.4165
 31
0.0
  0
LINE
  5
1D8
330
1D4
100
AcDbEntity
  8
치수문자_일반주서
 62
     0
370
    -2
100
AcDbLine
 10
164.9875
 20
6.603999999999859
 30
0.0
 11
201.6562551704444
 21
6.603999999999992
 31
0.0
  0
LINE
  5
1D9
330
1D4
100
AcDbEntity
  8
치수문자_일반주서
 62
     0
370
    -2
100
AcDbLine
 10
201.6562551704443
 20
30.4165
 30
0.0
 11
201.6562551704441
 21
68.97671585538407
 31
0.0
  0
LINE
  5
1DA
330
1D4
100
AcDbEntity
  8
치수문자_일반주서
 62
     0
370
    -2
100
AcDbLine
 10
201.6562551704443
 20
27.1145
 30
0.0
 11
201.6562551704444
 21
9.905999999999992
 31
0.0
  0
SOLID
  5
1DB
330
1D4
100
AcDbEntity
  8
치수문자_일반주서
 62
     0
100
AcDbTrace
 10
202.2065885037776
 20
27.1145
 30
0.0
 11
201.1059218371109
 21
27.11449999999999
 31
0.0
 12
201.6562551704443
 22
30.4165
 32
0.0
 13
201.6562551704443
 23
30.4165
 33
0.0
  0
SOLID
  5
1DC
330
1D4
100
AcDbEntity
  8
치수문자_일반주서
 62
     0
100
AcDbTrace
 10
201.105921837111
 20
9.90599999999999
 30
0.0
 11
202.2065885037777
 21
9.905999999999993
 31
0.0
 12
201.6562551704444
 22
6.603999999999992
 32
0.0
 13
201.6562551704444
 23
6.603999999999992
 33
0.0
  0
MTEXT
  5
1DD
330
1D4
100
AcDbEntity
  8
치수문자_일반주서
 62
     0
100
AcDbMText
 10
197.2812551704442
 20
53.22671585538406
 30
0.0
 40
3.5
 41
0.0
 71
     2
 72
     1
  1
\A1;%%c23.81 [15/16]
  7
SLDTEXTSTYLE0
 11
-3.580687802255623E-15
 21
1.0
 31
0.0
 73
     1
 44
1.0
  0
POINT
  5
1DE
330
1D4
100
AcDbEntity
  8
Defpoints
 62
     0
100
AcDbPoint
 10
164.925
 20
30.41649999999986
 30
0.0
  0
POINT
  5
1DF
330
1D4
100
AcDbEntity
  8
Defpoints
 62
     0
100
AcDbPoint
 10
164.925
 20
6.603999999999859
 30
0.0
  0
POINT
  5
1E0
330
1D4
100
AcDbEntity
  8
Defpoints
 62
     0
100
AcDbPoint
 10
201.6562551704444
 20
6.603999999999997
 30
0.0
  0
ENDBLK
  5
1D6
330
1D4
100
AcDbEntity
  8
0
100
AcDbBlockEnd
  0
BLOCK
  5
1E2
330
1E1
100
AcDbEntity
  8
0
100
AcDbBlockBegin
  2
*D8
 70
     1
 10
0.0
 20
0.0
 30
0.0
  3
*D8
  1
*D9
  0
LINE
  5
1E4
330
1E1
100
AcDbEntity
  8
치수문자_일반주서
 62
     0
370
    -2
100
AcDbLine
 10
164.925
 20
30.47899999999986
 30
0.0
 11
164.925
 21
48.05566812626171
 31
0.0
  0
LINE
  5
1E5
330
1E1
100
AcDbEntity
  8
치수문자_일반주서
 62
     0
370
    -2
100
AcDbLine
 10
117.3
 20
29.56521307791552
 30
0.0
 11
117.3
 21
48.05566812626171
 31
0.0
  0
LINE
  5
1E6
330
1E1
100
AcDbEntity
  8
치수문자_일반주서
 62
     0
370
    -2
100
AcDbLine
 10
117.3
 20
48.05566812626171
 30
0.0
 11
74.57255825846875
 21
48.05566812626171
 31
0.0
  0
LINE
  5
1E7
330
1E1
100
AcDbEntity
  8
치수문자_일반주서
 62
     0
370
    -2
100
AcDbLine
 10
161.623
 20
48.05566812626171
 30
0.0
 11
120.602
 21
48.05566812626171
 31
0.0
  0
SOLID
  5
1E8
330
1E1
100
AcDbEntity
  8
치수문자_일반주서
 62
     0
100
AcDbTrace
 10
161.623
 20
47.50533479292837
 30
0.0
 11
161.623
 21
48.60600145959504
 31
0.0
 12
164.925
 22
48.05566812626171
 32
0.0
 13
164.925
 23
48.05566812626171
 33
0.0
  0
SOLID
  5
1E9
330
1E1
100
AcDbEntity
  8
치수문자_일반주서
 62
     0
100
AcDbTrace
 10
120.602
 20
48.60600145959504
 30
0.0
 11
120.602
 21
47.50533479292837
 31
0.0
 12
117.3
 22
48.05566812626171
 32
0.0
 13
117.3
 23
48.05566812626171
 33
0.0
  0
MTEXT
  5
1EA
330
1E1
100
AcDbEntity
  8
치수문자_일반주서
 62
     0
100
AcDbMText
 10
89.88505825846875
 20
52.43066812626171
 30
0.0
 40
3.5
 41
0.0
 71
     2
 72
     1
  1
\A1;47.63 [1 7/8]
  7
SLDTEXTSTYLE0
 73
     1
 44
1.0
  0
POINT
  5
1EB
330
1E1
100
AcDbEntity
  8
Defpoints
 62
     0
100
AcDbPoint
 10
164.925
 20
30.41649999999986
 30
0.0
  0
POINT
  5
1EC
330
1E1
100
AcDbEntity
  8
Defpoints
 62
     0
100
AcDbPoint
 10
117.3
 20
29.50271307791552
 30
0.0
  0
POINT
  5
1ED
330
1E1
100
AcDbEntity
  8
Defpoints
 62
     0
100
AcDbPoint
 10
117.3
 20
48.05566812626171
 30
0.0
  0
ENDBLK
  5
1E3
330
1E1
100
AcDbEntity
  8
0
100
AcDbBlockEnd
  0
BLOCK
  5
1EF
330
1EE
100
AcDbEntity
  8
0
100
AcDbBlockBegin
  2
*D9
 70
     1
 10
0.0
 20
0.0
 30
0.0
  3
*D9
  1
*D10
  0
LINE
  5
1F1
330
1EE
100
AcDbEntity
  8
치수문자_일반주서
 62
     0
370
    -2
100
AcDbLine
 10
164.925
 20
30.47899999999986
 30
0.0
 11
164.925
 21
77.96313479835835
 31
0.0
  0
LINE
  5
1F2
330
1EE
100
AcDbEntity
  8
치수문자_일반주서
 62
     0
370
    -2
100
AcDbLine
 10
3.000000000000007
 20
28.73274999999985
 30
0.0
 11
3.0
 21
77.96313479835835
 31
0.0
  0
LINE
  5
1F3
330
1EE
100
AcDbEntity
  8
치수문자_일반주서
 62
     0
370
    -2
100
AcDbLine
 10
161.623
 20
77.96313479835835
 30
0.0
 11
6.302
 21
77.96313479835835
 31
0.0
  0
SOLID
  5
1F4
330
1EE
100
AcDbEntity
  8
치수문자_일반주서
 62
     0
100
AcDbTrace
 10
161.623
 20
77.41280146502503
 30
0.0
 11
161.623
 21
78.51346813169168
 31
0.0
 12
164.925
 22
77.96313479835835
 32
0.0
 13
164.925
 23
77.96313479835835
 33
0.0
  0
SOLID
  5
1F5
330
1EE
100
AcDbEntity
  8
치수문자_일반주서
 62
     0
100
AcDbTrace
 10
6.302
 20
78.51346813169168
 30
0.0
 11
6.302
 21
77.41280146502503
 31
0.0
 12
3.0
 22
77.96313479835835
 32
0.0
 13
3.0
 23
77.96313479835835
 33
0.0
  0
MTEXT
  5
1F6
330
1EE
100
AcDbEntity
  8
치수문자_일반주서
 62
     0
100
AcDbMText
 10
79.83099145599022
 20
82.33813479835835
 30
0.0
 40
3.5
 41
0.0
 71
     2
 72
     1
  1
\A1;161.93 [6 3/8]
  7
SLDTEXTSTYLE0
 73
     1
 44
1.0
  0
POINT
  5
1F7
330
1EE
100
AcDbEntity
  8
Defpoints
 62
     0
100
AcDbPoint
 10
164.925
 20
30.41649999999986
 30
0.0
  0
POINT
  5
1F8
330
1EE
100
AcDbEntity
  8
Defpoints
 62
     0
100
AcDbPoint
 10
3.000000000000007
 20
28.67024999999985
 30
0.0
  0
POINT
  5
1F9
330
1EE
100
AcDbEntity
  8
Defpoints
 62
     0
100
AcDbPoint
 10
3.000000000000007
 20
77.96313479835835
 30
0.0
  0
ENDBLK
  5
1F0
330
1EE
100
AcDbEntity
  8
0
100
AcDbBlockEnd
  0
BLOCK
  5
229
330
228
100
AcDbEntity
  8
0
100
AcDbBlockBegin
  2
*D10
 70
     1
 10
0.0
 20
0.0
 30
0.0
  3
*D10
  1
*D11
  0
LINE
  5
22B
330
228
100
AcDbEntity
  8
치수문자_일반주서
 62
     0
370
    -2
100
AcDbLine
 10
258.0727194246468
 20
-87.89500345709018
 30
0.0
 11
294.741474595091
 21
-87.89500345709004
 31
0.0
  0
LINE
  5
22C
330
228
100
AcDbEntity
  8
치수문자_일반주서
 62
     0
370
    -2
100
AcDbLine
 10
258.0727194246468
 20
-111.7075034570902
 30
0.0
 11
294.7414745950911
 21
-111.70750345709
 31
0.0
  0
LINE
  5
22D
330
228
100
AcDbEntity
  8
치수문자_일반주서
 62
     0
370
    -2
100
AcDbLine
 10
294.741474595091
 20
-87.89500345709004
 30
0.0
 11
294.7414745950909
 21
-49.33478760170597
 31
0.0
  0
LINE
  5
22E
330
228
100
AcDbEntity
  8
치수문자_일반주서
 62
     0
370
    -2
100
AcDbLine
 10
294.741474595091
 20
-91.19700345709003
 30
0.0
 11
294.7414745950911
 21
-108.40550345709
 31
0.0
  0
SOLID
  5
22F
330
228
100
AcDbEntity
  8
치수문자_일반주서
 62
     0
100
AcDbTrace
 10
295.2918079284244
 20
-91.19700345709003
 30
0.0
 11
294.1911412617577
 21
-91.19700345709003
 31
0.0
 12
294.741474595091
 22
-87.89500345709004
 32
0.0
 13
294.741474595091
 23
-87.89500345709004
 33
0.0
  0
SOLID
  5
230
330
228
100
AcDbEntity
  8
치수문자_일반주서
 62
     0
100
AcDbTrace
 10
294.1911412617577
 20
-108.40550345709
 30
0.0
 11
295.2918079284244
 21
-108.40550345709
 31
0.0
 12
294.7414745950911
 22
-111.70750345709
 32
0.0
 13
294.7414745950911
 23
-111.70750345709
 33
0.0
  0
MTEXT
  5
231
330
228
100
AcDbEntity
  8
치수문자_일반주서
 62
     0
100
AcDbMText
 10
290.3664745950909
 20
-65.08478760170597
 30
0.0
 40
3.5
 41
0.0
 71
     2
 72
     1
  1
\A1;%%c23.81 [15/16]
  7
SLDTEXTSTYLE0
 11
-2.387125201503749E-15
 21
1.0
 31
0.0
 73
     1
 44
1.0
  0
POINT
  5
232
330
228
100
AcDbEntity
  8
Defpoints
 62
     0
100
AcDbPoint
 10
258.0102194246468
 20
-87.89500345709018
 30
0.0
  0
POINT
  5
233
330
228
100
AcDbEntity
  8
Defpoints
 62
     0
100
AcDbPoint
 10
258.0102194246468
 20
-111.7075034570902
 30
0.0
  0
POINT
  5
234
330
228
100
AcDbEntity
  8
Defpoints
 62
     0
100
AcDbPoint
 10
294.7414745950911
 20
-111.70750345709
 30
0.0
  0
ENDBLK
  5
22A
330
228
100
AcDbEntity
  8
0
100
AcDbBlockEnd
  0
BLOCK
  5
236
330
235
100
AcDbEntity
  8
0
100
AcDbBlockBegin
  2
*D11
 70
     1
 10
0.0
 20
0.0
 30
0.0
  3
*D11
  1
*D12
  0
LINE
  5
238
330
235
100
AcDbEntity
  8
치수문자_일반주서
 62
     0
370
    -2
100
AcDbLine
 10
258.0102194246468
 20
-87.83250345709018
 30
0.0
 11
258.0102194246468
 21
-70.25583533082833
 31
0.0
  0
LINE
  5
239
330
235
100
AcDbEntity
  8
치수문자_일반주서
 62
     0
370
    -2
100
AcDbLine
 10
210.3852194246468
 20
-88.74629037917452
 30
0.0
 11
210.3852194246468
 21
-70.25583533082833
 31
0.0
  0
LINE
  5
23A
330
235
100
AcDbEntity
  8
치수문자_일반주서
 62
     0
370
    -2
100
AcDbLine
 10
210.3852194246468
 20
-70.25583533082833
 30
0.0
 11
167.6577776831155
 21
-70.25583533082833
 31
0.0
  0
LINE
  5
23B
330
235
100
AcDbEntity
  8
치수문자_일반주서
 62
     0
370
    -2
100
AcDbLine
 10
254.7082194246468
 20
-70.25583533082833
 30
0.0
 11
213.6872194246468
 21
-70.25583533082833
 31
0.0
  0
SOLID
  5
23C
330
235
100
AcDbEntity
  8
치수문자_일반주서
 62
     0
100
AcDbTrace
 10
254.7082194246468
 20
-70.80616866416166
 30
0.0
 11
254.7082194246468
 21
-69.705501997495
 31
0.0
 12
258.0102194246468
 22
-70.25583533082833
 32
0.0
 13
258.0102194246468
 23
-70.25583533082833
 33
0.0
  0
SOLID
  5
23D
330
235
100
AcDbEntity
  8
치수문자_일반주서
 62
     0
100
AcDbTrace
 10
213.6872194246468
 20
-69.705501997495
 30
0.0
 11
213.6872194246468
 21
-70.80616866416166
 31
0.0
 12
210.3852194246468
 22
-70.25583533082833
 32
0.0
 13
210.3852194246468
 23
-70.25583533082833
 33
0.0
  0
MTEXT
  5
23E
330
235
100
AcDbEntity
  8
치수문자_일반주서
 62
     0
100
AcDbMText
 10
182.9702776831155
 20
-65.88083533082833
 30
0.0
 40
3.5
 41
0.0
 71
     2
 72
     1
  1
\A1;47.63 [1 7/8]
  7
SLDTEXTSTYLE0
 73
     1
 44
1.0
  0
POINT
  5
23F
330
235
100
AcDbEntity
  8
Defpoints
 62
     0
100
AcDbPoint
 10
258.0102194246468
 20
-87.89500345709018
 30
0.0
  0
POINT
  5
240
330
235
100
AcDbEntity
  8
Defpoints
 62
     0
100
AcDbPoint
 10
210.3852194246468
 20
-88.80879037917452
 30
0.0
  0
POINT
  5
241
330
235
100
AcDbEntity
  8
Defpoints
 62
     0
100
AcDbPoint
 10
210.3852194246468
 20
-70.25583533082833
 30
0.0
  0
ENDBLK
  5
237
330
235
100
AcDbEntity
  8
0
100
AcDbBlockEnd
  0
BLOCK
  5
243
330
242
100
AcDbEntity
  8
0
100
AcDbBlockBegin
  2
*D12
 70
     1
 10
0.0
 20
0.0
 30
0.0
  3
*D12
  1
*D13
  0
LINE
  5
245
330
242
100
AcDbEntity
  8
치수문자_일반주서
 62
     0
370
    -2
100
AcDbLine
 10
258.0102194246468
 20
-87.83250345709018
 30
0.0
 11
258.0102194246468
 21
-40.34836865873169
 31
0.0
  0
LINE
  5
246
330
242
100
AcDbEntity
  8
치수문자_일반주서
 62
     0
370
    -2
100
AcDbLine
 10
96.08521942464677
 20
-89.57875345709019
 30
0.0
 11
96.08521942464677
 21
-40.34836865873169
 31
0.0
  0
LINE
  5
247
330
242
100
AcDbEntity
  8
치수문자_일반주서
 62
     0
370
    -2
100
AcDbLine
 10
254.7082194246468
 20
-40.34836865873169
 30
0.0
 11
99.38721942464676
 21
-40.34836865873169
 31
0.0
  0
SOLID
  5
248
330
242
100
AcDbEntity
  8
치수문자_일반주서
 62
     0
100
AcDbTrace
 10
254.7082194246468
 20
-40.89870199206502
 30
0.0
 11
254.7082194246468
 21
-39.79803532539835
 31
0.0
 12
258.0102194246468
 22
-40.34836865873169
 32
0.0
 13
258.0102194246468
 23
-40.34836865873169
 33
0.0
  0
SOLID
  5
249
330
242
100
AcDbEntity
  8
치수문자_일반주서
 62
     0
100
AcDbTrace
 10
99.38721942464676
 20
-39.79803532539835
 30
0.0
 11
99.38721942464676
 21
-40.89870199206502
 31
0.0
 12
96.08521942464677
 22
-40.34836865873169
 32
0.0
 13
96.08521942464677
 23
-40.34836865873169
 33
0.0
  0
MTEXT
  5
24A
330
242
100
AcDbEntity
  8
치수문자_일반주서
 62
     0
100
AcDbMText
 10
172.916210880637
 20
-35.97336865873169
 30
0.0
 40
3.5
 41
0.0
 71
     2
 72
     1
  1
\A1;161.93 [6 3/8]
  7
SLDTEXTSTYLE0
 73
     1
 44
1.0
  0
POINT
  5
24B
330
242
100
AcDbEntity
  8
Defpoints
 62
     0
100
AcDbPoint
 10
258.0102194246468
 20
-87.89500345709018
 30
0.0
  0
POINT
  5
24C
330
242
100
AcDbEntity
  8
Defpoints
 62
     0
100
AcDbPoint
 10
96.08521942464677
 20
-89.64125345709019
 30
0.0
  0
POINT
  5
24D
330
242
100
AcDbEntity
  8
Defpoints
 62
     0
100
AcDbPoint
 10
96.08521942464677
 20
-40.34836865873169
 30
0.0
  0
ENDBLK
  5
244
330
242
100
AcDbEntity
  8
0
100
AcDbBlockEnd
  0
BLOCK
  5
2DE
330
2DD
100
AcDbEntity
  8
0
100
AcDbBlockBegin
  2
*D13
 70
     1
 10
0.0
 20
0.0
 30
0.0
  3
*D13
  1
*D15
  0
LINE
  5
2E0
330
2DD
100
AcDbEntity
  8
치수문자_일반주서
 62
     0
370
    -2
100
AcDbLine
 10
164.9875
 20
30.41649999999986
 30
0.0
 11
201.6562551704443
 21
30.4165
 31
0.0
  0
LINE
  5
2E1
330
2DD
100
AcDbEntity
  8
치수문자_일반주서
 62
     0
370
    -2
100
AcDbLine
 10
164.9875
 20
6.603999999999859
 30
0.0
 11
201.6562551704444
 21
6.603999999999992
 31
0.0
  0
LINE
  5
2E2
330
2DD
100
AcDbEntity
  8
치수문자_일반주서
 62
     0
370
    -2
100
AcDbLine
 10
201.6562551704443
 20
30.4165
 30
0.0
 11
201.6562551704441
 21
68.97671585538407
 31
0.0
  0
LINE
  5
2E3
330
2DD
100
AcDbEntity
  8
치수문자_일반주서
 62
     0
370
    -2
100
AcDbLine
 10
201.6562551704443
 20
27.1145
 30
0.0
 11
201.6562551704444
 21
9.905999999999992
 31
0.0
  0
SOLID
  5
2E4
330
2DD
100
AcDbEntity
  8
치수문자_일반주서
 62
     0
100
AcDbTrace
 10
202.2065885037776
 20
27.1145
 30
0.0
 11
201.1059218371109
 21
27.11449999999999
 31
0.0
 12
201.6562551704443
 22
30.4165
 32
0.0
 13
201.6562551704443
 23
30.4165
 33
0.0
  0
SOLID
  5
2E5
330
2DD
100
AcDbEntity
  8
치수문자_일반주서
 62
     0
100
AcDbTrace
 10
201.105921837111
 20
9.90599999999999
 30
0.0
 11
202.2065885037777
 21
9.905999999999993
 31
0.0
 12
201.6562551704444
 22
6.603999999999992
 32
0.0
 13
201.6562551704444
 23
6.603999999999992
 33
0.0
  0
MTEXT
  5
2E6
330
2DD
100
AcDbEntity
  8
치수문자_일반주서
 62
     0
100
AcDbMText
 10
197.2812551704442
 20
53.22671585538406
 30
0.0
 40
3.5
 41
0.0
 71
     2
 72
     1
  1
\A1;%%c23.81 [15/16]
  7
SLDTEXTSTYLE0
 11
-3.580687802255623E-15
 21
1.0
 31
0.0
 73
     1
 44
1.0
  0
POINT
  5
2E7
330
2DD
100
AcDbEntity
  8
Defpoints
 62
     0
100
AcDbPoint
 10
164.925
 20
30.41649999999986
 30
0.0
  0
POINT
  5
2E8
330
2DD
100
AcDbEntity
  8
Defpoints
 62
     0
100
AcDbPoint
 10
164.925
 20
6.603999999999859
 30
0.0
  0
POINT
  5
2E9
330
2DD
100
AcDbEntity
  8
Defpoints
 62
     0
100
AcDbPoint
 10
201.6562551704444
 20
6.603999999999997
 30
0.0
  0
ENDBLK
  5
2DF
330
2DD
100
AcDbEntity
  8
0
100
AcDbBlockEnd
  0
BLOCK
  5
2EB
330
2EA
100
AcDbEntity
  8
0
100
AcDbBlockBegin
  2
*D14
 70
     1
 10
0.0
 20
0.0
 30
0.0
  3
*D14
  1
*D16
  0
LINE
  5
2ED
330
2EA
100
AcDbEntity
  8
치수문자_일반주서
 62
     0
370
    -2
100
AcDbLine
 10
164.925
 20
30.47899999999986
 30
0.0
 11
164.925
 21
48.05566812626171
 31
0.0
  0
LINE
  5
2EE
330
2EA
100
AcDbEntity
  8
치수문자_일반주서
 62
     0
370
    -2
100
AcDbLine
 10
117.3
 20
29.56521307791552
 30
0.0
 11
117.3
 21
48.05566812626171
 31
0.0
  0
LINE
  5
2EF
330
2EA
100
AcDbEntity
  8
치수문자_일반주서
 62
     0
370
    -2
100
AcDbLine
 10
117.3
 20
48.05566812626171
 30
0.0
 11
74.57255825846875
 21
48.05566812626171
 31
0.0
  0
LINE
  5
2F0
330
2EA
100
AcDbEntity
  8
치수문자_일반주서
 62
     0
370
    -2
100
AcDbLine
 10
161.623
 20
48.05566812626171
 30
0.0
 11
120.602
 21
48.05566812626171
 31
0.0
  0
SOLID
  5
2F1
330
2EA
100
AcDbEntity
  8
치수문자_일반주서
 62
     0
100
AcDbTrace
 10
161.623
 20
47.50533479292837
 30
0.0
 11
161.623
 21
48.60600145959504
 31
0.0
 12
164.925
 22
48.05566812626171
 32
0.0
 13
164.925
 23
48.05566812626171
 33
0.0
  0
SOLID
  5
2F2
330
2EA
100
AcDbEntity
  8
치수문자_일반주서
 62
     0
100
AcDbTrace
 10
120.602
 20
48.60600145959504
 30
0.0
 11
120.602
 21
47.50533479292837
 31
0.0
 12
117.3
 22
48.05566812626171
 32
0.0
 13
117.3
 23
48.05566812626171
 33
0.0
  0
MTEXT
  5
2F3
330
2EA
100
AcDbEntity
  8
치수문자_일반주서
 62
     0
100
AcDbMText
 10
89.88505825846875
 20
52.43066812626171
 30
0.0
 40
3.5
 41
0.0
 71
     2
 72
     1
  1
\A1;47.63 [1 7/8]
  7
SLDTEXTSTYLE0
 73
     1
 44
1.0
  0
POINT
  5
2F4
330
2EA
100
AcDbEntity
  8
Defpoints
 62
     0
100
AcDbPoint
 10
164.925
 20
30.41649999999986
 30
0.0
  0
POINT
  5
2F5
330
2EA
100
AcDbEntity
  8
Defpoints
 62
     0
100
AcDbPoint
 10
117.3
 20
29.50271307791552
 30
0.0
  0
POINT
  5
2F6
330
2EA
100
AcDbEntity
  8
Defpoints
 62
     0
100
AcDbPoint
 10
117.3
 20
48.05566812626171
 30
0.0
  0
ENDBLK
  5
2EC
330
2EA
100
AcDbEntity
  8
0
100
AcDbBlockEnd
  0
BLOCK
  5
2F8
330
2F7
100
AcDbEntity
  8
0
100
AcDbBlockBegin
  2
*D15
 70
     1
 10
0.0
 20
0.0
 30
0.0
  3
*D15
  1
*D17
  0
LINE
  5
2FA
330
2F7
100
AcDbEntity
  8
치수문자_일반주서
 62
     0
370
    -2
100
AcDbLine
 10
164.925
 20
30.47899999999986
 30
0.0
 11
164.925
 21
77.96313479835835
 31
0.0
  0
LINE
  5
2FB
330
2F7
100
AcDbEntity
  8
치수문자_일반주서
 62
     0
370
    -2
100
AcDbLine
 10
3.000000000000007
 20
28.73274999999985
 30
0.0
 11
3.0
 21
77.96313479835835
 31
0.0
  0
LINE
  5
2FC
330
2F7
100
AcDbEntity
  8
치수문자_일반주서
 62
     0
370
    -2
100
AcDbLine
 10
161.623
 20
77.96313479835835
 30
0.0
 11
6.302
 21
77.96313479835835
 31
0.0
  0
SOLID
  5
2FD
330
2F7
100
AcDbEntity
  8
치수문자_일반주서
 62
     0
100
AcDbTrace
 10
161.623
 20
77.41280146502503
 30
0.0
 11
161.623
 21
78.51346813169168
 31
0.0
 12
164.925
 22
77.96313479835835
 32
0.0
 13
164.925
 23
77.96313479835835
 33
0.0
  0
SOLID
  5
2FE
330
2F7
100
AcDbEntity
  8
치수문자_일반주서
 62
     0
100
AcDbTrace
 10
6.302
 20
78.51346813169168
 30
0.0
 11
6.302
 21
77.41280146502503
 31
0.0
 12
3.0
 22
77.96313479835835
 32
0.0
 13
3.0
 23
77.96313479835835
 33
0.0
  0
MTEXT
  5
2FF
330
2F7
100
AcDbEntity
  8
치수문자_일반주서
 62
     0
100
AcDbMText
 10
79.83099145599022
 20
82.33813479835835
 30
0.0
 40
3.5
 41
0.0
 71
     2
 72
     1
  1
\A1;161.93 [6 3/8]
  7
SLDTEXTSTYLE0
 73
     1
 44
1.0
  0
POINT
  5
300
330
2F7
100
AcDbEntity
  8
Defpoints
 62
     0
100
AcDbPoint
 10
164.925
 20
30.41649999999986
 30
0.0
  0
POINT
  5
301
330
2F7
100
AcDbEntity
  8
Defpoints
 62
     0
100
AcDbPoint
 10
3.000000000000007
 20
28.67024999999985
 30
0.0
  0
POINT
  5
302
330
2F7
100
AcDbEntity
  8
Defpoints
 62
     0
100
AcDbPoint
 10
3.000000000000007
 20
77.96313479835835
 30
0.0
  0
ENDBLK
  5
2F9
330
2F7
100
AcDbEntity
  8
0
100
AcDbBlockEnd
  0
BLOCK
  5
332
330
331
100
AcDbEntity
  8
0
100
AcDbBlockBegin
  2
*D16
 70
     1
 10
0.0
 20
0.0
 30
0.0
  3
*D16
  1
*D18
  0
LINE
  5
334
330
331
100
AcDbEntity
  8
치수문자_일반주서
 62
     0
370
    -2
100
AcDbLine
 10
488.9262362687199
 20
15.88462385486618
 30
0.0
 11
525.5949914391642
 21
15.88462385486632
 31
0.0
  0
LINE
  5
335
330
331
100
AcDbEntity
  8
치수문자_일반주서
 62
     0
370
    -2
100
AcDbLine
 10
488.9262362687199
 20
-7.927876145133814
 30
0.0
 11
525.5949914391643
 21
-7.927876145133673
 31
0.0
  0
LINE
  5
336
330
331
100
AcDbEntity
  8
치수문자_일반주서
 62
     0
370
    -2
100
AcDbLine
 10
525.5949914391642
 20
15.88462385486632
 30
0.0
 11
525.594991439164
 21
54.4448397102504
 31
0.0
  0
LINE
  5
337
330
331
100
AcDbEntity
  8
치수문자_일반주서
 62
     0
370
    -2
100
AcDbLine
 10
525.5949914391642
 20
12.58262385486632
 30
0.0
 11
525.5949914391643
 21
-4.625876145133674
 31
0.0
  0
SOLID
  5
338
330
331
100
AcDbEntity
  8
치수문자_일반주서
 62
     0
100
AcDbTrace
 10
526.1453247724976
 20
12.58262385486633
 30
0.0
 11
525.0446581058309
 21
12.58262385486632
 31
0.0
 12
525.5949914391642
 22
15.88462385486632
 32
0.0
 13
525.5949914391642
 23
15.88462385486632
 33
0.0
  0
SOLID
  5
339
330
331
100
AcDbEntity
  8
치수문자_일반주서
 62
     0
100
AcDbTrace
 10
525.044658105831
 20
-4.625876145133677
 30
0.0
 11
526.1453247724977
 21
-4.625876145133671
 31
0.0
 12
525.5949914391643
 22
-7.927876145133673
 32
0.0
 13
525.5949914391643
 23
-7.927876145133673
 33
0.0
  0
MTEXT
  5
33A
330
331
100
AcDbEntity
  8
치수문자_일반주서
 62
     0
100
AcDbMText
 10
521.2199914391641
 20
38.69483971025038
 30
0.0
 40
3.5
 41
0.0
 71
     2
 72
     1
  1
\A1;%%c23.81 [15/16]
  7
SLDTEXTSTYLE0
 11
-4.774250403007497E-15
 21
1.0
 31
0.0
 73
     1
 44
1.0
  0
POINT
  5
33B
330
331
100
AcDbEntity
  8
Defpoints
 62
     0
100
AcDbPoint
 10
488.8637362687199
 20
15.88462385486618
 30
0.0
  0
POINT
  5
33C
330
331
100
AcDbEntity
  8
Defpoints
 62
     0
100
AcDbPoint
 10
488.8637362687199
 20
-7.927876145133814
 30
0.0
  0
POINT
  5
33D
330
331
100
AcDbEntity
  8
Defpoints
 62
     0
100
AcDbPoint
 10
525.5949914391642
 20
-7.927876145133676
 30
0.0
  0
ENDBLK
  5
333
330
331
100
AcDbEntity
  8
0
100
AcDbBlockEnd
  0
BLOCK
  5
33F
330
33E
100
AcDbEntity
  8
0
100
AcDbBlockBegin
  2
*D17
 70
     1
 10
0.0
 20
0.0
 30
0.0
  3
*D17
  1
*D19
  0
LINE
  5
341
330
33E
100
AcDbEntity
  8
치수문자_일반주서
 62
     0
370
    -2
100
AcDbLine
 10
488.8637362687199
 20
15.94712385486618
 30
0.0
 11
488.8637362687199
 21
33.52379198112803
 31
0.0
  0
LINE
  5
342
330
33E
100
AcDbEntity
  8
치수문자_일반주서
 62
     0
370
    -2
100
AcDbLine
 10
441.2387362687199
 20
15.03333693278185
 30
0.0
 11
441.2387362687199
 21
33.52379198112803
 31
0.0
  0
LINE
  5
343
330
33E
100
AcDbEntity
  8
치수문자_일반주서
 62
     0
370
    -2
100
AcDbLine
 10
441.2387362687199
 20
33.52379198112803
 30
0.0
 11
398.5112945271887
 21
33.52379198112803
 31
0.0
  0
LINE
  5
344
330
33E
100
AcDbEntity
  8
치수문자_일반주서
 62
     0
370
    -2
100
AcDbLine
 10
485.5617362687199
 20
33.52379198112803
 30
0.0
 11
444.54073626872
 21
33.52379198112803
 31
0.0
  0
SOLID
  5
345
330
33E
100
AcDbEntity
  8
치수문자_일반주서
 62
     0
100
AcDbTrace
 10
485.5617362687199
 20
32.9734586477947
 30
0.0
 11
485.5617362687199
 21
34.07412531446137
 31
0.0
 12
488.8637362687199
 22
33.52379198112803
 32
0.0
 13
488.8637362687199
 23
33.52379198112803
 33
0.0
  0
SOLID
  5
346
330
33E
100
AcDbEntity
  8
치수문자_일반주서
 62
     0
100
AcDbTrace
 10
444.54073626872
 20
34.07412531446137
 30
0.0
 11
444.54073626872
 21
32.9734586477947
 31
0.0
 12
441.2387362687199
 22
33.52379198112803
 32
0.0
 13
441.2387362687199
 23
33.52379198112803
 33
0.0
  0
MTEXT
  5
347
330
33E
100
AcDbEntity
  8
치수문자_일반주서
 62
     0
100
AcDbMText
 10
413.8237945271887
 20
37.89879198112803
 30
0.0
 40
3.5
 41
0.0
 71
     2
 72
     1
  1
\A1;47.63 [1 7/8]
  7
SLDTEXTSTYLE0
 73
     1
 44
1.0
  0
POINT
  5
348
330
33E
100
AcDbEntity
  8
Defpoints
 62
     0
100
AcDbPoint
 10
488.8637362687199
 20
15.88462385486618
 30
0.0
  0
POINT
  5
349
330
33E
100
AcDbEntity
  8
Defpoints
 62
     0
100
AcDbPoint
 10
441.2387362687199
 20
14.97083693278185
 30
0.0
  0
POINT
  5
34A
330
33E
100
AcDbEntity
  8
Defpoints
 62
     0
100
AcDbPoint
 10
441.2387362687199
 20
33.52379198112803
 30
0.0
  0
ENDBLK
  5
340
330
33E
100
AcDbEntity
  8
0
100
AcDbBlockEnd
  0
BLOCK
  5
34C
330
34B
100
AcDbEntity
  8
0
100
AcDbBlockBegin
  2
*D18
 70
     1
 10
0.0
 20
0.0
 30
0.0
  3
*D18
  1
*D20
  0
LINE
  5
34E
330
34B
100
AcDbEntity
  8
치수문자_일반주서
 62
     0
370
    -2
100
AcDbLine
 10
488.8637362687199
 20
15.94712385486618
 30
0.0
 11
488.8637362687199
 21
63.43125865322468
 31
0.0
  0
LINE
  5
34F
330
34B
100
AcDbEntity
  8
치수문자_일반주서
 62
     0
370
    -2
100
AcDbLine
 10
326.9387362687199
 20
14.20087385486617
 30
0.0
 11
326.9387362687199
 21
63.43125865322468
 31
0.0
  0
LINE
  5
350
330
34B
100
AcDbEntity
  8
치수문자_일반주서
 62
     0
370
    -2
100
AcDbLine
 10
485.5617362687199
 20
63.43125865322468
 30
0.0
 11
330.24073626872
 21
63.43125865322468
 31
0.0
  0
SOLID
  5
351
330
34B
100
AcDbEntity
  8
치수문자_일반주서
 62
     0
100
AcDbTrace
 10
485.5617362687199
 20
62.88092531989135
 30
0.0
 11
485.5617362687199
 21
63.98159198655802
 31
0.0
 12
488.8637362687199
 22
63.43125865322468
 32
0.0
 13
488.8637362687199
 23
63.43125865322468
 33
0.0
  0
SOLID
  5
352
330
34B
100
AcDbEntity
  8
치수문자_일반주서
 62
     0
100
AcDbTrace
 10
330.24073626872
 20
63.98159198655802
 30
0.0
 11
330.24073626872
 21
62.88092531989135
 31
0.0
 12
326.9387362687199
 22
63.43125865322468
 32
0.0
 13
326.9387362687199
 23
63.43125865322468
 33
0.0
  0
MTEXT
  5
353
330
34B
100
AcDbEntity
  8
치수문자_일반주서
 62
     0
100
AcDbMText
 10
403.7697277247102
 20
67.80625865322469
 30
0.0
 40
3.5
 41
0.0
 71
     2
 72
     1
  1
\A1;161.93 [6 3/8]
  7
SLDTEXTSTYLE0
 73
     1
 44
1.0
  0
POINT
  5
354
330
34B
100
AcDbEntity
  8
Defpoints
 62
     0
100
AcDbPoint
 10
488.8637362687199
 20
15.88462385486618
 30
0.0
  0
POINT
  5
355
330
34B
100
AcDbEntity
  8
Defpoints
 62
     0
100
AcDbPoint
 10
326.9387362687199
 20
14.13837385486617
 30
0.0
  0
POINT
  5
356
330
34B
100
AcDbEntity
  8
Defpoints
 62
     0
100
AcDbPoint
 10
326.9387362687199
 20
63.43125865322468
 30
0.0
  0
ENDBLK
  5
34D
330
34B
100
AcDbEntity
  8
0
100
AcDbBlockEnd
  0
ENDSEC
  0
SECTION
  2
ENTITIES
  0
LINE
  5
96
330
1F
100
AcDbEntity
  8
0
  6
Continuous
 62
     1
370
    15
100
AcDbLine
 10
76.23420711916489
 20
3.763322736274865
 30
0.0
 11
76.14792525984761
 21
3.80995950955749
 31
0.0
  0
LINE
  5
97
330
1F
100
AcDbEntity
  8
0
  6
Continuous
 62
     1
370
    15
100
AcDbLine
 10
56.03975325673687
 20
12.7
 30
0.0
 11
48.29678248376855
 21
12.7
 31
0.0
  0
LINE
  5
98
330
1F
100
AcDbEntity
  8
0
  6
Continuous
 62
     1
370
    15
100
AcDbLine
 10
48.2967824837684
 20
-12.70000000000001
 30
0.0
 11
56.03975325673687
 21
-12.70000000000001
 31
0.0
  0
LINE
  5
99
330
1F
100
AcDbEntity
  8
외형선
  6
Continuous
370
    15
100
AcDbLine
 10
-29.37518467149224
 20
-12.70000000000001
 30
0.0
 11
32.83766008581408
 21
-12.70000000000001
 31
0.0
  0
LINE
  5
9A
330
1F
100
AcDbEntity
  8
외형선
  6
Continuous
370
    15
100
AcDbLine
 10
32.83766008581408
 20
12.69999999999999
 30
0.0
 11
8.458200000000037
 21
12.69999999999999
 31
0.0
  0
LINE
  5
9D
330
1F
100
AcDbEntity
  8
0
  6
Continuous
 62
     1
370
    15
100
AcDbLine
 10
80.96249999999999
 20
-11.50215313554798
 30
0.0
 11
80.96249999999999
 21
1.088153135548121
 31
0.0
  0
SPLINE
  5
9E
330
1F
100
AcDbEntity
  8
0
  6
Continuous
 62
     1
370
    15
100
AcDbSpline
210
0.0
220
0.0
230
1.0
 70
     8
 71
     3
 72
    56
 73
    52
 74
     0
 42
0.000000001
 43
0.00000001
 40
0.0
 40
0.0
 40
0.0
 40
0.0
 40
0.0624999999999999
 40
0.0624999999999999
 40
0.0937499999999999
 40
0.0937499999999999
 40
0.1249999999999999
 40
0.1249999999999999
 40
0.1875000000000011
 40
0.1875000000000011
 40
0.2187500000000018
 40
0.2187500000000018
 40
0.2500000000000025
 40
0.2500000000000025
 40
0.2812500000000032
 40
0.2812500000000032
 40
0.3125000000000039
 40
0.3125000000000039
 40
0.3750000000000052
 40
0.3750000000000052
 40
0.4062500000000059
 40
0.4062500000000059
 40
0.4375000000000066
 40
0.4375000000000066
 40
0.4687500000000073
 40
0.4687500000000073
 40
0.500000000000008
 40
0.500000000000008
 40
0.562500000000008
 40
0.562500000000008
 40
0.5937500000000081
 40
0.5937500000000081
 40
0.6250000000000082
 40
0.6250000000000082
 40
0.6875000000000069
 40
0.6875000000000069
 40
0.7500000000000056
 40
0.7500000000000056
 40
0.781250000000005
 40
0.781250000000005
 40
0.8125000000000044
 40
0.8125000000000044
 40
0.8750000000000024
 40
0.8750000000000024
 40
0.9062500000000019
 40
0.9062500000000019
 40
0.9375000000000013
 40
0.9375000000000013
 40
0.9687500000000007
 40
0.9687500000000007
 40
1.0
 40
1.0
 40
1.0
 40
1.0
 10
80.96249999999999
 20
-11.50215313554798
 30
0.0
 10
79.97368343923327
 20
-11.25956471293709
 30
0.0
 10
78.97654358796824
 20
-10.9811153708529
 30
0.0
 10
77.48878833110022
 20
-10.51520482689092
 30
0.0
 10
76.99496172818043
 20
-10.35199341826919
 30
0.0
 10
76.00257170126426
 20
-10.00951379535877
 30
0.0
 10
75.50524059639656
 20
-9.830365990540445
 30
0.0
 10
74.01495892615014
 20
-9.271017279217029
 30
0.0
 10
73.02678941301221
 20
-8.86935767535111
 30
0.0
 10
71.5359967087244
 20
-8.22699257134349
 30
0.0
 10
71.03887966849847
 20
-8.006389641222533
 30
0.0
 10
70.04768170590386
 20
-7.553768099252268
 30
0.0
 10
69.55358284956797
 20
-7.321761257539973
 30
0.0
 10
68.56072547968355
 20
-6.846203268230683
 30
0.0
 10
68.06335220724604
 20
-6.602860274071195
 30
0.0
 10
67.07013072873573
 20
-6.106712988765717
 30
0.0
 10
66.57552157320976
 20
-5.854125106848802
 30
0.0
 10
65.08975306089064
 20
-5.08324065624771
 30
0.0
 10
64.09244311049638
 20
-4.551009657773672
 30
0.0
 10
62.60673273255901
 20
-3.736115964520506
 30
0.0
 10
62.11208944788557
 20
-3.461540888840792
 30
0.0
 10
61.11885071609068
 20
-2.906795641859622
 30
0.0
 10
60.62147853975277
 20
-2.626849270526824
 30
0.0
 10
59.6286427825369
 20
-2.063732469153312
 30
0.0
 10
59.13456426779189
 20
-1.780828828768567
 30
0.0
 10
58.14333187637612
 20
-1.212155451471629
 30
0.0
 10
57.6462072787869
 20
-0.9263881983703689
 30
0.0
 10
56.15542113210289
 20
-0.0677293487423756
 30
0.0
 10
55.16726297222537
 20
0.5055686705165374
 30
0.0
 10
53.6769619686106
 20
1.362132714371357
 30
0.0
 10
53.17963415172404
 20
1.646938069681555
 30
0.0
 10
52.18727009061418
 20
2.213164590418799
 30
0.0
 10
51.69345003586422
 20
2.49435836025667
 30
0.0
 10
50.20564964180892
 20
3.332792452279685
 30
0.0
 10
49.20861276364582
 20
3.884208190291107
 30
0.0
 10
47.23088532484542
 20
4.957055220441612
 30
0.0
 10
46.23373685570652
 20
5.481446620706993
 30
0.0
 10
44.74602706600568
 20
6.239163549622141
 30
0.0
 10
44.2521932159466
 20
6.486825822053238
 30
0.0
 10
43.25977744362062
 20
6.972671015807752
 30
0.0
 10
42.76244316181347
 20
7.210636031102662
 30
0.0
 10
41.27218115678963
 20
7.907190372807875
 30
0.0
 10
40.28399970024539
 20
8.348016833350584
 30
0.0
 10
38.79320077058753
 20
8.97032230136444
 30
0.0
 10
38.29609139860708
 20
9.171080775044985
 30
0.0
 10
37.30492808434703
 20
9.557904588244936
 30
0.0
 10
36.810808187652
 20
9.743996244240378
 30
0.0
 10
35.81792942584265
 20
10.10160826585122
 30
0.0
 10
35.32055516837825
 20
10.27294347532039
 30
0.0
 10
34.32735116416616
 20
10.59949104920497
 30
0.0
 10
33.83277543939725
 20
10.75458139145899
 30
0.0
 10
33.33750000000006
 20
10.90143940523146
 30
0.0
  0
SPLINE
  5
9F
330
1F
100
AcDbEntity
  8
0
  6
Continuous
 62
     1
370
    15
100
AcDbSpline
210
0.0
220
0.0
230
1.0
 70
     8
 71
     3
 72
    20
 73
    16
 74
     0
 42
0.000000001
 43
0.00000001
 40
0.0
 40
0.0
 40
0.0
 40
0.0
 40
0.0826773605440825
 40
0.1653574753882611
 40
0.2480400573204209
 40
0.3307248183956158
 40
0.4134114700210043
 40
0.4960997230412024
 40
0.5787892878239895
 40
0.6545865042535046
 40
0.7303846045049461
 40
0.8061837579352558
 40
0.8819841336838756
 40
0.9577859006379609
 40
1.0
 40
1.0
 40
1.0
 40
1.0
 10
80.96249999999999
 20
1.088153135548119
 30
0.0
 10
79.69264858285182
 20
1.81552265656191
 30
0.0
 10
77.1529034449326
 20
3.270285930059006
 30
0.0
 10
73.3431939921937
 20
5.345823176885486
 30
0.0
 10
69.53334953661252
 20
7.263754042240884
 30
0.0
 10
65.723386427989
 20
8.963708907094793
 30
0.0
 10
61.91331015121811
 20
10.39559331849237
 30
0.0
 10
58.10317812313892
 20
11.51636534664882
 30
0.0
 10
54.39873314937526
 20
12.27085095591292
 30
0.0
 10
50.80052606502558
 20
12.67113389302503
 30
0.0
 10
47.30803291472851
 20
12.74001435713581
 30
0.0
 10
43.81550921733466
 20
12.49173888206145
 30
0.0
 10
40.32290984911023
 20
11.91675519168509
 30
0.0
 10
37.34612797260736
 20
11.21082436182315
 30
0.0
 10
35.53353759688903
 20
10.59817687673707
 30
0.0
 10
34.88517672295127
 20
10.37903378507811
 30
0.0
  0
SPLINE
  5
A0
330
1F
100
AcDbEntity
  8
0
  6
Continuous
 62
     1
370
    15
100
AcDbSpline
210
0.0
220
0.0
230
1.0
 70
     8
 71
     3
 72
    17
 73
    13
 74
     0
 42
0.000000001
 43
0.00000001
 40
0.0
 40
0.0
 40
0.0
 40
0.0
 40
0.1056145107323743
 40
0.2112254981423012
 40
0.3168366074257208
 40
0.4224512289334808
 40
0.5280689957679057
 40
0.633689540097021
 40
0.7393124932630384
 40
0.8361379594940852
 40
0.9329650674340373
 40
1.0
 40
1.0
 40
1.0
 40
1.0
 10
33.33750000000003
 20
-6.515260462488683
 30
0.0
 10
34.60740535546564
 20
-7.125786918150649
 30
0.0
 10
37.14717370208525
 20
-8.346819462182713
 30
0.0
 10
40.95676752990103
 20
-9.876399414506814
 30
0.0
 10
44.7663662356329
 20
-11.12444232859298
 30
0.0
 10
48.57607651785972
 20
-12.03578445476875
 30
0.0
 10
52.38592833468449
 20
-12.58818896260175
 30
0.0
 10
56.19587395238345
 20
-12.76282969683824
 30
0.0
 10
59.90021509940621
 20
-12.56423669578774
 30
0.0
 10
63.49849494751555
 20
-12.02112403350078
 30
0.0
 10
66.63290408415358
 20
-11.30941560810468
 30
0.0
 10
68.60311802991136
 20
-10.66204135221928
 30
0.0
 10
69.40912019238066
 20
-10.39720460629427
 30
0.0
  0
SPLINE
  5
A1
330
1F
100
AcDbEntity
  8
외형선
  6
Continuous
370
    15
100
AcDbSpline
210
0.0
220
0.0
230
1.0
 70
    24
 71
     3
 72
    30
 73
    26
 74
     0
 42
0.000000001
 43
0.00000001
 40
0.0
 40
0.0
 40
0.0
 40
0.0
 40
0.125
 40
0.125
 40
0.25
 40
0.25
 40
0.375
 40
0.375
 40
0.5
 40
0.5
 40
0.5625
 40
0.5625
 40
0.625
 40
0.625
 40
0.6875
 40
0.6875
 40
0.75
 40
0.75
 40
0.8125
 40
0.8125
 40
0.875
 40
0.875
 40
0.9375
 40
0.9375
 40
1.0
 40
1.0
 40
1.0
 40
1.0
 10
33.33750000000001
 20
7.986459626643293
 30
0.0
 10
33.33750000000002
 20
7.761559315299288
 30
0.0
 10
33.33750000000002
 20
7.491367828439878
 30
0.0
 10
33.33750000000002
 20
6.926441428737121
 30
0.0
 10
33.33750000000001
 20
6.574458312437416
 30
0.0
 10
33.33750000000001
 20
5.681680186765414
 30
0.0
 10
33.33750000000001
 20
5.139539548832513
 30
0.0
 10
33.33750000000001
 20
3.835306774851122
 30
0.0
 10
33.33750000000005
 20
3.071146343556057
 30
0.0
 10
33.33750000000005
 20
1.791358558497232
 30
0.0
 10
33.33750000000002
 20
1.343324626115635
 30
0.0
 10
33.33750000000002
 20
0.4212356785332099
 30
0.0
 10
33.33750000000001
 20
-0.0527622477916875
 30
0.0
 10
33.33750000000001
 20
-1.002651861665863
 30
0.0
 10
33.33750000000005
 20
-1.478405339390211
 30
0.0
 10
33.33750000000002
 20
-2.403309150738511
 30
0.0
 10
33.33750000000001
 20
-2.852274416069831
 30
0.0
 10
33.33750000000003
 20
-3.695761998862279
 30
0.0
 10
33.33750000000005
 20
-4.090121034477319
 30
0.0
 10
33.33750000000002
 20
-4.802720923848964
 30
0.0
 10
33.33750000000002
 20
-5.120883643132365
 30
0.0
 10
33.33750000000003
 20
-5.66941663839265
 30
0.0
 10
33.33750000000001
 20
-5.899812375381698
 30
0.0
 10
33.33750000000005
 20
-6.271946866159807
 30
0.0
 10
33.33750000000003
 20
-6.413783755611179
 30
0.0
 10
33.33750000000002
 20
-6.515260462488672
 30
0.0
  0
SPLINE
  5
A2
330
1F
100
AcDbEntity
  8
0
  6
Continuous
 62
     1
370
    15
100
AcDbSpline
210
0.0
220
0.0
230
1.0
 70
     8
 71
     3
 72
    56
 73
    52
 74
     0
 42
0.000000001
 43
0.00000001
 40
0.0
 40
0.0
 40
0.0
 40
0.0
 40
0.0624999999999994
 40
0.0624999999999994
 40
0.0937499999999992
 40
0.0937499999999992
 40
0.1249999999999989
 40
0.1249999999999989
 40
0.1874999999999997
 40
0.1874999999999997
 40
0.2187500000000007
 40
0.2187500000000007
 40
0.2500000000000018
 40
0.2500000000000018
 40
0.2812500000000028
 40
0.2812500000000028
 40
0.3125000000000039
 40
0.3125000000000039
 40
0.3750000000000073
 40
0.3750000000000073
 40
0.4062500000000083
 40
0.4062500000000083
 40
0.4375000000000094
 40
0.4375000000000094
 40
0.4687500000000104
 40
0.4687500000000104
 40
0.5000000000000115
 40
0.5000000000000115
 40
0.5625000000000123
 40
0.5625000000000123
 40
0.5937500000000127
 40
0.5937500000000127
 40
0.6250000000000131
 40
0.6250000000000131
 40
0.6875000000000125
 40
0.6875000000000125
 40
0.750000000000012
 40
0.750000000000012
 40
0.781250000000011
 40
0.781250000000011
 40
0.8125000000000094
 40
0.8125000000000094
 40
0.8750000000000063
 40
0.8750000000000063
 40
0.9062500000000047
 40
0.9062500000000047
 40
0.9375000000000031
 40
0.9375000000000031
 40
0.9687500000000014
 40
0.9687500000000014
 40
1.0
 40
1.0
 40
1.0
 40
1.0
 10
80.9625
 20
-12.69999999999999
 30
0.0
 10
79.97368343923321
 20
-12.60427023790108
 30
0.0
 10
78.9765435879683
 20
-12.51640180612343
 30
0.0
 10
77.48878833110008
 20
-12.32796399414898
 30
0.0
 10
76.99496172818031
 20
-12.25580349388813
 30
0.0
 10
76.00257170126403
 20
-12.09267361361136
 30
0.0
 10
75.50524059639638
 20
-12.00174614902904
 30
0.0
 10
74.01495892614997
 20
-11.7017810005681
 30
0.0
 10
73.02678941301195
 20
-11.46584302243858
 30
0.0
 10
71.53599670872408
 20
-11.05990233151918
 30
0.0
 10
71.0388796684982
 20
-10.91601122510459
 30
0.0
 10
70.04768170590361
 20
-10.61210611640011
 30
0.0
 10
69.55358284956758
 20
-10.45211049353182
 30
0.0
 10
68.56072547968324
 20
-10.11591440212389
 30
0.0
 10
68.06335220724557
 20
-9.939851101897975
 30
0.0
 10
67.07013072873526
 20
-9.572996997467843
 30
0.0
 10
66.57552157320924
 20
-9.38237373980713
 30
0.0
 10
65.08975306089017
 20
-8.789264748946804
 30
0.0
 10
64.09244311049585
 20
-8.364833759446409
 30
0.0
 10
62.60673273255843
 20
-7.693354741626882
 30
0.0
 10
62.1120894478849
 20
-7.463588538141183
 30
0.0
 10
61.11885071609001
 20
-6.992401848856589
 30
0.0
 10
60.62147853975227
 20
-6.751164838500944
 30
0.0
 10
59.62864278253623
 20
-6.259063737726304
 30
0.0
 10
59.13456426779115
 20
-6.008441296385052
 30
0.0
 10
58.14333187637546
 20
-5.497907967804019
 30
0.0
 10
57.64620727878624
 20
-5.237990900673188
 30
0.0
 10
56.15542113210208
 20
-4.446931062439367
 30
0.0
 10
55.16726297222468
 20
-3.905383553428267
 30
0.0
 10
53.67696196860979
 20
-3.076219840481818
 30
0.0
 10
53.17963415172329
 20
-2.797165118825775
 30
0.0
 10
52.18727009061335
 20
-2.23564274967214
 30
0.0
 10
51.69345003586339
 20
-1.953409968934224
 30
0.0
 10
50.20564964180807
 20
-1.101688431761446
 30
0.0
 10
49.20861276364494
 20
-0.5277806655619942
 30
0.0
 10
47.23088532484439
 20
0.6166259878203896
 30
0.0
 10
46.23373685570553
 20
1.190283328187997
 30
0.0
 10
44.74602706600457
 20
2.041176543517873
 30
0.0
 10
44.2521932159455
 20
2.323074981262416
 30
0.0
 10
43.25977744361953
 20
2.883799149378468
 30
0.0
 10
42.76244316181233
 20
3.162384242930961
 30
0.0
 10
41.27218115678843
 20
3.989932595202114
 30
0.0
 10
40.28399970024419
 20
4.530152995464558
 30
0.0
 10
38.7932007705863
 20
5.318839532013556
 30
0.0
 10
38.29609139860577
 20
5.577899503547182
 30
0.0
 10
37.30492808434573
 20
6.086593559037036
 30
0.0
 10
36.81080818765071
 20
6.336250100229416
 30
0.0
 10
35.81792942584131
 20
6.82629281339086
 30
0.0
 10
35.3205551683769
 20
7.066438425178983
 30
0.0
 10
34.32735116416478
 20
7.535326175747852
 30
0.0
 10
33.8327754393959
 20
7.763881456094525
 30
0.0
 10
33.33749999999864
 20
7.986459626647841
 30
0.0
  0
LINE
  5
A3
330
1F
100
AcDbEntity
  8
0
  6
Continuous
 62
     1
370
    15
100
AcDbLine
 10
80.9625
 20
-12.69999999999999
 30
0.0
 11
80.96249999999999
 21
-11.50215313554798
 31
0.0
  0
LINE
  5
A4
330
1F
100
AcDbEntity
  8
외형선
  6
Continuous
370
    15
100
AcDbLine
 10
33.33750000000001
 20
7.986459626643291
 30
0.0
 11
33.33750000000002
 21
10.90143940523146
 31
0.0
  0
SPLINE
  5
A5
330
1F
100
AcDbEntity
  8
0
  6
Continuous
 62
     1
370
    15
100
AcDbSpline
210
0.0
220
0.0
230
1.0
 70
     8
 71
     3
 72
    15
 73
    11
 74
     0
 42
0.000000001
 43
0.00000001
 40
0.0
 40
0.0
 40
0.0
 40
0.0
 40
0.0062636229688849
 40
0.1591337876003744
 40
0.2992711774345293
 40
0.4394109433460719
 40
0.5795533973815971
 40
0.719698851033334
 40
0.8598476151753428
 40
1.0
 40
1.0
 40
1.0
 40
1.0
 10
56.03975325673687
 20
12.69253054829953
 30
0.0
 10
56.09179034351577
 20
12.69500629343126
 30
0.0
 10
57.41384608600654
 20
12.75790514636394
 30
0.0
 10
59.90022009587963
 20
12.53748221391418
 30
0.0
 10
63.49849345121463
 20
12.03369859008835
 30
0.0
 10
66.9911375757686
 20
11.2033742157976
 30
0.0
 10
70.48383746914715
 20
10.10219751584893
 30
0.0
 10
73.97663399752102
 20
8.741502846934294
 30
0.0
 10
77.46952635608176
 20
7.171336477399203
 30
0.0
 10
79.79816542559308
 20
5.979970753878131
 30
0.0
 10
80.96249999999999
 20
5.384280197612563
 30
0.0
  0
LINE
  5
A6
330
1F
100
AcDbEntity
  8
0
  6
Continuous
 62
     1
370
    15
100
AcDbLine
 10
80.96249999999999
 20
1.088153135548121
 30
0.0
 11
80.96249999999999
 21
5.384280197612562
 31
0.0
  0
SPLINE
  5
A7
330
1F
100
AcDbEntity
  8
0
  6
Continuous
 62
     1
370
    15
100
AcDbSpline
210
0.0
220
0.0
230
1.0
 70
     8
 71
     3
 72
    11
 73
     7
 74
     0
 42
0.000000001
 43
0.00000001
 40
0.0
 40
0.0
 40
0.0
 40
0.0
 40
0.3297376794408725
 40
0.6594863437089842
 40
0.9892448473316727
 40
1.0
 40
1.0
 40
1.0
 40
1.0
 10
80.9625
 20
12.70000000000001
 30
0.0
 10
79.69264870922879
 20
12.5556929294865
 30
0.0
 10
77.15290382406778
 20
12.36048171207695
 30
0.0
 10
73.34319247557569
 20
11.5634481427878
 30
0.0
 10
70.76191628572988
 20
10.896529588883
 30
0.0
 10
69.45054011963292
 20
10.41249294468889
 30
0.0
 10
69.40912019238066
 20
10.39720460629426
 30
0.0
  0
LINE
  5
A8
330
1F
100
AcDbEntity
  8
0
  6
Continuous
 62
     1
370
    15
100
AcDbLine
 10
80.96249999999999
 20
5.372931560760555
 30
0.0
 11
80.9625
 21
12.70000000000001
 31
0.0
  0
SPLINE
  5
A9
330
1F
100
AcDbEntity
  8
0
  6
Continuous
 62
     1
370
    15
100
AcDbSpline
210
0.0
220
0.0
230
1.0
 70
     8
 71
     3
 72
    12
 73
     8
 74
     0
 42
0.000000001
 43
0.00000001
 40
0.0
 40
0.0
 40
0.0
 40
0.0
 40
0.0660952715995033
 40
0.2995652864098071
 40
0.5330390660995501
 40
0.7665171308603737
 40
1.0
 40
1.0
 40
1.0
 40
1.0
 10
48.2967824837684
 20
-12.66753831690255
 30
0.0
 10
47.96720576995544
 20
-12.6770036384338
 30
0.0
 10
46.47345681820575
 20
-12.71990355679185
 30
0.0
 10
43.81550749258359
 20
-12.47536480527466
 30
0.0
 10
40.3229105559225
 20
-11.92557731638772
 30
0.0
 10
36.83023716811505
 20
-11.06956883936867
 30
0.0
 10
34.50175370832332
 20
-10.27288305987348
 30
0.0
 10
33.33749999999864
 20
-9.874536071731349
 30
0.0
  0
LINE
  5
AA
330
1F
100
AcDbEntity
  8
외형선
  6
Continuous
370
    15
100
AcDbLine
 10
33.33750000000001
 20
-9.874536071721893
 30
0.0
 11
33.33750000000002
 21
-6.515260462488675
 31
0.0
  0
LINE
  5
AB
330
1F
100
AcDbEntity
  8
0
  6
Continuous
 62
     1
370
    15
100
AcDbLine
 10
33.33750000000005
 20
-10.90143940523143
 30
0.0
 11
34.88517672295113
 21
-10.37903378507812
 31
0.0
  0
SPLINE
  5
AC
330
1F
100
AcDbEntity
  8
외형선
  6
Continuous
370
    15
100
AcDbSpline
210
0.0
220
0.0
230
1.0
 70
    24
 71
     3
 72
     9
 73
     5
 74
     0
 42
0.000000001
 43
0.00000001
 40
0.0
 40
0.0
 40
0.0
 40
0.0
 40
0.2046067087765418
 40
1.0
 40
1.0
 40
1.0
 40
1.0
 10
33.33749999999995
 20
-9.987755696597755
 30
0.0
 10
33.33749999999996
 20
-10.04815662794858
 30
0.0
 10
33.33749999999988
 20
-10.34336166649302
 30
0.0
 10
33.33749999999998
 20
-10.65420037880553
 30
0.0
 10
33.33750000000002
 20
-10.90143940523143
 30
0.0
  0
LINE
  5
AD
330
1F
100
AcDbEntity
  8
외형선
  6
Continuous
370
    15
100
AcDbLine
 10
32.83766008581406
 20
11.04672074045703
 30
0.0
 11
32.83766008581408
 21
12.69999999999999
 31
0.0
  0
SPLINE
  5
AE
330
1F
100
AcDbEntity
  8
외형선
  6
Continuous
370
    15
100
AcDbSpline
210
0.0
220
0.0
230
1.0
 70
     8
 71
     3
 72
     8
 73
     4
 74
     0
 42
0.000000001
 43
0.00000001
 40
0.0
 40
0.0
 40
0.0
 40
0.0
 40
1.0
 40
1.0
 40
1.0
 40
1.0
 10
33.33750000000002
 20
10.90143940523146
 30
0.0
 10
33.17105584171885
 20
10.95079307097946
 30
0.0
 10
33.00442109497921
 20
10.9992271225962
 30
0.0
 10
32.83766008581414
 20
11.04672100824478
 30
0.0
  0
SPLINE
  5
AF
330
1F
100
AcDbEntity
  8
외형선
  6
Continuous
370
    15
100
AcDbSpline
210
0.0
220
0.0
230
1.0
 70
     8
 71
     3
 72
     8
 73
     4
 74
     0
 42
0.000000001
 43
0.00000001
 40
0.0
 40
0.0
 40
0.0
 40
0.0
 40
1.0
 40
1.0
 40
1.0
 40
1.0
 10
33.33750000000001
 20
7.986459626647217
 30
0.0
 10
33.17105584171884
 20
8.061260097865011
 30
0.0
 10
33.00442109497916
 20
8.135401594650453
 30
0.0
 10
32.83766008581406
 20
8.20885408121685
 30
0.0
  0
LINE
  5
B0
330
1F
100
AcDbEntity
  8
외형선
  6
Continuous
370
    15
100
AcDbLine
 10
32.83766008581406
 20
-6.265776957597351
 30
0.0
 11
32.83766008581408
 21
8.208857088453865
 31
0.0
  0
SPLINE
  5
B1
330
1F
100
AcDbEntity
  8
외형선
  6
Continuous
370
    15
100
AcDbSpline
210
0.0
220
0.0
230
1.0
 70
     8
 71
     3
 72
     8
 73
     4
 74
     0
 42
0.000000001
 43
0.00000001
 40
0.0
 40
0.0
 40
0.0
 40
0.0
 40
1.0
 40
1.0
 40
1.0
 40
1.0
 10
33.33750000000002
 20
-6.515260462488683
 30
0.0
 10
33.17105584171885
 20
-6.432681109034505
 30
0.0
 10
33.00442109497921
 20
-6.349509396409467
 30
0.0
 10
32.83766008581414
 20
-6.265776485480875
 30
0.0
  0
SPLINE
  5
B2
330
1F
100
AcDbEntity
  8
외형선
  6
Continuous
370
    15
100
AcDbSpline
210
0.0
220
0.0
230
1.0
 70
     8
 71
     3
 72
     8
 73
     4
 74
     0
 42
0.000000001
 43
0.00000001
 40
0.0
 40
0.0
 40
0.0
 40
0.0
 40
1.0
 40
1.0
 40
1.0
 40
1.0
 10
33.33750000000001
 20
-9.874536071731852
 30
0.0
 10
33.17105584171884
 20
-9.814037944113961
 30
0.0
 10
33.00442109497916
 20
-9.752666700103356
 30
0.0
 10
32.83766008581406
 20
-9.690444503390381
 30
0.0
  0
LINE
  5
B3
330
1F
100
AcDbEntity
  8
외형선
  6
Continuous
370
    15
100
AcDbLine
 10
32.83766008581408
 20
-12.70000000000001
 30
0.0
 11
32.83766008581408
 21
-9.690441955934732
 31
0.0
  0
SPLINE
  5
B4
330
1F
100
AcDbEntity
  8
외형선
  6
Continuous
370
    15
100
AcDbSpline
210
0.0
220
0.0
230
1.0
 70
     8
 71
     3
 72
     8
 73
     4
 74
     0
 42
0.000000001
 43
0.00000001
 40
0.0
 40
0.0
 40
0.0
 40
0.0
 40
1.0
 40
1.0
 40
1.0
 40
1.0
 10
33.33750000000002
 20
-10.90143940523143
 30
0.0
 10
33.17105584171885
 20
-10.95079307097943
 30
0.0
 10
33.00442109497921
 20
-10.99922712259617
 30
0.0
 10
32.83766008581414
 20
-11.04672100824475
 30
0.0
  0
SPLINE
  5
B9
330
1F
100
AcDbEntity
  8
외형선
  6
Continuous
370
    15
100
AcDbSpline
210
0.0
220
0.0
230
1.0
 70
    24
 71
     3
 72
    30
 73
    26
 74
     0
 42
0.000000001
 43
0.00000001
 40
0.0
 40
0.0
 40
0.0
 40
0.0
 40
0.0625
 40
0.0625
 40
0.125
 40
0.125
 40
0.1875
 40
0.1875
 40
0.25
 40
0.25
 40
0.3125
 40
0.3125
 40
0.375
 40
0.375
 40
0.4375
 40
0.4375
 40
0.5
 40
0.5
 40
0.625
 40
0.625
 40
0.75
 40
0.75
 40
0.875
 40
0.875
 40
1.0
 40
1.0
 40
1.0
 40
1.0
 10
33.33750000000002
 20
-6.515260462488671
 30
0.0
 10
33.33750000000002
 20
-6.413783755611104
 30
0.0
 10
33.33750000000005
 20
-6.271946866159596
 30
0.0
 10
33.33750000000001
 20
-5.89981237538109
 30
0.0
 10
33.33750000000003
 20
-5.669416638391772
 30
0.0
 10
33.33750000000001
 20
-5.120883643130838
 30
0.0
 10
33.33750000000005
 20
-4.802720923847047
 30
0.0
 10
33.33750000000006
 20
-4.090121034474551
 30
0.0
 10
33.33750000000003
 20
-3.695761998859051
 30
0.0
 10
33.33750000000002
 20
-2.852274416065674
 30
0.0
 10
33.33750000000003
 20
-2.403309150733885
 30
0.0
 10
33.33750000000002
 20
-1.478405339384716
 30
0.0
 10
33.33750000000008
 20
-1.002651861659971
 30
0.0
 10
33.33750000000006
 20
-0.0527622477851174
 30
0.0
 10
33.33750000000003
 20
0.421235678540062
 30
0.0
 10
33.33750000000005
 20
1.343324626122899
 30
0.0
 10
33.33750000000001
 20
1.79135855850462
 30
0.0
 10
33.33750000000001
 20
3.071146343563638
 30
0.0
 10
33.33750000000001
 20
3.835306774858553
 30
0.0
 10
33.33750000000001
 20
5.139539548839321
 30
0.0
 10
33.33750000000002
 20
5.68168018677176
 30
0.0
 10
33.33750000000002
 20
6.574458312442768
 30
0.0
 10
33.33750000000003
 20
6.926441428741942
 30
0.0
 10
33.33750000000002
 20
7.491367828443694
 30
0.0
 10
33.33750000000005
 20
7.761559315303606
 30
0.0
 10
33.33750000000002
 20
7.986459626647224
 30
0.0
  0
SPLINE
  5
BA
330
1F
100
AcDbEntity
  8
외형선
  6
Continuous
370
    15
100
AcDbSpline
210
0.0
220
0.0
230
1.0
 70
    24
 71
     3
 72
    10
 73
     6
 74
     0
 42
0.000000001
 43
0.00000001
 40
0.0
 40
0.0
 40
0.0
 40
0.0
 40
0.4474222300646153
 40
0.8962712603999144
 40
0.9999999999999999
 40
0.9999999999999999
 40
0.9999999999999999
 40
0.9999999999999999
 10
33.33750000000002
 20
-10.90143940523143
 30
0.0
 10
33.33750000000005
 20
-10.76330540562697
 30
0.0
 10
33.33750000000013
 20
-10.48659690611479
 30
0.0
 10
33.33750000000001
 20
-10.17766034125206
 30
0.0
 10
33.33750000000002
 20
-10.01776156027635
 30
0.0
 10
33.33750000000001
 20
-9.987745696597754
 30
0.0
  0
LINE
  5
BB
330
1F
100
AcDbEntity
  8
중심선
100
AcDbLine
 10
-83.9625
 20
-0.0000000000000105
 30
0.0
 11
83.96249999999999
 21
0.0000000000000105
 31
0.0
  0
LINE
  5
BC
330
1F
100
AcDbEntity
  8
참조1
100
AcDbLine
 10
41.46838065701561
 20
0.0010749287238892
 30
0.0
 11
41.46838065701562
 21
-39.99892507127611
 31
0.0
  0
LINE
  5
BD
330
1F
100
AcDbEntity
  8
참조1
100
AcDbLine
 10
41.46838065701562
 20
-39.99892507127611
 30
0.0
 11
-29.25297615729306
 21
-39.9989250712761
 31
0.0
  0
CIRCLE
  5
BE
330
1F
100
AcDbEntity
  8
해칭선
100
AcDbCircle
 10
0.0
 20
0.0
 30
0.0
 40
3.000000000000018
  0
INSERT
  5
BF
330
1F
100
AcDbEntity
  8
0
  6
Continuous
 62
     7
100
AcDbBlockReference
 66
     1
  2
블럭10
 10
-13.94027293212521
 20
-52.04717430164394
 30
0.0
  0
ATTRIB
  5
C0
330
BF
100
AcDbEntity
  8
FORMAT
 62
     2
100
AcDbText
 10
-23.12156822086649
 20
-49.97180738881175
 30
0.0
 40
4.233333333333333
  1
E1051064 [ 4 FLUTE ]
 41
0.75
  7
SLDTEXTSTYLE0
 11
-23.12156822086649
 21
-52.08847405547842
 31
0.0
100
AcDbAttribute
  2
AUTOATTR0
 70
     0
 74
     1
  0
SEQEND
  5
C1
330
BF
100
AcDbEntity
  8
0
  6
Continuous
 62
     7
  0
HATCH
  5
C2
330
1F
100
AcDbEntity
  8
중심선
100
AcDbHatch
 10
0.0
 20
0.0
 30
0.0
210
0.0
220
0.0
230
1.0
  2
SOLID
 70
     1
 71
     0
 91
        1
 92
        0
 93
        4
 72
     1
 10
-8.225363627744379
 20
-35.8
 11
-11.67163887158166
 21
-35.8
 72
     1
 10
-11.67163887158166
 20
-35.8
 11
-13.79986873078563
 21
-38.33632558057258
 72
     1
 10
-13.79986873078563
 20
-38.33632558057258
 11
-10.35356040183531
 21
-38.33628615127009
 72
     1
 10
-10.35356040183531
 20
-38.33628615127009
 11
-8.225363627744379
 21
-35.8
 97
        0
 75
     0
 76
     1
 98
        1
 10
-41.46838065701562
 20
-0.0010749287238997
  0
HATCH
  5
C3
330
1F
100
AcDbEntity
  8
중심선
100
AcDbHatch
 10
0.0
 20
0.0
 30
0.0
210
0.0
220
0.0
230
1.0
  2
SOLID
 70
     1
 71
     0
 91
        1
 92
        0
 93
        4
 72
     1
 10
-3.212599636708369
 20
-35.79999999999998
 11
-6.65887488054571
 21
-35.8
 72
     1
 10
-6.65887488054571
 20
-35.8
 11
-11.19001288890312
 21
-41.20000000000002
 72
     1
 10
-11.19001288890312
 20
-41.20000000000002
 11
-7.743737645065842
 21
-41.20000000000002
 72
     1
 10
-7.743737645065842
 20
-41.20000000000002
 11
-3.212599636708369
 21
-35.79999999999998
 97
        0
 75
     0
 76
     1
 98
        1
 10
-41.46838065701562
 20
-0.0010749287238997
  0
HATCH
  5
C4
330
1F
100
AcDbEntity
  8
중심선
100
AcDbHatch
 10
0.0
 20
0.0
 30
0.0
210
0.0
220
0.0
230
1.0
  2
SOLID
 70
     1
 71
     0
 91
        1
 92
        0
 93
        4
 72
     1
 10
1.800164354327528
 20
-35.79999999999998
 11
-1.646110889509643
 21
-35.79999999999998
 72
     1
 10
-1.646110889509643
 20
-35.79999999999998
 11
-8.694547791398925
 21
-44.20000000000002
 72
     1
 10
-8.694547791398925
 20
-44.20000000000002
 11
-5.248272547561641
 21
-44.20000000000002
 72
     1
 10
-5.248272547561641
 20
-44.20000000000002
 11
1.800164354327528
 21
-35.79999999999998
 97
        0
 75
     0
 76
     1
 98
        1
 10
-41.46838065701562
 20
-0.0010749287238997
  0
HATCH
  5
C5
330
1F
100
AcDbEntity
  8
중심선
100
AcDbHatch
 10
0.0
 20
0.0
 30
0.0
210
0.0
220
0.0
230
1.0
  2
SOLID
 70
     1
 71
     0
 91
        1
 92
        0
 93
        6
 72
     3
 10
6.600054785339665
 20
-40.00000000005128
 11
3.960054785062283
 21
1.540882976769353E-10
 40
0.3939339440162628
 50
17.09539180608455
 51
320.0019657685078
 73
     0
 72
     1
 10
8.283054441040292
 20
-38.58789400463828
 11
10.58835631474128
 21
-36.65356729459039
 72
     3
 10
6.600054785286822
 20
-40.00000000000016
 11
6.600054785286829
 21
-1.278976924368180E-13
 40
0.636358354079598
 50
39.99873849337429
 51
368.4976242363724
 73
     1
 72
     1
 10
13.02538727718741
 20
-39.03999999993003
 11
5.280122092122774
 21
-39.03999999993003
 72
     1
 10
5.280122092122774
 20
-39.03999999993003
 11
5.280097047676811
 21
-40.95999999992992
 72
     1
 10
5.280097047676811
 20
-40.95999999992992
 11
9.721476817148819
 21
-40.95999999992989
 97
        0
 75
     0
 76
     1
 98
        1
 10
-41.46838065701562
 20
-0.0010749287238997
  0
DIMENSION
  5
C6
330
1F
100
AcDbEntity
  8
치수문자_일반주서
100
AcDbDimension
  2
_D
 10
110.9873617420093
 20
-12.69999999999987
 30
0.0
 11
110.9873617420091
 21
37.17556130945849
 31
0.0
 70
   160
  1
%%c<>
 71
     2
 42
25.4
 52
-270.0
  3
SLDDIMSTYLE2
100
AcDbAlignedDimension
 13
80.9625
 23
12.70000000000001
 33
0.0
 14
80.9625
 24
-12.69999999999999
 34
0.0
 50
90.0000000000002
100
AcDbRotatedDimension
1001
ACAD
1000
DSTYLE
1002
{
1070
   171
1070
     6
1070
   273
1070
     7
1002
}
  0
DIMENSION
  5
DA
330
1F
100
AcDbEntity
  8
치수문자_일반주서
100
AcDbDimension
  2
_D_1
 10
33.33750000000002
 20
34.57623114871488
 30
0.0
 11
-7.542093587899757
 21
34.57623114871488
 31
0.0
 70
   160
  1
<>
 71
     2
 42
47.62499999999999
  3
SLDDIMSTYLE2
100
AcDbAlignedDimension
 13
80.9625
 23
12.70000000000001
 33
0.0
 14
33.33750000000002
 24
10.90143940523146
 34
0.0
100
AcDbRotatedDimension
1001
ACAD
1000
DSTYLE
1002
{
1070
   171
1070
     6
1070
   273
1070
     7
1002
}
  0
DIMENSION
  5
EF
330
1F
100
AcDbEntity
  8
치수문자_일반주서
100
AcDbDimension
  2
_D_2
 10
-80.96250000000006
 20
60.24371585538411
 30
0.0
 11
-4.131508544009797
 21
60.24371585538411
 31
0.0
 70
   160
  1
<>
 71
     2
 42
161.9250000000001
  3
SLDDIMSTYLE2
100
AcDbAlignedDimension
 13
80.9625
 23
12.70000000000001
 33
0.0
 14
-80.96250000000006
 24
11.90624999999999
 34
0.0
 50
0.000000000000005
100
AcDbRotatedDimension
1001
ACAD
1000
DSTYLE
1002
{
1070
   171
1070
     6
1070
   273
1070
     7
1002
}
  0
DIMENSION
  5
102
330
1F
100
AcDbEntity
  8
치수문자_일반주서
100
AcDbDimension
  2
_D_3
 10
-91.89874999999998
 20
-12.70000000000024
 30
0.0
 11
-91.89875000000002
 21
-0.0000000000000178
 31
0.0
 70
   160
  1
%%c<>
 71
     2
 42
25.4
 52
-270.0
  3
SLDDIMSTYLE2
100
AcDbAlignedDimension
 13
-29.37518467149224
 23
12.69999999999999
 33
0.0
 14
-29.37518467149224
 24
-12.70000000000001
 34
0.0
 50
90.0000000000002
100
AcDbRotatedDimension
1001
ACAD
1000
DSTYLE
1002
{
1070
   171
1070
     6
1070
   273
1070
     7
1002
}
  0
LINE
  5
117
330
1F
100
AcDbEntity
  8
참조1
100
AcDbLine
 10
68.7193644723612
 20
7.441074928723896
 30
0.0
 11
68.7193644723612
 21
-7.438925071276109
 31
0.0
  0
LINE
  5
118
330
1F
100
AcDbEntity
  8
참조1
100
AcDbLine
 10
81.41936447236121
 20
5.441074928723896
 30
0.0
 11
68.7193644723612
 21
5.441074928723896
 31
0.0
  0
SOLID
  5
119
330
1F
100
AcDbEntity
  8
참조1
100
AcDbTrace
 10
68.7193644723612
 20
5.441074928723896
 30
0.0
 11
75.0693644723612
 21
4.425074928723896
 31
0.0
 12
75.0693644723612
 22
6.457074928723896
 32
0.0
 13
75.0693644723612
 23
6.457074928723896
 33
0.0
  0
LINE
  5
11A
330
1F
100
AcDbEntity
  8
참조1
100
AcDbLine
 10
81.41936447236121
 20
-5.438925071276109
 30
0.0
 11
68.7193644723612
 21
-5.438925071276109
 31
0.0
  0
SOLID
  5
11B
330
1F
100
AcDbEntity
  8
참조1
100
AcDbTrace
 10
68.7193644723612
 20
-5.438925071276109
 30
0.0
 11
75.0693644723612
 21
-6.454925071276109
 31
0.0
 12
75.0693644723612
 22
-4.422925071276109
 32
0.0
 13
75.0693644723612
 23
-4.422925071276109
 33
0.0
  0
MTEXT
  5
11C
330
1F
100
AcDbEntity
  8
참조1
100
AcDbMText
 10
78.1037146049872
 20
11.01136670591223
 30
0.0
 40
3.5
 41
0.0
 71
     1
 72
     1
  1
A
  7
SLDTEXTSTYLE0
 73
     1
 44
1.0
  0
MTEXT
  5
11D
330
1F
100
AcDbEntity
  8
참조1
100
AcDbMText
 10
78.1037146049872
 20
0.1313667059122219
 30
0.0
 40
3.5
 41
0.0
 71
     1
 72
     1
  1
A
  7
SLDTEXTSTYLE0
 73
     1
 44
1.0
  0
INSERT
  5
124
330
1F
100
AcDbEntity
  8
해칭선
100
AcDbBlockReference
  2
SW_DOWELSYMBOL_0
 10
0.0
 20
0.0
 30
0.0
  0
LINE
  5
304
330
1F
100
AcDbEntity
  8
0
  6
Continuous
 62
     1
370
    15
100
AcDbLine
 10
-76.5187734729686
 20
-3.534168057625675
 30
0.0
 11
-76.44901602314323
 21
-3.571877068271513
 31
0.0
  0
LINE
  5
305
330
1F
100
AcDbEntity
  8
0
  6
Continuous
 62
     1
370
    15
100
AcDbLine
 10
-57.59639610294008
 20
-11.90624999999999
 30
0.0
 11
-50.33952076933568
 21
-11.90624999999999
 31
0.0
  0
LINE
  5
306
330
1F
100
AcDbEntity
  8
0
  6
Continuous
 62
     1
370
    15
100
AcDbLine
 10
-50.33952076933551
 20
11.90625000000001
 30
0.0
 11
-57.59639610294008
 21
11.90625000000002
 31
0.0
  0
LINE
  5
307
330
1F
100
AcDbEntity
  8
외형선
  6
Continuous
370
    15
100
AcDbLine
 10
-29.37518467149224
 20
12.70000000000002
 30
0.0
 11
-32.33750000000006
 21
11.90625000000001
 31
0.0
  0
LINE
  5
308
330
1F
100
AcDbEntity
  8
외형선
  6
Continuous
370
    15
100
AcDbLine
 10
-32.33750000000006
 20
-11.90624999999999
 30
0.0
 11
-29.37518467149224
 21
-12.7
 31
0.0
  0
LINE
  5
30B
330
1F
100
AcDbEntity
  8
외형선
  6
Continuous
370
    15
100
AcDbLine
 10
-32.33750000000006
 20
11.90625000000001
 30
0.0
 11
-32.83761124348203
 21
11.90625000000001
 31
0.0
  0
LINE
  5
30C
330
1F
100
AcDbEntity
  8
외형선
  6
Continuous
370
    15
100
AcDbLine
 10
-32.83761124348203
 20
-11.90624999999999
 30
0.0
 11
-32.33750000000006
 21
-11.90624999999999
 31
0.0
  0
SPLINE
  5
30E
330
1F
100
AcDbEntity
  8
0
  6
Continuous
 62
     1
370
    15
100
AcDbSpline
210
0.0
220
0.0
230
1.0
 70
     8
 71
     3
 72
    56
 73
    52
 74
     0
 42
0.000000001
 43
0.00000001
 40
0.0
 40
0.0
 40
0.0
 40
0.0
 40
0.0625000000000021
 40
0.0625000000000021
 40
0.0937500000000032
 40
0.0937500000000032
 40
0.1250000000000042
 40
0.1250000000000042
 40
0.1875000000000064
 40
0.1875000000000064
 40
0.2187500000000068
 40
0.2187500000000068
 40
0.2500000000000072
 40
0.2500000000000072
 40
0.2812500000000075
 40
0.2812500000000075
 40
0.3125000000000079
 40
0.3125000000000079
 40
0.3750000000000074
 40
0.3750000000000074
 40
0.4375000000000069
 40
0.4375000000000069
 40
0.4687500000000066
 40
0.4687500000000066
 40
0.5000000000000063
 40
0.5000000000000063
 40
0.5625000000000058
 40
0.5625000000000058
 40
0.5937500000000056
 40
0.5937500000000056
 40
0.6250000000000052
 40
0.6250000000000052
 40
0.656250000000005
 40
0.656250000000005
 40
0.6875000000000047
 40
0.6875000000000047
 40
0.7500000000000028
 40
0.7500000000000028
 40
0.7812500000000026
 40
0.7812500000000026
 40
0.8125000000000023
 40
0.8125000000000023
 40
0.843750000000002
 40
0.843750000000002
 40
0.8750000000000018
 40
0.8750000000000018
 40
0.9375000000000012
 40
0.9375000000000012
 40
0.9687500000000006
 40
0.9687500000000006
 40
1.0
 40
1.0
 40
1.0
 40
1.0
 10
-80.96250000000006
 20
10.78326856457624
 30
0.0
 10
-79.97406089435694
 20
10.5407094304659
 30
0.0
 10
-78.9762504104115
 20
10.25984437662531
 30
0.0
 10
-77.48873391844543
 20
9.787459903743793
 30
0.0
 10
-76.99512189705572
 20
9.621618972160674
 30
0.0
 10
-76.00254543548252
 20
9.27293283932993
 30
0.0
 10
-75.50503835467029
 20
9.09023334094872
 30
0.0
 10
-74.01468809030476
 20
8.519181955029262
 30
0.0
 10
-73.02679485423803
 20
8.108302187281753
 30
0.0
 10
-71.53564777631485
 20
7.450649255314742
 30
0.0
 10
-71.03851113869021
 20
7.22474388191227
 30
0.0
 10
-70.04793804874922
 20
6.761365778228269
 30
0.0
 10
-69.55367957956625
 20
6.523779105851114
 30
0.0
 10
-68.56041071250527
 20
6.036928761421898
 30
0.0
 10
-68.0628744301093
 20
5.787893597541546
 30
0.0
 10
-67.06988394427734
 20
5.28055114742685
 30
0.0
 10
-66.57598871401595
 20
5.022523248427481
 30
0.0
 10
-65.08936411327872
 20
4.235200281763836
 30
0.0
 10
-64.0914357040065
 20
3.692518932285444
 30
0.0
 10
-62.11290867806949
 20
2.588478045317721
 30
0.0
 10
-61.1168774247204
 20
2.024277765033841
 30
0.0
 10
-59.62856625503159
 20
1.171443288689833
 30
0.0
 10
-59.13503383936225
 20
0.886394670864373
 30
0.0
 10
-58.14293640748869
 20
0.3142903071078001
 30
0.0
 10
-57.645491297745
 20
0.0274482144774131
 30
0.0
 10
-56.15479190282369
 20
-0.8320887768599584
 30
0.0
 10
-55.16711862839182
 20
-1.403035879005049
 30
0.0
 10
-53.67606955820034
 20
-2.251012505471135
 30
0.0
 10
-53.17878701454416
 20
-2.532008243942343
 30
0.0
 10
-52.18756874609338
 20
-3.088491713166769
 30
0.0
 10
-51.6937526420692
 20
-3.363964319466217
 30
0.0
 10
-50.70084690777557
 20
-3.909568575315167
 30
0.0
 10
-50.2033141997006
 20
-4.179405494452904
 30
0.0
 10
-49.20997478561119
 20
-4.711038416895409
 30
0.0
 10
-48.7155928051246
 20
-4.972588156934838
 30
0.0
 10
-47.22995711437457
 20
-5.744076162554263
 30
0.0
 10
-46.23197695444551
 20
-6.241466408994961
 30
0.0
 10
-44.7469414976911
 20
-6.950564248789286
 30
0.0
 10
-44.25219539890603
 20
-7.181071738366763
 30
0.0
 10
-43.25868798561905
 20
-7.62983122027242
 30
0.0
 10
-42.76117174143806
 20
-7.847882785468906
 30
0.0
 10
-41.76849943459504
 20
-8.269637916150176
 30
0.0
 10
-41.27484300412274
 20
-8.473149941380465
 30
0.0
 10
-40.28328950266868
 20
-8.865713491148005
 30
0.0
 10
-39.78593911985493
 20
-9.054670300612079
 30
0.0
 10
-38.29498850404664
 20
-9.597296352139162
 30
0.0
 10
-37.30736360354572
 20
-9.926204622514673
 30
0.0
 10
-35.81651052734642
 20
-10.36726033720291
 30
0.0
 10
-35.31911479779231
 20
-10.50542866262644
 30
0.0
 10
-34.32731605951747
 20
-10.76302435068643
 30
0.0
 10
-33.83373876203339
 20
-10.88240891195547
 30
0.0
 10
-33.33750000000006
 20
-10.99246307791568
 30
0.0
  0
SPLINE
  5
30F
330
1F
100
AcDbEntity
  8
0
  6
Continuous
 62
     1
370
    15
100
AcDbSpline
210
0.0
220
0.0
230
1.0
 70
     8
 71
     3
 72
    19
 73
    15
 74
     0
 42
0.000000001
 43
0.00000001
 40
0.0
 40
0.0
 40
0.0
 40
0.0
 40
0.08821955958896
 40
0.1764439190024722
 40
0.2646724461857956
 40
0.3529045069878787
 40
0.4411394654782377
 40
0.5293766842657514
 40
0.617615524819068
 40
0.6984964410010422
 40
0.7793776914001911
 40
0.8602593587684848
 40
0.9411415258044586
 40
1.0
 40
1.0
 40
1.0
 40
1.0
 10
-80.96250000000006
 20
-1.020143564576356
 30
0.0
 10
-79.6926904381996
 20
-1.747299661416034
 30
0.0
 10
-77.1530022271634
 20
-3.201651417996222
 30
0.0
 10
-73.3433216061998
 20
-5.264867827531654
 30
0.0
 10
-69.53342766584277
 20
-7.151425805890982
 30
0.0
 10
-65.72335266061648
 20
-8.793923261826842
 30
0.0
 10
-61.91311694554591
 20
-10.13730268480006
 30
0.0
 10
-58.10280447516075
 20
-11.13553029186563
 30
0.0
 10
-54.39818757992649
 20
-11.73769619532025
 30
0.0
 10
-50.79996056960775
 20
-11.95987108656855
 30
0.0
 10
-47.30749601015961
 20
-11.83592096506919
 30
0.0
 10
-43.81504327097812
 20
-11.36351648030237
 30
0.0
 10
-40.63955846752285
 20
-10.67153828137132
 30
0.0
 10
-38.62822588057375
 20
-10.01454304592707
 30
0.0
 10
-37.78105668108893
 20
-9.737817987481664
 30
0.0
  0
SPLINE
  5
310
330
1F
100
AcDbEntity
  8
0
  6
Continuous
 62
     1
370
    15
100
AcDbSpline
210
0.0
220
0.0
230
1.0
 70
     8
 71
     3
 72
    17
 73
    13
 74
     0
 42
0.000000001
 43
0.00000001
 40
0.0
 40
0.0
 40
0.0
 40
0.0
 40
0.103400383183564
 40
0.2067965990295967
 40
0.3101879044469726
 40
0.4135735667213191
 40
0.5169596437063352
 40
0.620351319615042
 40
0.7237478536398274
 40
0.8185391141585544
 40
0.9133315240872509
 40
1.0
 40
1.0
 40
1.0
 40
1.0
 10
-33.33750000000006
 20
4.57433542092855
 30
0.0
 10
-34.60752862143366
 20
5.236237672254543
 30
0.0
 10
-37.14753467843698
 20
6.560015498312021
 30
0.0
 10
-40.95741936055813
 20
8.28069232464051
 30
0.0
 10
-44.76709309092561
 20
9.730678119762958
 30
0.0
 10
-48.57658442998243
 20
10.84645661162164
 30
0.0
 10
-52.38609265591808
 20
11.59400645768863
 30
0.0
 10
-56.19576124360574
 20
11.94620013258553
 30
0.0
 10
-59.89998941311532
 20
11.89528603922652
 30
0.0
 10
-63.4983026456384
 20
11.4726762082966
 30
0.0
 10
-66.89124580116223
 20
10.77926719586096
 30
0.0
 10
-69.11995343739633
 20
10.07938075114552
 30
0.0
 10
-70.18441806398417
 20
9.745104352161766
 30
0.0
  0
SPLINE
  5
311
330
1F
100
AcDbEntity
  8
외형선
  6
Continuous
370
    15
100
AcDbSpline
210
0.0
220
0.0
230
1.0
 70
    24
 71
     3
 72
    30
 73
    26
 74
     0
 42
0.000000001
 43
0.00000001
 40
0.0
 40
0.0
 40
0.0
 40
0.0
 40
0.1250000000000001
 40
0.1250000000000001
 40
0.25
 40
0.25
 40
0.375
 40
0.375
 40
0.4999999999999999
 40
0.4999999999999999
 40
0.5625
 40
0.5625
 40
0.625
 40
0.625
 40
0.6875
 40
0.6875
 40
0.75
 40
0.75
 40
0.8125
 40
0.8125
 40
0.875
 40
0.875
 40
0.9375
 40
0.9375
 40
1.0
 40
1.0
 40
1.0
 40
1.0
 10
-33.33750000000012
 20
-8.741132333813512
 30
0.0
 10
-33.33750000000012
 20
-8.455514605430318
 30
0.0
 10
-33.33750000000001
 20
-8.139163071136485
 30
0.0
 10
-33.33750000000006
 20
-7.502410781292614
 30
0.0
 10
-33.33750000000006
 20
-7.11750207596063
 30
0.0
 10
-33.33750000000006
 20
-6.175559132032053
 30
0.0
 10
-33.33750000000006
 20
-5.617226191551115
 30
0.0
 10
-33.33750000000006
 20
-4.313266267115036
 30
0.0
 10
-33.33750000000006
 20
-3.565884426509441
 30
0.0
 10
-33.33750000000006
 20
-2.348184226065409
 30
0.0
 10
-33.33750000000001
 20
-1.926971181043928
 30
0.0
 10
-33.33750000000006
 20
-1.071745371348167
 30
0.0
 10
-33.33750000000006
 20
-0.6378038823472095
 30
0.0
 10
-33.33750000000006
 20
0.2190725752545866
 30
0.0
 10
-33.33750000000006
 20
0.6418660992211408
 30
0.0
 10
-33.33750000000012
 20
1.449888641429788
 30
0.0
 10
-33.33750000000006
 20
1.834944973000781
 30
0.0
 10
-33.33750000000012
 20
2.543085098903885
 30
0.0
 10
-33.33750000000006
 20
2.866030892108415
 30
0.0
 10
-33.33750000000006
 20
3.43261567250341
 30
0.0
 10
-33.33750000000006
 20
3.676205058018339
 30
0.0
 10
-33.33750000000006
 20
4.076804152068448
 30
0.0
 10
-33.33750000000001
 20
4.233860469169727
 30
0.0
 10
-33.33750000000006
 20
4.464207176942288
 30
0.0
 10
-33.33750000000006
 20
4.537604075116692
 30
0.0
 10
-33.33750000000006
 20
4.574335420928541
 30
0.0
  0
SPLINE
  5
312
330
1F
100
AcDbEntity
  8
0
  6
Continuous
 62
     1
370
    15
100
AcDbSpline
210
0.0
220
0.0
230
1.0
 70
     8
 71
     3
 72
    56
 73
    52
 74
     0
 42
0.000000001
 43
0.00000001
 40
0.0
 40
0.0
 40
0.0
 40
0.0
 40
0.0624999999999983
 40
0.0624999999999983
 40
0.0937499999999981
 40
0.0937499999999981
 40
0.1249999999999979
 40
0.1249999999999979
 40
0.1874999999999974
 40
0.1874999999999974
 40
0.2187499999999979
 40
0.2187499999999979
 40
0.2499999999999983
 40
0.2499999999999983
 40
0.2812499999999988
 40
0.2812499999999988
 40
0.3124999999999993
 40
0.3124999999999993
 40
0.3750000000000002
 40
0.3750000000000002
 40
0.4375000000000011
 40
0.4375000000000011
 40
0.4687500000000015
 40
0.4687500000000015
 40
0.500000000000002
 40
0.500000000000002
 40
0.5625000000000028
 40
0.5625000000000028
 40
0.5937500000000027
 40
0.5937500000000027
 40
0.6250000000000024
 40
0.6250000000000024
 40
0.6562500000000022
 40
0.6562500000000022
 40
0.687500000000002
 40
0.687500000000002
 40
0.7500000000000017
 40
0.7500000000000017
 40
0.7812500000000008
 40
0.7812500000000008
 40
0.8125000000000006
 40
0.8125000000000006
 40
0.8437500000000004
 40
0.8437500000000004
 40
0.8750000000000002
 40
0.8750000000000002
 40
0.9375000000000003
 40
0.9375000000000003
 40
0.9687500000000002
 40
0.9687500000000002
 40
1.0
 40
1.0
 40
1.0
 40
1.0
 10
-80.96250000000006
 20
11.90624999999999
 30
0.0
 10
-79.974060894357
 20
11.81344510002763
 30
0.0
 10
-78.9762504104115
 20
11.72296910871724
 30
0.0
 10
-77.48873391844532
 20
11.52698267604496
 30
0.0
 10
-76.99512189705572
 20
11.45170958250437
 30
0.0
 10
-76.00254543548252
 20
11.28115232215844
 30
0.0
 10
-75.50503835467029
 20
11.18592146886676
 30
0.0
 10
-74.0146880903047
 20
10.87145867455526
 30
0.0
 10
-73.02679485423803
 20
10.62373831317769
 30
0.0
 10
-71.53564777631473
 20
10.19739652413024
 30
0.0
 10
-71.03851113869021
 20
10.0462757555093
 30
0.0
 10
-70.0479380487491
 20
9.72726217403534
 30
0.0
 10
-69.5536795795663
 20
9.559301450996548
 30
0.0
 10
-68.56041071250533
 20
9.206532423655977
 30
0.0
 10
-68.06287443010925
 20
9.021879644170921
 30
0.0
 10
-67.06988394427728
 20
8.637484138863813
 30
0.0
 10
-66.575988714016
 20
8.437964256049183
 30
0.0
 10
-65.08936411327866
 20
7.817330119405735
 30
0.0
 10
-64.09143570400656
 20
7.373921815685982
 30
0.0
 10
-62.11290867806949
 20
6.441681192188955
 30
0.0
 10
-61.1168774247204
 20
5.950466423919684
 30
0.0
 10
-59.62856625503147
 20
5.186155811457665
 30
0.0
 10
-59.13503383936214
 20
4.927111018232893
 30
0.0
 10
-58.14293640748863
 20
4.400049366587766
 30
0.0
 10
-57.645491297745
 20
4.132218105834262
 30
0.0
 10
-56.15479190282369
 20
3.318941104164853
 30
0.0
 10
-55.16711862839182
 20
2.7644635050021
 30
0.0
 10
-53.67606955820034
 20
1.919476691038607
 30
0.0
 10
-53.17878701454416
 20
1.635849049364687
 30
0.0
 10
-52.18756874609332
 20
1.066885795526229
 30
0.0
 10
-51.6937526420692
 20
0.781576108071487
 30
0.0
 10
-50.70084690777568
 20
0.209083686347223
 30
0.0
 10
-50.20331419970066
 20
-0.0778004780210938
 30
0.0
 10
-49.20997478561125
 20
-0.6506041886252493
 30
0.0
 10
-48.71559280512454
 20
-0.9362496885035486
 30
0.0
 10
-47.22995711437463
 20
-1.790488459485656
 30
0.0
 10
-46.23197695444546
 20
-2.357160754822574
 30
0.0
 10
-44.74694149769104
 20
-3.18973037962453
 30
0.0
 10
-44.25219539890597
 20
-3.464681589820414
 30
0.0
 10
-43.25868798561899
 20
-4.008828639042045
 30
0.0
 10
-42.76117174143801
 20
-4.277790049024036
 30
0.0
 10
-41.76849943459504
 20
-4.807394153602777
 30
0.0
 10
-41.27484300412274
 20
-5.067781705267405
 30
0.0
 10
-40.28328950266868
 20
-5.580062716421919
 30
0.0
 10
-39.78593911985493
 20
-5.83184827178494
 30
0.0
 10
-38.29498850404664
 20
-6.571155407538077
 30
0.0
 10
-37.30736360354572
 20
-7.041869606577064
 30
0.0
 10
-35.81651052734637
 20
-7.710347607826408
 30
0.0
 10
-35.31911479779231
 20
-7.926723904440303
 30
0.0
 10
-34.32731605951741
 20
-8.34491636473581
 30
0.0
 10
-33.83373876203339
 20
-8.54663846738884
 30
0.0
 10
-33.33750000000012
 20
-8.741132333813498
 30
0.0
  0
LINE
  5
313
330
1F
100
AcDbEntity
  8
0
  6
Continuous
 62
     1
370
    15
100
AcDbLine
 10
-80.96250000000006
 20
11.90624999999999
 30
0.0
 11
-80.96250000000006
 21
10.78326856457623
 31
0.0
  0
LINE
  5
314
330
1F
100
AcDbEntity
  8
외형선
  6
Continuous
370
    15
100
AcDbLine
 10
-33.33750000000012
 20
-8.741132333813509
 30
0.0
 11
-33.33750000000006
 21
-10.99246307791567
 31
0.0
  0
SPLINE
  5
315
330
1F
100
AcDbEntity
  8
0
  6
Continuous
 62
     1
370
    15
100
AcDbSpline
210
0.0
220
0.0
230
1.0
 70
     8
 71
     3
 72
    14
 73
    10
 74
     0
 42
0.000000001
 43
0.00000001
 40
0.0
 40
0.0
 40
0.0
 40
0.0
 40
0.1031046571862688
 40
0.252582178235663
 40
0.4020615118039747
 40
0.5515428095217553
 40
0.701026222768722
 40
0.8505119026545875
 40
1.0
 40
1.0
 40
1.0
 40
1.0
 10
-57.59639610294008
 20
-11.85904954646124
 30
0.0
 10
-58.39948280826107
 20
-11.86221440964327
 30
0.0
 10
-60.36685649319182
 20
-11.86996758062652
 30
0.0
 10
-63.49830103018283
 20
-11.46757495076769
 30
0.0
 10
-66.99104070102263
 20
-10.74577156844112
 30
0.0
 10
-70.48381299417846
 20
-9.702383110894063
 30
0.0
 10
-73.97665081749201
 20
-8.38254120694864
 30
0.0
 10
-77.46954972166995
 20
-6.832125110481366
 30
0.0
 10
-79.79817696424018
 20
-5.642553366571086
 30
0.0
 10
-80.96250000000006
 20
-5.047762685261766
 30
0.0
  0
LINE
  5
316
330
1F
100
AcDbEntity
  8
0
  6
Continuous
 62
     1
370
    15
100
AcDbLine
 10
-80.96250000000006
 20
10.78326856457624
 30
0.0
 11
-80.96250000000006
 21
-5.047762685261766
 31
0.0
  0
SPLINE
  5
317
330
1F
100
AcDbEntity
  8
0
  6
Continuous
 62
     1
370
    15
100
AcDbSpline
210
0.0
220
0.0
230
1.0
 70
     8
 71
     3
 72
    12
 73
     8
 74
     0
 42
0.000000001
 43
0.00000001
 40
0.0
 40
0.0
 40
0.0
 40
0.0
 40
0.1783330065274618
 40
0.3837476415725453
 40
0.5891635456203276
 40
0.7945809285371624
 40
1.0
 40
1.0
 40
1.0
 40
1.0
 10
-50.33952076933551
 20
11.88673773730414
 30
0.0
 10
-49.32884970273099
 20
11.86977881648865
 30
0.0
 10
-47.15402718519911
 20
11.83328559522085
 30
0.0
 10
-43.81504185114497
 20
11.3648205574073
 30
0.0
 10
-40.32255622512511
 20
10.57834543833526
 30
0.0
 10
-36.8300408126253
 20
9.496940866202172
 30
0.0
 10
-34.50168346074017
 20
8.554995540314634
 30
0.0
 10
-33.33750000000006
 20
8.08402094166385
 30
0.0
  0
LINE
  5
318
330
1F
100
AcDbEntity
  8
외형선
  6
Continuous
370
    15
100
AcDbLine
 10
-33.33750000000012
 20
8.084020941663846
 30
0.0
 11
-33.33750000000006
 21
4.574335420928564
 31
0.0
  0
SPLINE
  5
319
330
1F
100
AcDbEntity
  8
0
  6
Continuous
 62
     1
370
    15
100
AcDbSpline
210
0.0
220
0.0
230
1.0
 70
     8
 71
     3
 72
    10
 73
     6
 74
     0
 42
0.000000001
 43
0.00000001
 40
0.0
 40
0.0
 40
0.0
 40
0.0
 40
0.3534464648700787
 40
0.7069121599542723
 40
1.0
 40
1.0
 40
1.0
 40
1.0
 10
-80.96250000000006
 20
-11.90625
 30
0.0
 10
-79.69269027560895
 20
-11.75873854682661
 30
0.0
 10
-77.15300173938274
 20
-11.55127828614593
 30
0.0
 10
-73.56030299224702
 20
-10.81596739449643
 30
0.0
 10
-71.23740577611264
 20
-10.07912214272997
 30
0.0
 10
-70.18441806398417
 20
-9.745104352161738
 30
0.0
  0
LINE
  5
31A
330
1F
100
AcDbEntity
  8
0
  6
Continuous
 62
     1
370
    15
100
AcDbLine
 10
-80.96250000000006
 20
-5.028979397248907
 30
0.0
 11
-80.96250000000006
 21
-11.90625
 31
0.0
  0
SPLINE
  5
31B
330
1F
100
AcDbEntity
  8
0
  6
Continuous
 62
     1
370
    15
100
AcDbSpline
210
0.0
220
0.0
230
1.0
 70
     8
 71
     3
 72
     9
 73
     5
 74
     0
 42
0.000000001
 43
0.00000001
 40
0.0
 40
0.0
 40
0.0
 40
0.0
 40
0.8574381617762187
 40
1.0
 40
1.0
 40
1.0
 40
1.0
 10
-33.33750000000006
 20
10.99246307791567
 30
0.0
 10
-34.60753086839472
 20
10.69846645101381
 30
0.0
 10
-36.08872324472159
 20
10.35558851531191
 30
0.0
 10
-37.56989772451877
 20
9.814899594009761
 30
0.0
 10
-37.78105668108876
 20
9.737817987481689
 30
0.0
  0
SPLINE
  5
31C
330
1F
100
AcDbEntity
  8
외형선
  6
Continuous
370
    15
100
AcDbSpline
210
0.0
220
0.0
230
1.0
 70
    24
 71
     3
 72
    11
 73
     7
 74
     0
 42
0.000000001
 43
0.00000001
 40
0.0
 40
0.0
 40
0.0
 40
0.0
 40
0.0857718234666484
 40
0.4880043248185091
 40
0.9019015959587401
 40
1.0
 40
1.0
 40
1.0
 40
1.0
 10
-33.33750000000006
 20
8.1972313916355
 30
0.0
 10
-33.33750000000006
 20
8.268451138176717
 30
0.0
 10
-33.33750000000006
 20
8.673660482223193
 30
0.0
 10
-33.33749999999989
 20
9.51904740728593
 30
0.0
 10
-33.33750000000006
 20
10.39547133588024
 30
0.0
 10
-33.33750000000006
 20
10.89647142824404
 30
0.0
 10
-33.33750000000006
 20
10.99246307791567
 30
0.0
  0
LINE
  5
31D
330
1F
100
AcDbEntity
  8
외형선
  6
Continuous
370
    15
100
AcDbLine
 10
-32.33750000000006
 20
0.0000000000000109
 30
0.0
 11
-32.33750000000006
 21
-11.90624999999999
 31
0.0
  0
LINE
  5
31E
330
1F
100
AcDbEntity
  8
외형선
  6
Continuous
370
    15
100
AcDbLine
 10
-32.33750000000006
 20
11.90624999999998
 30
0.0
 11
-32.33750000000006
 21
0.0000000000000109
 31
0.0
  0
LINE
  5
31F
330
1F
100
AcDbEntity
  8
외형선
  6
Continuous
370
    15
100
AcDbLine
 10
-29.37518467149224
 20
0.0000000000000109
 30
0.0
 11
-29.37518467149224
 21
-12.7
 31
0.0
  0
LINE
  5
320
330
1F
100
AcDbEntity
  8
외형선
  6
Continuous
370
    15
100
AcDbLine
 10
-29.37518467149224
 20
12.70000000000002
 30
0.0
 11
-29.37518467149224
 21
0.0000000000000109
 31
0.0
  0
LINE
  5
321
330
1F
100
AcDbEntity
  8
외형선
  6
Continuous
370
    15
100
AcDbLine
 10
-32.83761124348203
 20
-11.10001688300621
 30
0.0
 11
-32.83761124348203
 21
-11.90624999999999
 31
0.0
  0
SPLINE
  5
322
330
1F
100
AcDbEntity
  8
외형선
  6
Continuous
370
    15
100
AcDbSpline
210
0.0
220
0.0
230
1.0
 70
     8
 71
     3
 72
     8
 73
     4
 74
     0
 42
0.000000001
 43
0.00000001
 40
0.0
 40
0.0
 40
0.0
 40
0.0
 40
1.0
 40
1.0
 40
1.0
 40
1.0
 10
-33.33750000000006
 20
-10.99246307791568
 30
0.0
 10
-33.17098751223361
 20
-11.02939165819831
 30
0.0
 10
-33.00433351773395
 20
-11.06525591760772
 30
0.0
 10
-32.83761124348203
 20
-11.10003871878137
 30
0.0
  0
SPLINE
  5
323
330
1F
100
AcDbEntity
  8
외형선
  6
Continuous
370
    15
100
AcDbSpline
210
0.0
220
0.0
230
1.0
 70
     8
 71
     3
 72
     8
 73
     4
 74
     0
 42
0.000000001
 43
0.00000001
 40
0.0
 40
0.0
 40
0.0
 40
0.0
 40
1.0
 40
1.0
 40
1.0
 40
1.0
 10
-33.33750000000012
 20
-8.741132333813498
 30
0.0
 10
-33.17098751223367
 20
-8.806394582616862
 30
0.0
 10
-33.00433351773395
 20
-8.870820656619356
 30
0.0
 10
-32.83761124348203
 20
-8.93438112531913
 30
0.0
  0
LINE
  5
324
330
1F
100
AcDbEntity
  8
외형선
  6
Continuous
370
    15
100
AcDbLine
 10
-32.83761124348203
 20
4.306786999548269
 30
0.0
 11
-32.83761124348203
 21
-8.934402721629946
 31
0.0
  0
SPLINE
  5
325
330
1F
100
AcDbEntity
  8
외형선
  6
Continuous
370
    15
100
AcDbSpline
210
0.0
220
0.0
230
1.0
 70
     8
 71
     3
 72
     8
 73
     4
 74
     0
 42
0.000000001
 43
0.00000001
 40
0.0
 40
0.0
 40
0.0
 40
0.0
 40
1.0
 40
1.0
 40
1.0
 40
1.0
 10
-33.33750000000006
 20
4.574335420928557
 30
0.0
 10
-33.17098751223361
 20
4.485593337560692
 30
0.0
 10
-33.00433351773395
 20
4.396378870653036
 30
0.0
 10
-32.83761124348203
 20
4.306730721098718
 30
0.0
  0
SPLINE
  5
326
330
1F
100
AcDbEntity
  8
외형선
  6
Continuous
370
    15
100
AcDbSpline
210
0.0
220
0.0
230
1.0
 70
     8
 71
     3
 72
     8
 73
     4
 74
     0
 42
0.000000001
 43
0.00000001
 40
0.0
 40
0.0
 40
0.0
 40
0.0
 40
1.0
 40
1.0
 40
1.0
 40
1.0
 10
-33.33750000000012
 20
8.084020941663853
 30
0.0
 10
-33.17098751223367
 20
8.01345383683953
 30
0.0
 10
-33.00433351773395
 20
7.942076339004231
 30
0.0
 10
-32.83761124348203
 20
7.869918866801665
 30
0.0
  0
LINE
  5
327
330
1F
100
AcDbEntity
  8
외형선
  6
Continuous
370
    15
100
AcDbLine
 10
-32.83761124348203
 20
11.90625000000001
 30
0.0
 11
-32.83761124348203
 21
7.869894349369055
 31
0.0
  0
SPLINE
  5
328
330
1F
100
AcDbEntity
  8
외형선
  6
Continuous
370
    15
100
AcDbSpline
210
0.0
220
0.0
230
1.0
 70
     8
 71
     3
 72
     8
 73
     4
 74
     0
 42
0.000000001
 43
0.00000001
 40
0.0
 40
0.0
 40
0.0
 40
0.0
 40
1.0
 40
1.0
 40
1.0
 40
1.0
 10
-33.33750000000006
 20
10.99246307791566
 30
0.0
 10
-33.17098751223361
 20
11.02939165819829
 30
0.0
 10
-33.00433351773395
 20
11.06525591760771
 30
0.0
 10
-32.83761124348203
 20
11.10003871878136
 30
0.0
  0
SPLINE
  5
329
330
1F
100
AcDbEntity
  8
외형선
  6
Continuous
370
    15
100
AcDbSpline
210
0.0
220
0.0
230
1.0
 70
    24
 71
     3
 72
    30
 73
    26
 74
     0
 42
0.000000001
 43
0.00000001
 40
0.0
 40
0.0
 40
0.0
 40
0.0
 40
0.0625
 40
0.0625
 40
0.1249999999999999
 40
0.1249999999999999
 40
0.1874999999999999
 40
0.1874999999999999
 40
0.2499999999999998
 40
0.2499999999999998
 40
0.3124999999999998
 40
0.3124999999999998
 40
0.3749999999999998
 40
0.3749999999999998
 40
0.4374999999999997
 40
0.4374999999999997
 40
0.4999999999999997
 40
0.4999999999999997
 40
0.6249999999999997
 40
0.6249999999999997
 40
0.7499999999999997
 40
0.7499999999999997
 40
0.8749999999999998
 40
0.8749999999999998
 40
1.0
 40
1.0
 40
1.0
 40
1.0
 10
-33.33750000000006
 20
4.574335420928524
 30
0.0
 10
-33.33750000000012
 20
4.537604075116665
 30
0.0
 10
-33.33750000000006
 20
4.464207176942249
 30
0.0
 10
-33.33750000000001
 20
4.233860469169667
 30
0.0
 10
-33.33750000000006
 20
4.076804152068377
 30
0.0
 10
-33.33750000000006
 20
3.676205058018247
 30
0.0
 10
-33.33750000000006
 20
3.432615672503313
 30
0.0
 10
-33.33750000000006
 20
2.866030892108307
 30
0.0
 10
-33.33750000000006
 20
2.54308509890376
 30
0.0
 10
-33.33750000000006
 20
1.83494497300065
 30
0.0
 10
-33.33750000000006
 20
1.449888641429656
 30
0.0
 10
-33.33750000000006
 20
0.6418660992210093
 30
0.0
 10
-33.33750000000006
 20
0.2190725752544516
 30
0.0
 10
-33.33750000000006
 20
-0.6378038823473374
 30
0.0
 10
-33.33750000000006
 20
-1.071745371348285
 30
0.0
 10
-33.33750000000006
 20
-1.926971181044034
 30
0.0
 10
-33.33750000000012
 20
-2.348184226065512
 30
0.0
 10
-33.33750000000006
 20
-3.565884426509515
 30
0.0
 10
-33.33750000000006
 20
-4.313266267115107
 30
0.0
 10
-33.33750000000006
 20
-5.617226191551165
 30
0.0
 10
-33.33750000000006
 20
-6.175559132032081
 30
0.0
 10
-33.33750000000001
 20
-7.11750207596064
 30
0.0
 10
-33.33750000000006
 20
-7.502410781292625
 30
0.0
 10
-33.33750000000006
 20
-8.139163071136496
 30
0.0
 10
-33.33750000000012
 20
-8.455514605430325
 30
0.0
 10
-33.33750000000012
 20
-8.741132333813512
 30
0.0
  0
SPLINE
  5
32A
330
1F
100
AcDbEntity
  8
외형선
  6
Continuous
370
    15
100
AcDbSpline
210
0.0
220
0.0
230
1.0
 70
    24
 71
     3
 72
    11
 73
     7
 74
     0
 42
0.000000001
 43
0.00000001
 40
0.0
 40
0.0
 40
0.0
 40
0.0
 40
0.2682100717697014
 40
0.539777665643006
 40
0.9422571998772545
 40
1.0
 40
1.0
 40
1.0
 40
1.0
 10
-33.33750000000006
 20
10.99246307791567
 30
0.0
 10
-33.33750000000012
 20
10.73031632600604
 30
0.0
 10
-33.33750000000012
 20
10.20274120226806
 30
0.0
 10
-33.33750000000001
 20
9.310932333510268
 30
0.0
 10
-33.33750000000012
 20
8.624831279894524
 30
0.0
 10
-33.33750000000012
 20
8.2448913807228
 30
0.0
 10
-33.33750000000012
 20
8.197221391635503
 30
0.0
  0
LINE
  5
3A5
330
1F
100
AcDbEntity
  8
외형선
  6
Continuous
370
    15
100
AcDbLine
 10
-6.553199999999944
 20
10.79499999999999
 30
0.0
 11
6.553200000000064
 21
10.79499999999999
 31
0.0
  0
LINE
  5
3A6
330
1F
100
AcDbEntity
  8
외형선
  6
Continuous
370
    15
100
AcDbLine
 10
6.553200000000064
 20
10.79499999999999
 30
0.0
 11
8.458200000000037
 21
12.69999999999999
 31
0.0
  0
LINE
  5
3A7
330
1F
100
AcDbEntity
  8
외형선
  6
Continuous
370
    15
100
AcDbLine
 10
-6.553199999999944
 20
10.79499999999999
 30
0.0
 11
-8.458199999999916
 21
12.69999999999999
 31
0.0
  0
LINE
  5
3A8
330
1F
100
AcDbEntity
  8
외형선
  6
Continuous
370
    15
100
AcDbLine
 10
-8.458199999999927
 20
12.69999999999999
 30
0.0
 11
-29.37518467149224
 21
12.69999999999999
 31
0.0
  0
ENDSEC
  0
SECTION
  2
OBJECTS
  0
DICTIONARY
  5
C
330
0
100
AcDbDictionary
281
     1
  3
ACAD_GROUP
350
D
  3
ACAD_IMAGE_VARS
350
148
  3
ACAD_LAYOUT
350
1A
  3
ACAD_MLINESTYLE
350
17
  3
ACAD_PLOTSETTINGS
350
19
  3
ACAD_PLOTSTYLENAME
350
E
  3
ACAD_SCALELIST
350
47
  3
APPDATA
350
146
  3
DWGPROPS
350
3CC
  0
DICTIONARY
  5
1D0
330
2
100
AcDbDictionary
280
     1
281
     1
  3
ACAD_LAYERSTATES
360
1D1
  0
DICTIONARY
  5
D
102
{ACAD_REACTORS
330
C
102
}
330
C
100
AcDbDictionary
281
     1
  0
RASTERVARIABLES
  5
148
102
{ACAD_REACTORS
330
C
102
}
330
C
100
AcDbRasterVariables
 90
        0
 70
     1
 71
     1
 72
     1
  0
DICTIONARY
  5
1A
102
{ACAD_REACTORS
330
C
102
}
330
C
100
AcDbDictionary
281
     1
  3
Layout1
350
1E
  3
Layout2
350
26
  3
Model
350
22
  0
DICTIONARY
  5
17
102
{ACAD_REACTORS
330
C
102
}
330
C
100
AcDbDictionary
281
     1
  3
Standard
350
18
  0
DICTIONARY
  5
19
102
{ACAD_REACTORS
330
C
102
}
330
C
100
AcDbDictionary
281
     1
  0
ACDBDICTIONARYWDFLT
  5
E
102
{ACAD_REACTORS
330
C
102
}
330
C
100
AcDbDictionary
281
     1
  3
Normal
350
F
100
AcDbDictionaryWithDefault
340
F
  0
DICTIONARY
  5
47
102
{ACAD_REACTORS
330
C
102
}
330
C
100
AcDbDictionary
281
     1
  3
A0
350
48
  3
A1
350
49
  3
A2
350
4A
  3
A3
350
4B
  3
A4
350
4C
  3
A5
350
4D
  3
A6
350
4E
  3
A7
350
4F
  3
A8
350
50
  3
A9
350
51
  3
B0
350
52
  3
B1
350
53
  3
B2
350
54
  3
B3
350
55
  3
B4
350
56
  3
B5
350
57
  3
B6
350
58
  3
B7
350
59
  3
B8
350
5A
  3
B9
350
5B
  3
C0
350
5C
  3
C1
350
5D
  3
C2
350
5E
  3
C3
350
5F
  3
C4
350
60
  3
C5
350
61
  3
C6
350
62
  3
C7
350
63
  3
C8
350
64
  3
C9
350
65
  3
D0
350
66
  3
D1
350
67
  3
D2
350
68
  0
DICTIONARY
  5
146
102
{ACAD_REACTORS
330
C
102
}
330
C
100
AcDbDictionary
281
     1
  0
XRECORD
  5
3CC
102
{ACAD_REACTORS
330
C
102
}
330
C
100
AcDbXrecord
280
     1
  1
DWGPROPS COOKIE
  2

  3

  4

  6

  7

  8
12017012
  9

300
=
301
=
302
=
303
=
304
=
305
=
306
=
307
=
308
=
309
=
 40
0.0
 41
2458313.100895868
 42
2458319.014215035
  1

 90
        0
  0
DICTIONARY
  5
1D1
102
{ACAD_REACTORS
330
1D0
102
}
330
1D0
100
AcDbDictionary
281
     1
  0
LAYOUT
  5
1E
102
{ACAD_REACTORS
330
1A
102
}
330
1A
100
AcDbPlotSettings
  1

  2
none_device
  4

  6

 40
0.0
 41
0.0
 42
0.0
 43
0.0
 44
0.0
 45
0.0
 46
0.0
 47
0.0
 48
0.0
 49
0.0
140
0.0
141
0.0
142
1.0
143
1.0
 70
   688
 72
     1
 73
     0
 74
     5
  7

 75
    16
147
1.0
148
0.0
149
0.0
100
AcDbLayout
  1
Layout1
 70
     1
 71
     1
 10
0.0
 20
0.0
 11
420.0
 21
297.0
 12
0.0
 22
0.0
 32
0.0
 14
1.000000000000000E+20
 24
1.000000000000000E+20
 34
1.000000000000000E+20
 15
-1.000000000000000E+20
 25
-1.000000000000000E+20
 35
-1.000000000000000E+20
146
0.0
 13
0.0
 23
0.0
 33
0.0
 16
1.0
 26
0.0
 36
0.0
 17
0.0
 27
1.0
 37
0.0
 76
     0
330
1B
  0
LAYOUT
  5
26
102
{ACAD_REACTORS
330
1A
102
}
330
1A
100
AcDbPlotSettings
  1

  2
none_device
  4

  6

 40
0.0
 41
0.0
 42
0.0
 43
0.0
 44
0.0
 45
0.0
 46
0.0
 47
0.0
 48
0.0
 49
0.0
140
0.0
141
0.0
142
1.0
143
1.0
 70
   688
 72
     1
 73
     0
 74
     5
  7

 75
    16
147
1.0
148
0.0
149
0.0
100
AcDbLayout
  1
Layout2
 70
     1
 71
     2
 10
0.0
 20
0.0
 11
0.0
 21
0.0
 12
0.0
 22
0.0
 32
0.0
 14
0.0
 24
0.0
 34
0.0
 15
0.0
 25
0.0
 35
0.0
146
0.0
 13
0.0
 23
0.0
 33
0.0
 16
1.0
 26
0.0
 36
0.0
 17
0.0
 27
1.0
 37
0.0
 76
     0
330
23
  0
LAYOUT
  5
22
102
{ACAD_REACTORS
330
1A
102
}
330
1A
100
AcDbPlotSettings
  1

  2
none_device
  4
ANSI_A_(11.00_x_8.50_Inches)
  6

 40
6.35
 41
19.05
 42
6.35000508
 43
19.05000254
 44
279.4
 45
215.9
 46
34.88711980504698
 47
59.72560078118969
 48
0.0
 49
0.0
140
0.0
141
0.0
142
0.0256194946627346
143
1.0
 70
  1696
 72
     0
 73
     0
 74
     0
  7

 75
     0
147
0.0235690232323232
148
0.0
149
0.0
100
AcDbLayout
  1
Model
 70
     1
 71
     0
 10
0.0
 20
0.0
 11
420.0
 21
297.0
 12
0.0
 22
0.0
 32
0.0
 14
-96.27375000000006
 24
-49.97180738881175
 34
0.0
 15
111.5376950753426
 25
64.61871585538411
 35
0.0
146
0.0
 13
0.0
 23
0.0
 33
0.0
 16
1.0
 26
0.0
 36
0.0
 17
0.0
 27
1.0
 37
0.0
 76
     0
330
1F
331
29
  0
MLINESTYLE
  5
18
102
{ACAD_REACTORS
330
17
102
}
330
17
100
AcDbMlineStyle
  2
Standard
 70
     0
  3

 62
   256
 51
90.0
 52
90.0
 71
     2
 49
0.5
 62
   256
  6
BYLAYER
 49
-0.5
 62
   256
  6
BYLAYER
  0
ACDBPLACEHOLDER
  5
F
102
{ACAD_REACTORS
330
E
102
}
330
E
  0
SCALE
  5
48
102
{ACAD_REACTORS
330
47
102
}
330
47
100
AcDbScale
 70
     0
300
1:1
140
1.0
141
1.0
290
     1
  0
SCALE
  5
49
102
{ACAD_REACTORS
330
47
102
}
330
47
100
AcDbScale
 70
     0
300
1:2
140
1.0
141
2.0
290
     0
  0
SCALE
  5
4A
102
{ACAD_REACTORS
330
47
102
}
330
47
100
AcDbScale
 70
     0
300
1:4
140
1.0
141
4.0
290
     0
  0
SCALE
  5
4B
102
{ACAD_REACTORS
330
47
102
}
330
47
100
AcDbScale
 70
     0
300
1:5
140
1.0
141
5.0
290
     0
  0
SCALE
  5
4C
102
{ACAD_REACTORS
330
47
102
}
330
47
100
AcDbScale
 70
     0
300
1:8
140
1.0
141
8.0
290
     0
  0
SCALE
  5
4D
102
{ACAD_REACTORS
330
47
102
}
330
47
100
AcDbScale
 70
     0
300
1:10
140
1.0
141
10.0
290
     0
  0
SCALE
  5
4E
102
{ACAD_REACTORS
330
47
102
}
330
47
100
AcDbScale
 70
     0
300
1:16
140
1.0
141
16.0
290
     0
  0
SCALE
  5
4F
102
{ACAD_REACTORS
330
47
102
}
330
47
100
AcDbScale
 70
     0
300
1:20
140
1.0
141
20.0
290
     0
  0
SCALE
  5
50
102
{ACAD_REACTORS
330
47
102
}
330
47
100
AcDbScale
 70
     0
300
1:30
140
1.0
141
30.0
290
     0
  0
SCALE
  5
51
102
{ACAD_REACTORS
330
47
102
}
330
47
100
AcDbScale
 70
     0
300
1:40
140
1.0
141
40.0
290
     0
  0
SCALE
  5
52
102
{ACAD_REACTORS
330
47
102
}
330
47
100
AcDbScale
 70
     0
300
1:50
140
1.0
141
50.0
290
     0
  0
SCALE
  5
53
102
{ACAD_REACTORS
330
47
102
}
330
47
100
AcDbScale
 70
     0
300
1:100
140
1.0
141
100.0
290
     0
  0
SCALE
  5
54
102
{ACAD_REACTORS
330
47
102
}
330
47
100
AcDbScale
 70
     0
300
2:1
140
2.0
141
1.0
290
     0
  0
SCALE
  5
55
102
{ACAD_REACTORS
330
47
102
}
330
47
100
AcDbScale
 70
     0
300
4:1
140
4.0
141
1.0
290
     0
  0
SCALE
  5
56
102
{ACAD_REACTORS
330
47
102
}
330
47
100
AcDbScale
 70
     0
300
8:1
140
8.0
141
1.0
290
     0
  0
SCALE
  5
57
102
{ACAD_REACTORS
330
47
102
}
330
47
100
AcDbScale
 70
     0
300
10:1
140
10.0
141
1.0
290
     0
  0
SCALE
  5
58
102
{ACAD_REACTORS
330
47
102
}
330
47
100
AcDbScale
 70
     0
300
100:1
140
100.0
141
1.0
290
     0
  0
SCALE
  5
59
102
{ACAD_REACTORS
330
47
102
}
330
47
100
AcDbScale
 70
     0
300
1/128" = 1'-0"
140
0.0078125
141
12.0
290
     0
  0
SCALE
  5
5A
102
{ACAD_REACTORS
330
47
102
}
330
47
100
AcDbScale
 70
     0
300
1/64" = 1'-0"
140
0.015625
141
12.0
290
     0
  0
SCALE
  5
5B
102
{ACAD_REACTORS
330
47
102
}
330
47
100
AcDbScale
 70
     0
300
1/32" = 1'-0"
140
0.03125
141
12.0
290
     0
  0
SCALE
  5
5C
102
{ACAD_REACTORS
330
47
102
}
330
47
100
AcDbScale
 70
     0
300
1/16" = 1'-0"
140
0.0625
141
12.0
290
     0
  0
SCALE
  5
5D
102
{ACAD_REACTORS
330
47
102
}
330
47
100
AcDbScale
 70
     0
300
3/32" = 1'-0"
140
0.09375
141
12.0
290
     0
  0
SCALE
  5
5E
102
{ACAD_REACTORS
330
47
102
}
330
47
100
AcDbScale
 70
     0
300
1/8" = 1'-0"
140
0.125
141
12.0
290
     0
  0
SCALE
  5
5F
102
{ACAD_REACTORS
330
47
102
}
330
47
100
AcDbScale
 70
     0
300
3/16" = 1'-0"
140
0.1875
141
12.0
290
     0
  0
SCALE
  5
60
102
{ACAD_REACTORS
330
47
102
}
330
47
100
AcDbScale
 70
     0
300
1/4" = 1'-0"
140
0.25
141
12.0
290
     0
  0
SCALE
  5
61
102
{ACAD_REACTORS
330
47
102
}
330
47
100
AcDbScale
 70
     0
300
3/8" = 1'-0"
140
0.375
141
12.0
290
     0
  0
SCALE
  5
62
102
{ACAD_REACTORS
330
47
102
}
330
47
100
AcDbScale
 70
     0
300
1/2" = 1'-0"
140
0.5
141
12.0
290
     0
  0
SCALE
  5
63
102
{ACAD_REACTORS
330
47
102
}
330
47
100
AcDbScale
 70
     0
300
3/4" = 1'-0"
140
0.75
141
12.0
290
     0
  0
SCALE
  5
64
102
{ACAD_REACTORS
330
47
102
}
330
47
100
AcDbScale
 70
     0
300
1" = 1'-0"
140
1.0
141
12.0
290
     0
  0
SCALE
  5
65
102
{ACAD_REACTORS
330
47
102
}
330
47
100
AcDbScale
 70
     0
300
1-1/2" = 1'-0"
140
1.5
141
12.0
290
     0
  0
SCALE
  5
66
102
{ACAD_REACTORS
330
47
102
}
330
47
100
AcDbScale
 70
     0
300
3" = 1'-0"
140
3.0
141
12.0
290
     0
  0
SCALE
  5
67
102
{ACAD_REACTORS
330
47
102
}
330
47
100
AcDbScale
 70
     0
300
6" = 1'-0"
140
6.0
141
12.0
290
     0
  0
SCALE
  5
68
102
{ACAD_REACTORS
330
47
102
}
330
47
100
AcDbScale
 70
     0
300
1'-0" = 1'-0"
140
12.0
141
12.0
290
     0
  0
ENDSEC
  0
EOF
