  0
SECTION
  2
HEADER
  9
$ACADVER
  1
AC1015
  9
$ACADMAINTVER
 70
     6
  9
$DWGCODEPAGE
  3
ANSI_949
  9
$INSBASE
 10
0.0
 20
0.0
 30
0.0
  9
$EXTMIN
 10
1.000000000000000E+20
 20
1.000000000000000E+20
 30
1.000000000000000E+20
  9
$EXTMAX
 10
-1.000000000000000E+20
 20
-1.000000000000000E+20
 30
-1.000000000000000E+20
  9
$LIMMIN
 10
0.0
 20
0.0
  9
$LIMMAX
 10
420.0
 20
297.0
  9
$ORTHOMODE
 70
     1
  9
$REGENMODE
 70
     1
  9
$FILLMODE
 70
     1
  9
$QTEXTMODE
 70
     0
  9
$MIRRTEXT
 70
     1
  9
$LTSCALE
 40
1.0
  9
$ATTMODE
 70
     1
  9
$TEXTSIZE
 40
3.5
  9
$TRACEWID
 40
1.0
  9
$TEXTSTYLE
  7
Standard
  9
$CLAYER
  8
0
  9
$CELTYPE
  6
ByLayer
  9
$CECOLOR
 62
   256
  9
$CELTSCALE
 40
1.0
  9
$DISPSILH
 70
     0
  9
$DIMSCALE
 40
1.0
  9
$DIMASZ
 40
3.302
  9
$DIMEXO
 40
1.0
  9
$DIMDLI
 40
3.75
  9
$DIMRND
 40
0.0
  9
$DIMDLE
 40
0.0
  9
$DIMEXE
 40
1.0
  9
$DIMTP
 40
0.0
  9
$DIMTM
 40
0.0
  9
$DIMTXT
 40
3.5
  9
$DIMCEN
 40
2.5
  9
$DIMTSZ
 40
0.0
  9
$DIMTOL
 70
     0
  9
$DIMLIM
 70
     0
  9
$DIMTIH
 70
     1
  9
$DIMTOH
 70
     1
  9
$DIMSE1
 70
     0
  9
$DIMSE2
 70
     0
  9
$DIMTAD
 70
     1
  9
$DIMZIN
 70
     0
  9
$DIMBLK
  1

  9
$DIMASO
 70
     1
  9
$DIMSHO
 70
     1
  9
$DIMPOST
  1

  9
$DIMAPOST
  1

  9
$DIMALT
 70
     0
  9
$DIMALTD
 70
     3
  9
$DIMALTF
 40
0.0393700787401575
  9
$DIMLFAC
 40
1.0
  9
$DIMTOFL
 70
     1
  9
$DIMTVP
 40
0.0
  9
$DIMTIX
 70
     0
  9
$DIMSOXD
 70
     0
  9
$DIMSAH
 70
     0
  9
$DIMBLK1
  1

  9
$DIMBLK2
  1

  9
$DIMSTYLE
  2
ISO-25
  9
$DIMCLRD
 70
     0
  9
$DIMCLRE
 70
     0
  9
$DIMCLRT
 70
     0
  9
$DIMTFAC
 40
1.0
  9
$DIMGAP
 40
1.524
  9
$DIMJUST
 70
     0
  9
$DIMSD1
 70
     0
  9
$DIMSD2
 70
     0
  9
$DIMTOLJ
 70
     0
  9
$DIMTZIN
 70
     0
  9
$DIMALTZ
 70
     0
  9
$DIMALTTZ
 70
     0
  9
$DIMUPT
 70
     0
  9
$DIMDEC
 70
     2
  9
$DIMTDEC
 70
     2
  9
$DIMALTU
 70
     2
  9
$DIMALTTD
 70
     3
  9
$DIMTXSTY
  7
Standard
  9
$DIMAUNIT
 70
     0
  9
$DIMADEC
 70
     2
  9
$DIMALTRND
 40
0.0
  9
$DIMAZIN
 70
     0
  9
$DIMDSEP
 70
    44
  9
$DIMATFIT
 70
     3
  9
$DIMFRAC
 70
     0
  9
$DIMLDRBLK
  1

  9
$DIMLUNIT
 70
     2
  9
$DIMLWD
 70
    -2
  9
$DIMLWE
 70
    -2
  9
$DIMTMOVE
 70
     0
  9
$LUNITS
 70
     2
  9
$LUPREC
 70
     2
  9
$SKETCHINC
 40
1.0
  9
$FILLETRAD
 40
10.0
  9
$AUNITS
 70
     0
  9
$AUPREC
 70
     2
  9
$MENU
  1
.
  9
$ELEVATION
 40
0.0
  9
$PELEVATION
 40
0.0
  9
$THICKNESS
 40
0.0
  9
$LIMCHECK
 70
     0
  9
$CHAMFERA
 40
0.0
  9
$CHAMFERB
 40
0.0
  9
$CHAMFERC
 40
0.0
  9
$CHAMFERD
 40
0.0
  9
$SKPOLY
 70
     0
  9
$TDCREATE
 40
2458311.463261609
  9
$TDUCREATE
 40
2458311.088261609
  9
$TDUPDATE
 40
2458318.666842766
  9
$TDUUPDATE
 40
2458318.291842766
  9
$TDINDWG
 40
0.0050702778
  9
$TDUSRTIMER
 40
2458318.291729329
  9
$USRTIMER
 70
     1
  9
$ANGBASE
 50
0.0
  9
$ANGDIR
 70
     0
  9
$PDMODE
 70
     0
  9
$PDSIZE
 40
-1.0
  9
$PLINEWID
 40
0.0
  9
$SPLFRAME
 70
     0
  9
$SPLINETYPE
 70
     6
  9
$SPLINESEGS
 70
     8
  9
$HANDSEED
  5
383
  9
$SURFTAB1
 70
     6
  9
$SURFTAB2
 70
     6
  9
$SURFTYPE
 70
     6
  9
$SURFU
 70
     6
  9
$SURFV
 70
     6
  9
$UCSBASE
  2

  9
$UCSNAME
  2

  9
$UCSORG
 10
0.0
 20
0.0
 30
0.0
  9
$UCSXDIR
 10
1.0
 20
0.0
 30
0.0
  9
$UCSYDIR
 10
0.0
 20
1.0
 30
0.0
  9
$UCSORTHOREF
  2

  9
$UCSORTHOVIEW
 70
     0
  9
$UCSORGTOP
 10
0.0
 20
0.0
 30
0.0
  9
$UCSORGBOTTOM
 10
0.0
 20
0.0
 30
0.0
  9
$UCSORGLEFT
 10
0.0
 20
0.0
 30
0.0
  9
$UCSORGRIGHT
 10
0.0
 20
0.0
 30
0.0
  9
$UCSORGFRONT
 10
0.0
 20
0.0
 30
0.0
  9
$UCSORGBACK
 10
0.0
 20
0.0
 30
0.0
  9
$PUCSBASE
  2

  9
$PUCSNAME
  2

  9
$PUCSORG
 10
0.0
 20
0.0
 30
0.0
  9
$PUCSXDIR
 10
1.0
 20
0.0
 30
0.0
  9
$PUCSYDIR
 10
0.0
 20
1.0
 30
0.0
  9
$PUCSORTHOREF
  2

  9
$PUCSORTHOVIEW
 70
     0
  9
$PUCSORGTOP
 10
0.0
 20
0.0
 30
0.0
  9
$PUCSORGBOTTOM
 10
0.0
 20
0.0
 30
0.0
  9
$PUCSORGLEFT
 10
0.0
 20
0.0
 30
0.0
  9
$PUCSORGRIGHT
 10
0.0
 20
0.0
 30
0.0
  9
$PUCSORGFRONT
 10
0.0
 20
0.0
 30
0.0
  9
$PUCSORGBACK
 10
0.0
 20
0.0
 30
0.0
  9
$USERI1
 70
     0
  9
$USERI2
 70
     0
  9
$USERI3
 70
     0
  9
$USERI4
 70
     0
  9
$USERI5
 70
     0
  9
$USERR1
 40
0.0
  9
$USERR2
 40
0.0
  9
$USERR3
 40
0.0
  9
$USERR4
 40
0.0
  9
$USERR5
 40
0.0
  9
$WORLDVIEW
 70
     1
  9
$SHADEDGE
 70
     3
  9
$SHADEDIF
 70
    70
  9
$TILEMODE
 70
     1
  9
$MAXACTVP
 70
    64
  9
$PINSBASE
 10
0.0
 20
0.0
 30
0.0
  9
$PLIMCHECK
 70
     0
  9
$PEXTMIN
 10
40.5
 20
25.69999999999999
 30
0.0
  9
$PEXTMAX
 10
364.5
 20
231.3
 30
0.0
  9
$PLIMMIN
 10
-7.5
 20
-20.0
  9
$PLIMMAX
 10
412.5
 20
277.0
  9
$UNITMODE
 70
     0
  9
$VISRETAIN
 70
     1
  9
$PLINEGEN
 70
     0
  9
$PSLTSCALE
 70
     1
  9
$TREEDEPTH
 70
  3020
  9
$CMLSTYLE
  2
Standard
  9
$CMLJUST
 70
     0
  9
$CMLSCALE
 40
20.0
  9
$PROXYGRAPHICS
 70
     1
  9
$MEASUREMENT
 70
     1
  9
$CELWEIGHT
370
    -1
  9
$ENDCAPS
280
     0
  9
$JOINSTYLE
280
     0
  9
$LWDISPLAY
290
     1
  9
$INSUNITS
 70
     4
  9
$HYPERLINKBASE
  1

  9
$STYLESHEET
  1

  9
$XEDIT
290
     1
  9
$CEPSNTYPE
380
     0
  9
$PSTYLEMODE
290
     1
  9
$FINGERPRINTGUID
  2
{2D039E03-B48A-4BCE-8E77-039D69A234A3}
  9
$VERSIONGUID
  2
{FAEB1C32-E019-11D5-929B-00C0DF256EC4}
  9
$EXTNAMES
290
     1
  9
$PSVPSCALE
 40
0.0
  9
$OLESTARTUP
290
     0
  0
ENDSEC
  0
SECTION
  2
CLASSES
  0
CLASS
  1
ACDBDICTIONARYWDFLT
  2
AcDbDictionaryWithDefault
  3
ObjectDBX Classes
 90
        0
280
     0
281
     0
  0
CLASS
  1
VISUALSTYLE
  2
AcDbVisualStyle
  3
ObjectDBX Classes
 90
     4095
280
     0
281
     0
  0
CLASS
  1
MATERIAL
  2
AcDbMaterial
  3
ObjectDBX Classes
 90
     1153
280
     0
281
     0
  0
CLASS
  1
SCALE
  2
AcDbScale
  3
ObjectDBX Classes
 90
     1153
280
     0
281
     0
  0
CLASS
  1
SUN
  2
AcDbSun
  3
SCENEOE
 90
     1153
280
     0
281
     0
  0
CLASS
  1
ACDBPLACEHOLDER
  2
AcDbPlaceHolder
  3
ObjectDBX Classes
 90
        0
280
     0
281
     0
  0
CLASS
  1
LAYOUT
  2
AcDbLayout
  3
ObjectDBX Classes
 90
        0
280
     0
281
     0
  0
CLASS
  1
TABLESTYLE
  2
AcDbTableStyle
  3
ObjectDBX Classes
 90
     4095
280
     0
281
     0
  0
CLASS
  1
MLEADERSTYLE
  2
AcDbMLeaderStyle
  3
ACDB_MLEADERSTYLE_CLASS
 90
     4095
280
     0
281
     0
  0
CLASS
  1
RASTERVARIABLES
  2
AcDbRasterVariables
  3
ISM
 90
        0
280
     0
281
     0
  0
ENDSEC
  0
SECTION
  2
TABLES
  0
TABLE
  2
VPORT
  5
8
330
0
100
AcDbSymbolTable
 70
     1
  0
VPORT
  5
29
330
8
100
AcDbSymbolTableRecord
100
AcDbViewportTableRecord
  2
*Active
 70
     0
 10
0.0
 20
0.0
 11
1.0
 21
1.0
 12
-85.45450606670599
 22
-1.920336577806083
 13
0.0
 23
0.0
 14
10.0
 24
10.0
 15
10.0
 25
10.0
 16
0.0
 26
0.0
 36
1.0
 17
0.0
 27
0.0
 37
0.0
 40
193.2577558882248
 41
1.740812379110251
 42
50.0
 43
0.0
 44
0.0
 50
0.0
 51
0.0
 71
    16
 72
  2000
 73
     1
 74
     3
 75
     0
 76
     0
 77
     0
 78
     0
281
     0
 65
     1
110
0.0
120
0.0
130
0.0
111
1.0
121
0.0
131
0.0
112
0.0
122
1.0
132
0.0
 79
     0
146
0.0
  0
ENDTAB
  0
TABLE
  2
LTYPE
  5
5
330
0
100
AcDbSymbolTable
 70
     6
  0
LTYPE
  5
14
330
5
100
AcDbSymbolTableRecord
100
AcDbLinetypeTableRecord
  2
ByBlock
 70
     0
  3

 72
    65
 73
     0
 40
0.0
  0
LTYPE
  5
15
330
5
100
AcDbSymbolTableRecord
100
AcDbLinetypeTableRecord
  2
ByLayer
 70
     0
  3

 72
    65
 73
     0
 40
0.0
  0
LTYPE
  5
16
330
5
100
AcDbSymbolTableRecord
100
AcDbLinetypeTableRecord
  2
Continuous
 70
     0
  3
Solid line
 72
    65
 73
     0
 40
0.0
  0
LTYPE
  5
6A
330
5
100
AcDbSymbolTableRecord
100
AcDbLinetypeTableRecord
  2
HIDDEN
 70
     0
  3
Hidden __ __ __ __ __ __ __ __ __ __ __ __ __ __
 72
    65
 73
     2
 40
1.905
 49
1.27
 74
     0
 49
-0.635
 74
     0
  0
LTYPE
  5
6B
330
5
100
AcDbSymbolTableRecord
100
AcDbLinetypeTableRecord
  2
PHANTOM
 70
     0
  3
Phantom ______  __  __  ______  __  __  ______
 72
    65
 73
     6
 40
12.7
 49
6.35
 74
     0
 49
-1.27
 74
     0
 49
1.27
 74
     0
 49
-1.27
 74
     0
 49
1.27
 74
     0
 49
-1.27
 74
     0
  0
LTYPE
  5
6C
330
5
100
AcDbSymbolTableRecord
100
AcDbLinetypeTableRecord
  2
CENTER
 70
     0
  3
Center ____ _ ____ _ ____ _ ____ _ ____ _ ____
 72
    65
 73
     4
 40
10.16
 49
6.35
 74
     0
 49
-1.27
 74
     0
 49
1.27
 74
     0
 49
-1.27
 74
     0
  0
LTYPE
  5
6D
330
5
100
AcDbSymbolTableRecord
100
AcDbLinetypeTableRecord
  2
CENTERX2
 70
     0
  3
Center (2x) ________  __  ________  __  _____
 72
    65
 73
     4
 40
20.32
 49
12.7
 74
     0
 49
-2.54
 74
     0
 49
2.54
 74
     0
 49
-2.54
 74
     0
  0
LTYPE
  5
6E
330
5
100
AcDbSymbolTableRecord
100
AcDbLinetypeTableRecord
  2
DOT2
 70
     0
  3
Dot (.5x) ........................................
 72
    65
 73
     2
 40
0.635
 49
0.0
 74
     0
 49
-0.635
 74
     0
  0
ENDTAB
  0
TABLE
  2
LAYER
  5
2
102
{ACAD_XDICTIONARY
360
17B
102
}
330
0
100
AcDbSymbolTable
 70
    18
  0
LAYER
  5
10
330
2
100
AcDbSymbolTableRecord
100
AcDbLayerTableRecord
  2
0
 70
     0
 62
     7
  6
Continuous
370
    -3
390
F
  0
LAYER
  5
6F
330
2
100
AcDbSymbolTableRecord
100
AcDbLayerTableRecord
  2
FORMAT
 70
     0
 62
     2
  6
Continuous
370
    -3
390
F
  0
LAYER
  5
70
330
2
100
AcDbSymbolTableRecord
100
AcDbLayerTableRecord
  2
외형선
 70
     0
 62
     4
  6
Continuous
370
    30
390
F
  0
LAYER
  5
71
330
2
100
AcDbSymbolTableRecord
100
AcDbLayerTableRecord
  2
숨은선
 70
     0
 62
     2
  6
HIDDEN
370
    15
390
F
  0
LAYER
  5
72
330
2
100
AcDbSymbolTableRecord
100
AcDbLayerTableRecord
  2
중심선
 70
     0
 62
     1
  6
CENTERX2
370
    -3
390
F
  0
LAYER
  5
73
330
2
100
AcDbSymbolTableRecord
100
AcDbLayerTableRecord
  2
파단선
 70
     0
 62
     4
  6
Continuous
370
    -3
390
F
  0
LAYER
  5
74
330
2
100
AcDbSymbolTableRecord
100
AcDbLayerTableRecord
  2
해칭선
 70
     0
 62
   100
  6
Continuous
370
    -3
390
F
  0
LAYER
  5
75
330
2
100
AcDbSymbolTableRecord
100
AcDbLayerTableRecord
  2
가는실선
 70
     0
 62
     4
  6
Continuous
370
    -3
390
F
  0
LAYER
  5
76
330
2
100
AcDbSymbolTableRecord
100
AcDbLayerTableRecord
  2
치수_보조선
 70
     0
 62
     4
  6
Continuous
370
    -3
390
F
  0
LAYER
  5
77
330
2
100
AcDbSymbolTableRecord
100
AcDbLayerTableRecord
  2
치수문자_일반주서
 70
     0
 62
     7
  6
Continuous
370
    15
390
F
  0
LAYER
  5
78
330
2
100
AcDbSymbolTableRecord
100
AcDbLayerTableRecord
  2
개별주서
 70
     0
 62
   100
  6
Continuous
370
    30
390
F
  0
LAYER
  5
79
330
2
100
AcDbSymbolTableRecord
100
AcDbLayerTableRecord
  2
중간선
 70
     0
 62
     2
  6
Continuous
370
    15
390
F
  0
LAYER
  5
7A
330
2
100
AcDbSymbolTableRecord
100
AcDbLayerTableRecord
  2
윤곽선
 70
     0
 62
     3
  6
Continuous
370
    40
390
F
  0
LAYER
  5
7B
330
2
100
AcDbSymbolTableRecord
100
AcDbLayerTableRecord
  2
중심마크
 70
     0
 62
   100
  6
Continuous
370
    30
390
F
  0
LAYER
  5
7C
330
2
100
AcDbSymbolTableRecord
100
AcDbLayerTableRecord
  2
가상선
 70
     0
 62
     4
  6
PHANTOM
370
    -3
390
F
  0
LAYER
  5
7D
330
2
100
AcDbSymbolTableRecord
100
AcDbLayerTableRecord
  2
특수지정선
 70
     0
 62
     5
  6
CENTERX2
370
    60
390
F
  0
LAYER
  5
7E
330
2
100
AcDbSymbolTableRecord
100
AcDbLayerTableRecord
  2
참조1
 70
     0
 62
    -4
  6
Continuous
370
    -3
390
F
  0
LAYER
  5
182
330
2
100
AcDbSymbolTableRecord
100
AcDbLayerTableRecord
  2
Defpoints
 70
     0
 62
     7
  6
Continuous
290
     0
370
    -3
390
F
  0
ENDTAB
  0
TABLE
  2
STYLE
  5
3
330
0
100
AcDbSymbolTable
 70
     2
  0
STYLE
  5
11
330
3
100
AcDbSymbolTableRecord
100
AcDbTextStyleTableRecord
  2
Standard
 70
     0
 40
0.0
 41
1.0
 50
0.0
 71
     0
 42
3.5
  3
txt
  4

  0
STYLE
  5
94
330
3
100
AcDbSymbolTableRecord
100
AcDbTextStyleTableRecord
  2
SLDTEXTSTYLE0
 70
     0
 40
0.0
 41
0.75
 50
0.0
 71
     0
 42
3.5
  3
TXT
  4

  0
ENDTAB
  0
TABLE
  2
VIEW
  5
6
330
0
100
AcDbSymbolTable
 70
     0
  0
ENDTAB
  0
TABLE
  2
UCS
  5
7
330
0
100
AcDbSymbolTable
 70
     0
  0
ENDTAB
  0
TABLE
  2
APPID
  5
9
330
0
100
AcDbSymbolTable
 70
     1
  0
APPID
  5
12
330
9
100
AcDbSymbolTableRecord
100
AcDbRegAppTableRecord
  2
ACAD
 70
     0
  0
ENDTAB
  0
TABLE
  2
DIMSTYLE
  5
A
330
0
100
AcDbSymbolTable
 70
     4
100
AcDbDimStyleTable
  0
DIMSTYLE
105
27
330
A
100
AcDbSymbolTableRecord
100
AcDbDimStyleTableRecord
  2
ISO-25
 70
     0
 41
2.5
 42
0.625
 43
3.75
 44
1.25
 73
     0
 74
     0
 77
     1
 78
     8
140
2.5
141
2.5
143
0.03937007874016
147
0.625
171
     3
172
     1
178
     0
271
     2
272
     2
274
     3
278
    44
283
     0
284
     8
340
11
  0
DIMSTYLE
105
D3
102
{ACAD_REACTORS
330
2B7
330
2B8
330
2B9
330
2C4
102
}
330
A
100
AcDbSymbolTableRecord
100
AcDbDimStyleTableRecord
  2
SLDDIMSTYLE0
 70
     0
 41
3.302
 44
0.0
 45
0.000000001
 73
     0
 74
     0
 77
     1
 78
    12
 79
     3
140
3.5
143
0.0393700787401575
147
0.875
148
0.000000001
170
     1
172
     1
173
     1
178
     0
271
     2
272
     2
276
     2
284
    12
289
     0
340
94
  0
DIMSTYLE
105
E8
330
A
100
AcDbSymbolTableRecord
100
AcDbDimStyleTableRecord
  2
SLDDIMSTYLE1
 70
     0
 41
3.302
 44
0.0
 45
0.000000001
 73
     0
 74
     0
 77
     1
 78
    12
 79
     3
140
3.5
143
0.0393700787401575
147
0.875
148
0.000000001
170
     1
173
     1
178
     0
271
     2
272
     2
276
     2
284
    12
340
94
  0
DIMSTYLE
105
FD
330
A
100
AcDbSymbolTableRecord
100
AcDbDimStyleTableRecord
  2
SLDDIMSTYLE2
 70
     0
 41
3.302
 44
0.0
 45
0.000000001
 73
     0
 74
     0
 77
     1
 78
     4
 79
     1
140
3.5
143
0.0393700787401575
147
0.875
148
0.000000001
170
     1
173
     1
178
     0
271
     2
272
     2
276
     2
284
    12
340
94
  0
ENDTAB
  0
TABLE
  2
BLOCK_RECORD
  5
1
330
0
100
AcDbSymbolTable
 70
    16
  0
BLOCK_RECORD
  5
1F
330
1
100
AcDbSymbolTableRecord
100
AcDbBlockTableRecord
  2
*Model_Space
340
22
  0
BLOCK_RECORD
  5
1B
330
1
100
AcDbSymbolTableRecord
100
AcDbBlockTableRecord
  2
*Paper_Space
340
1E
  0
BLOCK_RECORD
  5
23
330
1
100
AcDbSymbolTableRecord
100
AcDbBlockTableRecord
  2
*Paper_Space0
340
26
  0
BLOCK_RECORD
  5
7F
330
1
100
AcDbSymbolTableRecord
100
AcDbBlockTableRecord
  2
블럭10
340
0
102
{BLKREFS
331
2B0
102
}
  0
BLOCK_RECORD
  5
D4
330
1
100
AcDbSymbolTableRecord
100
AcDbBlockTableRecord
  2
_D
340
0
  0
BLOCK_RECORD
  5
E9
330
1
100
AcDbSymbolTableRecord
100
AcDbBlockTableRecord
  2
_D_1
340
0
  0
BLOCK_RECORD
  5
FE
330
1
100
AcDbSymbolTableRecord
100
AcDbBlockTableRecord
  2
_D_2
340
0
  0
BLOCK_RECORD
  5
111
330
1
100
AcDbSymbolTableRecord
100
AcDbBlockTableRecord
  2
_D_3
340
0
  0
BLOCK_RECORD
  5
12A
330
1
100
AcDbSymbolTableRecord
100
AcDbBlockTableRecord
  2
SW_DOWELSYMBOL_0
340
0
102
{BLKREFS
331
2BF
102
}
  0
BLOCK_RECORD
  5
259
330
1
100
AcDbSymbolTableRecord
100
AcDbBlockTableRecord
  2
*D7
340
0
  0
BLOCK_RECORD
  5
267
330
1
100
AcDbSymbolTableRecord
100
AcDbBlockTableRecord
  2
*D8
340
0
  0
BLOCK_RECORD
  5
273
330
1
100
AcDbSymbolTableRecord
100
AcDbBlockTableRecord
  2
*D9
340
0
  0
BLOCK_RECORD
  5
27F
330
1
100
AcDbSymbolTableRecord
100
AcDbBlockTableRecord
  2
*D10
340
0
  0
BLOCK_RECORD
  5
2C5
330
1
100
AcDbSymbolTableRecord
100
AcDbBlockTableRecord
  2
*D11
340
0
  0
BLOCK_RECORD
  5
2D1
330
1
100
AcDbSymbolTableRecord
100
AcDbBlockTableRecord
  2
*D12
340
0
  0
BLOCK_RECORD
  5
2DD
330
1
100
AcDbSymbolTableRecord
100
AcDbBlockTableRecord
  2
*D13
340
0
  0
BLOCK_RECORD
  5
2EC
330
1
100
AcDbSymbolTableRecord
100
AcDbBlockTableRecord
  2
*D14
340
0
  0
ENDTAB
  0
ENDSEC
  0
SECTION
  2
BLOCKS
  0
BLOCK
  5
20
330
1F
100
AcDbEntity
  8
0
100
AcDbBlockBegin
  2
*Model_Space
 70
     0
 10
0.0
 20
0.0
 30
0.0
  3
*Model_Space
  1
*Model_Space
  0
ENDBLK
  5
21
330
1F
100
AcDbEntity
  8
0
100
AcDbBlockEnd
  0
BLOCK
  5
1C
330
1B
100
AcDbEntity
 67
     1
  8
0
100
AcDbBlockBegin
  2
*Paper_Space
 70
     0
 10
0.0
 20
0.0
 30
0.0
  3
*Paper_Space
  1
*Paper_Space
  0
ENDBLK
  5
1D
330
1B
100
AcDbEntity
 67
     1
  8
0
100
AcDbBlockEnd
  0
BLOCK
  5
24
330
23
100
AcDbEntity
  8
0
100
AcDbBlockBegin
  2
*Paper_Space0
 70
     0
 10
0.0
 20
0.0
 30
0.0
  3
*Paper_Space0
  1
*Paper_Space0
  0
ENDBLK
  5
25
330
23
100
AcDbEntity
  8
0
100
AcDbBlockEnd
  0
BLOCK
  5
80
330
7F
100
AcDbEntity
  8
0
100
AcDbBlockBegin
  2
블럭10
 70
     2
 10
0.0
 20
0.0
 30
0.0
  3
블럭10
  1
블럭10
  0
ELLIPSE
  5
82
330
7F
100
AcDbEntity
  8
중심선
100
AcDbEllipse
 10
20.54032771741204
 20
12.0471743016438
 30
0.0
 11
6.600054785286829
 21
-1.261213355974178E-13
 31
0.0
210
0.0
220
0.0
230
1.0
 40
0.636358354079598
 41
0.9219305317359503
 42
6.513795318482858
  0
ELLIPSE
  5
83
330
7F
100
AcDbEntity
  8
중심선
100
AcDbEllipse
 10
20.54032771746488
 20
12.04717430159265
 30
0.0
 11
3.960054785062283
 21
1.540847449632565E-10
 31
0.0
210
0.0
220
0.0
230
1.0
 40
0.3939339440162632
 41
1.131841032648279
 42
5.62031148352944
  0
LINE
  5
84
330
7F
100
AcDbEntity
  8
중심선
100
AcDbLine
 10
2.268634060543552
 20
16.24717430164393
 30
0.0
 11
5.714909304380834
 21
16.24717430164393
 31
0.0
  0
LINE
  5
85
330
7F
100
AcDbEntity
  8
중심선
100
AcDbLine
 10
5.245725140726316
 20
7.84717430164391
 30
0.0
 11
8.692000384563599
 21
7.84717430164391
 31
0.0
  0
LINE
  5
86
330
7F
100
AcDbEntity
  8
중심선
100
AcDbLine
 10
15.74043728645272
 20
16.24717430164393
 30
0.0
 11
8.692000384563599
 21
7.84717430164391
 31
0.0
  0
LINE
  5
87
330
7F
100
AcDbEntity
  8
중심선
100
AcDbLine
 10
0.1404042013395286
 20
13.71084872107135
 30
0.0
 11
3.58671253028996
 21
13.71088815037384
 31
0.0
  0
LINE
  5
88
330
7F
100
AcDbEntity
  8
중심선
100
AcDbLine
 10
2.750260043222114
 20
10.84717430164391
 30
0.0
 11
6.196535287059397
 21
10.84717430164391
 31
0.0
  0
LINE
  5
89
330
7F
100
AcDbEntity
  8
중심선
100
AcDbLine
 10
12.29416204261559
 20
16.24717430164393
 30
0.0
 11
5.245725140726316
 21
7.84717430164391
 31
0.0
  0
LINE
  5
8A
330
7F
100
AcDbEntity
  8
중심선
100
AcDbLine
 10
10.72767329541681
 20
16.24717430164393
 30
0.0
 11
6.196535287059397
 21
10.84717430164391
 31
0.0
  0
LINE
  5
8B
330
7F
100
AcDbEntity
  8
중심선
100
AcDbLine
 10
7.28139805157953
 20
16.24717430164393
 30
0.0
 11
2.750260043222114
 21
10.84717430164391
 31
0.0
  0
LINE
  5
8C
330
7F
100
AcDbEntity
  8
중심선
100
AcDbLine
 10
5.714909304380834
 20
16.24717430164393
 30
0.0
 11
3.58671253028996
 21
13.71088815037384
 31
0.0
  0
LINE
  5
8D
330
7F
100
AcDbEntity
  8
중심선
100
AcDbLine
 10
2.268634060543552
 20
16.24717430164393
 30
0.0
 11
0.1404042013395286
 21
13.71084872107135
 31
0.0
  0
LINE
  5
8E
330
7F
100
AcDbEntity
  8
중심선
100
AcDbLine
 10
7.28139805157953
 20
16.24717430164393
 30
0.0
 11
10.72767329541681
 21
16.24717430164393
 31
0.0
  0
LINE
  5
8F
330
7F
100
AcDbEntity
  8
중심선
100
AcDbLine
 10
12.29416204261559
 20
16.24717430164393
 30
0.0
 11
15.74043728645272
 21
16.24717430164393
 31
0.0
  0
LINE
  5
90
330
7F
100
AcDbEntity
  8
중심선
100
AcDbLine
 10
19.22036997980202
 20
11.08717430171403
 30
0.0
 11
23.66174974927406
 21
11.08717430171406
 31
0.0
  0
LINE
  5
91
330
7F
100
AcDbEntity
  8
중심선
100
AcDbLine
 10
19.22039502424796
 20
13.00717430171391
 30
0.0
 11
19.22036997980202
 21
11.08717430171403
 31
0.0
  0
LINE
  5
92
330
7F
100
AcDbEntity
  8
중심선
100
AcDbLine
 10
19.22039502424796
 20
13.00717430171391
 30
0.0
 11
26.96566020931264
 21
13.00717430171391
 31
0.0
  0
LINE
  5
93
330
7F
100
AcDbEntity
  8
중심선
100
AcDbLine
 10
22.22332737316547
 20
13.45928029700563
 30
0.0
 11
24.52862924686651
 21
15.39360700705356
 31
0.0
  0
ATTDEF
  5
95
330
7F
100
AcDbEntity
  8
FORMAT
 62
     2
100
AcDbText
 10
4.408487351596664
 20
2.075366912832191
 30
0.0
 40
4.233333333333333
  1
E1070024
 41
0.75
  7
SLDTEXTSTYLE0
 11
4.408487351596664
 21
-0.0412997538344756
 31
0.0
100
AcDbAttributeDefinition
  3

  2
AUTOATTR0
 70
     0
 74
     1
  0
ENDBLK
  5
81
330
7F
100
AcDbEntity
  8
0
100
AcDbBlockEnd
  0
BLOCK
  5
D5
330
D4
100
AcDbEntity
  8
0
100
AcDbBlockBegin
  2
_D
 70
     0
 10
0.0
 20
0.0
 30
0.0
  3
_D
  1
_D
  0
LINE
  5
D7
330
D4
100
AcDbEntity
  8
치수문자_일반주서
 62
     0
370
    -2
100
AcDbLine
 10
-33.51249999999997
 20
4.762500000000003
 30
0.0
 11
-46.95
 21
4.762499999999952
 31
0.0
  0
LINE
  5
D8
330
D4
100
AcDbEntity
  8
치수문자_일반주서
 62
     0
370
    -2
100
AcDbLine
 10
-33.51249999999997
 20
-4.762500000000003
 30
0.0
 11
-46.94999999999996
 21
-4.762500000000053
 31
0.0
  0
LINE
  5
D9
330
D4
100
AcDbEntity
  8
치수문자_일반주서
 62
     0
370
    -2
100
AcDbLine
 10
-46.94999999999998
 20
1.460499999999953
 30
0.0
 11
-46.94999999999997
 21
-1.460500000000054
 31
0.0
  0
SOLID
  5
DA
330
D4
100
AcDbEntity
  8
치수문자_일반주서
 62
     0
100
AcDbTrace
 10
-46.39966666666665
 20
1.460499999999955
 30
0.0
 11
-47.50033333333332
 21
1.460499999999951
 31
0.0
 12
-46.95
 22
4.762499999999952
 32
0.0
 13
-46.95
 23
4.762499999999952
 33
0.0
  0
SOLID
  5
DB
330
D4
100
AcDbEntity
  8
치수문자_일반주서
 62
     0
100
AcDbTrace
 10
-47.50033333333331
 20
-1.460500000000056
 30
0.0
 11
-46.39966666666664
 21
-1.460500000000052
 31
0.0
 12
-46.94999999999996
 22
-4.762500000000053
 32
0.0
 13
-46.94999999999996
 23
-4.762500000000053
 33
0.0
  0
MTEXT
  5
DC
330
D4
100
AcDbEntity
  8
치수문자_일반주서
 62
     0
100
AcDbMText
 10
-51.32499999999998
 20
-0.0000000000000104
 30
0.0
 40
3.5
 41
0.0
 71
     2
 72
     1
  1
\A1;%%c9.53 [3/8]
  7
SLDTEXTSTYLE0
 11
-3.729883127349605E-15
 21
1.0
 31
0.0
 73
     1
 44
1.0
  0
POINT
  5
DD
330
D4
100
AcDbEntity
  8
Defpoints
 62
     0
100
AcDbPoint
 10
-33.44999999999997
 20
4.762500000000003
 30
0.0
  0
POINT
  5
DE
330
D4
100
AcDbEntity
  8
Defpoints
 62
     0
100
AcDbPoint
 10
-33.44999999999997
 20
-4.762500000000003
 30
0.0
  0
POINT
  5
DF
330
D4
100
AcDbEntity
  8
Defpoints
 62
     0
100
AcDbPoint
 10
-46.94999999999996
 20
-4.762500000000053
 30
0.0
  0
ENDBLK
  5
D6
330
D4
100
AcDbEntity
  8
0
100
AcDbBlockEnd
  0
BLOCK
  5
EA
330
E9
100
AcDbEntity
  8
0
100
AcDbBlockBegin
  2
_D_1
 70
     0
 10
0.0
 20
0.0
 30
0.0
  3
_D_1
  1
_D_1
  0
LINE
  5
EC
330
E9
100
AcDbEntity
  8
치수문자_일반주서
 62
     0
370
    -2
100
AcDbLine
 10
29.05000000000003
 20
4.825000000000005
 30
0.0
 11
29.05000000000003
 21
12.41822729666148
 31
0.0
  0
LINE
  5
ED
330
E9
100
AcDbEntity
  8
치수문자_일반주서
 62
     0
370
    -2
100
AcDbLine
 10
10.00000000000002
 20
4.216210105552388
 30
0.0
 11
10.00000000000002
 21
12.41822729666148
 31
0.0
  0
LINE
  5
EE
330
E9
100
AcDbEntity
  8
치수문자_일반주서
 62
     0
370
    -2
100
AcDbLine
 10
10.00000000000002
 20
12.41822729666148
 30
0.0
 11
-21.54149999999998
 21
12.41822729666148
 31
0.0
  0
LINE
  5
EF
330
E9
100
AcDbEntity
  8
치수문자_일반주서
 62
     0
370
    -2
100
AcDbLine
 10
29.05000000000003
 20
12.41822729666148
 30
0.0
 11
10.00000000000002
 21
12.41822729666148
 31
0.0
  0
LINE
  5
F0
330
E9
100
AcDbEntity
  8
치수문자_일반주서
 62
     0
370
    -2
100
AcDbLine
 10
32.35200000000003
 20
12.41822729666148
 30
0.0
 11
35.65400000000002
 21
12.41822729666148
 31
0.0
  0
LINE
  5
F1
330
E9
100
AcDbEntity
  8
치수문자_일반주서
 62
     0
370
    -2
100
AcDbLine
 10
6.698000000000016
 20
12.41822729666148
 30
0.0
 11
3.396000000000017
 21
12.41822729666148
 31
0.0
  0
SOLID
  5
F2
330
E9
100
AcDbEntity
  8
치수문자_일반주서
 62
     0
100
AcDbTrace
 10
32.35200000000003
 20
12.96856062999482
 30
0.0
 11
32.35200000000003
 21
11.86789396332815
 31
0.0
 12
29.05000000000003
 22
12.41822729666148
 32
0.0
 13
29.05000000000003
 23
12.41822729666148
 33
0.0
  0
SOLID
  5
F3
330
E9
100
AcDbEntity
  8
치수문자_일반주서
 62
     0
100
AcDbTrace
 10
6.698000000000016
 20
11.86789396332815
 30
0.0
 11
6.698000000000016
 21
12.96856062999482
 31
0.0
 12
10.00000000000002
 22
12.41822729666148
 32
0.0
 13
10.00000000000002
 23
12.41822729666148
 33
0.0
  0
MTEXT
  5
F4
330
E9
100
AcDbEntity
  8
치수문자_일반주서
 62
     0
100
AcDbMText
 10
-9.072749999999983
 20
16.79322729666148
 30
0.0
 40
3.5
 41
0.0
 71
     2
 72
     1
  1
\A1;19.05 [3/4]
  7
SLDTEXTSTYLE0
 73
     1
 44
1.0
  0
POINT
  5
F5
330
E9
100
AcDbEntity
  8
Defpoints
 62
     0
100
AcDbPoint
 10
29.05000000000003
 20
4.762500000000005
 30
0.0
  0
POINT
  5
183
330
E9
100
AcDbEntity
  8
Defpoints
 62
     0
100
AcDbPoint
 10
10.00000000000002
 20
4.153710105552388
 30
0.0
  0
POINT
  5
184
330
E9
100
AcDbEntity
  8
Defpoints
 62
     0
100
AcDbPoint
 10
10.00000000000002
 20
12.41822729666148
 30
0.0
  0
ENDBLK
  5
EB
330
E9
100
AcDbEntity
  8
0
100
AcDbBlockEnd
  0
BLOCK
  5
FF
330
FE
100
AcDbEntity
  8
0
100
AcDbBlockBegin
  2
_D_2
 70
     0
 10
0.0
 20
0.0
 30
0.0
  3
_D_2
  1
_D_2
  0
LINE
  5
101
330
FE
100
AcDbEntity
  8
치수문자_일반주서
 62
     0
370
    -2
100
AcDbLine
 10
29.05000000000003
 20
4.825000000000003
 30
0.0
 11
29.05000000000003
 21
35.04486045510103
 31
0.0
  0
LINE
  5
102
330
FE
100
AcDbEntity
  8
치수문자_일반주서
 62
     0
370
    -2
100
AcDbLine
 10
-34.44999999999997
 20
3.824999999999995
 30
0.0
 11
-34.44999999999997
 21
35.04486045510103
 31
0.0
  0
LINE
  5
103
330
FE
100
AcDbEntity
  8
치수문자_일반주서
 62
     0
370
    -2
100
AcDbLine
 10
25.74800000000003
 20
35.04486045510103
 30
0.0
 11
-31.14799999999997
 21
35.04486045510103
 31
0.0
  0
SOLID
  5
104
330
FE
100
AcDbEntity
  8
치수문자_일반주서
 62
     0
100
AcDbTrace
 10
25.74800000000003
 20
34.4945271217677
 30
0.0
 11
25.74800000000003
 21
35.59519378843436
 31
0.0
 12
29.05000000000003
 22
35.04486045510103
 32
0.0
 13
29.05000000000003
 23
35.04486045510103
 33
0.0
  0
SOLID
  5
105
330
FE
100
AcDbEntity
  8
치수문자_일반주서
 62
     0
100
AcDbTrace
 10
-31.14799999999997
 20
35.59519378843436
 30
0.0
 11
-31.14799999999997
 21
34.4945271217677
 31
0.0
 12
-34.44999999999997
 22
35.04486045510103
 32
0.0
 13
-34.44999999999997
 23
35.04486045510103
 33
0.0
  0
MTEXT
  5
106
330
FE
100
AcDbEntity
  8
치수문자_일반주서
 62
     0
100
AcDbMText
 10
-2.699999999999981
 20
39.41986045510103
 30
0.0
 40
3.5
 41
0.0
 71
     2
 72
     1
  1
\A1;63.5 [2 1/2]
  7
SLDTEXTSTYLE0
 73
     1
 44
1.0
  0
POINT
  5
107
330
FE
100
AcDbEntity
  8
Defpoints
 62
     0
100
AcDbPoint
 10
29.05000000000003
 20
4.762500000000003
 30
0.0
  0
POINT
  5
108
330
FE
100
AcDbEntity
  8
Defpoints
 62
     0
100
AcDbPoint
 10
-34.44999999999997
 20
3.762499999999995
 30
0.0
  0
POINT
  5
109
330
FE
100
AcDbEntity
  8
Defpoints
 62
     0
100
AcDbPoint
 10
-34.44999999999997
 20
35.04486045510103
 30
0.0
  0
ENDBLK
  5
100
330
FE
100
AcDbEntity
  8
0
100
AcDbBlockEnd
  0
BLOCK
  5
112
330
111
100
AcDbEntity
  8
0
100
AcDbBlockBegin
  2
_D_3
 70
     0
 10
0.0
 20
0.0
 30
0.0
  3
_D_3
  1
_D_3
  0
LINE
  5
114
330
111
100
AcDbEntity
  8
치수문자_일반주서
 62
     0
370
    -2
100
AcDbLine
 10
29.11250000000003
 20
-4.762499999999998
 30
0.0
 11
40.62863335826098
 21
-4.762499999999957
 31
0.0
  0
LINE
  5
115
330
111
100
AcDbEntity
  8
치수문자_일반주서
 62
     0
370
    -2
100
AcDbLine
 10
29.11250000000003
 20
4.762500000000005
 30
0.0
 11
40.62863335826094
 21
4.762500000000049
 31
0.0
  0
LINE
  5
116
330
111
100
AcDbEntity
  8
치수문자_일반주서
 62
     0
370
    -2
100
AcDbLine
 10
40.62863335826094
 20
4.762500000000049
 30
0.0
 11
40.62863335826082
 21
37.61650000000004
 31
0.0
  0
LINE
  5
117
330
111
100
AcDbEntity
  8
치수문자_일반주서
 62
     0
370
    -2
100
AcDbLine
 10
40.62863335826098
 20
-4.762499999999957
 30
0.0
 11
40.62863335826094
 21
4.762500000000049
 31
0.0
  0
LINE
  5
118
330
111
100
AcDbEntity
  8
치수문자_일반주서
 62
     0
370
    -2
100
AcDbLine
 10
40.62863335826099
 20
-8.064499999999956
 30
0.0
 11
40.62863335826101
 21
-11.36649999999996
 31
0.0
  0
LINE
  5
119
330
111
100
AcDbEntity
  8
치수문자_일반주서
 62
     0
370
    -2
100
AcDbLine
 10
40.62863335826093
 20
8.064500000000049
 30
0.0
 11
40.62863335826091
 21
11.36650000000005
 31
0.0
  0
SOLID
  5
11A
330
111
100
AcDbEntity
  8
치수문자_일반주서
 62
     0
100
AcDbTrace
 10
41.17896669159433
 20
-8.064499999999954
 30
0.0
 11
40.07830002492766
 21
-8.064499999999958
 31
0.0
 12
40.62863335826098
 22
-4.762499999999957
 32
0.0
 13
40.62863335826098
 23
-4.762499999999957
 33
0.0
  0
SOLID
  5
11B
330
111
100
AcDbEntity
  8
치수문자_일반주서
 62
     0
100
AcDbTrace
 10
40.07830002492759
 20
8.064500000000047
 30
0.0
 11
41.17896669159426
 21
8.06450000000005
 31
0.0
 12
40.62863335826094
 22
4.762500000000049
 32
0.0
 13
40.62863335826094
 23
4.762500000000049
 33
0.0
  0
MTEXT
  5
11C
330
111
100
AcDbEntity
  8
치수문자_일반주서
 62
     0
100
AcDbMText
 10
36.25363335826087
 20
24.49150000000003
 30
0.0
 40
3.5
 41
0.0
 71
     2
 72
     1
  1
\A1;%%c9.53 [3/8]
  7
SLDTEXTSTYLE0
 11
-3.729883127349606E-15
 21
1.0
 31
0.0
 73
     1
 44
1.0
  0
POINT
  5
11D
330
111
100
AcDbEntity
  8
Defpoints
 62
     0
100
AcDbPoint
 10
29.05000000000003
 20
-4.762499999999998
 30
0.0
  0
POINT
  5
185
330
111
100
AcDbEntity
  8
Defpoints
 62
     0
100
AcDbPoint
 10
29.05000000000003
 20
4.762500000000005
 30
0.0
  0
POINT
  5
186
330
111
100
AcDbEntity
  8
Defpoints
 62
     0
100
AcDbPoint
 10
40.62863335826094
 20
4.762500000000048
 30
0.0
  0
ENDBLK
  5
113
330
111
100
AcDbEntity
  8
0
100
AcDbBlockEnd
  0
BLOCK
  5
12B
330
12A
100
AcDbEntity
  8
0
100
AcDbBlockBegin
  2
SW_DOWELSYMBOL_0
 70
     0
 10
0.0
 20
0.0
 30
0.0
  3
SW_DOWELSYMBOL_0
  1
SW_DOWELSYMBOL_0
  0
CIRCLE
  5
12D
330
12A
100
AcDbEntity
  8
해칭선
 62
     0
100
AcDbCircle
 10
0.0
 20
0.0
 30
0.0
 40
2.999999999999996
  0
HATCH
  5
12E
330
12A
100
AcDbEntity
  8
0
  6
Continuous
 62
     0
370
     0
100
AcDbHatch
 10
0.0
 20
0.0
 30
0.0
210
0.0
220
0.0
230
1.0
  2
SOLID
 70
     1
 71
     0
 91
        1
 92
        0
 93
        3
 72
     2
 10
0.0
 20
0.0
 40
2.999999999999996
 50
0.0
 51
90.0
 73
     1
 72
     1
 10
0.0
 20
2.999999999999996
 11
0.0
 21
0.0
 72
     1
 10
0.0
 20
0.0
 11
2.999999999999996
 21
0.0
 97
        0
 75
     0
 76
     1
 98
        1
 10
0.0
 20
0.0
  0
HATCH
  5
12F
330
12A
100
AcDbEntity
  8
0
  6
Continuous
 62
     0
370
     0
100
AcDbHatch
 10
0.0
 20
0.0
 30
0.0
210
0.0
220
0.0
230
1.0
  2
SOLID
 70
     1
 71
     0
 91
        1
 92
        0
 93
        3
 72
     2
 10
0.0
 20
0.0
 40
2.999999999999996
 50
180.0
 51
270.0000000000007
 73
     1
 72
     1
 10
0.0
 20
-2.999999999999996
 11
0.0
 21
0.0
 72
     1
 10
0.0
 20
0.0
 11
-2.999999999999996
 21
0.0
 97
        0
 75
     0
 76
     1
 98
        1
 10
0.0
 20
0.0
  0
ENDBLK
  5
12C
330
12A
100
AcDbEntity
  8
0
100
AcDbBlockEnd
  0
BLOCK
  5
25A
330
259
100
AcDbEntity
  8
0
100
AcDbBlockBegin
  2
*D7
 70
     1
 10
0.0
 20
0.0
 30
0.0
  3
*D7
  1
*D15
  0
LINE
  5
25B
330
259
100
AcDbEntity
  8
치수문자_일반주서
 62
     0
370
    -2
100
AcDbLine
 10
27.91474989598767
 20
54.73430738881174
 30
0.0
 11
4.375
 21
54.73430738881174
 31
0.0
  0
LINE
  5
25C
330
259
100
AcDbEntity
  8
치수문자_일반주서
 62
     0
370
    -2
100
AcDbLine
 10
27.91474989598767
 20
45.20930738881174
 30
0.0
 11
4.374999999999999
 21
45.20930738881174
 31
0.0
  0
LINE
  5
25D
330
259
100
AcDbEntity
  8
치수문자_일반주서
 62
     0
370
    -2
100
AcDbLine
 10
4.375
 20
51.43230738881174
 30
0.0
 11
4.374999999999999
 21
48.51130738881174
 31
0.0
  0
SOLID
  5
25E
330
259
100
AcDbEntity
  8
치수문자_일반주서
 62
     0
100
AcDbTrace
 10
4.925333333333334
 20
51.43230738881174
 30
0.0
 11
3.824666666666666
 21
51.43230738881174
 31
0.0
 12
4.375
 22
54.73430738881174
 32
0.0
 13
4.375
 23
54.73430738881174
 33
0.0
  0
SOLID
  5
25F
330
259
100
AcDbEntity
  8
치수문자_일반주서
 62
     0
100
AcDbTrace
 10
3.824666666666666
 20
48.51130738881174
 30
0.0
 11
4.925333333333333
 21
48.51130738881174
 31
0.0
 12
4.374999999999999
 22
45.20930738881174
 32
0.0
 13
4.374999999999999
 23
45.20930738881174
 33
0.0
  0
MTEXT
  5
260
330
259
100
AcDbEntity
  8
치수문자_일반주서
 62
     0
100
AcDbMText
 10
1.75
 20
49.97180738881175
 30
0.0
 40
3.5
 41
0.0
 71
     5
 72
     1
  1
\A1;9.53 [3/8]
  7
SLDTEXTSTYLE0
 11
9.324707818374019E-17
 21
1.0
 31
0.0
 73
     1
 44
1.0
  0
POINT
  5
261
330
259
100
AcDbEntity
  8
Defpoints
 62
     0
100
AcDbPoint
 10
27.97724989598767
 20
54.73430738881174
 30
0.0
  0
POINT
  5
262
330
259
100
AcDbEntity
  8
Defpoints
 62
     0
100
AcDbPoint
 10
27.97724989598767
 20
45.20930738881174
 30
0.0
  0
POINT
  5
263
330
259
100
AcDbEntity
  8
Defpoints
 62
     0
100
AcDbPoint
 10
4.375
 20
45.20930738881174
 30
0.0
  0
ENDBLK
  5
264
330
259
100
AcDbEntity
  8
0
100
AcDbBlockEnd
  0
BLOCK
  5
268
330
267
100
AcDbEntity
  8
0
100
AcDbBlockBegin
  2
*D8
 70
     1
 10
0.0
 20
0.0
 30
0.0
  3
*D8
  1
*D9
  0
LINE
  5
26A
330
267
100
AcDbEntity
  8
치수문자_일반주서
 62
     0
370
    -2
100
AcDbLine
 10
95.23974989598726
 20
55.59055738881175
 30
0.0
 11
95.23974989598726
 21
66.51471024916712
 31
0.0
  0
LINE
  5
26B
330
267
100
AcDbEntity
  8
치수문자_일반주서
 62
     0
370
    -2
100
AcDbLine
 10
69.8397498959877
 20
55.50715671288114
 30
0.0
 11
69.8397498959877
 21
66.51471024916712
 31
0.0
  0
LINE
  5
26C
330
267
100
AcDbEntity
  8
치수문자_일반주서
 62
     0
370
    -2
100
AcDbLine
 10
91.93774989598725
 20
66.51471024916712
 30
0.0
 11
73.1417498959877
 21
66.51471024916712
 31
0.0
  0
SOLID
  5
26D
330
267
100
AcDbEntity
  8
치수문자_일반주서
 62
     0
100
AcDbTrace
 10
91.93774989598725
 20
65.9643769158338
 30
0.0
 11
91.93774989598725
 21
67.06504358250045
 31
0.0
 12
95.23974989598726
 22
66.51471024916712
 32
0.0
 13
95.23974989598726
 23
66.51471024916712
 33
0.0
  0
SOLID
  5
26E
330
267
100
AcDbEntity
  8
치수문자_일반주서
 62
     0
100
AcDbTrace
 10
73.1417498959877
 20
67.06504358250045
 30
0.0
 11
73.1417498959877
 21
65.9643769158338
 31
0.0
 12
69.8397498959877
 22
66.51471024916712
 32
0.0
 13
69.8397498959877
 23
66.51471024916712
 33
0.0
  0
MTEXT
  5
26F
330
267
100
AcDbEntity
  8
치수문자_일반주서
 62
     0
100
AcDbMText
 10
82.53974989598768
 20
70.88971024916712
 30
0.0
 40
3.5
 41
0.0
 71
     2
 72
     1
  1
\A1;25.4 [1]
  7
SLDTEXTSTYLE0
 73
     1
 44
1.0
  0
POINT
  5
270
330
267
100
AcDbEntity
  8
Defpoints
 62
     0
100
AcDbPoint
 10
95.23974989598726
 20
55.52805738881175
 30
0.0
  0
POINT
  5
271
330
267
100
AcDbEntity
  8
Defpoints
 62
     0
100
AcDbPoint
 10
69.8397498959877
 20
55.44465671288114
 30
0.0
  0
POINT
  5
272
330
267
100
AcDbEntity
  8
Defpoints
 62
     0
100
AcDbPoint
 10
69.8397498959877
 20
66.51471024916712
 30
0.0
  0
ENDBLK
  5
269
330
267
100
AcDbEntity
  8
0
100
AcDbBlockEnd
  0
BLOCK
  5
274
330
273
100
AcDbEntity
  8
0
100
AcDbBlockBegin
  2
*D9
 70
     1
 10
0.0
 20
0.0
 30
0.0
  3
*D9
  1
*D10
  0
LINE
  5
276
330
273
100
AcDbEntity
  8
치수문자_일반주서
 62
     0
370
    -2
100
AcDbLine
 10
95.23974989598726
 20
55.59055738881175
 30
0.0
 11
95.23974989598726
 21
80.28126465125776
 31
0.0
  0
LINE
  5
277
330
273
100
AcDbEntity
  8
치수문자_일반주서
 62
     0
370
    -2
100
AcDbLine
 10
26.97724989598768
 20
53.79680738881174
 30
0.0
 11
26.97724989598768
 21
80.28126465125776
 31
0.0
  0
LINE
  5
278
330
273
100
AcDbEntity
  8
치수문자_일반주서
 62
     0
370
    -2
100
AcDbLine
 10
91.93774989598725
 20
80.28126465125776
 30
0.0
 11
30.27924989598768
 21
80.28126465125776
 31
0.0
  0
SOLID
  5
279
330
273
100
AcDbEntity
  8
치수문자_일반주서
 62
     0
100
AcDbTrace
 10
91.93774989598725
 20
79.73093131792443
 30
0.0
 11
91.93774989598725
 21
80.83159798459108
 31
0.0
 12
95.23974989598726
 22
80.28126465125776
 32
0.0
 13
95.23974989598726
 23
80.28126465125776
 33
0.0
  0
SOLID
  5
27A
330
273
100
AcDbEntity
  8
치수문자_일반주서
 62
     0
100
AcDbTrace
 10
30.27924989598768
 20
80.83159798459108
 30
0.0
 11
30.27924989598768
 21
79.73093131792443
 31
0.0
 12
26.97724989598768
 22
80.28126465125776
 32
0.0
 13
26.97724989598768
 23
80.28126465125776
 33
0.0
  0
MTEXT
  5
27B
330
273
100
AcDbEntity
  8
치수문자_일반주서
 62
     0
100
AcDbMText
 10
57.13974989598768
 20
84.65626465125776
 30
0.0
 40
3.5
 41
0.0
 71
     2
 72
     1
  1
\A1;68.26 [2 11/16]
  7
SLDTEXTSTYLE0
 73
     1
 44
1.0
  0
POINT
  5
27C
330
273
100
AcDbEntity
  8
Defpoints
 62
     0
100
AcDbPoint
 10
95.23974989598726
 20
55.52805738881175
 30
0.0
  0
POINT
  5
27D
330
273
100
AcDbEntity
  8
Defpoints
 62
     0
100
AcDbPoint
 10
26.97724989598768
 20
53.73430738881174
 30
0.0
  0
POINT
  5
27E
330
273
100
AcDbEntity
  8
Defpoints
 62
     0
100
AcDbPoint
 10
26.97724989598768
 20
80.28126465125776
 30
0.0
  0
ENDBLK
  5
275
330
273
100
AcDbEntity
  8
0
100
AcDbBlockEnd
  0
BLOCK
  5
280
330
27F
100
AcDbEntity
  8
0
100
AcDbBlockBegin
  2
*D10
 70
     1
 10
0.0
 20
0.0
 30
0.0
  3
*D10
  1
*D11
  0
LINE
  5
282
330
27F
100
AcDbEntity
  8
치수문자_일반주서
 62
     0
370
    -2
100
AcDbLine
 10
95.3022498959877
 20
44.41555738881175
 30
0.0
 11
114.2397498959878
 21
44.41555738881182
 31
0.0
  0
LINE
  5
283
330
27F
100
AcDbEntity
  8
치수문자_일반주서
 62
     0
370
    -2
100
AcDbLine
 10
95.3022498959877
 20
55.52336133093146
 30
0.0
 11
114.2397498959877
 21
55.52336133093153
 31
0.0
  0
LINE
  5
284
330
27F
100
AcDbEntity
  8
치수문자_일반주서
 62
     0
370
    -2
100
AcDbLine
 10
114.2397498959877
 20
55.52336133093153
 30
0.0
 11
114.2397498959876
 21
94.72111133093152
 31
0.0
  0
LINE
  5
285
330
27F
100
AcDbEntity
  8
치수문자_일반주서
 62
     0
370
    -2
100
AcDbLine
 10
114.2397498959878
 20
44.41555738881182
 30
0.0
 11
114.2397498959877
 21
55.52336133093153
 31
0.0
  0
LINE
  5
286
330
27F
100
AcDbEntity
  8
치수문자_일반주서
 62
     0
370
    -2
100
AcDbLine
 10
114.2397498959878
 20
41.11355738881182
 30
0.0
 11
114.2397498959878
 21
37.81155738881182
 31
0.0
  0
LINE
  5
287
330
27F
100
AcDbEntity
  8
치수문자_일반주서
 62
     0
370
    -2
100
AcDbLine
 10
114.2397498959877
 20
58.82536133093153
 30
0.0
 11
114.2397498959877
 21
62.12736133093153
 31
0.0
  0
SOLID
  5
288
330
27F
100
AcDbEntity
  8
치수문자_일반주서
 62
     0
100
AcDbTrace
 10
114.7900832293211
 20
41.11355738881182
 30
0.0
 11
113.6894165626545
 21
41.11355738881182
 31
0.0
 12
114.2397498959878
 22
44.41555738881182
 32
0.0
 13
114.2397498959878
 23
44.41555738881182
 33
0.0
  0
SOLID
  5
289
330
27F
100
AcDbEntity
  8
치수문자_일반주서
 62
     0
100
AcDbTrace
 10
113.6894165626544
 20
58.82536133093153
 30
0.0
 11
114.7900832293211
 21
58.82536133093153
 31
0.0
 12
114.2397498959877
 22
55.52336133093153
 32
0.0
 13
114.2397498959877
 23
55.52336133093153
 33
0.0
  0
MTEXT
  5
28A
330
27F
100
AcDbEntity
  8
치수문자_일반주서
 62
     0
100
AcDbMText
 10
109.8647498959876
 20
81.1586113309315
 30
0.0
 40
3.5
 41
0.0
 71
     2
 72
     1
  1
\A1;%%c11.11 [7/16]
  7
SLDTEXTSTYLE0
 11
-3.838073157192439E-15
 21
1.0
 31
0.0
 73
     1
 44
1.0
  0
POINT
  5
28B
330
27F
100
AcDbEntity
  8
Defpoints
 62
     0
100
AcDbPoint
 10
95.2397498959877
 20
44.41555738881175
 30
0.0
  0
POINT
  5
28C
330
27F
100
AcDbEntity
  8
Defpoints
 62
     0
100
AcDbPoint
 10
95.2397498959877
 20
55.52336133093146
 30
0.0
  0
POINT
  5
28D
330
27F
100
AcDbEntity
  8
Defpoints
 62
     0
100
AcDbPoint
 10
114.2397498959877
 20
55.52336133093153
 30
0.0
  0
ENDBLK
  5
281
330
27F
100
AcDbEntity
  8
0
100
AcDbBlockEnd
  0
BLOCK
  5
2C6
330
2C5
100
AcDbEntity
  8
0
100
AcDbBlockBegin
  2
*D11
 70
     1
 10
0.0
 20
0.0
 30
0.0
  3
*D11
  1
*D12
  0
LINE
  5
2C8
330
2C5
100
AcDbEntity
  8
치수문자_일반주서
 62
     0
370
    -2
100
AcDbLine
 10
27.39999999999957
 20
5.618750000000004
 30
0.0
 11
27.39999999999957
 21
16.54290286035538
 31
0.0
  0
LINE
  5
2C9
330
2C5
100
AcDbEntity
  8
치수문자_일반주서
 62
     0
370
    -2
100
AcDbLine
 10
1.999999999999986
 20
5.535349324069392
 30
0.0
 11
1.999999999999986
 21
16.54290286035538
 31
0.0
  0
LINE
  5
2CA
330
2C5
100
AcDbEntity
  8
치수문자_일반주서
 62
     0
370
    -2
100
AcDbLine
 10
24.09799999999957
 20
16.54290286035538
 30
0.0
 11
5.301999999999985
 21
16.54290286035538
 31
0.0
  0
SOLID
  5
2CB
330
2C5
100
AcDbEntity
  8
치수문자_일반주서
 62
     0
100
AcDbTrace
 10
24.09799999999957
 20
15.99256952702204
 30
0.0
 11
24.09799999999957
 21
17.09323619368871
 31
0.0
 12
27.39999999999957
 22
16.54290286035538
 32
0.0
 13
27.39999999999957
 23
16.54290286035538
 33
0.0
  0
SOLID
  5
2CC
330
2C5
100
AcDbEntity
  8
치수문자_일반주서
 62
     0
100
AcDbTrace
 10
5.301999999999985
 20
17.09323619368871
 30
0.0
 11
5.301999999999985
 21
15.99256952702204
 31
0.0
 12
1.999999999999986
 22
16.54290286035538
 32
0.0
 13
1.999999999999986
 23
16.54290286035538
 33
0.0
  0
MTEXT
  5
2CD
330
2C5
100
AcDbEntity
  8
치수문자_일반주서
 62
     0
100
AcDbMText
 10
14.69999999999998
 20
20.91790286035538
 30
0.0
 40
3.5
 41
0.0
 71
     2
 72
     1
  1
\A1;25.4 [1]
  7
SLDTEXTSTYLE0
 73
     1
 44
1.0
  0
POINT
  5
2CE
330
2C5
100
AcDbEntity
  8
Defpoints
 62
     0
100
AcDbPoint
 10
27.39999999999957
 20
5.556250000000004
 30
0.0
  0
POINT
  5
2CF
330
2C5
100
AcDbEntity
  8
Defpoints
 62
     0
100
AcDbPoint
 10
1.999999999999986
 20
5.472849324069392
 30
0.0
  0
POINT
  5
2D0
330
2C5
100
AcDbEntity
  8
Defpoints
 62
     0
100
AcDbPoint
 10
1.999999999999986
 20
16.54290286035538
 30
0.0
  0
ENDBLK
  5
2C7
330
2C5
100
AcDbEntity
  8
0
100
AcDbBlockEnd
  0
BLOCK
  5
2D2
330
2D1
100
AcDbEntity
  8
0
100
AcDbBlockBegin
  2
*D12
 70
     1
 10
0.0
 20
0.0
 30
0.0
  3
*D12
  1
*D13
  0
LINE
  5
2D4
330
2D1
100
AcDbEntity
  8
치수문자_일반주서
 62
     0
370
    -2
100
AcDbLine
 10
27.39999999999957
 20
5.618750000000004
 30
0.0
 11
27.39999999999957
 21
30.30945726244601
 31
0.0
  0
LINE
  5
2D5
330
2D1
100
AcDbEntity
  8
치수문자_일반주서
 62
     0
370
    -2
100
AcDbLine
 10
-40.86250000000001
 20
3.824999999999994
 30
0.0
 11
-40.86250000000001
 21
30.30945726244601
 31
0.0
  0
LINE
  5
2D6
330
2D1
100
AcDbEntity
  8
치수문자_일반주서
 62
     0
370
    -2
100
AcDbLine
 10
24.09799999999957
 20
30.30945726244601
 30
0.0
 11
-37.56050000000001
 21
30.30945726244601
 31
0.0
  0
SOLID
  5
2D7
330
2D1
100
AcDbEntity
  8
치수문자_일반주서
 62
     0
100
AcDbTrace
 10
24.09799999999957
 20
29.75912392911267
 30
0.0
 11
24.09799999999957
 21
30.85979059577934
 31
0.0
 12
27.39999999999957
 22
30.30945726244601
 32
0.0
 13
27.39999999999957
 23
30.30945726244601
 33
0.0
  0
SOLID
  5
2D8
330
2D1
100
AcDbEntity
  8
치수문자_일반주서
 62
     0
100
AcDbTrace
 10
-37.56050000000001
 20
30.85979059577934
 30
0.0
 11
-37.56050000000001
 21
29.75912392911267
 31
0.0
 12
-40.86250000000001
 22
30.30945726244601
 32
0.0
 13
-40.86250000000001
 23
30.30945726244601
 33
0.0
  0
MTEXT
  5
2D9
330
2D1
100
AcDbEntity
  8
치수문자_일반주서
 62
     0
100
AcDbMText
 10
-10.7
 20
34.684457262446
 30
0.0
 40
3.5
 41
0.0
 71
     2
 72
     1
  1
\A1;68.26 [2 11/16]
  7
SLDTEXTSTYLE0
 73
     1
 44
1.0
  0
POINT
  5
2DA
330
2D1
100
AcDbEntity
  8
Defpoints
 62
     0
100
AcDbPoint
 10
27.39999999999957
 20
5.556250000000004
 30
0.0
  0
POINT
  5
2DB
330
2D1
100
AcDbEntity
  8
Defpoints
 62
     0
100
AcDbPoint
 10
-40.86250000000001
 20
3.762499999999994
 30
0.0
  0
POINT
  5
2DC
330
2D1
100
AcDbEntity
  8
Defpoints
 62
     0
100
AcDbPoint
 10
-40.86250000000001
 20
30.30945726244601
 30
0.0
  0
ENDBLK
  5
2D3
330
2D1
100
AcDbEntity
  8
0
100
AcDbBlockEnd
  0
BLOCK
  5
2DE
330
2DD
100
AcDbEntity
  8
0
100
AcDbBlockBegin
  2
*D13
 70
     1
 10
0.0
 20
0.0
 30
0.0
  3
*D13
  1
*D14
  0
LINE
  5
2E0
330
2DD
100
AcDbEntity
  8
치수문자_일반주서
 62
     0
370
    -2
100
AcDbLine
 10
27.46250000000002
 20
-5.55625
 30
0.0
 11
46.40000000000009
 21
-5.556249999999928
 31
0.0
  0
LINE
  5
2E1
330
2DD
100
AcDbEntity
  8
치수문자_일반주서
 62
     0
370
    -2
100
AcDbLine
 10
27.46250000000002
 20
5.551553942119709
 30
0.0
 11
46.40000000000006
 21
5.551553942119781
 31
0.0
  0
LINE
  5
2E2
330
2DD
100
AcDbEntity
  8
치수문자_일반주서
 62
     0
370
    -2
100
AcDbLine
 10
46.40000000000006
 20
5.551553942119781
 30
0.0
 11
46.39999999999993
 21
44.74930394211977
 31
0.0
  0
LINE
  5
2E3
330
2DD
100
AcDbEntity
  8
치수문자_일반주서
 62
     0
370
    -2
100
AcDbLine
 10
46.40000000000009
 20
-5.556249999999928
 30
0.0
 11
46.40000000000006
 21
5.551553942119781
 31
0.0
  0
LINE
  5
2E4
330
2DD
100
AcDbEntity
  8
치수문자_일반주서
 62
     0
370
    -2
100
AcDbLine
 10
46.4000000000001
 20
-8.858249999999927
 30
0.0
 11
46.40000000000011
 21
-12.16024999999993
 31
0.0
  0
LINE
  5
2E5
330
2DD
100
AcDbEntity
  8
치수문자_일반주서
 62
     0
370
    -2
100
AcDbLine
 10
46.40000000000005
 20
8.853553942119781
 30
0.0
 11
46.40000000000004
 21
12.15555394211978
 31
0.0
  0
SOLID
  5
2E6
330
2DD
100
AcDbEntity
  8
치수문자_일반주서
 62
     0
100
AcDbTrace
 10
46.95033333333343
 20
-8.858249999999925
 30
0.0
 11
45.84966666666676
 21
-8.858249999999929
 31
0.0
 12
46.40000000000009
 22
-5.556249999999928
 32
0.0
 13
46.40000000000009
 23
-5.556249999999928
 33
0.0
  0
SOLID
  5
2E7
330
2DD
100
AcDbEntity
  8
치수문자_일반주서
 62
     0
100
AcDbTrace
 10
45.84966666666671
 20
8.85355394211978
 30
0.0
 11
46.95033333333338
 21
8.853553942119783
 31
0.0
 12
46.40000000000006
 22
5.551553942119781
 32
0.0
 13
46.40000000000006
 23
5.551553942119781
 33
0.0
  0
MTEXT
  5
2E8
330
2DD
100
AcDbEntity
  8
치수문자_일반주서
 62
     0
100
AcDbMText
 10
42.02499999999997
 20
31.18680394211975
 30
0.0
 40
3.5
 41
0.0
 71
     2
 72
     1
  1
\A1;%%c11.11 [7/16]
  7
SLDTEXTSTYLE0
 11
-3.198394297660366E-15
 21
1.0
 31
0.0
 73
     1
 44
1.0
  0
POINT
  5
2E9
330
2DD
100
AcDbEntity
  8
Defpoints
 62
     0
100
AcDbPoint
 10
27.40000000000002
 20
-5.55625
 30
0.0
  0
POINT
  5
2EA
330
2DD
100
AcDbEntity
  8
Defpoints
 62
     0
100
AcDbPoint
 10
27.40000000000002
 20
5.551553942119709
 30
0.0
  0
POINT
  5
2EB
330
2DD
100
AcDbEntity
  8
Defpoints
 62
     0
100
AcDbPoint
 10
46.40000000000005
 20
5.55155394211978
 30
0.0
  0
ENDBLK
  5
2DF
330
2DD
100
AcDbEntity
  8
0
100
AcDbBlockEnd
  0
BLOCK
  5
2ED
330
2EC
100
AcDbEntity
  8
0
100
AcDbBlockBegin
  2
*D14
 70
     1
 10
0.0
 20
0.0
 30
0.0
  3
*D14
  1
*D15
  0
LINE
  5
2EF
330
2EC
100
AcDbEntity
  8
치수문자_일반주서
 62
     0
370
    -2
100
AcDbLine
 10
-39.92500000000003
 20
4.762499999999994
 30
0.0
 11
-63.46474989598769
 21
4.762499999999996
 31
0.0
  0
LINE
  5
2F0
330
2EC
100
AcDbEntity
  8
치수문자_일반주서
 62
     0
370
    -2
100
AcDbLine
 10
-39.92500000000003
 20
-4.762500000000005
 30
0.0
 11
-63.46474989598769
 21
-4.762500000000003
 31
0.0
  0
LINE
  5
2F1
330
2EC
100
AcDbEntity
  8
치수문자_일반주서
 62
     0
370
    -2
100
AcDbLine
 10
-63.46474989598769
 20
1.460499999999996
 30
0.0
 11
-63.46474989598769
 21
-1.460500000000003
 31
0.0
  0
SOLID
  5
2F2
330
2EC
100
AcDbEntity
  8
치수문자_일반주서
 62
     0
100
AcDbTrace
 10
-62.91441656265436
 20
1.460499999999996
 30
0.0
 11
-64.01508322932102
 21
1.460499999999996
 31
0.0
 12
-63.46474989598769
 22
4.762499999999996
 32
0.0
 13
-63.46474989598769
 23
4.762499999999996
 33
0.0
  0
SOLID
  5
2F3
330
2EC
100
AcDbEntity
  8
치수문자_일반주서
 62
     0
100
AcDbTrace
 10
-64.01508322932102
 20
-1.460500000000003
 30
0.0
 11
-62.91441656265436
 21
-1.460500000000003
 31
0.0
 12
-63.46474989598769
 22
-4.762500000000003
 32
0.0
 13
-63.46474989598769
 23
-4.762500000000003
 33
0.0
  0
MTEXT
  5
2F4
330
2EC
100
AcDbEntity
  8
치수문자_일반주서
 62
     0
100
AcDbMText
 10
-66.0897498959877
 20
-0.0000000000000019
 30
0.0
 40
3.5
 41
0.0
 71
     5
 72
     1
  1
\A1;9.53 [3/8]
  7
SLDTEXTSTYLE0
 11
0.0
 21
1.0
 31
0.0
 73
     1
 44
1.0
  0
POINT
  5
2F5
330
2EC
100
AcDbEntity
  8
Defpoints
 62
     0
100
AcDbPoint
 10
-39.86250000000003
 20
4.762499999999994
 30
0.0
  0
POINT
  5
2F6
330
2EC
100
AcDbEntity
  8
Defpoints
 62
     0
100
AcDbPoint
 10
-39.86250000000003
 20
-4.762500000000005
 30
0.0
  0
POINT
  5
2F7
330
2EC
100
AcDbEntity
  8
Defpoints
 62
     0
100
AcDbPoint
 10
-63.46474989598769
 20
-4.762500000000003
 30
0.0
  0
ENDBLK
  5
2EE
330
2EC
100
AcDbEntity
  8
0
100
AcDbBlockEnd
  0
ENDSEC
  0
SECTION
  2
ENTITIES
  0
LINE
  5
C8
330
1F
100
AcDbEntity
  8
참조1
100
AcDbLine
 10
2.149261314031172
 20
0.0010749287238892
 30
0.0
 11
2.149261314031179
 21
-39.99892507127611
 31
0.0
  0
LINE
  5
C9
330
1F
100
AcDbEntity
  8
참조1
100
AcDbLine
 10
2.149261314031179
 20
-39.99892507127611
 30
0.0
 11
-20.15080122126847
 21
-39.9989250712761
 31
0.0
  0
LINE
  5
123
330
1F
100
AcDbEntity
  8
참조1
100
AcDbLine
 10
77.82153940838579
 20
7.441074928723896
 30
0.0
 11
77.82153940838579
 21
-7.438925071276109
 31
0.0
  0
LINE
  5
124
330
1F
100
AcDbEntity
  8
참조1
100
AcDbLine
 10
90.52153940838579
 20
5.441074928723896
 30
0.0
 11
77.82153940838579
 21
5.441074928723896
 31
0.0
  0
SOLID
  5
125
330
1F
100
AcDbEntity
  8
참조1
100
AcDbTrace
 10
77.82153940838579
 20
5.441074928723896
 30
0.0
 11
84.17153940838578
 21
4.425074928723896
 31
0.0
 12
84.17153940838578
 22
6.457074928723896
 32
0.0
 13
84.17153940838578
 23
6.457074928723896
 33
0.0
  0
LINE
  5
126
330
1F
100
AcDbEntity
  8
참조1
100
AcDbLine
 10
90.52153940838579
 20
-5.438925071276109
 30
0.0
 11
77.82153940838579
 21
-5.438925071276109
 31
0.0
  0
SOLID
  5
127
330
1F
100
AcDbEntity
  8
참조1
100
AcDbTrace
 10
77.82153940838579
 20
-5.438925071276109
 30
0.0
 11
84.17153940838578
 21
-6.454925071276109
 31
0.0
 12
84.17153940838578
 22
-4.422925071276109
 32
0.0
 13
84.17153940838578
 23
-4.422925071276109
 33
0.0
  0
MTEXT
  5
128
330
1F
100
AcDbEntity
  8
참조1
100
AcDbMText
 10
87.20588954101179
 20
11.01136670591222
 30
0.0
 40
3.5
 41
0.0
 71
     1
 72
     1
  1
A
  7
SLDTEXTSTYLE0
 73
     1
 44
1.0
  0
MTEXT
  5
129
330
1F
100
AcDbEntity
  8
참조1
100
AcDbMText
 10
87.20588954101179
 20
0.1313667059122192
 30
0.0
 40
3.5
 41
0.0
 71
     1
 72
     1
  1
A
  7
SLDTEXTSTYLE0
 73
     1
 44
1.0
  0
SPLINE
  5
28F
330
1F
100
AcDbEntity
  8
0
  6
Continuous
 62
     1
370
    15
100
AcDbSpline
210
0.0
220
0.0
230
1.0
 70
     8
 71
     3
 72
    11
 73
     7
 74
     0
 42
0.000000001
 43
0.00000001
 40
0.0
 40
0.0
 40
0.0
 40
0.0
 40
0.2070427935887889
 40
0.5157741029700412
 40
0.7018228634056887
 40
1.0
 40
1.0
 40
1.0
 40
1.0
 10
13.00429828889687
 20
1.423794712498845
 30
0.0
 10
12.89788125182382
 20
1.47397166163867
 30
0.0
 10
12.63278073378264
 20
1.598969834643268
 30
0.0
 10
12.27478528670274
 20
1.776225806530069
 30
0.0
 10
11.86464384850636
 20
1.984528413446439
 30
0.0
 10
11.61689694120473
 20
2.114614017802045
 30
0.0
 10
11.46433908778879
 20
2.194718269261562
 30
0.0
  0
LINE
  5
290
330
1F
100
AcDbEntity
  8
0
  6
Continuous
 62
     1
370
    15
100
AcDbLine
 10
9.891993900449268
 20
1.586981386574427
 30
0.0
 11
9.873140332821137
 21
1.597402939071605
 31
0.0
  0
SPLINE
  5
291
330
1F
100
AcDbEntity
  8
0
  6
Continuous
 62
     1
370
    15
100
AcDbSpline
210
0.0
220
0.0
230
1.0
 70
     8
 71
     3
 72
    26
 73
    22
 74
     0
 42
0.000000001
 43
0.00000001
 40
0.0
 40
0.0
 40
0.0
 40
0.0
 40
0.0629693133224333
 40
0.11572040047108
 40
0.1583504315169151
 40
0.1911825046618852
 40
0.2170129516269835
 40
0.2657952309549971
 40
0.3140919119269241
 40
0.3607659461585683
 40
0.412232274904858
 40
0.4665496162922618
 40
0.5120163144315794
 40
0.5550364942526389
 40
0.6002626698232895
 40
0.662180326182157
 40
0.7327411735898207
 40
0.8073254675448923
 40
0.8798554097391019
 40
0.9578199273883318
 40
1.0
 40
1.0
 40
1.0
 40
1.0
 10
11.16828324662042
 20
4.415212540052243
 30
0.0
 10
11.07658239177381
 20
4.410428889266923
 30
0.0
 10
10.90806126479156
 20
4.401637845576216
 30
0.0
 10
10.6740820499051
 20
4.390694571448284
 30
0.0
 10
10.48193193049811
 20
4.382500381000439
 30
0.0
 10
10.32691828809708
 20
4.376589820427744
 30
0.0
 10
10.16271714474478
 20
4.37083686581571
 30
0.0
 10
9.973779972055908
 20
4.364463532649081
 30
0.0
 10
9.757911548355896
 20
4.358205472996351
 30
0.0
 10
9.538627359859777
 20
4.352724106917966
 30
0.0
 10
9.309332186741457
 20
4.347956415656595
 30
0.0
 10
9.081559360107446
 20
4.344252817345241
 30
0.0
 10
8.866766309025348
 20
4.341690302270136
 30
0.0
 10
8.668671692879697
 20
4.340041383020624
 30
0.0
 10
8.443191484369986
 20
4.339015514450187
 30
0.0
 10
8.172699250168407
 20
4.339113539233656
 30
0.0
 10
7.859777986643437
 20
4.340999612816125
 30
0.0
 10
7.532079896365287
 20
4.345007520336841
 30
0.0
 10
7.192953125139057
 20
4.351425768056698
 30
0.0
 10
6.902724083930696
 20
4.358326124965748
 30
0.0
 10
6.721732596829087
 20
4.364375607638747
 30
0.0
 10
6.658190542613728
 20
4.366499445406688
 30
0.0
  0
SPLINE
  5
292
330
1F
100
AcDbEntity
  8
0
  6
Continuous
 62
     1
370
    15
100
AcDbSpline
210
0.0
220
0.0
230
1.0
 70
     8
 71
     3
 72
    50
 73
    46
 74
     0
 42
0.000000001
 43
0.00000001
 40
0.0
 40
0.0
 40
0.0
 40
0.0
 40
0.017002806097833
 40
0.0328843661955303
 40
0.0487024877623625
 40
0.0655575437372879
 40
0.0895155560185245
 40
0.1131895096859069
 40
0.1339569103556157
 40
0.1519591575378347
 40
0.1676215024658953
 40
0.1824987360760982
 40
0.1968751645937272
 40
0.2234097029382821
 40
0.253346560453031
 40
0.2835400222096625
 40
0.3009238378601718
 40
0.3197505842910037
 40
0.3409331892277593
 40
0.3644574811559217
 40
0.3868067996423467
 40
0.4015775607812507
 40
0.4141049560014525
 40
0.4268731716756601
 40
0.4429660482672505
 40
0.4625087094948622
 40
0.4933192828680659
 40
0.5212713636077684
 40
0.5463154275313036
 40
0.5727904295415973
 40
0.6022166188753106
 40
0.6423955256838547
 40
0.6802904975625238
 40
0.7144840681604928
 40
0.7438048981338193
 40
0.7770764471023002
 40
0.809264984514136
 40
0.837296867030315
 40
0.8542934820499826
 40
0.8709572648358426
 40
0.8876209432705432
 40
0.9046836728548653
 40
0.9290272015016596
 40
0.9607996052951605
 40
1.0
 40
1.0
 40
1.0
 40
1.0
 10
25.33499118620164
 20
3.800209631467444
 30
0.0
 10
25.30519997696449
 20
3.797367527913598
 30
0.0
 10
25.24758213269074
 20
3.791870742648113
 30
0.0
 10
25.12285459965914
 20
3.779017579232024
 30
0.0
 10
24.97458378387937
 20
3.765894998135946
 30
0.0
 10
24.78516821621783
 20
3.752021509804072
 30
0.0
 10
24.56701429153218
 20
3.739356855844105
 30
0.0
 10
24.33760448318064
 20
3.726264372085799
 30
0.0
 10
24.12666147962493
 20
3.714507245248247
 30
0.0
 10
23.9430735240487
 20
3.704890740557465
 30
0.0
 10
23.78378017936949
 20
3.697203773658172
 30
0.0
 10
23.63674515061767
 20
3.69068061002052
 30
0.0
 10
23.45411426481279
 20
3.683255799883815
 30
0.0
 10
23.22232271216625
 20
3.675040961808625
 30
0.0
 10
22.93884435073817
 20
3.667042350391758
 30
0.0
 10
22.68515324667685
 20
3.661895472439957
 30
0.0
 10
22.46763746769425
 20
3.658832059007393
 30
0.0
 10
22.27969546730479
 20
3.657071148104831
 30
0.0
 10
22.07154324369843
 20
3.656202800460276
 30
0.0
 10
21.85261452718634
 20
3.656559771875221
 30
0.0
 10
21.65237028109071
 20
3.658059299142868
 30
0.0
 10
21.48474166098514
 20
3.660134094159629
 30
0.0
 10
21.34989888805864
 20
3.661893308211835
 30
0.0
 10
21.20870462752756
 20
3.664155315221142
 30
0.0
 10
21.05461720152771
 20
3.668198994423163
 30
0.0
 10
20.86271849852044
 20
3.674153254553863
 30
0.0
 10
20.61056206831846
 20
3.682503939397497
 30
0.0
 10
20.33510575178137
 20
3.693906705818525
 30
0.0
 10
20.07533381155649
 20
3.706363606630765
 30
0.0
 10
19.81029552350178
 20
3.720806356187074
 30
0.0
 10
19.49567135475626
 20
3.74017279152685
 30
0.0
 10
19.1435894902596
 20
3.76493838202367
 30
0.0
 10
18.77638629127022
 20
3.794450246191756
 30
0.0
 10
18.44460148956925
 20
3.824079403527419
 30
0.0
 10
18.12680445860356
 20
3.854809848865136
 30
0.0
 10
17.81366609018822
 20
3.887379627399218
 30
0.0
 10
17.50600089982239
 20
3.921761979735839
 30
0.0
 10
17.25814977925488
 20
3.951263607770064
 30
0.0
 10
17.06076113580541
 20
3.97567371323999
 30
0.0
 10
16.89359080003003
 20
3.997082913655438
 30
0.0
 10
16.72442663735278
 20
4.019322824819346
 30
0.0
 10
16.53109105871703
 20
4.045476776730202
 30
0.0
 10
16.29208170287824
 20
4.079085245009045
 30
0.0
 10
15.98348737626889
 20
4.124146661086227
 30
0.0
 10
15.75528656364729
 20
4.159512820394943
 30
0.0
 10
15.62924444446917
 20
4.179046605639838
 30
0.0
  0
SPLINE
  5
293
330
1F
100
AcDbEntity
  8
0
  6
Continuous
 62
     1
370
    15
100
AcDbSpline
210
0.0
220
0.0
230
1.0
 70
     8
 71
     3
 72
    23
 73
    19
 74
     0
 42
0.000000001
 43
0.00000001
 40
0.0
 40
0.0
 40
0.0
 40
0.0
 40
0.0701368727725314
 40
0.132268697791562
 40
0.1881616335564309
 40
0.2406963733333167
 40
0.2922833520694916
 40
0.3437794357630366
 40
0.3945894619984944
 40
0.4794597274994111
 40
0.5549912320378719
 40
0.6257278460302655
 40
0.7080387553678058
 40
0.7837602494352722
 40
0.8676279418303369
 40
0.9185717186556867
 40
0.9694684765370819
 40
1.0
 40
1.0
 40
1.0
 40
1.0
 10
15.62924444446917
 20
-4.179046605639849
 30
0.0
 10
15.71421277535574
 20
-4.165622841459205
 30
0.0
 10
15.87445160602532
 20
-4.140307429787052
 30
0.0
 10
16.12448076497724
 20
-4.10188231503915
 30
0.0
 10
16.36486232533848
 20
-4.067520352333668
 30
0.0
 10
16.5912446915841
 20
-4.037169548574136
 30
0.0
 10
16.81193126947265
 20
-4.007648690402855
 30
0.0
 10
17.02856941564265
 20
-3.97969318095929
 30
0.0
 10
17.28761628659008
 20
-3.947551756951407
 30
0.0
 10
17.58056715665312
 20
-3.91317716182161
 30
0.0
 10
17.90009711351978
 20
-3.87821283686627
 30
0.0
 10
18.216532338753
 20
-3.845865956275484
 30
0.0
 10
18.53330415727958
 20
-3.815894730947102
 30
0.0
 10
18.86804946123944
 20
-3.786838280485407
 30
0.0
 10
19.15930298841288
 20
-3.764036055595428
 30
0.0
 10
19.41634485931916
 20
-3.745856819456068
 30
0.0
 10
19.59966602923213
 20
-3.733682515415582
 30
0.0
 10
19.71242120307533
 20
-3.727075482286866
 30
0.0
 10
19.75469874079222
 20
-3.724598176077537
 30
0.0
  0
SPLINE
  5
294
330
1F
100
AcDbEntity
  8
0
  6
Continuous
 62
     1
370
    15
100
AcDbSpline
210
0.0
220
0.0
230
1.0
 70
     8
 71
     3
 72
    43
 73
    39
 74
     0
 42
0.000000001
 43
0.00000001
 40
0.0
 40
0.0
 40
0.0
 40
0.0
 40
0.020802645320603
 40
0.0391808738087911
 40
0.0559470307203424
 40
0.0767055455878368
 40
0.0975048485155562
 40
0.1171784865708825
 40
0.1358885960196667
 40
0.1634160906158675
 40
0.1886812779037468
 40
0.2188392535964119
 40
0.2536294777180095
 40
0.2865626593056197
 40
0.3272430706654994
 40
0.3759374079147906
 40
0.4277552464162913
 40
0.486559042199171
 40
0.5275627541997154
 40
0.5656542384723454
 40
0.6048304379547299
 40
0.6421319464662265
 40
0.6638231868981564
 40
0.6825095058289145
 40
0.6976723367541127
 40
0.7102155293878376
 40
0.725538173059254
 40
0.7504071667507258
 40
0.7800750441235518
 40
0.8080460588441268
 40
0.8333539345131424
 40
0.8568533550789235
 40
0.8723395444921184
 40
0.8880695560790098
 40
0.9055507408407796
 40
0.9296353626439182
 40
0.9610766513982013
 40
1.0
 40
1.0
 40
1.0
 40
1.0
 10
2.809662970697715
 20
-4.623810705537069
 30
0.0
 10
2.852615583704548
 20
-4.619342234385579
 30
0.0
 10
2.933514954147185
 20
-4.610926064153063
 30
0.0
 10
3.071464939382096
 20
-4.59602968660729
 30
0.0
 10
3.225194702225181
 20
-4.580740411675125
 30
0.0
 10
3.393891272976006
 20
-4.566343721051391
 30
0.0
 10
3.563551612364547
 20
-4.552439580369397
 30
0.0
 10
3.731562151478597
 20
-4.538258307852177
 30
0.0
 10
3.919050665103796
 20
-4.522686976351766
 30
0.0
 10
4.123127991155787
 20
-4.506236691904356
 30
0.0
 10
4.356474855266518
 20
-4.488504719653344
 30
0.0
 10
4.604547866446456
 20
-4.470710887072615
 30
0.0
 10
4.879956798568326
 20
-4.452185466420382
 30
0.0
 10
5.184488135776677
 20
-4.433275834920148
 30
0.0
 10
5.528418397453196
 20
-4.4138138842334
 30
0.0
 10
5.924916535615477
 20
-4.394025972718568
 30
0.0
 10
6.372691102269027
 20
-4.375288994133806
 30
0.0
 10
6.798797375431477
 20
-4.361223396449427
 30
0.0
 10
7.186307526338267
 20
-4.351500152057357
 30
0.0
 10
7.518738850014687
 20
-4.345251948670873
 30
0.0
 10
7.840506263881357
 20
-4.341187423688007
 30
0.0
 10
8.117148926227296
 20
-4.339404715994712
 30
0.0
 10
8.337364250436037
 20
-4.339028100338377
 30
0.0
 10
8.494263580926697
 20
-4.339272135456897
 30
0.0
 10
8.624628804972517
 20
-4.339852333960254
 30
0.0
 10
8.743164691995917
 20
-4.340662666172813
 30
0.0
 10
8.890143651366477
 20
-4.341959467187232
 30
0.0
 10
9.085786238326577
 20
-4.344308890237487
 30
0.0
 10
9.317717972772718
 20
-4.348105166527178
 30
0.0
 10
9.550397832226498
 20
-4.352991743846824
 30
0.0
 10
9.764794339275095
 20
-4.358400552684808
 30
0.0
 10
9.944988965132875
 20
-4.363650413708664
 30
0.0
 10
10.10116828793871
 20
-4.368730861990437
 30
0.0
 10
10.24017819935698
 20
-4.373538899399216
 30
0.0
 10
10.40421480369041
 20
-4.379402638543157
 30
0.0
 10
10.61019113877505
 20
-4.387832935921489
 30
0.0
 10
10.87124107663867
 20
-4.399764403246126
 30
0.0
 10
11.06249050252054
 20
-4.409710625007485
 30
0.0
 10
11.16828324662042
 20
-4.415212540052247
 30
0.0
  0
SPLINE
  5
295
330
1F
100
AcDbEntity
  8
0
  6
Continuous
 62
     1
370
    15
100
AcDbSpline
210
0.0
220
0.0
230
1.0
 70
     8
 71
     3
 72
    50
 73
    46
 74
     0
 42
0.000000001
 43
0.00000001
 40
0.0
 40
0.0
 40
0.0
 40
0.0
 40
0.0624999999999998
 40
0.0624999999999998
 40
0.0937499999999999
 40
0.0937499999999999
 40
0.1249999999999999
 40
0.1249999999999999
 40
0.15625
 40
0.15625
 40
0.1875
 40
0.1875
 40
0.2500000000000001
 40
0.2500000000000001
 40
0.3125000000000002
 40
0.3125000000000002
 40
0.3750000000000003
 40
0.3750000000000003
 40
0.4062500000000002
 40
0.4062500000000002
 40
0.4375000000000001
 40
0.4375000000000001
 40
0.5000000000000001
 40
0.5000000000000001
 40
0.5312500000000001
 40
0.5312500000000001
 40
0.5625000000000001
 40
0.5625000000000001
 40
0.6250000000000002
 40
0.6250000000000002
 40
0.6562500000000001
 40
0.6562500000000001
 40
0.6875
 40
0.6875
 40
0.7499999999999999
 40
0.7499999999999999
 40
0.78125
 40
0.78125
 40
0.8125
 40
0.8125
 40
0.8749999999999999
 40
0.8749999999999999
 40
0.9375
 40
0.9375
 40
1.0
 40
1.0
 40
1.0
 40
1.0
 10
27.40000000000002
 20
-5.272552704669744
 30
0.0
 10
26.87418737475882
 20
-5.176383902399289
 30
0.0
 10
26.3410342880499
 20
-5.055798792052956
 30
0.0
 10
25.54648459760869
 20
-4.841708247121185
 30
0.0
 10
25.28368926564723
 20
-4.764967000615274
 30
0.0
 10
24.75604274684752
 20
-4.600695866937494
 30
0.0
 10
24.49075952138735
 20
-4.513101123004931
 30
0.0
 10
23.95996888666786
 20
-4.327824224910794
 30
0.0
 10
23.69446454902776
 20
-4.230143124158355
 30
0.0
 10
23.16594106013712
 20
-4.025732798687352
 30
0.0
 10
22.90358367298272
 20
-3.919110061008001
 30
0.0
 10
22.10998479990964
 20
-3.585414935180589
 30
0.0
 10
21.57658145472719
 20
-3.344969079075364
 30
0.0
 10
20.52272070755867
 20
-2.837987007303513
 30
0.0
 10
19.99204823057643
 20
-2.569862411768307
 30
0.0
 10
18.93166554242264
 20
-2.012871353707953
 30
0.0
 10
18.40672247022578
 20
-1.724913800376408
 30
0.0
 10
17.61075148050712
 20
-1.281669071036229
 30
0.0
 10
17.3450977817095
 20
-1.132233675350998
 30
0.0
 10
16.81583859602809
 20
-0.831519880478199
 30
0.0
 10
16.55340925329118
 20
-0.680469462778783
 30
0.0
 10
15.76097383638767
 20
-0.2245424102143493
 30
0.0
 10
15.22746587995973
 20
0.0828091216594212
 30
0.0
 10
14.43560347165745
 20
0.5395884894870216
 30
0.0
 10
14.17298336138611
 20
0.6911551786125524
 30
0.0
 10
13.64344806007766
 20
0.9931997954470314
 30
0.0
 10
13.37775177210203
 20
1.143441531882386
 30
0.0
 10
12.58194158425481
 20
1.589519228474435
 30
0.0
 10
12.05709453312027
 20
1.879984795538872
 30
0.0
 10
11.26155327470419
 20
2.302456410881659
 30
0.0
 10
10.99582210071286
 20
2.440918904222306
 30
0.0
 10
10.46596915071875
 20
2.711713644782866
 30
0.0
 10
10.20295801629861
 20
2.843865610539906
 30
0.0
 10
9.411897652433296
 20
3.230578045929524
 30
0.0
 10
8.878430827822786
 20
3.4758286008213
 30
0.0
 10
8.085312655992807
 20
3.817350666740045
 30
0.0
 10
7.822986612489206
 20
3.926713646925199
 30
0.0
 10
7.294125258068716
 20
4.136885190760927
 30
0.0
 10
7.028547031644207
 20
4.23754586206187
 30
0.0
 10
6.232428296362837
 20
4.524662425707069
 30
0.0
 10
5.707236411251857
 20
4.695755354611377
 30
0.0
 10
4.647373551727997
 20
4.994933874163975
 30
0.0
 10
4.115354396231497
 20
5.122598638162429
 30
0.0
 10
3.062721138930115
 20
5.329692864981004
 30
0.0
 10
2.529441151516139
 20
5.40991774322257
 30
0.0
 10
1.999999999999588
 20
5.46505182434567
 30
0.0
  0
SPLINE
  5
296
330
1F
100
AcDbEntity
  8
0
  6
Continuous
 62
     1
370
    15
100
AcDbSpline
210
0.0
220
0.0
230
1.0
 70
     8
 71
     3
 72
    20
 73
    16
 74
     0
 42
0.000000001
 43
0.00000001
 40
0.0
 40
0.0
 40
0.0
 40
0.0
 40
0.0793451414519952
 40
0.1586264077929306
 40
0.2380344403554837
 40
0.3172676453718604
 40
0.3967207834971228
 40
0.4759217783531174
 40
0.5554021961677202
 40
0.6345868570891836
 40
0.7140767043164622
 40
0.7932609202416896
 40
0.8727423381672571
 40
0.9519419983809098
 40
1.0
 40
1.0
 40
1.0
 40
1.0
 10
27.40000000000002
 20
-4.383727143895905
 30
0.0
 10
27.01895228285763
 20
-4.30823288067999
 30
0.0
 10
26.25716360289719
 20
-4.157305129291965
 30
0.0
 10
25.11442601859294
 20
-3.855241218307642
 30
0.0
 10
23.97144320738976
 20
-3.504454448423568
 30
0.0
 10
22.82873735551361
 20
-3.101282673734511
 30
0.0
 10
21.68564498449182
 20
-2.657258210250094
 30
0.0
 10
20.54296153711418
 20
-2.172546097832205
 30
0.0
 10
19.39980264131252
 20
-1.660986178732502
 30
0.0
 10
18.2571305755868
 20
-1.121836739628714
 30
0.0
 10
17.11394883644279
 20
-0.5713944136500989
 30
0.0
 10
15.9712764613161
 20
-0.0081241953275698
 30
0.0
 10
14.8281176127545
 20
0.5499382338619422
 30
0.0
 10
13.83608430735852
 20
1.034115082027965
 30
0.0
 10
13.22476632512148
 20
1.318960645511181
 30
0.0
 10
12.99390619334615
 20
1.426530660187849
 30
0.0
  0
LINE
  5
297
330
1F
100
AcDbEntity
  8
0
  6
Continuous
 62
     1
370
    15
100
AcDbLine
 10
27.40000000000002
 20
-5.272552704669751
 30
0.0
 11
27.40000000000002
 21
-4.383727143895905
 31
0.0
  0
SPLINE
  5
298
330
1F
100
AcDbEntity
  8
0
  6
Continuous
 62
     1
370
    15
100
AcDbSpline
210
0.0
220
0.0
230
1.0
 70
     8
 71
     3
 72
    50
 73
    46
 74
     0
 42
0.000000001
 43
0.00000001
 40
0.0
 40
0.0
 40
0.0
 40
0.0
 40
0.0624999999999997
 40
0.0624999999999997
 40
0.1249999999999992
 40
0.1249999999999992
 40
0.187499999999999
 40
0.187499999999999
 40
0.2187499999999989
 40
0.2187499999999989
 40
0.2499999999999988
 40
0.2499999999999988
 40
0.3124999999999984
 40
0.3124999999999984
 40
0.3437499999999984
 40
0.3437499999999984
 40
0.3749999999999984
 40
0.3749999999999984
 40
0.4374999999999982
 40
0.4374999999999982
 40
0.4687499999999982
 40
0.4687499999999982
 40
0.4999999999999982
 40
0.4999999999999982
 40
0.5624999999999981
 40
0.5624999999999981
 40
0.5937499999999982
 40
0.5937499999999982
 40
0.6249999999999982
 40
0.6249999999999982
 40
0.6874999999999984
 40
0.6874999999999984
 40
0.7499999999999987
 40
0.7499999999999987
 40
0.8124999999999989
 40
0.8124999999999989
 40
0.8437499999999991
 40
0.8437499999999991
 40
0.8749999999999993
 40
0.8749999999999993
 40
0.9062499999999996
 40
0.9062499999999996
 40
0.9374999999999998
 40
0.9374999999999998
 40
1.0
 40
1.0
 40
1.0
 40
1.0
 10
1.999999999999133
 20
4.97560523988033
 30
0.0
 10
2.529441151515684
 20
4.839611688962917
 30
0.0
 10
3.06272113892966
 20
4.680570620387362
 30
0.0
 10
4.115354396231037
 20
4.323093027057089
 30
0.0
 10
4.647373551727567
 20
4.123257626857912
 30
0.0
 10
5.707236411251456
 20
3.688486682644777
 30
0.0
 10
6.232428296362446
 20
3.454055107943778
 30
0.0
 10
7.028547031643807
 20
3.07930381763404
 30
0.0
 10
7.294125258068316
 20
2.950708850532775
 30
0.0
 10
7.822986612488837
 20
2.687498666908778
 30
0.0
 10
8.085312655992437
 20
2.553056975486532
 30
0.0
 10
8.878430827822436
 20
2.140481076255161
 30
0.0
 10
9.411897652432957
 20
1.85359942709133
 30
0.0
 10
10.20295801629827
 20
1.414289903914278
 30
0.0
 10
10.46596915071841
 20
1.266215119494189
 30
0.0
 10
10.99582210071255
 20
0.9668132071250762
 30
0.0
 10
11.26155327470387
 20
0.8156919205878789
 30
0.0
 10
12.05709453311998
 20
0.3603768458148461
 30
0.0
 10
12.58194158425453
 20
0.0548770639965051
 30
0.0
 10
13.37775177210178
 20
-0.4033087373428633
 30
0.0
 10
13.64344806007744
 20
-0.5558336624865011
 30
0.0
 10
14.17298336138588
 20
-0.858922319119488
 30
0.0
 10
14.43560347165719
 20
-1.009256196298809
 30
0.0
 10
15.2274658799595
 20
-1.457085129684623
 30
0.0
 10
15.76097383638744
 20
-1.751402033878323
 30
0.0
 10
16.55340925329095
 20
-2.177564607768384
 30
0.0
 10
16.81583859602789
 20
-2.317012983190795
 30
0.0
 10
17.34509778170933
 20
-2.591119571404756
 30
0.0
 10
17.61075148050692
 20
-2.725562148374062
 30
0.0
 10
18.40672247022563
 20
-3.118977238116857
 30
0.0
 10
18.93166554242252
 20
-3.367364679400298
 30
0.0
 10
19.99204823057629
 20
-3.833056001260667
 30
0.0
 10
20.52272070755852
 20
-4.049551470386327
 30
0.0
 10
21.57658145472708
 20
-4.443055862601123
 30
0.0
 10
22.10998479990956
 20
-4.621274530261873
 30
0.0
 10
22.90358367298264
 20
-4.855259527886263
 30
0.0
 10
23.16594106013706
 20
-4.927640919756643
 30
0.0
 10
23.69446454902765
 20
-5.061441442845274
 30
0.0
 10
23.9599688866678
 20
-5.12277901508344
 30
0.0
 10
24.49075952138729
 20
-5.233654197369108
 30
0.0
 10
24.75604274684746
 20
-5.283191187832856
 30
0.0
 10
25.2836892656472
 20
-5.370030075456258
 30
0.0
 10
25.54648459760863
 20
-5.407378282847392
 30
0.0
 10
26.34103428804987
 20
-5.501193217009609
 30
0.0
 10
26.87418737475882
 20
-5.539022610809797
 30
0.0
 10
27.40000000000002
 20
-5.55625
 30
0.0
  0
SPLINE
  5
299
330
1F
100
AcDbEntity
  8
0
  6
Continuous
 62
     1
370
    15
100
AcDbSpline
210
0.0
220
0.0
230
1.0
 70
     8
 71
     3
 72
    16
 73
    12
 74
     0
 42
0.000000001
 43
0.00000001
 40
0.0
 40
0.0
 40
0.0
 40
0.0
 40
0.1106051208060455
 40
0.2289148044256756
 40
0.347019109729657
 40
0.4654625420115611
 40
0.5836592615922207
 40
0.6876404490208655
 40
0.7918423231721832
 40
0.8957334249795117
 40
1.0
 40
1.0
 40
1.0
 40
1.0
 10
13.59660436432067
 20
-0.5287361089267738
 30
0.0
 10
13.16903072001752
 20
-0.3568089734533065
 30
0.0
 10
12.28409938546499
 20
-0.000978553436939
 30
0.0
 10
10.94252421570171
 20
0.5415201826506911
 30
0.0
 10
9.571267347222758
 20
1.085913032830616
 30
0.0
 10
8.199523314526246
 20
1.606185644173214
 30
0.0
 10
6.883004647148757
 20
2.075831167331335
 30
0.0
 10
5.621650514125957
 20
2.489393481918155
 30
0.0
 10
4.414922259858757
 20
2.84361680456387
 30
0.0
 10
3.208042193076054
 20
3.158869841361712
 30
0.0
 10
2.403164674979948
 20
3.325406520609247
 30
0.0
 10
1.999999999999986
 20
3.408825059022268
 30
0.0
  0
SPLINE
  5
29A
330
1F
100
AcDbEntity
  8
외형선
  6
Continuous
370
    15
100
AcDbSpline
210
0.0
220
0.0
230
1.0
 70
    24
 71
     3
 72
    10
 73
     6
 74
     0
 42
0.000000001
 43
0.00000001
 40
0.0
 40
0.0
 40
0.0
 40
0.0
 40
0.4999999999999999
 40
0.4999999999999999
 40
1.0
 40
1.0
 40
1.0
 40
1.0
 10
1.999999999999986
 20
4.975605239879668
 30
0.0
 10
1.999999999999986
 20
4.766004534071653
 30
0.0
 10
1.999999999999986
 20
4.511762700929244
 30
0.0
 10
1.999999999999986
 20
3.968461844886652
 30
0.0
 10
1.999999999999986
 20
3.681000778535198
 30
0.0
 10
1.999999999999986
 20
3.408825059022268
 30
0.0
  0
LINE
  5
29B
330
1F
100
AcDbEntity
  8
외형선
  6
Continuous
370
    15
100
AcDbLine
 10
1.999999999999986
 20
4.975605239879675
 30
0.0
 11
1.999999999999986
 21
5.465051824338778
 31
0.0
  0
LINE
  5
29C
330
1F
100
AcDbEntity
  8
0
  6
Continuous
 62
     1
370
    15
100
AcDbLine
 10
27.40000000000002
 20
-5.55625
 30
0.0
 11
27.40000000000002
 21
-5.272552704669751
 31
0.0
  0
SPLINE
  5
29D
330
1F
100
AcDbEntity
  8
0
  6
Continuous
 62
     1
370
    15
100
AcDbSpline
210
0.0
220
0.0
230
1.0
 70
     8
 71
     3
 72
     8
 73
     4
 74
     0
 42
0.000000001
 43
0.00000001
 40
0.0
 40
0.0
 40
0.0
 40
0.0
 40
1.0
 40
1.0
 40
1.0
 40
1.0
 10
23.96205706602443
 20
1.554184009602997
 30
0.0
 10
23.76465030753586
 20
1.788049069802609
 30
0.0
 10
23.58842183394397
 20
2.013159355233304
 30
0.0
 10
23.43844740875967
 20
2.227416623920552
 30
0.0
  0
LINE
  5
29E
330
1F
100
AcDbEntity
  8
0
  6
Continuous
 62
     1
370
    15
100
AcDbLine
 10
23.50866073328415
 20
2.286332598632773
 30
0.0
 11
27.40000000000002
 21
-0.0000000000000019
 31
0.0
  0
LINE
  5
29F
330
1F
100
AcDbEntity
  8
0
  6
Continuous
 62
     1
370
    15
100
AcDbLine
 10
27.40000000000002
 20
-0.0000000000000019
 30
0.0
 11
27.40000000000002
 21
-1.484868618877217
 31
0.0
  0
SPLINE
  5
2A0
330
1F
100
AcDbEntity
  8
0
  6
Continuous
 62
     1
370
    15
100
AcDbSpline
210
0.0
220
0.0
230
1.0
 70
     8
 71
     3
 72
    12
 73
     8
 74
     0
 42
0.000000001
 43
0.00000001
 40
0.0
 40
0.0
 40
0.0
 40
0.0
 40
0.5
 40
0.5
 40
0.75
 40
0.75
 40
1.0
 40
1.0
 40
1.0
 40
1.0
 10
27.40000000000002
 20
-1.484868618877217
 30
0.0
 10
26.80488160121403
 20
-1.017005130037889
 30
0.0
 10
26.21970338050393
 20
-0.5299579483693667
 30
0.0
 10
25.35722957402338
 20
0.2301280174900649
 30
0.0
 10
25.07233159546154
 20
0.4884948343414502
 30
0.0
 10
24.5083542436975
 20
1.01645787832865
 30
0.0
 10
24.23081385777936
 20
1.284684048414716
 30
0.0
 10
23.96205706602443
 20
1.55418400960299
 30
0.0
  0
SPLINE
  5
2A1
330
1F
100
AcDbEntity
  8
0
  6
Continuous
 62
     1
370
    15
100
AcDbSpline
210
0.0
220
0.0
230
1.0
 70
     8
 71
     3
 72
    19
 73
    15
 74
     0
 42
0.000000001
 43
0.00000001
 40
0.0
 40
0.0
 40
0.0
 40
0.0
 40
0.0889827761312644
 40
0.1782207212671507
 40
0.2671689130356483
 40
0.3566635814744689
 40
0.4458205829292282
 40
0.5353260200571874
 40
0.624482509832171
 40
0.7139783282075239
 40
0.8031524461136924
 40
0.8926182668759601
 40
0.9818281388736005
 40
1.0
 40
1.0
 40
1.0
 40
1.0
 10
23.96205706602443
 20
1.55418400960299
 30
0.0
 10
23.58268632771676
 20
1.716534129110817
 30
0.0
 10
22.8228569590634
 20
2.041699926970514
 30
0.0
 10
21.68280884109594
 20
2.492891476825525
 30
0.0
 10
20.54196037193616
 20
2.913924475628311
 30
0.0
 10
19.39987317864901
 20
3.290958534513683
 30
0.0
 10
18.25710348557716
 20
3.624924160608712
 30
0.0
 10
17.11402628282243
 20
3.905219716097688
 30
0.0
 10
15.97125756571721
 20
4.132740861403226
 30
0.0
 10
14.8281938421125
 20
4.300027632776155
 30
0.0
 10
13.68543127208399
 20
4.409286913809159
 30
0.0
 10
12.54239291330321
 20
4.450437321794757
 30
0.0
 10
11.70337330722639
 20
4.449532899351167
 30
0.0
 10
11.24533336944161
 20
4.415844558956122
 30
0.0
 10
11.16782076187217
 20
4.410143590780001
 30
0.0
  0
SPLINE
  5
2A2
330
1F
100
AcDbEntity
  8
0
  6
Continuous
 62
     1
370
    15
100
AcDbSpline
210
0.0
220
0.0
230
1.0
 70
    24
 71
     3
 72
    10
 73
     6
 74
     0
 42
0.000000001
 43
0.00000001
 40
0.0
 40
0.0
 40
0.0
 40
0.0
 40
0.5
 40
0.5
 40
1.0
 40
1.0
 40
1.0
 40
1.0
 10
27.40000000000002
 20
-4.383727143895905
 30
0.0
 10
27.40000000000002
 20
-4.047680280152393
 30
0.0
 10
27.39999999999998
 20
-3.623072182455319
 30
0.0
 10
27.39999999999997
 20
-2.635899219280967
 30
0.0
 10
27.40000000000002
 20
-2.074189480453841
 30
0.0
 10
27.40000000000002
 20
-1.484868618877395
 30
0.0
  0
SPLINE
  5
2A3
330
1F
100
AcDbEntity
  8
0
  6
Continuous
 62
     1
370
    15
100
AcDbSpline
210
0.0
220
0.0
230
1.0
 70
    24
 71
     3
 72
     8
 73
     4
 74
     0
 42
0.000000001
 43
0.00000001
 40
0.0
 40
0.0
 40
0.0
 40
0.0
 40
1.0
 40
1.0
 40
1.0
 40
1.0
 10
24.01802406229176
 20
2.713739180137905
 30
0.0
 10
23.83462811240723
 20
2.559851706230374
 30
0.0
 10
23.64081162830921
 20
2.397220365908024
 30
0.0
 10
23.43844740875976
 20
2.227416623920581
 30
0.0
  0
SPLINE
  5
2A4
330
1F
100
AcDbEntity
  8
0
  6
Continuous
 62
     1
370
    15
100
AcDbSpline
210
0.0
220
0.0
230
1.0
 70
     8
 71
     3
 72
     9
 73
     5
 74
     0
 42
0.000000001
 43
0.00000001
 40
0.0
 40
0.0
 40
0.0
 40
0.0
 40
0.6643827310331236
 40
1.0
 40
1.0
 40
1.0
 40
1.0
 10
27.40000000000002
 20
3.889374999999992
 30
0.0
 10
26.94253553408003
 20
3.884886812532746
 30
0.0
 10
26.25397991011216
 20
3.878131387899314
 30
0.0
 10
25.56563159902036
 20
3.812522113765757
 30
0.0
 10
25.33461001875377
 20
3.790502508362158
 30
0.0
  0
SPLINE
  5
2A5
330
1F
100
AcDbEntity
  8
0
  6
Continuous
 62
     1
370
    15
100
AcDbSpline
210
0.0
220
0.0
230
1.0
 70
     8
 71
     3
 72
    10
 73
     6
 74
     0
 42
0.000000001
 43
0.00000001
 40
0.0
 40
0.0
 40
0.0
 40
0.0
 40
0.5
 40
0.5
 40
1.0
 40
1.0
 40
1.0
 40
1.0
 10
27.40000000000002
 20
3.889374999999999
 30
0.0
 10
26.82845098516906
 20
3.734335233050982
 30
0.0
 10
26.26038855592164
 20
3.560336717280107
 30
0.0
 10
25.13189035214633
 20
3.170868788863506
 30
0.0
 10
24.57139613348959
 20
2.955970426724382
 30
0.0
 10
24.01802406230245
 20
2.713739180142886
 30
0.0
  0
SPLINE
  5
2A6
330
1F
100
AcDbEntity
  8
0
  6
Continuous
 62
     1
370
    15
100
AcDbSpline
210
0.0
220
0.0
230
1.0
 70
     8
 71
     3
 72
    19
 73
    15
 74
     0
 42
0.000000001
 43
0.00000001
 40
0.0
 40
0.0
 40
0.0
 40
0.0
 40
0.0589600992386528
 40
0.1426626753412433
 40
0.2266390560082669
 40
0.3103751924042775
 40
0.3943043127080773
 40
0.4780909968246173
 40
0.5619537955489847
 40
0.6458079751275446
 40
0.7342698078437465
 40
0.8229145022677475
 40
0.9113016977489418
 40
1.0
 40
1.0
 40
1.0
 40
1.0
 10
15.63096112310679
 20
-4.172579747853826
 30
0.0
 10
15.36296696516034
 20
-4.214358106425957
 30
0.0
 10
14.71451548624212
 20
-4.315447020492067
 30
0.0
 10
13.68541563608348
 20
-4.407027924414388
 30
0.0
 10
12.54241450242249
 20
-4.454171283362634
 30
0.0
 10
11.39964244915653
 20
-4.436557417634911
 30
0.0
 10
10.25670821895072
 20
-4.357175606477023
 30
0.0
 10
9.113940969286476
 20
-4.215980842016984
 30
0.0
 10
7.971114517135886
 20
-4.015658251951942
 30
0.0
 10
6.807074707177756
 20
-3.754049772947648
 30
0.0
 10
5.621705277667347
 20
-3.430639901666448
 30
0.0
 10
4.414842364875927
 20
-3.048452489217022
 30
0.0
 10
3.208116584428055
 20
-2.618517888485061
 30
0.0
 10
2.403176905314936
 20
-2.299874300628206
 30
0.0
 10
1.999999999999986
 20
-2.140272607502427
 30
0.0
  0
SPLINE
  5
2A7
330
1F
100
AcDbEntity
  8
외형선
  6
Continuous
370
    15
100
AcDbSpline
210
0.0
220
0.0
230
1.0
 70
    24
 71
     3
 72
    14
 73
    10
 74
     0
 42
0.000000001
 43
0.00000001
 40
0.0
 40
0.0
 40
0.0
 40
0.0
 40
0.25
 40
0.25
 40
0.5
 40
0.5
 40
0.75
 40
0.75
 40
1.0
 40
1.0
 40
1.0
 40
1.0
 10
1.999999999999986
 20
3.408825059022261
 30
0.0
 10
1.999999999999986
 20
3.08542456548882
 30
0.0
 10
1.999999999999986
 20
2.706158518261985
 30
0.0
 10
1.999999999999986
 20
1.857324591686575
 30
0.0
 10
1.999999999999986
 20
1.387993766504896
 30
0.0
 10
1.999999999999986
 20
0.401759124517758
 30
0.0
 10
1.999999999999986
 20
-0.1146191852377304
 30
0.0
 10
1.999999999999986
 20
-1.142719229385629
 30
0.0
 10
1.999999999999986
 20
-1.653952120676261
 30
0.0
 10
1.999999999999986
 20
-2.140272607502427
 30
0.0
  0
LINE
  5
2A8
330
1F
100
AcDbEntity
  8
0
  6
Continuous
 62
     1
370
    15
100
AcDbLine
 10
2.810315191081528
 20
-4.615658900390317
 30
0.0
 11
2.000000000000043
 21
-4.688211079485529
 31
0.0
  0
SPLINE
  5
2A9
330
1F
100
AcDbEntity
  8
외형선
  6
Continuous
370
    15
100
AcDbSpline
210
0.0
220
0.0
230
1.0
 70
    24
 71
     3
 72
    14
 73
    10
 74
     0
 42
0.000000001
 43
0.00000001
 40
0.0
 40
0.0
 40
0.0
 40
0.0
 40
0.2500000000000001
 40
0.2500000000000001
 40
0.5000000000000002
 40
0.5000000000000002
 40
0.7500000000000001
 40
0.7500000000000001
 40
1.0
 40
1.0
 40
1.0
 40
1.0
 10
1.999999999999986
 20
-2.140272607502427
 30
0.0
 10
1.999999999999986
 20
-2.489472973500897
 30
0.0
 10
1.999999999999986
 20
-2.820555262008393
 30
0.0
 10
1.999999999999986
 20
-3.41801093983314
 30
0.0
 10
1.999999999999986
 20
-3.684153469019672
 30
0.0
 10
1.999999999999986
 20
-4.129468845408093
 30
0.0
 10
1.999999999999986
 20
-4.308513099047318
 30
0.0
 10
1.999999999999986
 20
-4.569839840826001
 30
0.0
 10
1.999999999999986
 20
-4.652156150803315
 30
0.0
 10
1.999999999999986
 20
-4.688211079485529
 30
0.0
  0
LINE
  5
2AA
330
1F
100
AcDbEntity
  8
0
  6
Continuous
 62
     1
370
    15
100
AcDbLine
 10
27.40000000000002
 20
-0.0000000000000019
 30
0.0
 11
27.40000000000002
 21
3.889374999999999
 31
0.0
  0
SPLINE
  5
2AB
330
1F
100
AcDbEntity
  8
0
  6
Continuous
 62
     1
370
    15
100
AcDbSpline
210
0.0
220
0.0
230
1.0
 70
    24
 71
     3
 72
    10
 73
     6
 74
     0
 42
0.000000001
 43
0.00000001
 40
0.0
 40
0.0
 40
0.0
 40
0.0
 40
0.5
 40
0.5
 40
1.0
 40
1.0
 40
1.0
 40
1.0
 10
27.40000000000002
 20
3.889374999999999
 30
0.0
 10
27.40000000000002
 20
4.125139226885635
 30
0.0
 10
27.40000000000002
 20
4.399119092642918
 30
0.0
 10
27.39999999999997
 20
4.973928113088744
 30
0.0
 10
27.40000000000002
 20
5.273289277671926
 30
0.0
 10
27.40000000000002
 20
5.551553942119709
 30
0.0
  0
SPLINE
  5
2AC
330
1F
100
AcDbEntity
  8
0
  6
Continuous
 62
     1
370
    15
100
AcDbSpline
210
0.0
220
0.0
230
1.0
 70
     8
 71
     3
 72
    18
 73
    14
 74
     0
 42
0.000000001
 43
0.00000001
 40
0.0
 40
0.0
 40
0.0
 40
0.0
 40
0.0255798591923553
 40
0.1304723374548792
 40
0.2357752371612236
 40
0.3299850409058016
 40
0.4243267015977557
 40
0.5188671991220545
 40
0.6135415656865846
 40
0.7099077811517109
 40
0.806415555814753
 40
0.9031363768251145
 40
1.0
 40
1.0
 40
1.0
 40
1.0
 10
19.75450404790407
 20
3.724598650565516
 30
0.0
 10
19.81971698439957
 20
3.75318854002988
 30
0.0
 10
20.15234134299679
 20
3.899013803489778
 30
0.0
 10
20.75339861884372
 20
4.136883456323714
 30
0.0
 10
21.52844512217108
 20
4.424658276301477
 30
0.0
 10
22.27802773750323
 20
4.671696455458315
 30
0.0
 10
22.99936164756348
 20
4.88482105474714
 30
0.0
 10
23.7214602587723
 20
5.070864844636743
 30
0.0
 10
24.44993553156501
 20
5.228581961362344
 30
0.0
 10
25.1825774381898
 20
5.357984476835311
 30
0.0
 10
25.9201149843277
 20
5.456184293944245
 30
0.0
 10
26.66013169931919
 20
5.524420060807072
 30
0.0
 10
27.15325597815938
 20
5.542504868119563
 30
0.0
 10
27.39999999999957
 20
5.556250000000004
 30
0.0
  0
SPLINE
  5
2AD
330
1F
100
AcDbEntity
  8
0
  6
Continuous
 62
     1
370
    15
100
AcDbSpline
210
0.0
220
0.0
230
1.0
 70
     8
 71
     3
 72
    12
 73
     8
 74
     0
 42
0.000000001
 43
0.00000001
 40
0.0
 40
0.0
 40
0.0
 40
0.0
 40
0.1552931893786614
 40
0.3661986168199366
 40
0.5776872598715281
 40
0.7884185959904744
 40
1.0
 40
1.0
 40
1.0
 40
1.0
 10
6.657747480912617
 20
-4.366652331130568
 30
0.0
 10
6.416588132786547
 20
-4.451930458370002
 30
0.0
 10
5.847907561086616
 20
-4.653025769536095
 30
0.0
 10
4.951642225490426
 20
-4.915700178318483
 30
0.0
 10
3.967821436173876
 20
-5.155915048171495
 30
0.0
 10
2.984808875116457
 20
-5.346273723325384
 30
0.0
 10
2.328709842810369
 20
-5.42540602920486
 30
0.0
 10
1.999999999999588
 20
-5.465051824345673
 30
0.0
  0
SPLINE
  5
2AE
330
1F
100
AcDbEntity
  8
외형선
  6
Continuous
370
    15
100
AcDbSpline
210
0.0
220
0.0
230
1.0
 70
    24
 71
     3
 72
     8
 73
     4
 74
     0
 42
0.000000001
 43
0.00000001
 40
0.0
 40
0.0
 40
0.0
 40
0.0
 40
1.0
 40
1.0
 40
1.0
 40
1.0
 10
2.000000000000014
 20
-4.688211079485535
 30
0.0
 10
2.000000000000014
 20
-4.957247689348806
 30
0.0
 10
2.000000000000014
 20
-5.217903635288915
 30
0.0
 10
2.000000000000014
 20
-5.465051824337523
 30
0.0
  0
LINE
  5
2AF
330
1F
100
AcDbEntity
  8
중심선
 48
0.8
100
AcDbLine
 10
-51.79999999999999
 20
-0.000000000000009
 30
0.0
 11
30.39999999999997
 21
0.0000000000000052
 31
0.0
  0
INSERT
  5
2B0
330
1F
100
AcDbEntity
  8
0
  6
Continuous
 62
     7
100
AcDbBlockReference
 66
     1
  2
블럭10
 10
-24.64027293212521
 20
-52.04717430164393
 30
0.0
  0
ATTRIB
  5
2B1
330
2B0
100
AcDbEntity
  8
FORMAT
 62
     2
100
AcDbText
 10
-33.8215682208665
 20
-49.97180738881174
 30
0.0
 40
4.233333333333333
  1
E1070028 [ 2 FLUTE ]
 41
0.75
  7
SLDTEXTSTYLE0
 11
-33.8215682208665
 21
-52.08847405547841
 31
0.0
100
AcDbAttribute
  2
AUTOATTR0
 70
     0
 74
     1
  0
SEQEND
  5
2B2
330
2B0
100
AcDbEntity
  8
0
  6
Continuous
 62
     7
  0
HATCH
  5
2B3
330
1F
100
AcDbEntity
  8
중심선
100
AcDbHatch
 10
0.0
 20
0.0
 30
0.0
210
0.0
220
0.0
230
1.0
  2
SOLID
 70
     1
 71
     0
 91
        1
 92
        0
 93
        4
 72
     1
 10
-18.92536362774434
 20
-35.8
 11
-22.37163887158163
 21
-35.8
 72
     1
 10
-22.37163887158163
 20
-35.8
 11
-24.49986873078566
 21
-38.33632558057256
 72
     1
 10
-24.49986873078566
 20
-38.33632558057256
 11
-21.05356040183522
 21
-38.33628615127009
 72
     1
 10
-21.05356040183522
 20
-38.33628615127009
 11
-18.92536362774434
 21
-35.8
 97
        0
 75
     0
 76
     1
 98
        1
 10
-1.740578832126928
 20
-0.001074928723897
  0
HATCH
  5
2B4
330
1F
100
AcDbEntity
  8
중심선
100
AcDbHatch
 10
0.0
 20
0.0
 30
0.0
210
0.0
220
0.0
230
1.0
  2
SOLID
 70
     1
 71
     0
 91
        1
 92
        0
 93
        4
 72
     1
 10
-13.91259963670838
 20
-35.8
 11
-17.35887488054567
 21
-35.8
 72
     1
 10
-17.35887488054565
 20
-35.8
 11
-21.89001288890307
 21
-41.20000000000002
 72
     1
 10
-21.89001288890307
 20
-41.20000000000002
 11
-18.4437376450658
 21
-41.20000000000002
 72
     1
 10
-18.4437376450658
 20
-41.20000000000002
 11
-13.91259963670838
 21
-35.8
 97
        0
 75
     0
 76
     1
 98
        1
 10
-1.740578832126928
 20
-0.001074928723897
  0
HATCH
  5
2B5
330
1F
100
AcDbEntity
  8
중심선
100
AcDbHatch
 10
0.0
 20
0.0
 30
0.0
210
0.0
220
0.0
230
1.0
  2
SOLID
 70
     1
 71
     0
 91
        1
 92
        0
 93
        4
 72
     1
 10
-8.89983564567251
 20
-35.79999999999998
 11
-12.34611088950962
 21
-35.8
 72
     1
 10
-12.34611088950963
 20
-35.8
 11
-19.39454779139887
 21
-44.20000000000002
 72
     1
 10
-19.39454779139886
 20
-44.20000000000002
 11
-15.94827254756159
 21
-44.20000000000002
 72
     1
 10
-15.94827254756159
 20
-44.20000000000002
 11
-8.899835645672503
 21
-35.79999999999998
 97
        0
 75
     0
 76
     1
 98
        1
 10
-1.740578832126928
 20
-0.001074928723897
  0
HATCH
  5
2B6
330
1F
100
AcDbEntity
  8
중심선
100
AcDbHatch
 10
0.0
 20
0.0
 30
0.0
210
0.0
220
0.0
230
1.0
  2
SOLID
 70
     1
 71
     0
 91
        1
 92
        0
 93
        6
 72
     3
 10
-4.099945214660309
 20
-40.00000000005127
 11
3.960054785062283
 21
1.540882976769353E-10
 40
0.3939339440162628
 50
17.09539180608455
 51
320.0019657685073
 73
     0
 72
     1
 10
-2.416945558959711
 20
-38.58789400463827
 11
-0.1116436852586702
 21
-36.65356729459035
 72
     3
 10
-4.099945214713173
 20
-40.00000000000014
 11
6.600054785286829
 21
-1.278976924368180E-13
 40
0.636358354079598
 50
39.99873849337411
 51
368.4976242363724
 73
     1
 72
     1
 10
2.32538727718746
 20
-39.03999999993002
 11
-5.419877907877229
 21
-39.03999999993
 72
     1
 10
-5.419877907877222
 20
-39.03999999993
 11
-5.419902952323156
 21
-40.95999999992991
 72
     1
 10
-5.41990295232317
 20
-40.95999999992991
 11
-0.9785231828511343
 21
-40.95999999992988
 97
        0
 75
     0
 76
     1
 98
        1
 10
-1.740578832126928
 20
-0.001074928723897
  0
DIMENSION
  5
2B7
330
1F
100
AcDbEntity
  8
치수문자_일반주서
100
AcDbDimension
  2
*D11
 10
1.999999999999986
 20
16.54290286035538
 30
0.0
 11
14.69999999999998
 21
16.54290286035538
 31
0.0
 70
   160
  1
<>
 71
     2
 42
25.39999999999958
  3
SLDDIMSTYLE0
100
AcDbAlignedDimension
 13
27.39999999999957
 23
5.556250000000004
 33
0.0
 14
1.999999999999986
 24
5.472849324069392
 34
0.0
100
AcDbRotatedDimension
1001
ACAD
1000
DSTYLE
1002
{
1070
   171
1070
     6
1070
   273
1070
     7
1002
}
  0
DIMENSION
  5
2B8
330
1F
100
AcDbEntity
  8
치수문자_일반주서
100
AcDbDimension
  2
*D12
 10
-40.86250000000001
 20
30.30945726244601
 30
0.0
 11
-10.7
 21
30.30945726244601
 31
0.0
 70
   160
  1
<>
 71
     2
 42
68.26249999999958
  3
SLDDIMSTYLE0
100
AcDbAlignedDimension
 13
27.39999999999957
 23
5.556250000000004
 33
0.0
 14
-40.86250000000001
 24
3.762499999999994
 34
0.0
 50
0.000000000000008
100
AcDbRotatedDimension
1001
ACAD
1000
DSTYLE
1002
{
1070
   171
1070
     6
1070
   273
1070
     7
1002
}
  0
DIMENSION
  5
2B9
330
1F
100
AcDbEntity
  8
치수문자_일반주서
100
AcDbDimension
  2
*D13
 10
46.40000000000006
 20
5.551553942119781
 30
0.0
 11
46.39999999999997
 21
31.18680394211977
 31
0.0
 70
   160
  1
%%c<>
 71
     2
 42
11.10780394211971
 52
-270.0
  3
SLDDIMSTYLE0
100
AcDbAlignedDimension
 13
27.40000000000002
 23
-5.55625
 33
0.0
 14
27.40000000000002
 24
5.551553942119709
 34
0.0
 50
90.0000000000002
100
AcDbRotatedDimension
1001
ACAD
1000
DSTYLE
1002
{
1070
   171
1070
     6
1070
   273
1070
     7
1002
}
  0
LINE
  5
2BA
330
1F
100
AcDbEntity
  8
외형선
  6
Continuous
370
    15
100
AcDbLine
 10
1.999999999999986
 20
4.762500000000001
 30
0.0
 11
-16.18004999999989
 21
4.762500000000001
 31
0.0
  0
LINE
  5
2BB
330
1F
100
AcDbEntity
  8
외형선
  6
Continuous
370
    15
100
AcDbLine
 10
-39.86250000000003
 20
-4.762500000000005
 30
0.0
 11
1.999999999999986
 21
-4.762500000000005
 31
0.0
  0
LINE
  5
2BC
330
1F
100
AcDbEntity
  8
외형선
  6
Continuous
370
    15
100
AcDbLine
 10
1.999999999999986
 20
4.510297579188444
 30
0.0
 11
1.999999999999986
 21
4.762500000000001
 31
0.0
  0
LINE
  5
2BD
330
1F
100
AcDbEntity
  8
외형선
  6
Continuous
370
    15
100
AcDbLine
 10
1.999999999999986
 20
-4.762500000000005
 30
0.0
 11
2.000000000000014
 21
3.91243266264942
 31
0.0
  0
CIRCLE
  5
2BE
330
1F
100
AcDbEntity
  8
해칭선
100
AcDbCircle
 10
0.0
 20
0.0
 30
0.0
 40
2.999999999999995
  0
INSERT
  5
2BF
330
1F
100
AcDbEntity
  8
해칭선
100
AcDbBlockReference
  2
SW_DOWELSYMBOL_0
 10
0.0
 20
0.0
 30
0.0
  0
LINE
  5
2C0
330
1F
100
AcDbEntity
  8
외형선
  6
Continuous
370
    15
100
AcDbLine
 10
-39.86250000000003
 20
4.762499999999994
 30
0.0
 11
-39.86250000000003
 21
-4.762499999999998
 31
0.0
  0
LINE
  5
2C1
330
1F
100
AcDbEntity
  8
외형선
  6
Continuous
370
    15
100
AcDbLine
 10
-40.86250000000001
 20
3.762499999999994
 30
0.0
 11
-40.86250000000001
 21
-3.762499999999998
 31
0.0
  0
LINE
  5
2C2
330
1F
100
AcDbEntity
  8
외형선
  6
Continuous
370
    15
100
AcDbLine
 10
-39.86250000000003
 20
4.762499999999994
 30
0.0
 11
-40.86250000000001
 21
3.762499999999994
 31
0.0
  0
LINE
  5
2C3
330
1F
100
AcDbEntity
  8
외형선
  6
Continuous
370
    15
100
AcDbLine
 10
-40.86250000000001
 20
-3.762499999999998
 30
0.0
 11
-39.86250000000003
 21
-4.762499999999998
 31
0.0
  0
DIMENSION
  5
2C4
330
1F
100
AcDbEntity
  8
치수문자_일반주서
100
AcDbDimension
  2
*D14
 10
-63.46474989598769
 20
-4.762500000000003
 30
0.0
 11
-63.46474989598769
 21
-0.0000000000000019
 31
0.0
 70
   160
 71
     5
 42
9.524999999999999
  3
SLDDIMSTYLE0
100
AcDbAlignedDimension
 13
-39.86250000000003
 23
4.762499999999994
 33
0.0
 14
-39.86250000000003
 24
-4.762500000000005
 34
0.0
 50
90.0
100
AcDbRotatedDimension
1001
ACAD
1000
DSTYLE
1002
{
1070
   171
1070
     6
1070
   273
1070
     7
1002
}
  0
LINE
  5
37E
330
1F
100
AcDbEntity
  8
외형선
  6
Continuous
370
    15
100
AcDbLine
 10
-24.58745000000013
 20
3.492500000000007
 30
0.0
 11
-17.45005
 21
3.492500000000007
 31
0.0
  0
LINE
  5
37F
330
1F
100
AcDbEntity
  8
외형선
  6
Continuous
370
    15
100
AcDbLine
 10
-24.58745000000013
 20
3.492500000000007
 30
0.0
 11
-25.85745000000011
 21
4.762499999999989
 31
0.0
  0
LINE
  5
380
330
1F
100
AcDbEntity
  8
외형선
  6
Continuous
370
    15
100
AcDbLine
 10
-17.45005
 20
3.492500000000007
 30
0.0
 11
-16.18004999999991
 21
4.762499999999989
 31
0.0
  0
LINE
  5
381
330
1F
100
AcDbEntity
  8
외형선
  6
Continuous
370
    15
100
AcDbLine
 10
-25.85745000000012
 20
4.762500000000001
 30
0.0
 11
-39.86250000000003
 21
4.762500000000001
 31
0.0
  0
VIEWPORT
  5
18B
330
1B
100
AcDbEntity
 67
     1
  8
0
100
AcDbViewport
 10
0.0
 20
0.0
 30
0.0
 40
388.8
 41
524.2131926121372
 68
     1
 69
     1
 12
228.4670184696569
 22
125.7430079155673
 13
0.0
 23
0.0
 14
0.5
 24
0.5
 15
0.0
 25
0.0
 16
0.0
 26
0.0
 36
1.0
 17
0.0
 27
0.0
 37
0.0
 42
50.0
 43
0.0
 44
0.0
 45
524.2131926121372
 50
0.0
 51
0.0
 72
   100
 90
   557168
  1

281
     0
 71
     1
 74
     0
110
0.0
120
0.0
130
0.0
111
1.0
121
0.0
131
0.0
112
0.0
122
1.0
132
0.0
 79
     0
146
0.0
  0
VIEWPORT
  5
18C
330
1B
100
AcDbEntity
 67
     1
  8
0
100
AcDbViewport
 10
202.5
 20
128.5
 30
0.0
 40
324.0
 41
205.6
 68
     2
 69
     2
 12
19.59826970419289
 22
-5.275973466855362
 13
0.0
 23
0.0
 14
0.5
 24
0.5
 15
0.0
 25
0.0
 16
0.0
 26
0.0
 36
1.0
 17
0.0
 27
0.0
 37
0.0
 42
50.0
 43
0.0
 44
0.0
 45
91.81148602596114
 50
0.0
 51
0.0
 72
   100
 90
   557152
  1

281
     0
 71
     1
 74
     0
110
0.0
120
0.0
130
0.0
111
1.0
121
0.0
131
0.0
112
0.0
122
1.0
132
0.0
 79
     0
146
0.0
  0
ENDSEC
  0
SECTION
  2
OBJECTS
  0
DICTIONARY
  5
C
330
0
100
AcDbDictionary
281
     1
  3
ACAD_GROUP
350
D
  3
ACAD_IMAGE_VARS
350
154
  3
ACAD_LAYOUT
350
1A
  3
ACAD_MLINESTYLE
350
17
  3
ACAD_PLOTSETTINGS
350
19
  3
ACAD_PLOTSTYLENAME
350
E
  3
ACAD_SCALELIST
350
47
  3
APPDATA
350
152
  3
DWGPROPS
350
382
  0
DICTIONARY
  5
17B
330
2
100
AcDbDictionary
280
     1
281
     1
  3
ACAD_LAYERSTATES
360
17C
  0
DICTIONARY
  5
D
102
{ACAD_REACTORS
330
C
102
}
330
C
100
AcDbDictionary
281
     1
  0
RASTERVARIABLES
  5
154
102
{ACAD_REACTORS
330
C
102
}
330
C
100
AcDbRasterVariables
 90
        0
 70
     1
 71
     1
 72
     1
  0
DICTIONARY
  5
1A
102
{ACAD_REACTORS
330
C
102
}
330
C
100
AcDbDictionary
281
     1
  3
Layout1
350
1E
  3
Layout2
350
26
  3
Model
350
22
  0
DICTIONARY
  5
17
102
{ACAD_REACTORS
330
C
102
}
330
C
100
AcDbDictionary
281
     1
  3
Standard
350
18
  0
DICTIONARY
  5
19
102
{ACAD_REACTORS
330
C
102
}
330
C
100
AcDbDictionary
281
     1
  0
ACDBDICTIONARYWDFLT
  5
E
102
{ACAD_REACTORS
330
C
102
}
330
C
100
AcDbDictionary
281
     1
  3
Normal
350
F
100
AcDbDictionaryWithDefault
340
F
  0
DICTIONARY
  5
47
102
{ACAD_REACTORS
330
C
102
}
330
C
100
AcDbDictionary
281
     1
  3
A0
350
48
  3
A1
350
49
  3
A2
350
4A
  3
A3
350
4B
  3
A4
350
4C
  3
A5
350
4D
  3
A6
350
4E
  3
A7
350
4F
  3
A8
350
50
  3
A9
350
51
  3
B0
350
52
  3
B1
350
53
  3
B2
350
54
  3
B3
350
55
  3
B4
350
56
  3
B5
350
57
  3
B6
350
58
  3
B7
350
59
  3
B8
350
5A
  3
B9
350
5B
  3
C0
350
5C
  3
C1
350
5D
  3
C2
350
5E
  3
C3
350
5F
  3
C4
350
60
  3
C5
350
61
  3
C6
350
62
  3
C7
350
63
  3
C8
350
64
  3
C9
350
65
  3
D0
350
66
  3
D1
350
67
  3
D2
350
68
  0
DICTIONARY
  5
152
102
{ACAD_REACTORS
330
C
102
}
330
C
100
AcDbDictionary
281
     1
  0
XRECORD
  5
382
102
{ACAD_REACTORS
330
C
102
}
330
C
100
AcDbXrecord
280
     1
  1
DWGPROPS COOKIE
  2

  3

  4

  6

  7

  8
12016016
  9

300
=
301
=
302
=
303
=
304
=
305
=
306
=
307
=
308
=
309
=
 40
0.0
 41
2458311.088261609
 42
2458318.291842766
  1

 90
        0
  0
DICTIONARY
  5
17C
102
{ACAD_REACTORS
330
17B
102
}
330
17B
100
AcDbDictionary
281
     1
  0
LAYOUT
  5
1E
102
{ACAD_REACTORS
330
1A
102
}
330
1A
100
AcDbPlotSettings
  1

  2
none_device
  4
ISO_A3_(420.00_x_297.00_MM)
  6

 40
7.5
 41
20.0
 42
7.5
 43
20.0
 44
420.0
 45
297.0
 46
0.0
 47
0.0
 48
0.0
 49
0.0
140
0.0
141
0.0
142
1.0
143
1.0
 70
   688
 72
     1
 73
     0
 74
     5
  7

 75
    16
147
1.0
148
0.0
149
0.0
100
AcDbLayout
  1
Layout1
 70
     1
 71
     1
 10
0.0
 20
0.0
 11
412.5
 21
277.0
 12
0.0
 22
0.0
 32
0.0
 14
40.5
 24
25.69999999999999
 34
0.0
 15
364.5
 25
231.3
 35
0.0
146
0.0
 13
0.0
 23
0.0
 33
0.0
 16
1.0
 26
0.0
 36
0.0
 17
0.0
 27
1.0
 37
0.0
 76
     0
330
1B
331
18B
  0
LAYOUT
  5
26
102
{ACAD_REACTORS
330
1A
102
}
330
1A
100
AcDbPlotSettings
  1

  2
none_device
  4

  6

 40
0.0
 41
0.0
 42
0.0
 43
0.0
 44
0.0
 45
0.0
 46
0.0
 47
0.0
 48
0.0
 49
0.0
140
0.0
141
0.0
142
1.0
143
1.0
 70
   688
 72
     1
 73
     0
 74
     5
  7

 75
    16
147
1.0
148
0.0
149
0.0
100
AcDbLayout
  1
Layout2
 70
     1
 71
     2
 10
0.0
 20
0.0
 11
0.0
 21
0.0
 12
0.0
 22
0.0
 32
0.0
 14
0.0
 24
0.0
 34
0.0
 15
0.0
 25
0.0
 35
0.0
146
0.0
 13
0.0
 23
0.0
 33
0.0
 16
1.0
 26
0.0
 36
0.0
 17
0.0
 27
1.0
 37
0.0
 76
     0
330
23
  0
LAYOUT
  5
22
102
{ACAD_REACTORS
330
1A
102
}
330
1A
100
AcDbPlotSettings
  1

  2
none_device
  4
ANSI_A_(11.00_x_8.50_Inches)
  6

 40
6.35
 41
19.05
 42
6.35000508
 43
19.05000254
 44
279.4
 45
215.9
 46
97.06335880047051
 47
88.18754314000867
 48
0.0
 49
0.0
140
0.0
141
0.0
142
0.0759333951473273
143
1.0
 70
  1696
 72
     0
 73
     0
 74
     0
  7

 75
     0
147
0.0235690232323232
148
0.0
149
0.0
100
AcDbLayout
  1
Model
 70
     1
 71
     0
 10
0.0
 20
0.0
 11
420.0
 21
297.0
 12
0.0
 22
0.0
 32
0.0
 14
1.000000000000000E+20
 24
1.000000000000000E+20
 34
1.000000000000000E+20
 15
-1.000000000000000E+20
 25
-1.000000000000000E+20
 35
-1.000000000000000E+20
146
0.0
 13
0.0
 23
0.0
 33
0.0
 16
1.0
 26
0.0
 36
0.0
 17
0.0
 27
1.0
 37
0.0
 76
     0
330
1F
331
29
  0
MLINESTYLE
  5
18
102
{ACAD_REACTORS
330
17
102
}
330
17
100
AcDbMlineStyle
  2
Standard
 70
     0
  3

 62
   256
 51
90.0
 52
90.0
 71
     2
 49
0.5
 62
   256
  6
BYLAYER
 49
-0.5
 62
   256
  6
BYLAYER
  0
ACDBPLACEHOLDER
  5
F
102
{ACAD_REACTORS
330
E
102
}
330
E
  0
SCALE
  5
48
102
{ACAD_REACTORS
330
47
102
}
330
47
100
AcDbScale
 70
     0
300
1:1
140
1.0
141
1.0
290
     1
  0
SCALE
  5
49
102
{ACAD_REACTORS
330
47
102
}
330
47
100
AcDbScale
 70
     0
300
1:2
140
1.0
141
2.0
290
     0
  0
SCALE
  5
4A
102
{ACAD_REACTORS
330
47
102
}
330
47
100
AcDbScale
 70
     0
300
1:4
140
1.0
141
4.0
290
     0
  0
SCALE
  5
4B
102
{ACAD_REACTORS
330
47
102
}
330
47
100
AcDbScale
 70
     0
300
1:5
140
1.0
141
5.0
290
     0
  0
SCALE
  5
4C
102
{ACAD_REACTORS
330
47
102
}
330
47
100
AcDbScale
 70
     0
300
1:8
140
1.0
141
8.0
290
     0
  0
SCALE
  5
4D
102
{ACAD_REACTORS
330
47
102
}
330
47
100
AcDbScale
 70
     0
300
1:10
140
1.0
141
10.0
290
     0
  0
SCALE
  5
4E
102
{ACAD_REACTORS
330
47
102
}
330
47
100
AcDbScale
 70
     0
300
1:16
140
1.0
141
16.0
290
     0
  0
SCALE
  5
4F
102
{ACAD_REACTORS
330
47
102
}
330
47
100
AcDbScale
 70
     0
300
1:20
140
1.0
141
20.0
290
     0
  0
SCALE
  5
50
102
{ACAD_REACTORS
330
47
102
}
330
47
100
AcDbScale
 70
     0
300
1:30
140
1.0
141
30.0
290
     0
  0
SCALE
  5
51
102
{ACAD_REACTORS
330
47
102
}
330
47
100
AcDbScale
 70
     0
300
1:40
140
1.0
141
40.0
290
     0
  0
SCALE
  5
52
102
{ACAD_REACTORS
330
47
102
}
330
47
100
AcDbScale
 70
     0
300
1:50
140
1.0
141
50.0
290
     0
  0
SCALE
  5
53
102
{ACAD_REACTORS
330
47
102
}
330
47
100
AcDbScale
 70
     0
300
1:100
140
1.0
141
100.0
290
     0
  0
SCALE
  5
54
102
{ACAD_REACTORS
330
47
102
}
330
47
100
AcDbScale
 70
     0
300
2:1
140
2.0
141
1.0
290
     0
  0
SCALE
  5
55
102
{ACAD_REACTORS
330
47
102
}
330
47
100
AcDbScale
 70
     0
300
4:1
140
4.0
141
1.0
290
     0
  0
SCALE
  5
56
102
{ACAD_REACTORS
330
47
102
}
330
47
100
AcDbScale
 70
     0
300
8:1
140
8.0
141
1.0
290
     0
  0
SCALE
  5
57
102
{ACAD_REACTORS
330
47
102
}
330
47
100
AcDbScale
 70
     0
300
10:1
140
10.0
141
1.0
290
     0
  0
SCALE
  5
58
102
{ACAD_REACTORS
330
47
102
}
330
47
100
AcDbScale
 70
     0
300
100:1
140
100.0
141
1.0
290
     0
  0
SCALE
  5
59
102
{ACAD_REACTORS
330
47
102
}
330
47
100
AcDbScale
 70
     0
300
1/128" = 1'-0"
140
0.0078125
141
12.0
290
     0
  0
SCALE
  5
5A
102
{ACAD_REACTORS
330
47
102
}
330
47
100
AcDbScale
 70
     0
300
1/64" = 1'-0"
140
0.015625
141
12.0
290
     0
  0
SCALE
  5
5B
102
{ACAD_REACTORS
330
47
102
}
330
47
100
AcDbScale
 70
     0
300
1/32" = 1'-0"
140
0.03125
141
12.0
290
     0
  0
SCALE
  5
5C
102
{ACAD_REACTORS
330
47
102
}
330
47
100
AcDbScale
 70
     0
300
1/16" = 1'-0"
140
0.0625
141
12.0
290
     0
  0
SCALE
  5
5D
102
{ACAD_REACTORS
330
47
102
}
330
47
100
AcDbScale
 70
     0
300
3/32" = 1'-0"
140
0.09375
141
12.0
290
     0
  0
SCALE
  5
5E
102
{ACAD_REACTORS
330
47
102
}
330
47
100
AcDbScale
 70
     0
300
1/8" = 1'-0"
140
0.125
141
12.0
290
     0
  0
SCALE
  5
5F
102
{ACAD_REACTORS
330
47
102
}
330
47
100
AcDbScale
 70
     0
300
3/16" = 1'-0"
140
0.1875
141
12.0
290
     0
  0
SCALE
  5
60
102
{ACAD_REACTORS
330
47
102
}
330
47
100
AcDbScale
 70
     0
300
1/4" = 1'-0"
140
0.25
141
12.0
290
     0
  0
SCALE
  5
61
102
{ACAD_REACTORS
330
47
102
}
330
47
100
AcDbScale
 70
     0
300
3/8" = 1'-0"
140
0.375
141
12.0
290
     0
  0
SCALE
  5
62
102
{ACAD_REACTORS
330
47
102
}
330
47
100
AcDbScale
 70
     0
300
1/2" = 1'-0"
140
0.5
141
12.0
290
     0
  0
SCALE
  5
63
102
{ACAD_REACTORS
330
47
102
}
330
47
100
AcDbScale
 70
     0
300
3/4" = 1'-0"
140
0.75
141
12.0
290
     0
  0
SCALE
  5
64
102
{ACAD_REACTORS
330
47
102
}
330
47
100
AcDbScale
 70
     0
300
1" = 1'-0"
140
1.0
141
12.0
290
     0
  0
SCALE
  5
65
102
{ACAD_REACTORS
330
47
102
}
330
47
100
AcDbScale
 70
     0
300
1-1/2" = 1'-0"
140
1.5
141
12.0
290
     0
  0
SCALE
  5
66
102
{ACAD_REACTORS
330
47
102
}
330
47
100
AcDbScale
 70
     0
300
3" = 1'-0"
140
3.0
141
12.0
290
     0
  0
SCALE
  5
67
102
{ACAD_REACTORS
330
47
102
}
330
47
100
AcDbScale
 70
     0
300
6" = 1'-0"
140
6.0
141
12.0
290
     0
  0
SCALE
  5
68
102
{ACAD_REACTORS
330
47
102
}
330
47
100
AcDbScale
 70
     0
300
1'-0" = 1'-0"
140
12.0
141
12.0
290
     0
  0
ENDSEC
  0
EOF
