  0
SECTION
  2
HEADER
  9
$ACADVER
  1
AC1015
  9
$ACADMAINTVER
 70
     6
  9
$DWGCODEPAGE
  3
ANSI_949
  9
$INSBASE
 10
0.0
 20
0.0
 30
0.0
  9
$EXTMIN
 10
1.000000000000000E+20
 20
1.000000000000000E+20
 30
1.000000000000000E+20
  9
$EXTMAX
 10
-1.000000000000000E+20
 20
-1.000000000000000E+20
 30
-1.000000000000000E+20
  9
$LIMMIN
 10
0.0
 20
0.0
  9
$LIMMAX
 10
420.0
 20
297.0
  9
$ORTHOMODE
 70
     1
  9
$REGENMODE
 70
     1
  9
$FILLMODE
 70
     1
  9
$QTEXTMODE
 70
     0
  9
$MIRRTEXT
 70
     1
  9
$LTSCALE
 40
1.0
  9
$ATTMODE
 70
     1
  9
$TEXTSIZE
 40
3.5
  9
$TRACEWID
 40
1.0
  9
$TEXTSTYLE
  7
Standard
  9
$CLAYER
  8
0
  9
$CELTYPE
  6
ByLayer
  9
$CECOLOR
 62
   256
  9
$CELTSCALE
 40
1.0
  9
$DISPSILH
 70
     0
  9
$DIMSCALE
 40
1.0
  9
$DIMASZ
 40
3.302
  9
$DIMEXO
 40
1.0
  9
$DIMDLI
 40
3.75
  9
$DIMRND
 40
0.0
  9
$DIMDLE
 40
0.0
  9
$DIMEXE
 40
1.0
  9
$DIMTP
 40
0.0
  9
$DIMTM
 40
0.0
  9
$DIMTXT
 40
3.5
  9
$DIMCEN
 40
2.5
  9
$DIMTSZ
 40
0.0
  9
$DIMTOL
 70
     0
  9
$DIMLIM
 70
     0
  9
$DIMTIH
 70
     1
  9
$DIMTOH
 70
     1
  9
$DIMSE1
 70
     0
  9
$DIMSE2
 70
     0
  9
$DIMTAD
 70
     1
  9
$DIMZIN
 70
     0
  9
$DIMBLK
  1

  9
$DIMASO
 70
     1
  9
$DIMSHO
 70
     1
  9
$DIMPOST
  1

  9
$DIMAPOST
  1

  9
$DIMALT
 70
     0
  9
$DIMALTD
 70
     3
  9
$DIMALTF
 40
0.0393700787401575
  9
$DIMLFAC
 40
1.0
  9
$DIMTOFL
 70
     1
  9
$DIMTVP
 40
0.0
  9
$DIMTIX
 70
     0
  9
$DIMSOXD
 70
     0
  9
$DIMSAH
 70
     0
  9
$DIMBLK1
  1

  9
$DIMBLK2
  1

  9
$DIMSTYLE
  2
ISO-25
  9
$DIMCLRD
 70
     0
  9
$DIMCLRE
 70
     0
  9
$DIMCLRT
 70
     0
  9
$DIMTFAC
 40
1.0
  9
$DIMGAP
 40
1.524
  9
$DIMJUST
 70
     0
  9
$DIMSD1
 70
     0
  9
$DIMSD2
 70
     0
  9
$DIMTOLJ
 70
     0
  9
$DIMTZIN
 70
     0
  9
$DIMALTZ
 70
     0
  9
$DIMALTTZ
 70
     0
  9
$DIMUPT
 70
     0
  9
$DIMDEC
 70
     2
  9
$DIMTDEC
 70
     2
  9
$DIMALTU
 70
     2
  9
$DIMALTTD
 70
     3
  9
$DIMTXSTY
  7
Standard
  9
$DIMAUNIT
 70
     0
  9
$DIMADEC
 70
     2
  9
$DIMALTRND
 40
0.0
  9
$DIMAZIN
 70
     0
  9
$DIMDSEP
 70
    44
  9
$DIMATFIT
 70
     3
  9
$DIMFRAC
 70
     0
  9
$DIMLDRBLK
  1

  9
$DIMLUNIT
 70
     2
  9
$DIMLWD
 70
    -2
  9
$DIMLWE
 70
    -2
  9
$DIMTMOVE
 70
     0
  9
$LUNITS
 70
     2
  9
$LUPREC
 70
     2
  9
$SKETCHINC
 40
1.0
  9
$FILLETRAD
 40
10.0
  9
$AUNITS
 70
     0
  9
$AUPREC
 70
     2
  9
$MENU
  1
.
  9
$ELEVATION
 40
0.0
  9
$PELEVATION
 40
0.0
  9
$THICKNESS
 40
0.0
  9
$LIMCHECK
 70
     0
  9
$CHAMFERA
 40
0.0
  9
$CHAMFERB
 40
0.0
  9
$CHAMFERC
 40
0.0
  9
$CHAMFERD
 40
0.0
  9
$SKPOLY
 70
     0
  9
$TDCREATE
 40
2458311.463473924
  9
$TDUCREATE
 40
2458311.088473924
  9
$TDUPDATE
 40
2458318.666642141
  9
$TDUUPDATE
 40
2458318.291642141
  9
$TDINDWG
 40
0.0010811806
  9
$TDUSRTIMER
 40
2458318.291506285
  9
$USRTIMER
 70
     1
  9
$ANGBASE
 50
0.0
  9
$ANGDIR
 70
     0
  9
$PDMODE
 70
     0
  9
$PDSIZE
 40
-1.0
  9
$PLINEWID
 40
0.0
  9
$SPLFRAME
 70
     0
  9
$SPLINETYPE
 70
     6
  9
$SPLINESEGS
 70
     8
  9
$HANDSEED
  5
21D
  9
$SURFTAB1
 70
     6
  9
$SURFTAB2
 70
     6
  9
$SURFTYPE
 70
     6
  9
$SURFU
 70
     6
  9
$SURFV
 70
     6
  9
$UCSBASE
  2

  9
$UCSNAME
  2

  9
$UCSORG
 10
0.0
 20
0.0
 30
0.0
  9
$UCSXDIR
 10
1.0
 20
0.0
 30
0.0
  9
$UCSYDIR
 10
0.0
 20
1.0
 30
0.0
  9
$UCSORTHOREF
  2

  9
$UCSORTHOVIEW
 70
     0
  9
$UCSORGTOP
 10
0.0
 20
0.0
 30
0.0
  9
$UCSORGBOTTOM
 10
0.0
 20
0.0
 30
0.0
  9
$UCSORGLEFT
 10
0.0
 20
0.0
 30
0.0
  9
$UCSORGRIGHT
 10
0.0
 20
0.0
 30
0.0
  9
$UCSORGFRONT
 10
0.0
 20
0.0
 30
0.0
  9
$UCSORGBACK
 10
0.0
 20
0.0
 30
0.0
  9
$PUCSBASE
  2

  9
$PUCSNAME
  2

  9
$PUCSORG
 10
0.0
 20
0.0
 30
0.0
  9
$PUCSXDIR
 10
1.0
 20
0.0
 30
0.0
  9
$PUCSYDIR
 10
0.0
 20
1.0
 30
0.0
  9
$PUCSORTHOREF
  2

  9
$PUCSORTHOVIEW
 70
     0
  9
$PUCSORGTOP
 10
0.0
 20
0.0
 30
0.0
  9
$PUCSORGBOTTOM
 10
0.0
 20
0.0
 30
0.0
  9
$PUCSORGLEFT
 10
0.0
 20
0.0
 30
0.0
  9
$PUCSORGRIGHT
 10
0.0
 20
0.0
 30
0.0
  9
$PUCSORGFRONT
 10
0.0
 20
0.0
 30
0.0
  9
$PUCSORGBACK
 10
0.0
 20
0.0
 30
0.0
  9
$USERI1
 70
     0
  9
$USERI2
 70
     0
  9
$USERI3
 70
     0
  9
$USERI4
 70
     0
  9
$USERI5
 70
     0
  9
$USERR1
 40
0.0
  9
$USERR2
 40
0.0
  9
$USERR3
 40
0.0
  9
$USERR4
 40
0.0
  9
$USERR5
 40
0.0
  9
$WORLDVIEW
 70
     1
  9
$SHADEDGE
 70
     3
  9
$SHADEDIF
 70
    70
  9
$TILEMODE
 70
     1
  9
$MAXACTVP
 70
    64
  9
$PINSBASE
 10
0.0
 20
0.0
 30
0.0
  9
$PLIMCHECK
 70
     0
  9
$PEXTMIN
 10
1.000000000000000E+20
 20
1.000000000000000E+20
 30
1.000000000000000E+20
  9
$PEXTMAX
 10
-1.000000000000000E+20
 20
-1.000000000000000E+20
 30
-1.000000000000000E+20
  9
$PLIMMIN
 10
0.0
 20
0.0
  9
$PLIMMAX
 10
0.0
 20
0.0
  9
$UNITMODE
 70
     0
  9
$VISRETAIN
 70
     1
  9
$PLINEGEN
 70
     0
  9
$PSLTSCALE
 70
     1
  9
$TREEDEPTH
 70
  3020
  9
$CMLSTYLE
  2
Standard
  9
$CMLJUST
 70
     0
  9
$CMLSCALE
 40
20.0
  9
$PROXYGRAPHICS
 70
     1
  9
$MEASUREMENT
 70
     1
  9
$CELWEIGHT
370
    -1
  9
$ENDCAPS
280
     0
  9
$JOINSTYLE
280
     0
  9
$LWDISPLAY
290
     1
  9
$INSUNITS
 70
     4
  9
$HYPERLINKBASE
  1

  9
$STYLESHEET
  1

  9
$XEDIT
290
     1
  9
$CEPSNTYPE
380
     0
  9
$PSTYLEMODE
290
     1
  9
$FINGERPRINTGUID
  2
{1447E056-D877-431F-96B8-5C4A72FF955D}
  9
$VERSIONGUID
  2
{FAEB1C32-E019-11D5-929B-00C0DF256EC4}
  9
$EXTNAMES
290
     1
  9
$PSVPSCALE
 40
0.0
  9
$OLESTARTUP
290
     0
  0
ENDSEC
  0
SECTION
  2
CLASSES
  0
CLASS
  1
ACDBDICTIONARYWDFLT
  2
AcDbDictionaryWithDefault
  3
ObjectDBX Classes
 90
        0
280
     0
281
     0
  0
CLASS
  1
VISUALSTYLE
  2
AcDbVisualStyle
  3
ObjectDBX Classes
 90
     4095
280
     0
281
     0
  0
CLASS
  1
MATERIAL
  2
AcDbMaterial
  3
ObjectDBX Classes
 90
     1153
280
     0
281
     0
  0
CLASS
  1
SCALE
  2
AcDbScale
  3
ObjectDBX Classes
 90
     1153
280
     0
281
     0
  0
CLASS
  1
SUN
  2
AcDbSun
  3
SCENEOE
 90
     1153
280
     0
281
     0
  0
CLASS
  1
ACDBPLACEHOLDER
  2
AcDbPlaceHolder
  3
ObjectDBX Classes
 90
        0
280
     0
281
     0
  0
CLASS
  1
LAYOUT
  2
AcDbLayout
  3
ObjectDBX Classes
 90
        0
280
     0
281
     0
  0
CLASS
  1
TABLESTYLE
  2
AcDbTableStyle
  3
ObjectDBX Classes
 90
     4095
280
     0
281
     0
  0
CLASS
  1
MLEADERSTYLE
  2
AcDbMLeaderStyle
  3
ACDB_MLEADERSTYLE_CLASS
 90
     4095
280
     0
281
     0
  0
CLASS
  1
RASTERVARIABLES
  2
AcDbRasterVariables
  3
ISM
 90
        0
280
     0
281
     0
  0
ENDSEC
  0
SECTION
  2
TABLES
  0
TABLE
  2
VPORT
  5
8
330
0
100
AcDbSymbolTable
 70
     1
  0
VPORT
  5
29
330
8
100
AcDbSymbolTableRecord
100
AcDbViewportTableRecord
  2
*Active
 70
     0
 10
0.0
 20
0.0
 11
1.0
 21
1.0
 12
-15.43115245623695
 22
-19.14214683119334
 13
0.0
 23
0.0
 14
10.0
 24
10.0
 15
10.0
 25
10.0
 16
0.0
 26
0.0
 36
1.0
 17
0.0
 27
0.0
 37
0.0
 40
131.8173662841164
 41
1.740812379110251
 42
50.0
 43
0.0
 44
0.0
 50
0.0
 51
0.0
 71
    16
 72
  2000
 73
     1
 74
     3
 75
     0
 76
     0
 77
     0
 78
     0
281
     0
 65
     1
110
0.0
120
0.0
130
0.0
111
1.0
121
0.0
131
0.0
112
0.0
122
1.0
132
0.0
 79
     0
146
0.0
  0
ENDTAB
  0
TABLE
  2
LTYPE
  5
5
330
0
100
AcDbSymbolTable
 70
     6
  0
LTYPE
  5
14
330
5
100
AcDbSymbolTableRecord
100
AcDbLinetypeTableRecord
  2
ByBlock
 70
     0
  3

 72
    65
 73
     0
 40
0.0
  0
LTYPE
  5
15
330
5
100
AcDbSymbolTableRecord
100
AcDbLinetypeTableRecord
  2
ByLayer
 70
     0
  3

 72
    65
 73
     0
 40
0.0
  0
LTYPE
  5
16
330
5
100
AcDbSymbolTableRecord
100
AcDbLinetypeTableRecord
  2
Continuous
 70
     0
  3
Solid line
 72
    65
 73
     0
 40
0.0
  0
LTYPE
  5
6A
330
5
100
AcDbSymbolTableRecord
100
AcDbLinetypeTableRecord
  2
HIDDEN
 70
     0
  3
Hidden __ __ __ __ __ __ __ __ __ __ __ __ __ __
 72
    65
 73
     2
 40
1.905
 49
1.27
 74
     0
 49
-0.635
 74
     0
  0
LTYPE
  5
6B
330
5
100
AcDbSymbolTableRecord
100
AcDbLinetypeTableRecord
  2
PHANTOM
 70
     0
  3
Phantom ______  __  __  ______  __  __  ______
 72
    65
 73
     6
 40
12.7
 49
6.35
 74
     0
 49
-1.27
 74
     0
 49
1.27
 74
     0
 49
-1.27
 74
     0
 49
1.27
 74
     0
 49
-1.27
 74
     0
  0
LTYPE
  5
6C
330
5
100
AcDbSymbolTableRecord
100
AcDbLinetypeTableRecord
  2
CENTER
 70
     0
  3
Center ____ _ ____ _ ____ _ ____ _ ____ _ ____
 72
    65
 73
     4
 40
10.16
 49
6.35
 74
     0
 49
-1.27
 74
     0
 49
1.27
 74
     0
 49
-1.27
 74
     0
  0
LTYPE
  5
6D
330
5
100
AcDbSymbolTableRecord
100
AcDbLinetypeTableRecord
  2
CENTERX2
 70
     0
  3
Center (2x) ________  __  ________  __  _____
 72
    65
 73
     4
 40
20.32
 49
12.7
 74
     0
 49
-2.54
 74
     0
 49
2.54
 74
     0
 49
-2.54
 74
     0
  0
LTYPE
  5
6E
330
5
100
AcDbSymbolTableRecord
100
AcDbLinetypeTableRecord
  2
DOT2
 70
     0
  3
Dot (.5x) ........................................
 72
    65
 73
     2
 40
0.635
 49
0.0
 74
     0
 49
-0.635
 74
     0
  0
ENDTAB
  0
TABLE
  2
LAYER
  5
2
102
{ACAD_XDICTIONARY
360
17C
102
}
330
0
100
AcDbSymbolTable
 70
    18
  0
LAYER
  5
10
330
2
100
AcDbSymbolTableRecord
100
AcDbLayerTableRecord
  2
0
 70
     0
 62
     7
  6
Continuous
370
    -3
390
F
  0
LAYER
  5
6F
330
2
100
AcDbSymbolTableRecord
100
AcDbLayerTableRecord
  2
FORMAT
 70
     0
 62
     2
  6
Continuous
370
    -3
390
F
  0
LAYER
  5
70
330
2
100
AcDbSymbolTableRecord
100
AcDbLayerTableRecord
  2
외형선
 70
     0
 62
     4
  6
Continuous
370
    30
390
F
  0
LAYER
  5
71
330
2
100
AcDbSymbolTableRecord
100
AcDbLayerTableRecord
  2
숨은선
 70
     0
 62
     2
  6
HIDDEN
370
    15
390
F
  0
LAYER
  5
72
330
2
100
AcDbSymbolTableRecord
100
AcDbLayerTableRecord
  2
중심선
 70
     0
 62
     1
  6
CENTERX2
370
    -3
390
F
  0
LAYER
  5
73
330
2
100
AcDbSymbolTableRecord
100
AcDbLayerTableRecord
  2
파단선
 70
     0
 62
     4
  6
Continuous
370
    -3
390
F
  0
LAYER
  5
74
330
2
100
AcDbSymbolTableRecord
100
AcDbLayerTableRecord
  2
해칭선
 70
     0
 62
   100
  6
Continuous
370
    -3
390
F
  0
LAYER
  5
75
330
2
100
AcDbSymbolTableRecord
100
AcDbLayerTableRecord
  2
가는실선
 70
     0
 62
     4
  6
Continuous
370
    -3
390
F
  0
LAYER
  5
76
330
2
100
AcDbSymbolTableRecord
100
AcDbLayerTableRecord
  2
치수_보조선
 70
     0
 62
     4
  6
Continuous
370
    -3
390
F
  0
LAYER
  5
77
330
2
100
AcDbSymbolTableRecord
100
AcDbLayerTableRecord
  2
치수문자_일반주서
 70
     0
 62
     7
  6
Continuous
370
    15
390
F
  0
LAYER
  5
78
330
2
100
AcDbSymbolTableRecord
100
AcDbLayerTableRecord
  2
개별주서
 70
     0
 62
   100
  6
Continuous
370
    30
390
F
  0
LAYER
  5
79
330
2
100
AcDbSymbolTableRecord
100
AcDbLayerTableRecord
  2
중간선
 70
     0
 62
     2
  6
Continuous
370
    15
390
F
  0
LAYER
  5
7A
330
2
100
AcDbSymbolTableRecord
100
AcDbLayerTableRecord
  2
윤곽선
 70
     0
 62
     3
  6
Continuous
370
    40
390
F
  0
LAYER
  5
7B
330
2
100
AcDbSymbolTableRecord
100
AcDbLayerTableRecord
  2
중심마크
 70
     0
 62
   100
  6
Continuous
370
    30
390
F
  0
LAYER
  5
7C
330
2
100
AcDbSymbolTableRecord
100
AcDbLayerTableRecord
  2
가상선
 70
     0
 62
     4
  6
PHANTOM
370
    -3
390
F
  0
LAYER
  5
7D
330
2
100
AcDbSymbolTableRecord
100
AcDbLayerTableRecord
  2
특수지정선
 70
     0
 62
     5
  6
CENTERX2
370
    60
390
F
  0
LAYER
  5
7E
330
2
100
AcDbSymbolTableRecord
100
AcDbLayerTableRecord
  2
참조1
 70
     0
 62
    -4
  6
Continuous
370
    -3
390
F
  0
LAYER
  5
1B0
330
2
100
AcDbSymbolTableRecord
100
AcDbLayerTableRecord
  2
Defpoints
 70
     0
 62
     7
  6
Continuous
290
     0
370
    -3
390
F
  0
ENDTAB
  0
TABLE
  2
STYLE
  5
3
330
0
100
AcDbSymbolTable
 70
     2
  0
STYLE
  5
11
330
3
100
AcDbSymbolTableRecord
100
AcDbTextStyleTableRecord
  2
Standard
 70
     0
 40
0.0
 41
1.0
 50
0.0
 71
     0
 42
3.5
  3
txt
  4

  0
STYLE
  5
94
330
3
100
AcDbSymbolTableRecord
100
AcDbTextStyleTableRecord
  2
SLDTEXTSTYLE0
 70
     0
 40
0.0
 41
0.75
 50
0.0
 71
     0
 42
3.5
  3
TXT
  4

  0
ENDTAB
  0
TABLE
  2
VIEW
  5
6
330
0
100
AcDbSymbolTable
 70
     0
  0
ENDTAB
  0
TABLE
  2
UCS
  5
7
330
0
100
AcDbSymbolTable
 70
     0
  0
ENDTAB
  0
TABLE
  2
APPID
  5
9
330
0
100
AcDbSymbolTable
 70
     1
  0
APPID
  5
12
330
9
100
AcDbSymbolTableRecord
100
AcDbRegAppTableRecord
  2
ACAD
 70
     0
  0
ENDTAB
  0
TABLE
  2
DIMSTYLE
  5
A
330
0
100
AcDbSymbolTable
 70
     3
100
AcDbDimStyleTable
  0
DIMSTYLE
105
27
330
A
100
AcDbSymbolTableRecord
100
AcDbDimStyleTableRecord
  2
ISO-25
 70
     0
 41
2.5
 42
0.625
 43
3.75
 44
1.25
 73
     0
 74
     0
 77
     1
 78
     8
140
2.5
141
2.5
143
0.03937007874016
147
0.625
171
     3
172
     1
178
     0
271
     2
272
     2
274
     3
278
    44
283
     0
284
     8
340
11
  0
DIMSTYLE
105
D5
102
{ACAD_REACTORS
330
D4
330
E9
330
FE
330
111
102
}
330
A
100
AcDbSymbolTableRecord
100
AcDbDimStyleTableRecord
  2
SLDDIMSTYLE0
 70
     0
 41
3.302
 44
0.0
 45
0.000000001
 73
     0
 74
     0
 77
     1
 78
     4
 79
     1
140
3.5
143
0.0393700787401575
147
0.875
148
0.000000001
170
     1
172
     1
173
     1
178
     0
271
     2
272
     2
276
     2
284
    12
289
     0
340
94
  0
DIMSTYLE
105
EA
330
A
100
AcDbSymbolTableRecord
100
AcDbDimStyleTableRecord
  2
SLDDIMSTYLE1
 70
     0
 41
3.302
 44
0.0
 45
0.000000001
 73
     0
 74
     0
 77
     1
 78
    12
 79
     3
140
3.5
143
0.0393700787401575
147
0.875
148
0.000000001
170
     1
173
     1
178
     0
271
     2
272
     2
276
     2
284
    12
340
94
  0
ENDTAB
  0
TABLE
  2
BLOCK_RECORD
  5
1
330
0
100
AcDbSymbolTable
 70
     8
  0
BLOCK_RECORD
  5
1F
330
1
100
AcDbSymbolTableRecord
100
AcDbBlockTableRecord
  2
*Model_Space
340
22
  0
BLOCK_RECORD
  5
1B
330
1
100
AcDbSymbolTableRecord
100
AcDbBlockTableRecord
  2
*Paper_Space
340
1E
  0
BLOCK_RECORD
  5
23
330
1
100
AcDbSymbolTableRecord
100
AcDbBlockTableRecord
  2
*Paper_Space0
340
26
  0
BLOCK_RECORD
  5
7F
330
1
100
AcDbSymbolTableRecord
100
AcDbBlockTableRecord
  2
블럭10
340
0
102
{BLKREFS
331
CD
102
}
  0
BLOCK_RECORD
  5
D6
330
1
100
AcDbSymbolTableRecord
100
AcDbBlockTableRecord
  2
_D
340
0
  0
BLOCK_RECORD
  5
EB
330
1
100
AcDbSymbolTableRecord
100
AcDbBlockTableRecord
  2
_D_1
340
0
  0
BLOCK_RECORD
  5
FF
330
1
100
AcDbSymbolTableRecord
100
AcDbBlockTableRecord
  2
_D_2
340
0
  0
BLOCK_RECORD
  5
112
330
1
100
AcDbSymbolTableRecord
100
AcDbBlockTableRecord
  2
_D_3
340
0
  0
BLOCK_RECORD
  5
12B
330
1
100
AcDbSymbolTableRecord
100
AcDbBlockTableRecord
  2
SW_DOWELSYMBOL_0
340
0
102
{BLKREFS
331
131
102
}
  0
ENDTAB
  0
ENDSEC
  0
SECTION
  2
BLOCKS
  0
BLOCK
  5
20
330
1F
100
AcDbEntity
  8
0
100
AcDbBlockBegin
  2
*Model_Space
 70
     0
 10
0.0
 20
0.0
 30
0.0
  3
*Model_Space
  1
*Model_Space
  0
ENDBLK
  5
21
330
1F
100
AcDbEntity
  8
0
100
AcDbBlockEnd
  0
BLOCK
  5
1C
330
1B
100
AcDbEntity
 67
     1
  8
0
100
AcDbBlockBegin
  2
*Paper_Space
 70
     0
 10
0.0
 20
0.0
 30
0.0
  3
*Paper_Space
  1
*Paper_Space
  0
ENDBLK
  5
1D
330
1B
100
AcDbEntity
 67
     1
  8
0
100
AcDbBlockEnd
  0
BLOCK
  5
24
330
23
100
AcDbEntity
  8
0
100
AcDbBlockBegin
  2
*Paper_Space0
 70
     0
 10
0.0
 20
0.0
 30
0.0
  3
*Paper_Space0
  1
*Paper_Space0
  0
ENDBLK
  5
25
330
23
100
AcDbEntity
  8
0
100
AcDbBlockEnd
  0
BLOCK
  5
80
330
7F
100
AcDbEntity
  8
0
100
AcDbBlockBegin
  2
블럭10
 70
     2
 10
0.0
 20
0.0
 30
0.0
  3
블럭10
  1
블럭10
  0
ELLIPSE
  5
82
330
7F
100
AcDbEntity
  8
중심선
100
AcDbEllipse
 10
20.54032771741204
 20
12.0471743016438
 30
0.0
 11
6.600054785286829
 21
-1.261213355974178E-13
 31
0.0
210
0.0
220
0.0
230
1.0
 40
0.636358354079598
 41
0.9219305317359503
 42
6.513795318482858
  0
ELLIPSE
  5
83
330
7F
100
AcDbEntity
  8
중심선
100
AcDbEllipse
 10
20.54032771746488
 20
12.04717430159265
 30
0.0
 11
3.960054785062283
 21
1.540847449632565E-10
 31
0.0
210
0.0
220
0.0
230
1.0
 40
0.3939339440162632
 41
1.131841032648279
 42
5.62031148352944
  0
LINE
  5
84
330
7F
100
AcDbEntity
  8
중심선
100
AcDbLine
 10
2.268634060543552
 20
16.24717430164393
 30
0.0
 11
5.714909304380834
 21
16.24717430164393
 31
0.0
  0
LINE
  5
85
330
7F
100
AcDbEntity
  8
중심선
100
AcDbLine
 10
5.245725140726316
 20
7.84717430164391
 30
0.0
 11
8.692000384563599
 21
7.84717430164391
 31
0.0
  0
LINE
  5
86
330
7F
100
AcDbEntity
  8
중심선
100
AcDbLine
 10
15.74043728645272
 20
16.24717430164393
 30
0.0
 11
8.692000384563599
 21
7.84717430164391
 31
0.0
  0
LINE
  5
87
330
7F
100
AcDbEntity
  8
중심선
100
AcDbLine
 10
0.1404042013395286
 20
13.71084872107135
 30
0.0
 11
3.58671253028996
 21
13.71088815037384
 31
0.0
  0
LINE
  5
88
330
7F
100
AcDbEntity
  8
중심선
100
AcDbLine
 10
2.750260043222114
 20
10.84717430164391
 30
0.0
 11
6.196535287059397
 21
10.84717430164391
 31
0.0
  0
LINE
  5
89
330
7F
100
AcDbEntity
  8
중심선
100
AcDbLine
 10
12.29416204261559
 20
16.24717430164393
 30
0.0
 11
5.245725140726316
 21
7.84717430164391
 31
0.0
  0
LINE
  5
8A
330
7F
100
AcDbEntity
  8
중심선
100
AcDbLine
 10
10.72767329541681
 20
16.24717430164393
 30
0.0
 11
6.196535287059397
 21
10.84717430164391
 31
0.0
  0
LINE
  5
8B
330
7F
100
AcDbEntity
  8
중심선
100
AcDbLine
 10
7.28139805157953
 20
16.24717430164393
 30
0.0
 11
2.750260043222114
 21
10.84717430164391
 31
0.0
  0
LINE
  5
8C
330
7F
100
AcDbEntity
  8
중심선
100
AcDbLine
 10
5.714909304380834
 20
16.24717430164393
 30
0.0
 11
3.58671253028996
 21
13.71088815037384
 31
0.0
  0
LINE
  5
8D
330
7F
100
AcDbEntity
  8
중심선
100
AcDbLine
 10
2.268634060543552
 20
16.24717430164393
 30
0.0
 11
0.1404042013395286
 21
13.71084872107135
 31
0.0
  0
LINE
  5
8E
330
7F
100
AcDbEntity
  8
중심선
100
AcDbLine
 10
7.28139805157953
 20
16.24717430164393
 30
0.0
 11
10.72767329541681
 21
16.24717430164393
 31
0.0
  0
LINE
  5
8F
330
7F
100
AcDbEntity
  8
중심선
100
AcDbLine
 10
12.29416204261559
 20
16.24717430164393
 30
0.0
 11
15.74043728645272
 21
16.24717430164393
 31
0.0
  0
LINE
  5
90
330
7F
100
AcDbEntity
  8
중심선
100
AcDbLine
 10
19.22036997980202
 20
11.08717430171403
 30
0.0
 11
23.66174974927406
 21
11.08717430171406
 31
0.0
  0
LINE
  5
91
330
7F
100
AcDbEntity
  8
중심선
100
AcDbLine
 10
19.22039502424796
 20
13.00717430171391
 30
0.0
 11
19.22036997980202
 21
11.08717430171403
 31
0.0
  0
LINE
  5
92
330
7F
100
AcDbEntity
  8
중심선
100
AcDbLine
 10
19.22039502424796
 20
13.00717430171391
 30
0.0
 11
26.96566020931264
 21
13.00717430171391
 31
0.0
  0
LINE
  5
93
330
7F
100
AcDbEntity
  8
중심선
100
AcDbLine
 10
22.22332737316547
 20
13.45928029700563
 30
0.0
 11
24.52862924686651
 21
15.39360700705356
 31
0.0
  0
ATTDEF
  5
95
330
7F
100
AcDbEntity
  8
FORMAT
 62
     2
100
AcDbText
 10
4.408487351596664
 20
2.075366912832191
 30
0.0
 40
4.233333333333333
  1
E1070032
 41
0.75
  7
SLDTEXTSTYLE0
 11
4.408487351596664
 21
-0.0412997538344756
 31
0.0
100
AcDbAttributeDefinition
  3

  2
AUTOATTR0
 70
     0
 74
     1
  0
ENDBLK
  5
81
330
7F
100
AcDbEntity
  8
0
100
AcDbBlockEnd
  0
BLOCK
  5
D7
330
D6
100
AcDbEntity
  8
0
100
AcDbBlockBegin
  2
_D
 70
     0
 10
0.0
 20
0.0
 30
0.0
  3
_D
  1
_D
  0
LINE
  5
D9
330
D6
100
AcDbEntity
  8
치수문자_일반주서
 62
     0
370
    -2
100
AcDbLine
 10
-37.86249999999997
 20
6.349999999999994
 30
0.0
 11
-51.3
 21
6.349999999999944
 31
0.0
  0
LINE
  5
DA
330
D6
100
AcDbEntity
  8
치수문자_일반주서
 62
     0
370
    -2
100
AcDbLine
 10
-37.86249999999997
 20
-6.349999999999994
 30
0.0
 11
-51.29999999999996
 21
-6.350000000000045
 31
0.0
  0
LINE
  5
DB
330
D6
100
AcDbEntity
  8
치수문자_일반주서
 62
     0
370
    -2
100
AcDbLine
 10
-51.29999999999999
 20
3.047999999999944
 30
0.0
 11
-51.29999999999998
 21
-3.048000000000045
 31
0.0
  0
SOLID
  5
DC
330
D6
100
AcDbEntity
  8
치수문자_일반주서
 62
     0
100
AcDbTrace
 10
-50.74966666666666
 20
3.047999999999946
 30
0.0
 11
-51.85033333333332
 21
3.047999999999942
 31
0.0
 12
-51.3
 22
6.349999999999944
 32
0.0
 13
-51.3
 23
6.349999999999944
 33
0.0
  0
SOLID
  5
DD
330
D6
100
AcDbEntity
  8
치수문자_일반주서
 62
     0
100
AcDbTrace
 10
-51.85033333333331
 20
-3.048000000000047
 30
0.0
 11
-50.74966666666664
 21
-3.048000000000044
 31
0.0
 12
-51.29999999999996
 22
-6.350000000000045
 32
0.0
 13
-51.29999999999996
 23
-6.350000000000045
 33
0.0
  0
MTEXT
  5
DE
330
D6
100
AcDbEntity
  8
치수문자_일반주서
 62
     0
100
AcDbMText
 10
-55.67499999999998
 20
-0.000000000000016
 30
0.0
 40
3.5
 41
0.0
 71
     2
 72
     1
  1
\A1;%%c12.70 [1/2]
  7
SLDTEXTSTYLE0
 11
-3.356894814614650E-15
 21
1.0
 31
0.0
 73
     1
 44
1.0
  0
POINT
  5
DF
330
D6
100
AcDbEntity
  8
Defpoints
 62
     0
100
AcDbPoint
 10
-37.79999999999997
 20
6.349999999999994
 30
0.0
  0
POINT
  5
E0
330
D6
100
AcDbEntity
  8
Defpoints
 62
     0
100
AcDbPoint
 10
-37.79999999999997
 20
-6.349999999999994
 30
0.0
  0
POINT
  5
E1
330
D6
100
AcDbEntity
  8
Defpoints
 62
     0
100
AcDbPoint
 10
-51.29999999999996
 20
-6.350000000000045
 30
0.0
  0
ENDBLK
  5
D8
330
D6
100
AcDbEntity
  8
0
100
AcDbBlockEnd
  0
BLOCK
  5
EC
330
EB
100
AcDbEntity
  8
0
100
AcDbBlockBegin
  2
_D_1
 70
     0
 10
0.0
 20
0.0
 30
0.0
  3
_D_1
  1
_D_1
  0
LINE
  5
EE
330
EB
100
AcDbEntity
  8
치수문자_일반주서
 62
     0
370
    -2
100
AcDbLine
 10
43.75000000000006
 20
6.407133076708242
 30
0.0
 11
43.75000000000006
 21
18.97064147419784
 31
0.0
  0
LINE
  5
EF
330
EB
100
AcDbEntity
  8
치수문자_일반주서
 62
     0
370
    -2
100
AcDbLine
 10
12.00000000000004
 20
6.4125
 30
0.0
 11
12.00000000000004
 21
18.97064147419784
 31
0.0
  0
LINE
  5
F0
330
EB
100
AcDbEntity
  8
치수문자_일반주서
 62
     0
370
    -2
100
AcDbLine
 10
12.00000000000004
 20
18.97064147419784
 30
0.0
 11
-23.47899999999996
 21
18.97064147419784
 31
0.0
  0
LINE
  5
F1
330
EB
100
AcDbEntity
  8
치수문자_일반주서
 62
     0
370
    -2
100
AcDbLine
 10
43.75000000000006
 20
18.97064147419784
 30
0.0
 11
12.00000000000004
 21
18.97064147419784
 31
0.0
  0
LINE
  5
F2
330
EB
100
AcDbEntity
  8
치수문자_일반주서
 62
     0
370
    -2
100
AcDbLine
 10
47.05200000000006
 20
18.97064147419784
 30
0.0
 11
50.35400000000006
 21
18.97064147419784
 31
0.0
  0
LINE
  5
F3
330
EB
100
AcDbEntity
  8
치수문자_일반주서
 62
     0
370
    -2
100
AcDbLine
 10
8.698000000000041
 20
18.97064147419784
 30
0.0
 11
5.396000000000042
 21
18.97064147419784
 31
0.0
  0
SOLID
  5
F4
330
EB
100
AcDbEntity
  8
치수문자_일반주서
 62
     0
100
AcDbTrace
 10
47.05200000000006
 20
19.52097480753118
 30
0.0
 11
47.05200000000006
 21
18.42030814086451
 31
0.0
 12
43.75000000000006
 22
18.97064147419784
 32
0.0
 13
43.75000000000006
 23
18.97064147419784
 33
0.0
  0
SOLID
  5
F5
330
EB
100
AcDbEntity
  8
치수문자_일반주서
 62
     0
100
AcDbTrace
 10
8.698000000000041
 20
18.42030814086451
 30
0.0
 11
8.698000000000041
 21
19.52097480753118
 31
0.0
 12
12.00000000000004
 22
18.97064147419784
 32
0.0
 13
12.00000000000004
 23
18.97064147419784
 33
0.0
  0
MTEXT
  5
F6
330
EB
100
AcDbEntity
  8
치수문자_일반주서
 62
     0
100
AcDbMText
 10
-9.041499999999958
 20
23.34564147419784
 30
0.0
 40
3.5
 41
0.0
 71
     2
 72
     1
  1
\A1;31.75 [1 1/4]
  7
SLDTEXTSTYLE0
 73
     1
 44
1.0
  0
POINT
  5
F7
330
EB
100
AcDbEntity
  8
Defpoints
 62
     0
100
AcDbPoint
 10
43.75000000000006
 20
6.344633076708242
 30
0.0
  0
POINT
  5
1B1
330
EB
100
AcDbEntity
  8
Defpoints
 62
     0
100
AcDbPoint
 10
12.00000000000004
 20
6.35
 30
0.0
  0
POINT
  5
1B2
330
EB
100
AcDbEntity
  8
Defpoints
 62
     0
100
AcDbPoint
 10
12.00000000000004
 20
18.97064147419784
 30
0.0
  0
ENDBLK
  5
ED
330
EB
100
AcDbEntity
  8
0
100
AcDbBlockEnd
  0
BLOCK
  5
100
330
FF
100
AcDbEntity
  8
0
100
AcDbBlockBegin
  2
_D_2
 70
     0
 10
0.0
 20
0.0
 30
0.0
  3
_D_2
  1
_D_2
  0
LINE
  5
102
330
FF
100
AcDbEntity
  8
치수문자_일반주서
 62
     0
370
    -2
100
AcDbLine
 10
43.75000000000004
 20
6.407133076708242
 30
0.0
 11
43.75000000000004
 21
36.55130408500667
 31
0.0
  0
LINE
  5
103
330
FF
100
AcDbEntity
  8
치수문자_일반주서
 62
     0
370
    -2
100
AcDbLine
 10
-38.79999999999995
 20
5.412499999999993
 30
0.0
 11
-38.79999999999995
 21
36.55130408500667
 31
0.0
  0
LINE
  5
104
330
FF
100
AcDbEntity
  8
치수문자_일반주서
 62
     0
370
    -2
100
AcDbLine
 10
40.44800000000004
 20
36.55130408500667
 30
0.0
 11
-35.49799999999995
 21
36.55130408500667
 31
0.0
  0
SOLID
  5
105
330
FF
100
AcDbEntity
  8
치수문자_일반주서
 62
     0
100
AcDbTrace
 10
40.44800000000004
 20
36.00097075167334
 30
0.0
 11
40.44800000000004
 21
37.10163741834
 31
0.0
 12
43.75000000000004
 22
36.55130408500667
 32
0.0
 13
43.75000000000004
 23
36.55130408500667
 33
0.0
  0
SOLID
  5
106
330
FF
100
AcDbEntity
  8
치수문자_일반주서
 62
     0
100
AcDbTrace
 10
-35.49799999999995
 20
37.10163741834
 30
0.0
 11
-35.49799999999995
 21
36.00097075167334
 31
0.0
 12
-38.79999999999995
 22
36.55130408500667
 32
0.0
 13
-38.79999999999995
 23
36.55130408500667
 33
0.0
  0
MTEXT
  5
107
330
FF
100
AcDbEntity
  8
치수문자_일반주서
 62
     0
100
AcDbMText
 10
2.474999999999902
 20
40.92630408500667
 30
0.0
 40
3.5
 41
0.0
 71
     2
 72
     1
  1
\A1;82.55 [3 1/4]
  7
SLDTEXTSTYLE0
 73
     1
 44
1.0
  0
POINT
  5
108
330
FF
100
AcDbEntity
  8
Defpoints
 62
     0
100
AcDbPoint
 10
43.75000000000004
 20
6.344633076708242
 30
0.0
  0
POINT
  5
109
330
FF
100
AcDbEntity
  8
Defpoints
 62
     0
100
AcDbPoint
 10
-38.79999999999995
 20
5.349999999999993
 30
0.0
  0
POINT
  5
10A
330
FF
100
AcDbEntity
  8
Defpoints
 62
     0
100
AcDbPoint
 10
-38.79999999999995
 20
36.55130408500667
 30
0.0
  0
ENDBLK
  5
101
330
FF
100
AcDbEntity
  8
0
100
AcDbBlockEnd
  0
BLOCK
  5
113
330
112
100
AcDbEntity
  8
0
100
AcDbBlockBegin
  2
_D_3
 70
     0
 10
0.0
 20
0.0
 30
0.0
  3
_D_3
  1
_D_3
  0
LINE
  5
115
330
112
100
AcDbEntity
  8
치수문자_일반주서
 62
     0
370
    -2
100
AcDbLine
 10
43.81250000000006
 20
-6.35
 30
0.0
 11
67.21227144598305
 21
-6.349999999999913
 31
0.0
  0
LINE
  5
116
330
112
100
AcDbEntity
  8
치수문자_일반주서
 62
     0
370
    -2
100
AcDbLine
 10
43.81249999999969
 20
6.350000000000005
 30
0.0
 11
67.212271445983
 21
6.350000000000094
 31
0.0
  0
LINE
  5
117
330
112
100
AcDbEntity
  8
치수문자_일반주서
 62
     0
370
    -2
100
AcDbLine
 10
67.212271445983
 20
6.350000000000094
 30
0.0
 11
67.21227144598289
 21
41.82949173477135
 31
0.0
  0
LINE
  5
118
330
112
100
AcDbEntity
  8
치수문자_일반주서
 62
     0
370
    -2
100
AcDbLine
 10
67.21227144598305
 20
-6.349999999999913
 30
0.0
 11
67.212271445983
 21
6.350000000000094
 31
0.0
  0
LINE
  5
119
330
112
100
AcDbEntity
  8
치수문자_일반주서
 62
     0
370
    -2
100
AcDbLine
 10
67.21227144598306
 20
-9.651999999999912
 30
0.0
 11
67.21227144598308
 21
-12.95399999999991
 31
0.0
  0
LINE
  5
11A
330
112
100
AcDbEntity
  8
치수문자_일반주서
 62
     0
370
    -2
100
AcDbLine
 10
67.21227144598299
 20
9.652000000000093
 30
0.0
 11
67.21227144598298
 21
12.95400000000009
 31
0.0
  0
SOLID
  5
11B
330
112
100
AcDbEntity
  8
치수문자_일반주서
 62
     0
100
AcDbTrace
 10
67.76260477931639
 20
-9.65199999999991
 30
0.0
 11
66.66193811264974
 21
-9.651999999999914
 31
0.0
 12
67.21227144598305
 22
-6.349999999999913
 32
0.0
 13
67.21227144598305
 23
-6.349999999999913
 33
0.0
  0
SOLID
  5
11C
330
112
100
AcDbEntity
  8
치수문자_일반주서
 62
     0
100
AcDbTrace
 10
66.66193811264966
 20
9.652000000000092
 30
0.0
 11
67.76260477931632
 21
9.652000000000095
 31
0.0
 12
67.212271445983
 22
6.350000000000094
 32
0.0
 13
67.212271445983
 23
6.350000000000094
 33
0.0
  0
MTEXT
  5
11D
330
112
100
AcDbEntity
  8
치수문자_일반주서
 62
     0
100
AcDbMText
 10
62.83727144598294
 20
28.48574173477134
 30
0.0
 40
3.5
 41
0.0
 71
     2
 72
     1
  1
\A1;%%c12.70 [1/2]
  7
SLDTEXTSTYLE0
 11
-3.356894814614645E-15
 21
1.0
 31
0.0
 73
     1
 44
1.0
  0
POINT
  5
11E
330
112
100
AcDbEntity
  8
Defpoints
 62
     0
100
AcDbPoint
 10
43.75000000000006
 20
-6.35
 30
0.0
  0
POINT
  5
1B3
330
112
100
AcDbEntity
  8
Defpoints
 62
     0
100
AcDbPoint
 10
43.74999999999969
 20
6.350000000000005
 30
0.0
  0
POINT
  5
1B4
330
112
100
AcDbEntity
  8
Defpoints
 62
     0
100
AcDbPoint
 10
67.212271445983
 20
6.350000000000093
 30
0.0
  0
ENDBLK
  5
114
330
112
100
AcDbEntity
  8
0
100
AcDbBlockEnd
  0
BLOCK
  5
12C
330
12B
100
AcDbEntity
  8
0
100
AcDbBlockBegin
  2
SW_DOWELSYMBOL_0
 70
     0
 10
0.0
 20
0.0
 30
0.0
  3
SW_DOWELSYMBOL_0
  1
SW_DOWELSYMBOL_0
  0
CIRCLE
  5
12E
330
12B
100
AcDbEntity
  8
해칭선
 62
     0
100
AcDbCircle
 10
0.0
 20
0.0
 30
0.0
 40
2.999999999999996
  0
HATCH
  5
12F
330
12B
100
AcDbEntity
  8
0
  6
Continuous
 62
     0
370
     0
100
AcDbHatch
 10
0.0
 20
0.0
 30
0.0
210
0.0
220
0.0
230
1.0
  2
SOLID
 70
     1
 71
     0
 91
        1
 92
        0
 93
        3
 72
     2
 10
0.0
 20
0.0
 40
2.999999999999996
 50
0.0
 51
90.0
 73
     1
 72
     1
 10
0.0
 20
2.999999999999996
 11
0.0
 21
0.0
 72
     1
 10
0.0
 20
0.0
 11
2.999999999999996
 21
0.0
 97
        0
 75
     0
 76
     1
 98
        1
 10
0.0
 20
0.0
  0
HATCH
  5
130
330
12B
100
AcDbEntity
  8
0
  6
Continuous
 62
     0
370
     0
100
AcDbHatch
 10
0.0
 20
0.0
 30
0.0
210
0.0
220
0.0
230
1.0
  2
SOLID
 70
     1
 71
     0
 91
        1
 92
        0
 93
        3
 72
     2
 10
0.0
 20
0.0
 40
2.999999999999996
 50
180.0
 51
270.0000000000007
 73
     1
 72
     1
 10
0.0
 20
-2.999999999999996
 11
0.0
 21
0.0
 72
     1
 10
0.0
 20
0.0
 11
-2.999999999999996
 21
0.0
 97
        0
 75
     0
 76
     1
 98
        1
 10
0.0
 20
0.0
  0
ENDBLK
  5
12D
330
12B
100
AcDbEntity
  8
0
100
AcDbBlockEnd
  0
ENDSEC
  0
SECTION
  2
ENTITIES
  0
LINE
  5
96
330
1F
100
AcDbEntity
  8
외형선
  6
Continuous
370
    15
100
AcDbLine
 10
12.00000000000004
 20
6.35
 30
0.0
 11
-9.066124999999944
 21
6.349999999999999
 31
0.0
  0
LINE
  5
97
330
1F
100
AcDbEntity
  8
외형선
  6
Continuous
370
    15
100
AcDbLine
 10
-37.79999999999995
 20
-6.350000000000001
 30
0.0
 11
12.00000000000004
 21
-6.35
 31
0.0
  0
LINE
  5
98
330
1F
100
AcDbEntity
  8
외형선
  6
Continuous
370
    15
100
AcDbLine
 10
-37.79999999999995
 20
6.349999999999994
 30
0.0
 11
-38.79999999999995
 21
5.349999999999993
 31
0.0
  0
LINE
  5
99
330
1F
100
AcDbEntity
  8
외형선
  6
Continuous
370
    15
100
AcDbLine
 10
-38.79999999999995
 20
-5.349999999999998
 30
0.0
 11
-37.79999999999995
 21
-6.35
 31
0.0
  0
LINE
  5
9A
330
1F
100
AcDbEntity
  8
0
  6
Continuous
 62
     1
370
    15
100
AcDbLine
 10
23.76973688361534
 20
1.797085923873267
 30
0.0
 11
23.7176136509234
 21
1.825698721705594
 31
0.0
  0
SPLINE
  5
9B
330
1F
100
AcDbEntity
  8
0
  6
Continuous
 62
     1
370
    15
100
AcDbSpline
210
0.0
220
0.0
230
1.0
 70
     8
 71
     3
 72
     9
 73
     5
 74
     0
 42
0.000000001
 43
0.00000001
 40
0.0
 40
0.0
 40
0.0
 40
0.0
 40
0.5259447709131813
 40
1.0
 40
1.0
 40
1.0
 40
1.0
 10
27.29931133410292
 20
1.627174347095768
 30
0.0
 10
26.99026892165529
 20
1.774489375896831
 30
0.0
 10
26.40267412170879
 20
2.054585380169836
 30
0.0
 10
25.81506212781449
 20
2.362403482615538
 30
0.0
 10
25.53650158943478
 20
2.508326263687505
 30
0.0
  0
LINE
  5
9C
330
1F
100
AcDbEntity
  8
0
  6
Continuous
 62
     1
370
    15
100
AcDbLine
 10
12.72587666873607
 20
6.350000000000003
 30
0.0
 11
12.00000000000004
 21
6.350000000000003
 31
0.0
  0
SPLINE
  5
9D
330
1F
100
AcDbEntity
  8
0
  6
Continuous
 62
     1
370
    15
100
AcDbSpline
210
0.0
220
0.0
230
1.0
 70
     8
 71
     3
 72
    20
 73
    16
 74
     0
 42
0.000000001
 43
0.00000001
 40
0.0
 40
0.0
 40
0.0
 40
0.0
 40
0.1257429647796718
 40
0.2432739609885507
 40
0.3436090325626569
 40
0.4213545598815723
 40
0.4835606728271117
 40
0.5360952989069947
 40
0.5870256886083783
 40
0.6592148205862988
 40
0.7435074235882798
 40
0.8108943978646073
 40
0.8662355083573812
 40
0.9491949354676895
 40
1.0
 40
1.0
 40
1.0
 40
1.0
 10
25.20003559677089
 20
5.045962891161441
 30
0.0
 10
24.99671150293305
 20
5.035184189918889
 30
0.0
 10
24.60334191952128
 20
5.014330718313678
 30
0.0
 10
23.99706969121934
 20
4.992271933191288
 30
0.0
 10
23.48209362806632
 20
4.977695320838567
 30
0.0
 10
23.06526378753125
 20
4.968762085681586
 30
0.0
 10
22.73521392303817
 20
4.963721016953539
 30
0.0
 10
22.45161720831846
 20
4.960786773211796
 30
0.0
 10
22.15096323828674
 20
4.959002010735873
 30
0.0
 10
21.79323222258411
 20
4.958798349921675
 30
0.0
 10
21.40684856257921
 20
4.961202071404911
 30
0.0
 10
21.04996051225037
 20
4.965724769640799
 30
0.0
 10
20.69618856319742
 20
4.972205170468019
 30
0.0
 10
20.3710013432712
 20
4.979652428708365
 30
0.0
 10
20.14089221176106
 20
4.987207096119571
 30
0.0
 10
20.05349450903528
 20
4.990076432821958
 30
0.0
  0
SPLINE
  5
9E
330
1F
100
AcDbEntity
  8
0
  6
Continuous
 62
     1
370
    15
100
AcDbSpline
210
0.0
220
0.0
230
1.0
 70
     8
 71
     3
 72
    31
 73
    27
 74
     0
 42
0.000000001
 43
0.00000001
 40
0.0
 40
0.0
 40
0.0
 40
0.0
 40
0.0584337340550556
 40
0.1065389415236226
 40
0.1450385076314019
 40
0.178263899908521
 40
0.2159168093688235
 40
0.2477450705509316
 40
0.2768369817450194
 40
0.3063682992580432
 40
0.3476538868922161
 40
0.3890567774550255
 40
0.4176769336462575
 40
0.4520443086779879
 40
0.4999458730704273
 40
0.5544209602527455
 40
0.5973543589459115
 40
0.6426204895102575
 40
0.6895961557990645
 40
0.7271767568773878
 40
0.7567582963986506
 40
0.7866921020273964
 40
0.8229845634041749
 40
0.8694105106135434
 40
0.927545141397641
 40
1.0
 40
1.0
 40
1.0
 40
1.0
 10
41.39056634317664
 20
4.343095750731299
 30
0.0
 10
41.18149741003869
 20
4.325785834917649
 30
0.0
 10
40.80031378037362
 20
4.294225638766022
 30
0.0
 10
40.2674877027637
 20
4.258937595402829
 30
0.0
 10
39.81398646337011
 20
4.234318984815632
 30
0.0
 10
39.40208659250562
 20
4.215441223187074
 30
0.0
 10
39.01824733129636
 20
4.201186468253697
 30
0.0
 10
38.6544073149014
 20
4.190974193056217
 30
0.0
 10
38.31934170319823
 20
4.184186221944785
 30
0.0
 10
37.94917045402056
 20
4.179482286203639
 30
0.0
 10
37.53370466785609
 20
4.177975806305248
 30
0.0
 10
37.12163621754716
 20
4.180862930905212
 30
0.0
 10
36.73584175525162
 20
4.187064056750918
 30
0.0
 10
36.32169812409531
 20
4.197085605099961
 30
0.0
 10
35.8088579839547
 20
4.214771225759026
 30
0.0
 10
35.26554282233317
 20
4.240699393765624
 30
0.0
 10
34.7504413078248
 20
4.271974471991967
 30
0.0
 10
34.25483066764662
 20
4.307198683667769
 30
0.0
 10
33.77341451292786
 20
4.346771212884672
 30
0.0
 10
33.3507212142494
 20
4.385779383950862
 30
0.0
 10
32.99090949820326
 20
4.421868920056106
 30
0.0
 10
32.63722546117047
 20
4.459826805092087
 30
0.0
 10
32.21592876931632
 20
4.508467718861876
 30
0.0
 10
31.68463211475598
 20
4.574560087200457
 30
0.0
 10
31.02048765431289
 20
4.664252066849652
 30
0.0
 10
30.55495650056221
 20
4.736159654732862
 30
0.0
 10
30.29666623479526
 20
4.776056082362627
 30
0.0
  0
SPLINE
  5
9F
330
1F
100
AcDbEntity
  8
0
  6
Continuous
 62
     1
370
    15
100
AcDbSpline
210
0.0
220
0.0
230
1.0
 70
     8
 71
     3
 72
    29
 73
    25
 74
     0
 42
0.000000001
 43
0.00000001
 40
0.0
 40
0.0
 40
0.0
 40
0.0
 40
0.0689444636072772
 40
0.1318178395949533
 40
0.1856618288031436
 40
0.2282857185248869
 40
0.2625881756275483
 40
0.2910274720841483
 40
0.3182334693168273
 40
0.3570403396510106
 40
0.4026302865720943
 40
0.4391929959529469
 40
0.4690767756561778
 40
0.5130874420188807
 40
0.5635758546870031
 40
0.6066734049826737
 40
0.6441488992826652
 40
0.6801591937097112
 40
0.7294120478465868
 40
0.7843922720793081
 40
0.8295867580915786
 40
0.8671140468505921
 40
0.922416094187337
 40
1.0
 40
1.0
 40
1.0
 40
1.0
 10
15.64980989300823
 20
-5.284075104648833
 30
0.0
 10
15.85814359193185
 20
-5.26325336030837
 30
0.0
 10
16.25646561331077
 20
-5.223443385555463
 30
0.0
 10
16.86128458092895
 20
-5.17215945572174
 30
0.0
 10
17.3748052515521
 20
-5.13246562456238
 30
0.0
 10
17.79476584985113
 20
-5.102667719542804
 30
0.0
 10
18.12983652956274
 20
-5.080812223013664
 30
0.0
 10
18.41621860353056
 20
-5.063423687146075
 30
0.0
 10
18.71691295192809
 20
-5.046450352565317
 30
0.0
 10
19.07288940512245
 20
-5.028216409256835
 30
0.0
 10
19.45879356645668
 20
-5.010992663090162
 30
0.0
 10
19.81611669355531
 20
-4.997332566901088
 30
0.0
 10
20.16823637470235
 20
-4.985695799994163
 30
0.0
 10
20.56469227228817
 20
-4.97488201470142
 30
0.0
 10
21.00312583533267
 20
-4.966196399085215
 30
0.0
 10
21.4209338446792
 20
-4.961082952610566
 30
0.0
 10
21.79257713685532
 20
-4.958924699728597
 30
0.0
 10
22.18371422261082
 20
-4.958947824408943
 30
0.0
 10
22.63061430771526
 20
-4.962009197272286
 30
0.0
 10
23.10676213480131
 20
-4.969277850885369
 30
0.0
 10
23.54672702508539
 20
-4.979490867011128
 30
0.0
 10
23.98955045695502
 20
-4.992693926292638
 30
0.0
 10
24.53161221730649
 20
-5.012478364787947
 30
0.0
 10
24.95363976236928
 20
-5.033619744484028
 30
0.0
 10
25.20003559677088
 20
-5.045962891161439
 30
0.0
  0
SPLINE
  5
A0
330
1F
100
AcDbEntity
  8
0
  6
Continuous
 62
     1
370
    15
100
AcDbSpline
210
0.0
220
0.0
230
1.0
 70
     8
 71
     3
 72
    17
 73
    13
 74
     0
 42
0.000000001
 43
0.00000001
 40
0.0
 40
0.0
 40
0.0
 40
0.0
 40
0.1692089310066915
 40
0.3049748260646333
 40
0.4133966082584722
 40
0.4981529477452266
 40
0.568059470911601
 40
0.6371433222430315
 40
0.7249079450401147
 40
0.8346135248919738
 40
0.9403267056413592
 40
1.0
 40
1.0
 40
1.0
 40
1.0
 10
30.29666623479526
 20
-4.776056082362627
 30
0.0
 10
30.554956491894
 20
-4.736159646145948
 30
0.0
 10
31.02048763002146
 20
-4.664252042786057
 30
0.0
 10
31.68463218379496
 20
-4.574560155591909
 30
0.0
 10
32.21592858486124
 20
-4.508467536136841
 30
0.0
 10
32.63722595028453
 20
-4.459827289618634
 30
0.0
 10
32.99090802084076
 20
-4.421867456550194
 30
0.0
 10
33.35072731841461
 20
-4.385785430863447
 30
0.0
 10
33.77338152728572
 20
-4.346738536623812
 30
0.0
 10
34.25498459642515
 20
-4.307351168706584
 30
0.0
 10
34.68626693793347
 20
-4.276061432642122
 30
0.0
 10
34.94370407908684
 20
-4.260928954315
 30
0.0
 10
35.03659028573013
 20
-4.255468986485102
 30
0.0
  0
LINE
  5
A1
330
1F
100
AcDbEntity
  8
0
  6
Continuous
 62
     1
370
    15
100
AcDbLine
 10
12.00000000000004
 20
-6.350000000000003
 30
0.0
 11
12.72587666873608
 21
-6.350000000000003
 31
0.0
  0
LINE
  5
A2
330
1F
100
AcDbEntity
  8
외형선
  6
Continuous
370
    15
100
AcDbLine
 10
12.00000000000004
 20
6.35
 30
0.0
 11
12.00000000000004
 21
6.205424020505626
 31
0.0
  0
SPLINE
  5
A3
330
1F
100
AcDbEntity
  8
외형선
  6
Continuous
370
    15
100
AcDbSpline
210
0.0
220
0.0
230
1.0
 70
     8
 71
     3
 72
    10
 73
     6
 74
     0
 42
0.000000001
 43
0.00000001
 40
0.0
 40
0.0
 40
0.0
 40
0.0
 40
0.5
 40
0.5
 40
1.0
 40
1.0
 40
1.0
 40
1.0
 10
9.969913373490895
 20
6.347292625550567
 30
0.0
 10
10.30893775831036
 20
6.341584555699344
 30
0.0
 10
10.64877003055013
 20
6.326828752305648
 30
0.0
 10
11.32571212229144
 20
6.279439394286175
 30
0.0
 10
11.66156699959438
 20
6.246878424007253
 30
0.0
 10
12.00000000000004
 20
6.205424020505626
 30
0.0
  0
SPLINE
  5
A4
330
1F
100
AcDbEntity
  8
외형선
  6
Continuous
370
    15
100
AcDbSpline
210
0.0
220
0.0
230
1.0
 70
     8
 71
     3
 72
    10
 73
     6
 74
     0
 42
0.000000001
 43
0.00000001
 40
0.0
 40
0.0
 40
0.0
 40
0.0
 40
0.5
 40
0.5
 40
1.0
 40
1.0
 40
1.0
 40
1.0
 10
12.00000000000016
 20
-6.33616632914225
 30
0.0
 10
11.66155189790315
 20
-6.323276112835851
 30
0.0
 10
11.32568203683232
 20
-6.301444389823155
 30
0.0
 10
10.64870949565904
 20
-6.239858188402055
 30
0.0
 10
10.30886197366693
 20
-6.200098761860552
 30
0.0
 10
9.969822605028256
 20
-6.151612457439068
 30
0.0
  0
LINE
  5
A5
330
1F
100
AcDbEntity
  8
외형선
  6
Continuous
370
    15
100
AcDbLine
 10
12.00000000000004
 20
-6.336166329142241
 30
0.0
 11
12.00000000000004
 21
-6.35
 31
0.0
  0
LINE
  5
A6
330
1F
100
AcDbEntity
  8
외형선
  6
Continuous
370
    15
100
AcDbLine
 10
-37.79999999999995
 20
6.349999999999994
 30
0.0
 11
-37.79999999999995
 21
-6.350000000000001
 31
0.0
  0
LINE
  5
A7
330
1F
100
AcDbEntity
  8
외형선
  6
Continuous
370
    15
100
AcDbLine
 10
9.969913373490895
 20
-6.151544957990408
 30
0.0
 11
9.969913373490895
 21
6.347292560725139
 31
0.0
  0
LINE
  5
A8
330
1F
100
AcDbEntity
  8
외형선
  6
Continuous
370
    15
100
AcDbLine
 10
-38.79999999999995
 20
5.349999999999993
 30
0.0
 11
-38.79999999999995
 21
-5.349999999999996
 31
0.0
  0
SPLINE
  5
A9
330
1F
100
AcDbEntity
  8
외형선
  6
Continuous
370
    15
100
AcDbSpline
210
0.0
220
0.0
230
1.0
 70
     8
 71
     3
 72
    10
 73
     6
 74
     0
 42
0.000000001
 43
0.00000001
 40
0.0
 40
0.0
 40
0.0
 40
0.0
 40
0.5
 40
0.5
 40
1.0
 40
1.0
 40
1.0
 40
1.0
 10
12.00000000000018
 20
-5.354488176438501
 30
0.0
 10
11.66155189790317
 20
-5.333563218086161
 30
0.0
 10
11.32568203683233
 20
-5.305107536688913
 30
0.0
 10
10.64870949565905
 20
-5.233083857555883
 30
0.0
 10
10.30886197366694
 20
-5.189524245502756
 30
0.0
 10
9.969822605028256
 20
-5.138682904225742
 30
0.0
  0
SPLINE
  5
AA
330
1F
100
AcDbEntity
  8
외형선
  6
Continuous
370
    15
100
AcDbSpline
210
0.0
220
0.0
230
1.0
 70
     8
 71
     3
 72
    10
 73
     6
 74
     0
 42
0.000000001
 43
0.00000001
 40
0.0
 40
0.0
 40
0.0
 40
0.0
 40
0.5
 40
0.5
 40
1.0
 40
1.0
 40
1.0
 40
1.0
 10
12.00000000000004
 20
-1.280988899486001
 30
0.0
 10
11.66156148559537
 20
-1.12973325776704
 30
0.0
 10
11.32570113735178
 20
-0.9770471705794056
 30
0.0
 10
10.64874792777431
 20
-0.6685498881684279
 30
0.0
 10
10.30891008747368
 20
-0.5129238949013532
 30
0.0
 10
9.969880231687732
 20
-0.3569126970353745
 30
0.0
  0
SPLINE
  5
AB
330
1F
100
AcDbEntity
  8
외형선
  6
Continuous
370
    15
100
AcDbSpline
210
0.0
220
0.0
230
1.0
 70
    24
 71
     3
 72
    14
 73
    10
 74
     0
 42
0.000000001
 43
0.00000001
 40
0.0
 40
0.0
 40
0.0
 40
0.0
 40
0.25
 40
0.25
 40
0.5
 40
0.5
 40
0.75
 40
0.75
 40
1.0
 40
1.0
 40
1.0
 40
1.0
 10
12.00000000000004
 20
-1.280988899485999
 30
0.0
 10
12.00000000000004
 20
-1.737438177851163
 30
0.0
 10
12.00000000000004
 20
-2.185856995840283
 30
0.0
 10
12.00000000000004
 20
-3.031728710364756
 30
0.0
 10
12.00000000000004
 20
-3.428898593328745
 30
0.0
 10
12.00000000000004
 20
-4.140843518090687
 30
0.0
 10
12.00000000000004
 20
-4.455412971806235
 30
0.0
 10
12.00000000000004
 20
-4.982513801077666
 30
0.0
 10
12.00000000000004
 20
-5.195013176576305
 30
0.0
 10
12.00000000000004
 20
-5.35448817643849
 30
0.0
  0
SPLINE
  5
AC
330
1F
100
AcDbEntity
  8
외형선
  6
Continuous
370
    15
100
AcDbSpline
210
0.0
220
0.0
230
1.0
 70
     8
 71
     3
 72
    10
 73
     6
 74
     0
 42
0.000000001
 43
0.00000001
 40
0.0
 40
0.0
 40
0.0
 40
0.0
 40
0.5
 40
0.5
 40
1.0
 40
1.0
 40
1.0
 40
1.0
 10
12.00000000000004
 20
4.301358623538121
 30
0.0
 10
11.66156336170797
 20
4.335846384064741
 30
0.0
 10
11.32570487492678
 20
4.36415483417256
 30
0.0
 10
10.64875544814159
 20
4.40846065231224
 30
0.0
 10
10.3089195023477
 20
4.424400499968414
 30
0.0
 10
9.969891508032013
 20
4.434015306954693
 30
0.0
  0
SPLINE
  5
AD
330
1F
100
AcDbEntity
  8
외형선
  6
Continuous
370
    15
100
AcDbSpline
210
0.0
220
0.0
230
1.0
 70
    24
 71
     3
 72
    14
 73
    10
 74
     0
 42
0.000000001
 43
0.00000001
 40
0.0
 40
0.0
 40
0.0
 40
0.0
 40
0.25
 40
0.25
 40
0.4999999999999999
 40
0.4999999999999999
 40
0.75
 40
0.75
 40
1.0
 40
1.0
 40
1.0
 40
1.0
 10
12.0
 20
4.301358623538125
 30
0.0
 10
12.0
 20
4.046879498383271
 30
0.0
 10
12.0
 20
3.722737552689296
 30
0.0
 10
12.0
 20
2.946786086384354
 30
0.0
 10
12.0
 20
2.495105529218353
 30
0.0
 10
12.0
 20
1.502961429100996
 30
0.0
 10
12.0
 20
0.9630265420059612
 30
0.0
 10
12.0
 20
-0.1492024368729013
 30
0.0
 10
12.0
 20
-0.7208952453006574
 30
0.0
 10
12.0
 20
-1.280988899485983
 30
0.0
  0
SPLINE
  5
AE
330
1F
100
AcDbEntity
  8
외형선
  6
Continuous
370
    15
100
AcDbSpline
210
0.0
220
0.0
230
1.0
 70
    24
 71
     3
 72
     8
 73
     4
 74
     0
 42
0.000000001
 43
0.00000001
 40
0.0
 40
0.0
 40
0.0
 40
0.0
 40
1.0
 40
1.0
 40
1.0
 40
1.0
 10
12.00000000000004
 20
-5.354488176438494
 30
0.0
 10
12.00000000000004
 20
-5.686891146871973
 30
0.0
 10
12.00000000000004
 20
-6.016243261304425
 30
0.0
 10
12.00000000000004
 20
-6.336166329126582
 30
0.0
  0
SPLINE
  5
AF
330
1F
100
AcDbEntity
  8
외형선
  6
Continuous
370
    15
100
AcDbSpline
210
0.0
220
0.0
230
1.0
 70
    24
 71
     3
 72
    10
 73
     6
 74
     0
 42
0.000000001
 43
0.00000001
 40
0.0
 40
0.0
 40
0.0
 40
0.0
 40
0.5
 40
0.5
 40
1.0
 40
1.0
 40
1.0
 40
1.0
 10
12.00000000000004
 20
6.205424020505621
 30
0.0
 10
12.00000000000004
 20
5.918203064110548
 30
0.0
 10
12.00000000000004
 20
5.591999024955491
 30
0.0
 10
12.00000000000004
 20
4.932654474279976
 30
0.0
 10
12.00000000000004
 20
4.60132379446836
 30
0.0
 10
12.00000000000004
 20
4.301358623538121
 30
0.0
  0
SPLINE
  5
B0
330
1F
100
AcDbEntity
  8
0
  6
Continuous
 62
     1
370
    15
100
AcDbSpline
210
0.0
220
0.0
230
1.0
 70
     8
 71
     3
 72
    56
 73
    52
 74
     0
 42
0.000000001
 43
0.00000001
 40
0.0
 40
0.0
 40
0.0
 40
0.0
 40
0.03125
 40
0.03125
 40
0.0625000000000001
 40
0.0625000000000001
 40
0.1250000000000001
 40
0.1250000000000001
 40
0.1875000000000002
 40
0.1875000000000002
 40
0.2187500000000002
 40
0.2187500000000002
 40
0.2500000000000003
 40
0.2500000000000003
 40
0.2812500000000004
 40
0.2812500000000004
 40
0.3125000000000007
 40
0.3125000000000007
 40
0.3750000000000007
 40
0.3750000000000007
 40
0.4062500000000007
 40
0.4062500000000007
 40
0.4375000000000008
 40
0.4375000000000008
 40
0.4687500000000008
 40
0.4687500000000008
 40
0.5000000000000006
 40
0.5000000000000006
 40
0.5625000000000002
 40
0.5625000000000002
 40
0.625
 40
0.625
 40
0.65625
 40
0.65625
 40
0.6875
 40
0.6875
 40
0.71875
 40
0.71875
 40
0.75
 40
0.75
 40
0.8125
 40
0.8125
 40
0.8437500000000001
 40
0.8437500000000001
 40
0.8750000000000001
 40
0.8750000000000001
 40
0.9062500000000001
 40
0.9062500000000001
 40
0.9375000000000002
 40
0.9375000000000002
 40
1.0
 40
1.0
 40
1.0
 40
1.0
 10
12.00000000000005
 20
6.20542402050563
 30
0.0
 10
12.33075263319177
 20
6.164910379403487
 30
0.0
 10
12.66283396653062
 20
6.115908819065018
 30
0.0
 10
13.32560492387893
 20
6.001495688054716
 30
0.0
 10
13.65505169968844
 20
5.936179388145014
 30
0.0
 10
14.64412572441929
 20
5.716390689385147
 30
0.0
 10
15.31140945221307
 20
5.537288604274698
 30
0.0
 10
16.62946911043794
 20
5.12263627577744
 30
0.0
 10
17.29406041970934
 20
4.885723742303096
 30
0.0
 10
18.28595801790348
 20
4.493162541967607
 30
0.0
 10
18.61421263011093
 20
4.356368632813865
 30
0.0
 10
19.275897453906
 20
4.070634572363074
 30
0.0
 10
19.60799846495549
 20
3.921859175733072
 30
0.0
 10
20.27066777951984
 20
3.614290070344542
 30
0.0
 10
20.59986393743107
 20
3.455726358478529
 30
0.0
 10
21.2595156518218
 20
3.129488379194707
 30
0.0
 10
21.59124648190626
 20
2.961589159543544
 30
0.0
 10
22.58610148557332
 20
2.446552067681606
 30
0.0
 10
23.24336045772079
 20
2.089083458244821
 30
0.0
 10
24.2378075647974
 20
1.537284840455158
 30
0.0
 10
24.56982628891011
 20
1.350910791601944
 30
0.0
 10
25.23088987065079
 20
0.9755640745479847
 30
0.0
 10
25.55919185482479
 20
0.78673914018532
 30
0.0
 10
26.22104652254333
 20
0.4064689202966455
 30
0.0
 10
26.55316229272772
 20
0.2152956172985724
 30
0.0
 10
27.21572020267501
 20
-0.166796564882378
 30
0.0
 10
27.54469475239969
 20
-0.357431818958082
 30
0.0
 10
28.53456144995019
 20
-0.9276789730397476
 30
0.0
 10
29.20181261074277
 20
-1.306243574169248
 30
0.0
 10
30.51869026427335
 20
-2.041869849989627
 30
0.0
 10
31.1845275065893
 20
-2.40193066759855
 30
0.0
 10
32.17580612907783
 20
-2.918261478361668
 30
0.0
 10
32.50418453867347
 20
-3.08630381538532
 30
0.0
 10
33.16619932849319
 20
-3.414457527774601
 30
0.0
 10
33.49832493850655
 20
-3.574298814933592
 30
0.0
 10
34.16076168747879
 20
-3.883554612792024
 30
0.0
 10
34.48954364956758
 20
-4.032749744709097
 30
0.0
 10
35.14970457196756
 20
-4.320222163403809
 30
0.0
 10
35.48155099675972
 20
-4.458545773019024
 30
0.0
 10
36.4763287484558
 20
-4.854668769932639
 30
0.0
 10
37.13349054538355
 20
-5.093034777485947
 30
0.0
 10
38.1281323226309
 20
-5.408354703839043
 30
0.0
 10
38.46007471842451
 20
-5.506283515317362
 30
0.0
 10
39.1207062939886
 20
-5.68664662932229
 30
0.0
 10
39.44919017872131
 20
-5.769095323134803
 30
0.0
 10
40.11135536096037
 20
-5.918557572601825
 30
0.0
 10
40.44348589100992
 20
-5.985419714904641
 30
0.0
 10
41.10579172860244
 20
-6.102587071607303
 30
0.0
 10
41.43441013302672
 20
-6.152833989071913
 30
0.0
 10
42.42501174443446
 20
-6.278649157464725
 30
0.0
 10
43.09219039396792
 20
-6.328964475485542
 30
0.0
 10
43.75000000000004
 20
-6.349999999999994
 30
0.0
  0
SPLINE
  5
B1
330
1F
100
AcDbEntity
  8
0
  6
Continuous
 62
     1
370
    15
100
AcDbSpline
210
0.0
220
0.0
230
1.0
 70
     8
 71
     3
 72
    15
 73
    11
 74
     0
 42
0.000000001
 43
0.00000001
 40
0.0
 40
0.0
 40
0.0
 40
0.0
 40
0.0695299442139269
 40
0.2017004146961662
 40
0.3338859941147804
 40
0.4660916645911076
 40
0.5983223628436689
 40
0.7322327250057251
 40
0.8661242220528036
 40
1.0
 40
1.0
 40
1.0
 40
1.0
 10
27.97183622429201
 20
-0.6007556921353825
 30
0.0
 10
27.60167494114627
 20
-0.4529717098668704
 30
0.0
 10
26.52786875362445
 20
-0.0242630312391781
 30
0.0
 10
24.75032114632397
 20
0.6988661622972971
 30
0.0
 10
22.63907590418945
 20
1.528004991977605
 30
0.0
 10
20.5274800047637
 20
2.301932326676733
 30
0.0
 10
18.40664627175092
 20
2.99469990642546
 30
0.0
 10
16.27683970360985
 20
3.575867938756922
 30
0.0
 10
14.13831319737921
 20
4.03636519918231
 30
0.0
 10
12.71274317007949
 20
4.213030939101126
 30
0.0
 10
12.00000000000004
 20
4.301358623538121
 30
0.0
  0
SPLINE
  5
B2
330
1F
100
AcDbEntity
  8
외형선
  6
Continuous
370
    15
100
AcDbSpline
210
0.0
220
0.0
230
1.0
 70
    24
 71
     3
 72
    10
 73
     6
 74
     0
 42
0.000000001
 43
0.00000001
 40
0.0
 40
0.0
 40
0.0
 40
0.0
 40
0.5
 40
0.5
 40
1.0
 40
1.0
 40
1.0
 40
1.0
 10
12.00000000000004
 20
6.205424020505621
 30
0.0
 10
12.00000000000004
 20
5.918203064110546
 30
0.0
 10
12.00000000000004
 20
5.59199902495549
 30
0.0
 10
12.00000000000004
 20
4.932654474279975
 30
0.0
 10
12.00000000000004
 20
4.60132379446836
 30
0.0
 10
12.00000000000004
 20
4.301358623538121
 30
0.0
  0
SPLINE
  5
B3
330
1F
100
AcDbEntity
  8
0
  6
Continuous
 62
     1
370
    15
100
AcDbSpline
210
0.0
220
0.0
230
1.0
 70
     8
 71
     3
 72
    23
 73
    19
 74
     0
 42
0.000000001
 43
0.00000001
 40
0.0
 40
0.0
 40
0.0
 40
0.0
 40
0.0642142170922886
 40
0.1284011841133295
 40
0.1925709884278357
 40
0.2567337827539395
 40
0.3208997465476905
 40
0.3839342671729859
 40
0.4469993084160513
 40
0.5100740795525236
 40
0.5731154314450838
 40
0.6374248665717349
 40
0.7017281208240191
 40
0.7660349541876813
 40
0.8303551133680832
 40
0.8946982956835617
 40
0.9590599319533979
 40
1.0
 40
1.0
 40
1.0
 40
1.0
 10
43.75000000000006
 20
-6.025774519622566
 30
0.0
 10
43.08586618786283
 20
-5.885811904073559
 30
0.0
 10
41.75788039671689
 20
-5.605946067785895
 30
0.0
 10
39.7664511385674
 20
-4.950001570754841
 30
0.0
 10
37.7756425179352
 20
-4.146459967649848
 30
0.0
 10
35.7851035817278
 20
-3.203637039889663
 30
0.0
 10
33.80626663245755
 20
-2.16332530689897
 30
0.0
 10
31.83876180696232
 20
-1.059771338927009
 30
0.0
 10
29.88228946562437
 20
0.0704078522050956
 30
0.0
 10
27.92563584458516
 20
1.198235536802543
 30
0.0
 10
25.95644640324112
 20
2.295985970745058
 30
0.0
 10
23.97457697597306
 20
3.327010087122358
 30
0.0
 10
21.97967968579359
 20
4.255853655911462
 30
0.0
 10
19.98464434678984
 20
5.044389322902303
 30
0.0
 10
17.98911305354545
 20
5.669669162441703
 30
0.0
 10
15.99287812477932
 20
6.100228533733995
 30
0.0
 10
14.23823807505195
 20
6.330655409096641
 30
0.0
 10
13.14925897520814
 20
6.32717924660524
 30
0.0
 10
12.72587666873607
 20
6.32582775538425
 30
0.0
  0
SPLINE
  5
B4
330
1F
100
AcDbEntity
  8
0
  6
Continuous
 62
     1
370
    15
100
AcDbSpline
210
0.0
220
0.0
230
1.0
 70
     8
 71
     3
 72
    15
 73
    11
 74
     0
 42
0.000000001
 43
0.00000001
 40
0.0
 40
0.0
 40
0.0
 40
0.0
 40
0.12808331692474
 40
0.2561434381592462
 40
0.3841849723794039
 40
0.5122125555714077
 40
0.6402308442594521
 40
0.7682445086694035
 40
0.89625822584969
 40
1.0
 40
1.0
 40
1.0
 40
1.0
 10
43.75000000000004
 20
-5.009973878738172
 30
0.0
 10
43.04599309401986
 20
-4.86364304205709
 30
0.0
 10
41.63810677661932
 20
-4.571007868982711
 30
0.0
 10
39.52651813942085
 20
-3.914784492768326
 30
0.0
 10
37.41527648291518
 20
-3.127969094980285
 30
0.0
 10
35.30430019021602
 20
-2.222871672752689
 30
0.0
 10
33.19349966367486
 20
-1.236650400184744
 30
0.0
 10
31.08278618987314
 20
-0.2064566026222904
 30
0.0
 10
29.10549825261764
 20
0.7715568934107421
 30
0.0
 10
27.83176142425751
 20
1.371923329964524
 30
0.0
 10
27.26159276238027
 20
1.640668113144409
 30
0.0
  0
LINE
  5
B5
330
1F
100
AcDbEntity
  8
0
  6
Continuous
 62
     1
370
    15
100
AcDbLine
 10
43.74999999999977
 20
-6.025774519622567
 30
0.0
 11
43.75000000000004
 21
-5.009973878738172
 31
0.0
  0
LINE
  5
B6
330
1F
100
AcDbEntity
  8
0
  6
Continuous
 62
     1
370
    15
100
AcDbLine
 10
43.75000000000006
 20
-6.35
 30
0.0
 11
43.75000000000055
 21
-6.025774519622548
 31
0.0
  0
SPLINE
  5
B7
330
1F
100
AcDbEntity
  8
0
  6
Continuous
 62
     1
370
    15
100
AcDbSpline
210
0.0
220
0.0
230
1.0
 70
     8
 71
     3
 72
     8
 73
     4
 74
     0
 42
0.000000001
 43
0.00000001
 40
0.0
 40
0.0
 40
0.0
 40
0.0
 40
1.0
 40
1.0
 40
1.0
 40
1.0
 10
39.82110935627959
 20
1.776017074452409
 30
0.0
 10
39.59595661831197
 20
2.042719345426718
 30
0.0
 10
39.39437534697815
 20
2.30005092627712
 30
0.0
 10
39.22247056944966
 20
2.5455848013787
 30
0.0
  0
LINE
  5
B8
330
1F
100
AcDbEntity
  8
0
  6
Continuous
 62
     1
370
    15
100
AcDbLine
 10
39.30275512375338
 20
2.612951541294605
 30
0.0
 11
43.75000000000004
 21
0.0000000000000042
 31
0.0
  0
LINE
  5
B9
330
1F
100
AcDbEntity
  8
0
  6
Continuous
 62
     1
370
    15
100
AcDbLine
 10
43.75000000000004
 20
0.0000000000000042
 30
0.0
 11
43.75000000000004
 21
-1.696992707288241
 31
0.0
  0
SPLINE
  5
BA
330
1F
100
AcDbEntity
  8
0
  6
Continuous
 62
     1
370
    15
100
AcDbSpline
210
0.0
220
0.0
230
1.0
 70
     8
 71
     3
 72
    12
 73
     8
 74
     0
 42
0.000000001
 43
0.00000001
 40
0.0
 40
0.0
 40
0.0
 40
0.0
 40
0.5000000000000016
 40
0.5000000000000016
 40
0.7500000000000008
 40
0.7500000000000008
 40
1.0
 40
1.0
 40
1.0
 40
1.0
 10
43.75000000000004
 20
-1.69699270728824
 30
0.0
 10
43.06989727265299
 20
-1.162318204574249
 30
0.0
 10
42.40115445793668
 20
-0.6057234975937617
 30
0.0
 10
41.41552321729138
 20
0.2629039036822292
 30
0.0
 10
41.08994021316179
 20
0.5581594504446592
 30
0.0
 10
40.44542402705687
 20
1.161502109201976
 30
0.0
 10
40.12824347731788
 20
1.468032404441034
 30
0.0
 10
39.82110935627959
 20
1.776017074452411
 30
0.0
  0
SPLINE
  5
BB
330
1F
100
AcDbEntity
  8
0
  6
Continuous
 62
     1
370
    15
100
AcDbSpline
210
0.0
220
0.0
230
1.0
 70
     8
 71
     3
 72
    14
 73
    10
 74
     0
 42
0.000000001
 43
0.00000001
 40
0.0
 40
0.0
 40
0.0
 40
0.0
 40
0.1544413635297948
 40
0.3088820759364317
 40
0.4532347772745008
 40
0.5975821916112712
 40
0.7419296668867871
 40
0.8862825509508112
 40
1.0
 40
1.0
 40
1.0
 40
1.0
 10
39.8211093562796
 20
1.776017074452404
 30
0.0
 10
39.06830363198331
 20
2.094551772037533
 30
0.0
 10
37.56269535721174
 20
2.731619824268869
 30
0.0
 10
35.35340297959516
 20
3.534624505555188
 30
0.0
 10
33.19352614095094
 20
4.186432699435894
 30
0.0
 10
31.08280616008063
 20
4.669879355756207
 30
0.0
 10
28.97209723886102
 20
4.976441285369743
 30
0.0
 10
27.01067119828805
 20
5.111212727730821
 30
0.0
 10
25.75279263745854
 20
5.055031170310167
 30
0.0
 10
25.19851450937767
 20
5.030275037683777
 30
0.0
  0
SPLINE
  5
BC
330
1F
100
AcDbEntity
  8
0
  6
Continuous
 62
     1
370
    15
100
AcDbSpline
210
0.0
220
0.0
230
1.0
 70
    24
 71
     3
 72
    10
 73
     6
 74
     0
 42
0.000000001
 43
0.00000001
 40
0.0
 40
0.0
 40
0.0
 40
0.0
 40
0.5
 40
0.5
 40
1.0
 40
1.0
 40
1.0
 40
1.0
 10
43.75000000000004
 20
-5.009973878738171
 30
0.0
 10
43.75000000000006
 20
-4.625920320174162
 30
0.0
 10
43.75000000000004
 20
-4.140653922806074
 30
0.0
 10
43.75000000000006
 20
-3.012456250606815
 30
0.0
 10
43.75000000000006
 20
-2.370502263375815
 30
0.0
 10
43.75000000000004
 20
-1.696992707288443
 30
0.0
  0
SPLINE
  5
BD
330
1F
100
AcDbEntity
  8
0
  6
Continuous
 62
     1
370
    15
100
AcDbSpline
210
0.0
220
0.0
230
1.0
 70
    24
 71
     3
 72
     8
 73
     4
 74
     0
 42
0.000000001
 43
0.00000001
 40
0.0
 40
0.0
 40
0.0
 40
0.0
 40
1.0
 40
1.0
 40
1.0
 40
1.0
 10
39.88479688430333
 20
3.101342567901436
 30
0.0
 10
39.67520081076371
 20
2.925470579898141
 30
0.0
 10
39.45370784598386
 20
2.739615914843402
 30
0.0
 10
39.22247056944511
 20
2.545584801385299
 30
0.0
  0
SPLINE
  5
BE
330
1F
100
AcDbEntity
  8
0
  6
Continuous
 62
     1
370
    15
100
AcDbSpline
210
0.0
220
0.0
230
1.0
 70
     8
 71
     3
 72
     9
 73
     5
 74
     0
 42
0.000000001
 43
0.00000001
 40
0.0
 40
0.0
 40
0.0
 40
0.0
 40
0.8941831054611167
 40
1.0
 40
1.0
 40
1.0
 40
1.0
 10
43.75000000000004
 20
4.445
 30
0.0
 10
43.04599257043918
 20
4.441676025516189
 30
0.0
 10
42.25867347968336
 20
4.437958694621088
 30
0.0
 10
41.47137733616505
 20
4.344582776959845
 30
0.0
 10
41.38806810317551
 20
4.334702027328216
 30
0.0
  0
SPLINE
  5
BF
330
1F
100
AcDbEntity
  8
0
  6
Continuous
 62
     1
370
    15
100
AcDbSpline
210
0.0
220
0.0
230
1.0
 70
     8
 71
     3
 72
    10
 73
     6
 74
     0
 42
0.000000001
 43
0.00000001
 40
0.0
 40
0.0
 40
0.0
 40
0.0
 40
0.5
 40
0.5
 40
1.0
 40
1.0
 40
1.0
 40
1.0
 10
43.75000000000004
 20
4.445000000000004
 30
0.0
 10
43.09685916350259
 20
4.267858840680409
 30
0.0
 10
42.44727443872154
 20
4.068847419968666
 30
0.0
 10
41.15760156587028
 20
3.623758348240861
 30
0.0
 10
40.51718280181701
 20
3.378117127644992
 30
0.0
 10
39.88479688431243
 20
3.101342567905711
 30
0.0
  0
SPLINE
  5
C0
330
1F
100
AcDbEntity
  8
0
  6
Continuous
 62
     1
370
    15
100
AcDbSpline
210
0.0
220
0.0
230
1.0
 70
     8
 71
     3
 72
     9
 73
     5
 74
     0
 42
0.000000001
 43
0.00000001
 40
0.0
 40
0.0
 40
0.0
 40
0.0
 40
0.4147211181188679
 40
1.0
 40
1.0
 40
1.0
 40
1.0
 10
15.65335589122771
 20
-5.262869552121538
 30
0.0
 10
15.14830790863796
 20
-5.313515032228455
 30
0.0
 10
13.93050644995991
 20
-5.435634398458557
 30
0.0
 10
12.7127355756838
 20
-5.384447050322201
 30
0.0
 10
12.00000000000007
 20
-5.354488176438494
 30
0.0
  0
SPLINE
  5
C1
330
1F
100
AcDbEntity
  8
0
  6
Continuous
 62
     1
370
    15
100
AcDbSpline
210
0.0
220
0.0
230
1.0
 70
     8
 71
     3
 72
    16
 73
    12
 74
     0
 42
0.000000001
 43
0.00000001
 40
0.0
 40
0.0
 40
0.0
 40
0.0
 40
0.0728386555625667
 40
0.1881515592754207
 40
0.3034730492762074
 40
0.4188073784629192
 40
0.5341587807596018
 40
0.6495314517395636
 40
0.7663694423519342
 40
0.8831914004884638
 40
1.0
 40
1.0
 40
1.0
 40
1.0
 10
30.3054100451098
 20
-4.754251542095274
 30
0.0
 10
29.86098092737141
 20
-4.825660497703883
 30
0.0
 10
28.71296369882642
 20
-5.010118959220209
 30
0.0
 10
26.86129649809847
 20
-5.103559146500031
 30
0.0
 10
24.75031841437463
 20
-5.049843175499275
 30
0.0
 10
22.63907278756282
 20
-4.80335092034194
 30
0.0
 10
20.52747810614292
 20
-4.382261695136203
 30
0.0
 10
18.40663899323215
 20
-3.797467604816729
 30
0.0
 10
16.27682986283887
 20
-3.067682200021566
 30
0.0
 10
14.13830698334499
 20
-2.2226697854764
 30
0.0
 10
12.71274182392957
 20
-1.594870562627957
 30
0.0
 10
12.00000000000004
 20
-1.280988899486001
 30
0.0
  0
SPLINE
  5
C2
330
1F
100
AcDbEntity
  8
외형선
  6
Continuous
370
    15
100
AcDbSpline
210
0.0
220
0.0
230
1.0
 70
    24
 71
     3
 72
    14
 73
    10
 74
     0
 42
0.000000001
 43
0.00000001
 40
0.0
 40
0.0
 40
0.0
 40
0.0
 40
0.25
 40
0.25
 40
0.5
 40
0.5
 40
0.75
 40
0.75
 40
1.0
 40
1.0
 40
1.0
 40
1.0
 10
12.00000000000004
 20
-1.280988899486001
 30
0.0
 10
12.00000000000004
 20
-1.737438177851165
 30
0.0
 10
12.00000000000004
 20
-2.185856995840284
 30
0.0
 10
12.00000000000004
 20
-3.031728710364757
 30
0.0
 10
12.00000000000004
 20
-3.428898593328745
 30
0.0
 10
12.00000000000004
 20
-4.140843518090687
 30
0.0
 10
12.00000000000004
 20
-4.455412971806236
 30
0.0
 10
12.00000000000004
 20
-4.982513801077667
 30
0.0
 10
12.00000000000004
 20
-5.195013176576309
 30
0.0
 10
12.00000000000004
 20
-5.35448817643849
 30
0.0
  0
SPLINE
  5
C3
330
1F
100
AcDbEntity
  8
외형선
  6
Continuous
370
    15
100
AcDbSpline
210
0.0
220
0.0
230
1.0
 70
    24
 71
     3
 72
    14
 73
    10
 74
     0
 42
0.000000001
 43
0.00000001
 40
0.0
 40
0.0
 40
0.0
 40
0.0
 40
0.25
 40
0.25
 40
0.4999999999999999
 40
0.4999999999999999
 40
0.75
 40
0.75
 40
1.0
 40
1.0
 40
1.0
 40
1.0
 10
12.0
 20
4.301358623538125
 30
0.0
 10
12.0
 20
4.046879498383271
 30
0.0
 10
12.0
 20
3.722737552689296
 30
0.0
 10
12.0
 20
2.946786086384354
 30
0.0
 10
12.0
 20
2.495105529218353
 30
0.0
 10
12.0
 20
1.502961429100996
 30
0.0
 10
12.0
 20
0.9630265420059612
 30
0.0
 10
12.0
 20
-0.1492024368729013
 30
0.0
 10
12.0
 20
-0.7208952453006574
 30
0.0
 10
12.0
 20
-1.280988899485983
 30
0.0
  0
LINE
  5
C4
330
1F
100
AcDbEntity
  8
0
  6
Continuous
 62
     1
370
    15
100
AcDbLine
 10
43.75000000000004
 20
0.0000000000000042
 30
0.0
 11
43.75000000000004
 21
4.445000000000004
 31
0.0
  0
SPLINE
  5
C5
330
1F
100
AcDbEntity
  8
0
  6
Continuous
 62
     1
370
    15
100
AcDbSpline
210
0.0
220
0.0
230
1.0
 70
     8
 71
     3
 72
    12
 73
     8
 74
     0
 42
0.000000001
 43
0.00000001
 40
0.0
 40
0.0
 40
0.0
 40
0.0
 40
0.008659793343809
 40
0.2564170157024355
 40
0.5042629217345674
 40
0.7521799112424163
 40
1.0
 40
1.0
 40
1.0
 40
1.0
 10
20.05451150531438
 20
-4.989676422460303
 30
0.0
 10
20.03126378446868
 20
-4.998848761405913
 30
0.0
 10
19.34289733454646
 20
-5.270442284030365
 30
0.0
 10
17.98910928890606
 20
-5.657558910754158
 30
0.0
 10
15.99287626341173
 20
-6.106112051135693
 30
0.0
 10
13.99625978888033
 20
-6.351015326210149
 30
0.0
 10
12.66533321175966
 20
-6.341115349788524
 30
0.0
 10
11.99999999999762
 20
-6.336166329142156
 30
0.0
  0
SPLINE
  5
C6
330
1F
100
AcDbEntity
  8
외형선
  6
Continuous
370
    15
100
AcDbSpline
210
0.0
220
0.0
230
1.0
 70
    24
 71
     3
 72
     8
 73
     4
 74
     0
 42
0.000000001
 43
0.00000001
 40
0.0
 40
0.0
 40
0.0
 40
0.0
 40
1.0
 40
1.0
 40
1.0
 40
1.0
 10
12.00000000000004
 20
-5.354488176438494
 30
0.0
 10
12.00000000000004
 20
-5.686891146871973
 30
0.0
 10
12.00000000000004
 20
-6.016243261304428
 30
0.0
 10
12.00000000000004
 20
-6.336166329126586
 30
0.0
  0
SPLINE
  5
C7
330
1F
100
AcDbEntity
  8
0
  6
Continuous
 62
     1
370
    15
100
AcDbSpline
210
0.0
220
0.0
230
1.0
 70
     8
 71
     3
 72
    14
 73
    10
 74
     0
 42
0.000000001
 43
0.00000001
 40
0.0
 40
0.0
 40
0.0
 40
0.0
 40
0.0285894415611416
 40
0.2382196411635986
 40
0.3435587045112198
 40
0.5059503523642455
 40
0.6690184761011332
 40
0.8341526883412047
 40
1.0
 40
1.0
 40
1.0
 40
1.0
 10
35.01297605178604
 20
4.256896413874451
 30
0.0
 10
35.0961974978613
 20
4.293371152773076
 30
0.0
 10
35.78963472288594
 20
4.59729451529782
 30
0.0
 10
36.79064670167935
 20
4.974565823117379
 30
0.0
 10
38.18101311827316
 20
5.432462470953332
 30
0.0
 10
39.43510630628383
 20
5.779496325411271
 30
0.0
 10
40.86474510931908
 20
6.075464744973409
 30
0.0
 10
42.30277695361686
 20
6.278630370651813
 30
0.0
 10
43.26689991716362
 20
6.322600596750872
 30
0.0
 10
43.74999999999969
 20
6.350000000000005
 30
0.0
  0
SPLINE
  5
C8
330
1F
100
AcDbEntity
  8
0
  6
Continuous
 62
     1
370
    15
100
AcDbSpline
210
0.0
220
0.0
230
1.0
 70
    24
 71
     3
 72
    10
 73
     6
 74
     0
 42
0.000000001
 43
0.00000001
 40
0.0
 40
0.0
 40
0.0
 40
0.0
 40
0.5
 40
0.5
 40
1.0
 40
1.0
 40
1.0
 40
1.0
 10
43.75000000000004
 20
4.445
 30
0.0
 10
43.75000000000004
 20
4.714444830726444
 30
0.0
 10
43.75000000000006
 20
5.027564677306193
 30
0.0
 10
43.75000000000004
 20
5.68448927210143
 30
0.0
 10
43.75000000000004
 20
6.026616317339352
 30
0.0
 10
43.74999999999967
 20
6.350000000000005
 30
0.0
  0
LINE
  5
C9
330
1F
100
AcDbEntity
  8
중심선
 48
0.8
100
AcDbLine
 10
-41.79999999999996
 20
-0.000000000000005
 30
0.0
 11
46.75000000000004
 21
0.0000000000000058
 31
0.0
  0
LINE
  5
CA
330
1F
100
AcDbEntity
  8
참조1
100
AcDbLine
 10
5.324261314031169
 20
0.0010749287238892
 30
0.0
 11
5.324261314031171
 21
-39.99892507127611
 31
0.0
  0
LINE
  5
CB
330
1F
100
AcDbEntity
  8
참조1
100
AcDbLine
 10
5.324261314031171
 20
-39.99892507127611
 30
0.0
 11
-20.15080122126847
 21
-39.9989250712761
 31
0.0
  0
CIRCLE
  5
CC
330
1F
100
AcDbEntity
  8
해칭선
100
AcDbCircle
 10
0.0
 20
0.0
 30
0.0
 40
2.999999999999995
  0
INSERT
  5
CD
330
1F
100
AcDbEntity
  8
0
  6
Continuous
 62
     7
100
AcDbBlockReference
 66
     1
  2
블럭10
 10
-11.46527293212517
 20
-52.04717430164393
 30
0.0
  0
ATTRIB
  5
CE
330
CD
100
AcDbEntity
  8
FORMAT
 62
     2
100
AcDbText
 10
-20.64656822086645
 20
-49.97180738881174
 30
0.0
 40
4.233333333333333
  1
E1070032 [ 2 FLUTE ]
 41
0.75
  7
SLDTEXTSTYLE0
 11
-20.64656822086645
 21
-52.08847405547841
 31
0.0
100
AcDbAttribute
  2
AUTOATTR0
 70
     0
 74
     1
  0
SEQEND
  5
CF
330
CD
100
AcDbEntity
  8
0
  6
Continuous
 62
     7
  0
HATCH
  5
D0
330
1F
100
AcDbEntity
  8
중심선
100
AcDbHatch
 10
0.0
 20
0.0
 30
0.0
210
0.0
220
0.0
230
1.0
  2
SOLID
 70
     1
 71
     0
 91
        1
 92
        0
 93
        4
 72
     1
 10
-5.75036362774431
 20
-35.8
 11
-9.196638871581591
 21
-35.8
 72
     1
 10
-9.196638871581591
 20
-35.8
 11
-11.32486873078564
 21
-38.3363255805726
 72
     1
 10
-11.32486873078564
 20
-38.3363255805726
 11
-7.878560401835183
 21
-38.33628615127011
 72
     1
 10
-7.878560401835183
 20
-38.33628615127011
 11
-5.75036362774431
 21
-35.8
 97
        0
 75
     0
 76
     1
 98
        1
 10
-2.849261314031127
 20
-0.0010749287238938
  0
HATCH
  5
D1
330
1F
100
AcDbEntity
  8
중심선
100
AcDbHatch
 10
0.0
 20
0.0
 30
0.0
210
0.0
220
0.0
230
1.0
  2
SOLID
 70
     1
 71
     0
 91
        1
 92
        0
 93
        4
 72
     1
 10
-0.7375996367083584
 20
-35.80000000000003
 11
-4.183874880545641
 21
-35.8
 72
     1
 10
-4.183874880545641
 20
-35.8
 11
-8.71501288890303
 21
-41.20000000000002
 72
     1
 10
-8.71501288890303
 20
-41.20000000000002
 11
-5.268737645065746
 21
-41.20000000000002
 72
     1
 10
-5.268737645065746
 20
-41.20000000000002
 11
-0.7375996367083584
 21
-35.80000000000003
 97
        0
 75
     0
 76
     1
 98
        1
 10
-2.849261314031127
 20
-0.0010749287238938
  0
HATCH
  5
D2
330
1F
100
AcDbEntity
  8
중심선
100
AcDbHatch
 10
0.0
 20
0.0
 30
0.0
210
0.0
220
0.0
230
1.0
  2
SOLID
 70
     1
 71
     0
 91
        1
 92
        0
 93
        4
 72
     1
 10
4.275164354327565
 20
-35.8
 11
0.8288891104904215
 21
-35.8
 72
     1
 10
0.8288891104904215
 20
-35.8
 11
-6.219547791398828
 21
-44.20000000000002
 72
     1
 10
-6.219547791398828
 20
-44.20000000000002
 11
-2.773272547561545
 21
-44.20000000000002
 72
     1
 10
-2.773272547561545
 20
-44.20000000000002
 11
4.275164354327565
 21
-35.8
 97
        0
 75
     0
 76
     1
 98
        1
 10
-2.849261314031127
 20
-0.0010749287238938
  0
HATCH
  5
D3
330
1F
100
AcDbEntity
  8
중심선
100
AcDbHatch
 10
0.0
 20
0.0
 30
0.0
210
0.0
220
0.0
230
1.0
  2
SOLID
 70
     1
 71
     0
 91
        1
 92
        0
 93
        6
 72
     3
 10
9.075054785339736
 20
-40.00000000005127
 11
3.960054785062283
 21
1.540882976769353E-10
 40
0.3939339440162628
 50
17.09539180608436
 51
320.0019657685078
 73
     0
 72
     1
 10
10.75805444104036
 20
-38.58789400463827
 11
13.0633563147414
 21
-36.65356729459038
 72
     3
 10
9.07505478528689
 20
-40.00000000000015
 11
6.600054785286829
 21
-1.278976924368180E-13
 40
0.636358354079598
 50
39.99873849337385
 51
368.4976242363724
 73
     1
 72
     1
 10
15.5003872771875
 20
-39.03999999993002
 11
7.755122092122839
 21
-39.03999999993002
 72
     1
 10
7.755122092122839
 20
-39.03999999993002
 11
7.755097047676879
 21
-40.95999999992991
 72
     1
 10
7.755097047676879
 20
-40.95999999992991
 11
12.19647681714891
 21
-40.95999999992988
 97
        0
 75
     0
 76
     1
 98
        1
 10
-2.849261314031127
 20
-0.0010749287238938
  0
DIMENSION
  5
D4
330
1F
100
AcDbEntity
  8
치수문자_일반주서
100
AcDbDimension
  2
_D
 10
-51.29999999999996
 20
-6.350000000000045
 30
0.0
 11
-51.29999999999998
 21
-0.0000000000000015
 31
0.0
 70
   160
  1
%%c<>
 71
     2
 42
12.69999999999999
 52
-270.0
  3
SLDDIMSTYLE0
100
AcDbAlignedDimension
 13
-37.79999999999997
 23
6.349999999999994
 33
0.0
 14
-37.79999999999997
 24
-6.349999999999994
 34
0.0
 50
90.0000000000002
100
AcDbRotatedDimension
1001
ACAD
1000
DSTYLE
1002
{
1070
   171
1070
     6
1070
   273
1070
     7
1002
}
  0
DIMENSION
  5
E9
330
1F
100
AcDbEntity
  8
치수문자_일반주서
100
AcDbDimension
  2
_D_1
 10
12.00000000000004
 20
18.97064147419784
 30
0.0
 11
-9.041499999999958
 21
18.97064147419784
 31
0.0
 70
   160
  1
<>
 71
     2
 42
31.75000000000001
  3
SLDDIMSTYLE0
100
AcDbAlignedDimension
 13
43.75000000000006
 23
6.344633076708242
 33
0.0
 14
12.00000000000004
 24
6.35
 34
0.0
 50
0.0000000000000064
100
AcDbRotatedDimension
1001
ACAD
1000
DSTYLE
1002
{
1070
   171
1070
     6
1070
   273
1070
     7
1002
}
  0
DIMENSION
  5
FE
330
1F
100
AcDbEntity
  8
치수문자_일반주서
100
AcDbDimension
  2
_D_2
 10
-38.79999999999995
 20
36.55130408500667
 30
0.0
 11
2.474999999999902
 21
36.55130408500667
 31
0.0
 70
   160
  1
<>
 71
     2
 42
82.54999999999998
  3
SLDDIMSTYLE0
100
AcDbAlignedDimension
 13
43.75000000000004
 23
6.344633076708242
 33
0.0
 14
-38.79999999999995
 24
5.349999999999993
 34
0.0
 50
0.0000000000000099
100
AcDbRotatedDimension
1001
ACAD
1000
DSTYLE
1002
{
1070
   171
1070
     6
1070
   273
1070
     7
1002
}
  0
DIMENSION
  5
111
330
1F
100
AcDbEntity
  8
치수문자_일반주서
100
AcDbDimension
  2
_D_3
 10
67.212271445983
 20
6.350000000000094
 30
0.0
 11
67.21227144598294
 21
28.48574173477136
 31
0.0
 70
   160
  1
%%c<>
 71
     2
 42
12.7
 52
-270.0
  3
SLDDIMSTYLE0
100
AcDbAlignedDimension
 13
43.75000000000006
 23
-6.35
 33
0.0
 14
43.74999999999969
 24
6.350000000000005
 34
0.0
 50
90.0000000000002
100
AcDbRotatedDimension
1001
ACAD
1000
DSTYLE
1002
{
1070
   171
1070
     6
1070
   273
1070
     7
1002
}
  0
LINE
  5
124
330
1F
100
AcDbEntity
  8
참조1
100
AcDbLine
 10
77.82153940838579
 20
7.441074928723896
 30
0.0
 11
77.82153940838579
 21
-7.438925071276109
 31
0.0
  0
LINE
  5
125
330
1F
100
AcDbEntity
  8
참조1
100
AcDbLine
 10
90.52153940838579
 20
5.441074928723896
 30
0.0
 11
77.82153940838579
 21
5.441074928723896
 31
0.0
  0
SOLID
  5
126
330
1F
100
AcDbEntity
  8
참조1
100
AcDbTrace
 10
77.82153940838579
 20
5.441074928723896
 30
0.0
 11
84.17153940838578
 21
4.425074928723896
 31
0.0
 12
84.17153940838578
 22
6.457074928723896
 32
0.0
 13
84.17153940838578
 23
6.457074928723896
 33
0.0
  0
LINE
  5
127
330
1F
100
AcDbEntity
  8
참조1
100
AcDbLine
 10
90.52153940838579
 20
-5.438925071276109
 30
0.0
 11
77.82153940838579
 21
-5.438925071276109
 31
0.0
  0
SOLID
  5
128
330
1F
100
AcDbEntity
  8
참조1
100
AcDbTrace
 10
77.82153940838579
 20
-5.438925071276109
 30
0.0
 11
84.17153940838578
 21
-6.454925071276109
 31
0.0
 12
84.17153940838578
 22
-4.422925071276109
 32
0.0
 13
84.17153940838578
 23
-4.422925071276109
 33
0.0
  0
MTEXT
  5
129
330
1F
100
AcDbEntity
  8
참조1
100
AcDbMText
 10
87.20588954101179
 20
11.01136670591222
 30
0.0
 40
3.5
 41
0.0
 71
     1
 72
     1
  1
A
  7
SLDTEXTSTYLE0
 73
     1
 44
1.0
  0
MTEXT
  5
12A
330
1F
100
AcDbEntity
  8
참조1
100
AcDbMText
 10
87.20588954101179
 20
0.1313667059122192
 30
0.0
 40
3.5
 41
0.0
 71
     1
 72
     1
  1
A
  7
SLDTEXTSTYLE0
 73
     1
 44
1.0
  0
INSERT
  5
131
330
1F
100
AcDbEntity
  8
해칭선
100
AcDbBlockReference
  2
SW_DOWELSYMBOL_0
 10
0.0
 20
0.0
 30
0.0
  0
LINE
  5
217
330
1F
100
AcDbEntity
  8
외형선
  6
Continuous
370
    15
100
AcDbLine
 10
-21.76612499999993
 20
4.825999999999993
 30
0.0
 11
-10.59012500000006
 21
4.825999999999993
 31
0.0
  0
LINE
  5
218
330
1F
100
AcDbEntity
  8
외형선
  6
Continuous
370
    15
100
AcDbLine
 10
-21.76612499999993
 20
4.825999999999993
 30
0.0
 11
-23.29012499999993
 21
6.349999999999994
 31
0.0
  0
LINE
  5
219
330
1F
100
AcDbEntity
  8
외형선
  6
Continuous
370
    15
100
AcDbLine
 10
-10.59012499999994
 20
4.825999999999993
 30
0.0
 11
-9.066124999999943
 21
6.349999999999994
 31
0.0
  0
LINE
  5
21A
330
1F
100
AcDbEntity
  8
외형선
  6
Continuous
370
    15
100
AcDbLine
 10
-23.29012499999994
 20
6.349999999999999
 30
0.0
 11
-37.79999999999995
 21
6.349999999999998
 31
0.0
  0
ENDSEC
  0
SECTION
  2
OBJECTS
  0
DICTIONARY
  5
C
330
0
100
AcDbDictionary
281
     1
  3
ACAD_GROUP
350
D
  3
ACAD_IMAGE_VARS
350
155
  3
ACAD_LAYOUT
350
1A
  3
ACAD_MLINESTYLE
350
17
  3
ACAD_PLOTSETTINGS
350
19
  3
ACAD_PLOTSTYLENAME
350
E
  3
ACAD_SCALELIST
350
47
  3
APPDATA
350
153
  3
DWGPROPS
350
21C
  0
DICTIONARY
  5
17C
330
2
100
AcDbDictionary
280
     1
281
     1
  3
ACAD_LAYERSTATES
360
1AA
  0
DICTIONARY
  5
D
102
{ACAD_REACTORS
330
C
102
}
330
C
100
AcDbDictionary
281
     1
  0
RASTERVARIABLES
  5
155
102
{ACAD_REACTORS
330
C
102
}
330
C
100
AcDbRasterVariables
 90
        0
 70
     1
 71
     1
 72
     1
  0
DICTIONARY
  5
1A
102
{ACAD_REACTORS
330
C
102
}
330
C
100
AcDbDictionary
281
     1
  3
Layout1
350
1E
  3
Layout2
350
26
  3
Model
350
22
  0
DICTIONARY
  5
17
102
{ACAD_REACTORS
330
C
102
}
330
C
100
AcDbDictionary
281
     1
  3
Standard
350
18
  0
DICTIONARY
  5
19
102
{ACAD_REACTORS
330
C
102
}
330
C
100
AcDbDictionary
281
     1
  0
ACDBDICTIONARYWDFLT
  5
E
102
{ACAD_REACTORS
330
C
102
}
330
C
100
AcDbDictionary
281
     1
  3
Normal
350
F
100
AcDbDictionaryWithDefault
340
F
  0
DICTIONARY
  5
47
102
{ACAD_REACTORS
330
C
102
}
330
C
100
AcDbDictionary
281
     1
  3
A0
350
48
  3
A1
350
49
  3
A2
350
4A
  3
A3
350
4B
  3
A4
350
4C
  3
A5
350
4D
  3
A6
350
4E
  3
A7
350
4F
  3
A8
350
50
  3
A9
350
51
  3
B0
350
52
  3
B1
350
53
  3
B2
350
54
  3
B3
350
55
  3
B4
350
56
  3
B5
350
57
  3
B6
350
58
  3
B7
350
59
  3
B8
350
5A
  3
B9
350
5B
  3
C0
350
5C
  3
C1
350
5D
  3
C2
350
5E
  3
C3
350
5F
  3
C4
350
60
  3
C5
350
61
  3
C6
350
62
  3
C7
350
63
  3
C8
350
64
  3
C9
350
65
  3
D0
350
66
  3
D1
350
67
  3
D2
350
68
  0
DICTIONARY
  5
153
102
{ACAD_REACTORS
330
C
102
}
330
C
100
AcDbDictionary
281
     1
  0
XRECORD
  5
21C
102
{ACAD_REACTORS
330
C
102
}
330
C
100
AcDbXrecord
280
     1
  1
DWGPROPS COOKIE
  2

  3

  4

  6

  7

  8
12016016
  9

300
=
301
=
302
=
303
=
304
=
305
=
306
=
307
=
308
=
309
=
 40
0.0
 41
2458311.088473924
 42
2458318.291642141
  1

 90
        0
  0
DICTIONARY
  5
1AA
102
{ACAD_REACTORS
330
17C
102
}
330
17C
100
AcDbDictionary
281
     1
  0
LAYOUT
  5
1E
102
{ACAD_REACTORS
330
1A
102
}
330
1A
100
AcDbPlotSettings
  1

  2
none_device
  4

  6

 40
0.0
 41
0.0
 42
0.0
 43
0.0
 44
0.0
 45
0.0
 46
0.0
 47
0.0
 48
0.0
 49
0.0
140
0.0
141
0.0
142
1.0
143
1.0
 70
   688
 72
     1
 73
     0
 74
     5
  7

 75
    16
147
1.0
148
0.0
149
0.0
100
AcDbLayout
  1
Layout1
 70
     1
 71
     1
 10
0.0
 20
0.0
 11
420.0
 21
297.0
 12
0.0
 22
0.0
 32
0.0
 14
1.000000000000000E+20
 24
1.000000000000000E+20
 34
1.000000000000000E+20
 15
-1.000000000000000E+20
 25
-1.000000000000000E+20
 35
-1.000000000000000E+20
146
0.0
 13
0.0
 23
0.0
 33
0.0
 16
1.0
 26
0.0
 36
0.0
 17
0.0
 27
1.0
 37
0.0
 76
     0
330
1B
  0
LAYOUT
  5
26
102
{ACAD_REACTORS
330
1A
102
}
330
1A
100
AcDbPlotSettings
  1

  2
none_device
  4

  6

 40
0.0
 41
0.0
 42
0.0
 43
0.0
 44
0.0
 45
0.0
 46
0.0
 47
0.0
 48
0.0
 49
0.0
140
0.0
141
0.0
142
1.0
143
1.0
 70
   688
 72
     1
 73
     0
 74
     5
  7

 75
    16
147
1.0
148
0.0
149
0.0
100
AcDbLayout
  1
Layout2
 70
     1
 71
     2
 10
0.0
 20
0.0
 11
0.0
 21
0.0
 12
0.0
 22
0.0
 32
0.0
 14
0.0
 24
0.0
 34
0.0
 15
0.0
 25
0.0
 35
0.0
146
0.0
 13
0.0
 23
0.0
 33
0.0
 16
1.0
 26
0.0
 36
0.0
 17
0.0
 27
1.0
 37
0.0
 76
     0
330
23
  0
LAYOUT
  5
22
102
{ACAD_REACTORS
330
1A
102
}
330
1A
100
AcDbPlotSettings
  1

  2
none_device
  4
ANSI_A_(11.00_x_8.50_Inches)
  6

 40
6.35
 41
19.05
 42
6.35000508
 43
19.05000254
 44
279.4
 45
215.9
 46
105.075754193318
 47
73.71844477230655
 48
0.0
 49
0.0
140
0.0
141
0.0
142
0.0711785962167616
143
1.0
 70
  1696
 72
     0
 73
     0
 74
     0
  7

 75
     0
147
0.0235690232323232
148
0.0
149
0.0
100
AcDbLayout
  1
Model
 70
     1
 71
     0
 10
0.0
 20
0.0
 11
420.0
 21
297.0
 12
0.0
 22
0.0
 32
0.0
 14
1.000000000000000E+20
 24
1.000000000000000E+20
 34
1.000000000000000E+20
 15
-1.000000000000000E+20
 25
-1.000000000000000E+20
 35
-1.000000000000000E+20
146
0.0
 13
0.0
 23
0.0
 33
0.0
 16
1.0
 26
0.0
 36
0.0
 17
0.0
 27
1.0
 37
0.0
 76
     0
330
1F
331
29
  0
MLINESTYLE
  5
18
102
{ACAD_REACTORS
330
17
102
}
330
17
100
AcDbMlineStyle
  2
Standard
 70
     0
  3

 62
   256
 51
90.0
 52
90.0
 71
     2
 49
0.5
 62
   256
  6
BYLAYER
 49
-0.5
 62
   256
  6
BYLAYER
  0
ACDBPLACEHOLDER
  5
F
102
{ACAD_REACTORS
330
E
102
}
330
E
  0
SCALE
  5
48
102
{ACAD_REACTORS
330
47
102
}
330
47
100
AcDbScale
 70
     0
300
1:1
140
1.0
141
1.0
290
     1
  0
SCALE
  5
49
102
{ACAD_REACTORS
330
47
102
}
330
47
100
AcDbScale
 70
     0
300
1:2
140
1.0
141
2.0
290
     0
  0
SCALE
  5
4A
102
{ACAD_REACTORS
330
47
102
}
330
47
100
AcDbScale
 70
     0
300
1:4
140
1.0
141
4.0
290
     0
  0
SCALE
  5
4B
102
{ACAD_REACTORS
330
47
102
}
330
47
100
AcDbScale
 70
     0
300
1:5
140
1.0
141
5.0
290
     0
  0
SCALE
  5
4C
102
{ACAD_REACTORS
330
47
102
}
330
47
100
AcDbScale
 70
     0
300
1:8
140
1.0
141
8.0
290
     0
  0
SCALE
  5
4D
102
{ACAD_REACTORS
330
47
102
}
330
47
100
AcDbScale
 70
     0
300
1:10
140
1.0
141
10.0
290
     0
  0
SCALE
  5
4E
102
{ACAD_REACTORS
330
47
102
}
330
47
100
AcDbScale
 70
     0
300
1:16
140
1.0
141
16.0
290
     0
  0
SCALE
  5
4F
102
{ACAD_REACTORS
330
47
102
}
330
47
100
AcDbScale
 70
     0
300
1:20
140
1.0
141
20.0
290
     0
  0
SCALE
  5
50
102
{ACAD_REACTORS
330
47
102
}
330
47
100
AcDbScale
 70
     0
300
1:30
140
1.0
141
30.0
290
     0
  0
SCALE
  5
51
102
{ACAD_REACTORS
330
47
102
}
330
47
100
AcDbScale
 70
     0
300
1:40
140
1.0
141
40.0
290
     0
  0
SCALE
  5
52
102
{ACAD_REACTORS
330
47
102
}
330
47
100
AcDbScale
 70
     0
300
1:50
140
1.0
141
50.0
290
     0
  0
SCALE
  5
53
102
{ACAD_REACTORS
330
47
102
}
330
47
100
AcDbScale
 70
     0
300
1:100
140
1.0
141
100.0
290
     0
  0
SCALE
  5
54
102
{ACAD_REACTORS
330
47
102
}
330
47
100
AcDbScale
 70
     0
300
2:1
140
2.0
141
1.0
290
     0
  0
SCALE
  5
55
102
{ACAD_REACTORS
330
47
102
}
330
47
100
AcDbScale
 70
     0
300
4:1
140
4.0
141
1.0
290
     0
  0
SCALE
  5
56
102
{ACAD_REACTORS
330
47
102
}
330
47
100
AcDbScale
 70
     0
300
8:1
140
8.0
141
1.0
290
     0
  0
SCALE
  5
57
102
{ACAD_REACTORS
330
47
102
}
330
47
100
AcDbScale
 70
     0
300
10:1
140
10.0
141
1.0
290
     0
  0
SCALE
  5
58
102
{ACAD_REACTORS
330
47
102
}
330
47
100
AcDbScale
 70
     0
300
100:1
140
100.0
141
1.0
290
     0
  0
SCALE
  5
59
102
{ACAD_REACTORS
330
47
102
}
330
47
100
AcDbScale
 70
     0
300
1/128" = 1'-0"
140
0.0078125
141
12.0
290
     0
  0
SCALE
  5
5A
102
{ACAD_REACTORS
330
47
102
}
330
47
100
AcDbScale
 70
     0
300
1/64" = 1'-0"
140
0.015625
141
12.0
290
     0
  0
SCALE
  5
5B
102
{ACAD_REACTORS
330
47
102
}
330
47
100
AcDbScale
 70
     0
300
1/32" = 1'-0"
140
0.03125
141
12.0
290
     0
  0
SCALE
  5
5C
102
{ACAD_REACTORS
330
47
102
}
330
47
100
AcDbScale
 70
     0
300
1/16" = 1'-0"
140
0.0625
141
12.0
290
     0
  0
SCALE
  5
5D
102
{ACAD_REACTORS
330
47
102
}
330
47
100
AcDbScale
 70
     0
300
3/32" = 1'-0"
140
0.09375
141
12.0
290
     0
  0
SCALE
  5
5E
102
{ACAD_REACTORS
330
47
102
}
330
47
100
AcDbScale
 70
     0
300
1/8" = 1'-0"
140
0.125
141
12.0
290
     0
  0
SCALE
  5
5F
102
{ACAD_REACTORS
330
47
102
}
330
47
100
AcDbScale
 70
     0
300
3/16" = 1'-0"
140
0.1875
141
12.0
290
     0
  0
SCALE
  5
60
102
{ACAD_REACTORS
330
47
102
}
330
47
100
AcDbScale
 70
     0
300
1/4" = 1'-0"
140
0.25
141
12.0
290
     0
  0
SCALE
  5
61
102
{ACAD_REACTORS
330
47
102
}
330
47
100
AcDbScale
 70
     0
300
3/8" = 1'-0"
140
0.375
141
12.0
290
     0
  0
SCALE
  5
62
102
{ACAD_REACTORS
330
47
102
}
330
47
100
AcDbScale
 70
     0
300
1/2" = 1'-0"
140
0.5
141
12.0
290
     0
  0
SCALE
  5
63
102
{ACAD_REACTORS
330
47
102
}
330
47
100
AcDbScale
 70
     0
300
3/4" = 1'-0"
140
0.75
141
12.0
290
     0
  0
SCALE
  5
64
102
{ACAD_REACTORS
330
47
102
}
330
47
100
AcDbScale
 70
     0
300
1" = 1'-0"
140
1.0
141
12.0
290
     0
  0
SCALE
  5
65
102
{ACAD_REACTORS
330
47
102
}
330
47
100
AcDbScale
 70
     0
300
1-1/2" = 1'-0"
140
1.5
141
12.0
290
     0
  0
SCALE
  5
66
102
{ACAD_REACTORS
330
47
102
}
330
47
100
AcDbScale
 70
     0
300
3" = 1'-0"
140
3.0
141
12.0
290
     0
  0
SCALE
  5
67
102
{ACAD_REACTORS
330
47
102
}
330
47
100
AcDbScale
 70
     0
300
6" = 1'-0"
140
6.0
141
12.0
290
     0
  0
SCALE
  5
68
102
{ACAD_REACTORS
330
47
102
}
330
47
100
AcDbScale
 70
     0
300
1'-0" = 1'-0"
140
12.0
141
12.0
290
     0
  0
ENDSEC
  0
EOF
