  0
SECTION
  2
HEADER
  9
$ACADVER
  1
AC1015
  9
$ACADMAINTVER
 70
     6
  9
$DWGCODEPAGE
  3
ANSI_949
  9
$INSBASE
 10
0.0
 20
0.0
 30
0.0
  9
$EXTMIN
 10
1.000000000000000E+20
 20
1.000000000000000E+20
 30
1.000000000000000E+20
  9
$EXTMAX
 10
-1.000000000000000E+20
 20
-1.000000000000000E+20
 30
-1.000000000000000E+20
  9
$LIMMIN
 10
0.0
 20
0.0
  9
$LIMMAX
 10
420.0
 20
297.0
  9
$ORTHOMODE
 70
     1
  9
$REGENMODE
 70
     1
  9
$FILLMODE
 70
     1
  9
$QTEXTMODE
 70
     0
  9
$MIRRTEXT
 70
     1
  9
$LTSCALE
 40
1.0
  9
$ATTMODE
 70
     1
  9
$TEXTSIZE
 40
3.5
  9
$TRACEWID
 40
1.0
  9
$TEXTSTYLE
  7
Standard
  9
$CLAYER
  8
0
  9
$CELTYPE
  6
ByLayer
  9
$CECOLOR
 62
   256
  9
$CELTSCALE
 40
1.0
  9
$DISPSILH
 70
     0
  9
$DIMSCALE
 40
1.0
  9
$DIMASZ
 40
3.302
  9
$DIMEXO
 40
1.0
  9
$DIMDLI
 40
3.75
  9
$DIMRND
 40
0.0
  9
$DIMDLE
 40
0.0
  9
$DIMEXE
 40
1.0
  9
$DIMTP
 40
0.0
  9
$DIMTM
 40
0.0
  9
$DIMTXT
 40
3.5
  9
$DIMCEN
 40
2.5
  9
$DIMTSZ
 40
0.0
  9
$DIMTOL
 70
     0
  9
$DIMLIM
 70
     0
  9
$DIMTIH
 70
     1
  9
$DIMTOH
 70
     1
  9
$DIMSE1
 70
     0
  9
$DIMSE2
 70
     0
  9
$DIMTAD
 70
     1
  9
$DIMZIN
 70
     0
  9
$DIMBLK
  1

  9
$DIMASO
 70
     1
  9
$DIMSHO
 70
     1
  9
$DIMPOST
  1

  9
$DIMAPOST
  1

  9
$DIMALT
 70
     0
  9
$DIMALTD
 70
     3
  9
$DIMALTF
 40
0.0393700787401575
  9
$DIMLFAC
 40
1.0
  9
$DIMTOFL
 70
     1
  9
$DIMTVP
 40
0.0
  9
$DIMTIX
 70
     0
  9
$DIMSOXD
 70
     0
  9
$DIMSAH
 70
     0
  9
$DIMBLK1
  1

  9
$DIMBLK2
  1

  9
$DIMSTYLE
  2
ISO-25
  9
$DIMCLRD
 70
     0
  9
$DIMCLRE
 70
     0
  9
$DIMCLRT
 70
     0
  9
$DIMTFAC
 40
1.0
  9
$DIMGAP
 40
1.524
  9
$DIMJUST
 70
     0
  9
$DIMSD1
 70
     0
  9
$DIMSD2
 70
     0
  9
$DIMTOLJ
 70
     0
  9
$DIMTZIN
 70
     0
  9
$DIMALTZ
 70
     0
  9
$DIMALTTZ
 70
     0
  9
$DIMUPT
 70
     0
  9
$DIMDEC
 70
     2
  9
$DIMTDEC
 70
     2
  9
$DIMALTU
 70
     2
  9
$DIMALTTD
 70
     3
  9
$DIMTXSTY
  7
Standard
  9
$DIMAUNIT
 70
     0
  9
$DIMADEC
 70
     2
  9
$DIMALTRND
 40
0.0
  9
$DIMAZIN
 70
     0
  9
$DIMDSEP
 70
    44
  9
$DIMATFIT
 70
     3
  9
$DIMFRAC
 70
     0
  9
$DIMLDRBLK
  1

  9
$DIMLUNIT
 70
     2
  9
$DIMLWD
 70
    -2
  9
$DIMLWE
 70
    -2
  9
$DIMTMOVE
 70
     0
  9
$LUNITS
 70
     2
  9
$LUPREC
 70
     2
  9
$SKETCHINC
 40
1.0
  9
$FILLETRAD
 40
10.0
  9
$AUNITS
 70
     0
  9
$AUPREC
 70
     2
  9
$MENU
  1
.
  9
$ELEVATION
 40
0.0
  9
$PELEVATION
 40
0.0
  9
$THICKNESS
 40
0.0
  9
$LIMCHECK
 70
     0
  9
$CHAMFERA
 40
0.0
  9
$CHAMFERB
 40
0.0
  9
$CHAMFERC
 40
0.0
  9
$CHAMFERD
 40
0.0
  9
$SKPOLY
 70
     0
  9
$TDCREATE
 40
2458311.463685174
  9
$TDUCREATE
 40
2458311.088685174
  9
$TDUPDATE
 40
2458318.666440567
  9
$TDUUPDATE
 40
2458318.291440567
  9
$TDINDWG
 40
0.0016770255
  9
$TDUSRTIMER
 40
2458318.291340683
  9
$USRTIMER
 70
     1
  9
$ANGBASE
 50
0.0
  9
$ANGDIR
 70
     0
  9
$PDMODE
 70
     0
  9
$PDSIZE
 40
-1.0
  9
$PLINEWID
 40
0.0
  9
$SPLFRAME
 70
     0
  9
$SPLINETYPE
 70
     6
  9
$SPLINESEGS
 70
     8
  9
$HANDSEED
  5
216
  9
$SURFTAB1
 70
     6
  9
$SURFTAB2
 70
     6
  9
$SURFTYPE
 70
     6
  9
$SURFU
 70
     6
  9
$SURFV
 70
     6
  9
$UCSBASE
  2

  9
$UCSNAME
  2

  9
$UCSORG
 10
0.0
 20
0.0
 30
0.0
  9
$UCSXDIR
 10
1.0
 20
0.0
 30
0.0
  9
$UCSYDIR
 10
0.0
 20
1.0
 30
0.0
  9
$UCSORTHOREF
  2

  9
$UCSORTHOVIEW
 70
     0
  9
$UCSORGTOP
 10
0.0
 20
0.0
 30
0.0
  9
$UCSORGBOTTOM
 10
0.0
 20
0.0
 30
0.0
  9
$UCSORGLEFT
 10
0.0
 20
0.0
 30
0.0
  9
$UCSORGRIGHT
 10
0.0
 20
0.0
 30
0.0
  9
$UCSORGFRONT
 10
0.0
 20
0.0
 30
0.0
  9
$UCSORGBACK
 10
0.0
 20
0.0
 30
0.0
  9
$PUCSBASE
  2

  9
$PUCSNAME
  2

  9
$PUCSORG
 10
0.0
 20
0.0
 30
0.0
  9
$PUCSXDIR
 10
1.0
 20
0.0
 30
0.0
  9
$PUCSYDIR
 10
0.0
 20
1.0
 30
0.0
  9
$PUCSORTHOREF
  2

  9
$PUCSORTHOVIEW
 70
     0
  9
$PUCSORGTOP
 10
0.0
 20
0.0
 30
0.0
  9
$PUCSORGBOTTOM
 10
0.0
 20
0.0
 30
0.0
  9
$PUCSORGLEFT
 10
0.0
 20
0.0
 30
0.0
  9
$PUCSORGRIGHT
 10
0.0
 20
0.0
 30
0.0
  9
$PUCSORGFRONT
 10
0.0
 20
0.0
 30
0.0
  9
$PUCSORGBACK
 10
0.0
 20
0.0
 30
0.0
  9
$USERI1
 70
     0
  9
$USERI2
 70
     0
  9
$USERI3
 70
     0
  9
$USERI4
 70
     0
  9
$USERI5
 70
     0
  9
$USERR1
 40
0.0
  9
$USERR2
 40
0.0
  9
$USERR3
 40
0.0
  9
$USERR4
 40
0.0
  9
$USERR5
 40
0.0
  9
$WORLDVIEW
 70
     1
  9
$SHADEDGE
 70
     3
  9
$SHADEDIF
 70
    70
  9
$TILEMODE
 70
     1
  9
$MAXACTVP
 70
    64
  9
$PINSBASE
 10
0.0
 20
0.0
 30
0.0
  9
$PLIMCHECK
 70
     0
  9
$PEXTMIN
 10
1.000000000000000E+20
 20
1.000000000000000E+20
 30
1.000000000000000E+20
  9
$PEXTMAX
 10
-1.000000000000000E+20
 20
-1.000000000000000E+20
 30
-1.000000000000000E+20
  9
$PLIMMIN
 10
0.0
 20
0.0
  9
$PLIMMAX
 10
0.0
 20
0.0
  9
$UNITMODE
 70
     0
  9
$VISRETAIN
 70
     1
  9
$PLINEGEN
 70
     0
  9
$PSLTSCALE
 70
     1
  9
$TREEDEPTH
 70
  3020
  9
$CMLSTYLE
  2
Standard
  9
$CMLJUST
 70
     0
  9
$CMLSCALE
 40
20.0
  9
$PROXYGRAPHICS
 70
     1
  9
$MEASUREMENT
 70
     1
  9
$CELWEIGHT
370
    -1
  9
$ENDCAPS
280
     0
  9
$JOINSTYLE
280
     0
  9
$LWDISPLAY
290
     1
  9
$INSUNITS
 70
     4
  9
$HYPERLINKBASE
  1

  9
$STYLESHEET
  1

  9
$XEDIT
290
     1
  9
$CEPSNTYPE
380
     0
  9
$PSTYLEMODE
290
     1
  9
$FINGERPRINTGUID
  2
{153C38F2-592F-41EE-ADC1-974A48403FEA}
  9
$VERSIONGUID
  2
{FAEB1C32-E019-11D5-929B-00C0DF256EC4}
  9
$EXTNAMES
290
     1
  9
$PSVPSCALE
 40
0.0
  9
$OLESTARTUP
290
     0
  0
ENDSEC
  0
SECTION
  2
CLASSES
  0
CLASS
  1
ACDBDICTIONARYWDFLT
  2
AcDbDictionaryWithDefault
  3
ObjectDBX Classes
 90
        0
280
     0
281
     0
  0
CLASS
  1
VISUALSTYLE
  2
AcDbVisualStyle
  3
ObjectDBX Classes
 90
     4095
280
     0
281
     0
  0
CLASS
  1
MATERIAL
  2
AcDbMaterial
  3
ObjectDBX Classes
 90
     1153
280
     0
281
     0
  0
CLASS
  1
SCALE
  2
AcDbScale
  3
ObjectDBX Classes
 90
     1153
280
     0
281
     0
  0
CLASS
  1
SUN
  2
AcDbSun
  3
SCENEOE
 90
     1153
280
     0
281
     0
  0
CLASS
  1
ACDBPLACEHOLDER
  2
AcDbPlaceHolder
  3
ObjectDBX Classes
 90
        0
280
     0
281
     0
  0
CLASS
  1
LAYOUT
  2
AcDbLayout
  3
ObjectDBX Classes
 90
        0
280
     0
281
     0
  0
CLASS
  1
TABLESTYLE
  2
AcDbTableStyle
  3
ObjectDBX Classes
 90
     4095
280
     0
281
     0
  0
CLASS
  1
MLEADERSTYLE
  2
AcDbMLeaderStyle
  3
ACDB_MLEADERSTYLE_CLASS
 90
     4095
280
     0
281
     0
  0
CLASS
  1
RASTERVARIABLES
  2
AcDbRasterVariables
  3
ISM
 90
        0
280
     0
281
     0
  0
ENDSEC
  0
SECTION
  2
TABLES
  0
TABLE
  2
VPORT
  5
8
330
0
100
AcDbSymbolTable
 70
     1
  0
VPORT
  5
29
330
8
100
AcDbSymbolTableRecord
100
AcDbViewportTableRecord
  2
*Active
 70
     0
 10
0.0
 20
0.0
 11
1.0
 21
1.0
 12
5.708163166582125
 22
-4.081772213156896
 13
0.0
 23
0.0
 14
10.0
 24
10.0
 15
10.0
 25
10.0
 16
0.0
 26
0.0
 36
1.0
 17
0.0
 27
0.0
 37
0.0
 40
171.3076523228316
 41
1.740812379110251
 42
50.0
 43
0.0
 44
0.0
 50
0.0
 51
0.0
 71
    16
 72
  2000
 73
     1
 74
     3
 75
     0
 76
     0
 77
     0
 78
     0
281
     0
 65
     1
110
0.0
120
0.0
130
0.0
111
1.0
121
0.0
131
0.0
112
0.0
122
1.0
132
0.0
 79
     0
146
0.0
  0
ENDTAB
  0
TABLE
  2
LTYPE
  5
5
330
0
100
AcDbSymbolTable
 70
     6
  0
LTYPE
  5
14
330
5
100
AcDbSymbolTableRecord
100
AcDbLinetypeTableRecord
  2
ByBlock
 70
     0
  3

 72
    65
 73
     0
 40
0.0
  0
LTYPE
  5
15
330
5
100
AcDbSymbolTableRecord
100
AcDbLinetypeTableRecord
  2
ByLayer
 70
     0
  3

 72
    65
 73
     0
 40
0.0
  0
LTYPE
  5
16
330
5
100
AcDbSymbolTableRecord
100
AcDbLinetypeTableRecord
  2
Continuous
 70
     0
  3
Solid line
 72
    65
 73
     0
 40
0.0
  0
LTYPE
  5
6A
330
5
100
AcDbSymbolTableRecord
100
AcDbLinetypeTableRecord
  2
HIDDEN
 70
     0
  3
Hidden __ __ __ __ __ __ __ __ __ __ __ __ __ __
 72
    65
 73
     2
 40
1.905
 49
1.27
 74
     0
 49
-0.635
 74
     0
  0
LTYPE
  5
6B
330
5
100
AcDbSymbolTableRecord
100
AcDbLinetypeTableRecord
  2
PHANTOM
 70
     0
  3
Phantom ______  __  __  ______  __  __  ______
 72
    65
 73
     6
 40
12.7
 49
6.35
 74
     0
 49
-1.27
 74
     0
 49
1.27
 74
     0
 49
-1.27
 74
     0
 49
1.27
 74
     0
 49
-1.27
 74
     0
  0
LTYPE
  5
6C
330
5
100
AcDbSymbolTableRecord
100
AcDbLinetypeTableRecord
  2
CENTER
 70
     0
  3
Center ____ _ ____ _ ____ _ ____ _ ____ _ ____
 72
    65
 73
     4
 40
10.16
 49
6.35
 74
     0
 49
-1.27
 74
     0
 49
1.27
 74
     0
 49
-1.27
 74
     0
  0
LTYPE
  5
6D
330
5
100
AcDbSymbolTableRecord
100
AcDbLinetypeTableRecord
  2
CENTERX2
 70
     0
  3
Center (2x) ________  __  ________  __  _____
 72
    65
 73
     4
 40
20.32
 49
12.7
 74
     0
 49
-2.54
 74
     0
 49
2.54
 74
     0
 49
-2.54
 74
     0
  0
LTYPE
  5
6E
330
5
100
AcDbSymbolTableRecord
100
AcDbLinetypeTableRecord
  2
DOT2
 70
     0
  3
Dot (.5x) ........................................
 72
    65
 73
     2
 40
0.635
 49
0.0
 74
     0
 49
-0.635
 74
     0
  0
ENDTAB
  0
TABLE
  2
LAYER
  5
2
102
{ACAD_XDICTIONARY
360
17F
102
}
330
0
100
AcDbSymbolTable
 70
    18
  0
LAYER
  5
10
330
2
100
AcDbSymbolTableRecord
100
AcDbLayerTableRecord
  2
0
 70
     0
 62
     7
  6
Continuous
370
    -3
390
F
  0
LAYER
  5
6F
330
2
100
AcDbSymbolTableRecord
100
AcDbLayerTableRecord
  2
FORMAT
 70
     0
 62
     2
  6
Continuous
370
    -3
390
F
  0
LAYER
  5
70
330
2
100
AcDbSymbolTableRecord
100
AcDbLayerTableRecord
  2
외형선
 70
     0
 62
     4
  6
Continuous
370
    30
390
F
  0
LAYER
  5
71
330
2
100
AcDbSymbolTableRecord
100
AcDbLayerTableRecord
  2
숨은선
 70
     0
 62
     2
  6
HIDDEN
370
    15
390
F
  0
LAYER
  5
72
330
2
100
AcDbSymbolTableRecord
100
AcDbLayerTableRecord
  2
중심선
 70
     0
 62
     1
  6
CENTERX2
370
    -3
390
F
  0
LAYER
  5
73
330
2
100
AcDbSymbolTableRecord
100
AcDbLayerTableRecord
  2
파단선
 70
     0
 62
     4
  6
Continuous
370
    -3
390
F
  0
LAYER
  5
74
330
2
100
AcDbSymbolTableRecord
100
AcDbLayerTableRecord
  2
해칭선
 70
     0
 62
   100
  6
Continuous
370
    -3
390
F
  0
LAYER
  5
75
330
2
100
AcDbSymbolTableRecord
100
AcDbLayerTableRecord
  2
가는실선
 70
     0
 62
     4
  6
Continuous
370
    -3
390
F
  0
LAYER
  5
76
330
2
100
AcDbSymbolTableRecord
100
AcDbLayerTableRecord
  2
치수_보조선
 70
     0
 62
     4
  6
Continuous
370
    -3
390
F
  0
LAYER
  5
77
330
2
100
AcDbSymbolTableRecord
100
AcDbLayerTableRecord
  2
치수문자_일반주서
 70
     0
 62
     7
  6
Continuous
370
    15
390
F
  0
LAYER
  5
78
330
2
100
AcDbSymbolTableRecord
100
AcDbLayerTableRecord
  2
개별주서
 70
     0
 62
   100
  6
Continuous
370
    30
390
F
  0
LAYER
  5
79
330
2
100
AcDbSymbolTableRecord
100
AcDbLayerTableRecord
  2
중간선
 70
     0
 62
     2
  6
Continuous
370
    15
390
F
  0
LAYER
  5
7A
330
2
100
AcDbSymbolTableRecord
100
AcDbLayerTableRecord
  2
윤곽선
 70
     0
 62
     3
  6
Continuous
370
    40
390
F
  0
LAYER
  5
7B
330
2
100
AcDbSymbolTableRecord
100
AcDbLayerTableRecord
  2
중심마크
 70
     0
 62
   100
  6
Continuous
370
    30
390
F
  0
LAYER
  5
7C
330
2
100
AcDbSymbolTableRecord
100
AcDbLayerTableRecord
  2
가상선
 70
     0
 62
     4
  6
PHANTOM
370
    -3
390
F
  0
LAYER
  5
7D
330
2
100
AcDbSymbolTableRecord
100
AcDbLayerTableRecord
  2
특수지정선
 70
     0
 62
     5
  6
CENTERX2
370
    60
390
F
  0
LAYER
  5
7E
330
2
100
AcDbSymbolTableRecord
100
AcDbLayerTableRecord
  2
참조1
 70
     0
 62
    -4
  6
Continuous
370
    -3
390
F
  0
LAYER
  5
1AE
330
2
100
AcDbSymbolTableRecord
100
AcDbLayerTableRecord
  2
Defpoints
 70
     0
 62
     7
  6
Continuous
290
     0
370
    -3
390
F
  0
ENDTAB
  0
TABLE
  2
STYLE
  5
3
330
0
100
AcDbSymbolTable
 70
     2
  0
STYLE
  5
11
330
3
100
AcDbSymbolTableRecord
100
AcDbTextStyleTableRecord
  2
Standard
 70
     0
 40
0.0
 41
1.0
 50
0.0
 71
     0
 42
3.5
  3
txt
  4

  0
STYLE
  5
94
330
3
100
AcDbSymbolTableRecord
100
AcDbTextStyleTableRecord
  2
SLDTEXTSTYLE0
 70
     0
 40
0.0
 41
0.75
 50
0.0
 71
     0
 42
3.5
  3
TXT
  4

  0
ENDTAB
  0
TABLE
  2
VIEW
  5
6
330
0
100
AcDbSymbolTable
 70
     0
  0
ENDTAB
  0
TABLE
  2
UCS
  5
7
330
0
100
AcDbSymbolTable
 70
     0
  0
ENDTAB
  0
TABLE
  2
APPID
  5
9
330
0
100
AcDbSymbolTable
 70
     1
  0
APPID
  5
12
330
9
100
AcDbSymbolTableRecord
100
AcDbRegAppTableRecord
  2
ACAD
 70
     0
  0
ENDTAB
  0
TABLE
  2
DIMSTYLE
  5
A
330
0
100
AcDbSymbolTable
 70
     3
100
AcDbDimStyleTable
  0
DIMSTYLE
105
27
330
A
100
AcDbSymbolTableRecord
100
AcDbDimStyleTableRecord
  2
ISO-25
 70
     0
 41
2.5
 42
0.625
 43
3.75
 44
1.25
 73
     0
 74
     0
 77
     1
 78
     8
140
2.5
141
2.5
143
0.03937007874016
147
0.625
171
     3
172
     1
178
     0
271
     2
272
     2
274
     3
278
    44
283
     0
284
     8
340
11
  0
DIMSTYLE
105
D8
102
{ACAD_REACTORS
330
D7
330
EC
330
101
330
114
102
}
330
A
100
AcDbSymbolTableRecord
100
AcDbDimStyleTableRecord
  2
SLDDIMSTYLE0
 70
     0
 41
3.302
 44
0.0
 45
0.000000001
 73
     0
 74
     0
 77
     1
 78
    12
 79
     3
140
3.5
143
0.0393700787401575
147
0.875
148
0.000000001
170
     1
172
     1
173
     1
178
     0
271
     2
272
     2
276
     2
284
    12
289
     0
340
94
  0
DIMSTYLE
105
ED
330
A
100
AcDbSymbolTableRecord
100
AcDbDimStyleTableRecord
  2
SLDDIMSTYLE1
 70
     0
 41
3.302
 44
0.0
 45
0.000000001
 73
     0
 74
     0
 77
     1
 78
    12
 79
     3
140
3.5
143
0.0393700787401575
147
0.875
148
0.000000001
170
     1
173
     1
178
     0
271
     2
272
     2
276
     2
284
    12
340
94
  0
ENDTAB
  0
TABLE
  2
BLOCK_RECORD
  5
1
330
0
100
AcDbSymbolTable
 70
     8
  0
BLOCK_RECORD
  5
1F
330
1
100
AcDbSymbolTableRecord
100
AcDbBlockTableRecord
  2
*Model_Space
340
22
  0
BLOCK_RECORD
  5
1B
330
1
100
AcDbSymbolTableRecord
100
AcDbBlockTableRecord
  2
*Paper_Space
340
1E
  0
BLOCK_RECORD
  5
23
330
1
100
AcDbSymbolTableRecord
100
AcDbBlockTableRecord
  2
*Paper_Space0
340
26
  0
BLOCK_RECORD
  5
7F
330
1
100
AcDbSymbolTableRecord
100
AcDbBlockTableRecord
  2
블럭10
340
0
102
{BLKREFS
331
D0
102
}
  0
BLOCK_RECORD
  5
D9
330
1
100
AcDbSymbolTableRecord
100
AcDbBlockTableRecord
  2
_D
340
0
  0
BLOCK_RECORD
  5
EE
330
1
100
AcDbSymbolTableRecord
100
AcDbBlockTableRecord
  2
_D_1
340
0
  0
BLOCK_RECORD
  5
102
330
1
100
AcDbSymbolTableRecord
100
AcDbBlockTableRecord
  2
_D_2
340
0
  0
BLOCK_RECORD
  5
115
330
1
100
AcDbSymbolTableRecord
100
AcDbBlockTableRecord
  2
_D_3
340
0
  0
BLOCK_RECORD
  5
12E
330
1
100
AcDbSymbolTableRecord
100
AcDbBlockTableRecord
  2
SW_DOWELSYMBOL_0
340
0
102
{BLKREFS
331
134
102
}
  0
ENDTAB
  0
ENDSEC
  0
SECTION
  2
BLOCKS
  0
BLOCK
  5
20
330
1F
100
AcDbEntity
  8
0
100
AcDbBlockBegin
  2
*Model_Space
 70
     0
 10
0.0
 20
0.0
 30
0.0
  3
*Model_Space
  1
*Model_Space
  0
ENDBLK
  5
21
330
1F
100
AcDbEntity
  8
0
100
AcDbBlockEnd
  0
BLOCK
  5
1C
330
1B
100
AcDbEntity
 67
     1
  8
0
100
AcDbBlockBegin
  2
*Paper_Space
 70
     0
 10
0.0
 20
0.0
 30
0.0
  3
*Paper_Space
  1
*Paper_Space
  0
ENDBLK
  5
1D
330
1B
100
AcDbEntity
 67
     1
  8
0
100
AcDbBlockEnd
  0
BLOCK
  5
24
330
23
100
AcDbEntity
  8
0
100
AcDbBlockBegin
  2
*Paper_Space0
 70
     0
 10
0.0
 20
0.0
 30
0.0
  3
*Paper_Space0
  1
*Paper_Space0
  0
ENDBLK
  5
25
330
23
100
AcDbEntity
  8
0
100
AcDbBlockEnd
  0
BLOCK
  5
80
330
7F
100
AcDbEntity
  8
0
100
AcDbBlockBegin
  2
블럭10
 70
     2
 10
0.0
 20
0.0
 30
0.0
  3
블럭10
  1
블럭10
  0
ELLIPSE
  5
82
330
7F
100
AcDbEntity
  8
중심선
100
AcDbEllipse
 10
20.54032771741204
 20
12.0471743016438
 30
0.0
 11
6.600054785286829
 21
-1.261213355974178E-13
 31
0.0
210
0.0
220
0.0
230
1.0
 40
0.636358354079598
 41
0.9219305317359503
 42
6.513795318482858
  0
ELLIPSE
  5
83
330
7F
100
AcDbEntity
  8
중심선
100
AcDbEllipse
 10
20.54032771746488
 20
12.04717430159265
 30
0.0
 11
3.960054785062283
 21
1.540847449632565E-10
 31
0.0
210
0.0
220
0.0
230
1.0
 40
0.3939339440162632
 41
1.131841032648279
 42
5.62031148352944
  0
LINE
  5
84
330
7F
100
AcDbEntity
  8
중심선
100
AcDbLine
 10
2.268634060543552
 20
16.24717430164393
 30
0.0
 11
5.714909304380834
 21
16.24717430164393
 31
0.0
  0
LINE
  5
85
330
7F
100
AcDbEntity
  8
중심선
100
AcDbLine
 10
5.245725140726316
 20
7.84717430164391
 30
0.0
 11
8.692000384563599
 21
7.84717430164391
 31
0.0
  0
LINE
  5
86
330
7F
100
AcDbEntity
  8
중심선
100
AcDbLine
 10
15.74043728645272
 20
16.24717430164393
 30
0.0
 11
8.692000384563599
 21
7.84717430164391
 31
0.0
  0
LINE
  5
87
330
7F
100
AcDbEntity
  8
중심선
100
AcDbLine
 10
0.1404042013395286
 20
13.71084872107135
 30
0.0
 11
3.58671253028996
 21
13.71088815037384
 31
0.0
  0
LINE
  5
88
330
7F
100
AcDbEntity
  8
중심선
100
AcDbLine
 10
2.750260043222114
 20
10.84717430164391
 30
0.0
 11
6.196535287059397
 21
10.84717430164391
 31
0.0
  0
LINE
  5
89
330
7F
100
AcDbEntity
  8
중심선
100
AcDbLine
 10
12.29416204261559
 20
16.24717430164393
 30
0.0
 11
5.245725140726316
 21
7.84717430164391
 31
0.0
  0
LINE
  5
8A
330
7F
100
AcDbEntity
  8
중심선
100
AcDbLine
 10
10.72767329541681
 20
16.24717430164393
 30
0.0
 11
6.196535287059397
 21
10.84717430164391
 31
0.0
  0
LINE
  5
8B
330
7F
100
AcDbEntity
  8
중심선
100
AcDbLine
 10
7.28139805157953
 20
16.24717430164393
 30
0.0
 11
2.750260043222114
 21
10.84717430164391
 31
0.0
  0
LINE
  5
8C
330
7F
100
AcDbEntity
  8
중심선
100
AcDbLine
 10
5.714909304380834
 20
16.24717430164393
 30
0.0
 11
3.58671253028996
 21
13.71088815037384
 31
0.0
  0
LINE
  5
8D
330
7F
100
AcDbEntity
  8
중심선
100
AcDbLine
 10
2.268634060543552
 20
16.24717430164393
 30
0.0
 11
0.1404042013395286
 21
13.71084872107135
 31
0.0
  0
LINE
  5
8E
330
7F
100
AcDbEntity
  8
중심선
100
AcDbLine
 10
7.28139805157953
 20
16.24717430164393
 30
0.0
 11
10.72767329541681
 21
16.24717430164393
 31
0.0
  0
LINE
  5
8F
330
7F
100
AcDbEntity
  8
중심선
100
AcDbLine
 10
12.29416204261559
 20
16.24717430164393
 30
0.0
 11
15.74043728645272
 21
16.24717430164393
 31
0.0
  0
LINE
  5
90
330
7F
100
AcDbEntity
  8
중심선
100
AcDbLine
 10
19.22036997980202
 20
11.08717430171403
 30
0.0
 11
23.66174974927406
 21
11.08717430171406
 31
0.0
  0
LINE
  5
91
330
7F
100
AcDbEntity
  8
중심선
100
AcDbLine
 10
19.22039502424796
 20
13.00717430171391
 30
0.0
 11
19.22036997980202
 21
11.08717430171403
 31
0.0
  0
LINE
  5
92
330
7F
100
AcDbEntity
  8
중심선
100
AcDbLine
 10
19.22039502424796
 20
13.00717430171391
 30
0.0
 11
26.96566020931264
 21
13.00717430171391
 31
0.0
  0
LINE
  5
93
330
7F
100
AcDbEntity
  8
중심선
100
AcDbLine
 10
22.22332737316547
 20
13.45928029700563
 30
0.0
 11
24.52862924686651
 21
15.39360700705356
 31
0.0
  0
ATTDEF
  5
95
330
7F
100
AcDbEntity
  8
FORMAT
 62
     2
100
AcDbText
 10
4.408487351596664
 20
2.075366912832191
 30
0.0
 40
4.233333333333333
  1
E1070040
 41
0.75
  7
SLDTEXTSTYLE0
 11
4.408487351596664
 21
-0.0412997538344756
 31
0.0
100
AcDbAttributeDefinition
  3

  2
AUTOATTR0
 70
     0
 74
     1
  0
ENDBLK
  5
81
330
7F
100
AcDbEntity
  8
0
100
AcDbBlockEnd
  0
BLOCK
  5
DA
330
D9
100
AcDbEntity
  8
0
100
AcDbBlockBegin
  2
_D
 70
     0
 10
0.0
 20
0.0
 30
0.0
  3
_D
  1
_D
  0
LINE
  5
DC
330
D9
100
AcDbEntity
  8
치수문자_일반주서
 62
     0
370
    -2
100
AcDbLine
 10
-41.03749999999999
 20
7.938574928723879
 30
0.0
 11
-54.47500000000003
 21
7.938574928723829
 31
0.0
  0
LINE
  5
DD
330
D9
100
AcDbEntity
  8
치수문자_일반주서
 62
     0
370
    -2
100
AcDbLine
 10
-41.03749999999999
 20
-7.936425071276121
 30
0.0
 11
-54.47499999999997
 21
-7.936425071276171
 31
0.0
  0
LINE
  5
DE
330
D9
100
AcDbEntity
  8
치수문자_일반주서
 62
     0
370
    -2
100
AcDbLine
 10
-54.47500000000002
 20
4.636574928723829
 30
0.0
 11
-54.47499999999999
 21
-4.634425071276172
 31
0.0
  0
SOLID
  5
DF
330
D9
100
AcDbEntity
  8
치수문자_일반주서
 62
     0
100
AcDbTrace
 10
-53.92466666666668
 20
4.636574928723831
 30
0.0
 11
-55.02533333333335
 21
4.636574928723827
 31
0.0
 12
-54.47500000000003
 22
7.938574928723829
 32
0.0
 13
-54.47500000000003
 23
7.938574928723829
 33
0.0
  0
SOLID
  5
E0
330
D9
100
AcDbEntity
  8
치수문자_일반주서
 62
     0
100
AcDbTrace
 10
-55.02533333333332
 20
-4.634425071276174
 30
0.0
 11
-53.92466666666665
 21
-4.63442507127617
 31
0.0
 12
-54.47499999999997
 22
-7.936425071276171
 32
0.0
 13
-54.47499999999997
 23
-7.936425071276171
 33
0.0
  0
MTEXT
  5
E1
330
D9
100
AcDbEntity
  8
치수문자_일반주서
 62
     0
100
AcDbMText
 10
-58.85
 20
0.0010749287238703
 30
0.0
 40
3.5
 41
0.0
 71
     2
 72
     1
  1
\A1;%%c15.88 [5/8]
  7
SLDTEXTSTYLE0
 11
-3.580687802255623E-15
 21
1.0
 31
0.0
 73
     1
 44
1.0
  0
POINT
  5
E2
330
D9
100
AcDbEntity
  8
Defpoints
 62
     0
100
AcDbPoint
 10
-40.97499999999999
 20
7.938574928723879
 30
0.0
  0
POINT
  5
E3
330
D9
100
AcDbEntity
  8
Defpoints
 62
     0
100
AcDbPoint
 10
-40.97499999999999
 20
-7.936425071276121
 30
0.0
  0
POINT
  5
E4
330
D9
100
AcDbEntity
  8
Defpoints
 62
     0
100
AcDbPoint
 10
-54.47499999999997
 20
-7.936425071276171
 30
0.0
  0
ENDBLK
  5
DB
330
D9
100
AcDbEntity
  8
0
100
AcDbBlockEnd
  0
BLOCK
  5
EF
330
EE
100
AcDbEntity
  8
0
100
AcDbBlockBegin
  2
_D_1
 70
     0
 10
0.0
 20
0.0
 30
0.0
  3
_D_1
  1
_D_1
  0
LINE
  5
F1
330
EE
100
AcDbEntity
  8
치수문자_일반주서
 62
     0
370
    -2
100
AcDbLine
 10
53.27500000000001
 20
8.0010749287239
 30
0.0
 11
53.27500000000001
 21
21.10820800543212
 31
0.0
  0
LINE
  5
F2
330
EE
100
AcDbEntity
  8
치수문자_일반주서
 62
     0
370
    -2
100
AcDbLine
 10
12.0
 20
7.962834288009722
 30
0.0
 11
12.0
 21
21.10820800543212
 31
0.0
  0
LINE
  5
F3
330
EE
100
AcDbEntity
  8
치수문자_일반주서
 62
     0
370
    -2
100
AcDbLine
 10
49.97300000000001
 20
21.10820800543212
 30
0.0
 11
15.302
 21
21.10820800543212
 31
0.0
  0
SOLID
  5
F4
330
EE
100
AcDbEntity
  8
치수문자_일반주서
 62
     0
100
AcDbTrace
 10
49.97300000000001
 20
20.55787467209879
 30
0.0
 11
49.97300000000001
 21
21.65854133876546
 31
0.0
 12
53.27500000000001
 22
21.10820800543212
 32
0.0
 13
53.27500000000001
 23
21.10820800543212
 33
0.0
  0
SOLID
  5
F5
330
EE
100
AcDbEntity
  8
치수문자_일반주서
 62
     0
100
AcDbTrace
 10
15.302
 20
21.65854133876546
 30
0.0
 11
15.302
 21
20.55787467209879
 31
0.0
 12
12.0
 22
21.10820800543212
 32
0.0
 13
12.0
 23
21.10820800543212
 33
0.0
  0
MTEXT
  5
F6
330
EE
100
AcDbEntity
  8
치수문자_일반주서
 62
     0
100
AcDbMText
 10
32.63750000000001
 20
25.48320800543212
 30
0.0
 40
3.5
 41
0.0
 71
     2
 72
     1
  1
\A1;41.28 [1 5/8]
  7
SLDTEXTSTYLE0
 73
     1
 44
1.0
  0
POINT
  5
F7
330
EE
100
AcDbEntity
  8
Defpoints
 62
     0
100
AcDbPoint
 10
53.27500000000001
 20
7.9385749287239
 30
0.0
  0
POINT
  5
F8
330
EE
100
AcDbEntity
  8
Defpoints
 62
     0
100
AcDbPoint
 10
12.0
 20
7.900334288009722
 30
0.0
  0
POINT
  5
F9
330
EE
100
AcDbEntity
  8
Defpoints
 62
     0
100
AcDbPoint
 10
12.0
 20
21.10820800543212
 30
0.0
  0
ENDBLK
  5
F0
330
EE
100
AcDbEntity
  8
0
100
AcDbBlockEnd
  0
BLOCK
  5
103
330
102
100
AcDbEntity
  8
0
100
AcDbBlockBegin
  2
_D_2
 70
     0
 10
0.0
 20
0.0
 30
0.0
  3
_D_2
  1
_D_2
  0
LINE
  5
105
330
102
100
AcDbEntity
  8
치수문자_일반주서
 62
     0
370
    -2
100
AcDbLine
 10
53.27500000000001
 20
8.0010749287239
 30
0.0
 11
53.27500000000001
 21
38.0588226436362
 31
0.0
  0
LINE
  5
106
330
102
100
AcDbEntity
  8
치수문자_일반주서
 62
     0
370
    -2
100
AcDbLine
 10
-41.975
 20
7.001074928723886
 30
0.0
 11
-41.975
 21
38.0588226436362
 31
0.0
  0
LINE
  5
107
330
102
100
AcDbEntity
  8
치수문자_일반주서
 62
     0
370
    -2
100
AcDbLine
 10
49.97300000000001
 20
38.0588226436362
 30
0.0
 11
-38.673
 21
38.0588226436362
 31
0.0
  0
SOLID
  5
108
330
102
100
AcDbEntity
  8
치수문자_일반주서
 62
     0
100
AcDbTrace
 10
49.97300000000001
 20
37.50848931030287
 30
0.0
 11
49.97300000000001
 21
38.60915597696954
 31
0.0
 12
53.27500000000001
 22
38.0588226436362
 32
0.0
 13
53.27500000000001
 23
38.0588226436362
 33
0.0
  0
SOLID
  5
109
330
102
100
AcDbEntity
  8
치수문자_일반주서
 62
     0
100
AcDbTrace
 10
-38.673
 20
38.60915597696954
 30
0.0
 11
-38.673
 21
37.50848931030287
 31
0.0
 12
-41.975
 22
38.0588226436362
 32
0.0
 13
-41.975
 23
38.0588226436362
 33
0.0
  0
MTEXT
  5
10A
330
102
100
AcDbEntity
  8
치수문자_일반주서
 62
     0
100
AcDbMText
 10
5.649999999999858
 20
42.4338226436362
 30
0.0
 40
3.5
 41
0.0
 71
     2
 72
     1
  1
\A1;95.25 [3 3/4]
  7
SLDTEXTSTYLE0
 73
     1
 44
1.0
  0
POINT
  5
10B
330
102
100
AcDbEntity
  8
Defpoints
 62
     0
100
AcDbPoint
 10
53.27500000000001
 20
7.9385749287239
 30
0.0
  0
POINT
  5
10C
330
102
100
AcDbEntity
  8
Defpoints
 62
     0
100
AcDbPoint
 10
-41.975
 20
6.938574928723886
 30
0.0
  0
POINT
  5
10D
330
102
100
AcDbEntity
  8
Defpoints
 62
     0
100
AcDbPoint
 10
-41.975
 20
38.0588226436362
 30
0.0
  0
ENDBLK
  5
104
330
102
100
AcDbEntity
  8
0
100
AcDbBlockEnd
  0
BLOCK
  5
116
330
115
100
AcDbEntity
  8
0
100
AcDbBlockBegin
  2
_D_3
 70
     0
 10
0.0
 20
0.0
 30
0.0
  3
_D_3
  1
_D_3
  0
LINE
  5
118
330
115
100
AcDbEntity
  8
치수문자_일반주서
 62
     0
370
    -2
100
AcDbLine
 10
53.33750000000001
 20
-7.936425071276096
 30
0.0
 11
65.37278532656268
 21
-7.936425071276055
 31
0.0
  0
LINE
  5
119
330
115
100
AcDbEntity
  8
치수문자_일반주서
 62
     0
370
    -2
100
AcDbLine
 10
53.33750000000001
 20
7.9385749287239
 30
0.0
 11
65.37278532656262
 21
7.938574928723945
 31
0.0
  0
LINE
  5
11A
330
115
100
AcDbEntity
  8
치수문자_일반주서
 62
     0
370
    -2
100
AcDbLine
 10
65.37278532656262
 20
7.938574928723945
 30
0.0
 11
65.37278532656248
 21
45.90932113412585
 31
0.0
  0
LINE
  5
11B
330
115
100
AcDbEntity
  8
치수문자_일반주서
 62
     0
370
    -2
100
AcDbLine
 10
65.37278532656268
 20
-7.936425071276055
 30
0.0
 11
65.37278532656262
 21
7.938574928723945
 31
0.0
  0
LINE
  5
11C
330
115
100
AcDbEntity
  8
치수문자_일반주서
 62
     0
370
    -2
100
AcDbLine
 10
65.37278532656269
 20
-11.23842507127605
 30
0.0
 11
65.3727853265627
 21
-14.54042507127605
 31
0.0
  0
LINE
  5
11D
330
115
100
AcDbEntity
  8
치수문자_일반주서
 62
     0
370
    -2
100
AcDbLine
 10
65.3727853265626
 20
11.24057492872394
 30
0.0
 11
65.37278532656259
 21
14.54257492872394
 31
0.0
  0
SOLID
  5
11E
330
115
100
AcDbEntity
  8
치수문자_일반주서
 62
     0
100
AcDbTrace
 10
65.92311865989602
 20
-11.23842507127605
 30
0.0
 11
64.82245199322936
 21
-11.23842507127606
 31
0.0
 12
65.37278532656268
 22
-7.936425071276055
 32
0.0
 13
65.37278532656268
 23
-7.936425071276055
 33
0.0
  0
SOLID
  5
11F
330
115
100
AcDbEntity
  8
치수문자_일반주서
 62
     0
100
AcDbTrace
 10
64.82245199322928
 20
11.24057492872394
 30
0.0
 11
65.92311865989593
 21
11.24057492872395
 31
0.0
 12
65.37278532656262
 22
7.938574928723945
 32
0.0
 13
65.37278532656262
 23
7.938574928723945
 33
0.0
  0
MTEXT
  5
120
330
115
100
AcDbEntity
  8
치수문자_일반주서
 62
     0
100
AcDbMText
 10
60.99778532656254
 20
31.90932113412583
 30
0.0
 40
3.5
 41
0.0
 71
     2
 72
     1
  1
\A1;%%c15.88 [5/8]
  7
SLDTEXTSTYLE0
 11
-3.580687802255624E-15
 21
1.0
 31
0.0
 73
     1
 44
1.0
  0
POINT
  5
121
330
115
100
AcDbEntity
  8
Defpoints
 62
     0
100
AcDbPoint
 10
53.27500000000001
 20
-7.936425071276096
 30
0.0
  0
POINT
  5
1B1
330
115
100
AcDbEntity
  8
Defpoints
 62
     0
100
AcDbPoint
 10
53.27500000000001
 20
7.9385749287239
 30
0.0
  0
POINT
  5
1B2
330
115
100
AcDbEntity
  8
Defpoints
 62
     0
100
AcDbPoint
 10
65.37278532656262
 20
7.938574928723946
 30
0.0
  0
ENDBLK
  5
117
330
115
100
AcDbEntity
  8
0
100
AcDbBlockEnd
  0
BLOCK
  5
12F
330
12E
100
AcDbEntity
  8
0
100
AcDbBlockBegin
  2
SW_DOWELSYMBOL_0
 70
     0
 10
0.0
 20
0.0
 30
0.0
  3
SW_DOWELSYMBOL_0
  1
SW_DOWELSYMBOL_0
  0
CIRCLE
  5
131
330
12E
100
AcDbEntity
  8
해칭선
 62
     0
100
AcDbCircle
 10
0.0
 20
0.0
 30
0.0
 40
2.999999999999996
  0
HATCH
  5
132
330
12E
100
AcDbEntity
  8
0
  6
Continuous
 62
     0
370
     0
100
AcDbHatch
 10
0.0
 20
0.0
 30
0.0
210
0.0
220
0.0
230
1.0
  2
SOLID
 70
     1
 71
     0
 91
        1
 92
        0
 93
        3
 72
     2
 10
0.0
 20
0.0
 40
2.999999999999996
 50
0.0
 51
90.0
 73
     1
 72
     1
 10
0.0
 20
2.999999999999996
 11
0.0
 21
0.0
 72
     1
 10
0.0
 20
0.0
 11
2.999999999999996
 21
0.0
 97
        0
 75
     0
 76
     1
 98
        1
 10
0.0
 20
0.0
  0
HATCH
  5
133
330
12E
100
AcDbEntity
  8
0
  6
Continuous
 62
     0
370
     0
100
AcDbHatch
 10
0.0
 20
0.0
 30
0.0
210
0.0
220
0.0
230
1.0
  2
SOLID
 70
     1
 71
     0
 91
        1
 92
        0
 93
        3
 72
     2
 10
0.0
 20
0.0
 40
2.999999999999996
 50
180.0
 51
270.0000000000007
 73
     1
 72
     1
 10
0.0
 20
-2.999999999999996
 11
0.0
 21
0.0
 72
     1
 10
0.0
 20
0.0
 11
-2.999999999999996
 21
0.0
 97
        0
 75
     0
 76
     1
 98
        1
 10
0.0
 20
0.0
  0
ENDBLK
  5
130
330
12E
100
AcDbEntity
  8
0
100
AcDbBlockEnd
  0
ENDSEC
  0
SECTION
  2
ENTITIES
  0
LINE
  5
96
330
1F
100
AcDbEntity
  8
외형선
  6
Continuous
370
    15
100
AcDbLine
 10
8.950047362723396
 20
7.938574928723893
 30
0.0
 11
-11.02192500000007
 21
7.938574928723892
 31
0.0
  0
LINE
  5
97
330
1F
100
AcDbEntity
  8
외형선
  6
Continuous
370
    15
100
AcDbLine
 10
12.0
 20
7.938574928723893
 30
0.0
 11
10.64836492420804
 21
7.938574928723893
 31
0.0
  0
LINE
  5
98
330
1F
100
AcDbEntity
  8
외형선
  6
Continuous
370
    15
100
AcDbLine
 10
10.64836492420809
 20
-7.936425071276107
 30
0.0
 11
12.0
 21
-7.936425071276107
 31
0.0
  0
LINE
  5
99
330
1F
100
AcDbEntity
  8
외형선
  6
Continuous
370
    15
100
AcDbLine
 10
-40.97499999999999
 20
-7.93642507127611
 30
0.0
 11
8.950047362723396
 21
-7.936425071276107
 31
0.0
  0
LINE
  5
9A
330
1F
100
AcDbEntity
  8
외형선
  6
Continuous
370
    15
100
AcDbLine
 10
-40.97499999999999
 20
7.938574928723886
 30
0.0
 11
-41.975
 21
6.938574928723886
 31
0.0
  0
LINE
  5
9B
330
1F
100
AcDbEntity
  8
외형선
  6
Continuous
370
    15
100
AcDbLine
 10
-41.975
 20
-6.936425071276107
 30
0.0
 11
-40.97499999999999
 21
-7.936425071276107
 31
0.0
  0
SPLINE
  5
9C
330
1F
100
AcDbEntity
  8
0
  6
Continuous
 62
     1
370
    15
100
AcDbSpline
210
0.0
220
0.0
230
1.0
 70
     8
 71
     3
 72
    10
 73
     6
 74
     0
 42
0.000000001
 43
0.00000001
 40
0.0
 40
0.0
 40
0.0
 40
0.0
 40
0.4989432428743089
 40
0.6864115740543083
 40
1.0
 40
1.0
 40
1.0
 40
1.0
 10
32.71023443556115
 20
2.035044012316371
 30
0.0
 10
32.34419667606124
 20
2.209820881443148
 30
0.0
 10
31.8406272656124
 20
2.450266799007798
 30
0.0
 10
31.10736991918418
 20
2.822740699105933
 30
0.0
 10
30.73949609064979
 20
3.015670581902849
 30
0.0
 10
30.50926074665706
 20
3.136416540127688
 30
0.0
  0
LINE
  5
9D
330
1F
100
AcDbEntity
  8
0
  6
Continuous
 62
     1
370
    15
100
AcDbLine
 10
14.49594549425912
 20
7.938574928723897
 30
0.0
 11
12.00000000000001
 21
7.938574928723897
 31
0.0
  0
SPLINE
  5
9E
330
1F
100
AcDbEntity
  8
0
  6
Continuous
 62
     1
370
    15
100
AcDbSpline
210
0.0
220
0.0
230
1.0
 70
     8
 71
     3
 72
    21
 73
    17
 74
     0
 42
0.000000001
 43
0.00000001
 40
0.0
 40
0.0
 40
0.0
 40
0.0
 40
0.1295546070051413
 40
0.2257021693461572
 40
0.289107002378749
 40
0.3256690152002975
 40
0.3668489045837572
 40
0.435284290141697
 40
0.5118922957231078
 40
0.5747025079858451
 40
0.6419281477994265
 40
0.7303708509131756
 40
0.8318152732524525
 40
0.9273628233969464
 40
0.994561895393018
 40
1.0
 40
1.0
 40
1.0
 40
1.0
 10
30.0865704851191
 20
6.308521957907265
 30
0.0
 10
29.80666403434246
 20
6.294446337164944
 30
0.0
 10
29.31902801263185
 20
6.269924645425258
 30
0.0
 10
28.69931925206506
 20
6.2462943818686
 30
0.0
 10
28.27843782554147
 20
6.233003351595716
 30
0.0
 10
27.98953957438497
 20
6.22481871325982
 30
0.0
 10
27.67735976160821
 20
6.217053429072546
 30
0.0
 10
27.27407667239629
 20
6.209289840521944
 30
0.0
 10
26.82161815870381
 20
6.203427964047611
 30
0.0
 10
26.37333078133705
 20
6.200174883808248
 30
0.0
 10
25.90332565490106
 20
6.199410771531191
 30
0.0
 10
25.35014684244188
 20
6.202267050308583
 30
0.0
 10
24.73619889531707
 20
6.210330553475501
 30
0.0
 10
24.16731297434275
 20
6.223011216657595
 30
0.0
 10
23.80659405798252
 20
6.232802036485086
 30
0.0
 10
23.64961738773302
 20
6.23823230823581
 30
0.0
 10
23.6378650648373
 20
6.23863885467946
 30
0.0
  0
SPLINE
  5
9F
330
1F
100
AcDbEntity
  8
0
  6
Continuous
 62
     1
370
    15
100
AcDbSpline
210
0.0
220
0.0
230
1.0
 70
     8
 71
     3
 72
    37
 73
    33
 74
     0
 42
0.000000001
 43
0.00000001
 40
0.0
 40
0.0
 40
0.0
 40
0.0
 40
0.0533409642205162
 40
0.0973662847737045
 40
0.1322520745076112
 40
0.164243363209355
 40
0.1897336929027223
 40
0.214682574090255
 40
0.2425867248189198
 40
0.2754781812258583
 40
0.310458372842296
 40
0.3514741861497722
 40
0.3952634361728595
 40
0.4289329231541477
 40
0.4547819030382061
 40
0.4894475557578822
 40
0.53804995445474
 40
0.5817999118914057
 40
0.6194094923697044
 40
0.6503432608864977
 40
0.6744551777697346
 40
0.7018145901503465
 40
0.7399092851794051
 40
0.7782587619973
 40
0.8049178914813324
 40
0.8131550920915432
 40
0.8256837148241047
 40
0.8429600063923862
 40
0.8649839234125639
 40
0.9017003161771366
 40
0.9467014413121728
 40
1.0
 40
1.0
 40
1.0
 40
1.0
 10
50.32621712843737
 20
5.429957790408791
 30
0.0
 10
50.08324028510938
 20
5.409883317945374
 30
0.0
 10
49.63972088371483
 20
5.373240245756525
 30
0.0
 10
49.02417002165959
 20
5.331988910800741
 30
0.0
 10
48.49559262928658
 20
5.301715885763199
 30
0.0
 10
48.05517244984696
 20
5.278526355053355
 30
0.0
 10
47.66037815692704
 20
5.261635285348865
 30
0.0
 10
47.34028763777744
 20
5.252277551153595
 30
0.0
 10
46.95985405089522
 20
5.241130584254549
 30
0.0
 10
46.51753729420865
 20
5.231672397154288
 30
0.0
 10
46.01244936903445
 20
5.225229020237775
 30
0.0
 10
45.45772007174084
 20
5.223584442146169
 30
0.0
 10
44.90931527638236
 20
5.227978291698244
 30
0.0
 10
44.43093075858312
 20
5.236578300937136
 30
0.0
 10
43.99442354455905
 20
5.247743957236192
 30
0.0
 10
43.48893033859173
 20
5.264579805573574
 30
0.0
 10
42.90059873909566
 20
5.290404005382923
 30
0.0
 10
42.29894589653698
 20
5.323998808464841
 30
0.0
 10
41.77866679469574
 20
5.358278137381014
 30
0.0
 10
41.34958271129519
 20
5.390142082518947
 30
0.0
 10
40.96950230537217
 20
5.420902890983472
 30
0.0
 10
40.55543693155871
 20
5.456997913231087
 30
0.0
 10
40.07351813772328
 20
5.502859035753481
 30
0.0
 10
39.59541659631537
 20
5.552908842810249
 30
0.0
 10
39.25833396910475
 20
5.590652650921248
 30
0.0
 10
39.04360309481332
 20
5.615449516291275
 30
0.0
 10
38.8682956559548
 20
5.636124438071745
 30
0.0
 10
38.62897474907049
 20
5.665161274949629
 30
0.0
 10
38.27668778091336
 20
5.709459770004328
 30
0.0
 10
37.79487150818389
 20
5.773299974613709
 30
0.0
 10
37.16677331538072
 20
5.861928671788744
 30
0.0
 10
36.7085819571368
 20
5.932744743325539
 30
0.0
 10
36.46014841139289
 20
5.971141555991252
 30
0.0
  0
SPLINE
  5
A0
330
1F
100
AcDbEntity
  8
0
  6
Continuous
 62
     1
370
    15
100
AcDbSpline
210
0.0
220
0.0
230
1.0
 70
     8
 71
     3
 72
    30
 73
    26
 74
     0
 42
0.000000001
 43
0.00000001
 40
0.0
 40
0.0
 40
0.0
 40
0.0
 40
0.0720538225539927
 40
0.1239657169779973
 40
0.1575896890149502
 40
0.191825767325924
 40
0.2557142596096618
 40
0.3157494593538677
 40
0.3561198394213068
 40
0.3929145853081904
 40
0.4325176857972282
 40
0.4864790758375045
 40
0.5288415029254083
 40
0.5610158278559101
 40
0.5897734638650438
 40
0.6276048513410564
 40
0.6706356668199172
 40
0.7071507970134451
 40
0.7370845152225173
 40
0.7631725108819674
 40
0.7875855234064937
 40
0.8184767445963598
 40
0.8642302545272694
 40
0.9246279733782328
 40
1.0
 40
1.0
 40
1.0
 40
1.0
 10
18.14882007415452
 20
-6.604022446298501
 30
0.0
 10
18.43421002677399
 20
-6.576185522999401
 30
0.0
 10
18.92521201446559
 20
-6.528293210934365
 30
0.0
 10
19.55040238387617
 20
-6.47448333071042
 30
0.0
 10
20.0300076765443
 20
-6.435924677086375
 30
0.0
 10
20.55670812229141
 20
-6.396157490682983
 30
0.0
 10
21.18636984381522
 20
-6.352954309343739
 30
0.0
 10
21.83986667803954
 20
-6.31441737334395
 30
0.0
 10
22.38568230470369
 20
-6.286420780324152
 30
0.0
 10
22.85032623324463
 20
-6.265338235507546
 30
0.0
 10
23.36917330926863
 20
-6.244843113269724
 30
0.0
 10
23.9098503423236
 20
-6.227402873787982
 30
0.0
 10
24.42116434115208
 20
-6.214878716106725
 30
0.0
 10
24.83226959909966
 20
-6.207242502457808
 30
0.0
 10
25.22534172132012
 20
-6.201845742735133
 30
0.0
 10
25.66148917060116
 20
-6.198165920114445
 30
0.0
 10
26.1284730244619
 20
-6.197235788714732
 30
0.0
 10
26.56403958477726
 20
-6.199155309810864
 30
0.0
 10
26.93239601912775
 20
-6.202734596370274
 30
0.0
 10
27.25251439382039
 20
-6.20727012558128
 30
0.0
 10
27.57626777321365
 20
-6.213155473620709
 30
0.0
 10
27.97800701251766
 20
-6.222202843046466
 30
0.0
 10
28.52303758250602
 20
-6.237863991882842
 30
0.0
 10
29.24510356887491
 20
-6.264242358847035
 30
0.0
 10
29.78618905806491
 20
-6.291332897298105
 30
0.0
 10
30.0865704851191
 20
-6.306372100459479
 30
0.0
  0
SPLINE
  5
A1
330
1F
100
AcDbEntity
  8
0
  6
Continuous
 62
     1
370
    15
100
AcDbSpline
210
0.0
220
0.0
230
1.0
 70
     8
 71
     3
 72
    17
 73
    13
 74
     0
 42
0.000000001
 43
0.00000001
 40
0.0
 40
0.0
 40
0.0
 40
0.0
 40
0.1218705470138075
 40
0.2221295638704952
 40
0.3007821396954638
 40
0.3575315508312193
 40
0.4005598749400608
 40
0.5282343197824096
 40
0.6449815683892031
 40
0.7527871607035959
 40
0.9121439284831927
 40
1.0
 40
1.0
 40
1.0
 40
1.0
 10
36.46014841139289
 20
-5.968991698543466
 30
0.0
 10
36.70051056327612
 20
-5.931828134906075
 30
0.0
 10
37.13861100080636
 20
-5.864091291305037
 30
0.0
 10
37.73111654555857
 20
-5.780117579268108
 30
0.0
 10
38.1953985077057
 20
-5.718013235753203
 30
0.0
 10
38.54713397075135
 20
-5.673265903448073
 30
0.0
 10
38.99646635531246
 20
-5.618219882783681
 30
0.0
 10
39.56282871866746
 20
-5.553444277081104
 30
0.0
 10
40.2562998823563
 20
-5.482218513831011
 30
0.0
 10
41.01391675041551
 20
-5.413814152431183
 30
0.0
 10
41.71354637544116
 20
-5.358637878405041
 30
0.0
 10
42.20051228218244
 20
-5.329906779008024
 30
0.0
 10
42.37357332403882
 20
-5.319696138126403
 30
0.0
  0
LINE
  5
A2
330
1F
100
AcDbEntity
  8
0
  6
Continuous
 62
     1
370
    15
100
AcDbLine
 10
12.00000000000001
 20
-7.93642507127611
 30
0.0
 11
14.49594549425909
 21
-7.93642507127611
 31
0.0
  0
SPLINE
  5
A3
330
1F
100
AcDbEntity
  8
외형선
  6
Continuous
370
    15
100
AcDbSpline
210
0.0
220
0.0
230
1.0
 70
     8
 71
     3
 72
    10
 73
     6
 74
     0
 42
0.000000001
 43
0.00000001
 40
0.0
 40
0.0
 40
0.0
 40
0.0
 40
0.5
 40
0.5
 40
1.0
 40
1.0
 40
1.0
 40
1.0
 10
12.0
 20
7.900334288009722
 30
0.0
 10
11.49119745642463
 20
7.929112939534448
 30
0.0
 10
10.98065310727907
 20
7.941670221586746
 30
0.0
 10
9.965474999681344
 20
7.934188288210843
 30
0.0
 10
9.459402477329723
 20
7.914213030431574
 30
0.0
 10
8.95004736272341
 20
7.878007111864472
 30
0.0
  0
SPLINE
  5
A4
330
1F
100
AcDbEntity
  8
외형선
  6
Continuous
370
    15
100
AcDbSpline
210
0.0
220
0.0
230
1.0
 70
     8
 71
     3
 72
    10
 73
     6
 74
     0
 42
0.000000001
 43
0.00000001
 40
0.0
 40
0.0
 40
0.0
 40
0.0
 40
0.5
 40
0.5
 40
1.0
 40
1.0
 40
1.0
 40
1.0
 10
12.0
 20
-7.805874432611152
 30
0.0
 10
11.49120571981008
 20
-7.752856732195852
 30
0.0
 10
10.98066969044706
 20
-7.683715465747573
 30
0.0
 10
9.965507878582116
 20
-7.514533488666101
 30
0.0
 10
9.459443795940878
 20
-7.414477616016928
 30
0.0
 10
8.950096996879354
 20
-7.299203789383071
 30
0.0
  0
LINE
  5
A5
330
1F
100
AcDbEntity
  8
외형선
  6
Continuous
370
    15
100
AcDbLine
 10
12.0
 20
-7.805874432611152
 30
0.0
 11
12.0
 21
-7.936425071276107
 31
0.0
  0
LINE
  5
A6
330
1F
100
AcDbEntity
  8
외형선
  6
Continuous
370
    15
100
AcDbLine
 10
8.95004736272341
 20
-7.875857254416687
 30
0.0
 11
10.64836492420808
 21
-7.936155787349113
 31
0.0
  0
LINE
  5
A7
330
1F
100
AcDbEntity
  8
외형선
  6
Continuous
370
    15
100
AcDbLine
 10
8.950047362723396
 20
-7.936425071276107
 30
0.0
 11
8.95004736272341
 21
-7.875857367215033
 31
0.0
  0
LINE
  5
A8
330
1F
100
AcDbEntity
  8
외형선
  6
Continuous
370
    15
100
AcDbLine
 10
-40.97499999999999
 20
7.938574928723886
 30
0.0
 11
-40.97499999999999
 21
-7.936425071276098
 31
0.0
  0
LINE
  5
A9
330
1F
100
AcDbEntity
  8
외형선
  6
Continuous
370
    15
100
AcDbLine
 10
8.950047362723371
 20
-7.299070237065242
 30
0.0
 11
8.950047362723396
 21
7.938574928723893
 31
0.0
  0
LINE
  5
AA
330
1F
100
AcDbEntity
  8
외형선
  6
Continuous
370
    15
100
AcDbLine
 10
-41.975
 20
6.938574928723886
 30
0.0
 11
-41.975
 21
-6.936425071276096
 31
0.0
  0
SPLINE
  5
AB
330
1F
100
AcDbEntity
  8
외형선
  6
Continuous
370
    15
100
AcDbSpline
210
0.0
220
0.0
230
1.0
 70
    24
 71
     3
 72
    14
 73
    10
 74
     0
 42
0.000000001
 43
0.00000001
 40
0.0
 40
0.0
 40
0.0
 40
0.0
 40
0.25
 40
0.25
 40
0.5
 40
0.5
 40
0.75
 40
0.75
 40
1.0
 40
1.0
 40
1.0
 40
1.0
 10
11.99999999999999
 20
-0.8807272282038783
 30
0.0
 10
11.99999999999999
 20
-1.473062618023598
 30
0.0
 10
11.99999999999999
 20
-2.063032374027621
 30
0.0
 10
11.99999999999999
 20
-3.194134454905138
 30
0.0
 10
11.99999999999999
 20
-3.734909162170835
 30
0.0
 10
11.99999999999999
 20
-4.72563596196099
 30
0.0
 10
11.99999999999999
 20
-5.175301962660267
 30
0.0
 10
11.99999999999999
 20
-5.954798085666988
 30
0.0
 10
11.99999999999999
 20
-6.284547459588868
 30
0.0
 10
11.99999999999999
 20
-6.549318663070991
 30
0.0
  0
SPLINE
  5
AC
330
1F
100
AcDbEntity
  8
외형선
  6
Continuous
370
    15
100
AcDbSpline
210
0.0
220
0.0
230
1.0
 70
     8
 71
     3
 72
    10
 73
     6
 74
     0
 42
0.000000001
 43
0.00000001
 40
0.0
 40
0.0
 40
0.0
 40
0.0
 40
0.5
 40
0.5
 40
1.0
 40
1.0
 40
1.0
 40
1.0
 10
11.99999999999998
 20
-6.549318663070991
 30
0.0
 10
11.49120571981006
 20
-6.489545037359955
 30
0.0
 10
10.98066969044705
 20
-6.416225669619521
 30
0.0
 10
9.965507878582109
 20
-6.243907695486145
 30
0.0
 10
9.459443795940874
 20
-6.144881657264648
 30
0.0
 10
8.950096996879354
 20
-6.033241428531857
 30
0.0
  0
SPLINE
  5
AD
330
1F
100
AcDbEntity
  8
외형선
  6
Continuous
370
    15
100
AcDbSpline
210
0.0
220
0.0
230
1.0
 70
     8
 71
     3
 72
    10
 73
     6
 74
     0
 42
0.000000001
 43
0.00000001
 40
0.0
 40
0.0
 40
0.0
 40
0.0
 40
0.5
 40
0.5
 40
1.0
 40
1.0
 40
1.0
 40
1.0
 10
12.00000000000001
 20
-0.8807272282038892
 30
0.0
 10
11.49120047337155
 20
-0.6481766068596124
 30
0.0
 10
10.98065916176349
 20
-0.4135481159596592
 30
0.0
 10
9.965487003706714
 20
0.0555413352432437
 30
0.0
 10
9.459417562680585
 20
0.2902220318386274
 30
0.0
 10
8.950065484063478
 20
0.5243339055794987
 30
0.0
  0
SPLINE
  5
AE
330
1F
100
AcDbEntity
  8
외형선
  6
Continuous
370
    15
100
AcDbSpline
210
0.0
220
0.0
230
1.0
 70
    24
 71
     3
 72
    14
 73
    10
 74
     0
 42
0.000000001
 43
0.00000001
 40
0.0
 40
0.0
 40
0.0
 40
0.0
 40
0.25
 40
0.25
 40
0.5
 40
0.5
 40
0.75
 40
0.75
 40
1.0
 40
1.0
 40
1.0
 40
1.0
 10
12.0
 20
5.503491049798908
 30
0.0
 10
12.0
 20
5.259842220301195
 30
0.0
 10
12.0
 20
4.927521311171116
 30
0.0
 10
12.0
 20
4.092247976677175
 30
0.0
 10
12.0
 20
3.589369807674373
 30
0.0
 10
12.0
 20
2.454710155573292
 30
0.0
 10
12.0
 20
1.823533266575752
 30
0.0
 10
12.0
 20
0.4994003547563811
 30
0.0
 10
12.0
 20
-0.1927947820504016
 30
0.0
 10
12.0
 20
-0.8807272282038862
 30
0.0
  0
SPLINE
  5
AF
330
1F
100
AcDbEntity
  8
외형선
  6
Continuous
370
    15
100
AcDbSpline
210
0.0
220
0.0
230
1.0
 70
     8
 71
     3
 72
    10
 73
     6
 74
     0
 42
0.000000001
 43
0.00000001
 40
0.0
 40
0.0
 40
0.0
 40
0.0
 40
0.4999999999999999
 40
0.4999999999999999
 40
1.0
 40
1.0
 40
1.0
 40
1.0
 10
12.0
 20
5.503491049798908
 30
0.0
 10
11.49119944685099
 20
5.532024363581671
 30
0.0
 10
10.98065710171642
 20
5.549268001518717
 30
0.0
 10
9.965482919319562
 20
5.560912574747666
 30
0.0
 10
9.459412429868323
 20
5.555366228894787
 30
0.0
 10
8.950059318251366
 20
5.538428421127094
 30
0.0
  0
SPLINE
  5
B0
330
1F
100
AcDbEntity
  8
외형선
  6
Continuous
370
    15
100
AcDbSpline
210
0.0
220
0.0
230
1.0
 70
    24
 71
     3
 72
     8
 73
     4
 74
     0
 42
0.000000001
 43
0.00000001
 40
0.0
 40
0.0
 40
0.0
 40
0.0
 40
1.0
 40
1.0
 40
1.0
 40
1.0
 10
12.00000000000003
 20
-6.549318663070997
 30
0.0
 10
12.00000000000003
 20
-6.97076545652847
 30
0.0
 10
12.00000000000003
 20
-7.392320868159063
 30
0.0
 10
12.00000000000003
 20
-7.805874432601145
 30
0.0
  0
SPLINE
  5
B1
330
1F
100
AcDbEntity
  8
외형선
  6
Continuous
370
    15
100
AcDbSpline
210
0.0
220
0.0
230
1.0
 70
    24
 71
     3
 72
    10
 73
     6
 74
     0
 42
0.000000001
 43
0.00000001
 40
0.0
 40
0.0
 40
0.0
 40
0.0
 40
0.5
 40
0.5
 40
1.0
 40
1.0
 40
1.0
 40
1.0
 10
12.00000000000001
 20
7.900334288009715
 30
0.0
 10
12.00000000000001
 20
7.520789667558615
 30
0.0
 10
12.00000000000001
 20
7.100624779225992
 30
0.0
 10
12.00000000000001
 20
6.271145954112782
 30
0.0
 10
12.00000000000001
 20
5.864037102076496
 30
0.0
 10
12.0
 20
5.503491049798908
 30
0.0
  0
SPLINE
  5
B2
330
1F
100
AcDbEntity
  8
0
  6
Continuous
 62
     1
370
    15
100
AcDbSpline
210
0.0
220
0.0
230
1.0
 70
     8
 71
     3
 72
    25
 73
    21
 74
     0
 42
0.000000001
 43
0.00000001
 40
0.0
 40
0.0
 40
0.0
 40
0.0
 40
0.0556592512959191
 40
0.1112780054210725
 40
0.1668834113854457
 40
0.2225027154075766
 40
0.2781630350123268
 40
0.3338212014750133
 40
0.3862559280237219
 40
0.4386807097980028
 40
0.4911458815268552
 40
0.5436405395639575
 40
0.596077355051676
 40
0.654595851325443
 40
0.7131225410142079
 40
0.7716709198733536
 40
0.8302453990241281
 40
0.8887960265021979
 40
0.947323919201502
 40
1.0
 40
1.0
 40
1.0
 40
1.0
 10
53.27500000000001
 20
-7.531143220804314
 30
0.0
 10
52.55543607075349
 20
-7.382279993330556
 30
0.0
 10
51.11683176050519
 20
-7.084661849928805
 30
0.0
 10
48.9598161028055
 20
-6.414298216300011
 30
0.0
 10
46.80337370272333
 20
-5.59965682279509
 30
0.0
 10
44.64633178519333
 20
-4.643665946653055
 30
0.0
 10
42.48815241944102
 20
-3.57481640180968
 30
0.0
 10
40.37112074450702
 20
-2.439919744905764
 30
0.0
 10
38.29652384206227
 20
-1.27121265847251
 30
0.0
 10
36.26325853535378
 20
-0.0977575481825855
 30
0.0
 10
34.22885025864528
 20
1.077635881033
 30
0.0
 10
32.19381543537728
 20
2.228845525673175
 30
0.0
 10
30.08143148722652
 20
3.375187349596042
 30
0.0
 10
27.89067054490404
 20
4.480577424079884
 30
0.0
 10
25.62097585292768
 20
5.504056632957044
 30
0.0
 10
23.3503729826065
 20
6.377512225761874
 30
0.0
 10
21.07912380373386
 20
7.078678503259571
 30
0.0
 10
18.808458858225
 20
7.58224342733498
 30
0.0
 10
16.614204147518
 20
7.88855544675152
 30
0.0
 10
15.17681885893008
 20
7.915910494814455
 30
0.0
 10
14.49594549425911
 20
7.928868275698413
 30
0.0
  0
SPLINE
  5
B3
330
1F
100
AcDbEntity
  8
0
  6
Continuous
 62
     1
370
    15
100
AcDbSpline
210
0.0
220
0.0
230
1.0
 70
     8
 71
     3
 72
    17
 73
    13
 74
     0
 42
0.000000001
 43
0.00000001
 40
0.0
 40
0.0
 40
0.0
 40
0.0
 40
0.107611466215045
 40
0.2151550779219037
 40
0.322668593210255
 40
0.4301899475016767
 40
0.5377570300003645
 40
0.645389499430088
 40
0.7529683789045412
 40
0.8604949656700231
 40
0.968007118092346
 40
0.9999999999999999
 40
0.9999999999999999
 40
0.9999999999999999
 40
0.9999999999999999
 10
53.27500000000001
 20
-6.261392419698822
 30
0.0
 10
52.53581748209125
 20
-6.110794982337673
 30
0.0
 10
51.05791853848469
 20
-5.809695066966878
 30
0.0
 10
48.84180345917326
 20
-5.163679027592684
 30
0.0
 10
46.62637830757179
 20
-4.395462306116558
 30
0.0
 10
44.41076765553
 20
-3.510131229049278
 30
0.0
 10
42.19422200299656
 20
-2.534348053381756
 30
0.0
 10
39.97693711162335
 20
-1.493371157844499
 30
0.0
 10
37.76022544788297
 20
-0.4121456280097972
 30
0.0
 10
35.5444868313937
 20
0.6755393160727923
 30
0.0
 10
33.84793349025946
 20
1.507033502757055
 30
0.0
 10
32.88979144090769
 20
1.947389323062489
 30
0.0
 10
32.67005940340169
 20
2.04837673060691
 30
0.0
  0
LINE
  5
B4
330
1F
100
AcDbEntity
  8
0
  6
Continuous
 62
     1
370
    15
100
AcDbLine
 10
53.27499999999972
 20
-7.531143220804314
 30
0.0
 11
53.27500000000001
 21
-6.261392419698822
 31
0.0
  0
SPLINE
  5
B5
330
1F
100
AcDbEntity
  8
0
  6
Continuous
 62
     1
370
    15
100
AcDbSpline
210
0.0
220
0.0
230
1.0
 70
     8
 71
     3
 72
    62
 73
    58
 74
     0
 42
0.000000001
 43
0.00000001
 40
0.0
 40
0.0
 40
0.0
 40
0.0
 40
0.0625000000000001
 40
0.0625000000000001
 40
0.1250000000000002
 40
0.1250000000000002
 40
0.1562500000000002
 40
0.1562500000000002
 40
0.1875000000000002
 40
0.1875000000000002
 40
0.2187500000000003
 40
0.2187500000000003
 40
0.2500000000000003
 40
0.2500000000000003
 40
0.2812500000000003
 40
0.2812500000000003
 40
0.3125000000000004
 40
0.3125000000000004
 40
0.3437500000000004
 40
0.3437500000000004
 40
0.3750000000000004
 40
0.3750000000000004
 40
0.4062500000000004
 40
0.4062500000000004
 40
0.4375000000000004
 40
0.4375000000000004
 40
0.4687500000000004
 40
0.4687500000000004
 40
0.5000000000000003
 40
0.5000000000000003
 40
0.5312500000000003
 40
0.5312500000000003
 40
0.5625000000000004
 40
0.5625000000000004
 40
0.5937500000000004
 40
0.5937500000000004
 40
0.6250000000000006
 40
0.6250000000000006
 40
0.6875000000000006
 40
0.6875000000000006
 40
0.7500000000000003
 40
0.7500000000000003
 40
0.7812500000000003
 40
0.7812500000000003
 40
0.8125000000000002
 40
0.8125000000000002
 40
0.8437500000000002
 40
0.8437500000000002
 40
0.8750000000000002
 40
0.8750000000000002
 40
0.9062500000000002
 40
0.9062500000000002
 40
0.9375000000000001
 40
0.9375000000000001
 40
0.9687500000000001
 40
0.9687500000000001
 40
1.0
 40
1.0
 40
1.0
 40
1.0
 10
53.27500000000001
 20
-7.9364250712761
 30
0.0
 10
52.41922148656895
 20
-7.909341388560389
 30
0.0
 10
51.55156863179585
 20
-7.842073388385822
 30
0.0
 10
49.83791154323661
 20
-7.61715937306518
 30
0.0
 10
48.97240201287841
 20
-7.458745152098881
 30
0.0
 10
47.68572844038331
 20
-7.157762801469751
 30
0.0
 10
47.25713610565069
 20
-7.046832223660576
 30
0.0
 10
46.3954481342797
 20
-6.804207371825569
 30
0.0
 10
45.96394505019254
 20
-6.672635435801181
 30
0.0
 10
45.10530538420466
 20
-6.390776872357264
 30
0.0
 10
44.67745801877402
 20
-6.240447735272252
 30
0.0
 10
43.81606432525465
 20
-5.921245376249585
 30
0.0
 10
43.38444342084142
 20
-5.752578171927262
 30
0.0
 10
42.52504334720026
 20
-5.39937536072741
 30
0.0
 10
42.09768319824537
 20
-5.214932240007045
 30
0.0
 10
41.23668170152885
 20
-4.83038835910558
 30
0.0
 10
40.80499228633835
 20
-4.630547509950368
 30
0.0
 10
39.94492896908862
 20
-4.218378625064744
 30
0.0
 10
39.51779809970645
 20
-4.006279156604251
 30
0.0
 10
38.65728657006532
 20
-3.569927317247721
 30
0.0
 10
38.2255779797994
 20
-3.345932727012994
 30
0.0
 10
37.364948833893
 20
-2.889259027297582
 30
0.0
 10
36.93778922053909
 20
-2.65691298954569
 30
0.0
 10
36.07786524261952
 20
-2.184106157129674
 30
0.0
 10
35.64618682030076
 20
-1.943828399871597
 30
0.0
 10
34.78508947493156
 20
-1.458684702053055
 30
0.0
 10
34.35764310492397
 20
-1.21420112550498
 30
0.0
 10
33.49840404094569
 20
-0.7215693335100637
 30
0.0
 10
33.06680511807919
 20
-0.4734519674323633
 30
0.0
 10
32.20533737984755
 20
0.0231187123788417
 30
0.0
 10
31.77734634886217
 20
0.2712080014022999
 30
0.0
 10
30.91888930199513
 20
0.7663449163728702
 30
0.0
 10
30.48741917973968
 20
1.01358327757238
 30
0.0
 10
29.62567899567588
 20
1.504130905283114
 30
0.0
 10
29.19688560515604
 20
1.747162127874627
 30
0.0
 10
28.3393073831023
 20
2.227405908455722
 30
0.0
 10
27.90801531346581
 20
2.465079215358761
 30
0.0
 10
26.61514344417973
 20
3.166004078995437
 30
0.0
 10
25.75957526344978
 20
3.616287111183651
 30
0.0
 10
24.03559354656705
 20
4.471476461666994
 30
0.0
 10
23.18008356492676
 20
4.874242807143178
 30
0.0
 10
21.88713007712479
 20
5.433560868603106
 30
0.0
 10
21.45595792132406
 20
5.61230059121273
 30
0.0
 10
20.59890852875742
 20
5.952118738573956
 30
0.0
 10
20.16955936190626
 20
6.113671594299516
 30
0.0
 10
19.30771037380367
 20
6.418733993963331
 30
0.0
 10
18.87633288729572
 20
6.562092325411033
 30
0.0
 10
18.01835113867521
 20
6.828659340495477
 30
0.0
 10
17.58994707948563
 20
6.952084189893988
 30
0.0
 10
16.72831618680206
 20
7.178619146734762
 30
0.0
 10
16.29678258625571
 20
7.281548493121077
 30
0.0
 10
15.43796510986335
 20
7.465443139252827
 30
0.0
 10
15.01024861577651
 20
7.546481214302556
 30
0.0
 10
14.14893382742368
 20
7.686544447352398
 30
0.0
 10
13.71729338906817
 20
7.745419786742435
 30
0.0
 10
12.85773712874546
 20
7.84012768748787
 30
0.0
 10
12.43045039749493
 20
7.875987353929688
 30
0.0
 10
11.99999999999999
 20
7.900334288009725
 30
0.0
  0
SPLINE
  5
B6
330
1F
100
AcDbEntity
  8
0
  6
Continuous
 62
     1
370
    15
100
AcDbSpline
210
0.0
220
0.0
230
1.0
 70
     8
 71
     3
 72
    15
 73
    11
 74
     0
 42
0.000000001
 43
0.00000001
 40
0.0
 40
0.0
 40
0.0
 40
0.0
 40
0.1134587646052821
 40
0.2419550404266632
 40
0.3704525119041176
 40
0.4989510603694811
 40
0.6274505670141872
 40
0.7516336250100398
 40
0.875816768138206
 40
1.0
 40
1.0
 40
1.0
 40
1.0
 10
33.55967482209812
 20
-0.755119978718762
 30
0.0
 10
32.74429308515687
 20
-0.4267407265732817
 30
0.0
 10
31.00546116845894
 20
0.2735402566063838
 30
0.0
 10
28.34316729155244
 20
1.346036866818833
 30
0.0
 10
25.57278424161597
 20
2.40513905521819
 30
0.0
 10
22.80238261268923
 20
3.367348651814714
 30
0.0
 10
20.06295859804027
 20
4.185005404102196
 30
0.0
 10
17.3546414469116
 20
4.826333087648653
 30
0.0
 10
14.6773184413227
 20
5.292802967569006
 30
0.0
 10
12.89243969300157
 20
5.433261672328422
 30
0.0
 10
12.0
 20
5.503491049798908
 30
0.0
  0
SPLINE
  5
B7
330
1F
100
AcDbEntity
  8
외형선
  6
Continuous
370
    15
100
AcDbSpline
210
0.0
220
0.0
230
1.0
 70
    24
 71
     3
 72
    10
 73
     6
 74
     0
 42
0.000000001
 43
0.00000001
 40
0.0
 40
0.0
 40
0.0
 40
0.0
 40
0.5
 40
0.5
 40
1.0
 40
1.0
 40
1.0
 40
1.0
 10
12.00000000000001
 20
7.900334288009715
 30
0.0
 10
12.00000000000001
 20
7.520789667558615
 30
0.0
 10
12.00000000000001
 20
7.100624779225992
 30
0.0
 10
12.00000000000001
 20
6.271145954112784
 30
0.0
 10
12.00000000000001
 20
5.864037102076495
 30
0.0
 10
12.0
 20
5.503491049798908
 30
0.0
  0
LINE
  5
B8
330
1F
100
AcDbEntity
  8
0
  6
Continuous
 62
     1
370
    15
100
AcDbLine
 10
53.27500000000001
 20
-7.936425071276096
 30
0.0
 11
53.27499999999996
 21
-7.531143220804296
 31
0.0
  0
SPLINE
  5
B9
330
1F
100
AcDbEntity
  8
0
  6
Continuous
 62
     1
370
    15
100
AcDbSpline
210
0.0
220
0.0
230
1.0
 70
     8
 71
     3
 72
     8
 73
     4
 74
     0
 42
0.000000001
 43
0.00000001
 40
0.0
 40
0.0
 40
0.0
 40
0.0
 40
1.0
 40
1.0
 40
1.0
 40
1.0
 10
48.36383024581498
 20
2.221154600720032
 30
0.0
 10
48.33390471791475
 20
2.256598747999051
 30
0.0
 10
48.30429209921
 20
2.291938090543941
 30
0.0
 10
48.27500000000818
 20
2.327170079384394
 30
0.0
  0
LINE
  5
BA
330
1F
100
AcDbEntity
  8
0
  6
Continuous
 62
     1
370
    15
100
AcDbLine
 10
48.27500000000001
 20
2.938794364020485
 30
0.0
 11
53.27500000000001
 21
0.0010749287238987
 31
0.0
  0
LINE
  5
BB
330
1F
100
AcDbEntity
  8
0
  6
Continuous
 62
     1
370
    15
100
AcDbLine
 10
53.27500000000001
 20
0.0010749287238987
 30
0.0
 11
53.27500000000001
 21
-2.120165955386408
 31
0.0
  0
SPLINE
  5
BC
330
1F
100
AcDbEntity
  8
0
  6
Continuous
 62
     1
370
    15
100
AcDbSpline
210
0.0
220
0.0
230
1.0
 70
     8
 71
     3
 72
    12
 73
     8
 74
     0
 42
0.000000001
 43
0.00000001
 40
0.0
 40
0.0
 40
0.0
 40
0.0
 40
0.5
 40
0.5
 40
0.75
 40
0.75
 40
1.0
 40
1.0
 40
1.0
 40
1.0
 10
53.27500000000001
 20
-2.120165955386411
 30
0.0
 10
52.4248570837302
 20
-1.451812453693021
 30
0.0
 10
51.58891642663288
 20
-0.7560606014285782
 30
0.0
 10
50.35686851419034
 20
0.3297444205255341
 30
0.0
 10
49.9498823886304
 20
0.6988105700279293
 30
0.0
 10
49.14422911848986
 20
1.452991467674589
 30
0.0
 10
48.74774411284289
 20
1.836165308017937
 30
0.0
 10
48.36383024581498
 20
2.221154600720034
 30
0.0
  0
SPLINE
  5
BD
330
1F
100
AcDbEntity
  8
0
  6
Continuous
 62
     1
370
    15
100
AcDbSpline
210
0.0
220
0.0
230
1.0
 70
     8
 71
     3
 72
    15
 73
    11
 74
     0
 42
0.000000001
 43
0.00000001
 40
0.0
 40
0.0
 40
0.0
 40
0.0
 40
0.1125019470523864
 40
0.2249692522038636
 40
0.3375037255321522
 40
0.4890297887624325
 40
0.6405577685143405
 40
0.7920875293057827
 40
0.9436189354242962
 40
1.0
 40
1.0
 40
1.0
 40
1.0
 10
48.363830245815
 20
2.221154600720022
 30
0.0
 10
47.67834609249739
 20
2.51304114811568
 30
0.0
 10
46.30758886197894
 20
3.09672436441941
 30
0.0
 10
44.25132769893515
 20
3.890248046687531
 30
0.0
 10
41.95707695580941
 20
4.682123664081002
 30
0.0
 10
39.42435745281895
 20
5.405683983960456
 30
0.0
 10
36.65413968357137
 20
5.983136700855008
 30
0.0
 10
33.88384315408342
 20
6.301862739107849
 30
0.0
 10
31.69338484367199
 20
6.401215481219742
 30
0.0
 10
30.42635274730262
 20
6.304620949374604
 30
0.0
 10
30.08276287890096
 20
6.27842674120885
 30
0.0
  0
SPLINE
  5
BE
330
1F
100
AcDbEntity
  8
0
  6
Continuous
 62
     1
370
    15
100
AcDbSpline
210
0.0
220
0.0
230
1.0
 70
    24
 71
     3
 72
    10
 73
     6
 74
     0
 42
0.000000001
 43
0.00000001
 40
0.0
 40
0.0
 40
0.0
 40
0.0
 40
0.5000000000000001
 40
0.5000000000000001
 40
1.0
 40
1.0
 40
1.0
 40
1.0
 10
53.27500000000001
 20
-6.261392419698819
 30
0.0
 10
53.27500000000001
 20
-5.781325471493808
 30
0.0
 10
53.27500000000001
 20
-5.174742474783699
 30
0.0
 10
53.27500000000001
 20
-3.764495384534629
 30
0.0
 10
53.275
 20
-2.962052900495878
 30
0.0
 10
53.27500000000001
 20
-2.120165955386666
 30
0.0
  0
SPLINE
  5
BF
330
1F
100
AcDbEntity
  8
0
  6
Continuous
 62
     1
370
    15
100
AcDbSpline
210
0.0
220
0.0
230
1.0
 70
     8
 71
     3
 72
     9
 73
     5
 74
     0
 42
0.000000001
 43
0.00000001
 40
0.0
 40
0.0
 40
0.0
 40
0.0
 40
0.9387213582568743
 40
1.0
 40
1.0
 40
1.0
 40
1.0
 10
53.27500000000001
 20
5.557324928723894
 30
0.0
 10
52.35165893932577
 20
5.554316575743821
 30
0.0
 10
51.3680432448999
 20
5.551111840969639
 30
0.0
 10
50.38442501975696
 20
5.430577584649711
 30
0.0
 10
50.32415023092642
 20
5.423191409138907
 30
0.0
  0
SPLINE
  5
C0
330
1F
100
AcDbEntity
  8
0
  6
Continuous
 62
     1
370
    15
100
AcDbSpline
210
0.0
220
0.0
230
1.0
 70
     8
 71
     3
 72
    10
 73
     6
 74
     0
 42
0.000000001
 43
0.00000001
 40
0.0
 40
0.0
 40
0.0
 40
0.0
 40
0.5
 40
0.5
 40
1.0
 40
1.0
 40
1.0
 40
1.0
 10
53.27500000000001
 20
5.557324928723899
 30
0.0
 10
52.45840404815336
 20
5.335884492830221
 30
0.0
 10
51.64674692733261
 20
5.087178242774957
 30
0.0
 10
50.03413907929082
 20
4.53065893445414
 30
0.0
 10
49.2342565694043
 20
4.223741788297394
 30
0.0
 10
48.4434913161142
 20
3.877749119930773
 30
0.0
  0
SPLINE
  5
C1
330
1F
100
AcDbEntity
  8
0
  6
Continuous
 62
     1
370
    15
100
AcDbSpline
210
0.0
220
0.0
230
1.0
 70
    24
 71
     3
 72
     8
 73
     4
 74
     0
 42
0.000000001
 43
0.00000001
 40
0.0
 40
0.0
 40
0.0
 40
0.0
 40
1.0
 40
1.0
 40
1.0
 40
1.0
 10
48.44349131611423
 20
3.877749119930793
 30
0.0
 10
48.38808168337121
 20
3.831254917532463
 30
0.0
 10
48.33190809952007
 20
3.784119684041077
 30
0.0
 10
48.27499999999999
 20
3.736368118722782
 30
0.0
  0
SPLINE
  5
C2
330
1F
100
AcDbEntity
  8
0
  6
Continuous
 62
     1
370
    15
100
AcDbSpline
210
0.0
220
0.0
230
1.0
 70
    24
 71
     3
 72
     8
 73
     4
 74
     0
 42
0.000000001
 43
0.00000001
 40
0.0
 40
0.0
 40
0.0
 40
0.0
 40
1.0
 40
1.0
 40
1.0
 40
1.0
 10
48.27500000000002
 20
2.327170079394217
 30
0.0
 10
48.27500000000002
 20
2.845403626732491
 30
0.0
 10
48.27500000000002
 20
3.324769265598892
 30
0.0
 10
48.27500000000002
 20
3.736368118722629
 30
0.0
  0
SPLINE
  5
C3
330
1F
100
AcDbEntity
  8
0
  6
Continuous
 62
     1
370
    15
100
AcDbSpline
210
0.0
220
0.0
230
1.0
 70
     8
 71
     3
 72
    10
 73
     6
 74
     0
 42
0.000000001
 43
0.00000001
 40
0.0
 40
0.0
 40
0.0
 40
0.0
 40
0.1302314876712403
 40
0.5651155947249809
 40
1.0
 40
1.0
 40
1.0
 40
1.0
 10
18.15641590646564
 20
-6.577223016272749
 30
0.0
 10
17.88916287608014
 20
-6.611376266766522
 30
0.0
 10
16.72946749127722
 20
-6.759578017431476
 30
0.0
 10
14.67732889391772
 20
-6.781913283118431
 30
0.0
 10
12.89244316863638
 20
-6.626850220809185
 30
0.0
 10
11.99999999999999
 20
-6.549318663070993
 30
0.0
  0
SPLINE
  5
C4
330
1F
100
AcDbEntity
  8
0
  6
Continuous
 62
     1
370
    15
100
AcDbSpline
210
0.0
220
0.0
230
1.0
 70
     8
 71
     3
 72
    16
 73
    12
 74
     0
 42
0.000000001
 43
0.00000001
 40
0.0
 40
0.0
 40
0.0
 40
0.0
 40
0.1054699039892673
 40
0.218709653532683
 40
0.3319505310552439
 40
0.4451924348335216
 40
0.5584352630111197
 40
0.6716789136118148
 40
0.7811192016498465
 40
0.8905595627490784
 40
0.9999999999999999
 40
0.9999999999999999
 40
0.9999999999999999
 40
0.9999999999999999
 10
36.46408996675066
 20
-5.960479754271152
 30
0.0
 10
35.60401176608603
 20
-6.07885306499767
 30
0.0
 10
33.82049440081452
 20
-6.324320111020086
 30
0.0
 10
31.11352347436488
 20
-6.383171520119511
 30
0.0
 10
28.34317123517615
 20
-6.205550457482648
 30
0.0
 10
25.57278807516378
 20
-5.771277147389892
 30
0.0
 10
22.80238823789935
 20
-5.104830357287394
 30
0.0
 10
20.06295409290307
 20
-4.241317593519437
 30
0.0
 10
17.35464557163627
 20
-3.222400410266674
 30
0.0
 10
14.67731975326233
 20
-2.09566032029828
 30
0.0
 10
12.89244012474898
 20
-1.285705019500278
 30
0.0
 10
12.00000000000002
 20
-0.8807272282038915
 30
0.0
  0
SPLINE
  5
C5
330
1F
100
AcDbEntity
  8
외형선
  6
Continuous
370
    15
100
AcDbSpline
210
0.0
220
0.0
230
1.0
 70
    24
 71
     3
 72
    14
 73
    10
 74
     0
 42
0.000000001
 43
0.00000001
 40
0.0
 40
0.0
 40
0.0
 40
0.0
 40
0.25
 40
0.25
 40
0.5
 40
0.5
 40
0.75
 40
0.75
 40
1.0
 40
1.0
 40
1.0
 40
1.0
 10
11.99999999999999
 20
-0.8807272282038805
 30
0.0
 10
11.99999999999999
 20
-1.473062618023599
 30
0.0
 10
11.99999999999999
 20
-2.063032374027624
 30
0.0
 10
11.99999999999999
 20
-3.19413445490514
 30
0.0
 10
11.99999999999999
 20
-3.734909162170835
 30
0.0
 10
11.99999999999999
 20
-4.72563596196099
 30
0.0
 10
11.99999999999999
 20
-5.175301962660267
 30
0.0
 10
11.99999999999999
 20
-5.95479808566699
 30
0.0
 10
11.99999999999999
 20
-6.284547459588868
 30
0.0
 10
11.99999999999999
 20
-6.54931866307099
 30
0.0
  0
SPLINE
  5
C6
330
1F
100
AcDbEntity
  8
외형선
  6
Continuous
370
    15
100
AcDbSpline
210
0.0
220
0.0
230
1.0
 70
    24
 71
     3
 72
    14
 73
    10
 74
     0
 42
0.000000001
 43
0.00000001
 40
0.0
 40
0.0
 40
0.0
 40
0.0
 40
0.25
 40
0.25
 40
0.5
 40
0.5
 40
0.75
 40
0.75
 40
1.0
 40
1.0
 40
1.0
 40
1.0
 10
12.0
 20
5.503491049798908
 30
0.0
 10
12.0
 20
5.259842220301195
 30
0.0
 10
12.0
 20
4.927521311171116
 30
0.0
 10
12.0
 20
4.092247976677175
 30
0.0
 10
12.0
 20
3.589369807674373
 30
0.0
 10
12.0
 20
2.454710155573292
 30
0.0
 10
12.0
 20
1.823533266575752
 30
0.0
 10
12.0
 20
0.4994003547563811
 30
0.0
 10
12.0
 20
-0.1927947820504016
 30
0.0
 10
12.0
 20
-0.8807272282038862
 30
0.0
  0
LINE
  5
C7
330
1F
100
AcDbEntity
  8
0
  6
Continuous
 62
     1
370
    15
100
AcDbLine
 10
53.27500000000001
 20
0.0010749287238987
 30
0.0
 11
53.27500000000001
 21
5.557324928723894
 31
0.0
  0
SPLINE
  5
C8
330
1F
100
AcDbEntity
  8
0
  6
Continuous
 62
     1
370
    15
100
AcDbSpline
210
0.0
220
0.0
230
1.0
 70
     8
 71
     3
 72
    13
 73
     9
 74
     0
 42
0.000000001
 43
0.00000001
 40
0.0
 40
0.0
 40
0.0
 40
0.0
 40
0.0245341957784626
 40
0.2197458757146192
 40
0.4148780649721478
 40
0.6099344858332664
 40
0.8049600972987672
 40
0.9999999999999999
 40
0.9999999999999999
 40
0.9999999999999999
 40
0.9999999999999999
 10
23.63614676283635
 20
-6.237147215519247
 30
0.0
 10
23.54098323219637
 20
-6.273955048979586
 30
0.0
 10
22.68863031362481
 20
-6.603632437630758
 30
0.0
 10
21.0791061967759
 20
-7.065236592071214
 30
0.0
 10
18.808464207737
 20
-7.586800520131019
 30
0.0
 10
16.53867909005118
 20
-7.881413058978504
 30
0.0
 10
14.26934398370812
 20
-7.981189936341584
 30
0.0
 10
12.75646647085716
 20
-7.864314361218518
 30
0.0
 10
11.99999999999862
 20
-7.805874432611013
 30
0.0
  0
SPLINE
  5
C9
330
1F
100
AcDbEntity
  8
외형선
  6
Continuous
370
    15
100
AcDbSpline
210
0.0
220
0.0
230
1.0
 70
    24
 71
     3
 72
     8
 73
     4
 74
     0
 42
0.000000001
 43
0.00000001
 40
0.0
 40
0.0
 40
0.0
 40
0.0
 40
1.0
 40
1.0
 40
1.0
 40
1.0
 10
12.00000000000003
 20
-6.549318663070997
 30
0.0
 10
12.00000000000003
 20
-6.97076545652847
 30
0.0
 10
12.00000000000003
 20
-7.392320868159066
 30
0.0
 10
12.00000000000003
 20
-7.805874432601147
 30
0.0
  0
SPLINE
  5
CA
330
1F
100
AcDbEntity
  8
0
  6
Continuous
 62
     1
370
    15
100
AcDbSpline
210
0.0
220
0.0
230
1.0
 70
     8
 71
     3
 72
    12
 73
     8
 74
     0
 42
0.000000001
 43
0.00000001
 40
0.0
 40
0.0
 40
0.0
 40
0.0
 40
0.1672406675586921
 40
0.3753720530115751
 40
0.5835103866111422
 40
0.7917037570009186
 40
1.0
 40
1.0
 40
1.0
 40
1.0
 10
42.37160788266283
 20
5.321045408742714
 30
0.0
 10
42.97943544225741
 20
5.576731097803782
 30
0.0
 10
44.34370576150835
 20
6.150618199724429
 30
0.0
 10
46.46430886214267
 20
6.852407607250612
 30
0.0
 10
48.73378286366535
 20
7.429292870119809
 30
0.0
 10
51.00394787345149
 20
7.8152548806623
 30
0.0
 10
52.51785797961246
 20
7.892989409837556
 30
0.0
 10
53.27500000000001
 20
7.9385749287239
 30
0.0
  0
SPLINE
  5
CB
330
1F
100
AcDbEntity
  8
0
  6
Continuous
 62
     1
370
    15
100
AcDbSpline
210
0.0
220
0.0
230
1.0
 70
    24
 71
     3
 72
    10
 73
     6
 74
     0
 42
0.000000001
 43
0.00000001
 40
0.0
 40
0.0
 40
0.0
 40
0.0
 40
0.5
 40
0.5
 40
1.0
 40
1.0
 40
1.0
 40
1.0
 10
53.27500000000001
 20
5.557324928723892
 30
0.0
 10
53.27500000000001
 20
5.894130967131945
 30
0.0
 10
53.27500000000001
 20
6.285530775356635
 30
0.0
 10
53.275
 20
7.106686518850681
 30
0.0
 10
53.27500000000001
 20
7.534345325398077
 30
0.0
 10
53.27500000000001
 20
7.9385749287239
 30
0.0
  0
LINE
  5
CC
330
1F
100
AcDbEntity
  8
중심선
 48
0.8
100
AcDbLine
 10
-44.97500000000001
 20
0.0010749287238884
 30
0.0
 11
56.275
 21
0.0010749287239008
 31
0.0
  0
LINE
  5
CD
330
1F
100
AcDbEntity
  8
참조1
100
AcDbLine
 10
8.499261314031155
 20
0.0010749287238892
 30
0.0
 11
8.49926131403116
 21
-39.99892507127611
 31
0.0
  0
LINE
  5
CE
330
1F
100
AcDbEntity
  8
참조1
100
AcDbLine
 10
8.49926131403116
 20
-39.99892507127611
 30
0.0
 11
-20.15080122126847
 21
-39.9989250712761
 31
0.0
  0
CIRCLE
  5
CF
330
1F
100
AcDbEntity
  8
해칭선
100
AcDbCircle
 10
0.0
 20
0.0
 30
0.0
 40
2.999999999999995
  0
INSERT
  5
D0
330
1F
100
AcDbEntity
  8
0
  6
Continuous
 62
     7
100
AcDbBlockReference
 66
     1
  2
블럭10
 10
-14.99507341442781
 20
-52.04609937292004
 30
0.0
  0
ATTRIB
  5
D1
330
D0
100
AcDbEntity
  8
FORMAT
 62
     2
100
AcDbText
 10
-24.17636870316909
 20
-49.97073246008785
 30
0.0
 40
4.233333333333333
  1
E1070040 [ 2 FLUTE ]
 41
0.75
  7
SLDTEXTSTYLE0
 11
-24.17636870316909
 21
-52.08739912675452
 31
0.0
100
AcDbAttribute
  2
AUTOATTR0
 70
     0
 74
     1
  0
SEQEND
  5
D2
330
D0
100
AcDbEntity
  8
0
  6
Continuous
 62
     7
  0
HATCH
  5
D3
330
1F
100
AcDbEntity
  8
중심선
100
AcDbHatch
 10
0.0
 20
0.0
 30
0.0
210
0.0
220
0.0
230
1.0
  2
SOLID
 70
     1
 71
     0
 91
        1
 92
        0
 93
        4
 72
     1
 10
-9.280164110046961
 20
-35.7989250712761
 11
-12.72643935388424
 21
-35.7989250712761
 72
     1
 10
-12.72643935388425
 20
-35.7989250712761
 11
-14.85466921308827
 21
-38.3352506518487
 72
     1
 10
-14.85466921308827
 20
-38.3352506518487
 11
-11.40836088413784
 21
-38.33521122254621
 72
     1
 10
-11.40836088413784
 20
-38.33521122254621
 11
-9.280164110046961
 21
-35.7989250712761
 97
        0
 75
     0
 76
     1
 98
        1
 10
-9.554061796333762
 20
-0.0000000000000004
  0
HATCH
  5
D4
330
1F
100
AcDbEntity
  8
중심선
100
AcDbHatch
 10
0.0
 20
0.0
 30
0.0
210
0.0
220
0.0
230
1.0
  2
SOLID
 70
     1
 71
     0
 91
        1
 92
        0
 93
        4
 72
     1
 10
-4.267400119010983
 20
-35.79892507127608
 11
-7.713675362848265
 21
-35.79892507127613
 72
     1
 10
-7.713675362848265
 20
-35.79892507127613
 11
-12.24481337120568
 21
-41.19892507127612
 72
     1
 10
-12.24481337120568
 20
-41.19892507127612
 11
-8.7985381273684
 21
-41.19892507127612
 72
     1
 10
-8.7985381273684
 20
-41.19892507127612
 11
-4.267400119010983
 21
-35.79892507127608
 97
        0
 75
     0
 76
     1
 98
        1
 10
-9.554061796333762
 20
-0.0000000000000004
  0
HATCH
  5
D5
330
1F
100
AcDbEntity
  8
중심선
100
AcDbHatch
 10
0.0
 20
0.0
 30
0.0
210
0.0
220
0.0
230
1.0
  2
SOLID
 70
     1
 71
     0
 91
        1
 92
        0
 93
        4
 72
     1
 10
0.7453638720249405
 20
-35.79892507127608
 11
-2.700911371812175
 21
-35.79892507127608
 72
     1
 10
-2.700911371812175
 20
-35.79892507127608
 11
-9.74934827370148
 21
-44.19892507127612
 72
     1
 10
-9.74934827370148
 20
-44.19892507127612
 11
-6.303073029864198
 21
-44.19892507127612
 72
     1
 10
-6.303073029864198
 20
-44.19892507127612
 11
0.7453638720249405
 21
-35.79892507127608
 97
        0
 75
     0
 76
     1
 98
        1
 10
-9.554061796333762
 20
-0.0000000000000004
  0
HATCH
  5
D6
330
1F
100
AcDbEntity
  8
중심선
100
AcDbHatch
 10
0.0
 20
0.0
 30
0.0
210
0.0
220
0.0
230
1.0
  2
SOLID
 70
     1
 71
     0
 91
        1
 92
        0
 93
        6
 72
     3
 10
5.545254303037083
 20
-39.99892507132738
 11
3.960054785062283
 21
1.540882976769353E-10
 40
0.3939339440162628
 50
17.09539180608439
 51
320.0019657685075
 73
     0
 72
     1
 10
7.228253958737678
 20
-38.58681907591438
 11
9.533555832438743
 21
-36.65249236586643
 72
     3
 10
5.545254302984237
 20
-39.99892507127625
 11
6.600054785286829
 21
-1.278976924368180E-13
 40
0.636358354079598
 50
39.99873849337431
 51
368.4976242363724
 73
     1
 72
     1
 10
11.97058679488485
 20
-39.03892507120613
 11
4.22532160982016
 21
-39.03892507120613
 72
     1
 10
4.22532160982016
 20
-39.03892507120613
 11
4.225296565374226
 21
-40.95892507120602
 72
     1
 10
4.225296565374226
 20
-40.95892507120602
 11
8.666676334846262
 21
-40.95892507120599
 97
        0
 75
     0
 76
     1
 98
        1
 10
-9.554061796333762
 20
-0.0000000000000004
  0
DIMENSION
  5
D7
330
1F
100
AcDbEntity
  8
치수문자_일반주서
100
AcDbDimension
  2
_D
 10
-54.47499999999997
 20
-7.936425071276171
 30
0.0
 11
-54.475
 21
0.0010749287238858
 31
0.0
 70
   160
  1
%%c<>
 71
     2
 42
15.875
 52
-270.0
  3
SLDDIMSTYLE0
100
AcDbAlignedDimension
 13
-40.97499999999999
 23
7.938574928723879
 33
0.0
 14
-40.97499999999999
 24
-7.936425071276121
 34
0.0
 50
90.0000000000002
100
AcDbRotatedDimension
1001
ACAD
1000
DSTYLE
1002
{
1070
   171
1070
     6
1070
   273
1070
     7
1002
}
  0
DIMENSION
  5
EC
330
1F
100
AcDbEntity
  8
치수문자_일반주서
100
AcDbDimension
  2
_D_1
 10
12.0
 20
21.10820800543212
 30
0.0
 11
32.63750000000001
 21
21.10820800543212
 31
0.0
 70
   160
  1
<>
 71
     2
 42
41.27500000000001
  3
SLDDIMSTYLE0
100
AcDbAlignedDimension
 13
53.27500000000001
 23
7.9385749287239
 33
0.0
 14
12.0
 24
7.900334288009722
 34
0.0
 50
0.0000000000000049
100
AcDbRotatedDimension
1001
ACAD
1000
DSTYLE
1002
{
1070
   171
1070
     6
1070
   273
1070
     7
1002
}
  0
DIMENSION
  5
101
330
1F
100
AcDbEntity
  8
치수문자_일반주서
100
AcDbDimension
  2
_D_2
 10
-41.975
 20
38.0588226436362
 30
0.0
 11
5.649999999999858
 21
38.0588226436362
 31
0.0
 70
   160
  1
<>
 71
     2
 42
95.25000000000001
  3
SLDDIMSTYLE0
100
AcDbAlignedDimension
 13
53.27500000000001
 23
7.9385749287239
 33
0.0
 14
-41.975
 24
6.938574928723886
 34
0.0
 50
0.0000000000000085
100
AcDbRotatedDimension
1001
ACAD
1000
DSTYLE
1002
{
1070
   171
1070
     6
1070
   273
1070
     7
1002
}
  0
DIMENSION
  5
114
330
1F
100
AcDbEntity
  8
치수문자_일반주서
100
AcDbDimension
  2
_D_3
 10
65.37278532656262
 20
7.938574928723945
 30
0.0
 11
65.37278532656254
 21
31.90932113412585
 31
0.0
 70
   160
  1
%%c<>
 71
     2
 42
15.875
 52
-270.0
  3
SLDDIMSTYLE0
100
AcDbAlignedDimension
 13
53.27500000000001
 23
-7.936425071276096
 33
0.0
 14
53.27500000000001
 24
7.9385749287239
 34
0.0
 50
90.0000000000002
100
AcDbRotatedDimension
1001
ACAD
1000
DSTYLE
1002
{
1070
   171
1070
     6
1070
   273
1070
     7
1002
}
  0
LINE
  5
127
330
1F
100
AcDbEntity
  8
참조1
100
AcDbLine
 10
77.82153940838579
 20
7.441074928723896
 30
0.0
 11
77.82153940838579
 21
-7.438925071276109
 31
0.0
  0
LINE
  5
128
330
1F
100
AcDbEntity
  8
참조1
100
AcDbLine
 10
90.52153940838579
 20
5.441074928723896
 30
0.0
 11
77.82153940838579
 21
5.441074928723896
 31
0.0
  0
SOLID
  5
129
330
1F
100
AcDbEntity
  8
참조1
100
AcDbTrace
 10
77.82153940838579
 20
5.441074928723896
 30
0.0
 11
84.17153940838578
 21
4.425074928723896
 31
0.0
 12
84.17153940838578
 22
6.457074928723896
 32
0.0
 13
84.17153940838578
 23
6.457074928723896
 33
0.0
  0
LINE
  5
12A
330
1F
100
AcDbEntity
  8
참조1
100
AcDbLine
 10
90.52153940838579
 20
-5.438925071276109
 30
0.0
 11
77.82153940838579
 21
-5.438925071276109
 31
0.0
  0
SOLID
  5
12B
330
1F
100
AcDbEntity
  8
참조1
100
AcDbTrace
 10
77.82153940838579
 20
-5.438925071276109
 30
0.0
 11
84.17153940838578
 21
-6.454925071276109
 31
0.0
 12
84.17153940838578
 22
-4.422925071276109
 32
0.0
 13
84.17153940838578
 23
-4.422925071276109
 33
0.0
  0
MTEXT
  5
12C
330
1F
100
AcDbEntity
  8
참조1
100
AcDbMText
 10
87.20588954101179
 20
11.01136670591222
 30
0.0
 40
3.5
 41
0.0
 71
     1
 72
     1
  1
A
  7
SLDTEXTSTYLE0
 73
     1
 44
1.0
  0
MTEXT
  5
12D
330
1F
100
AcDbEntity
  8
참조1
100
AcDbMText
 10
87.20588954101179
 20
0.1313667059122192
 30
0.0
 40
3.5
 41
0.0
 71
     1
 72
     1
  1
A
  7
SLDTEXTSTYLE0
 73
     1
 44
1.0
  0
INSERT
  5
134
330
1F
100
AcDbEntity
  8
해칭선
100
AcDbBlockReference
  2
SW_DOWELSYMBOL_0
 10
0.0
 20
0.0
 30
0.0
  0
LINE
  5
211
330
1F
100
AcDbEntity
  8
외형선
  6
Continuous
370
    15
100
AcDbLine
 10
-22.85832500000001
 20
6.287574928723856
 30
0.0
 11
-12.67292499999999
 21
6.287574928723856
 31
0.0
  0
LINE
  5
212
330
1F
100
AcDbEntity
  8
외형선
  6
Continuous
370
    15
100
AcDbLine
 10
-22.85832500000001
 20
6.287574928723956
 30
0.0
 11
-24.50932499999996
 21
7.938574928723867
 31
0.0
  0
LINE
  5
213
330
1F
100
AcDbEntity
  8
외형선
  6
Continuous
370
    15
100
AcDbLine
 10
-12.67292500000011
 20
6.287574928723956
 30
0.0
 11
-11.0219250000001
 21
7.938574928723867
 31
0.0
  0
LINE
  5
214
330
1F
100
AcDbEntity
  8
외형선
  6
Continuous
370
    15
100
AcDbLine
 10
-24.509325
 20
7.938574928723891
 30
0.0
 11
-40.97499999999999
 21
7.93857492872389
 31
0.0
  0
ENDSEC
  0
SECTION
  2
OBJECTS
  0
DICTIONARY
  5
C
330
0
100
AcDbDictionary
281
     1
  3
ACAD_GROUP
350
D
  3
ACAD_IMAGE_VARS
350
158
  3
ACAD_LAYOUT
350
1A
  3
ACAD_MLINESTYLE
350
17
  3
ACAD_PLOTSETTINGS
350
19
  3
ACAD_PLOTSTYLENAME
350
E
  3
ACAD_SCALELIST
350
47
  3
APPDATA
350
156
  3
DWGPROPS
350
215
  0
DICTIONARY
  5
17F
330
2
100
AcDbDictionary
280
     1
281
     1
  3
ACAD_LAYERSTATES
360
180
  0
DICTIONARY
  5
D
102
{ACAD_REACTORS
330
C
102
}
330
C
100
AcDbDictionary
281
     1
  0
RASTERVARIABLES
  5
158
102
{ACAD_REACTORS
330
C
102
}
330
C
100
AcDbRasterVariables
 90
        0
 70
     1
 71
     1
 72
     1
  0
DICTIONARY
  5
1A
102
{ACAD_REACTORS
330
C
102
}
330
C
100
AcDbDictionary
281
     1
  3
Layout1
350
1E
  3
Layout2
350
26
  3
Model
350
22
  0
DICTIONARY
  5
17
102
{ACAD_REACTORS
330
C
102
}
330
C
100
AcDbDictionary
281
     1
  3
Standard
350
18
  0
DICTIONARY
  5
19
102
{ACAD_REACTORS
330
C
102
}
330
C
100
AcDbDictionary
281
     1
  0
ACDBDICTIONARYWDFLT
  5
E
102
{ACAD_REACTORS
330
C
102
}
330
C
100
AcDbDictionary
281
     1
  3
Normal
350
F
100
AcDbDictionaryWithDefault
340
F
  0
DICTIONARY
  5
47
102
{ACAD_REACTORS
330
C
102
}
330
C
100
AcDbDictionary
281
     1
  3
A0
350
48
  3
A1
350
49
  3
A2
350
4A
  3
A3
350
4B
  3
A4
350
4C
  3
A5
350
4D
  3
A6
350
4E
  3
A7
350
4F
  3
A8
350
50
  3
A9
350
51
  3
B0
350
52
  3
B1
350
53
  3
B2
350
54
  3
B3
350
55
  3
B4
350
56
  3
B5
350
57
  3
B6
350
58
  3
B7
350
59
  3
B8
350
5A
  3
B9
350
5B
  3
C0
350
5C
  3
C1
350
5D
  3
C2
350
5E
  3
C3
350
5F
  3
C4
350
60
  3
C5
350
61
  3
C6
350
62
  3
C7
350
63
  3
C8
350
64
  3
C9
350
65
  3
D0
350
66
  3
D1
350
67
  3
D2
350
68
  0
DICTIONARY
  5
156
102
{ACAD_REACTORS
330
C
102
}
330
C
100
AcDbDictionary
281
     1
  0
XRECORD
  5
215
102
{ACAD_REACTORS
330
C
102
}
330
C
100
AcDbXrecord
280
     1
  1
DWGPROPS COOKIE
  2

  3

  4

  6

  7

  8
12016016
  9

300
=
301
=
302
=
303
=
304
=
305
=
306
=
307
=
308
=
309
=
 40
0.0
 41
2458311.088685174
 42
2458318.291440567
  1

 90
        0
  0
DICTIONARY
  5
180
102
{ACAD_REACTORS
330
17F
102
}
330
17F
100
AcDbDictionary
281
     1
  0
LAYOUT
  5
1E
102
{ACAD_REACTORS
330
1A
102
}
330
1A
100
AcDbPlotSettings
  1

  2
none_device
  4

  6

 40
0.0
 41
0.0
 42
0.0
 43
0.0
 44
0.0
 45
0.0
 46
0.0
 47
0.0
 48
0.0
 49
0.0
140
0.0
141
0.0
142
1.0
143
1.0
 70
   688
 72
     1
 73
     0
 74
     5
  7

 75
    16
147
1.0
148
0.0
149
0.0
100
AcDbLayout
  1
Layout1
 70
     1
 71
     1
 10
0.0
 20
0.0
 11
420.0
 21
297.0
 12
0.0
 22
0.0
 32
0.0
 14
1.000000000000000E+20
 24
1.000000000000000E+20
 34
1.000000000000000E+20
 15
-1.000000000000000E+20
 25
-1.000000000000000E+20
 35
-1.000000000000000E+20
146
0.0
 13
0.0
 23
0.0
 33
0.0
 16
1.0
 26
0.0
 36
0.0
 17
0.0
 27
1.0
 37
0.0
 76
     0
330
1B
  0
LAYOUT
  5
26
102
{ACAD_REACTORS
330
1A
102
}
330
1A
100
AcDbPlotSettings
  1

  2
none_device
  4

  6

 40
0.0
 41
0.0
 42
0.0
 43
0.0
 44
0.0
 45
0.0
 46
0.0
 47
0.0
 48
0.0
 49
0.0
140
0.0
141
0.0
142
1.0
143
1.0
 70
   688
 72
     1
 73
     0
 74
     5
  7

 75
    16
147
1.0
148
0.0
149
0.0
100
AcDbLayout
  1
Layout2
 70
     1
 71
     2
 10
0.0
 20
0.0
 11
0.0
 21
0.0
 12
0.0
 22
0.0
 32
0.0
 14
0.0
 24
0.0
 34
0.0
 15
0.0
 25
0.0
 35
0.0
146
0.0
 13
0.0
 23
0.0
 33
0.0
 16
1.0
 26
0.0
 36
0.0
 17
0.0
 27
1.0
 37
0.0
 76
     0
330
23
  0
LAYOUT
  5
22
102
{ACAD_REACTORS
330
1A
102
}
330
1A
100
AcDbPlotSettings
  1

  2
none_device
  4
ANSI_A_(11.00_x_8.50_Inches)
  6

 40
6.35
 41
19.05
 42
6.35000508
 43
19.05000254
 44
279.4
 45
215.9
 46
97.17694978639527
 47
63.5402635944213
 48
0.0
 49
0.0
140
0.0
141
0.0
142
0.063277222282902
143
1.0
 70
  1696
 72
     0
 73
     0
 74
     0
  7

 75
     0
147
0.0235690232323232
148
0.0
149
0.0
100
AcDbLayout
  1
Model
 70
     1
 71
     0
 10
0.0
 20
0.0
 11
420.0
 21
297.0
 12
0.0
 22
0.0
 32
0.0
 14
1.000000000000000E+20
 24
1.000000000000000E+20
 34
1.000000000000000E+20
 15
-1.000000000000000E+20
 25
-1.000000000000000E+20
 35
-1.000000000000000E+20
146
0.0
 13
0.0
 23
0.0
 33
0.0
 16
1.0
 26
0.0
 36
0.0
 17
0.0
 27
1.0
 37
0.0
 76
     0
330
1F
331
29
  0
MLINESTYLE
  5
18
102
{ACAD_REACTORS
330
17
102
}
330
17
100
AcDbMlineStyle
  2
Standard
 70
     0
  3

 62
   256
 51
90.0
 52
90.0
 71
     2
 49
0.5
 62
   256
  6
BYLAYER
 49
-0.5
 62
   256
  6
BYLAYER
  0
ACDBPLACEHOLDER
  5
F
102
{ACAD_REACTORS
330
E
102
}
330
E
  0
SCALE
  5
48
102
{ACAD_REACTORS
330
47
102
}
330
47
100
AcDbScale
 70
     0
300
1:1
140
1.0
141
1.0
290
     1
  0
SCALE
  5
49
102
{ACAD_REACTORS
330
47
102
}
330
47
100
AcDbScale
 70
     0
300
1:2
140
1.0
141
2.0
290
     0
  0
SCALE
  5
4A
102
{ACAD_REACTORS
330
47
102
}
330
47
100
AcDbScale
 70
     0
300
1:4
140
1.0
141
4.0
290
     0
  0
SCALE
  5
4B
102
{ACAD_REACTORS
330
47
102
}
330
47
100
AcDbScale
 70
     0
300
1:5
140
1.0
141
5.0
290
     0
  0
SCALE
  5
4C
102
{ACAD_REACTORS
330
47
102
}
330
47
100
AcDbScale
 70
     0
300
1:8
140
1.0
141
8.0
290
     0
  0
SCALE
  5
4D
102
{ACAD_REACTORS
330
47
102
}
330
47
100
AcDbScale
 70
     0
300
1:10
140
1.0
141
10.0
290
     0
  0
SCALE
  5
4E
102
{ACAD_REACTORS
330
47
102
}
330
47
100
AcDbScale
 70
     0
300
1:16
140
1.0
141
16.0
290
     0
  0
SCALE
  5
4F
102
{ACAD_REACTORS
330
47
102
}
330
47
100
AcDbScale
 70
     0
300
1:20
140
1.0
141
20.0
290
     0
  0
SCALE
  5
50
102
{ACAD_REACTORS
330
47
102
}
330
47
100
AcDbScale
 70
     0
300
1:30
140
1.0
141
30.0
290
     0
  0
SCALE
  5
51
102
{ACAD_REACTORS
330
47
102
}
330
47
100
AcDbScale
 70
     0
300
1:40
140
1.0
141
40.0
290
     0
  0
SCALE
  5
52
102
{ACAD_REACTORS
330
47
102
}
330
47
100
AcDbScale
 70
     0
300
1:50
140
1.0
141
50.0
290
     0
  0
SCALE
  5
53
102
{ACAD_REACTORS
330
47
102
}
330
47
100
AcDbScale
 70
     0
300
1:100
140
1.0
141
100.0
290
     0
  0
SCALE
  5
54
102
{ACAD_REACTORS
330
47
102
}
330
47
100
AcDbScale
 70
     0
300
2:1
140
2.0
141
1.0
290
     0
  0
SCALE
  5
55
102
{ACAD_REACTORS
330
47
102
}
330
47
100
AcDbScale
 70
     0
300
4:1
140
4.0
141
1.0
290
     0
  0
SCALE
  5
56
102
{ACAD_REACTORS
330
47
102
}
330
47
100
AcDbScale
 70
     0
300
8:1
140
8.0
141
1.0
290
     0
  0
SCALE
  5
57
102
{ACAD_REACTORS
330
47
102
}
330
47
100
AcDbScale
 70
     0
300
10:1
140
10.0
141
1.0
290
     0
  0
SCALE
  5
58
102
{ACAD_REACTORS
330
47
102
}
330
47
100
AcDbScale
 70
     0
300
100:1
140
100.0
141
1.0
290
     0
  0
SCALE
  5
59
102
{ACAD_REACTORS
330
47
102
}
330
47
100
AcDbScale
 70
     0
300
1/128" = 1'-0"
140
0.0078125
141
12.0
290
     0
  0
SCALE
  5
5A
102
{ACAD_REACTORS
330
47
102
}
330
47
100
AcDbScale
 70
     0
300
1/64" = 1'-0"
140
0.015625
141
12.0
290
     0
  0
SCALE
  5
5B
102
{ACAD_REACTORS
330
47
102
}
330
47
100
AcDbScale
 70
     0
300
1/32" = 1'-0"
140
0.03125
141
12.0
290
     0
  0
SCALE
  5
5C
102
{ACAD_REACTORS
330
47
102
}
330
47
100
AcDbScale
 70
     0
300
1/16" = 1'-0"
140
0.0625
141
12.0
290
     0
  0
SCALE
  5
5D
102
{ACAD_REACTORS
330
47
102
}
330
47
100
AcDbScale
 70
     0
300
3/32" = 1'-0"
140
0.09375
141
12.0
290
     0
  0
SCALE
  5
5E
102
{ACAD_REACTORS
330
47
102
}
330
47
100
AcDbScale
 70
     0
300
1/8" = 1'-0"
140
0.125
141
12.0
290
     0
  0
SCALE
  5
5F
102
{ACAD_REACTORS
330
47
102
}
330
47
100
AcDbScale
 70
     0
300
3/16" = 1'-0"
140
0.1875
141
12.0
290
     0
  0
SCALE
  5
60
102
{ACAD_REACTORS
330
47
102
}
330
47
100
AcDbScale
 70
     0
300
1/4" = 1'-0"
140
0.25
141
12.0
290
     0
  0
SCALE
  5
61
102
{ACAD_REACTORS
330
47
102
}
330
47
100
AcDbScale
 70
     0
300
3/8" = 1'-0"
140
0.375
141
12.0
290
     0
  0
SCALE
  5
62
102
{ACAD_REACTORS
330
47
102
}
330
47
100
AcDbScale
 70
     0
300
1/2" = 1'-0"
140
0.5
141
12.0
290
     0
  0
SCALE
  5
63
102
{ACAD_REACTORS
330
47
102
}
330
47
100
AcDbScale
 70
     0
300
3/4" = 1'-0"
140
0.75
141
12.0
290
     0
  0
SCALE
  5
64
102
{ACAD_REACTORS
330
47
102
}
330
47
100
AcDbScale
 70
     0
300
1" = 1'-0"
140
1.0
141
12.0
290
     0
  0
SCALE
  5
65
102
{ACAD_REACTORS
330
47
102
}
330
47
100
AcDbScale
 70
     0
300
1-1/2" = 1'-0"
140
1.5
141
12.0
290
     0
  0
SCALE
  5
66
102
{ACAD_REACTORS
330
47
102
}
330
47
100
AcDbScale
 70
     0
300
3" = 1'-0"
140
3.0
141
12.0
290
     0
  0
SCALE
  5
67
102
{ACAD_REACTORS
330
47
102
}
330
47
100
AcDbScale
 70
     0
300
6" = 1'-0"
140
6.0
141
12.0
290
     0
  0
SCALE
  5
68
102
{ACAD_REACTORS
330
47
102
}
330
47
100
AcDbScale
 70
     0
300
1'-0" = 1'-0"
140
12.0
141
12.0
290
     0
  0
ENDSEC
  0
EOF
