  0
SECTION
  2
HEADER
  9
$ACADVER
  1
AC1015
  9
$ACADMAINTVER
 70
     6
  9
$DWGCODEPAGE
  3
ANSI_949
  9
$INSBASE
 10
0.0
 20
0.0
 30
0.0
  9
$EXTMIN
 10
1.000000000000000E+20
 20
1.000000000000000E+20
 30
1.000000000000000E+20
  9
$EXTMAX
 10
-1.000000000000000E+20
 20
-1.000000000000000E+20
 30
-1.000000000000000E+20
  9
$LIMMIN
 10
0.0
 20
0.0
  9
$LIMMAX
 10
420.0
 20
297.0
  9
$ORTHOMODE
 70
     1
  9
$REGENMODE
 70
     1
  9
$FILLMODE
 70
     1
  9
$QTEXTMODE
 70
     0
  9
$MIRRTEXT
 70
     1
  9
$LTSCALE
 40
1.0
  9
$ATTMODE
 70
     1
  9
$TEXTSIZE
 40
3.5
  9
$TRACEWID
 40
1.0
  9
$TEXTSTYLE
  7
Standard
  9
$CLAYER
  8
0
  9
$CELTYPE
  6
ByLayer
  9
$CECOLOR
 62
   256
  9
$CELTSCALE
 40
1.0
  9
$DISPSILH
 70
     0
  9
$DIMSCALE
 40
1.0
  9
$DIMASZ
 40
3.302
  9
$DIMEXO
 40
1.0
  9
$DIMDLI
 40
3.75
  9
$DIMRND
 40
0.0
  9
$DIMDLE
 40
0.0
  9
$DIMEXE
 40
1.0
  9
$DIMTP
 40
0.0
  9
$DIMTM
 40
0.0
  9
$DIMTXT
 40
3.5
  9
$DIMCEN
 40
2.5
  9
$DIMTSZ
 40
0.0
  9
$DIMTOL
 70
     0
  9
$DIMLIM
 70
     0
  9
$DIMTIH
 70
     1
  9
$DIMTOH
 70
     1
  9
$DIMSE1
 70
     0
  9
$DIMSE2
 70
     0
  9
$DIMTAD
 70
     1
  9
$DIMZIN
 70
     0
  9
$DIMBLK
  1

  9
$DIMASO
 70
     1
  9
$DIMSHO
 70
     1
  9
$DIMPOST
  1

  9
$DIMAPOST
  1

  9
$DIMALT
 70
     0
  9
$DIMALTD
 70
     3
  9
$DIMALTF
 40
0.0393700787401575
  9
$DIMLFAC
 40
1.0
  9
$DIMTOFL
 70
     1
  9
$DIMTVP
 40
0.0
  9
$DIMTIX
 70
     0
  9
$DIMSOXD
 70
     0
  9
$DIMSAH
 70
     0
  9
$DIMBLK1
  1

  9
$DIMBLK2
  1

  9
$DIMSTYLE
  2
ISO-25
  9
$DIMCLRD
 70
     0
  9
$DIMCLRE
 70
     0
  9
$DIMCLRT
 70
     0
  9
$DIMTFAC
 40
1.0
  9
$DIMGAP
 40
1.524
  9
$DIMJUST
 70
     0
  9
$DIMSD1
 70
     0
  9
$DIMSD2
 70
     0
  9
$DIMTOLJ
 70
     0
  9
$DIMTZIN
 70
     0
  9
$DIMALTZ
 70
     0
  9
$DIMALTTZ
 70
     0
  9
$DIMUPT
 70
     0
  9
$DIMDEC
 70
     2
  9
$DIMTDEC
 70
     2
  9
$DIMALTU
 70
     2
  9
$DIMALTTD
 70
     3
  9
$DIMTXSTY
  7
Standard
  9
$DIMAUNIT
 70
     0
  9
$DIMADEC
 70
     2
  9
$DIMALTRND
 40
0.0
  9
$DIMAZIN
 70
     0
  9
$DIMDSEP
 70
    44
  9
$DIMATFIT
 70
     3
  9
$DIMFRAC
 70
     0
  9
$DIMLDRBLK
  1

  9
$DIMLUNIT
 70
     2
  9
$DIMLWD
 70
    -2
  9
$DIMLWE
 70
    -2
  9
$DIMTMOVE
 70
     0
  9
$LUNITS
 70
     2
  9
$LUPREC
 70
     2
  9
$SKETCHINC
 40
1.0
  9
$FILLETRAD
 40
10.0
  9
$AUNITS
 70
     0
  9
$AUPREC
 70
     2
  9
$MENU
  1
.
  9
$ELEVATION
 40
0.0
  9
$PELEVATION
 40
0.0
  9
$THICKNESS
 40
0.0
  9
$LIMCHECK
 70
     0
  9
$CHAMFERA
 40
0.0
  9
$CHAMFERB
 40
0.0
  9
$CHAMFERC
 40
0.0
  9
$CHAMFERD
 40
0.0
  9
$SKPOLY
 70
     0
  9
$TDCREATE
 40
2458311.463896967
  9
$TDUCREATE
 40
2458311.088896967
  9
$TDUPDATE
 40
2458318.666252118
  9
$TDUUPDATE
 40
2458318.291252118
  9
$TDINDWG
 40
0.001318044
  9
$TDUSRTIMER
 40
2458318.291127674
  9
$USRTIMER
 70
     1
  9
$ANGBASE
 50
0.0
  9
$ANGDIR
 70
     0
  9
$PDMODE
 70
     0
  9
$PDSIZE
 40
-1.0
  9
$PLINEWID
 40
0.0
  9
$SPLFRAME
 70
     0
  9
$SPLINETYPE
 70
     6
  9
$SPLINESEGS
 70
     8
  9
$HANDSEED
  5
212
  9
$SURFTAB1
 70
     6
  9
$SURFTAB2
 70
     6
  9
$SURFTYPE
 70
     6
  9
$SURFU
 70
     6
  9
$SURFV
 70
     6
  9
$UCSBASE
  2

  9
$UCSNAME
  2

  9
$UCSORG
 10
0.0
 20
0.0
 30
0.0
  9
$UCSXDIR
 10
1.0
 20
0.0
 30
0.0
  9
$UCSYDIR
 10
0.0
 20
1.0
 30
0.0
  9
$UCSORTHOREF
  2

  9
$UCSORTHOVIEW
 70
     0
  9
$UCSORGTOP
 10
0.0
 20
0.0
 30
0.0
  9
$UCSORGBOTTOM
 10
0.0
 20
0.0
 30
0.0
  9
$UCSORGLEFT
 10
0.0
 20
0.0
 30
0.0
  9
$UCSORGRIGHT
 10
0.0
 20
0.0
 30
0.0
  9
$UCSORGFRONT
 10
0.0
 20
0.0
 30
0.0
  9
$UCSORGBACK
 10
0.0
 20
0.0
 30
0.0
  9
$PUCSBASE
  2

  9
$PUCSNAME
  2

  9
$PUCSORG
 10
0.0
 20
0.0
 30
0.0
  9
$PUCSXDIR
 10
1.0
 20
0.0
 30
0.0
  9
$PUCSYDIR
 10
0.0
 20
1.0
 30
0.0
  9
$PUCSORTHOREF
  2

  9
$PUCSORTHOVIEW
 70
     0
  9
$PUCSORGTOP
 10
0.0
 20
0.0
 30
0.0
  9
$PUCSORGBOTTOM
 10
0.0
 20
0.0
 30
0.0
  9
$PUCSORGLEFT
 10
0.0
 20
0.0
 30
0.0
  9
$PUCSORGRIGHT
 10
0.0
 20
0.0
 30
0.0
  9
$PUCSORGFRONT
 10
0.0
 20
0.0
 30
0.0
  9
$PUCSORGBACK
 10
0.0
 20
0.0
 30
0.0
  9
$USERI1
 70
     0
  9
$USERI2
 70
     0
  9
$USERI3
 70
     0
  9
$USERI4
 70
     0
  9
$USERI5
 70
     0
  9
$USERR1
 40
0.0
  9
$USERR2
 40
0.0
  9
$USERR3
 40
0.0
  9
$USERR4
 40
0.0
  9
$USERR5
 40
0.0
  9
$WORLDVIEW
 70
     1
  9
$SHADEDGE
 70
     3
  9
$SHADEDIF
 70
    70
  9
$TILEMODE
 70
     1
  9
$MAXACTVP
 70
    64
  9
$PINSBASE
 10
0.0
 20
0.0
 30
0.0
  9
$PLIMCHECK
 70
     0
  9
$PEXTMIN
 10
1.000000000000000E+20
 20
1.000000000000000E+20
 30
1.000000000000000E+20
  9
$PEXTMAX
 10
-1.000000000000000E+20
 20
-1.000000000000000E+20
 30
-1.000000000000000E+20
  9
$PLIMMIN
 10
0.0
 20
0.0
  9
$PLIMMAX
 10
0.0
 20
0.0
  9
$UNITMODE
 70
     0
  9
$VISRETAIN
 70
     1
  9
$PLINEGEN
 70
     0
  9
$PSLTSCALE
 70
     1
  9
$TREEDEPTH
 70
  3020
  9
$CMLSTYLE
  2
Standard
  9
$CMLJUST
 70
     0
  9
$CMLSCALE
 40
20.0
  9
$PROXYGRAPHICS
 70
     1
  9
$MEASUREMENT
 70
     1
  9
$CELWEIGHT
370
    -1
  9
$ENDCAPS
280
     0
  9
$JOINSTYLE
280
     0
  9
$LWDISPLAY
290
     1
  9
$INSUNITS
 70
     4
  9
$HYPERLINKBASE
  1

  9
$STYLESHEET
  1

  9
$XEDIT
290
     1
  9
$CEPSNTYPE
380
     0
  9
$PSTYLEMODE
290
     1
  9
$FINGERPRINTGUID
  2
{CCDA8E3A-E61B-4280-9133-C3C5A4A7F8CC}
  9
$VERSIONGUID
  2
{FAEB1C32-E019-11D5-929B-00C0DF256EC4}
  9
$EXTNAMES
290
     1
  9
$PSVPSCALE
 40
0.0
  9
$OLESTARTUP
290
     0
  0
ENDSEC
  0
SECTION
  2
CLASSES
  0
CLASS
  1
ACDBDICTIONARYWDFLT
  2
AcDbDictionaryWithDefault
  3
ObjectDBX Classes
 90
        0
280
     0
281
     0
  0
CLASS
  1
VISUALSTYLE
  2
AcDbVisualStyle
  3
ObjectDBX Classes
 90
     4095
280
     0
281
     0
  0
CLASS
  1
MATERIAL
  2
AcDbMaterial
  3
ObjectDBX Classes
 90
     1153
280
     0
281
     0
  0
CLASS
  1
SCALE
  2
AcDbScale
  3
ObjectDBX Classes
 90
     1153
280
     0
281
     0
  0
CLASS
  1
SUN
  2
AcDbSun
  3
SCENEOE
 90
     1153
280
     0
281
     0
  0
CLASS
  1
ACDBPLACEHOLDER
  2
AcDbPlaceHolder
  3
ObjectDBX Classes
 90
        0
280
     0
281
     0
  0
CLASS
  1
LAYOUT
  2
AcDbLayout
  3
ObjectDBX Classes
 90
        0
280
     0
281
     0
  0
CLASS
  1
TABLESTYLE
  2
AcDbTableStyle
  3
ObjectDBX Classes
 90
     4095
280
     0
281
     0
  0
CLASS
  1
MLEADERSTYLE
  2
AcDbMLeaderStyle
  3
ACDB_MLEADERSTYLE_CLASS
 90
     4095
280
     0
281
     0
  0
CLASS
  1
RASTERVARIABLES
  2
AcDbRasterVariables
  3
ISM
 90
        0
280
     0
281
     0
  0
ENDSEC
  0
SECTION
  2
TABLES
  0
TABLE
  2
VPORT
  5
8
330
0
100
AcDbSymbolTable
 70
     1
  0
VPORT
  5
29
330
8
100
AcDbSymbolTableRecord
100
AcDbViewportTableRecord
  2
*Active
 70
     0
 10
0.0
 20
0.0
 11
1.0
 21
1.0
 12
-28.48456816576073
 22
-24.98157922569265
 13
0.0
 23
0.0
 14
10.0
 24
10.0
 15
10.0
 25
10.0
 16
0.0
 26
0.0
 36
1.0
 17
0.0
 27
0.0
 37
0.0
 40
190.1298398228316
 41
1.740812379110251
 42
50.0
 43
0.0
 44
0.0
 50
0.0
 51
0.0
 71
    16
 72
  2000
 73
     1
 74
     3
 75
     0
 76
     0
 77
     0
 78
     0
281
     0
 65
     1
110
0.0
120
0.0
130
0.0
111
1.0
121
0.0
131
0.0
112
0.0
122
1.0
132
0.0
 79
     0
146
0.0
  0
ENDTAB
  0
TABLE
  2
LTYPE
  5
5
330
0
100
AcDbSymbolTable
 70
     6
  0
LTYPE
  5
14
330
5
100
AcDbSymbolTableRecord
100
AcDbLinetypeTableRecord
  2
ByBlock
 70
     0
  3

 72
    65
 73
     0
 40
0.0
  0
LTYPE
  5
15
330
5
100
AcDbSymbolTableRecord
100
AcDbLinetypeTableRecord
  2
ByLayer
 70
     0
  3

 72
    65
 73
     0
 40
0.0
  0
LTYPE
  5
16
330
5
100
AcDbSymbolTableRecord
100
AcDbLinetypeTableRecord
  2
Continuous
 70
     0
  3
Solid line
 72
    65
 73
     0
 40
0.0
  0
LTYPE
  5
6A
330
5
100
AcDbSymbolTableRecord
100
AcDbLinetypeTableRecord
  2
HIDDEN
 70
     0
  3
Hidden __ __ __ __ __ __ __ __ __ __ __ __ __ __
 72
    65
 73
     2
 40
1.905
 49
1.27
 74
     0
 49
-0.635
 74
     0
  0
LTYPE
  5
6B
330
5
100
AcDbSymbolTableRecord
100
AcDbLinetypeTableRecord
  2
PHANTOM
 70
     0
  3
Phantom ______  __  __  ______  __  __  ______
 72
    65
 73
     6
 40
12.7
 49
6.35
 74
     0
 49
-1.27
 74
     0
 49
1.27
 74
     0
 49
-1.27
 74
     0
 49
1.27
 74
     0
 49
-1.27
 74
     0
  0
LTYPE
  5
6C
330
5
100
AcDbSymbolTableRecord
100
AcDbLinetypeTableRecord
  2
CENTER
 70
     0
  3
Center ____ _ ____ _ ____ _ ____ _ ____ _ ____
 72
    65
 73
     4
 40
10.16
 49
6.35
 74
     0
 49
-1.27
 74
     0
 49
1.27
 74
     0
 49
-1.27
 74
     0
  0
LTYPE
  5
6D
330
5
100
AcDbSymbolTableRecord
100
AcDbLinetypeTableRecord
  2
CENTERX2
 70
     0
  3
Center (2x) ________  __  ________  __  _____
 72
    65
 73
     4
 40
20.32
 49
12.7
 74
     0
 49
-2.54
 74
     0
 49
2.54
 74
     0
 49
-2.54
 74
     0
  0
LTYPE
  5
6E
330
5
100
AcDbSymbolTableRecord
100
AcDbLinetypeTableRecord
  2
DOT2
 70
     0
  3
Dot (.5x) ........................................
 72
    65
 73
     2
 40
0.635
 49
0.0
 74
     0
 49
-0.635
 74
     0
  0
ENDTAB
  0
TABLE
  2
LAYER
  5
2
102
{ACAD_XDICTIONARY
360
17B
102
}
330
0
100
AcDbSymbolTable
 70
    18
  0
LAYER
  5
10
330
2
100
AcDbSymbolTableRecord
100
AcDbLayerTableRecord
  2
0
 70
     0
 62
     7
  6
Continuous
370
    -3
390
F
  0
LAYER
  5
6F
330
2
100
AcDbSymbolTableRecord
100
AcDbLayerTableRecord
  2
FORMAT
 70
     0
 62
     2
  6
Continuous
370
    -3
390
F
  0
LAYER
  5
70
330
2
100
AcDbSymbolTableRecord
100
AcDbLayerTableRecord
  2
외형선
 70
     0
 62
     4
  6
Continuous
370
    30
390
F
  0
LAYER
  5
71
330
2
100
AcDbSymbolTableRecord
100
AcDbLayerTableRecord
  2
숨은선
 70
     0
 62
     2
  6
HIDDEN
370
    15
390
F
  0
LAYER
  5
72
330
2
100
AcDbSymbolTableRecord
100
AcDbLayerTableRecord
  2
중심선
 70
     0
 62
     1
  6
CENTERX2
370
    -3
390
F
  0
LAYER
  5
73
330
2
100
AcDbSymbolTableRecord
100
AcDbLayerTableRecord
  2
파단선
 70
     0
 62
     4
  6
Continuous
370
    -3
390
F
  0
LAYER
  5
74
330
2
100
AcDbSymbolTableRecord
100
AcDbLayerTableRecord
  2
해칭선
 70
     0
 62
   100
  6
Continuous
370
    -3
390
F
  0
LAYER
  5
75
330
2
100
AcDbSymbolTableRecord
100
AcDbLayerTableRecord
  2
가는실선
 70
     0
 62
     4
  6
Continuous
370
    -3
390
F
  0
LAYER
  5
76
330
2
100
AcDbSymbolTableRecord
100
AcDbLayerTableRecord
  2
치수_보조선
 70
     0
 62
     4
  6
Continuous
370
    -3
390
F
  0
LAYER
  5
77
330
2
100
AcDbSymbolTableRecord
100
AcDbLayerTableRecord
  2
치수문자_일반주서
 70
     0
 62
     7
  6
Continuous
370
    15
390
F
  0
LAYER
  5
78
330
2
100
AcDbSymbolTableRecord
100
AcDbLayerTableRecord
  2
개별주서
 70
     0
 62
   100
  6
Continuous
370
    30
390
F
  0
LAYER
  5
79
330
2
100
AcDbSymbolTableRecord
100
AcDbLayerTableRecord
  2
중간선
 70
     0
 62
     2
  6
Continuous
370
    15
390
F
  0
LAYER
  5
7A
330
2
100
AcDbSymbolTableRecord
100
AcDbLayerTableRecord
  2
윤곽선
 70
     0
 62
     3
  6
Continuous
370
    40
390
F
  0
LAYER
  5
7B
330
2
100
AcDbSymbolTableRecord
100
AcDbLayerTableRecord
  2
중심마크
 70
     0
 62
   100
  6
Continuous
370
    30
390
F
  0
LAYER
  5
7C
330
2
100
AcDbSymbolTableRecord
100
AcDbLayerTableRecord
  2
가상선
 70
     0
 62
     4
  6
PHANTOM
370
    -3
390
F
  0
LAYER
  5
7D
330
2
100
AcDbSymbolTableRecord
100
AcDbLayerTableRecord
  2
특수지정선
 70
     0
 62
     5
  6
CENTERX2
370
    60
390
F
  0
LAYER
  5
7E
330
2
100
AcDbSymbolTableRecord
100
AcDbLayerTableRecord
  2
참조1
 70
     0
 62
    -4
  6
Continuous
370
    -3
390
F
  0
LAYER
  5
1AA
330
2
100
AcDbSymbolTableRecord
100
AcDbLayerTableRecord
  2
Defpoints
 70
     0
 62
     7
  6
Continuous
290
     0
370
    -3
390
F
  0
ENDTAB
  0
TABLE
  2
STYLE
  5
3
330
0
100
AcDbSymbolTable
 70
     2
  0
STYLE
  5
11
330
3
100
AcDbSymbolTableRecord
100
AcDbTextStyleTableRecord
  2
Standard
 70
     0
 40
0.0
 41
1.0
 50
0.0
 71
     0
 42
3.5
  3
txt
  4

  0
STYLE
  5
94
330
3
100
AcDbSymbolTableRecord
100
AcDbTextStyleTableRecord
  2
SLDTEXTSTYLE0
 70
     0
 40
0.0
 41
0.75
 50
0.0
 71
     0
 42
3.5
  3
TXT
  4

  0
ENDTAB
  0
TABLE
  2
VIEW
  5
6
330
0
100
AcDbSymbolTable
 70
     0
  0
ENDTAB
  0
TABLE
  2
UCS
  5
7
330
0
100
AcDbSymbolTable
 70
     0
  0
ENDTAB
  0
TABLE
  2
APPID
  5
9
330
0
100
AcDbSymbolTable
 70
     1
  0
APPID
  5
12
330
9
100
AcDbSymbolTableRecord
100
AcDbRegAppTableRecord
  2
ACAD
 70
     0
  0
ENDTAB
  0
TABLE
  2
DIMSTYLE
  5
A
330
0
100
AcDbSymbolTable
 70
     3
100
AcDbDimStyleTable
  0
DIMSTYLE
105
27
330
A
100
AcDbSymbolTableRecord
100
AcDbDimStyleTableRecord
  2
ISO-25
 70
     0
 41
2.5
 42
0.625
 43
3.75
 44
1.25
 73
     0
 74
     0
 77
     1
 78
     8
140
2.5
141
2.5
143
0.03937007874016
147
0.625
171
     3
172
     1
178
     0
271
     2
272
     2
274
     3
278
    44
283
     0
284
     8
340
11
  0
DIMSTYLE
105
D4
102
{ACAD_REACTORS
330
D3
330
E8
330
FD
330
110
102
}
330
A
100
AcDbSymbolTableRecord
100
AcDbDimStyleTableRecord
  2
SLDDIMSTYLE0
 70
     0
 41
3.302
 44
0.0
 45
0.000000001
 73
     0
 74
     0
 77
     1
 78
    12
 79
     3
140
3.5
143
0.0393700787401575
147
0.875
148
0.000000001
170
     1
172
     1
173
     1
178
     0
271
     2
272
     2
276
     2
284
    12
289
     0
340
94
  0
DIMSTYLE
105
E9
330
A
100
AcDbSymbolTableRecord
100
AcDbDimStyleTableRecord
  2
SLDDIMSTYLE1
 70
     0
 41
3.302
 44
0.0
 45
0.000000001
 73
     0
 74
     0
 77
     1
 78
    12
 79
     3
140
3.5
143
0.0393700787401575
147
0.875
148
0.000000001
170
     1
173
     1
178
     0
271
     2
272
     2
276
     2
284
    12
340
94
  0
ENDTAB
  0
TABLE
  2
BLOCK_RECORD
  5
1
330
0
100
AcDbSymbolTable
 70
     8
  0
BLOCK_RECORD
  5
1F
330
1
100
AcDbSymbolTableRecord
100
AcDbBlockTableRecord
  2
*Model_Space
340
22
  0
BLOCK_RECORD
  5
1B
330
1
100
AcDbSymbolTableRecord
100
AcDbBlockTableRecord
  2
*Paper_Space
340
1E
  0
BLOCK_RECORD
  5
23
330
1
100
AcDbSymbolTableRecord
100
AcDbBlockTableRecord
  2
*Paper_Space0
340
26
  0
BLOCK_RECORD
  5
7F
330
1
100
AcDbSymbolTableRecord
100
AcDbBlockTableRecord
  2
블럭10
340
0
102
{BLKREFS
331
CC
102
}
  0
BLOCK_RECORD
  5
D5
330
1
100
AcDbSymbolTableRecord
100
AcDbBlockTableRecord
  2
_D
340
0
  0
BLOCK_RECORD
  5
EA
330
1
100
AcDbSymbolTableRecord
100
AcDbBlockTableRecord
  2
_D_1
340
0
  0
BLOCK_RECORD
  5
FE
330
1
100
AcDbSymbolTableRecord
100
AcDbBlockTableRecord
  2
_D_2
340
0
  0
BLOCK_RECORD
  5
111
330
1
100
AcDbSymbolTableRecord
100
AcDbBlockTableRecord
  2
_D_3
340
0
  0
BLOCK_RECORD
  5
12A
330
1
100
AcDbSymbolTableRecord
100
AcDbBlockTableRecord
  2
SW_DOWELSYMBOL_0
340
0
102
{BLKREFS
331
130
102
}
  0
ENDTAB
  0
ENDSEC
  0
SECTION
  2
BLOCKS
  0
BLOCK
  5
20
330
1F
100
AcDbEntity
  8
0
100
AcDbBlockBegin
  2
*Model_Space
 70
     0
 10
0.0
 20
0.0
 30
0.0
  3
*Model_Space
  1
*Model_Space
  0
ENDBLK
  5
21
330
1F
100
AcDbEntity
  8
0
100
AcDbBlockEnd
  0
BLOCK
  5
1C
330
1B
100
AcDbEntity
 67
     1
  8
0
100
AcDbBlockBegin
  2
*Paper_Space
 70
     0
 10
0.0
 20
0.0
 30
0.0
  3
*Paper_Space
  1
*Paper_Space
  0
ENDBLK
  5
1D
330
1B
100
AcDbEntity
 67
     1
  8
0
100
AcDbBlockEnd
  0
BLOCK
  5
24
330
23
100
AcDbEntity
  8
0
100
AcDbBlockBegin
  2
*Paper_Space0
 70
     0
 10
0.0
 20
0.0
 30
0.0
  3
*Paper_Space0
  1
*Paper_Space0
  0
ENDBLK
  5
25
330
23
100
AcDbEntity
  8
0
100
AcDbBlockEnd
  0
BLOCK
  5
80
330
7F
100
AcDbEntity
  8
0
100
AcDbBlockBegin
  2
블럭10
 70
     2
 10
0.0
 20
0.0
 30
0.0
  3
블럭10
  1
블럭10
  0
ELLIPSE
  5
82
330
7F
100
AcDbEntity
  8
중심선
100
AcDbEllipse
 10
20.54032771741204
 20
12.0471743016438
 30
0.0
 11
6.600054785286829
 21
-1.261213355974178E-13
 31
0.0
210
0.0
220
0.0
230
1.0
 40
0.636358354079598
 41
0.9219305317359503
 42
6.513795318482858
  0
ELLIPSE
  5
83
330
7F
100
AcDbEntity
  8
중심선
100
AcDbEllipse
 10
20.54032771746488
 20
12.04717430159265
 30
0.0
 11
3.960054785062283
 21
1.540847449632565E-10
 31
0.0
210
0.0
220
0.0
230
1.0
 40
0.3939339440162632
 41
1.131841032648279
 42
5.62031148352944
  0
LINE
  5
84
330
7F
100
AcDbEntity
  8
중심선
100
AcDbLine
 10
2.268634060543552
 20
16.24717430164393
 30
0.0
 11
5.714909304380834
 21
16.24717430164393
 31
0.0
  0
LINE
  5
85
330
7F
100
AcDbEntity
  8
중심선
100
AcDbLine
 10
5.245725140726316
 20
7.84717430164391
 30
0.0
 11
8.692000384563599
 21
7.84717430164391
 31
0.0
  0
LINE
  5
86
330
7F
100
AcDbEntity
  8
중심선
100
AcDbLine
 10
15.74043728645272
 20
16.24717430164393
 30
0.0
 11
8.692000384563599
 21
7.84717430164391
 31
0.0
  0
LINE
  5
87
330
7F
100
AcDbEntity
  8
중심선
100
AcDbLine
 10
0.1404042013395286
 20
13.71084872107135
 30
0.0
 11
3.58671253028996
 21
13.71088815037384
 31
0.0
  0
LINE
  5
88
330
7F
100
AcDbEntity
  8
중심선
100
AcDbLine
 10
2.750260043222114
 20
10.84717430164391
 30
0.0
 11
6.196535287059397
 21
10.84717430164391
 31
0.0
  0
LINE
  5
89
330
7F
100
AcDbEntity
  8
중심선
100
AcDbLine
 10
12.29416204261559
 20
16.24717430164393
 30
0.0
 11
5.245725140726316
 21
7.84717430164391
 31
0.0
  0
LINE
  5
8A
330
7F
100
AcDbEntity
  8
중심선
100
AcDbLine
 10
10.72767329541681
 20
16.24717430164393
 30
0.0
 11
6.196535287059397
 21
10.84717430164391
 31
0.0
  0
LINE
  5
8B
330
7F
100
AcDbEntity
  8
중심선
100
AcDbLine
 10
7.28139805157953
 20
16.24717430164393
 30
0.0
 11
2.750260043222114
 21
10.84717430164391
 31
0.0
  0
LINE
  5
8C
330
7F
100
AcDbEntity
  8
중심선
100
AcDbLine
 10
5.714909304380834
 20
16.24717430164393
 30
0.0
 11
3.58671253028996
 21
13.71088815037384
 31
0.0
  0
LINE
  5
8D
330
7F
100
AcDbEntity
  8
중심선
100
AcDbLine
 10
2.268634060543552
 20
16.24717430164393
 30
0.0
 11
0.1404042013395286
 21
13.71084872107135
 31
0.0
  0
LINE
  5
8E
330
7F
100
AcDbEntity
  8
중심선
100
AcDbLine
 10
7.28139805157953
 20
16.24717430164393
 30
0.0
 11
10.72767329541681
 21
16.24717430164393
 31
0.0
  0
LINE
  5
8F
330
7F
100
AcDbEntity
  8
중심선
100
AcDbLine
 10
12.29416204261559
 20
16.24717430164393
 30
0.0
 11
15.74043728645272
 21
16.24717430164393
 31
0.0
  0
LINE
  5
90
330
7F
100
AcDbEntity
  8
중심선
100
AcDbLine
 10
19.22036997980202
 20
11.08717430171403
 30
0.0
 11
23.66174974927406
 21
11.08717430171406
 31
0.0
  0
LINE
  5
91
330
7F
100
AcDbEntity
  8
중심선
100
AcDbLine
 10
19.22039502424796
 20
13.00717430171391
 30
0.0
 11
19.22036997980202
 21
11.08717430171403
 31
0.0
  0
LINE
  5
92
330
7F
100
AcDbEntity
  8
중심선
100
AcDbLine
 10
19.22039502424796
 20
13.00717430171391
 30
0.0
 11
26.96566020931264
 21
13.00717430171391
 31
0.0
  0
LINE
  5
93
330
7F
100
AcDbEntity
  8
중심선
100
AcDbLine
 10
22.22332737316547
 20
13.45928029700563
 30
0.0
 11
24.52862924686651
 21
15.39360700705356
 31
0.0
  0
ATTDEF
  5
95
330
7F
100
AcDbEntity
  8
FORMAT
 62
     2
100
AcDbText
 10
4.408487351596664
 20
2.075366912832191
 30
0.0
 40
4.233333333333333
  1
E1070048
 41
0.75
  7
SLDTEXTSTYLE0
 11
4.408487351596664
 21
-0.0412997538344756
 31
0.0
100
AcDbAttributeDefinition
  3

  2
AUTOATTR0
 70
     0
 74
     1
  0
ENDBLK
  5
81
330
7F
100
AcDbEntity
  8
0
100
AcDbBlockEnd
  0
BLOCK
  5
D6
330
D5
100
AcDbEntity
  8
0
100
AcDbBlockBegin
  2
_D
 70
     0
 10
0.0
 20
0.0
 30
0.0
  3
_D
  1
_D
  0
LINE
  5
D8
330
D5
100
AcDbEntity
  8
치수문자_일반주서
 62
     0
370
    -2
100
AcDbLine
 10
-44.21250000000001
 20
9.525000000000004
 30
0.0
 11
-57.65000000000005
 21
9.524999999999954
 31
0.0
  0
LINE
  5
D9
330
D5
100
AcDbEntity
  8
치수문자_일반주서
 62
     0
370
    -2
100
AcDbLine
 10
-44.21250000000001
 20
-9.525000000000007
 30
0.0
 11
-57.64999999999998
 21
-9.525000000000057
 31
0.0
  0
LINE
  5
DA
330
D5
100
AcDbEntity
  8
치수문자_일반주서
 62
     0
370
    -2
100
AcDbLine
 10
-57.65000000000003
 20
6.222999999999955
 30
0.0
 11
-57.65
 21
-6.223000000000058
 31
0.0
  0
SOLID
  5
DB
330
D5
100
AcDbEntity
  8
치수문자_일반주서
 62
     0
100
AcDbTrace
 10
-57.0996666666667
 20
6.222999999999956
 30
0.0
 11
-58.20033333333337
 21
6.222999999999953
 31
0.0
 12
-57.65000000000005
 22
9.524999999999954
 32
0.0
 13
-57.65000000000005
 23
9.524999999999954
 33
0.0
  0
SOLID
  5
DC
330
D5
100
AcDbEntity
  8
치수문자_일반주서
 62
     0
100
AcDbTrace
 10
-58.20033333333333
 20
-6.223000000000059
 30
0.0
 11
-57.09966666666666
 21
-6.223000000000056
 31
0.0
 12
-57.64999999999998
 22
-9.525000000000057
 32
0.0
 13
-57.64999999999998
 23
-9.525000000000057
 33
0.0
  0
MTEXT
  5
DD
330
D5
100
AcDbEntity
  8
치수문자_일반주서
 62
     0
100
AcDbMText
 10
-62.02500000000002
 20
-0.0000000000000094
 30
0.0
 40
3.5
 41
0.0
 71
     2
 72
     1
  1
\A1;%%c19.05 [3/4]
  7
SLDTEXTSTYLE0
 11
-3.356894814614645E-15
 21
1.0
 31
0.0
 73
     1
 44
1.0
  0
POINT
  5
DE
330
D5
100
AcDbEntity
  8
Defpoints
 62
     0
100
AcDbPoint
 10
-44.15000000000001
 20
9.525000000000004
 30
0.0
  0
POINT
  5
DF
330
D5
100
AcDbEntity
  8
Defpoints
 62
     0
100
AcDbPoint
 10
-44.15000000000001
 20
-9.525000000000007
 30
0.0
  0
POINT
  5
E0
330
D5
100
AcDbEntity
  8
Defpoints
 62
     0
100
AcDbPoint
 10
-57.64999999999998
 20
-9.525000000000057
 30
0.0
  0
ENDBLK
  5
D7
330
D5
100
AcDbEntity
  8
0
100
AcDbBlockEnd
  0
BLOCK
  5
EB
330
EA
100
AcDbEntity
  8
0
100
AcDbBlockBegin
  2
_D_1
 70
     0
 10
0.0
 20
0.0
 30
0.0
  3
_D_1
  1
_D_1
  0
LINE
  5
ED
330
EA
100
AcDbEntity
  8
치수문자_일반주서
 62
     0
370
    -2
100
AcDbLine
 10
53.27499999999941
 20
9.587500000000006
 30
0.0
 11
53.27499999999941
 21
22.69329134588529
 31
0.0
  0
LINE
  5
EE
330
EA
100
AcDbEntity
  8
치수문자_일반주서
 62
     0
370
    -2
100
AcDbLine
 10
11.99999999999999
 20
9.10750731749922
 30
0.0
 11
11.99999999999999
 21
22.69329134588529
 31
0.0
  0
LINE
  5
EF
330
EA
100
AcDbEntity
  8
치수문자_일반주서
 62
     0
370
    -2
100
AcDbLine
 10
49.97299999999941
 20
22.69329134588529
 30
0.0
 11
15.30199999999999
 21
22.69329134588529
 31
0.0
  0
SOLID
  5
F0
330
EA
100
AcDbEntity
  8
치수문자_일반주서
 62
     0
100
AcDbTrace
 10
49.97299999999941
 20
22.14295801255196
 30
0.0
 11
49.97299999999941
 21
23.24362467921863
 31
0.0
 12
53.27499999999941
 22
22.69329134588529
 32
0.0
 13
53.27499999999941
 23
22.69329134588529
 33
0.0
  0
SOLID
  5
F1
330
EA
100
AcDbEntity
  8
치수문자_일반주서
 62
     0
100
AcDbTrace
 10
15.30199999999999
 20
23.24362467921863
 30
0.0
 11
15.30199999999999
 21
22.14295801255196
 31
0.0
 12
11.99999999999999
 22
22.69329134588529
 32
0.0
 13
11.99999999999999
 23
22.69329134588529
 33
0.0
  0
MTEXT
  5
F2
330
EA
100
AcDbEntity
  8
치수문자_일반주서
 62
     0
100
AcDbMText
 10
32.63749999999999
 20
27.06829134588529
 30
0.0
 40
3.5
 41
0.0
 71
     2
 72
     1
  1
\A1;41.28 [1 5/8]
  7
SLDTEXTSTYLE0
 73
     1
 44
1.0
  0
POINT
  5
F3
330
EA
100
AcDbEntity
  8
Defpoints
 62
     0
100
AcDbPoint
 10
53.27499999999941
 20
9.525000000000006
 30
0.0
  0
POINT
  5
F4
330
EA
100
AcDbEntity
  8
Defpoints
 62
     0
100
AcDbPoint
 10
11.99999999999999
 20
9.04500731749922
 30
0.0
  0
POINT
  5
F5
330
EA
100
AcDbEntity
  8
Defpoints
 62
     0
100
AcDbPoint
 10
11.99999999999999
 20
22.69329134588529
 30
0.0
  0
ENDBLK
  5
EC
330
EA
100
AcDbEntity
  8
0
100
AcDbBlockEnd
  0
BLOCK
  5
FF
330
FE
100
AcDbEntity
  8
0
100
AcDbBlockBegin
  2
_D_2
 70
     0
 10
0.0
 20
0.0
 30
0.0
  3
_D_2
  1
_D_2
  0
LINE
  5
101
330
FE
100
AcDbEntity
  8
치수문자_일반주서
 62
     0
370
    -2
100
AcDbLine
 10
53.27499999999941
 20
9.587500000000002
 30
0.0
 11
53.27499999999942
 21
39.56419134481795
 31
0.0
  0
LINE
  5
102
330
FE
100
AcDbEntity
  8
치수문자_일반주서
 62
     0
370
    -2
100
AcDbLine
 10
-45.15
 20
8.587499999999993
 30
0.0
 11
-45.14999999999999
 21
39.56419134481795
 31
0.0
  0
LINE
  5
103
330
FE
100
AcDbEntity
  8
치수문자_일반주서
 62
     0
370
    -2
100
AcDbLine
 10
49.97299999999942
 20
39.56419134481795
 30
0.0
 11
-41.84799999999999
 21
39.56419134481795
 31
0.0
  0
SOLID
  5
104
330
FE
100
AcDbEntity
  8
치수문자_일반주서
 62
     0
100
AcDbTrace
 10
49.97299999999942
 20
39.01385801148461
 30
0.0
 11
49.97299999999942
 21
40.11452467815128
 31
0.0
 12
53.27499999999942
 22
39.56419134481795
 32
0.0
 13
53.27499999999942
 23
39.56419134481795
 33
0.0
  0
SOLID
  5
105
330
FE
100
AcDbEntity
  8
치수문자_일반주서
 62
     0
100
AcDbTrace
 10
-41.84799999999999
 20
40.11452467815128
 30
0.0
 11
-41.84799999999999
 21
39.01385801148461
 31
0.0
 12
-45.14999999999999
 22
39.56419134481795
 32
0.0
 13
-45.14999999999999
 23
39.56419134481795
 33
0.0
  0
MTEXT
  5
106
330
FE
100
AcDbEntity
  8
치수문자_일반주서
 62
     0
100
AcDbMText
 10
4.062499999999853
 20
43.93919134481795
 30
0.0
 40
3.5
 41
0.0
 71
     2
 72
     1
  1
\A1;98.43 [3 7/8]
  7
SLDTEXTSTYLE0
 73
     1
 44
1.0
  0
POINT
  5
107
330
FE
100
AcDbEntity
  8
Defpoints
 62
     0
100
AcDbPoint
 10
53.27499999999941
 20
9.525000000000002
 30
0.0
  0
POINT
  5
108
330
FE
100
AcDbEntity
  8
Defpoints
 62
     0
100
AcDbPoint
 10
-45.15
 20
8.524999999999993
 30
0.0
  0
POINT
  5
109
330
FE
100
AcDbEntity
  8
Defpoints
 62
     0
100
AcDbPoint
 10
-45.15
 20
39.56419134481795
 30
0.0
  0
ENDBLK
  5
100
330
FE
100
AcDbEntity
  8
0
100
AcDbBlockEnd
  0
BLOCK
  5
112
330
111
100
AcDbEntity
  8
0
100
AcDbBlockBegin
  2
_D_3
 70
     0
 10
0.0
 20
0.0
 30
0.0
  3
_D_3
  1
_D_3
  0
LINE
  5
114
330
111
100
AcDbEntity
  8
치수문자_일반주서
 62
     0
370
    -2
100
AcDbLine
 10
53.33749999999999
 20
-9.524999999999995
 30
0.0
 11
68.18748616834166
 21
-9.524999999999942
 31
0.0
  0
LINE
  5
115
330
111
100
AcDbEntity
  8
치수문자_일반주서
 62
     0
370
    -2
100
AcDbLine
 10
53.33749999999941
 20
9.525000000000006
 30
0.0
 11
68.1874861683416
 21
9.525000000000066
 31
0.0
  0
LINE
  5
116
330
111
100
AcDbEntity
  8
치수문자_일반주서
 62
     0
370
    -2
100
AcDbLine
 10
68.1874861683416
 20
9.525000000000066
 30
0.0
 11
68.18748616834145
 21
46.38721113028824
 31
0.0
  0
LINE
  5
117
330
111
100
AcDbEntity
  8
치수문자_일반주서
 62
     0
370
    -2
100
AcDbLine
 10
68.18748616834166
 20
-9.524999999999942
 30
0.0
 11
68.1874861683416
 21
9.525000000000066
 31
0.0
  0
LINE
  5
118
330
111
100
AcDbEntity
  8
치수문자_일반주서
 62
     0
370
    -2
100
AcDbLine
 10
68.18748616834168
 20
-12.82699999999994
 30
0.0
 11
68.18748616834169
 21
-16.12899999999994
 31
0.0
  0
LINE
  5
119
330
111
100
AcDbEntity
  8
치수문자_일반주서
 62
     0
370
    -2
100
AcDbLine
 10
68.18748616834158
 20
12.82700000000007
 30
0.0
 11
68.18748616834156
 21
16.12900000000007
 31
0.0
  0
SOLID
  5
11A
330
111
100
AcDbEntity
  8
치수문자_일반주서
 62
     0
100
AcDbTrace
 10
68.737819501675
 20
-12.82699999999994
 30
0.0
 11
67.63715283500835
 21
-12.82699999999994
 31
0.0
 12
68.18748616834166
 22
-9.524999999999942
 32
0.0
 13
68.18748616834166
 23
-9.524999999999942
 33
0.0
  0
SOLID
  5
11B
330
111
100
AcDbEntity
  8
치수문자_일반주서
 62
     0
100
AcDbTrace
 10
67.63715283500825
 20
12.82700000000006
 30
0.0
 11
68.7378195016749
 21
12.82700000000007
 31
0.0
 12
68.1874861683416
 22
9.525000000000066
 32
0.0
 13
68.1874861683416
 23
9.525000000000066
 33
0.0
  0
MTEXT
  5
11C
330
111
100
AcDbEntity
  8
치수문자_일반주서
 62
     0
100
AcDbMText
 10
63.81248616834151
 20
32.60596113028823
 30
0.0
 40
3.5
 41
0.0
 71
     2
 72
     1
  1
\A1;%%c19.05 [3/4]
  7
SLDTEXTSTYLE0
 11
-3.729883127349608E-15
 21
1.0
 31
0.0
 73
     1
 44
1.0
  0
POINT
  5
11D
330
111
100
AcDbEntity
  8
Defpoints
 62
     0
100
AcDbPoint
 10
53.27499999999999
 20
-9.524999999999995
 30
0.0
  0
POINT
  5
1AF
330
111
100
AcDbEntity
  8
Defpoints
 62
     0
100
AcDbPoint
 10
53.27499999999941
 20
9.525000000000006
 30
0.0
  0
POINT
  5
1B0
330
111
100
AcDbEntity
  8
Defpoints
 62
     0
100
AcDbPoint
 10
68.1874861683416
 20
9.52500000000006
 30
0.0
  0
ENDBLK
  5
113
330
111
100
AcDbEntity
  8
0
100
AcDbBlockEnd
  0
BLOCK
  5
12B
330
12A
100
AcDbEntity
  8
0
100
AcDbBlockBegin
  2
SW_DOWELSYMBOL_0
 70
     0
 10
0.0
 20
0.0
 30
0.0
  3
SW_DOWELSYMBOL_0
  1
SW_DOWELSYMBOL_0
  0
CIRCLE
  5
12D
330
12A
100
AcDbEntity
  8
해칭선
 62
     0
100
AcDbCircle
 10
0.0
 20
0.0
 30
0.0
 40
2.999999999999996
  0
HATCH
  5
12E
330
12A
100
AcDbEntity
  8
0
  6
Continuous
 62
     0
370
     0
100
AcDbHatch
 10
0.0
 20
0.0
 30
0.0
210
0.0
220
0.0
230
1.0
  2
SOLID
 70
     1
 71
     0
 91
        1
 92
        0
 93
        3
 72
     2
 10
0.0
 20
0.0
 40
2.999999999999996
 50
0.0
 51
90.0
 73
     1
 72
     1
 10
0.0
 20
2.999999999999996
 11
0.0
 21
0.0
 72
     1
 10
0.0
 20
0.0
 11
2.999999999999996
 21
0.0
 97
        0
 75
     0
 76
     1
 98
        1
 10
0.0
 20
0.0
  0
HATCH
  5
12F
330
12A
100
AcDbEntity
  8
0
  6
Continuous
 62
     0
370
     0
100
AcDbHatch
 10
0.0
 20
0.0
 30
0.0
210
0.0
220
0.0
230
1.0
  2
SOLID
 70
     1
 71
     0
 91
        1
 92
        0
 93
        3
 72
     2
 10
0.0
 20
0.0
 40
2.999999999999996
 50
180.0
 51
270.0000000000007
 73
     1
 72
     1
 10
0.0
 20
-2.999999999999996
 11
0.0
 21
0.0
 72
     1
 10
0.0
 20
0.0
 11
-2.999999999999996
 21
0.0
 97
        0
 75
     0
 76
     1
 98
        1
 10
0.0
 20
0.0
  0
ENDBLK
  5
12C
330
12A
100
AcDbEntity
  8
0
100
AcDbBlockEnd
  0
ENDSEC
  0
SECTION
  2
ENTITIES
  0
LINE
  5
96
330
1F
100
AcDbEntity
  8
외형선
  6
Continuous
370
    15
100
AcDbLine
 10
8.949976669939652
 20
9.525
 30
0.0
 11
-11.656925
 21
9.524999999999999
 31
0.0
  0
LINE
  5
97
330
1F
100
AcDbEntity
  8
외형선
  6
Continuous
370
    15
100
AcDbLine
 10
-44.15000000000001
 20
-9.525000000000004
 30
0.0
 11
8.949976669939652
 21
-9.525
 31
0.0
  0
LINE
  5
98
330
1F
100
AcDbEntity
  8
외형선
  6
Continuous
370
    15
100
AcDbLine
 10
-44.15000000000001
 20
9.524999999999993
 30
0.0
 11
-45.15
 21
8.524999999999993
 31
0.0
  0
LINE
  5
99
330
1F
100
AcDbEntity
  8
외형선
  6
Continuous
370
    15
100
AcDbLine
 10
-45.15
 20
-8.525000000000004
 30
0.0
 11
-44.15000000000001
 21
-9.525000000000004
 31
0.0
  0
SPLINE
  5
9A
330
1F
100
AcDbEntity
  8
외형선
  6
Continuous
370
    15
100
AcDbSpline
210
0.0
220
0.0
230
1.0
 70
     8
 71
     3
 72
     9
 73
     5
 74
     0
 42
0.000000001
 43
0.00000001
 40
0.0
 40
0.0
 40
0.0
 40
0.0
 40
0.498846042900676
 40
0.9999999999999999
 40
0.9999999999999999
 40
0.9999999999999999
 40
0.9999999999999999
 10
11.15466895139953
 20
-7.922896050025169
 30
0.0
 10
11.29558697988018
 20
-7.908932753718677
 30
0.0
 10
11.5780749949424
 20
-7.880941559831876
 30
0.0
 10
11.85914210538914
 20
-7.85315015650673
 30
0.0
 10
11.99999999999999
 20
-7.839222384756985
 30
0.0
  0
LINE
  5
9B
330
1F
100
AcDbEntity
  8
0
  6
Continuous
 62
     1
370
    15
100
AcDbLine
 10
26.00089436347355
 20
3.738783581992383
 30
0.0
 11
25.95552744907023
 21
3.762379947288231
 31
0.0
  0
SPLINE
  5
9C
330
1F
100
AcDbEntity
  8
0
  6
Continuous
 62
     1
370
    15
100
AcDbSpline
210
0.0
220
0.0
230
1.0
 70
     8
 71
     3
 72
    10
 73
     6
 74
     0
 42
0.000000001
 43
0.00000001
 40
0.0
 40
0.0
 40
0.0
 40
0.0
 40
0.4347063072958062
 40
0.6486433597003394
 40
1.0
 40
1.0
 40
1.0
 40
1.0
 10
28.5985580174131
 20
2.440718142402201
 30
0.0
 10
28.22035518724849
 20
2.620879157914929
 30
0.0
 10
27.6560230156446
 20
2.889704901705392
 30
0.0
 10
26.79472263092301
 20
3.32218114283955
 30
0.0
 10
26.30517269402512
 20
3.579097791139387
 30
0.0
 10
26.00089436347355
 20
3.738783581992383
 30
0.0
  0
SPLINE
  5
9D
330
1F
100
AcDbEntity
  8
0
  6
Continuous
 62
     1
370
    15
100
AcDbSpline
210
0.0
220
0.0
230
1.0
 70
     8
 71
     3
 72
    19
 73
    15
 74
     0
 42
0.000000001
 43
0.00000001
 40
0.0
 40
0.0
 40
0.0
 40
0.0
 40
0.1007167729835717
 40
0.193571017722098
 40
0.2796490171575755
 40
0.3542863709236077
 40
0.4199044494172295
 40
0.4917741886530563
 40
0.5841299834901337
 40
0.6726433532482711
 40
0.7508721821982035
 40
0.8334513359880411
 40
0.9286265066441662
 40
1.0
 40
1.0
 40
1.0
 40
1.0
 10
25.45004952744707
 20
7.568936112421753
 30
0.0
 10
25.20368071104364
 20
7.55595585647794
 30
0.0
 10
24.73017603934431
 20
7.531008657725384
 30
0.0
 10
23.99617351610224
 20
7.500955968248077
 30
0.0
 10
23.32811566978038
 20
7.479502812877344
 30
0.0
 10
22.73246963354705
 20
7.46324812459098
 30
0.0
 10
22.18878381223631
 20
7.452107699358921
 30
0.0
 10
21.59545803298658
 20
7.443301289009373
 30
0.0
 10
20.93980235211204
 20
7.438259578578116
 30
0.0
 10
20.26878943820125
 20
7.438352207075663
 30
0.0
 10
19.62289232351439
 20
7.443093920052681
 30
0.0
 10
18.95964219985553
 20
7.452739842039405
 30
0.0
 10
18.31416642452492
 20
7.466484131743194
 30
0.0
 10
17.88261971668211
 20
7.479989656834066
 30
0.0
 10
17.69768280189102
 20
7.485777373661811
 30
0.0
  0
SPLINE
  5
9E
330
1F
100
AcDbEntity
  8
0
  6
Continuous
 62
     1
370
    15
100
AcDbSpline
210
0.0
220
0.0
230
1.0
 70
     8
 71
     3
 72
    32
 73
    28
 74
     0
 42
0.000000001
 43
0.00000001
 40
0.0
 40
0.0
 40
0.0
 40
0.0
 40
0.0439943074832781
 40
0.0822133984770429
 40
0.120498215145747
 40
0.151685397391849
 40
0.173894053386512
 40
0.1939033266926928
 40
0.2232467394012736
 40
0.2608711166100675
 40
0.2955939884452016
 40
0.3276772363899839
 40
0.3626937224057753
 40
0.4074556274269455
 40
0.4498334500334579
 40
0.4863927703475476
 40
0.5374079297579986
 40
0.5871791367218235
 40
0.6374140908385969
 40
0.6925956640385422
 40
0.7567134886869987
 40
0.7924359035718801
 40
0.8226506269733684
 40
0.8567029552305047
 40
0.8959210154439483
 40
0.9430324063234615
 40
1.0
 40
1.0
 40
1.0
 40
1.0
 10
49.73650552210081
 20
6.514656243180533
 30
0.0
 10
49.52287025083664
 20
6.496086060533156
 30
0.0
 10
49.12364401703653
 20
6.461383438464143
 30
0.0
 10
48.46081961969134
 20
6.411157665945896
 30
0.0
 10
47.83573097299249
 20
6.376509309635064
 30
0.0
 10
47.31036783587686
 20
6.349069823579641
 30
0.0
 10
46.88815980040162
 20
6.329232194114124
 30
0.0
 10
46.50307483860195
 20
6.313705653871938
 30
0.0
 10
46.01609866693337
 20
6.296750755181272
 30
0.0
 10
45.44773187957168
 20
6.282001587175687
 30
0.0
 10
44.86448781363769
 20
6.272263889596232
 30
0.0
 10
44.30007433156727
 20
6.267728005540214
 30
0.0
 10
43.67951970581063
 20
6.268073594578428
 30
0.0
 10
42.99811636334113
 20
6.275471464134777
 30
0.0
 10
42.30859058840809
 20
6.290692489980379
 30
0.0
 10
41.58407185073585
 20
6.314016718582031
 30
0.0
 10
40.81890128644035
 20
6.347365400923281
 30
0.0
 10
39.97689539828132
 20
6.394725720275544
 30
0.0
 10
39.11131615578381
 20
6.454158618042189
 30
0.0
 10
38.16766429412452
 20
6.531333804424953
 30
0.0
 10
37.30046063045663
 20
6.615054370025093
 30
0.0
 10
36.58444014321327
 20
6.692377851393106
 30
0.0
 10
36.04318516389261
 20
6.754307961422915
 30
0.0
 10
35.45259967492844
 20
6.827381395951586
 30
0.0
 10
34.76462605144776
 20
6.917336973106185
 30
0.0
 10
33.95661741628646
 20
7.030567510367452
 30
0.0
 10
33.4002082304234
 20
7.116855899735251
 30
0.0
 10
33.09565786847142
 20
7.164085817719899
 30
0.0
  0
SPLINE
  5
9F
330
1F
100
AcDbEntity
  8
0
  6
Continuous
 62
     1
370
    15
100
AcDbSpline
210
0.0
220
0.0
230
1.0
 70
     8
 71
     3
 72
    18
 73
    14
 74
     0
 42
0.000000001
 43
0.00000001
 40
0.0
 40
0.0
 40
0.0
 40
0.0
 40
0.1426614928296348
 40
0.2589439235348801
 40
0.3552554818922853
 40
0.4382080946716065
 40
0.4979199855925144
 40
0.5692726638941378
 40
0.6536486438638281
 40
0.7345644085439453
 40
0.8611128485893199
 40
0.9770757128599612
 40
1.0
 40
1.0
 40
1.0
 40
1.0
 10
33.09565786847142
 20
-7.164085817719902
 30
0.0
 10
33.41938286625282
 20
-7.113911533627218
 30
0.0
 10
34.0069739492365
 20
-7.022840525425806
 30
0.0
 10
34.86093468744356
 20
-6.904376480490014
 30
0.0
 10
35.57766511672017
 20
-6.811351812217295
 30
0.0
 10
36.15347382147502
 20
-6.741395231748413
 30
0.0
 10
36.64135316277578
 20
-6.686257244935264
 30
0.0
 10
37.14607755973719
 20
-6.631823133868172
 30
0.0
 10
37.70597162728685
 20
-6.575853420634515
 30
0.0
 10
38.39597581432174
 20
-6.512291576802363
 30
0.0
 10
39.16043586763729
 20
-6.451185031757298
 30
0.0
 10
39.78851677279138
 20
-6.406443512986344
 30
0.0
 10
40.11701290436035
 20
-6.388375952976962
 30
0.0
 10
40.17123346809134
 20
-6.385393776948669
 30
0.0
  0
SPLINE
  5
A0
330
1F
100
AcDbEntity
  8
0
  6
Continuous
 62
     1
370
    15
100
AcDbSpline
210
0.0
220
0.0
230
1.0
 70
     8
 71
     3
 72
    30
 73
    26
 74
     0
 42
0.000000001
 43
0.00000001
 40
0.0
 40
0.0
 40
0.0
 40
0.0
 40
0.0695391265848829
 40
0.123824221922996
 40
0.1631622569627818
 40
0.1901102766318721
 40
0.2136660894674046
 40
0.2343290808700652
 40
0.2545711103184174
 40
0.283225413737632
 40
0.3205036210636725
 40
0.3579798550889752
 40
0.3822162483511972
 40
0.4075194710226768
 40
0.4406326095072949
 40
0.4805905622180167
 40
0.5182204002947954
 40
0.577661063059949
 40
0.6386368176991682
 40
0.7061443961294691
 40
0.7681742078133812
 40
0.8144760838426515
 40
0.8697344018326051
 40
0.9319197436315116
 40
1.0
 40
1.0
 40
1.0
 40
1.0
 10
12.0
 20
-7.839222384756985
 30
0.0
 10
12.31564110758086
 20
-7.811976423839357
 30
0.0
 10
12.87768461420163
 20
-7.76346114795289
 30
0.0
 10
13.61761914552851
 20
-7.705885652627481
 30
0.0
 10
14.16399364617407
 20
-7.666345477905757
 30
0.0
 10
14.56630502401258
 20
-7.639178259944194
 30
0.0
 10
14.88517794035873
 20
-7.618776295605596
 30
0.0
 10
15.17404772666557
 20
-7.60120125212581
 30
0.0
 10
15.48590668027422
 20
-7.583130562940783
 30
0.0
 10
15.87211694871685
 20
-7.562089355855492
 30
0.0
 10
16.3354345480589
 20
-7.539020355168918
 30
0.0
 10
16.77876129624422
 20
-7.51929246294675
 30
0.0
 10
17.16868533472512
 20
-7.503735527693272
 30
0.0
 10
17.53911814829237
 20
-7.490324834111513
 30
0.0
 10
17.97994560962848
 20
-7.476277619511171
 30
0.0
 10
18.47600043161117
 20
-7.463155248980683
 30
0.0
 10
19.08999616797515
 20
-7.450441640447217
 30
0.0
 10
19.79831791826225
 20
-7.440879171082634
 30
0.0
 10
20.63967409107996
 20
-7.437139253442995
 30
0.0
 10
21.49534048526789
 20
-7.441627827066579
 30
0.0
 10
22.27748616141763
 20
-7.453200763947508
 30
0.0
 10
23.01031427450964
 20
-7.470104911135218
 30
0.0
 10
23.75695856748997
 20
-7.49271676019058
 30
0.0
 10
24.60748882834792
 20
-7.524650883085962
 30
0.0
 10
25.16084888579562
 20
-7.553735644665203
 30
0.0
 10
25.45004952744707
 20
-7.568936112421754
 30
0.0
  0
SPLINE
  5
A1
330
1F
100
AcDbEntity
  8
외형선
  6
Continuous
370
    15
100
AcDbSpline
210
0.0
220
0.0
230
1.0
 70
     8
 71
     3
 72
    10
 73
     6
 74
     0
 42
0.000000001
 43
0.00000001
 40
0.0
 40
0.0
 40
0.0
 40
0.0
 40
0.5
 40
0.5
 40
1.0
 40
1.0
 40
1.0
 40
1.0
 10
11.99999999999999
 20
9.04500731749922
 30
0.0
 10
11.49059155506787
 20
9.137064250434769
 30
0.0
 10
10.98231757558821
 20
9.216141151176902
 30
0.0
 10
9.96901628959909
 20
9.347750960689869
 30
0.0
 10
9.459360252729827
 20
9.400468143755269
 30
0.0
 10
8.949952222163393
 20
9.439688364017025
 30
0.0
  0
LINE
  5
A2
330
1F
100
AcDbEntity
  8
외형선
  6
Continuous
370
    15
100
AcDbLine
 10
11.99999999999999
 20
9.045007317499213
 30
0.0
 11
11.99999999999999
 21
7.868658541669562
 31
0.0
  0
SPLINE
  5
A3
330
1F
100
AcDbEntity
  8
외형선
  6
Continuous
370
    15
100
AcDbSpline
210
0.0
220
0.0
230
1.0
 70
     8
 71
     3
 72
    10
 73
     6
 74
     0
 42
0.000000001
 43
0.00000001
 40
0.0
 40
0.0
 40
0.0
 40
0.0
 40
0.5
 40
0.5
 40
1.0
 40
1.0
 40
1.0
 40
1.0
 10
8.949976669939645
 20
8.721238930070696
 30
0.0
 10
9.459380633930845
 20
8.603158009901533
 30
0.0
 10
9.969032547874901
 20
8.472594754279557
 30
0.0
 10
10.98232563275332
 20
8.18830453136122
 30
0.0
 10
11.49059562970053
 20
8.03415933811475
 30
0.0
 10
11.99999999999999
 20
7.868658541669562
 30
0.0
  0
SPLINE
  5
A4
330
1F
100
AcDbEntity
  8
외형선
  6
Continuous
370
    15
100
AcDbSpline
210
0.0
220
0.0
230
1.0
 70
     8
 71
     3
 72
    10
 73
     6
 74
     0
 42
0.000000001
 43
0.00000001
 40
0.0
 40
0.0
 40
0.0
 40
0.0
 40
0.5
 40
0.5
 40
1.0
 40
1.0
 40
1.0
 40
1.0
 10
11.99999999999999
 20
-9.04500731749922
 30
0.0
 10
11.49059155506787
 20
-9.137064250434772
 30
0.0
 10
10.98231757558821
 20
-9.216141151176908
 30
0.0
 10
9.96901628959909
 20
-9.347750960689869
 30
0.0
 10
9.459360252729827
 20
-9.400468143755269
 30
0.0
 10
8.949952222163393
 20
-9.439688364017025
 30
0.0
  0
LINE
  5
A5
330
1F
100
AcDbEntity
  8
외형선
  6
Continuous
370
    15
100
AcDbLine
 10
8.949976669939648
 20
9.439742868419149
 30
0.0
 11
8.949976669939652
 21
9.525
 31
0.0
  0
LINE
  5
A6
330
1F
100
AcDbEntity
  8
외형선
  6
Continuous
370
    15
100
AcDbLine
 10
-44.15000000000001
 20
9.524999999999993
 30
0.0
 11
-44.15000000000001
 21
-9.525000000000004
 31
0.0
  0
LINE
  5
A7
330
1F
100
AcDbEntity
  8
외형선
  6
Continuous
370
    15
100
AcDbLine
 10
8.949976669939652
 20
-9.525
 30
0.0
 11
8.949976669939645
 21
8.721239086983049
 31
0.0
  0
LINE
  5
A8
330
1F
100
AcDbEntity
  8
외형선
  6
Continuous
370
    15
100
AcDbLine
 10
-45.15
 20
8.524999999999993
 30
0.0
 11
-45.15
 21
-8.525000000000004
 31
0.0
  0
SPLINE
  5
A9
330
1F
100
AcDbEntity
  8
외형선
  6
Continuous
370
    15
100
AcDbSpline
210
0.0
220
0.0
230
1.0
 70
    24
 71
     3
 72
    14
 73
    10
 74
     0
 42
0.000000001
 43
0.00000001
 40
0.0
 40
0.0
 40
0.0
 40
0.0
 40
0.25
 40
0.25
 40
0.5
 40
0.5
 40
0.75
 40
0.75
 40
1.0
 40
1.0
 40
1.0
 40
1.0
 10
11.99999999999999
 20
5.348962912263904
 30
0.0
 10
11.99999999999999
 20
4.712674307996751
 30
0.0
 10
11.99999999999999
 20
3.988028033072572
 30
0.0
 10
11.99999999999999
 20
2.408547049440657
 30
0.0
 10
11.99999999999999
 20
1.554227029035067
 30
0.0
 10
11.99999999999999
 20
-0.204945916262524
 30
0.0
 10
11.99999999999999
 20
-1.10886148026138
 30
0.0
 10
11.99999999999999
 20
-2.877317509624255
 30
0.0
 10
11.99999999999999
 20
-3.741077861037779
 30
0.0
 10
11.99999999999999
 20
-4.549110092042042
 30
0.0
  0
SPLINE
  5
AA
330
1F
100
AcDbEntity
  8
외형선
  6
Continuous
370
    15
100
AcDbSpline
210
0.0
220
0.0
230
1.0
 70
     8
 71
     3
 72
    10
 73
     6
 74
     0
 42
0.000000001
 43
0.00000001
 40
0.0
 40
0.0
 40
0.0
 40
0.0
 40
0.5
 40
0.5
 40
1.0
 40
1.0
 40
1.0
 40
1.0
 10
11.99999999999999
 20
-4.54911009204204
 30
0.0
 10
11.49059414201164
 20
-4.360618282466689
 30
0.0
 10
10.98232269100235
 20
-4.165773919423006
 30
0.0
 10
9.969026611816986
 20
-3.76523308151019
 30
0.0
 10
9.459373192551947
 20
-3.558920357778655
 30
0.0
 10
8.9499677438135
 20
-3.347856126020929
 30
0.0
  0
SPLINE
  5
AB
330
1F
100
AcDbEntity
  8
외형선
  6
Continuous
370
    15
100
AcDbSpline
210
0.0
220
0.0
230
1.0
 70
     8
 71
     3
 72
    10
 73
     6
 74
     0
 42
0.000000001
 43
0.00000001
 40
0.0
 40
0.0
 40
0.0
 40
0.0
 40
0.5
 40
0.5
 40
1.0
 40
1.0
 40
1.0
 40
1.0
 10
11.99999999999999
 20
5.348962912263903
 30
0.0
 10
11.4905946481991
 20
5.471696949116316
 30
0.0
 10
10.98232369193573
 20
5.586703984555673
 30
0.0
 10
9.969028631565974
 20
5.800294317756713
 30
0.0
 10
9.45937572448774
 20
5.89919280301786
 30
0.0
 10
8.949970780935839
 20
5.989517269455102
 30
0.0
  0
SPLINE
  5
AC
330
1F
100
AcDbEntity
  8
외형선
  6
Continuous
370
    15
100
AcDbSpline
210
0.0
220
0.0
230
1.0
 70
     8
 71
     3
 72
     9
 73
     5
 74
     0
 42
0.000000001
 43
0.00000001
 40
0.0
 40
0.0
 40
0.0
 40
0.0
 40
0.3086015736114397
 40
1.0
 40
1.0
 40
1.0
 40
1.0
 10
11.15658080182598
 20
-7.914438972838523
 30
0.0
 10
10.92961361716965
 20
-7.939474405440047
 30
0.0
 10
10.19414366476395
 20
-8.020599826508205
 30
0.0
 10
9.458544397796954
 20
-8.052356145793476
 30
0.0
 10
8.949952222163393
 20
-8.074312414975209
 30
0.0
  0
SPLINE
  5
AD
330
1F
100
AcDbEntity
  8
외형선
  6
Continuous
370
    15
100
AcDbSpline
210
0.0
220
0.0
230
1.0
 70
    24
 71
     3
 72
    15
 73
    11
 74
     0
 42
0.000000001
 43
0.00000001
 40
0.0
 40
0.0
 40
0.0
 40
0.0
 40
0.1423752944668575
 40
0.2866023050465845
 40
0.3915403000683391
 40
0.4964782950900938
 40
0.6044649659107488
 40
0.7124516367314039
 40
0.9018910387402993
 40
1.0
 40
1.0
 40
1.0
 40
1.0
 10
11.99999999999999
 20
-4.54911009204204
 30
0.0
 10
11.99999999999999
 20
-4.827097566894332
 30
0.0
 10
11.99999999999999
 20
-5.386687988568879
 30
0.0
 10
12.00000000000001
 20
-6.034519012891487
 30
0.0
 10
12.0
 20
-6.545026635209585
 30
0.0
 10
11.99999999999999
 20
-6.938132977704705
 30
0.0
 10
12.0
 20
-7.267986800541069
 30
0.0
 10
12.0
 20
-7.587841050781291
 30
0.0
 10
12.0
 20
-7.807323637807736
 30
0.0
 10
12.0
 20
-7.808121182672823
 30
0.0
 10
12.0
 20
-7.808393297935044
 30
0.0
  0
SPLINE
  5
AE
330
1F
100
AcDbEntity
  8
외형선
  6
Continuous
370
    15
100
AcDbSpline
210
0.0
220
0.0
230
1.0
 70
    24
 71
     3
 72
    10
 73
     6
 74
     0
 42
0.000000001
 43
0.00000001
 40
0.0
 40
0.0
 40
0.0
 40
0.0
 40
0.5
 40
0.5
 40
1.0
 40
1.0
 40
1.0
 40
1.0
 10
11.99999999999999
 20
7.868658541669565
 30
0.0
 10
11.99999999999999
 20
7.558836001674819
 30
0.0
 10
11.99999999999999
 20
7.164416072179649
 30
0.0
 10
11.99999999999999
 20
6.289912953838467
 30
0.0
 10
11.99999999999999
 20
5.812510410540096
 30
0.0
 10
11.99999999999999
 20
5.348962912263902
 30
0.0
  0
SPLINE
  5
AF
330
1F
100
AcDbEntity
  8
외형선
  6
Continuous
370
    15
100
AcDbSpline
210
0.0
220
0.0
230
1.0
 70
    24
 71
     3
 72
    12
 73
     8
 74
     0
 42
0.000000001
 43
0.00000001
 40
0.0
 40
0.0
 40
0.0
 40
0.0
 40
0.1673342010688295
 40
0.3927529227131143
 40
0.6179095347051519
 40
0.8433282563494372
 40
1.0
 40
1.0
 40
1.0
 40
1.0
 10
12.0
 20
-7.896889723067168
 30
0.0
 10
12.0
 20
-7.964362282962582
 30
0.0
 10
12.0
 20
-8.12272826512638
 30
0.0
 10
12.0
 20
-8.36467010932867
 30
0.0
 10
12.0
 20
-8.623441356930964
 30
0.0
 10
12.0
 20
-8.849949370967328
 30
0.0
 10
12.0
 20
-8.988284577681432
 30
0.0
 10
12.0
 20
-9.04500731748452
 30
0.0
  0
SPLINE
  5
B0
330
1F
100
AcDbEntity
  8
0
  6
Continuous
 62
     1
370
    15
100
AcDbSpline
210
0.0
220
0.0
230
1.0
 70
     8
 71
     3
 72
    58
 73
    54
 74
     0
 42
0.000000001
 43
0.00000001
 40
0.0
 40
0.0
 40
0.0
 40
0.0
 40
0.03125
 40
0.03125
 40
0.0625000000000001
 40
0.0625000000000001
 40
0.0937500000000001
 40
0.0937500000000001
 40
0.1250000000000001
 40
0.1250000000000001
 40
0.1875000000000001
 40
0.1875000000000001
 40
0.25
 40
0.25
 40
0.28125
 40
0.28125
 40
0.3125000000000001
 40
0.3125000000000001
 40
0.3437500000000001
 40
0.3437500000000001
 40
0.3750000000000001
 40
0.3750000000000001
 40
0.4375000000000003
 40
0.4375000000000003
 40
0.4687500000000003
 40
0.4687500000000003
 40
0.5000000000000003
 40
0.5000000000000003
 40
0.5312500000000004
 40
0.5312500000000004
 40
0.5625000000000004
 40
0.5625000000000004
 40
0.6250000000000007
 40
0.6250000000000007
 40
0.6562500000000007
 40
0.6562500000000007
 40
0.6875000000000006
 40
0.6875000000000006
 40
0.7187500000000006
 40
0.7187500000000006
 40
0.7500000000000004
 40
0.7500000000000004
 40
0.8125000000000004
 40
0.8125000000000004
 40
0.8437500000000004
 40
0.8437500000000004
 40
0.8750000000000004
 40
0.8750000000000004
 40
0.9062500000000004
 40
0.9062500000000004
 40
0.9375000000000004
 40
0.9375000000000004
 40
1.0
 40
1.0
 40
1.0
 40
1.0
 10
11.99999999999999
 20
7.868658541669562
 30
0.0
 10
12.43084829313469
 20
7.728679892450431
 30
0.0
 10
12.86187318602413
 20
7.58064287706987
 30
0.0
 10
13.72033323865508
 20
7.26986628986716
 30
0.0
 10
14.14839541471201
 20
7.107072443056732
 30
0.0
 10
15.00930993189401
 20
6.766726564359363
 30
0.0
 10
15.44066410098846
 20
6.589352372244775
 30
0.0
 10
16.30121330891801
 20
6.221832736521321
 30
0.0
 10
16.72887198628219
 20
6.031928315818647
 30
0.0
 10
18.01750622614515
 20
5.443563270056409
 30
0.0
 10
18.88303046153512
 20
5.026441926785099
 30
0.0
 10
20.59548822087734
 20
4.157773115240925
 30
0.0
 10
21.4610271094554
 20
3.703101716666973
 30
0.0
 10
22.74964814694172
 20
3.002937172047548
 30
0.0
 10
23.17731128732806
 20
2.766599406812162
 30
0.0
 10
24.03786637533627
 20
2.287811274031871
 30
0.0
 10
24.46922079120251
 20
2.045638042606298
 30
0.0
 10
25.33013040788122
 20
1.557950751728538
 30
0.0
 10
25.75818513937523
 20
1.312726229464799
 30
0.0
 10
26.61665496574236
 20
0.8196597194481854
 30
0.0
 10
27.0476820740045
 20
0.571697058534868
 30
0.0
 10
28.34022548397902
 20
-0.1730811114554223
 30
0.0
 10
29.19580518028077
 20
-0.6697420689518713
 30
0.0
 10
30.48795840583412
 20
-1.40930189750666
 30
0.0
 10
30.9192138496818
 20
-1.654736045987792
 30
0.0
 10
31.77885019490682
 20
-2.141190581565995
 30
0.0
 10
32.20631341930245
 20
-2.382044853699717
 30
0.0
 10
33.06644371924462
 20
-2.859386096698988
 30
0.0
 10
33.49776542919813
 20
-3.095614368261113
 30
0.0
 10
34.35897000582242
 20
-3.561013976147331
 30
0.0
 10
34.78761981212369
 20
-3.789969351279776
 30
0.0
 10
36.07429780490796
 20
-4.464718278893278
 30
0.0
 10
36.93996849929067
 20
-4.899482910944339
 30
0.0
 10
38.22663843723132
 20
-5.517143241357884
 30
0.0
 10
38.65529345006748
 20
-5.717594318229288
 30
0.0
 10
39.51649998837137
 20
-6.10703383328866
 30
0.0
 10
39.94782132912234
 20
-6.295822912094926
 30
0.0
 10
40.80794820181244
 20
-6.659825575414072
 30
0.0
 10
41.2354106804472
 20
-6.834873159589297
 30
0.0
 10
42.09505094110112
 20
-7.171346219013288
 30
0.0
 10
42.52630700079775
 20
-7.332625912648675
 30
0.0
 10
43.81845802018918
 20
-7.793331868719005
 30
0.0
 10
44.67403896278453
 20
-8.069262554218636
 30
0.0
 10
45.96658311023484
 20
-8.43319685290153
 30
0.0
 10
46.39760911173223
 20
-8.546032151273133
 30
0.0
 10
47.25607405304896
 20
-8.753782069120703
 30
0.0
 10
47.68413250124426
 20
-8.84877206451652
 30
0.0
 10
48.5450445700097
 20
-9.020877214412785
 30
0.0
 10
48.97639886341398
 20
-9.097866016747028
 30
0.0
 10
49.83695101321539
 20
-9.233018245287955
 30
0.0
 10
50.26461191650763
 20
-9.291132286582465
 30
0.0
 10
51.55323955791545
 20
-9.43721213464404
 30
0.0
 10
52.41877745212273
 20
-9.496571523568717
 30
0.0
 10
53.27500000000001
 20
-9.524999999999991
 30
0.0
  0
SPLINE
  5
B1
330
1F
100
AcDbEntity
  8
0
  6
Continuous
 62
     1
370
    15
100
AcDbSpline
210
0.0
220
0.0
230
1.0
 70
     8
 71
     3
 72
    14
 73
    10
 74
     0
 42
0.000000001
 43
0.00000001
 40
0.0
 40
0.0
 40
0.0
 40
0.0
 40
0.0717865845444965
 40
0.2291425142373091
 40
0.3865260494704135
 40
0.5439064989770266
 40
0.6959665508269448
 40
0.8479928642421892
 40
1.0
 40
1.0
 40
1.0
 40
1.0
 10
29.60751639793718
 20
-0.901780319760511
 30
0.0
 10
29.18619105846433
 20
-0.7338178722506888
 30
0.0
 10
27.84132212214023
 20
-0.1976823566238582
 30
0.0
 10
25.57271149682044
 20
0.7256641017447745
 30
0.0
 10
22.80167128257235
 20
1.827181916304999
 30
0.0
 10
20.06171204982259
 20
2.867766193752134
 30
0.0
 10
17.353295077777
 20
3.815526844361946
 30
0.0
 10
14.6764734207019
 20
4.662343447130363
 30
0.0
 10
12.89212028941345
 20
5.12009938191313
 30
0.0
 10
11.99999999999999
 20
5.348962912263904
 30
0.0
  0
SPLINE
  5
B2
330
1F
100
AcDbEntity
  8
외형선
  6
Continuous
370
    15
100
AcDbSpline
210
0.0
220
0.0
230
1.0
 70
    24
 71
     3
 72
    10
 73
     6
 74
     0
 42
0.000000001
 43
0.00000001
 40
0.0
 40
0.0
 40
0.0
 40
0.0
 40
0.5
 40
0.5
 40
1.0
 40
1.0
 40
1.0
 40
1.0
 10
12.0
 20
7.868658541669565
 30
0.0
 10
12.0
 20
7.558836001674816
 30
0.0
 10
12.0
 20
7.164416072179646
 30
0.0
 10
12.0
 20
6.289912953838466
 30
0.0
 10
12.0
 20
5.812510410540093
 30
0.0
 10
12.0
 20
5.348962912263901
 30
0.0
  0
SPLINE
  5
B3
330
1F
100
AcDbEntity
  8
0
  6
Continuous
 62
     1
370
    15
100
AcDbSpline
210
0.0
220
0.0
230
1.0
 70
     8
 71
     3
 72
    58
 73
    54
 74
     0
 42
0.000000001
 43
0.00000001
 40
0.0
 40
0.0
 40
0.0
 40
0.0
 40
0.0625000000000001
 40
0.0625000000000001
 40
0.0937500000000003
 40
0.0937500000000003
 40
0.1250000000000006
 40
0.1250000000000006
 40
0.1562500000000008
 40
0.1562500000000008
 40
0.187500000000001
 40
0.187500000000001
 40
0.2500000000000011
 40
0.2500000000000011
 40
0.281250000000001
 40
0.281250000000001
 40
0.3125000000000009
 40
0.3125000000000009
 40
0.3437500000000008
 40
0.3437500000000008
 40
0.3750000000000007
 40
0.3750000000000007
 40
0.4375000000000006
 40
0.4375000000000006
 40
0.4687500000000004
 40
0.4687500000000004
 40
0.5000000000000003
 40
0.5000000000000003
 40
0.5312500000000001
 40
0.5312500000000001
 40
0.5625
 40
0.5625
 40
0.6249999999999999
 40
0.6249999999999999
 40
0.6562499999999998
 40
0.6562499999999998
 40
0.6874999999999998
 40
0.6874999999999998
 40
0.7187499999999997
 40
0.7187499999999997
 40
0.7499999999999996
 40
0.7499999999999996
 40
0.8124999999999997
 40
0.8124999999999997
 40
0.8749999999999998
 40
0.8749999999999998
 40
0.9062499999999999
 40
0.9062499999999999
 40
0.9374999999999999
 40
0.9374999999999999
 40
0.96875
 40
0.96875
 40
1.0
 40
1.0
 40
1.0
 40
1.0
 10
53.27500000000001
 20
-9.038661779433847
 30
0.0
 10
52.41877745212268
 20
-8.882274831954465
 30
0.0
 10
51.55323955791533
 20
-8.688372198995339
 30
0.0
 10
50.2646119165074
 20
-8.346367021194892
 30
0.0
 10
49.83695101321514
 20
-8.223933488968378
 30
0.0
 10
48.97639886341365
 20
-7.962067706660592
 30
0.0
 10
48.54504457000932
 20
-7.822764092099798
 30
0.0
 10
47.68413250124382
 20
-7.528685303606464
 30
0.0
 10
47.25607405304848
 20
-7.374103844771836
 30
0.0
 10
46.39760911173168
 20
-7.049987746358552
 30
0.0
 10
45.96658311023428
 20
-6.880353843413126
 30
0.0
 10
44.67403896278381
 20
-6.35097483285424
 30
0.0
 10
43.81845802018841
 20
-5.971563749202632
 30
0.0
 10
42.52630700079686
 20
-5.367034523349797
 30
0.0
 10
42.09505094110022
 20
-5.159752776489132
 30
0.0
 10
41.23541068044623
 20
-4.735566727035883
 30
0.0
 10
40.80794820181144
 20
-4.518832042219476
 30
0.0
 10
39.94782132912128
 20
-4.07573029394008
 30
0.0
 10
39.51649998837026
 20
-3.849578404506754
 30
0.0
 10
38.6552934500663
 20
-3.390134818987051
 30
0.0
 10
38.2266384372301
 20
-3.157070965114026
 30
0.0
 10
36.93996849928933
 20
-2.448844758721482
 30
0.0
 10
36.07429780490655
 20
-1.963303225855272
 30
0.0
 10
34.78761981212219
 20
-1.228177613422505
 30
0.0
 10
34.35897000582089
 20
-0.9816838994712497
 30
0.0
 10
33.4977654291965
 20
-0.486450267720511
 30
0.0
 10
33.06644371924297
 20
-0.2379463260725503
 30
0.0
 10
32.20631341930075
 20
0.2585577270148273
 30
0.0
 10
31.77885019490506
 20
0.5062987417334648
 30
0.0
 10
30.91921384967998
 20
1.001151431456602
 30
0.0
 10
30.48795840583227
 20
1.24808432728611
 30
0.0
 10
29.19580518027881
 20
1.98400186298558
 30
0.0
 10
28.34022548397699
 20
2.467414705732017
 30
0.0
 10
27.04768207400236
 20
3.176236553122597
 30
0.0
 10
26.61665496574019
 20
3.409538766614908
 30
0.0
 10
25.75818513937301
 20
3.868088424577922
 30
0.0
 10
25.33013040787895
 20
4.093455830941261
 30
0.0
 10
24.46922079120017
 20
4.536227830136752
 30
0.0
 10
24.03786637533389
 20
4.753361710504973
 30
0.0
 10
23.17731128732563
 20
5.177139272516551
 30
0.0
 10
22.74964814693925
 20
5.383546953158278
 30
0.0
 10
21.4610271094528
 20
5.986620749562679
 30
0.0
 10
20.59548822087467
 20
6.366783384758815
 30
0.0
 10
18.88303046153235
 20
7.06964705941614
 30
0.0
 10
18.01750622614227
 20
7.394875876462431
 30
0.0
 10
16.72887198627923
 20
7.834386487635832
 30
0.0
 10
16.30121330891501
 20
7.972863055038375
 30
0.0
 10
15.44066410098538
 20
8.233856346744636
 30
0.0
 10
15.00930993189089
 20
8.356189782689498
 30
0.0
 10
14.14839541470883
 20
8.583401987222754
 30
0.0
 10
13.72033323865189
 20
8.688173232249644
 30
0.0
 10
12.86187318602085
 20
8.880035231286927
 30
0.0
 10
12.43084829313136
 20
8.96714725683326
 30
0.0
 10
11.99999999999663
 20
9.045007317499827
 30
0.0
  0
SPLINE
  5
B4
330
1F
100
AcDbEntity
  8
0
  6
Continuous
 62
     1
370
    15
100
AcDbSpline
210
0.0
220
0.0
230
1.0
 70
     8
 71
     3
 72
    16
 73
    12
 74
     0
 42
0.000000001
 43
0.00000001
 40
0.0
 40
0.0
 40
0.0
 40
0.0
 40
0.1121378142822683
 40
0.2242568893556532
 40
0.336361387297706
 40
0.448455490148652
 40
0.5605433942059833
 40
0.6726293042776701
 40
0.7847174279106404
 40
0.8968119696112931
 40
0.9999999999999999
 40
0.9999999999999999
 40
0.9999999999999999
 40
0.9999999999999999
 10
53.27499999999999
 20
-7.514960818107256
 30
0.0
 10
52.3512673432107
 20
-7.325893462462264
 30
0.0
 10
50.50395639343276
 20
-6.947790345979913
 30
0.0
 10
47.73327843218927
 20
-6.128477560304446
 30
0.0
 10
44.96300801973993
 20
-5.151988114956588
 30
0.0
 10
42.19303418025701
 20
-4.026513447401123
 30
0.0
 10
39.42323570460329
 20
-2.789005546689532
 30
0.0
 10
36.65349424816577
 20
-1.472347883956655
 30
0.0
 10
33.88368873708198
 20
-0.1159048444615015
 30
0.0
 10
31.18715550354351
 20
1.213463409271932
 30
0.0
 10
29.4138512015802
 20
2.052648553385967
 30
0.0
 10
28.56388096746639
 20
2.454882051955684
 30
0.0
  0
LINE
  5
B5
330
1F
100
AcDbEntity
  8
0
  6
Continuous
 62
     1
370
    15
100
AcDbLine
 10
53.27499999999971
 20
-9.038661779433848
 30
0.0
 11
53.27499999999999
 21
-7.514960818107256
 31
0.0
  0
LINE
  5
B6
330
1F
100
AcDbEntity
  8
0
  6
Continuous
 62
     1
370
    15
100
AcDbLine
 10
53.27499999999999
 20
-9.524999999999995
 30
0.0
 11
53.27499999999966
 21
-9.038661779433829
 31
0.0
  0
SPLINE
  5
B7
330
1F
100
AcDbEntity
  8
0
  6
Continuous
 62
     1
370
    15
100
AcDbSpline
210
0.0
220
0.0
230
1.0
 70
     8
 71
     3
 72
    12
 73
     8
 74
     0
 42
0.000000001
 43
0.00000001
 40
0.0
 40
0.0
 40
0.0
 40
0.0
 40
0.4999999999999988
 40
0.4999999999999988
 40
0.7499999999999993
 40
0.7499999999999993
 40
1.0
 40
1.0
 40
1.0
 40
1.0
 10
53.27499999999999
 20
-2.545489060932363
 30
0.0
 10
52.41679496967373
 20
-1.870798261156446
 30
0.0
 10
51.5707374057739
 20
-1.172677160324453
 30
0.0
 10
50.31992402574458
 20
-0.0902502097417926
 30
0.0
 10
49.90607042667414
 20
0.2765076356954199
 30
0.0
 10
49.08498841918657
 20
1.022802140366352
 30
0.0
 10
48.67638535338717
 20
1.403657852354439
 30
0.0
 10
48.275
 20
1.788486169330864
 30
0.0
  0
LINE
  5
B8
330
1F
100
AcDbEntity
  8
0
  6
Continuous
 62
     1
370
    15
100
AcDbLine
 10
48.275
 20
2.93771943529659
 30
0.0
 11
53.27499999999999
 21
0.0000000000000042
 31
0.0
  0
LINE
  5
B9
330
1F
100
AcDbEntity
  8
0
  6
Continuous
 62
     1
370
    15
100
AcDbLine
 10
53.27499999999999
 20
0.0000000000000042
 30
0.0
 11
53.27499999999999
 21
-2.545489060932364
 31
0.0
  0
SPLINE
  5
BA
330
1F
100
AcDbEntity
  8
0
  6
Continuous
 62
     1
370
    15
100
AcDbSpline
210
0.0
220
0.0
230
1.0
 70
     8
 71
     3
 72
    15
 73
    11
 74
     0
 42
0.000000001
 43
0.00000001
 40
0.0
 40
0.0
 40
0.0
 40
0.0
 40
0.12712871861652
 40
0.2542561514459598
 40
0.3813829740146713
 40
0.508509862083511
 40
0.6356374913881652
 40
0.7627665373794916
 40
0.8898976749641028
 40
1.0
 40
1.0
 40
1.0
 40
1.0
 10
48.275
 20
2.27396250458873
 30
0.0
 10
47.30773805125025
 20
2.693601248711286
 30
0.0
 10
45.37322393669303
 20
3.532874492706309
 30
0.0
 10
42.47146785150742
 20
4.66393599265525
 30
0.0
 10
39.56972686640884
 20
5.656193740074916
 30
0.0
 10
36.66798524251649
 20
6.472193587391217
 30
0.0
 10
33.76622091382778
 20
7.090136875846298
 30
0.0
 10
30.86443306903722
 20
7.484255324213679
 30
0.0
 10
28.09212941965425
 20
7.657682681325063
 30
0.0
 10
26.28720613405137
 20
7.593523685096565
 30
0.0
 10
25.44952392825648
 20
7.56374687967166
 30
0.0
  0
SPLINE
  5
BB
330
1F
100
AcDbEntity
  8
0
  6
Continuous
 62
     1
370
    15
100
AcDbSpline
210
0.0
220
0.0
230
1.0
 70
    24
 71
     3
 72
     8
 73
     4
 74
     0
 42
0.000000001
 43
0.00000001
 40
0.0
 40
0.0
 40
0.0
 40
0.0
 40
1.0
 40
1.0
 40
1.0
 40
1.0
 10
48.27499999999998
 20
1.788486169330771
 30
0.0
 10
48.27499999999998
 20
1.951691093477688
 30
0.0
 10
48.275
 20
2.11359576676704
 30
0.0
 10
48.275
 20
2.273962504588736
 30
0.0
  0
SPLINE
  5
BC
330
1F
100
AcDbEntity
  8
0
  6
Continuous
 62
     1
370
    15
100
AcDbSpline
210
0.0
220
0.0
230
1.0
 70
    24
 71
     3
 72
    10
 73
     6
 74
     0
 42
0.000000001
 43
0.00000001
 40
0.0
 40
0.0
 40
0.0
 40
0.0
 40
0.5
 40
0.5
 40
1.0
 40
1.0
 40
1.0
 40
1.0
 10
53.27499999999999
 20
-7.514960818107256
 30
0.0
 10
53.27499999999999
 20
-6.938880480261241
 30
0.0
 10
53.27500000000001
 20
-6.210980884209114
 30
0.0
 10
53.27500000000001
 20
-4.518684375910226
 30
0.0
 10
53.27499999999999
 20
-3.555753395063724
 30
0.0
 10
53.27499999999999
 20
-2.545489060932669
 30
0.0
  0
SPLINE
  5
BD
330
1F
100
AcDbEntity
  8
0
  6
Continuous
 62
     1
370
    15
100
AcDbSpline
210
0.0
220
0.0
230
1.0
 70
    24
 71
     3
 72
    10
 73
     6
 74
     0
 42
0.000000001
 43
0.00000001
 40
0.0
 40
0.0
 40
0.0
 40
0.0
 40
0.5
 40
0.5
 40
1.0
 40
1.0
 40
1.0
 40
1.0
 10
48.275
 20
2.273962504588737
 30
0.0
 10
48.275
 20
2.801767246870177
 30
0.0
 10
48.275
 20
3.304266617507634
 30
0.0
 10
48.275
 20
4.221095501631604
 30
0.0
 10
48.275
 20
4.635160569708963
 30
0.0
 10
48.27499999999998
 20
4.989159483222101
 30
0.0
  0
SPLINE
  5
BE
330
1F
100
AcDbEntity
  8
0
  6
Continuous
 62
     1
370
    15
100
AcDbSpline
210
0.0
220
0.0
230
1.0
 70
     8
 71
     3
 72
     9
 73
     5
 74
     0
 42
0.000000001
 43
0.00000001
 40
0.0
 40
0.0
 40
0.0
 40
0.0
 40
0.7822916240748834
 40
0.9999999999999999
 40
0.9999999999999999
 40
0.9999999999999999
 40
0.9999999999999999
 10
53.27499999999999
 20
6.6675
 30
0.0
 10
52.35126631487255
 20
6.660352063448221
 30
0.0
 10
51.17046153990154
 20
6.651214887065649
 30
0.0
 10
49.98968853737175
 20
6.523843577408866
 30
0.0
 10
49.73262436465475
 20
6.496113776444032
 30
0.0
  0
SPLINE
  5
BF
330
1F
100
AcDbEntity
  8
0
  6
Continuous
 62
     1
370
    15
100
AcDbSpline
210
0.0
220
0.0
230
1.0
 70
     8
 71
     3
 72
    10
 73
     6
 74
     0
 42
0.000000001
 43
0.00000001
 40
0.0
 40
0.0
 40
0.0
 40
0.0
 40
0.5
 40
0.5
 40
1.0
 40
1.0
 40
1.0
 40
1.0
 10
53.27499999999999
 20
6.667500000000005
 30
0.0
 10
52.43213843727273
 20
6.438964413875567
 30
0.0
 10
51.59328215753443
 20
6.185979994980779
 30
0.0
 10
49.92555932524698
 20
5.628562403643726
 30
0.0
 10
49.09662789194631
 20
5.324600261969327
 30
0.0
 10
48.27499999999984
 20
4.98915948322225
 30
0.0
  0
SPLINE
  5
C0
330
1F
100
AcDbEntity
  8
0
  6
Continuous
 62
     1
370
    15
100
AcDbSpline
210
0.0
220
0.0
230
1.0
 70
     8
 71
     3
 72
    15
 73
    11
 74
     0
 42
0.000000001
 43
0.00000001
 40
0.0
 40
0.0
 40
0.0
 40
0.0
 40
0.1061158017689186
 40
0.2436165933979663
 40
0.3696654415393927
 40
0.4957487552412131
 40
0.6218593410090422
 40
0.7479328487264214
 40
0.8739752316399463
 40
1.0
 40
1.0
 40
1.0
 40
1.0
 10
33.10392650377582
 20
-7.143211444694884
 30
0.0
 10
32.35743333993653
 20
-7.256015061862147
 30
0.0
 10
30.64366292556016
 20
-7.514985285704022
 30
0.0
 10
28.04311841584364
 20
-7.645629411073459
 30
0.0
 10
25.30230465032339
 20
-7.594638917694509
 30
0.0
 10
22.64145131729131
 20
-7.341714300959127
 30
0.0
 10
19.98030927134812
 20
-6.90064877455625
 30
0.0
 10
17.31962066102901
 20
-6.277733522331699
 30
0.0
 10
14.65961132854684
 20
-5.500584208487253
 30
0.0
 10
12.88649580750806
 20
-4.866253355092428
 30
0.0
 10
12.0
 20
-4.549110092042044
 30
0.0
  0
SPLINE
  5
C1
330
1F
100
AcDbEntity
  8
외형선
  6
Continuous
370
    15
100
AcDbSpline
210
0.0
220
0.0
230
1.0
 70
    24
 71
     3
 72
    14
 73
    10
 74
     0
 42
0.000000001
 43
0.00000001
 40
0.0
 40
0.0
 40
0.0
 40
0.0
 40
0.2500000000000002
 40
0.2500000000000002
 40
0.5000000000000001
 40
0.5000000000000001
 40
0.75
 40
0.75
 40
1.0
 40
1.0
 40
1.0
 40
1.0
 10
12.0
 20
5.348962912263902
 30
0.0
 10
12.0
 20
4.712674307996748
 30
0.0
 10
12.0
 20
3.988028033072569
 30
0.0
 10
12.0
 20
2.408547049440655
 30
0.0
 10
12.0
 20
1.554227029035065
 30
0.0
 10
12.0
 20
-0.2049459162625265
 30
0.0
 10
12.0
 20
-1.108861480261382
 30
0.0
 10
12.0
 20
-2.877317509624256
 30
0.0
 10
12.0
 20
-3.741077861037781
 30
0.0
 10
12.0
 20
-4.549110092042044
 30
0.0
  0
SPLINE
  5
C2
330
1F
100
AcDbEntity
  8
외형선
  6
Continuous
370
    15
100
AcDbSpline
210
0.0
220
0.0
230
1.0
 70
    24
 71
     3
 72
    15
 73
    11
 74
     0
 42
0.000000001
 43
0.00000001
 40
0.0
 40
0.0
 40
0.0
 40
0.0
 40
0.1424388984400099
 40
0.2867303402185838
 40
0.3917152146757281
 40
0.4967000891328722
 40
0.6047350013379426
 40
0.7127699135430129
 40
0.9022939446912857
 40
1.0
 40
1.0
 40
1.0
 40
1.0
 10
12.0
 20
-4.549110092042046
 30
0.0
 10
12.0
 20
-4.827097575263214
 30
0.0
 10
12.0
 20
-5.386688013784355
 30
0.0
 10
12.0
 20
-6.03451892213451
 30
0.0
 10
12.0
 20
-6.545026873877917
 30
0.0
 10
12.0
 20
-6.938132066205974
 30
0.0
 10
12.0
 20
-7.267990315291216
 30
0.0
 10
12.0
 20
-7.587823766539008
 30
0.0
 10
12.0
 20
-7.807170365878539
 30
0.0
 10
12.0
 20
-7.808017348594845
 30
0.0
 10
12.0
 20
-7.808305463747214
 30
0.0
  0
LINE
  5
C3
330
1F
100
AcDbEntity
  8
0
  6
Continuous
 62
     1
370
    15
100
AcDbLine
 10
53.27499999999999
 20
0.0000000000000042
 30
0.0
 11
53.27499999999999
 21
6.667500000000004
 31
0.0
  0
SPLINE
  5
C4
330
1F
100
AcDbEntity
  8
0
  6
Continuous
 62
     1
370
    15
100
AcDbSpline
210
0.0
220
0.0
230
1.0
 70
    24
 71
     3
 72
    10
 73
     6
 74
     0
 42
0.000000001
 43
0.00000001
 40
0.0
 40
0.0
 40
0.0
 40
0.0
 40
0.5
 40
0.5
 40
1.0
 40
1.0
 40
1.0
 40
1.0
 10
53.27499999999999
 20
6.667499999999999
 30
0.0
 10
53.27499999999999
 20
7.071667246089661
 30
0.0
 10
53.27500000000001
 20
7.541347015959288
 30
0.0
 10
53.27500000000001
 20
8.526733908152151
 30
0.0
 10
53.27499999999999
 20
9.039924476009023
 30
0.0
 10
53.27499999999941
 20
9.525000000000002
 30
0.0
  0
SPLINE
  5
C5
330
1F
100
AcDbEntity
  8
0
  6
Continuous
 62
     1
370
    15
100
AcDbSpline
210
0.0
220
0.0
230
1.0
 70
     8
 71
     3
 72
    14
 73
    10
 74
     0
 42
0.000000001
 43
0.00000001
 40
0.0
 40
0.0
 40
0.0
 40
0.0
 40
0.1982824921462483
 40
0.3032364231605614
 40
0.4085543291900615
 40
0.5551556618600291
 40
0.7022545015057337
 40
0.8508676741203433
 40
1.0
 40
1.0
 40
1.0
 40
1.0
 10
40.17150897815127
 20
6.385498925622092
 30
0.0
 10
41.03773772855157
 20
6.743810901826604
 30
0.0
 10
42.36247449712361
 20
7.291782842585293
 30
0.0
 10
44.14663213913938
 20
7.899613638851216
 30
0.0
 10
45.70529980022571
 20
8.373450592047666
 30
0.0
 10
47.44784184724666
 20
8.814576598718748
 30
0.0
 10
49.38056026028767
 20
9.18069410165605
 30
0.0
 10
51.32278836741125
 20
9.432199583858955
 30
0.0
 10
52.62350680544432
 20
9.488666785657134
 30
0.0
 10
53.27499999999941
 20
9.525000000000006
 30
0.0
  0
SPLINE
  5
C6
330
1F
100
AcDbEntity
  8
0
  6
Continuous
 62
     1
370
    15
100
AcDbSpline
210
0.0
220
0.0
230
1.0
 70
     8
 71
     3
 72
    10
 73
     6
 74
     0
 42
0.000000001
 43
0.00000001
 40
0.0
 40
0.0
 40
0.0
 40
0.0
 40
0.0895340214150914
 40
0.5448145852903437
 40
1.0
 40
1.0
 40
1.0
 40
1.0
 10
17.6980912321933
 20
-7.485623516367833
 30
0.0
 10
17.52801772736125
 20
-7.550514829784562
 30
0.0
 10
16.49312032702698
 20
-7.945378519020366
 30
0.0
 10
14.59378464560962
 20
-8.502072418500406
 30
0.0
 10
12.86453464286228
 20
-8.86404162715246
 30
0.0
 10
11.99999999999663
 20
-9.045007317499827
 30
0.0
  0
SPLINE
  5
C7
330
1F
100
AcDbEntity
  8
외형선
  6
Continuous
370
    15
100
AcDbSpline
210
0.0
220
0.0
230
1.0
 70
    24
 71
     3
 72
    12
 73
     8
 74
     0
 42
0.000000001
 43
0.00000001
 40
0.0
 40
0.0
 40
0.0
 40
0.0
 40
0.1673342010688376
 40
0.3927529227131324
 40
0.6179095347051781
 40
0.8433282563494724
 40
1.0
 40
1.0
 40
1.0
 40
1.0
 10
12.0
 20
-7.896889723067168
 30
0.0
 10
12.0
 20
-7.964362282962585
 30
0.0
 10
12.0
 20
-8.122728265126383
 30
0.0
 10
12.0
 20
-8.36467010932867
 30
0.0
 10
12.0
 20
-8.623441356930964
 30
0.0
 10
12.0
 20
-8.849949370967314
 30
0.0
 10
12.0
 20
-8.988284577681403
 30
0.0
 10
12.0
 20
-9.045007317484476
 30
0.0
  0
LINE
  5
C8
330
1F
100
AcDbEntity
  8
중심선
100
AcDbLine
 10
-48.15000000000001
 20
-0.0000000000000053
 30
0.0
 11
56.27499999999999
 21
0.0000000000000062
 31
0.0
  0
LINE
  5
C9
330
1F
100
AcDbEntity
  8
참조1
100
AcDbLine
 10
6.911761314031151
 20
0.0010749287238892
 30
0.0
 11
6.91176131403116
 21
-39.99892507127611
 31
0.0
  0
LINE
  5
CA
330
1F
100
AcDbEntity
  8
참조1
100
AcDbLine
 10
6.91176131403116
 20
-39.99892507127611
 30
0.0
 11
-20.15080122126847
 21
-39.9989250712761
 31
0.0
  0
CIRCLE
  5
CB
330
1F
100
AcDbEntity
  8
해칭선
100
AcDbCircle
 10
0.0
 20
0.0
 30
0.0
 40
2.999999999999995
  0
INSERT
  5
CC
330
1F
100
AcDbEntity
  8
0
  6
Continuous
 62
     7
100
AcDbBlockReference
 66
     1
  2
블럭10
 10
-9.877772932125218
 20
-52.04717430164393
 30
0.0
  0
ATTRIB
  5
CD
330
CC
100
AcDbEntity
  8
FORMAT
 62
     2
100
AcDbText
 10
-19.0590682208665
 20
-49.97180738881174
 30
0.0
 40
4.233333333333333
  1
E1070048 [ 2 FLUTE ]
 41
0.75
  7
SLDTEXTSTYLE0
 11
-19.0590682208665
 21
-52.08847405547841
 31
0.0
100
AcDbAttribute
  2
AUTOATTR0
 70
     0
 74
     1
  0
SEQEND
  5
CE
330
CC
100
AcDbEntity
  8
0
  6
Continuous
 62
     7
  0
HATCH
  5
CF
330
1F
100
AcDbEntity
  8
중심선
100
AcDbHatch
 10
0.0
 20
0.0
 30
0.0
210
0.0
220
0.0
230
1.0
  2
SOLID
 70
     1
 71
     0
 91
        1
 92
        0
 93
        4
 72
     1
 10
-4.162863627744387
 20
-35.8
 11
-7.609138871581669
 21
-35.8
 72
     1
 10
-7.609138871581669
 20
-35.8
 11
-9.737368730785692
 21
-38.3363255805726
 72
     1
 10
-9.737368730785692
 20
-38.3363255805726
 11
-6.291060401835233
 21
-38.33628615127011
 72
     1
 10
-6.291060401835233
 20
-38.33628615127011
 11
-4.162863627744387
 21
-35.8
 97
        0
 75
     0
 76
     1
 98
        1
 10
-2.849261314031168
 20
-0.001074928723895
  0
HATCH
  5
D0
330
1F
100
AcDbEntity
  8
중심선
100
AcDbHatch
 10
0.0
 20
0.0
 30
0.0
210
0.0
220
0.0
230
1.0
  2
SOLID
 70
     1
 71
     0
 91
        1
 92
        0
 93
        4
 72
     1
 10
0.8499003632915647
 20
-35.8
 11
-2.596374880545718
 21
-35.80000000000003
 72
     1
 10
-2.596374880545718
 20
-35.80000000000003
 11
-7.127512888903106
 21
-41.20000000000002
 72
     1
 10
-7.127512888903106
 20
-41.20000000000002
 11
-3.681237645065824
 21
-41.20000000000002
 72
     1
 10
-3.681237645065824
 20
-41.20000000000002
 11
0.8499003632915638
 21
-35.8
 97
        0
 75
     0
 76
     1
 98
        1
 10
-2.849261314031168
 20
-0.001074928723895
  0
HATCH
  5
D1
330
1F
100
AcDbEntity
  8
중심선
100
AcDbHatch
 10
0.0
 20
0.0
 30
0.0
210
0.0
220
0.0
230
1.0
  2
SOLID
 70
     1
 71
     0
 91
        1
 92
        0
 93
        4
 72
     1
 10
5.862664354327515
 20
-35.79999999999998
 11
2.416389110490345
 21
-35.8
 72
     1
 10
2.416389110490345
 20
-35.8
 11
-4.632047791398906
 21
-44.20000000000002
 72
     1
 10
-4.632047791398905
 20
-44.20000000000002
 11
-1.185772547561622
 21
-44.20000000000002
 72
     1
 10
-1.185772547561622
 20
-44.20000000000002
 11
5.862664354327515
 21
-35.79999999999998
 97
        0
 75
     0
 76
     1
 98
        1
 10
-2.849261314031168
 20
-0.001074928723895
  0
HATCH
  5
D2
330
1F
100
AcDbEntity
  8
중심선
100
AcDbHatch
 10
0.0
 20
0.0
 30
0.0
210
0.0
220
0.0
230
1.0
  2
SOLID
 70
     1
 71
     0
 91
        1
 92
        0
 93
        6
 72
     3
 10
10.66255478533966
 20
-40.00000000005127
 11
3.960054785062285
 21
1.540882976769353E-10
 40
0.3939339440162626
 50
17.09539180608436
 51
320.0019657685078
 73
     0
 72
     1
 10
12.34555444104025
 20
-38.5878940046383
 11
14.65085631474132
 21
-36.65356729459038
 72
     3
 10
10.66255478528681
 20
-40.00000000000015
 11
6.600054785286831
 21
-1.278976924368180E-13
 40
0.6363583540795978
 50
39.99873849337385
 51
368.4976242363724
 73
     1
 72
     1
 10
17.08788727718742
 20
-39.03999999993002
 11
9.342622092122735
 21
-39.03999999993002
 72
     1
 10
9.342622092122735
 20
-39.03999999993002
 11
9.3425970476768
 21
-40.95999999992991
 72
     1
 10
9.3425970476768
 20
-40.95999999992991
 11
13.78397681714884
 21
-40.95999999992988
 97
        0
 75
     0
 76
     1
 98
        1
 10
-2.849261314031168
 20
-0.001074928723895
  0
DIMENSION
  5
D3
330
1F
100
AcDbEntity
  8
치수문자_일반주서
100
AcDbDimension
  2
_D
 10
-57.64999999999998
 20
-9.525000000000057
 30
0.0
 11
-57.65000000000002
 21
0.0000000000000051
 31
0.0
 70
   160
  1
%%c<>
 71
     2
 42
19.05000000000001
 52
-270.0
  3
SLDDIMSTYLE0
100
AcDbAlignedDimension
 13
-44.15000000000001
 23
9.525000000000004
 33
0.0
 14
-44.15000000000001
 24
-9.525000000000007
 34
0.0
 50
90.0000000000002
100
AcDbRotatedDimension
1001
ACAD
1000
DSTYLE
1002
{
1070
   171
1070
     6
1070
   273
1070
     7
1002
}
  0
DIMENSION
  5
E8
330
1F
100
AcDbEntity
  8
치수문자_일반주서
100
AcDbDimension
  2
_D_1
 10
11.99999999999999
 20
22.69329134588529
 30
0.0
 11
32.63749999999999
 21
22.69329134588529
 31
0.0
 70
   160
  1
<>
 71
     2
 42
41.27499999999942
  3
SLDDIMSTYLE0
100
AcDbAlignedDimension
 13
53.27499999999941
 23
9.525000000000006
 33
0.0
 14
11.99999999999999
 24
9.04500731749922
 34
0.0
 50
0.0000000000000099
100
AcDbRotatedDimension
1001
ACAD
1000
DSTYLE
1002
{
1070
   171
1070
     6
1070
   273
1070
     7
1002
}
  0
DIMENSION
  5
FD
330
1F
100
AcDbEntity
  8
치수문자_일반주서
100
AcDbDimension
  2
_D_2
 10
-45.14999999999999
 20
39.56419134481795
 30
0.0
 11
4.062499999999853
 21
39.56419134481795
 31
0.0
 70
   160
  1
<>
 71
     2
 42
98.42499999999941
  3
SLDDIMSTYLE0
100
AcDbAlignedDimension
 13
53.27499999999941
 23
9.525000000000002
 33
0.0
 14
-45.15
 24
8.524999999999993
 34
0.0
 50
0.0000000000000041
100
AcDbRotatedDimension
1001
ACAD
1000
DSTYLE
1002
{
1070
   171
1070
     6
1070
   273
1070
     7
1002
}
  0
DIMENSION
  5
110
330
1F
100
AcDbEntity
  8
치수문자_일반주서
100
AcDbDimension
  2
_D_3
 10
68.1874861683416
 20
9.525000000000066
 30
0.0
 11
68.18748616834151
 21
32.60596113028824
 31
0.0
 70
   160
  1
%%c<>
 71
     2
 42
19.05
 52
-270.0
  3
SLDDIMSTYLE0
100
AcDbAlignedDimension
 13
53.27499999999999
 23
-9.524999999999995
 33
0.0
 14
53.27499999999941
 24
9.525000000000006
 34
0.0
 50
90.0000000000002
100
AcDbRotatedDimension
1001
ACAD
1000
DSTYLE
1002
{
1070
   171
1070
     6
1070
   273
1070
     7
1002
}
  0
LINE
  5
123
330
1F
100
AcDbEntity
  8
참조1
100
AcDbLine
 10
77.82153940838579
 20
7.441074928723896
 30
0.0
 11
77.82153940838579
 21
-7.438925071276109
 31
0.0
  0
LINE
  5
124
330
1F
100
AcDbEntity
  8
참조1
100
AcDbLine
 10
90.52153940838579
 20
5.441074928723896
 30
0.0
 11
77.82153940838579
 21
5.441074928723896
 31
0.0
  0
SOLID
  5
125
330
1F
100
AcDbEntity
  8
참조1
100
AcDbTrace
 10
77.82153940838579
 20
5.441074928723896
 30
0.0
 11
84.17153940838578
 21
4.425074928723896
 31
0.0
 12
84.17153940838578
 22
6.457074928723896
 32
0.0
 13
84.17153940838578
 23
6.457074928723896
 33
0.0
  0
LINE
  5
126
330
1F
100
AcDbEntity
  8
참조1
100
AcDbLine
 10
90.52153940838579
 20
-5.438925071276109
 30
0.0
 11
77.82153940838579
 21
-5.438925071276109
 31
0.0
  0
SOLID
  5
127
330
1F
100
AcDbEntity
  8
참조1
100
AcDbTrace
 10
77.82153940838579
 20
-5.438925071276109
 30
0.0
 11
84.17153940838578
 21
-6.454925071276109
 31
0.0
 12
84.17153940838578
 22
-4.422925071276109
 32
0.0
 13
84.17153940838578
 23
-4.422925071276109
 33
0.0
  0
MTEXT
  5
128
330
1F
100
AcDbEntity
  8
참조1
100
AcDbMText
 10
87.20588954101179
 20
11.01136670591222
 30
0.0
 40
3.5
 41
0.0
 71
     1
 72
     1
  1
A
  7
SLDTEXTSTYLE0
 73
     1
 44
1.0
  0
MTEXT
  5
129
330
1F
100
AcDbEntity
  8
참조1
100
AcDbMText
 10
87.20588954101179
 20
0.1313667059122192
 30
0.0
 40
3.5
 41
0.0
 71
     1
 72
     1
  1
A
  7
SLDTEXTSTYLE0
 73
     1
 44
1.0
  0
INSERT
  5
130
330
1F
100
AcDbEntity
  8
해칭선
100
AcDbBlockReference
  2
SW_DOWELSYMBOL_0
 10
0.0
 20
0.0
 30
0.0
  0
LINE
  5
20D
330
1F
100
AcDbEntity
  8
외형선
  6
Continuous
370
    15
100
AcDbLine
 10
-25.14432499999997
 20
7.619999999999997
 30
0.0
 11
-13.56192499999996
 21
7.619999999999997
 31
0.0
  0
LINE
  5
20E
330
1F
100
AcDbEntity
  8
외형선
  6
Continuous
370
    15
100
AcDbLine
 10
-25.14432499999997
 20
7.619999999999983
 30
0.0
 11
-27.04932500000011
 21
9.525000000000013
 31
0.0
  0
LINE
  5
20F
330
1F
100
AcDbEntity
  8
외형선
  6
Continuous
370
    15
100
AcDbLine
 10
-13.56192499999996
 20
7.619999999999983
 30
0.0
 11
-11.65692499999999
 21
9.525000000000013
 31
0.0
  0
LINE
  5
210
330
1F
100
AcDbEntity
  8
외형선
  6
Continuous
370
    15
100
AcDbLine
 10
-27.0493250000001
 20
9.524999999999999
 30
0.0
 11
-44.15000000000001
 21
9.524999999999997
 31
0.0
  0
ENDSEC
  0
SECTION
  2
OBJECTS
  0
DICTIONARY
  5
C
330
0
100
AcDbDictionary
281
     1
  3
ACAD_GROUP
350
D
  3
ACAD_IMAGE_VARS
350
154
  3
ACAD_LAYOUT
350
1A
  3
ACAD_MLINESTYLE
350
17
  3
ACAD_PLOTSETTINGS
350
19
  3
ACAD_PLOTSTYLENAME
350
E
  3
ACAD_SCALELIST
350
47
  3
APPDATA
350
152
  3
DWGPROPS
350
211
  0
DICTIONARY
  5
17B
330
2
100
AcDbDictionary
280
     1
281
     1
  3
ACAD_LAYERSTATES
360
17C
  0
DICTIONARY
  5
D
102
{ACAD_REACTORS
330
C
102
}
330
C
100
AcDbDictionary
281
     1
  0
RASTERVARIABLES
  5
154
102
{ACAD_REACTORS
330
C
102
}
330
C
100
AcDbRasterVariables
 90
        0
 70
     1
 71
     1
 72
     1
  0
DICTIONARY
  5
1A
102
{ACAD_REACTORS
330
C
102
}
330
C
100
AcDbDictionary
281
     1
  3
Layout1
350
1E
  3
Layout2
350
26
  3
Model
350
22
  0
DICTIONARY
  5
17
102
{ACAD_REACTORS
330
C
102
}
330
C
100
AcDbDictionary
281
     1
  3
Standard
350
18
  0
DICTIONARY
  5
19
102
{ACAD_REACTORS
330
C
102
}
330
C
100
AcDbDictionary
281
     1
  0
ACDBDICTIONARYWDFLT
  5
E
102
{ACAD_REACTORS
330
C
102
}
330
C
100
AcDbDictionary
281
     1
  3
Normal
350
F
100
AcDbDictionaryWithDefault
340
F
  0
DICTIONARY
  5
47
102
{ACAD_REACTORS
330
C
102
}
330
C
100
AcDbDictionary
281
     1
  3
A0
350
48
  3
A1
350
49
  3
A2
350
4A
  3
A3
350
4B
  3
A4
350
4C
  3
A5
350
4D
  3
A6
350
4E
  3
A7
350
4F
  3
A8
350
50
  3
A9
350
51
  3
B0
350
52
  3
B1
350
53
  3
B2
350
54
  3
B3
350
55
  3
B4
350
56
  3
B5
350
57
  3
B6
350
58
  3
B7
350
59
  3
B8
350
5A
  3
B9
350
5B
  3
C0
350
5C
  3
C1
350
5D
  3
C2
350
5E
  3
C3
350
5F
  3
C4
350
60
  3
C5
350
61
  3
C6
350
62
  3
C7
350
63
  3
C8
350
64
  3
C9
350
65
  3
D0
350
66
  3
D1
350
67
  3
D2
350
68
  0
DICTIONARY
  5
152
102
{ACAD_REACTORS
330
C
102
}
330
C
100
AcDbDictionary
281
     1
  0
XRECORD
  5
211
102
{ACAD_REACTORS
330
C
102
}
330
C
100
AcDbXrecord
280
     1
  1
DWGPROPS COOKIE
  2

  3

  4

  6

  7

  8
12016016
  9

300
=
301
=
302
=
303
=
304
=
305
=
306
=
307
=
308
=
309
=
 40
0.0
 41
2458311.088896967
 42
2458318.291252118
  1

 90
        0
  0
DICTIONARY
  5
17C
102
{ACAD_REACTORS
330
17B
102
}
330
17B
100
AcDbDictionary
281
     1
  0
LAYOUT
  5
1E
102
{ACAD_REACTORS
330
1A
102
}
330
1A
100
AcDbPlotSettings
  1

  2
none_device
  4

  6

 40
0.0
 41
0.0
 42
0.0
 43
0.0
 44
0.0
 45
0.0
 46
0.0
 47
0.0
 48
0.0
 49
0.0
140
0.0
141
0.0
142
1.0
143
1.0
 70
   688
 72
     1
 73
     0
 74
     5
  7

 75
    16
147
1.0
148
0.0
149
0.0
100
AcDbLayout
  1
Layout1
 70
     1
 71
     1
 10
0.0
 20
0.0
 11
420.0
 21
297.0
 12
0.0
 22
0.0
 32
0.0
 14
1.000000000000000E+20
 24
1.000000000000000E+20
 34
1.000000000000000E+20
 15
-1.000000000000000E+20
 25
-1.000000000000000E+20
 35
-1.000000000000000E+20
146
0.0
 13
0.0
 23
0.0
 33
0.0
 16
1.0
 26
0.0
 36
0.0
 17
0.0
 27
1.0
 37
0.0
 76
     0
330
1B
  0
LAYOUT
  5
26
102
{ACAD_REACTORS
330
1A
102
}
330
1A
100
AcDbPlotSettings
  1

  2
none_device
  4

  6

 40
0.0
 41
0.0
 42
0.0
 43
0.0
 44
0.0
 45
0.0
 46
0.0
 47
0.0
 48
0.0
 49
0.0
140
0.0
141
0.0
142
1.0
143
1.0
 70
   688
 72
     1
 73
     0
 74
     5
  7

 75
    16
147
1.0
148
0.0
149
0.0
100
AcDbLayout
  1
Layout2
 70
     1
 71
     2
 10
0.0
 20
0.0
 11
0.0
 21
0.0
 12
0.0
 22
0.0
 32
0.0
 14
0.0
 24
0.0
 34
0.0
 15
0.0
 25
0.0
 35
0.0
146
0.0
 13
0.0
 23
0.0
 33
0.0
 16
1.0
 26
0.0
 36
0.0
 17
0.0
 27
1.0
 37
0.0
 76
     0
330
23
  0
LAYOUT
  5
22
102
{ACAD_REACTORS
330
1A
102
}
330
1A
100
AcDbPlotSettings
  1

  2
none_device
  4
ANSI_A_(11.00_x_8.50_Inches)
  6

 40
6.35
 41
19.05
 42
6.35000508
 43
19.05000254
 44
279.4
 45
215.9
 46
103.0877849078933
 47
55.39601377234877
 48
0.0
 49
0.0
140
0.0
141
0.0
142
0.0569547996289623
143
1.0
 70
  1696
 72
     0
 73
     0
 74
     0
  7

 75
     0
147
0.0235690232323232
148
0.0
149
0.0
100
AcDbLayout
  1
Model
 70
     1
 71
     0
 10
0.0
 20
0.0
 11
420.0
 21
297.0
 12
0.0
 22
0.0
 32
0.0
 14
1.000000000000000E+20
 24
1.000000000000000E+20
 34
1.000000000000000E+20
 15
-1.000000000000000E+20
 25
-1.000000000000000E+20
 35
-1.000000000000000E+20
146
0.0
 13
0.0
 23
0.0
 33
0.0
 16
1.0
 26
0.0
 36
0.0
 17
0.0
 27
1.0
 37
0.0
 76
     0
330
1F
331
29
  0
MLINESTYLE
  5
18
102
{ACAD_REACTORS
330
17
102
}
330
17
100
AcDbMlineStyle
  2
Standard
 70
     0
  3

 62
   256
 51
90.0
 52
90.0
 71
     2
 49
0.5
 62
   256
  6
BYLAYER
 49
-0.5
 62
   256
  6
BYLAYER
  0
ACDBPLACEHOLDER
  5
F
102
{ACAD_REACTORS
330
E
102
}
330
E
  0
SCALE
  5
48
102
{ACAD_REACTORS
330
47
102
}
330
47
100
AcDbScale
 70
     0
300
1:1
140
1.0
141
1.0
290
     1
  0
SCALE
  5
49
102
{ACAD_REACTORS
330
47
102
}
330
47
100
AcDbScale
 70
     0
300
1:2
140
1.0
141
2.0
290
     0
  0
SCALE
  5
4A
102
{ACAD_REACTORS
330
47
102
}
330
47
100
AcDbScale
 70
     0
300
1:4
140
1.0
141
4.0
290
     0
  0
SCALE
  5
4B
102
{ACAD_REACTORS
330
47
102
}
330
47
100
AcDbScale
 70
     0
300
1:5
140
1.0
141
5.0
290
     0
  0
SCALE
  5
4C
102
{ACAD_REACTORS
330
47
102
}
330
47
100
AcDbScale
 70
     0
300
1:8
140
1.0
141
8.0
290
     0
  0
SCALE
  5
4D
102
{ACAD_REACTORS
330
47
102
}
330
47
100
AcDbScale
 70
     0
300
1:10
140
1.0
141
10.0
290
     0
  0
SCALE
  5
4E
102
{ACAD_REACTORS
330
47
102
}
330
47
100
AcDbScale
 70
     0
300
1:16
140
1.0
141
16.0
290
     0
  0
SCALE
  5
4F
102
{ACAD_REACTORS
330
47
102
}
330
47
100
AcDbScale
 70
     0
300
1:20
140
1.0
141
20.0
290
     0
  0
SCALE
  5
50
102
{ACAD_REACTORS
330
47
102
}
330
47
100
AcDbScale
 70
     0
300
1:30
140
1.0
141
30.0
290
     0
  0
SCALE
  5
51
102
{ACAD_REACTORS
330
47
102
}
330
47
100
AcDbScale
 70
     0
300
1:40
140
1.0
141
40.0
290
     0
  0
SCALE
  5
52
102
{ACAD_REACTORS
330
47
102
}
330
47
100
AcDbScale
 70
     0
300
1:50
140
1.0
141
50.0
290
     0
  0
SCALE
  5
53
102
{ACAD_REACTORS
330
47
102
}
330
47
100
AcDbScale
 70
     0
300
1:100
140
1.0
141
100.0
290
     0
  0
SCALE
  5
54
102
{ACAD_REACTORS
330
47
102
}
330
47
100
AcDbScale
 70
     0
300
2:1
140
2.0
141
1.0
290
     0
  0
SCALE
  5
55
102
{ACAD_REACTORS
330
47
102
}
330
47
100
AcDbScale
 70
     0
300
4:1
140
4.0
141
1.0
290
     0
  0
SCALE
  5
56
102
{ACAD_REACTORS
330
47
102
}
330
47
100
AcDbScale
 70
     0
300
8:1
140
8.0
141
1.0
290
     0
  0
SCALE
  5
57
102
{ACAD_REACTORS
330
47
102
}
330
47
100
AcDbScale
 70
     0
300
10:1
140
10.0
141
1.0
290
     0
  0
SCALE
  5
58
102
{ACAD_REACTORS
330
47
102
}
330
47
100
AcDbScale
 70
     0
300
100:1
140
100.0
141
1.0
290
     0
  0
SCALE
  5
59
102
{ACAD_REACTORS
330
47
102
}
330
47
100
AcDbScale
 70
     0
300
1/128" = 1'-0"
140
0.0078125
141
12.0
290
     0
  0
SCALE
  5
5A
102
{ACAD_REACTORS
330
47
102
}
330
47
100
AcDbScale
 70
     0
300
1/64" = 1'-0"
140
0.015625
141
12.0
290
     0
  0
SCALE
  5
5B
102
{ACAD_REACTORS
330
47
102
}
330
47
100
AcDbScale
 70
     0
300
1/32" = 1'-0"
140
0.03125
141
12.0
290
     0
  0
SCALE
  5
5C
102
{ACAD_REACTORS
330
47
102
}
330
47
100
AcDbScale
 70
     0
300
1/16" = 1'-0"
140
0.0625
141
12.0
290
     0
  0
SCALE
  5
5D
102
{ACAD_REACTORS
330
47
102
}
330
47
100
AcDbScale
 70
     0
300
3/32" = 1'-0"
140
0.09375
141
12.0
290
     0
  0
SCALE
  5
5E
102
{ACAD_REACTORS
330
47
102
}
330
47
100
AcDbScale
 70
     0
300
1/8" = 1'-0"
140
0.125
141
12.0
290
     0
  0
SCALE
  5
5F
102
{ACAD_REACTORS
330
47
102
}
330
47
100
AcDbScale
 70
     0
300
3/16" = 1'-0"
140
0.1875
141
12.0
290
     0
  0
SCALE
  5
60
102
{ACAD_REACTORS
330
47
102
}
330
47
100
AcDbScale
 70
     0
300
1/4" = 1'-0"
140
0.25
141
12.0
290
     0
  0
SCALE
  5
61
102
{ACAD_REACTORS
330
47
102
}
330
47
100
AcDbScale
 70
     0
300
3/8" = 1'-0"
140
0.375
141
12.0
290
     0
  0
SCALE
  5
62
102
{ACAD_REACTORS
330
47
102
}
330
47
100
AcDbScale
 70
     0
300
1/2" = 1'-0"
140
0.5
141
12.0
290
     0
  0
SCALE
  5
63
102
{ACAD_REACTORS
330
47
102
}
330
47
100
AcDbScale
 70
     0
300
3/4" = 1'-0"
140
0.75
141
12.0
290
     0
  0
SCALE
  5
64
102
{ACAD_REACTORS
330
47
102
}
330
47
100
AcDbScale
 70
     0
300
1" = 1'-0"
140
1.0
141
12.0
290
     0
  0
SCALE
  5
65
102
{ACAD_REACTORS
330
47
102
}
330
47
100
AcDbScale
 70
     0
300
1-1/2" = 1'-0"
140
1.5
141
12.0
290
     0
  0
SCALE
  5
66
102
{ACAD_REACTORS
330
47
102
}
330
47
100
AcDbScale
 70
     0
300
3" = 1'-0"
140
3.0
141
12.0
290
     0
  0
SCALE
  5
67
102
{ACAD_REACTORS
330
47
102
}
330
47
100
AcDbScale
 70
     0
300
6" = 1'-0"
140
6.0
141
12.0
290
     0
  0
SCALE
  5
68
102
{ACAD_REACTORS
330
47
102
}
330
47
100
AcDbScale
 70
     0
300
1'-0" = 1'-0"
140
12.0
141
12.0
290
     0
  0
ENDSEC
  0
EOF
