  0
SECTION
  2
HEADER
  9
$ACADVER
  1
AC1015
  9
$ACADMAINTVER
 70
     6
  9
$DWGCODEPAGE
  3
ANSI_949
  9
$INSBASE
 10
0.0
 20
0.0
 30
0.0
  9
$EXTMIN
 10
1.000000000000000E+20
 20
1.000000000000000E+20
 30
1.000000000000000E+20
  9
$EXTMAX
 10
-1.000000000000000E+20
 20
-1.000000000000000E+20
 30
-1.000000000000000E+20
  9
$LIMMIN
 10
0.0
 20
0.0
  9
$LIMMAX
 10
420.0
 20
297.0
  9
$ORTHOMODE
 70
     1
  9
$REGENMODE
 70
     1
  9
$FILLMODE
 70
     1
  9
$QTEXTMODE
 70
     0
  9
$MIRRTEXT
 70
     1
  9
$LTSCALE
 40
1.0
  9
$ATTMODE
 70
     1
  9
$TEXTSIZE
 40
3.5
  9
$TRACEWID
 40
1.0
  9
$TEXTSTYLE
  7
Standard
  9
$CLAYER
  8
0
  9
$CELTYPE
  6
ByLayer
  9
$CECOLOR
 62
   256
  9
$CELTSCALE
 40
1.0
  9
$DISPSILH
 70
     0
  9
$DIMSCALE
 40
1.0
  9
$DIMASZ
 40
3.302
  9
$DIMEXO
 40
1.0
  9
$DIMDLI
 40
3.75
  9
$DIMRND
 40
0.0
  9
$DIMDLE
 40
0.0
  9
$DIMEXE
 40
1.0
  9
$DIMTP
 40
0.0
  9
$DIMTM
 40
0.0
  9
$DIMTXT
 40
3.5
  9
$DIMCEN
 40
2.5
  9
$DIMTSZ
 40
0.0
  9
$DIMTOL
 70
     0
  9
$DIMLIM
 70
     0
  9
$DIMTIH
 70
     1
  9
$DIMTOH
 70
     1
  9
$DIMSE1
 70
     0
  9
$DIMSE2
 70
     0
  9
$DIMTAD
 70
     1
  9
$DIMZIN
 70
     0
  9
$DIMBLK
  1

  9
$DIMASO
 70
     1
  9
$DIMSHO
 70
     1
  9
$DIMPOST
  1

  9
$DIMAPOST
  1

  9
$DIMALT
 70
     0
  9
$DIMALTD
 70
     3
  9
$DIMALTF
 40
0.0393700787401575
  9
$DIMLFAC
 40
1.0
  9
$DIMTOFL
 70
     1
  9
$DIMTVP
 40
0.0
  9
$DIMTIX
 70
     0
  9
$DIMSOXD
 70
     0
  9
$DIMSAH
 70
     0
  9
$DIMBLK1
  1

  9
$DIMBLK2
  1

  9
$DIMSTYLE
  2
ISO-25
  9
$DIMCLRD
 70
     0
  9
$DIMCLRE
 70
     0
  9
$DIMCLRT
 70
     0
  9
$DIMTFAC
 40
1.0
  9
$DIMGAP
 40
1.524
  9
$DIMJUST
 70
     0
  9
$DIMSD1
 70
     0
  9
$DIMSD2
 70
     0
  9
$DIMTOLJ
 70
     0
  9
$DIMTZIN
 70
     0
  9
$DIMALTZ
 70
     0
  9
$DIMALTTZ
 70
     0
  9
$DIMUPT
 70
     0
  9
$DIMDEC
 70
     2
  9
$DIMTDEC
 70
     2
  9
$DIMALTU
 70
     2
  9
$DIMALTTD
 70
     3
  9
$DIMTXSTY
  7
Standard
  9
$DIMAUNIT
 70
     0
  9
$DIMADEC
 70
     2
  9
$DIMALTRND
 40
0.0
  9
$DIMAZIN
 70
     0
  9
$DIMDSEP
 70
    44
  9
$DIMATFIT
 70
     3
  9
$DIMFRAC
 70
     0
  9
$DIMLDRBLK
  1

  9
$DIMLUNIT
 70
     2
  9
$DIMLWD
 70
    -2
  9
$DIMLWE
 70
    -2
  9
$DIMTMOVE
 70
     0
  9
$LUNITS
 70
     2
  9
$LUPREC
 70
     2
  9
$SKETCHINC
 40
1.0
  9
$FILLETRAD
 40
10.0
  9
$AUNITS
 70
     0
  9
$AUPREC
 70
     2
  9
$MENU
  1
.
  9
$ELEVATION
 40
0.0
  9
$PELEVATION
 40
0.0
  9
$THICKNESS
 40
0.0
  9
$LIMCHECK
 70
     0
  9
$CHAMFERA
 40
0.0
  9
$CHAMFERB
 40
0.0
  9
$CHAMFERC
 40
0.0
  9
$CHAMFERD
 40
0.0
  9
$SKPOLY
 70
     0
  9
$TDCREATE
 40
2458311.464108761
  9
$TDUCREATE
 40
2458311.089108761
  9
$TDUPDATE
 40
2458318.666061076
  9
$TDUUPDATE
 40
2458318.291061076
  9
$TDINDWG
 40
0.0017771181
  9
$TDUSRTIMER
 40
2458318.29089331
  9
$USRTIMER
 70
     1
  9
$ANGBASE
 50
0.0
  9
$ANGDIR
 70
     0
  9
$PDMODE
 70
     0
  9
$PDSIZE
 40
-1.0
  9
$PLINEWID
 40
0.0
  9
$SPLFRAME
 70
     0
  9
$SPLINETYPE
 70
     6
  9
$SPLINESEGS
 70
     8
  9
$HANDSEED
  5
1F2
  9
$SURFTAB1
 70
     6
  9
$SURFTAB2
 70
     6
  9
$SURFTYPE
 70
     6
  9
$SURFU
 70
     6
  9
$SURFV
 70
     6
  9
$UCSBASE
  2

  9
$UCSNAME
  2

  9
$UCSORG
 10
0.0
 20
0.0
 30
0.0
  9
$UCSXDIR
 10
1.0
 20
0.0
 30
0.0
  9
$UCSYDIR
 10
0.0
 20
1.0
 30
0.0
  9
$UCSORTHOREF
  2

  9
$UCSORTHOVIEW
 70
     0
  9
$UCSORGTOP
 10
0.0
 20
0.0
 30
0.0
  9
$UCSORGBOTTOM
 10
0.0
 20
0.0
 30
0.0
  9
$UCSORGLEFT
 10
0.0
 20
0.0
 30
0.0
  9
$UCSORGRIGHT
 10
0.0
 20
0.0
 30
0.0
  9
$UCSORGFRONT
 10
0.0
 20
0.0
 30
0.0
  9
$UCSORGBACK
 10
0.0
 20
0.0
 30
0.0
  9
$PUCSBASE
  2

  9
$PUCSNAME
  2

  9
$PUCSORG
 10
0.0
 20
0.0
 30
0.0
  9
$PUCSXDIR
 10
1.0
 20
0.0
 30
0.0
  9
$PUCSYDIR
 10
0.0
 20
1.0
 30
0.0
  9
$PUCSORTHOREF
  2

  9
$PUCSORTHOVIEW
 70
     0
  9
$PUCSORGTOP
 10
0.0
 20
0.0
 30
0.0
  9
$PUCSORGBOTTOM
 10
0.0
 20
0.0
 30
0.0
  9
$PUCSORGLEFT
 10
0.0
 20
0.0
 30
0.0
  9
$PUCSORGRIGHT
 10
0.0
 20
0.0
 30
0.0
  9
$PUCSORGFRONT
 10
0.0
 20
0.0
 30
0.0
  9
$PUCSORGBACK
 10
0.0
 20
0.0
 30
0.0
  9
$USERI1
 70
     0
  9
$USERI2
 70
     0
  9
$USERI3
 70
     0
  9
$USERI4
 70
     0
  9
$USERI5
 70
     0
  9
$USERR1
 40
0.0
  9
$USERR2
 40
0.0
  9
$USERR3
 40
0.0
  9
$USERR4
 40
0.0
  9
$USERR5
 40
0.0
  9
$WORLDVIEW
 70
     1
  9
$SHADEDGE
 70
     3
  9
$SHADEDIF
 70
    70
  9
$TILEMODE
 70
     1
  9
$MAXACTVP
 70
    64
  9
$PINSBASE
 10
0.0
 20
0.0
 30
0.0
  9
$PLIMCHECK
 70
     0
  9
$PEXTMIN
 10
1.000000000000000E+20
 20
1.000000000000000E+20
 30
1.000000000000000E+20
  9
$PEXTMAX
 10
-1.000000000000000E+20
 20
-1.000000000000000E+20
 30
-1.000000000000000E+20
  9
$PLIMMIN
 10
0.0
 20
0.0
  9
$PLIMMAX
 10
0.0
 20
0.0
  9
$UNITMODE
 70
     0
  9
$VISRETAIN
 70
     1
  9
$PLINEGEN
 70
     0
  9
$PSLTSCALE
 70
     1
  9
$TREEDEPTH
 70
  3020
  9
$CMLSTYLE
  2
Standard
  9
$CMLJUST
 70
     0
  9
$CMLSCALE
 40
20.0
  9
$PROXYGRAPHICS
 70
     1
  9
$MEASUREMENT
 70
     1
  9
$CELWEIGHT
370
    -1
  9
$ENDCAPS
280
     0
  9
$JOINSTYLE
280
     0
  9
$LWDISPLAY
290
     1
  9
$INSUNITS
 70
     4
  9
$HYPERLINKBASE
  1

  9
$STYLESHEET
  1

  9
$XEDIT
290
     1
  9
$CEPSNTYPE
380
     0
  9
$PSTYLEMODE
290
     1
  9
$FINGERPRINTGUID
  2
{B9D66E5C-4638-4441-B58D-CF7DCF519005}
  9
$VERSIONGUID
  2
{FAEB1C32-E019-11D5-929B-00C0DF256EC4}
  9
$EXTNAMES
290
     1
  9
$PSVPSCALE
 40
0.0
  9
$OLESTARTUP
290
     0
  0
ENDSEC
  0
SECTION
  2
CLASSES
  0
CLASS
  1
ACDBDICTIONARYWDFLT
  2
AcDbDictionaryWithDefault
  3
ObjectDBX Classes
 90
        0
280
     0
281
     0
  0
CLASS
  1
VISUALSTYLE
  2
AcDbVisualStyle
  3
ObjectDBX Classes
 90
     4095
280
     0
281
     0
  0
CLASS
  1
MATERIAL
  2
AcDbMaterial
  3
ObjectDBX Classes
 90
     1153
280
     0
281
     0
  0
CLASS
  1
SCALE
  2
AcDbScale
  3
ObjectDBX Classes
 90
     1153
280
     0
281
     0
  0
CLASS
  1
SUN
  2
AcDbSun
  3
SCENEOE
 90
     1153
280
     0
281
     0
  0
CLASS
  1
ACDBPLACEHOLDER
  2
AcDbPlaceHolder
  3
ObjectDBX Classes
 90
        0
280
     0
281
     0
  0
CLASS
  1
LAYOUT
  2
AcDbLayout
  3
ObjectDBX Classes
 90
        0
280
     0
281
     0
  0
CLASS
  1
TABLESTYLE
  2
AcDbTableStyle
  3
ObjectDBX Classes
 90
     4095
280
     0
281
     0
  0
CLASS
  1
MLEADERSTYLE
  2
AcDbMLeaderStyle
  3
ACDB_MLEADERSTYLE_CLASS
 90
     4095
280
     0
281
     0
  0
CLASS
  1
RASTERVARIABLES
  2
AcDbRasterVariables
  3
ISM
 90
        0
280
     0
281
     0
  0
ENDSEC
  0
SECTION
  2
TABLES
  0
TABLE
  2
VPORT
  5
8
330
0
100
AcDbSymbolTable
 70
     1
  0
VPORT
  5
29
330
8
100
AcDbSymbolTableRecord
100
AcDbViewportTableRecord
  2
*Active
 70
     0
 10
0.0
 20
0.0
 11
1.0
 21
1.0
 12
-14.1763284586773
 22
-21.57241960408039
 13
0.0
 23
0.0
 14
10.0
 24
10.0
 15
10.0
 25
10.0
 16
0.0
 26
0.0
 36
1.0
 17
0.0
 27
0.0
 37
0.0
 40
167.1616218582653
 41
1.740812379110251
 42
50.0
 43
0.0
 44
0.0
 50
0.0
 51
0.0
 71
    16
 72
  2000
 73
     1
 74
     3
 75
     0
 76
     0
 77
     0
 78
     0
281
     0
 65
     1
110
0.0
120
0.0
130
0.0
111
1.0
121
0.0
131
0.0
112
0.0
122
1.0
132
0.0
 79
     0
146
0.0
  0
ENDTAB
  0
TABLE
  2
LTYPE
  5
5
330
0
100
AcDbSymbolTable
 70
     6
  0
LTYPE
  5
14
330
5
100
AcDbSymbolTableRecord
100
AcDbLinetypeTableRecord
  2
ByBlock
 70
     0
  3

 72
    65
 73
     0
 40
0.0
  0
LTYPE
  5
15
330
5
100
AcDbSymbolTableRecord
100
AcDbLinetypeTableRecord
  2
ByLayer
 70
     0
  3

 72
    65
 73
     0
 40
0.0
  0
LTYPE
  5
16
330
5
100
AcDbSymbolTableRecord
100
AcDbLinetypeTableRecord
  2
Continuous
 70
     0
  3
Solid line
 72
    65
 73
     0
 40
0.0
  0
LTYPE
  5
6A
330
5
100
AcDbSymbolTableRecord
100
AcDbLinetypeTableRecord
  2
HIDDEN
 70
     0
  3
Hidden __ __ __ __ __ __ __ __ __ __ __ __ __ __
 72
    65
 73
     2
 40
1.905
 49
1.27
 74
     0
 49
-0.635
 74
     0
  0
LTYPE
  5
6B
330
5
100
AcDbSymbolTableRecord
100
AcDbLinetypeTableRecord
  2
PHANTOM
 70
     0
  3
Phantom ______  __  __  ______  __  __  ______
 72
    65
 73
     6
 40
12.7
 49
6.35
 74
     0
 49
-1.27
 74
     0
 49
1.27
 74
     0
 49
-1.27
 74
     0
 49
1.27
 74
     0
 49
-1.27
 74
     0
  0
LTYPE
  5
6C
330
5
100
AcDbSymbolTableRecord
100
AcDbLinetypeTableRecord
  2
CENTER
 70
     0
  3
Center ____ _ ____ _ ____ _ ____ _ ____ _ ____
 72
    65
 73
     4
 40
10.16
 49
6.35
 74
     0
 49
-1.27
 74
     0
 49
1.27
 74
     0
 49
-1.27
 74
     0
  0
LTYPE
  5
6D
330
5
100
AcDbSymbolTableRecord
100
AcDbLinetypeTableRecord
  2
CENTERX2
 70
     0
  3
Center (2x) ________  __  ________  __  _____
 72
    65
 73
     4
 40
20.32
 49
12.7
 74
     0
 49
-2.54
 74
     0
 49
2.54
 74
     0
 49
-2.54
 74
     0
  0
LTYPE
  5
6E
330
5
100
AcDbSymbolTableRecord
100
AcDbLinetypeTableRecord
  2
DOT2
 70
     0
  3
Dot (.5x) ........................................
 72
    65
 73
     2
 40
0.635
 49
0.0
 74
     0
 49
-0.635
 74
     0
  0
ENDTAB
  0
TABLE
  2
LAYER
  5
2
102
{ACAD_XDICTIONARY
360
17A
102
}
330
0
100
AcDbSymbolTable
 70
    18
  0
LAYER
  5
10
330
2
100
AcDbSymbolTableRecord
100
AcDbLayerTableRecord
  2
0
 70
     0
 62
     7
  6
Continuous
370
    -3
390
F
  0
LAYER
  5
6F
330
2
100
AcDbSymbolTableRecord
100
AcDbLayerTableRecord
  2
FORMAT
 70
     0
 62
     2
  6
Continuous
370
    -3
390
F
  0
LAYER
  5
70
330
2
100
AcDbSymbolTableRecord
100
AcDbLayerTableRecord
  2
외형선
 70
     0
 62
     4
  6
Continuous
370
    30
390
F
  0
LAYER
  5
71
330
2
100
AcDbSymbolTableRecord
100
AcDbLayerTableRecord
  2
숨은선
 70
     0
 62
     2
  6
HIDDEN
370
    15
390
F
  0
LAYER
  5
72
330
2
100
AcDbSymbolTableRecord
100
AcDbLayerTableRecord
  2
중심선
 70
     0
 62
     1
  6
CENTERX2
370
    -3
390
F
  0
LAYER
  5
73
330
2
100
AcDbSymbolTableRecord
100
AcDbLayerTableRecord
  2
파단선
 70
     0
 62
     4
  6
Continuous
370
    -3
390
F
  0
LAYER
  5
74
330
2
100
AcDbSymbolTableRecord
100
AcDbLayerTableRecord
  2
해칭선
 70
     0
 62
   100
  6
Continuous
370
    -3
390
F
  0
LAYER
  5
75
330
2
100
AcDbSymbolTableRecord
100
AcDbLayerTableRecord
  2
가는실선
 70
     0
 62
     4
  6
Continuous
370
    -3
390
F
  0
LAYER
  5
76
330
2
100
AcDbSymbolTableRecord
100
AcDbLayerTableRecord
  2
치수_보조선
 70
     0
 62
     4
  6
Continuous
370
    -3
390
F
  0
LAYER
  5
77
330
2
100
AcDbSymbolTableRecord
100
AcDbLayerTableRecord
  2
치수문자_일반주서
 70
     0
 62
     7
  6
Continuous
370
    15
390
F
  0
LAYER
  5
78
330
2
100
AcDbSymbolTableRecord
100
AcDbLayerTableRecord
  2
개별주서
 70
     0
 62
   100
  6
Continuous
370
    30
390
F
  0
LAYER
  5
79
330
2
100
AcDbSymbolTableRecord
100
AcDbLayerTableRecord
  2
중간선
 70
     0
 62
     2
  6
Continuous
370
    15
390
F
  0
LAYER
  5
7A
330
2
100
AcDbSymbolTableRecord
100
AcDbLayerTableRecord
  2
윤곽선
 70
     0
 62
     3
  6
Continuous
370
    40
390
F
  0
LAYER
  5
7B
330
2
100
AcDbSymbolTableRecord
100
AcDbLayerTableRecord
  2
중심마크
 70
     0
 62
   100
  6
Continuous
370
    30
390
F
  0
LAYER
  5
7C
330
2
100
AcDbSymbolTableRecord
100
AcDbLayerTableRecord
  2
가상선
 70
     0
 62
     4
  6
PHANTOM
370
    -3
390
F
  0
LAYER
  5
7D
330
2
100
AcDbSymbolTableRecord
100
AcDbLayerTableRecord
  2
특수지정선
 70
     0
 62
     5
  6
CENTERX2
370
    60
390
F
  0
LAYER
  5
7E
330
2
100
AcDbSymbolTableRecord
100
AcDbLayerTableRecord
  2
참조1
 70
     0
 62
    -4
  6
Continuous
370
    -3
390
F
  0
LAYER
  5
181
330
2
100
AcDbSymbolTableRecord
100
AcDbLayerTableRecord
  2
Defpoints
 70
     0
 62
     7
  6
Continuous
290
     0
370
    -3
390
F
  0
ENDTAB
  0
TABLE
  2
STYLE
  5
3
330
0
100
AcDbSymbolTable
 70
     2
  0
STYLE
  5
11
330
3
100
AcDbSymbolTableRecord
100
AcDbTextStyleTableRecord
  2
Standard
 70
     0
 40
0.0
 41
1.0
 50
0.0
 71
     0
 42
3.5
  3
txt
  4

  0
STYLE
  5
94
330
3
100
AcDbSymbolTableRecord
100
AcDbTextStyleTableRecord
  2
SLDTEXTSTYLE0
 70
     0
 40
0.0
 41
0.75
 50
0.0
 71
     0
 42
3.5
  3
TXT
  4

  0
ENDTAB
  0
TABLE
  2
VIEW
  5
6
330
0
100
AcDbSymbolTable
 70
     0
  0
ENDTAB
  0
TABLE
  2
UCS
  5
7
330
0
100
AcDbSymbolTable
 70
     0
  0
ENDTAB
  0
TABLE
  2
APPID
  5
9
330
0
100
AcDbSymbolTable
 70
     1
  0
APPID
  5
12
330
9
100
AcDbSymbolTableRecord
100
AcDbRegAppTableRecord
  2
ACAD
 70
     0
  0
ENDTAB
  0
TABLE
  2
DIMSTYLE
  5
A
330
0
100
AcDbSymbolTable
 70
     3
100
AcDbDimStyleTable
  0
DIMSTYLE
105
27
330
A
100
AcDbSymbolTableRecord
100
AcDbDimStyleTableRecord
  2
ISO-25
 70
     0
 41
2.5
 42
0.625
 43
3.75
 44
1.25
 73
     0
 74
     0
 77
     1
 78
     8
140
2.5
141
2.5
143
0.03937007874016
147
0.625
171
     3
172
     1
178
     0
271
     2
272
     2
274
     3
278
    44
283
     0
284
     8
340
11
  0
DIMSTYLE
105
D3
102
{ACAD_REACTORS
330
D2
330
E7
330
FC
330
10F
102
}
330
A
100
AcDbSymbolTableRecord
100
AcDbDimStyleTableRecord
  2
SLDDIMSTYLE0
 70
     0
 41
3.302
 44
0.0
 45
0.000000001
 73
     0
 74
     0
 77
     1
 78
    12
 79
     3
140
3.5
143
0.0393700787401575
147
0.875
148
0.000000001
170
     1
172
     1
173
     1
178
     0
271
     2
272
     2
276
     2
284
    12
289
     0
340
94
  0
DIMSTYLE
105
E8
330
A
100
AcDbSymbolTableRecord
100
AcDbDimStyleTableRecord
  2
SLDDIMSTYLE1
 70
     0
 41
3.302
 44
0.0
 45
0.000000001
 73
     0
 74
     0
 77
     1
 78
    12
 79
     3
140
3.5
143
0.0393700787401575
147
0.875
148
0.000000001
170
     1
173
     1
178
     0
271
     2
272
     2
276
     2
284
    12
340
94
  0
ENDTAB
  0
TABLE
  2
BLOCK_RECORD
  5
1
330
0
100
AcDbSymbolTable
 70
     8
  0
BLOCK_RECORD
  5
1F
330
1
100
AcDbSymbolTableRecord
100
AcDbBlockTableRecord
  2
*Model_Space
340
22
  0
BLOCK_RECORD
  5
1B
330
1
100
AcDbSymbolTableRecord
100
AcDbBlockTableRecord
  2
*Paper_Space
340
1E
  0
BLOCK_RECORD
  5
23
330
1
100
AcDbSymbolTableRecord
100
AcDbBlockTableRecord
  2
*Paper_Space0
340
26
  0
BLOCK_RECORD
  5
7F
330
1
100
AcDbSymbolTableRecord
100
AcDbBlockTableRecord
  2
블럭10
340
0
102
{BLKREFS
331
CB
102
}
  0
BLOCK_RECORD
  5
D4
330
1
100
AcDbSymbolTableRecord
100
AcDbBlockTableRecord
  2
_D
340
0
  0
BLOCK_RECORD
  5
E9
330
1
100
AcDbSymbolTableRecord
100
AcDbBlockTableRecord
  2
_D_1
340
0
  0
BLOCK_RECORD
  5
FD
330
1
100
AcDbSymbolTableRecord
100
AcDbBlockTableRecord
  2
_D_2
340
0
  0
BLOCK_RECORD
  5
110
330
1
100
AcDbSymbolTableRecord
100
AcDbBlockTableRecord
  2
_D_3
340
0
  0
BLOCK_RECORD
  5
129
330
1
100
AcDbSymbolTableRecord
100
AcDbBlockTableRecord
  2
SW_DOWELSYMBOL_0
340
0
102
{BLKREFS
331
12F
102
}
  0
ENDTAB
  0
ENDSEC
  0
SECTION
  2
BLOCKS
  0
BLOCK
  5
20
330
1F
100
AcDbEntity
  8
0
100
AcDbBlockBegin
  2
*Model_Space
 70
     0
 10
0.0
 20
0.0
 30
0.0
  3
*Model_Space
  1
*Model_Space
  0
ENDBLK
  5
21
330
1F
100
AcDbEntity
  8
0
100
AcDbBlockEnd
  0
BLOCK
  5
1C
330
1B
100
AcDbEntity
 67
     1
  8
0
100
AcDbBlockBegin
  2
*Paper_Space
 70
     0
 10
0.0
 20
0.0
 30
0.0
  3
*Paper_Space
  1
*Paper_Space
  0
ENDBLK
  5
1D
330
1B
100
AcDbEntity
 67
     1
  8
0
100
AcDbBlockEnd
  0
BLOCK
  5
24
330
23
100
AcDbEntity
  8
0
100
AcDbBlockBegin
  2
*Paper_Space0
 70
     0
 10
0.0
 20
0.0
 30
0.0
  3
*Paper_Space0
  1
*Paper_Space0
  0
ENDBLK
  5
25
330
23
100
AcDbEntity
  8
0
100
AcDbBlockEnd
  0
BLOCK
  5
80
330
7F
100
AcDbEntity
  8
0
100
AcDbBlockBegin
  2
블럭10
 70
     2
 10
0.0
 20
0.0
 30
0.0
  3
블럭10
  1
블럭10
  0
ELLIPSE
  5
82
330
7F
100
AcDbEntity
  8
중심선
100
AcDbEllipse
 10
20.54032771741204
 20
12.0471743016438
 30
0.0
 11
6.600054785286829
 21
-1.261213355974178E-13
 31
0.0
210
0.0
220
0.0
230
1.0
 40
0.636358354079598
 41
0.9219305317359503
 42
6.513795318482858
  0
ELLIPSE
  5
83
330
7F
100
AcDbEntity
  8
중심선
100
AcDbEllipse
 10
20.54032771746488
 20
12.04717430159265
 30
0.0
 11
3.960054785062283
 21
1.540847449632565E-10
 31
0.0
210
0.0
220
0.0
230
1.0
 40
0.3939339440162632
 41
1.131841032648279
 42
5.62031148352944
  0
LINE
  5
84
330
7F
100
AcDbEntity
  8
중심선
100
AcDbLine
 10
2.268634060543552
 20
16.24717430164393
 30
0.0
 11
5.714909304380834
 21
16.24717430164393
 31
0.0
  0
LINE
  5
85
330
7F
100
AcDbEntity
  8
중심선
100
AcDbLine
 10
5.245725140726316
 20
7.84717430164391
 30
0.0
 11
8.692000384563599
 21
7.84717430164391
 31
0.0
  0
LINE
  5
86
330
7F
100
AcDbEntity
  8
중심선
100
AcDbLine
 10
15.74043728645272
 20
16.24717430164393
 30
0.0
 11
8.692000384563599
 21
7.84717430164391
 31
0.0
  0
LINE
  5
87
330
7F
100
AcDbEntity
  8
중심선
100
AcDbLine
 10
0.1404042013395286
 20
13.71084872107135
 30
0.0
 11
3.58671253028996
 21
13.71088815037384
 31
0.0
  0
LINE
  5
88
330
7F
100
AcDbEntity
  8
중심선
100
AcDbLine
 10
2.750260043222114
 20
10.84717430164391
 30
0.0
 11
6.196535287059397
 21
10.84717430164391
 31
0.0
  0
LINE
  5
89
330
7F
100
AcDbEntity
  8
중심선
100
AcDbLine
 10
12.29416204261559
 20
16.24717430164393
 30
0.0
 11
5.245725140726316
 21
7.84717430164391
 31
0.0
  0
LINE
  5
8A
330
7F
100
AcDbEntity
  8
중심선
100
AcDbLine
 10
10.72767329541681
 20
16.24717430164393
 30
0.0
 11
6.196535287059397
 21
10.84717430164391
 31
0.0
  0
LINE
  5
8B
330
7F
100
AcDbEntity
  8
중심선
100
AcDbLine
 10
7.28139805157953
 20
16.24717430164393
 30
0.0
 11
2.750260043222114
 21
10.84717430164391
 31
0.0
  0
LINE
  5
8C
330
7F
100
AcDbEntity
  8
중심선
100
AcDbLine
 10
5.714909304380834
 20
16.24717430164393
 30
0.0
 11
3.58671253028996
 21
13.71088815037384
 31
0.0
  0
LINE
  5
8D
330
7F
100
AcDbEntity
  8
중심선
100
AcDbLine
 10
2.268634060543552
 20
16.24717430164393
 30
0.0
 11
0.1404042013395286
 21
13.71084872107135
 31
0.0
  0
LINE
  5
8E
330
7F
100
AcDbEntity
  8
중심선
100
AcDbLine
 10
7.28139805157953
 20
16.24717430164393
 30
0.0
 11
10.72767329541681
 21
16.24717430164393
 31
0.0
  0
LINE
  5
8F
330
7F
100
AcDbEntity
  8
중심선
100
AcDbLine
 10
12.29416204261559
 20
16.24717430164393
 30
0.0
 11
15.74043728645272
 21
16.24717430164393
 31
0.0
  0
LINE
  5
90
330
7F
100
AcDbEntity
  8
중심선
100
AcDbLine
 10
19.22036997980202
 20
11.08717430171403
 30
0.0
 11
23.66174974927406
 21
11.08717430171406
 31
0.0
  0
LINE
  5
91
330
7F
100
AcDbEntity
  8
중심선
100
AcDbLine
 10
19.22039502424796
 20
13.00717430171391
 30
0.0
 11
19.22036997980202
 21
11.08717430171403
 31
0.0
  0
LINE
  5
92
330
7F
100
AcDbEntity
  8
중심선
100
AcDbLine
 10
19.22039502424796
 20
13.00717430171391
 30
0.0
 11
26.96566020931264
 21
13.00717430171391
 31
0.0
  0
LINE
  5
93
330
7F
100
AcDbEntity
  8
중심선
100
AcDbLine
 10
22.22332737316547
 20
13.45928029700563
 30
0.0
 11
24.52862924686651
 21
15.39360700705356
 31
0.0
  0
ATTDEF
  5
95
330
7F
100
AcDbEntity
  8
FORMAT
 62
     2
100
AcDbText
 10
4.408487351596664
 20
2.075366912832191
 30
0.0
 40
4.233333333333333
  1
E1070056
 41
0.75
  7
SLDTEXTSTYLE0
 11
4.408487351596664
 21
-0.0412997538344756
 31
0.0
100
AcDbAttributeDefinition
  3

  2
AUTOATTR0
 70
     0
 74
     1
  0
ENDBLK
  5
81
330
7F
100
AcDbEntity
  8
0
100
AcDbBlockEnd
  0
BLOCK
  5
D5
330
D4
100
AcDbEntity
  8
0
100
AcDbBlockBegin
  2
_D
 70
     0
 10
0.0
 20
0.0
 30
0.0
  3
_D
  1
_D
  0
LINE
  5
D7
330
D4
100
AcDbEntity
  8
치수문자_일반주서
 62
     0
370
    -2
100
AcDbLine
 10
-44.21250000000002
 20
11.11249999999999
 30
0.0
 11
-57.65000000000007
 21
11.11249999999994
 31
0.0
  0
LINE
  5
D8
330
D4
100
AcDbEntity
  8
치수문자_일반주서
 62
     0
370
    -2
100
AcDbLine
 10
-44.21250000000002
 20
-11.1125
 30
0.0
 11
-57.64999999999999
 21
-11.11250000000005
 31
0.0
  0
LINE
  5
D9
330
D4
100
AcDbEntity
  8
치수문자_일반주서
 62
     0
370
    -2
100
AcDbLine
 10
-57.65000000000006
 20
7.810499999999944
 30
0.0
 11
-57.65000000000001
 21
-7.810500000000051
 31
0.0
  0
SOLID
  5
DA
330
D4
100
AcDbEntity
  8
치수문자_일반주서
 62
     0
100
AcDbTrace
 10
-57.09966666666672
 20
7.810499999999946
 30
0.0
 11
-58.20033333333339
 21
7.810499999999942
 31
0.0
 12
-57.65000000000007
 22
11.11249999999994
 32
0.0
 13
-57.65000000000007
 23
11.11249999999994
 33
0.0
  0
SOLID
  5
DB
330
D4
100
AcDbEntity
  8
치수문자_일반주서
 62
     0
100
AcDbTrace
 10
-58.20033333333334
 20
-7.810500000000053
 30
0.0
 11
-57.09966666666667
 21
-7.810500000000049
 31
0.0
 12
-57.64999999999999
 22
-11.11250000000005
 32
0.0
 13
-57.64999999999999
 23
-11.11250000000005
 33
0.0
  0
MTEXT
  5
DC
330
D4
100
AcDbEntity
  8
치수문자_일반주서
 62
     0
100
AcDbMText
 10
-62.02500000000003
 20
-0.0000000000000182
 30
0.0
 40
3.5
 41
0.0
 71
     2
 72
     1
  1
\A1;%%c22.23 [7/8]
  7
SLDTEXTSTYLE0
 11
-3.516746948643917E-15
 21
1.0
 31
0.0
 73
     1
 44
1.0
  0
POINT
  5
DD
330
D4
100
AcDbEntity
  8
Defpoints
 62
     0
100
AcDbPoint
 10
-44.15000000000002
 20
11.11249999999999
 30
0.0
  0
POINT
  5
DE
330
D4
100
AcDbEntity
  8
Defpoints
 62
     0
100
AcDbPoint
 10
-44.15000000000002
 20
-11.1125
 30
0.0
  0
POINT
  5
DF
330
D4
100
AcDbEntity
  8
Defpoints
 62
     0
100
AcDbPoint
 10
-57.64999999999999
 20
-11.11250000000005
 30
0.0
  0
ENDBLK
  5
D6
330
D4
100
AcDbEntity
  8
0
100
AcDbBlockEnd
  0
BLOCK
  5
EA
330
E9
100
AcDbEntity
  8
0
100
AcDbBlockBegin
  2
_D_1
 70
     0
 10
0.0
 20
0.0
 30
0.0
  3
_D_1
  1
_D_1
  0
LINE
  5
EC
330
E9
100
AcDbEntity
  8
치수문자_일반주서
 62
     0
370
    -2
100
AcDbLine
 10
59.62500000000004
 20
11.17500000000002
 30
0.0
 11
59.62500000000004
 21
20.78622867203551
 31
0.0
  0
LINE
  5
ED
330
E9
100
AcDbEntity
  8
치수문자_일반주서
 62
     0
370
    -2
100
AcDbLine
 10
12.00000000000001
 20
10.5154664702093
 30
0.0
 11
12.00000000000001
 21
20.78622867203551
 31
0.0
  0
LINE
  5
EE
330
E9
100
AcDbEntity
  8
치수문자_일반주서
 62
     0
370
    -2
100
AcDbLine
 10
56.32300000000004
 20
20.78622867203551
 30
0.0
 11
15.30200000000001
 21
20.78622867203551
 31
0.0
  0
SOLID
  5
EF
330
E9
100
AcDbEntity
  8
치수문자_일반주서
 62
     0
100
AcDbTrace
 10
56.32300000000004
 20
20.23589533870217
 30
0.0
 11
56.32300000000004
 21
21.33656200536884
 31
0.0
 12
59.62500000000004
 22
20.78622867203551
 32
0.0
 13
59.62500000000004
 23
20.78622867203551
 33
0.0
  0
SOLID
  5
F0
330
E9
100
AcDbEntity
  8
치수문자_일반주서
 62
     0
100
AcDbTrace
 10
15.30200000000001
 20
21.33656200536884
 30
0.0
 11
15.30200000000001
 21
20.23589533870217
 31
0.0
 12
12.00000000000001
 22
20.78622867203551
 32
0.0
 13
12.00000000000001
 23
20.78622867203551
 33
0.0
  0
MTEXT
  5
F1
330
E9
100
AcDbEntity
  8
치수문자_일반주서
 62
     0
100
AcDbMText
 10
37.01588748186177
 20
25.16122867203551
 30
0.0
 40
3.5
 41
0.0
 71
     2
 72
     1
  1
\A1;47.63 [1 7/8]
  7
SLDTEXTSTYLE0
 73
     1
 44
1.0
  0
POINT
  5
F2
330
E9
100
AcDbEntity
  8
Defpoints
 62
     0
100
AcDbPoint
 10
59.62500000000004
 20
11.11250000000002
 30
0.0
  0
POINT
  5
F3
330
E9
100
AcDbEntity
  8
Defpoints
 62
     0
100
AcDbPoint
 10
12.00000000000001
 20
10.4529664702093
 30
0.0
  0
POINT
  5
F4
330
E9
100
AcDbEntity
  8
Defpoints
 62
     0
100
AcDbPoint
 10
12.00000000000001
 20
20.78622867203551
 30
0.0
  0
ENDBLK
  5
EB
330
E9
100
AcDbEntity
  8
0
100
AcDbBlockEnd
  0
BLOCK
  5
FE
330
FD
100
AcDbEntity
  8
0
100
AcDbBlockBegin
  2
_D_2
 70
     0
 10
0.0
 20
0.0
 30
0.0
  3
_D_2
  1
_D_2
  0
LINE
  5
100
330
FD
100
AcDbEntity
  8
치수문자_일반주서
 62
     0
370
    -2
100
AcDbLine
 10
59.62500000000003
 20
11.17500000000001
 30
0.0
 11
59.62500000000003
 21
41.0706349747236
 31
0.0
  0
LINE
  5
101
330
FD
100
AcDbEntity
  8
치수문자_일반주서
 62
     0
370
    -2
100
AcDbLine
 10
-45.15000000000001
 20
10.17499999999999
 30
0.0
 11
-45.15000000000001
 21
41.0706349747236
 31
0.0
  0
LINE
  5
102
330
FD
100
AcDbEntity
  8
치수문자_일반주서
 62
     0
370
    -2
100
AcDbLine
 10
56.32300000000003
 20
41.0706349747236
 30
0.0
 11
-41.84800000000001
 21
41.0706349747236
 31
0.0
  0
SOLID
  5
103
330
FD
100
AcDbEntity
  8
치수문자_일반주서
 62
     0
100
AcDbTrace
 10
56.32300000000003
 20
40.52030164139026
 30
0.0
 11
56.32300000000003
 21
41.62096830805693
 31
0.0
 12
59.62500000000003
 22
41.0706349747236
 32
0.0
 13
59.62500000000003
 23
41.0706349747236
 33
0.0
  0
SOLID
  5
104
330
FD
100
AcDbEntity
  8
치수문자_일반주서
 62
     0
100
AcDbTrace
 10
-41.84800000000001
 20
41.62096830805693
 30
0.0
 11
-41.84800000000001
 21
40.52030164139026
 31
0.0
 12
-45.15000000000001
 22
41.0706349747236
 32
0.0
 13
-45.15000000000001
 23
41.0706349747236
 33
0.0
  0
MTEXT
  5
105
330
FD
100
AcDbEntity
  8
치수문자_일반주서
 62
     0
100
AcDbMText
 10
7.237499999999862
 20
45.4456349747236
 30
0.0
 40
3.5
 41
0.0
 71
     2
 72
     1
  1
\A1;104.78 [4 1/8]
  7
SLDTEXTSTYLE0
 73
     1
 44
1.0
  0
POINT
  5
106
330
FD
100
AcDbEntity
  8
Defpoints
 62
     0
100
AcDbPoint
 10
59.62500000000003
 20
11.11250000000001
 30
0.0
  0
POINT
  5
107
330
FD
100
AcDbEntity
  8
Defpoints
 62
     0
100
AcDbPoint
 10
-45.15000000000001
 20
10.11249999999999
 30
0.0
  0
POINT
  5
108
330
FD
100
AcDbEntity
  8
Defpoints
 62
     0
100
AcDbPoint
 10
-45.15000000000001
 20
41.0706349747236
 30
0.0
  0
ENDBLK
  5
FF
330
FD
100
AcDbEntity
  8
0
100
AcDbBlockEnd
  0
BLOCK
  5
111
330
110
100
AcDbEntity
  8
0
100
AcDbBlockBegin
  2
_D_3
 70
     0
 10
0.0
 20
0.0
 30
0.0
  3
_D_3
  1
_D_3
  0
LINE
  5
113
330
110
100
AcDbEntity
  8
치수문자_일반주서
 62
     0
370
    -2
100
AcDbLine
 10
59.68750000000004
 20
-11.1125
 30
0.0
 11
79.05163779259985
 21
-11.11249999999993
 31
0.0
  0
LINE
  5
114
330
110
100
AcDbEntity
  8
치수문자_일반주서
 62
     0
370
    -2
100
AcDbLine
 10
59.68750000000004
 20
11.11250000000002
 30
0.0
 11
79.05163779259978
 21
11.11250000000009
 31
0.0
  0
LINE
  5
115
330
110
100
AcDbEntity
  8
치수문자_일반주서
 62
     0
370
    -2
100
AcDbLine
 10
79.05163779259978
 20
11.11250000000009
 30
0.0
 11
79.05163779259966
 21
46.59150000000009
 31
0.0
  0
LINE
  5
116
330
110
100
AcDbEntity
  8
치수문자_일반주서
 62
     0
370
    -2
100
AcDbLine
 10
79.05163779259985
 20
-11.11249999999993
 30
0.0
 11
79.05163779259978
 21
11.11250000000009
 31
0.0
  0
LINE
  5
117
330
110
100
AcDbEntity
  8
치수문자_일반주서
 62
     0
370
    -2
100
AcDbLine
 10
79.05163779259986
 20
-14.41449999999993
 30
0.0
 11
79.05163779259988
 21
-17.71649999999993
 31
0.0
  0
LINE
  5
118
330
110
100
AcDbEntity
  8
치수문자_일반주서
 62
     0
370
    -2
100
AcDbLine
 10
79.05163779259976
 20
14.41450000000009
 30
0.0
 11
79.05163779259975
 21
17.71650000000009
 31
0.0
  0
SOLID
  5
119
330
110
100
AcDbEntity
  8
치수문자_일반주서
 62
     0
100
AcDbTrace
 10
79.60197112593319
 20
-14.41449999999993
 30
0.0
 11
78.50130445926654
 21
-14.41449999999993
 31
0.0
 12
79.05163779259985
 22
-11.11249999999993
 32
0.0
 13
79.05163779259985
 23
-11.11249999999993
 33
0.0
  0
SOLID
  5
11A
330
110
100
AcDbEntity
  8
치수문자_일반주서
 62
     0
100
AcDbTrace
 10
78.50130445926644
 20
14.41450000000009
 30
0.0
 11
79.60197112593309
 21
14.41450000000009
 31
0.0
 12
79.05163779259978
 22
11.11250000000009
 32
0.0
 13
79.05163779259978
 23
11.11250000000009
 33
0.0
  0
MTEXT
  5
11B
330
110
100
AcDbEntity
  8
치수문자_일반주서
 62
     0
100
AcDbMText
 10
74.6766377925997
 20
32.15400000000007
 30
0.0
 40
3.5
 41
0.0
 71
     2
 72
     1
  1
\A1;%%c22.23 [7/8]
  7
SLDTEXTSTYLE0
 11
-3.197042680585375E-15
 21
1.0
 31
0.0
 73
     1
 44
1.0
  0
POINT
  5
11C
330
110
100
AcDbEntity
  8
Defpoints
 62
     0
100
AcDbPoint
 10
59.62500000000004
 20
-11.1125
 30
0.0
  0
POINT
  5
188
330
110
100
AcDbEntity
  8
Defpoints
 62
     0
100
AcDbPoint
 10
59.62500000000004
 20
11.11250000000002
 30
0.0
  0
POINT
  5
189
330
110
100
AcDbEntity
  8
Defpoints
 62
     0
100
AcDbPoint
 10
79.05163779259978
 20
11.11250000000009
 30
0.0
  0
ENDBLK
  5
112
330
110
100
AcDbEntity
  8
0
100
AcDbBlockEnd
  0
BLOCK
  5
12A
330
129
100
AcDbEntity
  8
0
100
AcDbBlockBegin
  2
SW_DOWELSYMBOL_0
 70
     0
 10
0.0
 20
0.0
 30
0.0
  3
SW_DOWELSYMBOL_0
  1
SW_DOWELSYMBOL_0
  0
CIRCLE
  5
12C
330
129
100
AcDbEntity
  8
해칭선
 62
     0
100
AcDbCircle
 10
0.0
 20
0.0
 30
0.0
 40
2.999999999999996
  0
HATCH
  5
12D
330
129
100
AcDbEntity
  8
0
  6
Continuous
 62
     0
370
     0
100
AcDbHatch
 10
0.0
 20
0.0
 30
0.0
210
0.0
220
0.0
230
1.0
  2
SOLID
 70
     1
 71
     0
 91
        1
 92
        0
 93
        3
 72
     2
 10
0.0
 20
0.0
 40
2.999999999999996
 50
0.0
 51
90.0
 73
     1
 72
     1
 10
0.0
 20
2.999999999999996
 11
0.0
 21
0.0
 72
     1
 10
0.0
 20
0.0
 11
2.999999999999996
 21
0.0
 97
        0
 75
     0
 76
     1
 98
        1
 10
0.0
 20
0.0
  0
HATCH
  5
12E
330
129
100
AcDbEntity
  8
0
  6
Continuous
 62
     0
370
     0
100
AcDbHatch
 10
0.0
 20
0.0
 30
0.0
210
0.0
220
0.0
230
1.0
  2
SOLID
 70
     1
 71
     0
 91
        1
 92
        0
 93
        3
 72
     2
 10
0.0
 20
0.0
 40
2.999999999999996
 50
180.0
 51
270.0000000000007
 73
     1
 72
     1
 10
0.0
 20
-2.999999999999996
 11
0.0
 21
0.0
 72
     1
 10
0.0
 20
0.0
 11
-2.999999999999996
 21
0.0
 97
        0
 75
     0
 76
     1
 98
        1
 10
0.0
 20
0.0
  0
ENDBLK
  5
12B
330
129
100
AcDbEntity
  8
0
100
AcDbBlockEnd
  0
ENDSEC
  0
SECTION
  2
ENTITIES
  0
LINE
  5
96
330
1F
100
AcDbEntity
  8
외형선
  6
Continuous
370
    15
100
AcDbLine
 10
8.95007748763294
 20
11.1125
 30
0.0
 11
-11.91092499999985
 21
11.1125
 31
0.0
  0
LINE
  5
97
330
1F
100
AcDbEntity
  8
외형선
  6
Continuous
370
    15
100
AcDbLine
 10
-44.15000000000001
 20
-11.11250000000001
 30
0.0
 11
8.95007748763294
 21
-11.1125
 31
0.0
  0
LINE
  5
99
330
1F
100
AcDbEntity
  8
외형선
  6
Continuous
370
    15
100
AcDbLine
 10
-45.15000000000001
 20
-10.1125
 30
0.0
 11
-44.15000000000001
 21
-11.1125
 31
0.0
  0
SPLINE
  5
9A
330
1F
100
AcDbEntity
  8
외형선
  6
Continuous
370
    15
100
AcDbSpline
210
0.0
220
0.0
230
1.0
 70
     8
 71
     3
 72
     9
 73
     5
 74
     0
 42
0.000000001
 43
0.00000001
 40
0.0
 40
0.0
 40
0.0
 40
0.0
 40
0.4997869395091632
 40
1.0
 40
1.0
 40
1.0
 40
1.0
 10
10.44757817647225
 20
-9.2471440651092
 30
0.0
 10
10.70655829490829
 20
-9.221643076720586
 30
0.0
 10
11.22473933959581
 20
-9.170619357666094
 30
0.0
 10
11.74150637810603
 20
-9.124304628138155
 30
0.0
 10
12.00000000000001
 20
-9.10113739553518
 30
0.0
  0
SPLINE
  5
9B
330
1F
100
AcDbEntity
  8
0
  6
Continuous
 62
     1
370
    15
100
AcDbSpline
210
0.0
220
0.0
230
1.0
 70
     8
 71
     3
 72
     9
 73
     5
 74
     0
 42
0.000000001
 43
0.00000001
 40
0.0
 40
0.0
 40
0.0
 40
0.0
 40
0.5238344649675519
 40
1.0
 40
1.0
 40
1.0
 40
1.0
 10
30.83470129297494
 20
2.847561499238253
 30
0.0
 10
30.29670961298911
 20
3.104437575319796
 30
0.0
 10
29.26968348934687
 20
3.594814007686565
 30
0.0
 10
28.24206084750438
 20
4.133100364032651
 30
0.0
 10
27.75274236243999
 20
4.389413774902851
 30
0.0
  0
SPLINE
  5
9C
330
1F
100
AcDbEntity
  8
0
  6
Continuous
 62
     1
370
    15
100
AcDbSpline
210
0.0
220
0.0
230
1.0
 70
     8
 71
     3
 72
    24
 73
    20
 74
     0
 42
0.000000001
 43
0.00000001
 40
0.0
 40
0.0
 40
0.0
 40
0.0
 40
0.1173985209794064
 40
0.2078660235573784
 40
0.2706220627750452
 40
0.3093906430268273
 40
0.347303125686186
 40
0.3912028101689282
 40
0.4392870693038763
 40
0.4843798827505009
 40
0.5257631920945687
 40
0.5650203368748244
 40
0.6378123405945769
 40
0.7258704867838087
 40
0.8056193305390338
 40
0.8621438681602274
 40
0.9124547297150767
 40
0.9787325103046008
 40
1.0
 40
1.0
 40
1.0
 40
1.0
 10
27.16107570542683
 20
8.830424333478213
 30
0.0
 10
26.80779387783134
 20
8.812532348832413
 30
0.0
 10
26.18227246508512
 20
8.780852769985554
 30
0.0
 10
25.3694418262798
 20
8.748837912492384
 30
0.0
 10
24.79305188593174
 20
8.729597020435676
 30
0.0
 10
24.37558698876681
 20
8.71751446664436
 30
0.0
 10
24.01422983148142
 20
8.708217902639294
 30
0.0
 10
23.62452453070778
 20
8.69954751778075
 30
0.0
 10
23.21305150055333
 20
8.692004841795452
 30
0.0
 10
22.80992616386821
 20
8.686218863405852
 30
0.0
 10
22.43396108813683
 20
8.682213091966716
 30
0.0
 10
21.97619300455919
 20
8.678909819384774
 30
0.0
 10
21.37552193388401
 20
8.677486945784512
 30
0.0
 10
20.65095709540002
 20
8.680822727995622
 30
0.0
 10
19.97525127113241
 20
8.688827560205908
 30
0.0
 10
19.41449393729491
 20
8.698721553834751
 30
0.0
 10
18.89500425958837
 20
8.71045843053281
 30
0.0
 10
18.48113301668464
 20
8.721257144825248
 30
0.0
 10
18.21828160913951
 20
8.730025514069172
 30
0.0
 10
18.15442676486074
 20
8.732155625746636
 30
0.0
  0
SPLINE
  5
9D
330
1F
100
AcDbEntity
  8
0
  6
Continuous
 62
     1
370
    15
100
AcDbSpline
210
0.0
220
0.0
230
1.0
 70
     8
 71
     3
 72
    39
 73
    35
 74
     0
 42
0.000000001
 43
0.00000001
 40
0.0
 40
0.0
 40
0.0
 40
0.0
 40
0.0553631583993357
 40
0.100345908458624
 40
0.1348146371423354
 40
0.165604580286298
 40
0.189586639512594
 40
0.2093887354955957
 40
0.2315938900526903
 40
0.258029046746308
 40
0.3155127919006736
 40
0.3694662626560353
 40
0.396751321439235
 40
0.421615070619065
 40
0.4502657303086711
 40
0.4831675575521875
 40
0.5152570490216974
 40
0.539484382032556
 40
0.5582620135373079
 40
0.5826538755969983
 40
0.6168723779695257
 40
0.6538532501025833
 40
0.6855409240574869
 40
0.7139448544816583
 40
0.7505063937892406
 40
0.7883577160024593
 40
0.8211547946827523
 40
0.8478780419316851
 40
0.8734673900146627
 40
0.8913434046523557
 40
0.9099594732942241
 40
0.9293797326973666
 40
0.9615534705853712
 40
0.9999999999999999
 40
0.9999999999999999
 40
0.9999999999999999
 40
0.9999999999999999
 10
55.4966209627154
 20
7.600430178052757
 30
0.0
 10
55.13788720450349
 20
7.570957124560392
 30
0.0
 10
54.48768107639751
 20
7.517537117226119
 30
0.0
 10
53.61413887468632
 20
7.45973765461452
 30
0.0
 10
52.89955622869001
 20
7.418795341602572
 30
0.0
 10
52.31679189837568
 20
7.390392190996885
 30
0.0
 10
51.8303718455854
 20
7.37010856548059
 30
0.0
 10
51.40222005743697
 20
7.354658861493341
 30
0.0
 10
50.95791698995758
 20
7.341007213866494
 30
0.0
 10
50.26864872122216
 20
7.324117537158671
 30
0.0
 10
49.37368156914823
 20
7.311804239417468
 30
0.0
 10
48.47362897668085
 20
7.312421136550602
 30
0.0
 10
47.78486197569013
 20
7.320084553799105
 30
0.0
 10
47.26009648942059
 20
7.32944485166622
 30
0.0
 10
46.6990563287581
 20
7.343313481282216
 30
0.0
 10
46.09140688562876
 20
7.363191316416157
 30
0.0
 10
45.51238504360429
 20
7.386933045842659
 30
0.0
 10
45.02488815807745
 20
7.410370126534379
 30
0.0
 10
44.58724822767358
 20
7.433775291741798
 30
0.0
 10
44.08490669776965
 20
7.463363571334934
 30
0.0
 10
43.46440153718635
 20
7.504461715145987
 30
0.0
 10
42.79665639448771
 20
7.554732916943265
 30
0.0
 10
42.16640823826764
 20
7.607480727188551
 30
0.0
 10
41.53858446614644
 20
7.664487692007157
 30
0.0
 10
40.87144590079367
 20
7.730217983780932
 30
0.0
 10
40.1760162591712
 20
7.804839604650875
 30
0.0
 10
39.54313462363023
 20
7.878124596055213
 30
0.0
 10
38.99176670064388
 20
7.945761855501641
 30
0.0
 10
38.52827048006971
 20
8.005238650370533
 30
0.0
 10
38.1156354789516
 20
8.059774620722493
 30
0.0
 10
37.7449384404331
 20
8.109559042376365
 30
0.0
 10
37.27719173406247
 20
8.172747366633924
 30
0.0
 10
36.69089733142905
 20
8.260934557974185
 30
0.0
 10
36.2973711771087
 20
8.323842421012728
 30
0.0
 10
36.08313076928545
 20
8.358090224074108
 30
0.0
  0
SPLINE
  5
9E
330
1F
100
AcDbEntity
  8
0
  6
Continuous
 62
     1
370
    15
100
AcDbSpline
210
0.0
220
0.0
230
1.0
 70
     8
 71
     3
 72
    21
 73
    17
 74
     0
 42
0.000000001
 43
0.00000001
 40
0.0
 40
0.0
 40
0.0
 40
0.0
 40
0.0899963793370077
 40
0.1653092869971878
 40
0.2391396486389584
 40
0.3081125758357714
 40
0.3731181620855258
 40
0.4468210817627003
 40
0.5430009776886173
 40
0.6384593431602452
 40
0.7104539953015392
 40
0.7722308352869305
 40
0.8439047850155945
 40
0.9236504951739125
 40
0.9903710570446217
 40
1.0
 40
1.0
 40
1.0
 40
1.0
 10
36.08313076928545
 20
-8.358090224074115
 30
0.0
 10
36.29729412052048
 20
-8.323828929598065
 30
0.0
 10
36.69067873392827
 20
-8.260896284938806
 30
0.0
 10
37.3568163399997
 20
-8.161000133576103
 30
0.0
 10
37.97765134215182
 20
-8.078312064295005
 30
0.0
 10
38.56811827522962
 20
-7.999756071951989
 30
0.0
 10
39.1507053823382
 20
-7.925841271489743
 30
0.0
 10
39.80090214396564
 20
-7.84744163918399
 30
0.0
 10
40.53729931861317
 20
-7.76506713899808
 30
0.0
 10
41.26773233880409
 20
-7.690449226581671
 30
0.0
 10
41.90357179410557
 20
-7.630871526695627
 30
0.0
 10
42.47363925180814
 20
-7.581357124279882
 30
0.0
 10
43.06475244471404
 20
-7.533923394378672
 30
0.0
 10
43.66965292238524
 20
-7.4906481512892
 30
0.0
 10
44.10248247384705
 20
-7.462317810369048
 30
0.0
 10
44.31422489172245
 20
-7.450120929739442
 30
0.0
 10
44.34092913384686
 20
-7.448582700145372
 30
0.0
  0
SPLINE
  5
9F
330
1F
100
AcDbEntity
  8
0
  6
Continuous
 62
     1
370
    15
100
AcDbSpline
210
0.0
220
0.0
230
1.0
 70
     8
 71
     3
 72
    34
 73
    30
 74
     0
 42
0.000000001
 43
0.00000001
 40
0.0
 40
0.0
 40
0.0
 40
0.0
 40
0.0636339607616812
 40
0.1107788151137837
 40
0.1417252946933484
 40
0.1668811301859377
 40
0.1910861471436801
 40
0.2402477177726535
 40
0.3004955950078199
 40
0.3445454720940591
 40
0.3779312554606328
 40
0.4018529366590125
 40
0.4322321337332509
 40
0.4731591386004373
 40
0.5090668552522806
 40
0.5355034088959105
 40
0.5587370858659649
 40
0.589016870947027
 40
0.6262493905381626
 40
0.6680385999189411
 40
0.7018974067253765
 40
0.7359226720036612
 40
0.7625115176261129
 40
0.7810446070814897
 40
0.8075627820396711
 40
0.8529685939560477
 40
0.8936698004244445
 40
0.9426061075643565
 40
1.0
 40
1.0
 40
1.0
 40
1.0
 10
12.00000000000001
 20
-9.10113739553518
 30
0.0
 10
12.32439551399065
 20
-9.073728027784934
 30
0.0
 10
12.88912777704584
 20
-9.026011725891323
 30
0.0
 10
13.61094294082612
 20
-8.971600920135288
 30
0.0
 10
14.13375285544418
 20
-8.934673945360572
 30
0.0
 10
14.53878896622865
 20
-8.907635717607647
 30
0.0
 10
15.03634037438859
 20
-8.876059983655274
 30
0.0
 10
15.71116339206691
 20
-8.836570105316078
 30
0.0
 10
16.48576479204769
 20
-8.797008833764664
 30
0.0
 10
17.18083646593091
 20
-8.766723759539389
 30
0.0
 10
17.69250446015221
 20
-8.747227750504145
 30
0.0
 10
18.13524517785661
 20
-8.732156887516421
 30
0.0
 10
18.61614323456644
 20
-8.717638931876973
 30
0.0
 10
19.1575394618079
 20
-8.70403608948936
 30
0.0
 10
19.67890982270105
 20
-8.693811855539646
 30
0.0
 10
20.11094039397503
 20
-8.687308191328508
 30
0.0
 10
20.51440134977309
 20
-8.682684720199042
 30
0.0
 10
20.9724302680541
 20
-8.679208441011955
 30
0.0
 10
21.52419083323689
 20
-8.677712168921222
 30
0.0
 10
22.09401060603111
 20
-8.6794215871687
 30
0.0
 10
22.6477006357798
 20
-8.684129579073005
 30
0.0
 10
23.12448853062855
 20
-8.690532983727326
 30
0.0
 10
23.5235966828379
 20
-8.69764358205681
 30
0.0
 10
23.87967616341552
 20
-8.705076739440958
 30
0.0
 10
24.33392170363595
 20
-8.71600384379451
 30
0.0
 10
24.90285449697802
 20
-8.732667984722081
 30
0.0
 10
25.5859184693781
 20
-8.756988911795702
 30
0.0
 10
26.33052192513065
 20
-8.78798082953335
 30
0.0
 10
26.86992298781044
 20
-8.815545656369189
 30
0.0
 10
27.16107570542682
 20
-8.830424333478216
 30
0.0
  0
SPLINE
  5
A0
330
1F
100
AcDbEntity
  8
외형선
  6
Continuous
370
    15
100
AcDbSpline
210
0.0
220
0.0
230
1.0
 70
     8
 71
     3
 72
    10
 73
     6
 74
     0
 42
0.000000001
 43
0.00000001
 40
0.0
 40
0.0
 40
0.0
 40
0.0
 40
0.5
 40
0.5
 40
1.0
 40
1.0
 40
1.0
 40
1.0
 10
11.99999999999986
 20
10.45296647020934
 30
0.0
 10
11.4919980196513
 20
10.55253654470529
 30
0.0
 10
10.98229293899118
 20
10.64127125409606
 30
0.0
 10
9.96426883391133
 20
10.79619147287
 30
0.0
 10
9.457370996917394
 20
10.86232815918662
 30
0.0
 10
8.950158558615865
 20
10.9170794287966
 30
0.0
  0
LINE
  5
A1
330
1F
100
AcDbEntity
  8
외형선
  6
Continuous
370
    15
100
AcDbLine
 10
12.00000000000001
 20
10.4529664702093
 30
0.0
 11
12.00000000000001
 21
9.004828892702673
 31
0.0
  0
SPLINE
  5
A2
330
1F
100
AcDbEntity
  8
외형선
  6
Continuous
370
    15
100
AcDbSpline
210
0.0
220
0.0
230
1.0
 70
     8
 71
     3
 72
    10
 73
     6
 74
     0
 42
0.000000001
 43
0.00000001
 40
0.0
 40
0.0
 40
0.0
 40
0.0
 40
0.5
 40
0.5
 40
1.0
 40
1.0
 40
1.0
 40
1.0
 10
11.99999999999986
 20
9.004828892702726
 30
0.0
 10
11.491984486791
 20
9.176749965450767
 30
0.0
 10
10.98226578249325
 20
9.33943242522826
 30
0.0
 10
9.96421463180418
 20
9.644751667903144
 30
0.0
 10
9.457303670454726
 20
9.787266531038693
 30
0.0
 10
8.95007748763294
 20
9.919452758142203
 30
0.0
  0
SPLINE
  5
A3
330
1F
100
AcDbEntity
  8
외형선
  6
Continuous
370
    15
100
AcDbSpline
210
0.0
220
0.0
230
1.0
 70
     8
 71
     3
 72
    10
 73
     6
 74
     0
 42
0.000000001
 43
0.00000001
 40
0.0
 40
0.0
 40
0.0
 40
0.0
 40
0.5
 40
0.5
 40
1.0
 40
1.0
 40
1.0
 40
1.0
 10
11.99999999999986
 20
-10.45296647020934
 30
0.0
 10
11.4919980196513
 20
-10.55253654470529
 30
0.0
 10
10.98229293899118
 20
-10.64127125409606
 30
0.0
 10
9.96426883391133
 20
-10.79619147287001
 30
0.0
 10
9.457370996917394
 20
-10.86232815918662
 30
0.0
 10
8.950158558615865
 20
-10.9170794287966
 30
0.0
  0
LINE
  5
A4
330
1F
100
AcDbEntity
  8
외형선
  6
Continuous
370
    15
100
AcDbLine
 10
8.95007748763294
 20
10.91716834131949
 30
0.0
 11
8.95007748763294
 21
11.1125
 31
0.0
  0
LINE
  5
A5
330
1F
100
AcDbEntity
  8
외형선
  6
Continuous
370
    15
100
AcDbLine
 10
-44.15000000000001
 20
9.461499999999987
 30
0.0
 11
-44.15000000000001
 21
-11.11250000000001
 31
0.0
  0
LINE
  5
A6
330
1F
100
AcDbEntity
  8
외형선
  6
Continuous
370
    15
100
AcDbLine
 10
8.95007748763294
 20
-11.1125
 30
0.0
 11
8.95007748763294
 21
9.9194535223087
 31
0.0
  0
LINE
  5
A7
330
1F
100
AcDbEntity
  8
외형선
  6
Continuous
370
    15
100
AcDbLine
 10
-45.15000000000001
 20
9.461499999999987
 30
0.0
 11
-45.15000000000001
 21
-10.1125
 31
0.0
  0
SPLINE
  5
A8
330
1F
100
AcDbEntity
  8
외형선
  6
Continuous
370
    15
100
AcDbSpline
210
0.0
220
0.0
230
1.0
 70
    24
 71
     3
 72
    14
 73
    10
 74
     0
 42
0.000000001
 43
0.00000001
 40
0.0
 40
0.0
 40
0.0
 40
0.0
 40
0.25
 40
0.25
 40
0.5
 40
0.5
 40
0.75
 40
0.75
 40
1.0
 40
1.0
 40
1.0
 40
1.0
 10
12.0
 20
6.110689776140148
 30
0.0
 10
12.0
 20
5.350893878645134
 30
0.0
 10
12.0
 20
4.489979842379478
 30
0.0
 10
12.0
 20
2.622362476871724
 30
0.0
 10
12.0
 20
1.616283573455216
 30
0.0
 10
12.0
 20
-0.4474451678372175
 30
0.0
 10
12.0
 20
-1.503995364758956
 30
0.0
 10
12.0
 20
-3.563924666122711
 30
0.0
 10
12.0
 20
-4.566409232248553
 30
0.0
 10
12.0
 20
-5.500981377057014
 30
0.0
  0
SPLINE
  5
A9
330
1F
100
AcDbEntity
  8
외형선
  6
Continuous
370
    15
100
AcDbSpline
210
0.0
220
0.0
230
1.0
 70
     8
 71
     3
 72
    10
 73
     6
 74
     0
 42
0.000000001
 43
0.00000001
 40
0.0
 40
0.0
 40
0.0
 40
0.0
 40
0.5000000000000001
 40
0.5000000000000001
 40
1.0
 40
1.0
 40
1.0
 40
1.0
 10
11.99999999999971
 20
-5.500981377056912
 30
0.0
 10
11.4919894302827
 20
-5.316598541143748
 30
0.0
 10
10.98227570263763
 20
-5.126249041145346
 30
0.0
 10
9.964234431584412
 20
-4.735385285321308
 30
0.0
 10
9.457328264507277
 20
-4.535064814625075
 30
0.0
 10
8.950107102495627
 20
-4.33018186740157
 30
0.0
  0
SPLINE
  5
AA
330
1F
100
AcDbEntity
  8
외형선
  6
Continuous
370
    15
100
AcDbSpline
210
0.0
220
0.0
230
1.0
 70
     8
 71
     3
 72
    10
 73
     6
 74
     0
 42
0.000000001
 43
0.00000001
 40
0.0
 40
0.0
 40
0.0
 40
0.0
 40
0.5
 40
0.5
 40
1.0
 40
1.0
 40
1.0
 40
1.0
 10
11.9999999999996
 20
6.110689776140249
 30
0.0
 10
11.49198774850681
 20
6.237772926572949
 30
0.0
 10
10.98227232780469
 20
6.358598448107607
 30
0.0
 10
9.964227695699506
 20
6.586571744227367
 30
0.0
 10
9.457319897611772
 20
6.693627130748126
 30
0.0
 10
8.950097027520648
 20
6.793610683639269
 30
0.0
  0
LINE
  5
AB
330
1F
100
AcDbEntity
  8
외형선
  6
Continuous
370
    15
100
AcDbLine
 10
10.45580576926299
 20
-9.21745131603678
 30
0.0
 11
8.950158558615865
 21
-9.368944623787208
 31
0.0
  0
SPLINE
  5
AC
330
1F
100
AcDbEntity
  8
외형선
  6
Continuous
370
    15
100
AcDbSpline
210
0.0
220
0.0
230
1.0
 70
    24
 71
     3
 72
    15
 73
    11
 74
     0
 42
0.000000001
 43
0.00000001
 40
0.0
 40
0.0
 40
0.0
 40
0.0
 40
0.1459052465411054
 40
0.2918104930822107
 40
0.3987067658565226
 40
0.5056030386308347
 40
0.6156048794096821
 40
0.7256067201885297
 40
0.9186474178192465
 40
1.0
 40
1.0
 40
1.0
 40
1.0
 10
12.00000000000001
 20
-5.500981377057022
 30
0.0
 10
12.00000000000001
 20
-5.817972732407063
 30
0.0
 10
12.00000000000001
 20
-6.451955443107147
 30
0.0
 10
12.00000000000001
 20
-7.179359797397624
 30
0.0
 10
12.00000000000001
 20
-7.746398031713379
 30
0.0
 10
12.00000000000001
 20
-8.179696014226309
 30
0.0
 10
12.00000000000001
 20
-8.538277687830426
 30
0.0
 10
12.00000000000001
 20
-8.876021430081643
 30
0.0
 10
12.00000000000001
 20
-9.092811548083276
 30
0.0
 10
12.00000000000001
 20
-9.072265232385266
 30
0.0
 10
12.00000000000001
 20
-9.066173626069382
 30
0.0
  0
SPLINE
  5
AD
330
1F
100
AcDbEntity
  8
외형선
  6
Continuous
370
    15
100
AcDbSpline
210
0.0
220
0.0
230
1.0
 70
    24
 71
     3
 72
    10
 73
     6
 74
     0
 42
0.000000001
 43
0.00000001
 40
0.0
 40
0.0
 40
0.0
 40
0.0
 40
0.5
 40
0.5
 40
1.0
 40
1.0
 40
1.0
 40
1.0
 10
12.00000000000001
 20
9.004828892702673
 30
0.0
 10
12.00000000000001
 20
8.655755902745344
 30
0.0
 10
12.00000000000001
 20
8.206323251474036
 30
0.0
 10
12.00000000000001
 20
7.201672124633111
 30
0.0
 10
12.00000000000001
 20
6.649560265495221
 30
0.0
 10
12.00000000000001
 20
6.110689776140146
 30
0.0
  0
SPLINE
  5
AE
330
1F
100
AcDbEntity
  8
외형선
  6
Continuous
370
    15
100
AcDbSpline
210
0.0
220
0.0
230
1.0
 70
    24
 71
     3
 72
    10
 73
     6
 74
     0
 42
0.000000001
 43
0.00000001
 40
0.0
 40
0.0
 40
0.0
 40
0.0
 40
0.4097477550742534
 40
0.8473434336451966
 40
1.0
 40
1.0
 40
1.0
 40
1.0
 10
12.00000000000001
 20
-9.10113739553518
 30
0.0
 10
12.00000000000001
 20
-9.2946351162111
 30
0.0
 10
12.00000000000001
 20
-9.69478135498754
 30
0.0
 10
12.00000000000001
 20
-10.13772010434366
 30
0.0
 10
12.00000000000001
 20
-10.38818809223763
 30
0.0
 10
12.00000000000001
 20
-10.45296647019789
 30
0.0
  0
SPLINE
  5
AF
330
1F
100
AcDbEntity
  8
0
  6
Continuous
 62
     1
370
    15
100
AcDbSpline
210
0.0
220
0.0
230
1.0
 70
     8
 71
     3
 72
    60
 73
    56
 74
     0
 42
0.000000001
 43
0.00000001
 40
0.0
 40
0.0
 40
0.0
 40
0.0
 40
0.0624999999999994
 40
0.0624999999999994
 40
0.0937499999999993
 40
0.0937499999999993
 40
0.1249999999999991
 40
0.1249999999999991
 40
0.156249999999999
 40
0.156249999999999
 40
0.1874999999999989
 40
0.1874999999999989
 40
0.2187499999999988
 40
0.2187499999999988
 40
0.2499999999999986
 40
0.2499999999999986
 40
0.312499999999998
 40
0.312499999999998
 40
0.3437499999999979
 40
0.3437499999999979
 40
0.3749999999999977
 40
0.3749999999999977
 40
0.4062499999999978
 40
0.4062499999999978
 40
0.4374999999999978
 40
0.4374999999999978
 40
0.4687499999999978
 40
0.4687499999999978
 40
0.4999999999999979
 40
0.4999999999999979
 40
0.562499999999998
 40
0.562499999999998
 40
0.624999999999998
 40
0.624999999999998
 40
0.6562499999999982
 40
0.6562499999999982
 40
0.6874999999999983
 40
0.6874999999999983
 40
0.7187499999999984
 40
0.7187499999999984
 40
0.7499999999999986
 40
0.7499999999999986
 40
0.7812499999999988
 40
0.7812499999999988
 40
0.8124999999999989
 40
0.8124999999999989
 40
0.8749999999999993
 40
0.8749999999999993
 40
0.9062499999999996
 40
0.9062499999999996
 40
0.9374999999999997
 40
0.9374999999999997
 40
0.9687499999999999
 40
0.9687499999999999
 40
1.0
 40
1.0
 40
1.0
 40
1.0
 10
59.62500000000003
 20
-11.11249999999999
 30
0.0
 10
58.63656306642992
 20
-11.07959034957736
 30
0.0
 10
57.63808578100021
 20
-11.01158294856033
 30
0.0
 10
56.15200475228352
 20
-10.84450454066799
 30
0.0
 10
55.65772966844204
 20
-10.77801238681825
 30
0.0
 10
54.66428932977603
 20
-10.62345223264548
 30
0.0
 10
54.16670912021443
 20
-10.53543920959371
 30
0.0
 10
53.17428807702661
 20
-10.33875774377145
 30
0.0
 10
52.68076761985914
 20
-10.23021168021934
 30
0.0
 10
51.68850597078564
 20
-9.992587289641527
 30
0.0
 10
51.19094215330823
 20
-9.863569016308524
 30
0.0
 10
50.19740750081748
 20
-9.586251334365592
 30
0.0
 10
49.70294458639496
 20
-9.438115904699117
 30
0.0
 10
48.71244806035416
 20
-9.12321988469835
 30
0.0
 10
48.21519668297157
 20
-8.956308062766627
 30
0.0
 10
46.72410771226468
 20
-8.429326897879058
 30
0.0
 10
45.73624180630967
 20
-8.043719004667455
 30
0.0
 10
44.2452508218714
 20
-7.418397955925865
 30
0.0
 10
43.7479047789628
 20
-7.202288410637404
 30
0.0
 10
42.75696708327163
 20
-6.756711790918964
 30
0.0
 10
42.26285904932295
 20
-6.527186208427655
 30
0.0
 10
41.26952024015613
 20
-6.054790031056267
 30
0.0
 10
40.77192726718338
 20
-5.812162609330284
 30
0.0
 10
39.77935402087469
 20
-5.316232925650437
 30
0.0
 10
39.28581276479031
 20
-5.063189194528718
 30
0.0
 10
38.2937176969678
 20
-4.546674400332608
 30
0.0
 10
37.79617389984849
 20
-4.283362595341454
 30
0.0
 10
36.80255215149273
 20
-3.74897654884108
 30
0.0
 10
36.30788063033727
 20
-3.478164308160158
 30
0.0
 10
34.82248279764846
 20
-2.655914156831551
 30
0.0
 10
33.82395389301391
 20
-2.093406381159254
 30
0.0
 10
31.84596867277318
 20
-0.9597882895211013
 30
0.0
 10
30.84866342948965
 20
-0.3852992416421449
 30
0.0
 10
29.36194210382974
 20
0.47355288532249
 30
0.0
 10
28.86798033505093
 20
0.7593409979943597
 30
0.0
 10
27.87475026859795
 20
1.329853556816825
 30
0.0
 10
27.37714816119784
 20
1.614255061237951
 30
0.0
 10
26.38442990644514
 20
2.178800831656113
 30
0.0
 10
25.89084705302939
 20
2.458660257090778
 30
0.0
 10
24.89892574956473
 20
3.01382277037365
 30
0.0
 10
24.40140560059013
 20
3.288964247067868
 30
0.0
 10
23.40770397643968
 20
3.831890602364417
 30
0.0
 10
22.91280307743705
 20
4.099447779778362
 30
0.0
 10
21.92277629878763
 20
4.625922156090091
 30
0.0
 10
21.42563406952524
 20
4.88518860295274
 30
0.0
 10
19.93449049635067
 20
5.64753488968099
 30
0.0
 10
18.9465555964004
 20
6.13421682698846
 30
0.0
 10
17.45570597252851
 20
6.82617306669555
 30
0.0
 10
16.95827975590041
 20
7.050308303628239
 30
0.0
 10
15.96692951091253
 20
7.483572242656543
 30
0.0
 10
15.47309321904767
 20
7.692710381069483
 30
0.0
 10
14.47997910588896
 20
8.096004291093635
 30
0.0
 10
13.98237149326761
 20
8.289909496119673
 30
0.0
 10
12.98951542825778
 20
8.660502578503756
 30
0.0
 10
12.49587018010118
 20
8.837018006833706
 30
0.0
 10
11.99999999999989
 20
9.004828892702719
 30
0.0
  0
SPLINE
  5
B0
330
1F
100
AcDbEntity
  8
0
  6
Continuous
 62
     1
370
    15
100
AcDbSpline
210
0.0
220
0.0
230
1.0
 70
     8
 71
     3
 72
    14
 73
    10
 74
     0
 42
0.000000001
 43
0.00000001
 40
0.0
 40
0.0
 40
0.0
 40
0.0
 40
0.0444551261762444
 40
0.2027247214265457
 40
0.3609959529590577
 40
0.5192701235453795
 40
0.6795098580687952
 40
0.8397529323108572
 40
1.0
 40
1.0
 40
1.0
 40
1.0
 10
32.00951462386812
 20
-1.051519998020661
 30
0.0
 10
31.71300819102299
 20
-0.9338193788146583
 30
0.0
 10
30.36087652095638
 20
-0.3970798103412403
 30
0.0
 10
27.95310896808657
 20
0.5850235763121684
 30
0.0
 10
24.78618664349487
 20
1.85138126659642
 30
0.0
 10
21.60612518974682
 20
3.076132868447108
 30
0.0
 10
18.41287529473068
 20
4.21783062607326
 30
0.0
 10
15.2064685547413
 20
5.259771965142169
 30
0.0
 10
13.06883173020978
 20
5.827048149637852
 30
0.0
 10
12.0
 20
6.110689776140146
 30
0.0
  0
SPLINE
  5
B1
330
1F
100
AcDbEntity
  8
외형선
  6
Continuous
370
    15
100
AcDbSpline
210
0.0
220
0.0
230
1.0
 70
    24
 71
     3
 72
    10
 73
     6
 74
     0
 42
0.000000001
 43
0.00000001
 40
0.0
 40
0.0
 40
0.0
 40
0.0
 40
0.5
 40
0.5
 40
1.0
 40
1.0
 40
1.0
 40
1.0
 10
12.00000000000001
 20
9.004828892702676
 30
0.0
 10
12.00000000000001
 20
8.655755902745344
 30
0.0
 10
12.00000000000001
 20
8.20632325147404
 30
0.0
 10
12.00000000000001
 20
7.201672124633111
 30
0.0
 10
12.00000000000001
 20
6.649560265495222
 30
0.0
 10
12.00000000000001
 20
6.110689776140146
 30
0.0
  0
SPLINE
  5
B2
330
1F
100
AcDbEntity
  8
0
  6
Continuous
 62
     1
370
    15
100
AcDbSpline
210
0.0
220
0.0
230
1.0
 70
     8
 71
     3
 72
    60
 73
    56
 74
     0
 42
0.000000001
 43
0.00000001
 40
0.0
 40
0.0
 40
0.0
 40
0.0
 40
0.0624999999999999
 40
0.0624999999999999
 40
0.09375
 40
0.09375
 40
0.1250000000000001
 40
0.1250000000000001
 40
0.1562500000000002
 40
0.1562500000000002
 40
0.1875000000000004
 40
0.1875000000000004
 40
0.2187500000000005
 40
0.2187500000000005
 40
0.2500000000000006
 40
0.2500000000000006
 40
0.3125000000000005
 40
0.3125000000000005
 40
0.3437500000000004
 40
0.3437500000000004
 40
0.3750000000000004
 40
0.3750000000000004
 40
0.4062500000000004
 40
0.4062500000000004
 40
0.4375000000000003
 40
0.4375000000000003
 40
0.4687500000000003
 40
0.4687500000000003
 40
0.5000000000000002
 40
0.5000000000000002
 40
0.5625000000000002
 40
0.5625000000000002
 40
0.6250000000000002
 40
0.6250000000000002
 40
0.6562500000000002
 40
0.6562500000000002
 40
0.6875000000000001
 40
0.6875000000000001
 40
0.7187500000000001
 40
0.7187500000000001
 40
0.75
 40
0.75
 40
0.78125
 40
0.78125
 40
0.8125
 40
0.8125
 40
0.875
 40
0.875
 40
0.9062499999999999
 40
0.9062499999999999
 40
0.9374999999999999
 40
0.9374999999999999
 40
0.9687499999999999
 40
0.9687499999999999
 40
1.0
 40
1.0
 40
1.0
 40
1.0
 10
59.62500000000003
 20
-10.54510540933949
 30
0.0
 10
58.63656306642986
 20
-10.36462553176177
 30
0.0
 10
57.63808578100011
 20
-10.14136019165035
 30
0.0
 10
56.15200475228333
 20
-9.748113717577152
 30
0.0
 10
55.65772966844182
 20
-9.607302423804644
 30
0.0
 10
54.66428932977577
 20
-9.306342065834617
 30
0.0
 10
54.16670912021411
 20
-9.146329321407201
 30
0.0
 10
53.17428807702623
 20
-8.80869174216567
 30
0.0
 10
52.68076761985878
 20
-8.631246948093075
 30
0.0
 10
51.68850597078522
 20
-8.258903975259415
 30
0.0
 10
51.19094215330774
 20
-8.064124761614401
 30
0.0
 10
50.19740750081696
 20
-7.659075802990764
 30
0.0
 10
49.70294458639442
 20
-7.449030499504758
 30
0.0
 10
48.71244806035352
 20
-7.014327193170262
 30
0.0
 10
48.21519668297093
 20
-6.789473653645772
 30
0.0
 10
46.72410771226396
 20
-6.095354497212701
 30
0.0
 10
45.73624180630886
 20
-5.60741668084016
 30
0.0
 10
44.24525082187051
 20
-4.843441940412989
 30
0.0
 10
43.74790477896189
 20
-4.583630571557159
 30
0.0
 10
42.75696708327069
 20
-4.05605806005167
 30
0.0
 10
42.26285904932197
 20
-3.788216821336077
 30
0.0
 10
41.2695202401551
 20
-3.24459397314753
 30
0.0
 10
40.77192726718231
 20
-2.969102428383009
 30
0.0
 10
39.77935402087356
 20
-2.413233154535671
 30
0.0
 10
39.28581276478915
 20
-2.133133363679687
 30
0.0
 10
38.29371769696659
 20
-1.568301769463871
 30
0.0
 10
37.79617389984725
 20
-1.283755485330755
 30
0.0
 10
36.80255215149145
 20
-0.7129477785794406
 30
0.0
 10
36.30788063033595
 20
-0.4269591143493415
 30
0.0
 10
34.82248279764708
 20
0.4316913466377534
 30
0.0
 10
33.82395389301246
 20
1.006264943661601
 30
0.0
 10
31.84596867277163
 20
2.139213796037355
 30
0.0
 10
30.84866342948803
 20
2.700974974630499
 30
0.0
 10
29.36194210382805
 20
3.522424797951281
 30
0.0
 10
28.8679803350492
 20
3.792714693703005
 30
0.0
 10
27.87475026859617
 20
4.32616030499566
 30
0.0
 10
27.37714816119602
 20
4.589005121488187
 30
0.0
 10
26.38442990644327
 20
5.104587370972085
 30
0.0
 10
25.89084705302749
 20
5.357074933780557
 30
0.0
 10
24.89892574956279
 20
5.85169207114495
 30
0.0
 10
24.40140560058815
 20
6.093667226487311
 30
0.0
 10
23.40770397643764
 20
6.564760838994791
 30
0.0
 10
22.91280307743499
 20
6.793687930936197
 30
0.0
 10
21.92277629878551
 20
7.237618469636274
 30
0.0
 10
21.42563406952309
 20
7.452910025377606
 30
0.0
 10
19.93449049634844
 20
8.07578174196092
 30
0.0
 10
18.94655559639811
 20
8.45961752451943
 30
0.0
 10
17.45570597252613
 20
8.983727799141665
 30
0.0
 10
16.958279755898
 20
9.14968498804263
 30
0.0
 10
15.96692951091009
 20
9.462666209934259
 30
0.0
 10
15.47309321904518
 20
9.609709346089378
 30
0.0
 10
14.47997910588641
 20
9.884889528097691
 30
0.0
 10
13.98237149326504
 20
10.01284238682135
 30
0.0
 10
12.98951542825516
 20
10.24833188250889
 30
0.0
 10
12.49587018009854
 20
10.35577426883475
 30
0.0
 10
11.99999999999718
 20
10.45296647020986
 30
0.0
  0
SPLINE
  5
B3
330
1F
100
AcDbEntity
  8
0
  6
Continuous
 62
     1
370
    15
100
AcDbSpline
210
0.0
220
0.0
230
1.0
 70
     8
 71
     3
 72
    17
 73
    13
 74
     0
 42
0.000000001
 43
0.00000001
 40
0.0
 40
0.0
 40
0.0
 40
0.0
 40
0.1098341990339651
 40
0.219661701371387
 40
0.3294833649220774
 40
0.4393000503962424
 40
0.5491126208943661
 40
0.6589219414946595
 40
0.7687288788384857
 40
0.8785343007141923
 40
0.9883390756397687
 40
1.0
 40
1.0
 40
1.0
 40
1.0
 10
59.62500000000001
 20
-8.767454287791804
 30
0.0
 10
58.56905131651817
 20
-8.55177294715659
 30
0.0
 10
56.45721833175928
 20
-8.120423416184522
 30
0.0
 10
53.28959450305563
 20
-7.190507236990913
 30
0.0
 10
50.12216173234722
 20
-6.083329927016383
 30
0.0
 10
46.9548944586414
 20
-4.807305902492378
 30
0.0
 10
43.78776331734072
 20
-3.402471484682732
 30
0.0
 10
40.62073984797119
 20
-1.906050516966089
 30
0.0
 10
37.45379537020092
 20
-0.3558284537050799
 30
0.0
 10
34.28690085760977
 20
1.195033037603416
 30
0.0
 10
32.06354838399811
 20
2.284718628704924
 30
0.0
 10
30.89582255154019
 20
2.816363423389075
 30
0.0
 10
30.78371878326781
 20
2.867402274470278
 30
0.0
  0
LINE
  5
B4
330
1F
100
AcDbEntity
  8
0
  6
Continuous
 62
     1
370
    15
100
AcDbLine
 10
59.62499999999974
 20
-10.5451054093395
 30
0.0
 11
59.62500000000001
 21
-8.767454287791804
 31
0.0
  0
LINE
  5
B5
330
1F
100
AcDbEntity
  8
0
  6
Continuous
 62
     1
370
    15
100
AcDbLine
 10
59.62500000000004
 20
-11.1125
 30
0.0
 11
59.62499999999911
 21
-10.54510540933947
 31
0.0
  0
SPLINE
  5
B6
330
1F
100
AcDbEntity
  8
0
  6
Continuous
 62
     1
370
    15
100
AcDbSpline
210
0.0
220
0.0
230
1.0
 70
     8
 71
     3
 72
    10
 73
     6
 74
     0
 42
0.000000001
 43
0.00000001
 40
0.0
 40
0.0
 40
0.0
 40
0.0
 40
0.5
 40
0.5
 40
1.0
 40
1.0
 40
1.0
 40
1.0
 10
59.62500000000001
 20
-2.969737237754424
 30
0.0
 10
58.7694249479537
 20
-2.297114754807682
 30
0.0
 10
57.92494764956614
 20
-1.604994341206967
 30
0.0
 10
56.25786042874407
 20
-0.1823341551849909
 30
0.0
 10
55.43523187812707
 20
0.5481728889002463
 30
0.0
 10
54.62500000000002
 20
1.300459967754872
 30
0.0
  0
LINE
  5
B7
330
1F
100
AcDbEntity
  8
0
  6
Continuous
 62
     1
370
    15
100
AcDbLine
 10
54.62500000000002
 20
2.93771943529659
 30
0.0
 11
59.62500000000001
 21
0.0000000000000039
 31
0.0
  0
LINE
  5
B8
330
1F
100
AcDbEntity
  8
0
  6
Continuous
 62
     1
370
    15
100
AcDbLine
 10
59.62500000000001
 20
0.0000000000000039
 30
0.0
 11
59.62500000000001
 21
-2.969737237754425
 31
0.0
  0
SPLINE
  5
B9
330
1F
100
AcDbEntity
  8
0
  6
Continuous
 62
     1
370
    15
100
AcDbSpline
210
0.0
220
0.0
230
1.0
 70
     8
 71
     3
 72
    17
 73
    13
 74
     0
 42
0.000000001
 43
0.00000001
 40
0.0
 40
0.0
 40
0.0
 40
0.0
 40
0.0930367922006447
 40
0.1861443014202933
 40
0.2792608168667077
 40
0.3945667378837206
 40
0.5098691987342182
 40
0.6251691220902713
 40
0.740467431849587
 40
0.8557650526895706
 40
0.9710629096205942
 40
1.0
 40
1.0
 40
1.0
 40
1.0
 10
54.62500000000002
 20
2.283536363151121
 30
0.0
 10
53.77330286152322
 20
2.660001205881571
 30
0.0
 10
52.0692612118335
 20
3.413217041270988
 30
0.0
 10
49.51239120790499
 20
4.471546173415978
 30
0.0
 10
46.75169156308347
 20
5.532347149188695
 30
0.0
 10
43.7877451409208
 20
6.546159504328159
 30
0.0
 10
40.62072170723761
 20
7.453038530444237
 30
0.0
 10
37.45377282758057
 20
8.157180493805274
 30
0.0
 10
34.28687543383433
 20
8.646054240344807
 30
0.0
 10
31.11999871067326
 20
8.882324164426787
 30
0.0
 10
28.74381432895373
 20
8.93284348808696
 30
0.0
 10
27.42324965674722
 20
8.828732631592946
 30
0.0
 10
27.15831178985671
 20
8.807845424157975
 30
0.0
  0
SPLINE
  5
BA
330
1F
100
AcDbEntity
  8
0
  6
Continuous
 62
     1
370
    15
100
AcDbSpline
210
0.0
220
0.0
230
1.0
 70
    24
 71
     3
 72
     8
 73
     4
 74
     0
 42
0.000000001
 43
0.00000001
 40
0.0
 40
0.0
 40
0.0
 40
0.0
 40
1.0
 40
1.0
 40
1.0
 40
1.0
 10
54.62500000000001
 20
1.300459967732245
 30
0.0
 10
54.62500000000001
 20
1.631923426790788
 30
0.0
 10
54.62500000000001
 20
1.960107858704856
 30
0.0
 10
54.62500000000001
 20
2.283536363151129
 30
0.0
  0
SPLINE
  5
BB
330
1F
100
AcDbEntity
  8
0
  6
Continuous
 62
     1
370
    15
100
AcDbSpline
210
0.0
220
0.0
230
1.0
 70
    24
 71
     3
 72
    10
 73
     6
 74
     0
 42
0.000000001
 43
0.00000001
 40
0.0
 40
0.0
 40
0.0
 40
0.0
 40
0.5
 40
0.5
 40
1.0
 40
1.0
 40
1.0
 40
1.0
 10
59.62500000000001
 20
-8.7674542877918
 30
0.0
 10
59.62500000000003
 20
-8.095360560304783
 30
0.0
 10
59.62500000000003
 20
-7.24614436491063
 30
0.0
 10
59.62500000000001
 20
-5.271798438561929
 30
0.0
 10
59.62500000000003
 20
-4.148378960907679
 30
0.0
 10
59.62500000000003
 20
-2.969737237754781
 30
0.0
  0
SPLINE
  5
BC
330
1F
100
AcDbEntity
  8
0
  6
Continuous
 62
     1
370
    15
100
AcDbSpline
210
0.0
220
0.0
230
1.0
 70
    24
 71
     3
 72
    10
 73
     6
 74
     0
 42
0.000000001
 43
0.00000001
 40
0.0
 40
0.0
 40
0.0
 40
0.0
 40
0.5
 40
0.5
 40
1.0
 40
1.0
 40
1.0
 40
1.0
 10
54.62500000000001
 20
2.283536363151127
 30
0.0
 10
54.62500000000001
 20
3.059531527112046
 30
0.0
 10
54.62500000000002
 20
3.796003738630713
 30
0.0
 10
54.62500000000001
 20
5.109618802043821
 30
0.0
 10
54.62499999999999
 20
5.685937379830192
 30
0.0
 10
54.62499999999999
 20
6.150941962892349
 30
0.0
  0
SPLINE
  5
BD
330
1F
100
AcDbEntity
  8
0
  6
Continuous
 62
     1
370
    15
100
AcDbSpline
210
0.0
220
0.0
230
1.0
 70
     8
 71
     3
 72
     9
 73
     5
 74
     0
 42
0.000000001
 43
0.00000001
 40
0.0
 40
0.0
 40
0.0
 40
0.0
 40
0.7660045331331732
 40
1.0
 40
1.0
 40
1.0
 40
1.0
 10
59.62500000000001
 20
7.778749999999994
 30
0.0
 10
58.56904946220617
 20
7.77019173584306
 30
0.0
 10
57.19053211391488
 20
7.759019133349534
 30
0.0
 10
55.81202829821083
 20
7.612498129771603
 30
0.0
 10
55.48946465427748
 20
7.578212879133591
 30
0.0
  0
SPLINE
  5
BE
330
1F
100
AcDbEntity
  8
0
  6
Continuous
 62
     1
370
    15
100
AcDbSpline
210
0.0
220
0.0
230
1.0
 70
     8
 71
     3
 72
     8
 73
     4
 74
     0
 42
0.000000001
 43
0.00000001
 40
0.0
 40
0.0
 40
0.0
 40
0.0
 40
1.0
 40
1.0
 40
1.0
 40
1.0
 10
59.62500000000001
 20
7.77875
 30
0.0
 10
57.94260329326734
 20
7.32262660266252
 30
0.0
 10
56.27320935698124
 20
6.785132929390494
 30
0.0
 10
54.62500000000002
 20
6.150941962891937
 30
0.0
  0
SPLINE
  5
BF
330
1F
100
AcDbEntity
  8
0
  6
Continuous
 62
     1
370
    15
100
AcDbSpline
210
0.0
220
0.0
230
1.0
 70
     8
 71
     3
 72
    15
 73
    11
 74
     0
 42
0.000000001
 43
0.00000001
 40
0.0
 40
0.0
 40
0.0
 40
0.0
 40
0.074866312411248
 40
0.2063248661936672
 40
0.3377836891593223
 40
0.469243835844498
 40
0.6007063601457644
 40
0.733801362196243
 40
0.8668990658723417
 40
1.0
 40
1.0
 40
1.0
 40
1.0
 10
36.09041844563218
 20
-8.329085919221548
 30
0.0
 10
35.48923534453102
 20
-8.427561029837761
 30
0.0
 10
33.83242844570542
 20
-8.698949633963046
 30
0.0
 10
31.11999901779086
 20
-8.887649335231586
 30
0.0
 10
27.95311573308324
 20
-8.907073080112358
 30
0.0
 10
24.78619406965284
 20
-8.67517339338439
 30
0.0
 10
21.60613525413971
 20
-8.210578586180318
 30
0.0
 10
18.41288083822891
 20
-7.515302640486455
 30
0.0
 10
15.20647231598282
 20
-6.620223734270688
 30
0.0
 10
13.06883275243054
 20
-5.87406518112874
 30
0.0
 10
12.00000000000001
 20
-5.500981377057022
 30
0.0
  0
SPLINE
  5
C0
330
1F
100
AcDbEntity
  8
외형선
  6
Continuous
370
    15
100
AcDbSpline
210
0.0
220
0.0
230
1.0
 70
    24
 71
     3
 72
    14
 73
    10
 74
     0
 42
0.000000001
 43
0.00000001
 40
0.0
 40
0.0
 40
0.0
 40
0.0
 40
0.25
 40
0.25
 40
0.5
 40
0.5
 40
0.75
 40
0.75
 40
1.0
 40
1.0
 40
1.0
 40
1.0
 10
12.0
 20
6.110689776140148
 30
0.0
 10
12.0
 20
5.350893878645134
 30
0.0
 10
12.0
 20
4.489979842379478
 30
0.0
 10
12.0
 20
2.622362476871724
 30
0.0
 10
12.0
 20
1.616283573455216
 30
0.0
 10
12.0
 20
-0.4474451678372175
 30
0.0
 10
12.0
 20
-1.503995364758956
 30
0.0
 10
12.0
 20
-3.563924666122711
 30
0.0
 10
12.0
 20
-4.566409232248553
 30
0.0
 10
12.0
 20
-5.500981377057014
 30
0.0
  0
SPLINE
  5
C1
330
1F
100
AcDbEntity
  8
외형선
  6
Continuous
370
    15
100
AcDbSpline
210
0.0
220
0.0
230
1.0
 70
    24
 71
     3
 72
    15
 73
    11
 74
     0
 42
0.000000001
 43
0.00000001
 40
0.0
 40
0.0
 40
0.0
 40
0.0
 40
0.1459383282238563
 40
0.2918766564477124
 40
0.398797166243427
 40
0.5057176760391415
 40
0.6157444579773028
 40
0.725771239915464
 40
0.918855706439133
 40
1.0
 40
1.0
 40
1.0
 40
1.0
 10
12.00000000000001
 20
-5.500981377057022
 30
0.0
 10
12.00000000000001
 20
-5.817972738103828
 30
0.0
 10
12.00000000000001
 20
-6.451955460197438
 30
0.0
 10
12.00000000000001
 20
-7.179359736651836
 30
0.0
 10
12.00000000000001
 20
-7.746398192748439
 30
0.0
 10
12.00000000000001
 20
-8.179695399337856
 30
0.0
 10
12.00000000000001
 20
-8.53828005881389
 30
0.0
 10
12.00000000000001
 20
-8.876009768226183
 30
0.0
 10
12.00000000000001
 20
-9.092744047761624
 30
0.0
 10
12.00000000000001
 20
-9.072246759503074
 30
0.0
 10
12.00000000000001
 20
-9.066181611649359
 30
0.0
  0
LINE
  5
C2
330
1F
100
AcDbEntity
  8
0
  6
Continuous
 62
     1
370
    15
100
AcDbLine
 10
59.62500000000001
 20
0.0000000000000039
 30
0.0
 11
59.62500000000001
 21
7.778750000000001
 31
0.0
  0
SPLINE
  5
C3
330
1F
100
AcDbEntity
  8
0
  6
Continuous
 62
     1
370
    15
100
AcDbSpline
210
0.0
220
0.0
230
1.0
 70
     8
 71
     3
 72
    13
 73
     9
 74
     0
 42
0.000000001
 43
0.00000001
 40
0.0
 40
0.0
 40
0.0
 40
0.0
 40
0.0206600881438726
 40
0.2164936270596295
 40
0.4123335902802281
 40
0.6081907918326382
 40
0.8040760162172628
 40
1.0
 40
1.0
 40
1.0
 40
1.0
 10
44.34129204671944
 20
7.448746235772474
 30
0.0
 10
44.44654316694936
 20
7.496441444269344
 30
0.0
 10
45.54945214836255
 20
7.99623160048486
 30
0.0
 10
47.65003253821548
 20
8.780605662968735
 30
0.0
 10
50.64316064104886
 20
9.753697842145044
 30
0.0
 10
53.63660508092482
 20
10.46850624894817
 30
0.0
 10
56.63055310620782
 20
10.95456436305449
 30
0.0
 10
58.6267852102057
 20
11.05359011183132
 30
0.0
 10
59.62500000000003
 20
11.11250000000001
 30
0.0
  0
SPLINE
  5
C4
330
1F
100
AcDbEntity
  8
0
  6
Continuous
 62
     1
370
    15
100
AcDbSpline
210
0.0
220
0.0
230
1.0
 70
    24
 71
     3
 72
    10
 73
     6
 74
     0
 42
0.000000001
 43
0.00000001
 40
0.0
 40
0.0
 40
0.0
 40
0.0
 40
0.5
 40
0.5
 40
1.0
 40
1.0
 40
1.0
 40
1.0
 10
59.62500000000001
 20
7.778749999999997
 30
0.0
 10
59.62500000000001
 20
8.250278453771273
 30
0.0
 10
59.62500000000001
 20
8.79823818528584
 30
0.0
 10
59.62500000000001
 20
9.9478562261775
 30
0.0
 10
59.62500000000001
 20
10.54657855534386
 30
0.0
 10
59.62500000000003
 20
11.11250000000002
 30
0.0
  0
SPLINE
  5
C5
330
1F
100
AcDbEntity
  8
0
  6
Continuous
 62
     1
370
    15
100
AcDbSpline
210
0.0
220
0.0
230
1.0
 70
     8
 71
     3
 72
    10
 73
     6
 74
     0
 42
0.000000001
 43
0.00000001
 40
0.0
 40
0.0
 40
0.0
 40
0.0
 40
0.0273580422697482
 40
0.5136526550548802
 40
1.0
 40
1.0
 40
1.0
 40
1.0
 10
18.15512015096756
 20
-8.731887378800874
 30
0.0
 10
18.09899065456662
 20
-8.753688927412362
 30
0.0
 10
17.04514825718447
 20
-9.163017314955045
 30
0.0
 10
14.99346649478233
 20
-9.780802284536879
 30
0.0
 10
12.99785822915026
 20
-10.22890364365603
 30
0.0
 10
11.99999999999718
 20
-10.45296647020987
 30
0.0
  0
SPLINE
  5
C6
330
1F
100
AcDbEntity
  8
외형선
  6
Continuous
370
    15
100
AcDbSpline
210
0.0
220
0.0
230
1.0
 70
    24
 71
     3
 72
     8
 73
     4
 74
     0
 42
0.000000001
 43
0.00000001
 40
0.0
 40
0.0
 40
0.0
 40
0.0
 40
1.0
 40
1.0
 40
1.0
 40
1.0
 10
12.00000000000012
 20
-9.062079532946264
 30
0.0
 10
12.00000000000012
 20
-9.552651753929258
 30
0.0
 10
12.00000000000012
 20
-10.01938004650803
 30
0.0
 10
12.00000000000012
 20
-10.45296647020217
 30
0.0
  0
LINE
  5
C7
330
1F
100
AcDbEntity
  8
중심선
100
AcDbLine
 10
-48.14999999999999
 20
-0.0000000000000064
 30
0.0
 11
62.62500000000001
 21
0.0000000000000072
 31
0.0
  0
LINE
  5
C8
330
1F
100
AcDbEntity
  8
참조1
100
AcDbLine
 10
10.08676131403115
 20
0.0010749287238892
 30
0.0
 11
10.08676131403116
 21
-39.99892507127611
 31
0.0
  0
LINE
  5
C9
330
1F
100
AcDbEntity
  8
참조1
100
AcDbLine
 10
10.08676131403116
 20
-39.99892507127611
 30
0.0
 11
-20.15080122126847
 21
-39.9989250712761
 31
0.0
  0
CIRCLE
  5
CA
330
1F
100
AcDbEntity
  8
해칭선
100
AcDbCircle
 10
0.0
 20
0.0
 30
0.0
 40
2.999999999999995
  0
INSERT
  5
CB
330
1F
100
AcDbEntity
  8
0
  6
Continuous
 62
     7
100
AcDbBlockReference
 66
     1
  2
블럭10
 10
-6.702772932125205
 20
-52.04717430164393
 30
0.0
  0
ATTRIB
  5
CC
330
CB
100
AcDbEntity
  8
FORMAT
 62
     2
100
AcDbText
 10
-15.88406822086649
 20
-49.97180738881174
 30
0.0
 40
4.233333333333333
  1
E1070056 [ 2 FLUTE ]
 41
0.75
  7
SLDTEXTSTYLE0
 11
-15.88406822086649
 21
-52.08847405547841
 31
0.0
100
AcDbAttribute
  2
AUTOATTR0
 70
     0
 74
     1
  0
SEQEND
  5
CD
330
CB
100
AcDbEntity
  8
0
  6
Continuous
 62
     7
  0
HATCH
  5
CE
330
1F
100
AcDbEntity
  8
중심선
100
AcDbHatch
 10
0.0
 20
0.0
 30
0.0
210
0.0
220
0.0
230
1.0
  2
SOLID
 70
     1
 71
     0
 91
        1
 92
        0
 93
        4
 72
     1
 10
-0.9878636277443631
 20
-35.8
 11
-4.434138871581645
 21
-35.8
 72
     1
 10
-4.434138871581645
 20
-35.8
 11
-6.562368730785668
 21
-38.3363255805726
 72
     1
 10
-6.562368730785668
 20
-38.3363255805726
 11
-3.116060401835236
 21
-38.33628615127011
 72
     1
 10
-3.116060401835237
 20
-38.33628615127011
 11
-0.9878636277443631
 21
-35.8
 97
        0
 75
     0
 76
     1
 98
        1
 10
-2.849261314031155
 20
-0.001074928723896
  0
HATCH
  5
CF
330
1F
100
AcDbEntity
  8
중심선
100
AcDbHatch
 10
0.0
 20
0.0
 30
0.0
210
0.0
220
0.0
230
1.0
  2
SOLID
 70
     1
 71
     0
 91
        1
 92
        0
 93
        4
 72
     1
 10
4.024900363291616
 20
-35.79999999999998
 11
0.5786251194543333
 21
-35.8
 72
     1
 10
0.5786251194543333
 20
-35.8
 11
-3.952512888903081
 21
-41.20000000000002
 72
     1
 10
-3.952512888903082
 20
-41.20000000000002
 11
-0.5062376450658004
 21
-41.20000000000002
 72
     1
 10
-0.5062376450658004
 20
-41.20000000000002
 11
4.024900363291616
 21
-35.79999999999998
 97
        0
 75
     0
 76
     1
 98
        1
 10
-2.849261314031155
 20
-0.001074928723896
  0
HATCH
  5
D0
330
1F
100
AcDbEntity
  8
중심선
100
AcDbHatch
 10
0.0
 20
0.0
 30
0.0
210
0.0
220
0.0
230
1.0
  2
SOLID
 70
     1
 71
     0
 91
        1
 92
        0
 93
        4
 72
     1
 10
9.03766435432751
 20
-35.8
 11
5.591389110490423
 21
-35.79999999999998
 72
     1
 10
5.591389110490423
 20
-35.79999999999998
 11
-1.457047791398881
 21
-44.20000000000002
 72
     1
 10
-1.457047791398881
 20
-44.20000000000002
 11
1.989227452438401
 21
-44.20000000000002
 72
     1
 10
1.989227452438401
 20
-44.20000000000002
 11
9.03766435432751
 21
-35.8
 97
        0
 75
     0
 76
     1
 98
        1
 10
-2.849261314031155
 20
-0.001074928723896
  0
HATCH
  5
D1
330
1F
100
AcDbEntity
  8
중심선
100
AcDbHatch
 10
0.0
 20
0.0
 30
0.0
210
0.0
220
0.0
230
1.0
  2
SOLID
 70
     1
 71
     0
 91
        1
 92
        0
 93
        6
 72
     3
 10
13.83755478533968
 20
-40.00000000005127
 11
3.960054785062285
 21
1.540882976769353E-10
 40
0.3939339440162626
 50
17.09539180608438
 51
320.0019657685082
 73
     0
 72
     1
 10
15.52055444104025
 20
-38.58789400463833
 11
17.82585631474132
 21
-36.65356729459038
 72
     3
 10
13.83755478528684
 20
-40.00000000000015
 11
6.600054785286828
 21
-1.278976924368180E-13
 40
0.6363583540795982
 50
39.99873849337411
 51
368.4976242363725
 73
     1
 72
     1
 10
20.26288727718745
 20
-39.03999999993002
 11
12.51762209212276
 21
-39.03999999993002
 72
     1
 10
12.51762209212276
 20
-39.03999999993002
 11
12.51759704767682
 21
-40.95999999992991
 72
     1
 10
12.51759704767682
 20
-40.95999999992991
 11
16.95897681714886
 21
-40.95999999992988
 97
        0
 75
     0
 76
     1
 98
        1
 10
-2.849261314031155
 20
-0.001074928723896
  0
DIMENSION
  5
D2
330
1F
100
AcDbEntity
  8
치수문자_일반주서
100
AcDbDimension
  2
_D
 10
-57.64999999999999
 20
-11.11250000000005
 30
0.0
 11
-57.65000000000003
 21
-0.0000000000000028
 31
0.0
 70
   160
  1
%%c<>
 71
     2
 42
22.22499999999999
 52
-270.0
  3
SLDDIMSTYLE0
100
AcDbAlignedDimension
 13
-44.15000000000002
 23
11.11249999999999
 33
0.0
 14
-44.15000000000002
 24
-11.1125
 34
0.0
 50
90.0000000000002
100
AcDbRotatedDimension
1001
ACAD
1000
DSTYLE
1002
{
1070
   171
1070
     6
1070
   273
1070
     7
1002
}
  0
DIMENSION
  5
E7
330
1F
100
AcDbEntity
  8
치수문자_일반주서
100
AcDbDimension
  2
_D_1
 10
12.00000000000001
 20
20.78622867203551
 30
0.0
 11
37.01588748186177
 21
20.78622867203551
 31
0.0
 70
   160
  1
<>
 71
     2
 42
47.62500000000004
  3
SLDDIMSTYLE0
100
AcDbAlignedDimension
 13
59.62500000000004
 23
11.11250000000002
 33
0.0
 14
12.00000000000001
 24
10.4529664702093
 34
0.0
 50
0.0000000000000043
100
AcDbRotatedDimension
1001
ACAD
1000
DSTYLE
1002
{
1070
   171
1070
     6
1070
   273
1070
     7
1002
}
  0
DIMENSION
  5
FC
330
1F
100
AcDbEntity
  8
치수문자_일반주서
100
AcDbDimension
  2
_D_2
 10
-45.15000000000001
 20
41.0706349747236
 30
0.0
 11
7.237499999999862
 21
41.0706349747236
 31
0.0
 70
   160
  1
<>
 71
     2
 42
104.775
  3
SLDDIMSTYLE0
100
AcDbAlignedDimension
 13
59.62500000000003
 23
11.11250000000001
 33
0.0
 14
-45.15000000000001
 24
10.11249999999999
 34
0.0
100
AcDbRotatedDimension
1001
ACAD
1000
DSTYLE
1002
{
1070
   171
1070
     6
1070
   273
1070
     7
1002
}
  0
DIMENSION
  5
10F
330
1F
100
AcDbEntity
  8
치수문자_일반주서
100
AcDbDimension
  2
_D_3
 10
79.05163779259978
 20
11.11250000000009
 30
0.0
 11
79.0516377925997
 21
32.15400000000009
 31
0.0
 70
   160
  1
%%c<>
 71
     2
 42
22.22500000000002
 52
-270.0
  3
SLDDIMSTYLE0
100
AcDbAlignedDimension
 13
59.62500000000004
 23
-11.1125
 33
0.0
 14
59.62500000000004
 24
11.11250000000002
 34
0.0
 50
90.0000000000002
100
AcDbRotatedDimension
1001
ACAD
1000
DSTYLE
1002
{
1070
   171
1070
     6
1070
   273
1070
     7
1002
}
  0
LINE
  5
122
330
1F
100
AcDbEntity
  8
참조1
100
AcDbLine
 10
77.82153940838579
 20
7.441074928723896
 30
0.0
 11
77.82153940838579
 21
-7.438925071276109
 31
0.0
  0
LINE
  5
123
330
1F
100
AcDbEntity
  8
참조1
100
AcDbLine
 10
90.52153940838579
 20
5.441074928723896
 30
0.0
 11
77.82153940838579
 21
5.441074928723896
 31
0.0
  0
SOLID
  5
124
330
1F
100
AcDbEntity
  8
참조1
100
AcDbTrace
 10
77.82153940838579
 20
5.441074928723896
 30
0.0
 11
84.17153940838578
 21
4.425074928723896
 31
0.0
 12
84.17153940838578
 22
6.457074928723896
 32
0.0
 13
84.17153940838578
 23
6.457074928723896
 33
0.0
  0
LINE
  5
125
330
1F
100
AcDbEntity
  8
참조1
100
AcDbLine
 10
90.52153940838579
 20
-5.438925071276109
 30
0.0
 11
77.82153940838579
 21
-5.438925071276109
 31
0.0
  0
SOLID
  5
126
330
1F
100
AcDbEntity
  8
참조1
100
AcDbTrace
 10
77.82153940838579
 20
-5.438925071276109
 30
0.0
 11
84.17153940838578
 21
-6.454925071276109
 31
0.0
 12
84.17153940838578
 22
-4.422925071276109
 32
0.0
 13
84.17153940838578
 23
-4.422925071276109
 33
0.0
  0
MTEXT
  5
127
330
1F
100
AcDbEntity
  8
참조1
100
AcDbMText
 10
87.20588954101179
 20
11.01136670591222
 30
0.0
 40
3.5
 41
0.0
 71
     1
 72
     1
  1
A
  7
SLDTEXTSTYLE0
 73
     1
 44
1.0
  0
MTEXT
  5
128
330
1F
100
AcDbEntity
  8
참조1
100
AcDbMText
 10
87.20588954101179
 20
0.1313667059122192
 30
0.0
 40
3.5
 41
0.0
 71
     1
 72
     1
  1
A
  7
SLDTEXTSTYLE0
 73
     1
 44
1.0
  0
INSERT
  5
12F
330
1F
100
AcDbEntity
  8
해칭선
100
AcDbBlockReference
  2
SW_DOWELSYMBOL_0
 10
0.0
 20
0.0
 30
0.0
  0
LINE
  5
1EA
330
1F
100
AcDbEntity
  8
외형선
  6
Continuous
370
    15
100
AcDbLine
 10
-30.79900000000001
 20
11.11249999999998
 30
0.0
 11
-26.79532500000002
 21
11.11249999999998
 31
0.0
  0
LINE
  5
1EB
330
1F
100
AcDbEntity
  8
외형선
  6
Continuous
370
    15
100
AcDbLine
 10
-25.14432500000001
 20
9.461499999999987
 30
0.0
 11
-13.561925
 21
9.461499999999987
 31
0.0
  0
LINE
  5
1EC
330
1F
100
AcDbEntity
  8
외형선
  6
Continuous
370
    15
100
AcDbLine
 10
-25.14432500000001
 20
9.461499999999987
 30
0.0
 11
-26.79532500000002
 21
11.11249999999997
 31
0.0
  0
LINE
  5
1ED
330
1F
100
AcDbEntity
  8
외형선
  6
Continuous
370
    15
100
AcDbLine
 10
-13.561925
 20
9.461499999999987
 30
0.0
 11
-11.91092499999988
 21
11.11249999999997
 31
0.0
  0
LINE
  5
1EE
330
1F
100
AcDbEntity
  8
외형선
  6
Continuous
370
    15
100
AcDbLine
 10
-45.15000000000001
 20
9.461499999999987
 30
0.0
 11
-32.45000000000002
 21
9.461499999999987
 31
0.0
  0
LINE
  5
1EF
330
1F
100
AcDbEntity
  8
외형선
  6
Continuous
370
    15
100
AcDbLine
 10
-32.45000000000002
 20
9.461499999999987
 30
0.0
 11
-30.79900000000001
 21
11.11249999999995
 31
0.0
  0
LINE
  5
1F0
330
1F
100
AcDbEntity
  8
외형선
  6
Continuous
370
    15
100
AcDbLine
 10
-26.79532500000005
 20
11.11249999999999
 30
0.0
 11
-30.79899999999997
 21
11.11249999999999
 31
0.0
  0
ENDSEC
  0
SECTION
  2
OBJECTS
  0
DICTIONARY
  5
C
330
0
100
AcDbDictionary
281
     1
  3
ACAD_GROUP
350
D
  3
ACAD_IMAGE_VARS
350
153
  3
ACAD_LAYOUT
350
1A
  3
ACAD_MLINESTYLE
350
17
  3
ACAD_PLOTSETTINGS
350
19
  3
ACAD_PLOTSTYLENAME
350
E
  3
ACAD_SCALELIST
350
47
  3
APPDATA
350
151
  3
DWGPROPS
350
1F1
  0
DICTIONARY
  5
17A
330
2
100
AcDbDictionary
280
     1
281
     1
  3
ACAD_LAYERSTATES
360
17B
  0
DICTIONARY
  5
D
102
{ACAD_REACTORS
330
C
102
}
330
C
100
AcDbDictionary
281
     1
  0
RASTERVARIABLES
  5
153
102
{ACAD_REACTORS
330
C
102
}
330
C
100
AcDbRasterVariables
 90
        0
 70
     1
 71
     1
 72
     1
  0
DICTIONARY
  5
1A
102
{ACAD_REACTORS
330
C
102
}
330
C
100
AcDbDictionary
281
     1
  3
Layout1
350
1E
  3
Layout2
350
26
  3
Model
350
22
  0
DICTIONARY
  5
17
102
{ACAD_REACTORS
330
C
102
}
330
C
100
AcDbDictionary
281
     1
  3
Standard
350
18
  0
DICTIONARY
  5
19
102
{ACAD_REACTORS
330
C
102
}
330
C
100
AcDbDictionary
281
     1
  0
ACDBDICTIONARYWDFLT
  5
E
102
{ACAD_REACTORS
330
C
102
}
330
C
100
AcDbDictionary
281
     1
  3
Normal
350
F
100
AcDbDictionaryWithDefault
340
F
  0
DICTIONARY
  5
47
102
{ACAD_REACTORS
330
C
102
}
330
C
100
AcDbDictionary
281
     1
  3
A0
350
48
  3
A1
350
49
  3
A2
350
4A
  3
A3
350
4B
  3
A4
350
4C
  3
A5
350
4D
  3
A6
350
4E
  3
A7
350
4F
  3
A8
350
50
  3
A9
350
51
  3
B0
350
52
  3
B1
350
53
  3
B2
350
54
  3
B3
350
55
  3
B4
350
56
  3
B5
350
57
  3
B6
350
58
  3
B7
350
59
  3
B8
350
5A
  3
B9
350
5B
  3
C0
350
5C
  3
C1
350
5D
  3
C2
350
5E
  3
C3
350
5F
  3
C4
350
60
  3
C5
350
61
  3
C6
350
62
  3
C7
350
63
  3
C8
350
64
  3
C9
350
65
  3
D0
350
66
  3
D1
350
67
  3
D2
350
68
  0
DICTIONARY
  5
151
102
{ACAD_REACTORS
330
C
102
}
330
C
100
AcDbDictionary
281
     1
  0
XRECORD
  5
1F1
102
{ACAD_REACTORS
330
C
102
}
330
C
100
AcDbXrecord
280
     1
  1
DWGPROPS COOKIE
  2

  3

  4

  6

  7

  8
12016016
  9

300
=
301
=
302
=
303
=
304
=
305
=
306
=
307
=
308
=
309
=
 40
0.0
 41
2458311.089108761
 42
2458318.291061076
  1

 90
        0
  0
DICTIONARY
  5
17B
102
{ACAD_REACTORS
330
17A
102
}
330
17A
100
AcDbDictionary
281
     1
  0
LAYOUT
  5
1E
102
{ACAD_REACTORS
330
1A
102
}
330
1A
100
AcDbPlotSettings
  1

  2
none_device
  4

  6

 40
0.0
 41
0.0
 42
0.0
 43
0.0
 44
0.0
 45
0.0
 46
0.0
 47
0.0
 48
0.0
 49
0.0
140
0.0
141
0.0
142
1.0
143
1.0
 70
   688
 72
     1
 73
     0
 74
     5
  7

 75
    16
147
1.0
148
0.0
149
0.0
100
AcDbLayout
  1
Layout1
 70
     1
 71
     1
 10
0.0
 20
0.0
 11
420.0
 21
297.0
 12
0.0
 22
0.0
 32
0.0
 14
1.000000000000000E+20
 24
1.000000000000000E+20
 34
1.000000000000000E+20
 15
-1.000000000000000E+20
 25
-1.000000000000000E+20
 35
-1.000000000000000E+20
146
0.0
 13
0.0
 23
0.0
 33
0.0
 16
1.0
 26
0.0
 36
0.0
 17
0.0
 27
1.0
 37
0.0
 76
     0
330
1B
  0
LAYOUT
  5
26
102
{ACAD_REACTORS
330
1A
102
}
330
1A
100
AcDbPlotSettings
  1

  2
none_device
  4

  6

 40
0.0
 41
0.0
 42
0.0
 43
0.0
 44
0.0
 45
0.0
 46
0.0
 47
0.0
 48
0.0
 49
0.0
140
0.0
141
0.0
142
1.0
143
1.0
 70
   688
 72
     1
 73
     0
 74
     5
  7

 75
    16
147
1.0
148
0.0
149
0.0
100
AcDbLayout
  1
Layout2
 70
     1
 71
     2
 10
0.0
 20
0.0
 11
0.0
 21
0.0
 12
0.0
 22
0.0
 32
0.0
 14
0.0
 24
0.0
 34
0.0
 15
0.0
 25
0.0
 35
0.0
146
0.0
 13
0.0
 23
0.0
 33
0.0
 16
1.0
 26
0.0
 36
0.0
 17
0.0
 27
1.0
 37
0.0
 76
     0
330
23
  0
LAYOUT
  5
22
102
{ACAD_REACTORS
330
1A
102
}
330
1A
100
AcDbPlotSettings
  1

  2
none_device
  4
ANSI_A_(11.00_x_8.50_Inches)
  6

 40
6.35
 41
19.05
 42
6.35000508
 43
19.05000254
 44
279.4
 45
215.9
 46
97.27456057545862
 47
48.73140913010845
 48
0.0
 49
0.0
140
0.0
141
0.0
142
0.0517810330709359
143
1.0
 70
  1696
 72
     0
 73
     0
 74
     0
  7

 75
     0
147
0.0235690232323232
148
0.0
149
0.0
100
AcDbLayout
  1
Model
 70
     1
 71
     0
 10
0.0
 20
0.0
 11
420.0
 21
297.0
 12
0.0
 22
0.0
 32
0.0
 14
1.000000000000000E+20
 24
1.000000000000000E+20
 34
1.000000000000000E+20
 15
-1.000000000000000E+20
 25
-1.000000000000000E+20
 35
-1.000000000000000E+20
146
0.0
 13
0.0
 23
0.0
 33
0.0
 16
1.0
 26
0.0
 36
0.0
 17
0.0
 27
1.0
 37
0.0
 76
     0
330
1F
331
29
  0
MLINESTYLE
  5
18
102
{ACAD_REACTORS
330
17
102
}
330
17
100
AcDbMlineStyle
  2
Standard
 70
     0
  3

 62
   256
 51
90.0
 52
90.0
 71
     2
 49
0.5
 62
   256
  6
BYLAYER
 49
-0.5
 62
   256
  6
BYLAYER
  0
ACDBPLACEHOLDER
  5
F
102
{ACAD_REACTORS
330
E
102
}
330
E
  0
SCALE
  5
48
102
{ACAD_REACTORS
330
47
102
}
330
47
100
AcDbScale
 70
     0
300
1:1
140
1.0
141
1.0
290
     1
  0
SCALE
  5
49
102
{ACAD_REACTORS
330
47
102
}
330
47
100
AcDbScale
 70
     0
300
1:2
140
1.0
141
2.0
290
     0
  0
SCALE
  5
4A
102
{ACAD_REACTORS
330
47
102
}
330
47
100
AcDbScale
 70
     0
300
1:4
140
1.0
141
4.0
290
     0
  0
SCALE
  5
4B
102
{ACAD_REACTORS
330
47
102
}
330
47
100
AcDbScale
 70
     0
300
1:5
140
1.0
141
5.0
290
     0
  0
SCALE
  5
4C
102
{ACAD_REACTORS
330
47
102
}
330
47
100
AcDbScale
 70
     0
300
1:8
140
1.0
141
8.0
290
     0
  0
SCALE
  5
4D
102
{ACAD_REACTORS
330
47
102
}
330
47
100
AcDbScale
 70
     0
300
1:10
140
1.0
141
10.0
290
     0
  0
SCALE
  5
4E
102
{ACAD_REACTORS
330
47
102
}
330
47
100
AcDbScale
 70
     0
300
1:16
140
1.0
141
16.0
290
     0
  0
SCALE
  5
4F
102
{ACAD_REACTORS
330
47
102
}
330
47
100
AcDbScale
 70
     0
300
1:20
140
1.0
141
20.0
290
     0
  0
SCALE
  5
50
102
{ACAD_REACTORS
330
47
102
}
330
47
100
AcDbScale
 70
     0
300
1:30
140
1.0
141
30.0
290
     0
  0
SCALE
  5
51
102
{ACAD_REACTORS
330
47
102
}
330
47
100
AcDbScale
 70
     0
300
1:40
140
1.0
141
40.0
290
     0
  0
SCALE
  5
52
102
{ACAD_REACTORS
330
47
102
}
330
47
100
AcDbScale
 70
     0
300
1:50
140
1.0
141
50.0
290
     0
  0
SCALE
  5
53
102
{ACAD_REACTORS
330
47
102
}
330
47
100
AcDbScale
 70
     0
300
1:100
140
1.0
141
100.0
290
     0
  0
SCALE
  5
54
102
{ACAD_REACTORS
330
47
102
}
330
47
100
AcDbScale
 70
     0
300
2:1
140
2.0
141
1.0
290
     0
  0
SCALE
  5
55
102
{ACAD_REACTORS
330
47
102
}
330
47
100
AcDbScale
 70
     0
300
4:1
140
4.0
141
1.0
290
     0
  0
SCALE
  5
56
102
{ACAD_REACTORS
330
47
102
}
330
47
100
AcDbScale
 70
     0
300
8:1
140
8.0
141
1.0
290
     0
  0
SCALE
  5
57
102
{ACAD_REACTORS
330
47
102
}
330
47
100
AcDbScale
 70
     0
300
10:1
140
10.0
141
1.0
290
     0
  0
SCALE
  5
58
102
{ACAD_REACTORS
330
47
102
}
330
47
100
AcDbScale
 70
     0
300
100:1
140
100.0
141
1.0
290
     0
  0
SCALE
  5
59
102
{ACAD_REACTORS
330
47
102
}
330
47
100
AcDbScale
 70
     0
300
1/128" = 1'-0"
140
0.0078125
141
12.0
290
     0
  0
SCALE
  5
5A
102
{ACAD_REACTORS
330
47
102
}
330
47
100
AcDbScale
 70
     0
300
1/64" = 1'-0"
140
0.015625
141
12.0
290
     0
  0
SCALE
  5
5B
102
{ACAD_REACTORS
330
47
102
}
330
47
100
AcDbScale
 70
     0
300
1/32" = 1'-0"
140
0.03125
141
12.0
290
     0
  0
SCALE
  5
5C
102
{ACAD_REACTORS
330
47
102
}
330
47
100
AcDbScale
 70
     0
300
1/16" = 1'-0"
140
0.0625
141
12.0
290
     0
  0
SCALE
  5
5D
102
{ACAD_REACTORS
330
47
102
}
330
47
100
AcDbScale
 70
     0
300
3/32" = 1'-0"
140
0.09375
141
12.0
290
     0
  0
SCALE
  5
5E
102
{ACAD_REACTORS
330
47
102
}
330
47
100
AcDbScale
 70
     0
300
1/8" = 1'-0"
140
0.125
141
12.0
290
     0
  0
SCALE
  5
5F
102
{ACAD_REACTORS
330
47
102
}
330
47
100
AcDbScale
 70
     0
300
3/16" = 1'-0"
140
0.1875
141
12.0
290
     0
  0
SCALE
  5
60
102
{ACAD_REACTORS
330
47
102
}
330
47
100
AcDbScale
 70
     0
300
1/4" = 1'-0"
140
0.25
141
12.0
290
     0
  0
SCALE
  5
61
102
{ACAD_REACTORS
330
47
102
}
330
47
100
AcDbScale
 70
     0
300
3/8" = 1'-0"
140
0.375
141
12.0
290
     0
  0
SCALE
  5
62
102
{ACAD_REACTORS
330
47
102
}
330
47
100
AcDbScale
 70
     0
300
1/2" = 1'-0"
140
0.5
141
12.0
290
     0
  0
SCALE
  5
63
102
{ACAD_REACTORS
330
47
102
}
330
47
100
AcDbScale
 70
     0
300
3/4" = 1'-0"
140
0.75
141
12.0
290
     0
  0
SCALE
  5
64
102
{ACAD_REACTORS
330
47
102
}
330
47
100
AcDbScale
 70
     0
300
1" = 1'-0"
140
1.0
141
12.0
290
     0
  0
SCALE
  5
65
102
{ACAD_REACTORS
330
47
102
}
330
47
100
AcDbScale
 70
     0
300
1-1/2" = 1'-0"
140
1.5
141
12.0
290
     0
  0
SCALE
  5
66
102
{ACAD_REACTORS
330
47
102
}
330
47
100
AcDbScale
 70
     0
300
3" = 1'-0"
140
3.0
141
12.0
290
     0
  0
SCALE
  5
67
102
{ACAD_REACTORS
330
47
102
}
330
47
100
AcDbScale
 70
     0
300
6" = 1'-0"
140
6.0
141
12.0
290
     0
  0
SCALE
  5
68
102
{ACAD_REACTORS
330
47
102
}
330
47
100
AcDbScale
 70
     0
300
1'-0" = 1'-0"
140
12.0
141
12.0
290
     0
  0
ENDSEC
  0
EOF
