  0
SECTION
  2
HEADER
  9
$ACADVER
  1
AC1015
  9
$ACADMAINTVER
 70
     6
  9
$DWGCODEPAGE
  3
ANSI_949
  9
$INSBASE
 10
0.0
 20
0.0
 30
0.0
  9
$EXTMIN
 10
1.000000000000000E+20
 20
1.000000000000000E+20
 30
1.000000000000000E+20
  9
$EXTMAX
 10
-1.000000000000000E+20
 20
-1.000000000000000E+20
 30
-1.000000000000000E+20
  9
$LIMMIN
 10
0.0
 20
0.0
  9
$LIMMAX
 10
420.0
 20
297.0
  9
$ORTHOMODE
 70
     1
  9
$REGENMODE
 70
     1
  9
$FILLMODE
 70
     1
  9
$QTEXTMODE
 70
     0
  9
$MIRRTEXT
 70
     1
  9
$LTSCALE
 40
1.0
  9
$ATTMODE
 70
     1
  9
$TEXTSIZE
 40
3.5
  9
$TRACEWID
 40
1.0
  9
$TEXTSTYLE
  7
Standard
  9
$CLAYER
  8
0
  9
$CELTYPE
  6
ByLayer
  9
$CECOLOR
 62
   256
  9
$CELTSCALE
 40
1.0
  9
$DISPSILH
 70
     0
  9
$DIMSCALE
 40
1.0
  9
$DIMASZ
 40
3.302
  9
$DIMEXO
 40
1.0
  9
$DIMDLI
 40
3.75
  9
$DIMRND
 40
0.0
  9
$DIMDLE
 40
0.0
  9
$DIMEXE
 40
1.0
  9
$DIMTP
 40
0.0
  9
$DIMTM
 40
0.0
  9
$DIMTXT
 40
3.5
  9
$DIMCEN
 40
2.5
  9
$DIMTSZ
 40
0.0
  9
$DIMTOL
 70
     0
  9
$DIMLIM
 70
     0
  9
$DIMTIH
 70
     1
  9
$DIMTOH
 70
     1
  9
$DIMSE1
 70
     0
  9
$DIMSE2
 70
     0
  9
$DIMTAD
 70
     1
  9
$DIMZIN
 70
     0
  9
$DIMBLK
  1

  9
$DIMASO
 70
     1
  9
$DIMSHO
 70
     1
  9
$DIMPOST
  1

  9
$DIMAPOST
  1

  9
$DIMALT
 70
     0
  9
$DIMALTD
 70
     3
  9
$DIMALTF
 40
0.0393700787401575
  9
$DIMLFAC
 40
1.0
  9
$DIMTOFL
 70
     1
  9
$DIMTVP
 40
0.0
  9
$DIMTIX
 70
     0
  9
$DIMSOXD
 70
     0
  9
$DIMSAH
 70
     0
  9
$DIMBLK1
  1

  9
$DIMBLK2
  1

  9
$DIMSTYLE
  2
ISO-25
  9
$DIMCLRD
 70
     0
  9
$DIMCLRE
 70
     0
  9
$DIMCLRT
 70
     0
  9
$DIMTFAC
 40
1.0
  9
$DIMGAP
 40
1.524
  9
$DIMJUST
 70
     0
  9
$DIMSD1
 70
     0
  9
$DIMSD2
 70
     0
  9
$DIMTOLJ
 70
     0
  9
$DIMTZIN
 70
     0
  9
$DIMALTZ
 70
     0
  9
$DIMALTTZ
 70
     0
  9
$DIMUPT
 70
     0
  9
$DIMDEC
 70
     2
  9
$DIMTDEC
 70
     2
  9
$DIMALTU
 70
     2
  9
$DIMALTTD
 70
     3
  9
$DIMTXSTY
  7
Standard
  9
$DIMAUNIT
 70
     0
  9
$DIMADEC
 70
     2
  9
$DIMALTRND
 40
0.0
  9
$DIMAZIN
 70
     0
  9
$DIMDSEP
 70
    44
  9
$DIMATFIT
 70
     3
  9
$DIMFRAC
 70
     0
  9
$DIMLDRBLK
  1

  9
$DIMLUNIT
 70
     2
  9
$DIMLWD
 70
    -2
  9
$DIMLWE
 70
    -2
  9
$DIMTMOVE
 70
     0
  9
$LUNITS
 70
     2
  9
$LUPREC
 70
     2
  9
$SKETCHINC
 40
1.0
  9
$FILLETRAD
 40
10.0
  9
$AUNITS
 70
     0
  9
$AUPREC
 70
     2
  9
$MENU
  1
.
  9
$ELEVATION
 40
0.0
  9
$PELEVATION
 40
0.0
  9
$THICKNESS
 40
0.0
  9
$LIMCHECK
 70
     0
  9
$CHAMFERA
 40
0.0
  9
$CHAMFERB
 40
0.0
  9
$CHAMFERC
 40
0.0
  9
$CHAMFERD
 40
0.0
  9
$SKPOLY
 70
     0
  9
$TDCREATE
 40
2458311.464320555
  9
$TDUCREATE
 40
2458311.089320555
  9
$TDUPDATE
 40
2458318.665830463
  9
$TDUUPDATE
 40
2458318.290830463
  9
$TDINDWG
 40
0.0012176736
  9
$TDUSRTIMER
 40
2458318.290652373
  9
$USRTIMER
 70
     1
  9
$ANGBASE
 50
0.0
  9
$ANGDIR
 70
     0
  9
$PDMODE
 70
     0
  9
$PDSIZE
 40
-1.0
  9
$PLINEWID
 40
0.0
  9
$SPLFRAME
 70
     0
  9
$SPLINETYPE
 70
     6
  9
$SPLINESEGS
 70
     8
  9
$HANDSEED
  5
1F1
  9
$SURFTAB1
 70
     6
  9
$SURFTAB2
 70
     6
  9
$SURFTYPE
 70
     6
  9
$SURFU
 70
     6
  9
$SURFV
 70
     6
  9
$UCSBASE
  2

  9
$UCSNAME
  2

  9
$UCSORG
 10
0.0
 20
0.0
 30
0.0
  9
$UCSXDIR
 10
1.0
 20
0.0
 30
0.0
  9
$UCSYDIR
 10
0.0
 20
1.0
 30
0.0
  9
$UCSORTHOREF
  2

  9
$UCSORTHOVIEW
 70
     0
  9
$UCSORGTOP
 10
0.0
 20
0.0
 30
0.0
  9
$UCSORGBOTTOM
 10
0.0
 20
0.0
 30
0.0
  9
$UCSORGLEFT
 10
0.0
 20
0.0
 30
0.0
  9
$UCSORGRIGHT
 10
0.0
 20
0.0
 30
0.0
  9
$UCSORGFRONT
 10
0.0
 20
0.0
 30
0.0
  9
$UCSORGBACK
 10
0.0
 20
0.0
 30
0.0
  9
$PUCSBASE
  2

  9
$PUCSNAME
  2

  9
$PUCSORG
 10
0.0
 20
0.0
 30
0.0
  9
$PUCSXDIR
 10
1.0
 20
0.0
 30
0.0
  9
$PUCSYDIR
 10
0.0
 20
1.0
 30
0.0
  9
$PUCSORTHOREF
  2

  9
$PUCSORTHOVIEW
 70
     0
  9
$PUCSORGTOP
 10
0.0
 20
0.0
 30
0.0
  9
$PUCSORGBOTTOM
 10
0.0
 20
0.0
 30
0.0
  9
$PUCSORGLEFT
 10
0.0
 20
0.0
 30
0.0
  9
$PUCSORGRIGHT
 10
0.0
 20
0.0
 30
0.0
  9
$PUCSORGFRONT
 10
0.0
 20
0.0
 30
0.0
  9
$PUCSORGBACK
 10
0.0
 20
0.0
 30
0.0
  9
$USERI1
 70
     0
  9
$USERI2
 70
     0
  9
$USERI3
 70
     0
  9
$USERI4
 70
     0
  9
$USERI5
 70
     0
  9
$USERR1
 40
0.0
  9
$USERR2
 40
0.0
  9
$USERR3
 40
0.0
  9
$USERR4
 40
0.0
  9
$USERR5
 40
0.0
  9
$WORLDVIEW
 70
     1
  9
$SHADEDGE
 70
     3
  9
$SHADEDIF
 70
    70
  9
$TILEMODE
 70
     1
  9
$MAXACTVP
 70
    64
  9
$PINSBASE
 10
0.0
 20
0.0
 30
0.0
  9
$PLIMCHECK
 70
     0
  9
$PEXTMIN
 10
1.000000000000000E+20
 20
1.000000000000000E+20
 30
1.000000000000000E+20
  9
$PEXTMAX
 10
-1.000000000000000E+20
 20
-1.000000000000000E+20
 30
-1.000000000000000E+20
  9
$PLIMMIN
 10
0.0
 20
0.0
  9
$PLIMMAX
 10
0.0
 20
0.0
  9
$UNITMODE
 70
     0
  9
$VISRETAIN
 70
     1
  9
$PLINEGEN
 70
     0
  9
$PSLTSCALE
 70
     1
  9
$TREEDEPTH
 70
  3020
  9
$CMLSTYLE
  2
Standard
  9
$CMLJUST
 70
     0
  9
$CMLSCALE
 40
20.0
  9
$PROXYGRAPHICS
 70
     1
  9
$MEASUREMENT
 70
     1
  9
$CELWEIGHT
370
    -1
  9
$ENDCAPS
280
     0
  9
$JOINSTYLE
280
     0
  9
$LWDISPLAY
290
     1
  9
$INSUNITS
 70
     4
  9
$HYPERLINKBASE
  1

  9
$STYLESHEET
  1

  9
$XEDIT
290
     1
  9
$CEPSNTYPE
380
     0
  9
$PSTYLEMODE
290
     1
  9
$FINGERPRINTGUID
  2
{92D1930F-F486-4FFA-BDB3-2C492FD64309}
  9
$VERSIONGUID
  2
{FAEB1C32-E019-11D5-929B-00C0DF256EC4}
  9
$EXTNAMES
290
     1
  9
$PSVPSCALE
 40
0.0
  9
$OLESTARTUP
290
     0
  0
ENDSEC
  0
SECTION
  2
CLASSES
  0
CLASS
  1
ACDBDICTIONARYWDFLT
  2
AcDbDictionaryWithDefault
  3
ObjectDBX Classes
 90
        0
280
     0
281
     0
  0
CLASS
  1
VISUALSTYLE
  2
AcDbVisualStyle
  3
ObjectDBX Classes
 90
     4095
280
     0
281
     0
  0
CLASS
  1
MATERIAL
  2
AcDbMaterial
  3
ObjectDBX Classes
 90
     1153
280
     0
281
     0
  0
CLASS
  1
SCALE
  2
AcDbScale
  3
ObjectDBX Classes
 90
     1153
280
     0
281
     0
  0
CLASS
  1
SUN
  2
AcDbSun
  3
SCENEOE
 90
     1153
280
     0
281
     0
  0
CLASS
  1
ACDBPLACEHOLDER
  2
AcDbPlaceHolder
  3
ObjectDBX Classes
 90
        0
280
     0
281
     0
  0
CLASS
  1
LAYOUT
  2
AcDbLayout
  3
ObjectDBX Classes
 90
        0
280
     0
281
     0
  0
CLASS
  1
TABLESTYLE
  2
AcDbTableStyle
  3
ObjectDBX Classes
 90
     4095
280
     0
281
     0
  0
CLASS
  1
MLEADERSTYLE
  2
AcDbMLeaderStyle
  3
ACDB_MLEADERSTYLE_CLASS
 90
     4095
280
     0
281
     0
  0
CLASS
  1
RASTERVARIABLES
  2
AcDbRasterVariables
  3
ISM
 90
        0
280
     0
281
     0
  0
ENDSEC
  0
SECTION
  2
TABLES
  0
TABLE
  2
VPORT
  5
8
330
0
100
AcDbSymbolTable
 70
     1
  0
VPORT
  5
29
330
8
100
AcDbSymbolTableRecord
100
AcDbViewportTableRecord
  2
*Active
 70
     0
 10
0.0
 20
0.0
 11
1.0
 21
1.0
 12
35.51739974999845
 22
-32.50120289426773
 13
0.0
 23
0.0
 14
10.0
 24
10.0
 15
10.0
 25
10.0
 16
0.0
 26
0.0
 36
1.0
 17
0.0
 27
0.0
 37
0.0
 40
227.7742148228312
 41
1.740812379110251
 42
50.0
 43
0.0
 44
0.0
 50
0.0
 51
0.0
 71
    16
 72
  2000
 73
     1
 74
     3
 75
     0
 76
     0
 77
     0
 78
     0
281
     0
 65
     1
110
0.0
120
0.0
130
0.0
111
1.0
121
0.0
131
0.0
112
0.0
122
1.0
132
0.0
 79
     0
146
0.0
  0
ENDTAB
  0
TABLE
  2
LTYPE
  5
5
330
0
100
AcDbSymbolTable
 70
     6
  0
LTYPE
  5
14
330
5
100
AcDbSymbolTableRecord
100
AcDbLinetypeTableRecord
  2
ByBlock
 70
     0
  3

 72
    65
 73
     0
 40
0.0
  0
LTYPE
  5
15
330
5
100
AcDbSymbolTableRecord
100
AcDbLinetypeTableRecord
  2
ByLayer
 70
     0
  3

 72
    65
 73
     0
 40
0.0
  0
LTYPE
  5
16
330
5
100
AcDbSymbolTableRecord
100
AcDbLinetypeTableRecord
  2
Continuous
 70
     0
  3
Solid line
 72
    65
 73
     0
 40
0.0
  0
LTYPE
  5
6A
330
5
100
AcDbSymbolTableRecord
100
AcDbLinetypeTableRecord
  2
HIDDEN
 70
     0
  3
Hidden __ __ __ __ __ __ __ __ __ __ __ __ __ __
 72
    65
 73
     2
 40
1.905
 49
1.27
 74
     0
 49
-0.635
 74
     0
  0
LTYPE
  5
6B
330
5
100
AcDbSymbolTableRecord
100
AcDbLinetypeTableRecord
  2
PHANTOM
 70
     0
  3
Phantom ______  __  __  ______  __  __  ______
 72
    65
 73
     6
 40
12.7
 49
6.35
 74
     0
 49
-1.27
 74
     0
 49
1.27
 74
     0
 49
-1.27
 74
     0
 49
1.27
 74
     0
 49
-1.27
 74
     0
  0
LTYPE
  5
6C
330
5
100
AcDbSymbolTableRecord
100
AcDbLinetypeTableRecord
  2
CENTER
 70
     0
  3
Center ____ _ ____ _ ____ _ ____ _ ____ _ ____
 72
    65
 73
     4
 40
10.16
 49
6.35
 74
     0
 49
-1.27
 74
     0
 49
1.27
 74
     0
 49
-1.27
 74
     0
  0
LTYPE
  5
6D
330
5
100
AcDbSymbolTableRecord
100
AcDbLinetypeTableRecord
  2
CENTERX2
 70
     0
  3
Center (2x) ________  __  ________  __  _____
 72
    65
 73
     4
 40
20.32
 49
12.7
 74
     0
 49
-2.54
 74
     0
 49
2.54
 74
     0
 49
-2.54
 74
     0
  0
LTYPE
  5
6E
330
5
100
AcDbSymbolTableRecord
100
AcDbLinetypeTableRecord
  2
DOT2
 70
     0
  3
Dot (.5x) ........................................
 72
    65
 73
     2
 40
0.635
 49
0.0
 74
     0
 49
-0.635
 74
     0
  0
ENDTAB
  0
TABLE
  2
LAYER
  5
2
102
{ACAD_XDICTIONARY
360
17B
102
}
330
0
100
AcDbSymbolTable
 70
    18
  0
LAYER
  5
10
330
2
100
AcDbSymbolTableRecord
100
AcDbLayerTableRecord
  2
0
 70
     0
 62
     7
  6
Continuous
370
    -3
390
F
  0
LAYER
  5
6F
330
2
100
AcDbSymbolTableRecord
100
AcDbLayerTableRecord
  2
FORMAT
 70
     0
 62
     2
  6
Continuous
370
    -3
390
F
  0
LAYER
  5
70
330
2
100
AcDbSymbolTableRecord
100
AcDbLayerTableRecord
  2
외형선
 70
     0
 62
     4
  6
Continuous
370
    30
390
F
  0
LAYER
  5
71
330
2
100
AcDbSymbolTableRecord
100
AcDbLayerTableRecord
  2
숨은선
 70
     0
 62
     2
  6
HIDDEN
370
    15
390
F
  0
LAYER
  5
72
330
2
100
AcDbSymbolTableRecord
100
AcDbLayerTableRecord
  2
중심선
 70
     0
 62
     1
  6
CENTERX2
370
    -3
390
F
  0
LAYER
  5
73
330
2
100
AcDbSymbolTableRecord
100
AcDbLayerTableRecord
  2
파단선
 70
     0
 62
     4
  6
Continuous
370
    -3
390
F
  0
LAYER
  5
74
330
2
100
AcDbSymbolTableRecord
100
AcDbLayerTableRecord
  2
해칭선
 70
     0
 62
   100
  6
Continuous
370
    -3
390
F
  0
LAYER
  5
75
330
2
100
AcDbSymbolTableRecord
100
AcDbLayerTableRecord
  2
가는실선
 70
     0
 62
     4
  6
Continuous
370
    -3
390
F
  0
LAYER
  5
76
330
2
100
AcDbSymbolTableRecord
100
AcDbLayerTableRecord
  2
치수_보조선
 70
     0
 62
     4
  6
Continuous
370
    -3
390
F
  0
LAYER
  5
77
330
2
100
AcDbSymbolTableRecord
100
AcDbLayerTableRecord
  2
치수문자_일반주서
 70
     0
 62
     7
  6
Continuous
370
    15
390
F
  0
LAYER
  5
78
330
2
100
AcDbSymbolTableRecord
100
AcDbLayerTableRecord
  2
개별주서
 70
     0
 62
   100
  6
Continuous
370
    30
390
F
  0
LAYER
  5
79
330
2
100
AcDbSymbolTableRecord
100
AcDbLayerTableRecord
  2
중간선
 70
     0
 62
     2
  6
Continuous
370
    15
390
F
  0
LAYER
  5
7A
330
2
100
AcDbSymbolTableRecord
100
AcDbLayerTableRecord
  2
윤곽선
 70
     0
 62
     3
  6
Continuous
370
    40
390
F
  0
LAYER
  5
7B
330
2
100
AcDbSymbolTableRecord
100
AcDbLayerTableRecord
  2
중심마크
 70
     0
 62
   100
  6
Continuous
370
    30
390
F
  0
LAYER
  5
7C
330
2
100
AcDbSymbolTableRecord
100
AcDbLayerTableRecord
  2
가상선
 70
     0
 62
     4
  6
PHANTOM
370
    -3
390
F
  0
LAYER
  5
7D
330
2
100
AcDbSymbolTableRecord
100
AcDbLayerTableRecord
  2
특수지정선
 70
     0
 62
     5
  6
CENTERX2
370
    60
390
F
  0
LAYER
  5
7E
330
2
100
AcDbSymbolTableRecord
100
AcDbLayerTableRecord
  2
참조1
 70
     0
 62
    -4
  6
Continuous
370
    -3
390
F
  0
LAYER
  5
182
330
2
100
AcDbSymbolTableRecord
100
AcDbLayerTableRecord
  2
Defpoints
 70
     0
 62
     7
  6
Continuous
290
     0
370
    -3
390
F
  0
ENDTAB
  0
TABLE
  2
STYLE
  5
3
330
0
100
AcDbSymbolTable
 70
     2
  0
STYLE
  5
11
330
3
100
AcDbSymbolTableRecord
100
AcDbTextStyleTableRecord
  2
Standard
 70
     0
 40
0.0
 41
1.0
 50
0.0
 71
     0
 42
3.5
  3
txt
  4

  0
STYLE
  5
94
330
3
100
AcDbSymbolTableRecord
100
AcDbTextStyleTableRecord
  2
SLDTEXTSTYLE0
 70
     0
 40
0.0
 41
0.75
 50
0.0
 71
     0
 42
3.5
  3
TXT
  4

  0
ENDTAB
  0
TABLE
  2
VIEW
  5
6
330
0
100
AcDbSymbolTable
 70
     0
  0
ENDTAB
  0
TABLE
  2
UCS
  5
7
330
0
100
AcDbSymbolTable
 70
     0
  0
ENDTAB
  0
TABLE
  2
APPID
  5
9
330
0
100
AcDbSymbolTable
 70
     1
  0
APPID
  5
12
330
9
100
AcDbSymbolTableRecord
100
AcDbRegAppTableRecord
  2
ACAD
 70
     0
  0
ENDTAB
  0
TABLE
  2
DIMSTYLE
  5
A
330
0
100
AcDbSymbolTable
 70
     4
100
AcDbDimStyleTable
  0
DIMSTYLE
105
27
330
A
100
AcDbSymbolTableRecord
100
AcDbDimStyleTableRecord
  2
ISO-25
 70
     0
 41
2.5
 42
0.625
 43
3.75
 44
1.25
 73
     0
 74
     0
 77
     1
 78
     8
140
2.5
141
2.5
143
0.03937007874016
147
0.625
171
     3
172
     1
178
     0
271
     2
272
     2
274
     3
278
    44
283
     0
284
     8
340
11
  0
DIMSTYLE
105
D3
102
{ACAD_REACTORS
330
D2
330
E7
330
FC
330
10F
102
}
330
A
100
AcDbSymbolTableRecord
100
AcDbDimStyleTableRecord
  2
SLDDIMSTYLE0
 70
     0
 41
3.302
 44
0.0
 45
0.000000001
 73
     0
 74
     0
 77
     1
 78
     4
 79
     1
140
3.5
143
0.0393700787401575
147
0.875
148
0.000000001
170
     1
172
     1
173
     1
178
     0
271
     2
272
     2
276
     2
284
    12
289
     0
340
94
  0
DIMSTYLE
105
E8
330
A
100
AcDbSymbolTableRecord
100
AcDbDimStyleTableRecord
  2
SLDDIMSTYLE1
 70
     0
 41
3.302
 44
0.0
 45
0.000000001
 73
     0
 74
     0
 77
     1
 78
     4
 79
     1
140
3.5
143
0.0393700787401575
147
0.875
148
0.000000001
170
     1
173
     1
178
     0
271
     2
272
     2
276
     2
284
    12
340
94
  0
DIMSTYLE
105
110
330
A
100
AcDbSymbolTableRecord
100
AcDbDimStyleTableRecord
  2
SLDDIMSTYLE2
 70
     0
 41
3.302
 44
0.0
 45
0.000000001
 73
     0
 74
     0
 77
     1
 78
    12
 79
     3
140
3.5
143
0.0393700787401575
147
0.875
148
0.000000001
170
     1
173
     1
178
     0
271
     2
272
     2
276
     2
284
    12
340
94
  0
ENDTAB
  0
TABLE
  2
BLOCK_RECORD
  5
1
330
0
100
AcDbSymbolTable
 70
     8
  0
BLOCK_RECORD
  5
1F
330
1
100
AcDbSymbolTableRecord
100
AcDbBlockTableRecord
  2
*Model_Space
340
22
  0
BLOCK_RECORD
  5
1B
330
1
100
AcDbSymbolTableRecord
100
AcDbBlockTableRecord
  2
*Paper_Space
340
1E
  0
BLOCK_RECORD
  5
23
330
1
100
AcDbSymbolTableRecord
100
AcDbBlockTableRecord
  2
*Paper_Space0
340
26
  0
BLOCK_RECORD
  5
7F
330
1
100
AcDbSymbolTableRecord
100
AcDbBlockTableRecord
  2
블럭10
340
0
102
{BLKREFS
331
CB
102
}
  0
BLOCK_RECORD
  5
D4
330
1
100
AcDbSymbolTableRecord
100
AcDbBlockTableRecord
  2
_D
340
0
  0
BLOCK_RECORD
  5
E9
330
1
100
AcDbSymbolTableRecord
100
AcDbBlockTableRecord
  2
_D_1
340
0
  0
BLOCK_RECORD
  5
FD
330
1
100
AcDbSymbolTableRecord
100
AcDbBlockTableRecord
  2
_D_2
340
0
  0
BLOCK_RECORD
  5
111
330
1
100
AcDbSymbolTableRecord
100
AcDbBlockTableRecord
  2
_D_3
340
0
  0
BLOCK_RECORD
  5
12A
330
1
100
AcDbSymbolTableRecord
100
AcDbBlockTableRecord
  2
SW_DOWELSYMBOL_0
340
0
102
{BLKREFS
331
130
102
}
  0
ENDTAB
  0
ENDSEC
  0
SECTION
  2
BLOCKS
  0
BLOCK
  5
20
330
1F
100
AcDbEntity
  8
0
100
AcDbBlockBegin
  2
*Model_Space
 70
     0
 10
0.0
 20
0.0
 30
0.0
  3
*Model_Space
  1
*Model_Space
  0
ENDBLK
  5
21
330
1F
100
AcDbEntity
  8
0
100
AcDbBlockEnd
  0
BLOCK
  5
1C
330
1B
100
AcDbEntity
 67
     1
  8
0
100
AcDbBlockBegin
  2
*Paper_Space
 70
     0
 10
0.0
 20
0.0
 30
0.0
  3
*Paper_Space
  1
*Paper_Space
  0
ENDBLK
  5
1D
330
1B
100
AcDbEntity
 67
     1
  8
0
100
AcDbBlockEnd
  0
BLOCK
  5
24
330
23
100
AcDbEntity
  8
0
100
AcDbBlockBegin
  2
*Paper_Space0
 70
     0
 10
0.0
 20
0.0
 30
0.0
  3
*Paper_Space0
  1
*Paper_Space0
  0
ENDBLK
  5
25
330
23
100
AcDbEntity
  8
0
100
AcDbBlockEnd
  0
BLOCK
  5
80
330
7F
100
AcDbEntity
  8
0
100
AcDbBlockBegin
  2
블럭10
 70
     2
 10
0.0
 20
0.0
 30
0.0
  3
블럭10
  1
블럭10
  0
ELLIPSE
  5
82
330
7F
100
AcDbEntity
  8
중심선
100
AcDbEllipse
 10
20.54032771741204
 20
12.0471743016438
 30
0.0
 11
6.600054785286829
 21
-1.261213355974178E-13
 31
0.0
210
0.0
220
0.0
230
1.0
 40
0.636358354079598
 41
0.9219305317359503
 42
6.513795318482858
  0
ELLIPSE
  5
83
330
7F
100
AcDbEntity
  8
중심선
100
AcDbEllipse
 10
20.54032771746488
 20
12.04717430159265
 30
0.0
 11
3.960054785062283
 21
1.540847449632565E-10
 31
0.0
210
0.0
220
0.0
230
1.0
 40
0.3939339440162632
 41
1.131841032648279
 42
5.62031148352944
  0
LINE
  5
84
330
7F
100
AcDbEntity
  8
중심선
100
AcDbLine
 10
2.268634060543552
 20
16.24717430164393
 30
0.0
 11
5.714909304380834
 21
16.24717430164393
 31
0.0
  0
LINE
  5
85
330
7F
100
AcDbEntity
  8
중심선
100
AcDbLine
 10
5.245725140726316
 20
7.84717430164391
 30
0.0
 11
8.692000384563599
 21
7.84717430164391
 31
0.0
  0
LINE
  5
86
330
7F
100
AcDbEntity
  8
중심선
100
AcDbLine
 10
15.74043728645272
 20
16.24717430164393
 30
0.0
 11
8.692000384563599
 21
7.84717430164391
 31
0.0
  0
LINE
  5
87
330
7F
100
AcDbEntity
  8
중심선
100
AcDbLine
 10
0.1404042013395286
 20
13.71084872107135
 30
0.0
 11
3.58671253028996
 21
13.71088815037384
 31
0.0
  0
LINE
  5
88
330
7F
100
AcDbEntity
  8
중심선
100
AcDbLine
 10
2.750260043222114
 20
10.84717430164391
 30
0.0
 11
6.196535287059397
 21
10.84717430164391
 31
0.0
  0
LINE
  5
89
330
7F
100
AcDbEntity
  8
중심선
100
AcDbLine
 10
12.29416204261559
 20
16.24717430164393
 30
0.0
 11
5.245725140726316
 21
7.84717430164391
 31
0.0
  0
LINE
  5
8A
330
7F
100
AcDbEntity
  8
중심선
100
AcDbLine
 10
10.72767329541681
 20
16.24717430164393
 30
0.0
 11
6.196535287059397
 21
10.84717430164391
 31
0.0
  0
LINE
  5
8B
330
7F
100
AcDbEntity
  8
중심선
100
AcDbLine
 10
7.28139805157953
 20
16.24717430164393
 30
0.0
 11
2.750260043222114
 21
10.84717430164391
 31
0.0
  0
LINE
  5
8C
330
7F
100
AcDbEntity
  8
중심선
100
AcDbLine
 10
5.714909304380834
 20
16.24717430164393
 30
0.0
 11
3.58671253028996
 21
13.71088815037384
 31
0.0
  0
LINE
  5
8D
330
7F
100
AcDbEntity
  8
중심선
100
AcDbLine
 10
2.268634060543552
 20
16.24717430164393
 30
0.0
 11
0.1404042013395286
 21
13.71084872107135
 31
0.0
  0
LINE
  5
8E
330
7F
100
AcDbEntity
  8
중심선
100
AcDbLine
 10
7.28139805157953
 20
16.24717430164393
 30
0.0
 11
10.72767329541681
 21
16.24717430164393
 31
0.0
  0
LINE
  5
8F
330
7F
100
AcDbEntity
  8
중심선
100
AcDbLine
 10
12.29416204261559
 20
16.24717430164393
 30
0.0
 11
15.74043728645272
 21
16.24717430164393
 31
0.0
  0
LINE
  5
90
330
7F
100
AcDbEntity
  8
중심선
100
AcDbLine
 10
19.22036997980202
 20
11.08717430171403
 30
0.0
 11
23.66174974927406
 21
11.08717430171406
 31
0.0
  0
LINE
  5
91
330
7F
100
AcDbEntity
  8
중심선
100
AcDbLine
 10
19.22039502424796
 20
13.00717430171391
 30
0.0
 11
19.22036997980202
 21
11.08717430171403
 31
0.0
  0
LINE
  5
92
330
7F
100
AcDbEntity
  8
중심선
100
AcDbLine
 10
19.22039502424796
 20
13.00717430171391
 30
0.0
 11
26.96566020931264
 21
13.00717430171391
 31
0.0
  0
LINE
  5
93
330
7F
100
AcDbEntity
  8
중심선
100
AcDbLine
 10
22.22332737316547
 20
13.45928029700563
 30
0.0
 11
24.52862924686651
 21
15.39360700705356
 31
0.0
  0
ATTDEF
  5
95
330
7F
100
AcDbEntity
  8
FORMAT
 62
     2
100
AcDbText
 10
4.408487351596664
 20
2.075366912832191
 30
0.0
 40
4.233333333333333
  1
E1070064
 41
0.75
  7
SLDTEXTSTYLE0
 11
4.408487351596664
 21
-0.0412997538344756
 31
0.0
100
AcDbAttributeDefinition
  3

  2
AUTOATTR0
 70
     0
 74
     1
  0
ENDBLK
  5
81
330
7F
100
AcDbEntity
  8
0
100
AcDbBlockEnd
  0
BLOCK
  5
D5
330
D4
100
AcDbEntity
  8
0
100
AcDbBlockBegin
  2
_D
 70
     0
 10
0.0
 20
0.0
 30
0.0
  3
_D
  1
_D
  0
LINE
  5
D7
330
D4
100
AcDbEntity
  8
치수문자_일반주서
 62
     0
370
    -2
100
AcDbLine
 10
-50.56249999999999
 20
12.69999999999999
 30
0.0
 11
-64.00000000000004
 21
12.69999999999994
 31
0.0
  0
LINE
  5
D8
330
D4
100
AcDbEntity
  8
치수문자_일반주서
 62
     0
370
    -2
100
AcDbLine
 10
-50.56249999999999
 20
-12.70000000000002
 30
0.0
 11
-63.99999999999996
 21
-12.70000000000007
 31
0.0
  0
LINE
  5
D9
330
D4
100
AcDbEntity
  8
치수문자_일반주서
 62
     0
370
    -2
100
AcDbLine
 10
-64.00000000000003
 20
9.397999999999936
 30
0.0
 11
-63.99999999999997
 21
-9.39800000000007
 31
0.0
  0
SOLID
  5
DA
330
D4
100
AcDbEntity
  8
치수문자_일반주서
 62
     0
100
AcDbTrace
 10
-63.44966666666669
 20
9.397999999999938
 30
0.0
 11
-64.55033333333336
 21
9.397999999999934
 31
0.0
 12
-64.00000000000004
 22
12.69999999999994
 32
0.0
 13
-64.00000000000004
 23
12.69999999999994
 33
0.0
  0
SOLID
  5
DB
330
D4
100
AcDbEntity
  8
치수문자_일반주서
 62
     0
100
AcDbTrace
 10
-64.5503333333333
 20
-9.398000000000073
 30
0.0
 11
-63.44966666666664
 21
-9.398000000000069
 31
0.0
 12
-63.99999999999996
 22
-12.70000000000007
 32
0.0
 13
-63.99999999999996
 23
-12.70000000000007
 33
0.0
  0
MTEXT
  5
DC
330
D4
100
AcDbEntity
  8
치수문자_일반주서
 62
     0
100
AcDbMText
 10
-68.375
 20
-0.0000000000000213
 30
0.0
 40
3.5
 41
0.0
 71
     2
 72
     1
  1
\A1;%%c25.40 [1]
  7
SLDTEXTSTYLE0
 11
-3.356894814614646E-15
 21
1.0
 31
0.0
 73
     1
 44
1.0
  0
POINT
  5
DD
330
D4
100
AcDbEntity
  8
Defpoints
 62
     0
100
AcDbPoint
 10
-50.49999999999999
 20
12.69999999999999
 30
0.0
  0
POINT
  5
DE
330
D4
100
AcDbEntity
  8
Defpoints
 62
     0
100
AcDbPoint
 10
-50.49999999999999
 20
-12.70000000000002
 30
0.0
  0
POINT
  5
DF
330
D4
100
AcDbEntity
  8
Defpoints
 62
     0
100
AcDbPoint
 10
-63.99999999999996
 20
-12.70000000000007
 30
0.0
  0
ENDBLK
  5
D6
330
D4
100
AcDbEntity
  8
0
100
AcDbBlockEnd
  0
BLOCK
  5
EA
330
E9
100
AcDbEntity
  8
0
100
AcDbBlockBegin
  2
_D_1
 70
     0
 10
0.0
 20
0.0
 30
0.0
  3
_D_1
  1
_D_1
  0
LINE
  5
EC
330
E9
100
AcDbEntity
  8
치수문자_일반주서
 62
     0
370
    -2
100
AcDbLine
 10
62.80000000000001
 20
12.76250000000001
 30
0.0
 11
62.80000000000001
 21
25.86560788423941
 31
0.0
  0
LINE
  5
ED
330
E9
100
AcDbEntity
  8
치수문자_일반주서
 62
     0
370
    -2
100
AcDbLine
 10
12.00000000000001
 20
11.13848625584521
 30
0.0
 11
12.00000000000001
 21
25.86560788423941
 31
0.0
  0
LINE
  5
EE
330
E9
100
AcDbEntity
  8
치수문자_일반주서
 62
     0
370
    -2
100
AcDbLine
 10
59.49800000000001
 20
25.86560788423941
 30
0.0
 11
15.30200000000001
 21
25.86560788423941
 31
0.0
  0
SOLID
  5
EF
330
E9
100
AcDbEntity
  8
치수문자_일반주서
 62
     0
100
AcDbTrace
 10
59.49800000000001
 20
25.31527455090607
 30
0.0
 11
59.49800000000001
 21
26.41594121757274
 31
0.0
 12
62.80000000000001
 22
25.86560788423941
 32
0.0
 13
62.80000000000001
 23
25.86560788423941
 33
0.0
  0
SOLID
  5
F0
330
E9
100
AcDbEntity
  8
치수문자_일반주서
 62
     0
100
AcDbTrace
 10
15.30200000000001
 20
26.41594121757274
 30
0.0
 11
15.30200000000001
 21
25.31527455090607
 31
0.0
 12
12.00000000000001
 22
25.86560788423941
 32
0.0
 13
12.00000000000001
 23
25.86560788423941
 33
0.0
  0
MTEXT
  5
F1
330
E9
100
AcDbEntity
  8
치수문자_일반주서
 62
     0
100
AcDbMText
 10
37.40000000000002
 20
30.24060788423941
 30
0.0
 40
3.5
 41
0.0
 71
     2
 72
     1
  1
\A1;50.80 [2]
  7
SLDTEXTSTYLE0
 73
     1
 44
1.0
  0
POINT
  5
F2
330
E9
100
AcDbEntity
  8
Defpoints
 62
     0
100
AcDbPoint
 10
62.80000000000001
 20
12.70000000000001
 30
0.0
  0
POINT
  5
F3
330
E9
100
AcDbEntity
  8
Defpoints
 62
     0
100
AcDbPoint
 10
12.00000000000001
 20
11.07598625584521
 30
0.0
  0
POINT
  5
F4
330
E9
100
AcDbEntity
  8
Defpoints
 62
     0
100
AcDbPoint
 10
12.00000000000001
 20
25.86560788423941
 30
0.0
  0
ENDBLK
  5
EB
330
E9
100
AcDbEntity
  8
0
100
AcDbBlockEnd
  0
BLOCK
  5
FE
330
FD
100
AcDbEntity
  8
0
100
AcDbBlockBegin
  2
_D_2
 70
     0
 10
0.0
 20
0.0
 30
0.0
  3
_D_2
  1
_D_2
  0
LINE
  5
100
330
FD
100
AcDbEntity
  8
치수문자_일반주서
 62
     0
370
    -2
100
AcDbLine
 10
62.80000000000003
 20
12.76250000000001
 30
0.0
 11
62.80000000000003
 21
42.57707860462923
 31
0.0
  0
LINE
  5
101
330
FD
100
AcDbEntity
  8
치수문자_일반주서
 62
     0
370
    -2
100
AcDbLine
 10
-51.5
 20
11.76249999999999
 30
0.0
 11
-51.5
 21
42.57707860462923
 31
0.0
  0
LINE
  5
102
330
FD
100
AcDbEntity
  8
치수문자_일반주서
 62
     0
370
    -2
100
AcDbLine
 10
59.49800000000003
 20
42.57707860462923
 30
0.0
 11
-48.198
 21
42.57707860462923
 31
0.0
  0
SOLID
  5
103
330
FD
100
AcDbEntity
  8
치수문자_일반주서
 62
     0
100
AcDbTrace
 10
59.49800000000003
 20
42.02674527129589
 30
0.0
 11
59.49800000000003
 21
43.12741193796256
 31
0.0
 12
62.80000000000003
 22
42.57707860462923
 32
0.0
 13
62.80000000000003
 23
42.57707860462923
 33
0.0
  0
SOLID
  5
104
330
FD
100
AcDbEntity
  8
치수문자_일반주서
 62
     0
100
AcDbTrace
 10
-48.198
 20
43.12741193796256
 30
0.0
 11
-48.198
 21
42.02674527129589
 31
0.0
 12
-51.5
 22
42.57707860462923
 32
0.0
 13
-51.5
 23
42.57707860462923
 33
0.0
  0
MTEXT
  5
105
330
FD
100
AcDbEntity
  8
치수문자_일반주서
 62
     0
100
AcDbMText
 10
5.649999999999869
 20
46.95207860462923
 30
0.0
 40
3.5
 41
0.0
 71
     2
 72
     1
  1
\A1;114.30 [4 1/2]
  7
SLDTEXTSTYLE0
 73
     1
 44
1.0
  0
POINT
  5
106
330
FD
100
AcDbEntity
  8
Defpoints
 62
     0
100
AcDbPoint
 10
62.80000000000003
 20
12.70000000000001
 30
0.0
  0
POINT
  5
107
330
FD
100
AcDbEntity
  8
Defpoints
 62
     0
100
AcDbPoint
 10
-51.5
 20
11.69999999999999
 30
0.0
  0
POINT
  5
108
330
FD
100
AcDbEntity
  8
Defpoints
 62
     0
100
AcDbPoint
 10
-51.5
 20
42.57707860462923
 30
0.0
  0
ENDBLK
  5
FF
330
FD
100
AcDbEntity
  8
0
100
AcDbBlockEnd
  0
BLOCK
  5
112
330
111
100
AcDbEntity
  8
0
100
AcDbBlockBegin
  2
_D_3
 70
     0
 10
0.0
 20
0.0
 30
0.0
  3
_D_3
  1
_D_3
  0
LINE
  5
114
330
111
100
AcDbEntity
  8
치수문자_일반주서
 62
     0
370
    -2
100
AcDbLine
 10
62.86250000000001
 20
-12.69999999999999
 30
0.0
 11
88.09386576306453
 21
-12.69999999999989
 31
0.0
  0
LINE
  5
115
330
111
100
AcDbEntity
  8
치수문자_일반주서
 62
     0
370
    -2
100
AcDbLine
 10
62.86250000000001
 20
12.70000000000001
 30
0.0
 11
88.09386576306444
 21
12.7000000000001
 31
0.0
  0
LINE
  5
116
330
111
100
AcDbEntity
  8
치수문자_일반주서
 62
     0
370
    -2
100
AcDbLine
 10
88.09386576306444
 20
12.7000000000001
 30
0.0
 11
88.09386576306433
 21
44.44951615341655
 31
0.0
  0
LINE
  5
117
330
111
100
AcDbEntity
  8
치수문자_일반주서
 62
     0
370
    -2
100
AcDbLine
 10
88.09386576306453
 20
-12.69999999999989
 30
0.0
 11
88.09386576306444
 21
12.7000000000001
 31
0.0
  0
LINE
  5
118
330
111
100
AcDbEntity
  8
치수문자_일반주서
 62
     0
370
    -2
100
AcDbLine
 10
88.09386576306454
 20
-16.00199999999989
 30
0.0
 11
88.09386576306456
 21
-19.30399999999989
 31
0.0
  0
LINE
  5
119
330
111
100
AcDbEntity
  8
치수문자_일반주서
 62
     0
370
    -2
100
AcDbLine
 10
88.09386576306443
 20
16.0020000000001
 30
0.0
 11
88.09386576306441
 21
19.3040000000001
 31
0.0
  0
SOLID
  5
11A
330
111
100
AcDbEntity
  8
치수문자_일반주서
 62
     0
100
AcDbTrace
 10
88.64419909639787
 20
-16.00199999999989
 30
0.0
 11
87.54353242973121
 21
-16.00199999999989
 31
0.0
 12
88.09386576306453
 22
-12.69999999999989
 32
0.0
 13
88.09386576306453
 23
-12.69999999999989
 33
0.0
  0
SOLID
  5
11B
330
111
100
AcDbEntity
  8
치수문자_일반주서
 62
     0
100
AcDbTrace
 10
87.5435324297311
 20
16.0020000000001
 30
0.0
 11
88.64419909639776
 21
16.00200000000011
 31
0.0
 12
88.09386576306444
 22
12.7000000000001
 32
0.0
 13
88.09386576306444
 23
12.7000000000001
 33
0.0
  0
MTEXT
  5
11C
330
111
100
AcDbEntity
  8
치수문자_일반주서
 62
     0
100
AcDbMText
 10
83.71886576306437
 20
33.29326615341654
 30
0.0
 40
3.5
 41
0.0
 71
     2
 72
     1
  1
\A1;%%c25.40 [1]
  7
SLDTEXTSTYLE0
 11
-3.356894814614647E-15
 21
1.0
 31
0.0
 73
     1
 44
1.0
  0
POINT
  5
11D
330
111
100
AcDbEntity
  8
Defpoints
 62
     0
100
AcDbPoint
 10
62.80000000000001
 20
-12.69999999999999
 30
0.0
  0
POINT
  5
185
330
111
100
AcDbEntity
  8
Defpoints
 62
     0
100
AcDbPoint
 10
62.80000000000001
 20
12.70000000000001
 30
0.0
  0
POINT
  5
186
330
111
100
AcDbEntity
  8
Defpoints
 62
     0
100
AcDbPoint
 10
88.09386576306444
 20
12.7000000000001
 30
0.0
  0
ENDBLK
  5
113
330
111
100
AcDbEntity
  8
0
100
AcDbBlockEnd
  0
BLOCK
  5
12B
330
12A
100
AcDbEntity
  8
0
100
AcDbBlockBegin
  2
SW_DOWELSYMBOL_0
 70
     0
 10
0.0
 20
0.0
 30
0.0
  3
SW_DOWELSYMBOL_0
  1
SW_DOWELSYMBOL_0
  0
CIRCLE
  5
12D
330
12A
100
AcDbEntity
  8
해칭선
 62
     0
100
AcDbCircle
 10
0.0
 20
0.0
 30
0.0
 40
2.999999999999996
  0
HATCH
  5
12E
330
12A
100
AcDbEntity
  8
0
  6
Continuous
 62
     0
370
     0
100
AcDbHatch
 10
0.0
 20
0.0
 30
0.0
210
0.0
220
0.0
230
1.0
  2
SOLID
 70
     1
 71
     0
 91
        1
 92
        0
 93
        3
 72
     2
 10
0.0
 20
0.0
 40
2.999999999999996
 50
0.0
 51
90.0
 73
     1
 72
     1
 10
0.0
 20
2.999999999999996
 11
0.0
 21
0.0
 72
     1
 10
0.0
 20
0.0
 11
2.999999999999996
 21
0.0
 97
        0
 75
     0
 76
     1
 98
        1
 10
0.0
 20
0.0
  0
HATCH
  5
12F
330
12A
100
AcDbEntity
  8
0
  6
Continuous
 62
     0
370
     0
100
AcDbHatch
 10
0.0
 20
0.0
 30
0.0
210
0.0
220
0.0
230
1.0
  2
SOLID
 70
     1
 71
     0
 91
        1
 92
        0
 93
        3
 72
     2
 10
0.0
 20
0.0
 40
2.999999999999996
 50
180.0
 51
270.0000000000007
 73
     1
 72
     1
 10
0.0
 20
-2.999999999999996
 11
0.0
 21
0.0
 72
     1
 10
0.0
 20
0.0
 11
-2.999999999999996
 21
0.0
 97
        0
 75
     0
 76
     1
 98
        1
 10
0.0
 20
0.0
  0
ENDBLK
  5
12C
330
12A
100
AcDbEntity
  8
0
100
AcDbBlockEnd
  0
ENDSEC
  0
SECTION
  2
ENTITIES
  0
LINE
  5
96
330
1F
100
AcDbEntity
  8
외형선
  6
Continuous
370
    15
100
AcDbLine
 10
8.949888533354901
 20
12.7
 30
0.0
 11
-14.06992499999998
 21
12.7
 31
0.0
  0
LINE
  5
97
330
1F
100
AcDbEntity
  8
외형선
  6
Continuous
370
    15
100
AcDbLine
 10
-50.49999999999999
 20
-12.70000000000001
 30
0.0
 11
8.949888533354901
 21
-12.7
 31
0.0
  0
LINE
  5
99
330
1F
100
AcDbEntity
  8
외형선
  6
Continuous
370
    15
100
AcDbLine
 10
-51.5
 20
-11.7
 30
0.0
 11
-50.49999999999999
 21
-12.7
 31
0.0
  0
SPLINE
  5
9A
330
1F
100
AcDbEntity
  8
외형선
  6
Continuous
370
    15
100
AcDbSpline
210
0.0
220
0.0
230
1.0
 70
     8
 71
     3
 72
     9
 73
     5
 74
     0
 42
0.000000001
 43
0.00000001
 40
0.0
 40
0.0
 40
0.0
 40
0.0
 40
0.4430439093375592
 40
1.0
 40
1.0
 40
1.0
 40
1.0
 10
8.949845911442614
 20
-10.35259922631826
 30
0.0
 10
9.40054441063812
 20
-10.31635590610544
 30
0.0
 10
10.41782168202504
 20
-10.23455065057894
 30
0.0
 10
11.4340213857057
 20
-10.17062472392221
 30
0.0
 10
12.00000000000001
 20
-10.1350207897195
 30
0.0
  0
LINE
  5
9B
330
1F
100
AcDbEntity
  8
0
  6
Continuous
 62
     1
370
    15
100
AcDbLine
 10
26.43098139737965
 20
4.986856686828496
 30
0.0
 11
26.37450789734312
 21
5.01653289545188
 31
0.0
  0
SPLINE
  5
9C
330
1F
100
AcDbEntity
  8
0
  6
Continuous
 62
     1
370
    15
100
AcDbSpline
210
0.0
220
0.0
230
1.0
 70
     8
 71
     3
 72
    14
 73
    10
 74
     0
 42
0.000000001
 43
0.00000001
 40
0.0
 40
0.0
 40
0.0
 40
0.0
 40
0.2011881701792755
 40
0.3510035363577365
 40
0.4696329603644862
 40
0.5588511467888618
 40
0.6647888258676156
 40
0.8170919845007943
 40
1.0
 40
1.0
 40
1.0
 40
1.0
 10
29.8975748715876
 20
3.254306682880312
 30
0.0
 10
29.6658449065081
 20
3.363733946777152
 30
0.0
 10
29.26155653731383
 20
3.554646546496688
 30
0.0
 10
28.71828033216253
 20
3.818899582017651
 30
0.0
 10
28.30361316403649
 20
4.023753464916719
 30
0.0
 10
27.94390476210212
 20
4.20379957711474
 30
0.0
 10
27.54487093109955
 20
4.405963188950587
 30
0.0
 10
27.03306298272532
 20
4.668899200353163
 30
0.0
 10
26.64353007372282
 20
4.874610365850362
 30
0.0
 10
26.43098139737965
 20
4.986856686828496
 30
0.0
  0
SPLINE
  5
9D
330
1F
100
AcDbEntity
  8
0
  6
Continuous
 62
     1
370
    15
100
AcDbSpline
210
0.0
220
0.0
230
1.0
 70
     8
 71
     3
 72
    21
 73
    17
 74
     0
 42
0.000000001
 43
0.00000001
 40
0.0
 40
0.0
 40
0.0
 40
0.0
 40
0.1138559984629812
 40
0.209447825061782
 40
0.2897111218481673
 40
0.3590280413043576
 40
0.4202280164818937
 40
0.4911497647082135
 40
0.568382481484343
 40
0.6309189457225298
 40
0.6918838355138169
 40
0.7585156746999095
 40
0.8367577535119849
 40
0.9276941336543936
 40
0.9715043509745324
 40
1.0
 40
1.0
 40
1.0
 40
1.0
 10
25.69993912942847
 20
10.09191661621316
 30
0.0
 10
25.3220148353272
 20
10.0724267377969
 30
0.0
 10
24.62679084619975
 20
10.03657344328355
 30
0.0
 10
23.62502732336267
 20
9.9967743812386
 30
0.0
 10
22.76757640831511
 20
9.969562817141034
 30
0.0
 10
22.0338127750295
 20
9.950131023698606
 30
0.0
 10
21.34798103567688
 20
9.936146628035123
 30
0.0
 10
20.63048928456824
 20
9.925414471068507
 30
0.0
 10
19.9058232358684
 20
9.919217034615263
 30
0.0
 10
19.21626830601271
 20
9.917468086588176
 30
0.0
 10
18.56299856753018
 20
9.919306599844326
 30
0.0
 10
17.85555381046914
 20
9.92519347113364
 30
0.0
 10
17.0451000930503
 20
9.936958748200116
 30
0.0
 10
16.31315130279372
 20
9.952974169930688
 30
0.0
 10
15.75223688691718
 20
9.96833913442973
 30
0.0
 10
15.50379500148071
 20
9.976137875308183
 30
0.0
 10
15.40588437363781
 20
9.979211349068265
 30
0.0
  0
SPLINE
  5
9E
330
1F
100
AcDbEntity
  8
0
  6
Continuous
 62
     1
370
    15
100
AcDbSpline
210
0.0
220
0.0
230
1.0
 70
     8
 71
     3
 72
    32
 73
    28
 74
     0
 42
0.000000001
 43
0.00000001
 40
0.0
 40
0.0
 40
0.0
 40
0.0
 40
0.0553293388758074
 40
0.100761443548664
 40
0.1362916897542558
 40
0.1649871899401866
 40
0.1907829390237793
 40
0.2210253018105786
 40
0.2571682295932119
 40
0.2994862143979065
 40
0.3424089762715488
 40
0.3832069928760261
 40
0.4228020266989377
 40
0.4581530657155427
 40
0.4956295294574459
 40
0.5437131800265301
 40
0.5887094539584028
 40
0.6295195587065098
 40
0.6700074700686439
 40
0.7165907152015885
 40
0.7660888578996049
 40
0.7957754484912669
 40
0.8234761876753092
 40
0.8549519400126223
 40
0.8919412514205175
 40
0.9400155359826797
 40
1.0
 40
1.0
 40
1.0
 40
1.0
 10
58.081533049662
 20
8.686198331929893
 30
0.0
 10
57.6789567571805
 20
8.65304723728754
 30
0.0
 10
56.94581645236038
 20
8.592675069116876
 30
0.0
 10
55.94453612399694
 20
8.525796047268216
 30
0.0
 10
55.12570823957512
 20
8.47908097482504
 30
0.0
 10
54.44588208155098
 20
8.446125180045904
 30
0.0
 10
53.81189938679375
 20
8.419610458318877
 30
0.0
 10
53.13394537615021
 20
8.396190221475319
 30
0.0
 10
52.33130695278545
 20
8.375136048180215
 30
0.0
 10
51.43256592846454
 20
8.360592647187234
 30
0.0
 10
50.50031547195645
 20
8.355793790910704
 30
0.0
 10
49.58806681496613
 20
8.360894751681165
 30
0.0
 10
48.73144303432518
 20
8.374527498986788
 30
0.0
 10
47.89974858405436
 20
8.395838653861727
 30
0.0
 10
47.00511433519608
 20
8.427046540102127
 30
0.0
 10
46.03929095275085
 20
8.471177418914975
 30
0.0
 10
45.04842615077338
 20
8.528084023032768
 30
0.0
 10
44.11391413922905
 20
8.591975327354335
 30
0.0
 10
43.16811109468163
 20
8.665927805848922
 30
0.0
 10
42.15814698687419
 20
8.755465632749207
 30
0.0
 10
41.22495243420546
 20
8.849149495292435
 30
0.0
 10
40.44451641238076
 20
8.934772668859079
 30
0.0
 10
39.78825987602326
 20
9.010883784571583
 30
0.0
 10
39.06424162437845
 20
9.099924205209643
 30
0.0
 10
38.18431114173815
 20
9.214228572572619
 30
0.0
 10
37.11468981374232
 20
9.364052205337773
 30
0.0
 10
36.33060166057956
 20
9.484975909954795
 30
0.0
 10
35.89534668837152
 20
9.552101836395682
 30
0.0
  0
SPLINE
  5
9F
330
1F
100
AcDbEntity
  8
0
  6
Continuous
 62
     1
370
    15
100
AcDbSpline
210
0.0
220
0.0
230
1.0
 70
     8
 71
     3
 72
    23
 73
    19
 74
     0
 42
0.000000001
 43
0.00000001
 40
0.0
 40
0.0
 40
0.0
 40
0.0
 40
0.0559010338670426
 40
0.1052220942935321
 40
0.148449983569964
 40
0.1865181227491026
 40
0.2610351377997454
 40
0.3316697038431671
 40
0.4018377202209186
 40
0.4847205170438397
 40
0.5591702237518226
 40
0.6258935058219511
 40
0.6799185771887897
 40
0.7306289328922501
 40
0.815009221084018
 40
0.9082084834613343
 40
0.9863590340377844
 40
1.0
 40
1.0
 40
1.0
 40
1.0
 10
35.89534668837152
 20
-9.552101836395686
 30
0.0
 10
36.04932831717116
 20
-9.527781014283654
 30
0.0
 10
36.3391667753214
 20
-9.482002114314554
 30
0.0
 10
36.77441490946417
 20
-9.413890566188167
 30
0.0
 10
37.17660755415655
 20
-9.353319438744508
 30
0.0
 10
37.68014358036459
 20
-9.281920616621163
 30
0.0
 10
38.27256729018447
 20
-9.203725345948342
 30
0.0
 10
38.97321804256029
 20
-9.111582594896642
 30
0.0
 10
39.68276633479535
 20
-9.023497876160882
 30
0.0
 10
40.40365579329702
 20
-8.939160255253578
 30
0.0
 10
41.11312494897656
 20
-8.86149194325735
 30
0.0
 10
41.72962106005235
 20
-8.798479798199102
 30
0.0
 10
42.26616237377296
 20
-8.746939396467337
 30
0.0
 10
42.85839887710718
 20
-8.693147842322533
 30
0.0
 10
43.5838712363477
 20
-8.632318042479014
 30
0.0
 10
44.40113717577756
 20
-8.571954282791921
 30
0.0
 10
44.9902130058871
 20
-8.532392233788165
 30
0.0
 10
45.27969205102893
 20
-8.515831034551336
 30
0.0
 10
45.32271099167242
 20
-8.51336990564093
 30
0.0
  0
SPLINE
  5
A0
330
1F
100
AcDbEntity
  8
0
  6
Continuous
 62
     1
370
    15
100
AcDbSpline
210
0.0
220
0.0
230
1.0
 70
     8
 71
     3
 72
    29
 73
    25
 74
     0
 42
0.000000001
 43
0.00000001
 40
0.0
 40
0.0
 40
0.0
 40
0.0
 40
0.0643117090858343
 40
0.116259797325975
 40
0.155712961318062
 40
0.1826356099544833
 40
0.2039672255464156
 40
0.2579917770485397
 40
0.3167333491475149
 40
0.3611891637018475
 40
0.4047457227749776
 40
0.4530803979415802
 40
0.505723476966513
 40
0.5437423660697454
 40
0.5737072694850236
 40
0.598960863679772
 40
0.6366894965129183
 40
0.6880282464451307
 40
0.7358360054158625
 40
0.7729637805449914
 40
0.8065966303145737
 40
0.8546516293481159
 40
0.919170615798582
 40
1.0
 40
1.0
 40
1.0
 40
1.0
 10
12.00000000000001
 20
-10.1350207897195
 30
0.0
 10
12.29459233483758
 20
-10.11807196252044
 30
0.0
 10
12.8271430262877
 20
-10.08743263971149
 30
0.0
 10
13.54031251172864
 20
-10.0523988669281
 30
0.0
 10
14.08220766802885
 20
-10.02828181947752
 30
0.0
 10
14.48388220766844
 20
-10.01192704950972
 30
0.0
 10
14.95249560255053
 20
-9.994110261193407
 30
0.0
 10
15.56572220669695
 20
-9.973258745453059
 30
0.0
 10
16.28905130218669
 20
-9.953779561025607
 30
0.0
 10
16.90974443154686
 20
-9.939239791938357
 30
0.0
 10
17.50549674993463
 20
-9.926707193118142
 30
0.0
 10
18.17822398519246
 20
-9.919515328482985
 30
0.0
 10
18.8255814941961
 20
-9.91768164040342
 30
0.0
 10
19.38714389307089
 20
-9.917777450183554
 30
0.0
 10
19.82093204390571
 20
-9.919295066821952
 30
0.0
 10
20.24668118906651
 20
-9.922089053313721
 30
0.0
 10
20.77008658565169
 20
-9.927421337881045
 30
0.0
 10
21.39670555652515
 20
-9.936993078779562
 30
0.0
 10
22.02132510362635
 20
-9.9500796050482
 30
0.0
 10
22.56567833489469
 20
-9.964145291374974
 30
0.0
 10
23.1120239846625
 20
-9.980479311963757
 30
0.0
 10
23.78113041420276
 20
-10.00365709943091
 30
0.0
 10
24.66570350816305
 20
-10.03934352961094
 30
0.0
 10
25.33033324824764
 20
-10.07312851647992
 30
0.0
 10
25.69993912942847
 20
-10.09191661621317
 30
0.0
  0
SPLINE
  5
A1
330
1F
100
AcDbEntity
  8
외형선
  6
Continuous
370
    15
100
AcDbSpline
210
0.0
220
0.0
230
1.0
 70
     8
 71
     3
 72
     8
 73
     4
 74
     0
 42
0.000000001
 43
0.00000001
 40
0.0
 40
0.0
 40
0.0
 40
0.0
 40
1.0
 40
1.0
 40
1.0
 40
1.0
 10
12.00000000000034
 20
11.07598625584511
 30
0.0
 10
10.98633664521475
 20
11.36286232175829
 30
0.0
 10
9.966034127331891
 20
11.61481115371897
 30
0.0
 10
8.949771829446185
 20
11.82845070564927
 30
0.0
  0
LINE
  5
A2
330
1F
100
AcDbEntity
  8
외형선
  6
Continuous
370
    15
100
AcDbLine
 10
12.00000000000001
 20
11.0759862558452
 30
0.0
 11
12.00000000000001
 21
8.929034429845148
 31
0.0
  0
SPLINE
  5
A3
330
1F
100
AcDbEntity
  8
외형선
  6
Continuous
370
    15
100
AcDbSpline
210
0.0
220
0.0
230
1.0
 70
     8
 71
     3
 72
     8
 73
     4
 74
     0
 42
0.000000001
 43
0.00000001
 40
0.0
 40
0.0
 40
0.0
 40
0.0
 40
1.0
 40
1.0
 40
1.0
 40
1.0
 10
8.949888533354827
 20
10.09139883156496
 30
0.0
 10
9.96611233863972
 20
9.735133643344925
 30
0.0
 10
10.98637544702518
 20
9.345959893913912
 30
0.0
 10
12.0
 20
8.929034429845148
 30
0.0
  0
SPLINE
  5
A4
330
1F
100
AcDbEntity
  8
외형선
  6
Continuous
370
    15
100
AcDbSpline
210
0.0
220
0.0
230
1.0
 70
     8
 71
     3
 72
     8
 73
     4
 74
     0
 42
0.000000001
 43
0.00000001
 40
0.0
 40
0.0
 40
0.0
 40
0.0
 40
1.0
 40
1.0
 40
1.0
 40
1.0
 10
12.00000000000034
 20
-11.07598625584512
 30
0.0
 10
10.98633664521475
 20
-11.3628623217583
 30
0.0
 10
9.966034127331891
 20
-11.61481115371897
 30
0.0
 10
8.949771829446185
 20
-11.82845070564928
 30
0.0
  0
LINE
  5
A5
330
1F
100
AcDbEntity
  8
외형선
  6
Continuous
370
    15
100
AcDbLine
 10
8.949888533354867
 20
11.828648849632
 30
0.0
 11
8.949888533354901
 21
12.7
 31
0.0
  0
LINE
  5
A6
330
1F
100
AcDbEntity
  8
외형선
  6
Continuous
370
    15
100
AcDbLine
 10
-50.49999999999999
 20
10.79499999999999
 30
0.0
 11
-50.49999999999999
 21
-12.70000000000001
 31
0.0
  0
LINE
  5
A7
330
1F
100
AcDbEntity
  8
외형선
  6
Continuous
370
    15
100
AcDbLine
 10
8.949888533354901
 20
-12.7
 30
0.0
 11
8.949888533354827
 21
10.09140065304219
 31
0.0
  0
LINE
  5
A8
330
1F
100
AcDbEntity
  8
외형선
  6
Continuous
370
    15
100
AcDbLine
 10
-51.5
 20
10.79499999999999
 30
0.0
 11
-51.5
 21
-11.7
 31
0.0
  0
SPLINE
  5
A9
330
1F
100
AcDbEntity
  8
외형선
  6
Continuous
370
    15
100
AcDbSpline
210
0.0
220
0.0
230
1.0
 70
    24
 71
     3
 72
    14
 73
    10
 74
     0
 42
0.000000001
 43
0.00000001
 40
0.0
 40
0.0
 40
0.0
 40
0.0
 40
0.25
 40
0.25
 40
0.5
 40
0.5
 40
0.75
 40
0.75
 40
1.0
 40
1.0
 40
1.0
 40
1.0
 10
12.0
 20
5.985179925953132
 30
0.0
 10
12.0
 20
5.011138260121282
 30
0.0
 10
12.0
 20
3.936813264775451
 30
0.0
 10
12.0
 20
1.665902737321239
 30
0.0
 10
12.0
 20
0.4701834404142812
 30
0.0
 10
12.0
 20
-1.928737884149881
 30
0.0
 10
12.0
 20
-3.130661666230725
 30
0.0
 10
12.0
 20
-5.425213286906697
 30
0.0
 10
12.0
 20
-6.516941685109357
 30
0.0
 10
12.0
 20
-7.512468764923939
 30
0.0
  0
SPLINE
  5
AA
330
1F
100
AcDbEntity
  8
외형선
  6
Continuous
370
    15
100
AcDbSpline
210
0.0
220
0.0
230
1.0
 70
     8
 71
     3
 72
     8
 73
     4
 74
     0
 42
0.000000001
 43
0.00000001
 40
0.0
 40
0.0
 40
0.0
 40
0.0
 40
1.0
 40
1.0
 40
1.0
 40
1.0
 10
12.00000000000002
 20
-7.512468764923945
 30
0.0
 10
10.98636127605889
 20
-7.196685725521087
 30
0.0
 10
9.966083774774585
 20
-6.856105757623661
 30
0.0
 10
8.949845911442614
 20
-6.49511671455139
 30
0.0
  0
SPLINE
  5
AB
330
1F
100
AcDbEntity
  8
외형선
  6
Continuous
370
    15
100
AcDbSpline
210
0.0
220
0.0
230
1.0
 70
     8
 71
     3
 72
     8
 73
     4
 74
     0
 42
0.000000001
 43
0.00000001
 40
0.0
 40
0.0
 40
0.0
 40
0.0
 40
1.0
 40
1.0
 40
1.0
 40
1.0
 10
12.00000000000001
 20
5.985179925953128
 30
0.0
 10
10.98636609720962
 20
6.288644716624379
 30
0.0
 10
9.966093492580857
 20
6.57355913905351
 30
0.0
 10
8.949860411981904
 20
6.836152295993577
 30
0.0
  0
SPLINE
  5
AC
330
1F
100
AcDbEntity
  8
외형선
  6
Continuous
370
    15
100
AcDbSpline
210
0.0
220
0.0
230
1.0
 70
    24
 71
     3
 72
    10
 73
     6
 74
     0
 42
0.000000001
 43
0.00000001
 40
0.0
 40
0.0
 40
0.0
 40
0.0
 40
0.5
 40
0.5
 40
1.0
 40
1.0
 40
1.0
 40
1.0
 10
12.00000000000001
 20
8.929034429845144
 30
0.0
 10
12.00000000000001
 20
8.621161222146327
 30
0.0
 10
12.00000000000001
 20
8.189031518825836
 30
0.0
 10
12.00000000000001
 20
7.165794873214221
 30
0.0
 10
12.00000000000001
 20
6.578039784451173
 30
0.0
 10
12.00000000000002
 20
5.985179925953128
 30
0.0
  0
SPLINE
  5
AD
330
1F
100
AcDbEntity
  8
외형선
  6
Continuous
370
    15
100
AcDbSpline
210
0.0
220
0.0
230
1.0
 70
    24
 71
     3
 72
    14
 73
    10
 74
     0
 42
0.000000001
 43
0.00000001
 40
0.0
 40
0.0
 40
0.0
 40
0.0
 40
0.180936028358698
 40
0.3642211697212124
 40
0.4976946782121602
 40
0.6311681867031078
 40
0.7685193893985837
 40
0.9058705920940596
 40
1.0
 40
1.0
 40
1.0
 40
1.0
 10
12.00000000000001
 20
-7.512468764923945
 30
0.0
 10
12.00000000000001
 20
-7.804736357942641
 30
0.0
 10
12.00000000000001
 20
-8.393066087330974
 30
0.0
 10
12.00000000000001
 20
-9.018408239050778
 30
0.0
 10
12.00000000000001
 20
-9.472569238387123
 30
0.0
 10
12.00000000000001
 20
-9.788660530008421
 30
0.0
 10
12.00000000000001
 20
-10.00135391375658
 30
0.0
 10
12.00000000000001
 20
-10.13406405614164
 30
0.0
 10
12.00000000000001
 20
-10.10807228363629
 30
0.0
 10
12.00000000000001
 20
-10.09750297439696
 30
0.0
  0
SPLINE
  5
AE
330
1F
100
AcDbEntity
  8
외형선
  6
Continuous
370
    15
100
AcDbSpline
210
0.0
220
0.0
230
1.0
 70
    24
 71
     3
 72
    10
 73
     6
 74
     0
 42
0.000000001
 43
0.00000001
 40
0.0
 40
0.0
 40
0.0
 40
0.0
 40
0.1499088856489502
 40
0.7797116554047899
 40
1.0
 40
1.0
 40
1.0
 40
1.0
 10
12.00000000000001
 20
-10.17933855856364
 30
0.0
 10
12.00000000000001
 20
-10.22788982143704
 30
0.0
 10
12.0
 20
-10.48041645041663
 30
0.0
 10
12.00000000000001
 20
-10.7744673993779
 30
0.0
 10
12.00000000000001
 20
-11.01393247742897
 30
0.0
 10
12.00000000000001
 20
-11.07598625583189
 30
0.0
  0
SPLINE
  5
AF
330
1F
100
AcDbEntity
  8
0
  6
Continuous
 62
     1
370
    15
100
AcDbSpline
210
0.0
220
0.0
230
1.0
 70
     8
 71
     3
 72
    56
 73
    52
 74
     0
 42
0.000000001
 43
0.00000001
 40
0.0
 40
0.0
 40
0.0
 40
0.0
 40
0.0625000000000001
 40
0.0625000000000001
 40
0.09375
 40
0.09375
 40
0.1249999999999999
 40
0.1249999999999999
 40
0.1562499999999997
 40
0.1562499999999997
 40
0.1874999999999996
 40
0.1874999999999996
 40
0.2499999999999994
 40
0.2499999999999994
 40
0.3124999999999991
 40
0.3124999999999991
 40
0.343749999999999
 40
0.343749999999999
 40
0.3749999999999989
 40
0.3749999999999989
 40
0.4062499999999988
 40
0.4062499999999988
 40
0.4374999999999988
 40
0.4374999999999988
 40
0.4999999999999989
 40
0.4999999999999989
 40
0.562499999999999
 40
0.562499999999999
 40
0.593749999999999
 40
0.593749999999999
 40
0.624999999999999
 40
0.624999999999999
 40
0.6562499999999991
 40
0.6562499999999991
 40
0.6874999999999991
 40
0.6874999999999991
 40
0.7499999999999992
 40
0.7499999999999992
 40
0.7812499999999993
 40
0.7812499999999993
 40
0.8124999999999996
 40
0.8124999999999996
 40
0.8437499999999997
 40
0.8437499999999997
 40
0.8749999999999998
 40
0.8749999999999998
 40
0.9062499999999999
 40
0.9062499999999999
 40
0.9374999999999999
 40
0.9374999999999999
 40
1.0
 40
1.0
 40
1.0
 40
1.0
 10
62.80000000000001
 20
-12.05154903924513
 30
0.0
 10
61.74528912215166
 20
-11.85901839112478
 30
0.0
 10
60.68110882236256
 20
-11.62394776301092
 30
0.0
 10
59.09543758912737
 20
-11.21287334257238
 30
0.0
 10
58.56822103010467
 20
-11.06613084017127
 30
0.0
 10
57.50887528261998
 20
-10.75323144879587
 30
0.0
 10
56.978297759074
 20
-10.58720439607009
 30
0.0
 10
55.91947631308932
 20
-10.23730114917488
 30
0.0
 10
55.3927070961969
 20
-10.0536138668909
 30
0.0
 10
54.33476471075336
 20
-9.668617386708323
 30
0.0
 10
53.80428678841653
 20
-9.467367611342187
 30
0.0
 10
52.21454330703796
 20
-8.8396760821457
 30
0.0
 10
51.16027887898412
 20
-8.389793102564994
 30
0.0
 10
49.04000976527908
 20
-7.433292469815253
 30
0.0
 10
47.98563384410284
 20
-6.928424517471321
 30
0.0
 10
46.39602762568551
 20
-6.136441011274274
 30
0.0
 10
45.86551676490365
 20
-5.866772257063063
 30
0.0
 10
44.80735197164243
 20
-5.3182071284391
 30
0.0
 10
44.2806410297645
 20
-5.039488070659806
 30
0.0
 10
43.22200239901363
 20
-4.47287431982036
 30
0.0
 10
42.69143785047073
 20
-4.185210841368272
 30
0.0
 10
41.63196085106311
 20
-3.603410887293816
 30
0.0
 10
41.1045346000667
 20
-3.309554954592693
 30
0.0
 10
39.5192739448328
 20
-2.419599766345439
 30
0.0
 10
38.45505332313824
 20
-1.814422166402663
 30
0.0
 10
36.34492697067482
 20
-0.5991528621351877
 30
0.0
 10
35.28149501270582
 20
0.0142796992593242
 30
0.0
 10
33.69543091793517
 20
0.9294346329763015
 30
0.0
 10
33.16838915968728
 20
1.233629278658734
 30
0.0
 10
32.10918655858612
 20
1.840330256717166
 30
0.0
 10
31.57860204116051
 20
2.142531432941301
 30
0.0
 10
30.51960965476924
 20
2.742276091936033
 30
0.0
 10
29.99274725494977
 20
3.039533285824635
 30
0.0
 10
28.93503911925987
 20
3.629009086373733
 30
0.0
 10
28.40460011274444
 20
3.921144178130717
 30
0.0
 10
26.81473723725495
 20
4.786299833978143
 30
0.0
 10
25.76055526008666
 20
5.347410244175776
 30
0.0
 10
24.17037131083974
 20
6.159910922344954
 30
0.0
 10
23.64019362414389
 20
6.425639317637483
 30
0.0
 10
22.58373803972534
 20
6.944850191860819
 30
0.0
 10
22.05597651148381
 20
7.198587102140166
 30
0.0
 10
20.99634245031705
 20
7.693772477100904
 30
0.0
 10
20.46580462970566
 20
7.934999712481604
 30
0.0
 10
19.40742927888133
 20
8.402855912290212
 30
0.0
 10
18.88074170192771
 20
8.629336508715037
 30
0.0
 10
17.8222977543949
 20
9.06766001598598
 30
0.0
 10
17.29175216149038
 20
9.279312773365744
 30
0.0
 10
16.23215580953721
 20
9.685930407454132
 30
0.0
 10
15.70448498320169
 20
9.880734712348394
 30
0.0
 10
14.11965260709755
 20
10.43919276889307
 30
0.0
 10
13.05540374017122
 20
10.77729727641148
 30
0.0
 10
11.99999999999658
 20
11.07598625584618
 30
0.0
  0
SPLINE
  5
B0
330
1F
100
AcDbEntity
  8
0
  6
Continuous
 62
     1
370
    15
100
AcDbSpline
210
0.0
220
0.0
230
1.0
 70
     8
 71
     3
 72
    17
 73
    13
 74
     0
 42
0.000000001
 43
0.00000001
 40
0.0
 40
0.0
 40
0.0
 40
0.0
 40
0.102224286195857
 40
0.2044392320428237
 40
0.3066464674599743
 40
0.4088476280229511
 40
0.5110443537692161
 40
0.6132382879963544
 40
0.7154310760552932
 40
0.8176243641403176
 40
0.9198197980777711
 40
1.0
 40
1.0
 40
1.0
 40
1.0
 10
62.80000000000001
 20
-10.01994775747635
 30
0.0
 10
61.67789821971516
 20
-9.792474615126421
 30
0.0
 10
59.43379718685691
 20
-9.337549114905395
 30
0.0
 10
56.06784155169463
 20
-8.37422834915583
 30
0.0
 10
52.702173626343
 20
-7.232081148299644
 30
0.0
 10
49.33673644406913
 20
-5.916501681902339
 30
0.0
 10
45.97146670480124
 20
-4.463882025414847
 30
0.0
 10
42.60630255012053
 20
-2.906832000126431
 30
0.0
 10
39.24118192125489
 20
-1.281357390972506
 30
0.0
 10
35.87604163654228
 20
0.3718051900647222
 30
0.0
 10
32.75251164696566
 20
1.906057066482927
 30
0.0
 10
30.75067622607704
 20
2.847402865894991
 30
0.0
 10
29.87058296413819
 20
3.261259113302801
 30
0.0
  0
LINE
  5
B1
330
1F
100
AcDbEntity
  8
0
  6
Continuous
 62
     1
370
    15
100
AcDbLine
 10
62.79999999999973
 20
-12.05154903924513
 30
0.0
 11
62.80000000000001
 21
-10.01994775747635
 31
0.0
  0
SPLINE
  5
B2
330
1F
100
AcDbEntity
  8
0
  6
Continuous
 62
     1
370
    15
100
AcDbSpline
210
0.0
220
0.0
230
1.0
 70
     8
 71
     3
 72
    56
 73
    52
 74
     0
 42
0.000000001
 43
0.00000001
 40
0.0
 40
0.0
 40
0.0
 40
0.0
 40
0.0624999999999998
 40
0.0624999999999998
 40
0.0937499999999998
 40
0.0937499999999998
 40
0.1249999999999998
 40
0.1249999999999998
 40
0.1562499999999997
 40
0.1562499999999997
 40
0.1874999999999997
 40
0.1874999999999997
 40
0.2187499999999996
 40
0.2187499999999996
 40
0.2499999999999996
 40
0.2499999999999996
 40
0.3124999999999996
 40
0.3124999999999996
 40
0.3437499999999996
 40
0.3437499999999996
 40
0.3749999999999996
 40
0.3749999999999996
 40
0.4062499999999994
 40
0.4062499999999994
 40
0.4374999999999994
 40
0.4374999999999994
 40
0.4999999999999992
 40
0.4999999999999992
 40
0.5624999999999991
 40
0.5624999999999991
 40
0.5937499999999991
 40
0.5937499999999991
 40
0.6249999999999991
 40
0.6249999999999991
 40
0.6562499999999991
 40
0.6562499999999991
 40
0.6874999999999991
 40
0.6874999999999991
 40
0.749999999999999
 40
0.749999999999999
 40
0.8124999999999989
 40
0.8124999999999989
 40
0.8437499999999991
 40
0.8437499999999991
 40
0.8749999999999991
 40
0.8749999999999991
 40
0.9062499999999993
 40
0.9062499999999993
 40
0.9374999999999994
 40
0.9374999999999994
 40
1.0
 40
1.0
 40
1.0
 40
1.0
 10
11.99999999999999
 20
8.929034429845151
 30
0.0
 10
13.0554037401746
 20
8.494924292259395
 30
0.0
 10
14.11965260710086
 20
8.028502607368655
 30
0.0
 10
15.70448498320487
 20
7.291229233596795
 30
0.0
 10
16.23215580954036
 20
7.039034571740252
 30
0.0
 10
17.29175216149347
 20
6.522179803547481
 30
0.0
 10
17.82229775439795
 20
6.257733040759382
 30
0.0
 10
18.88074170193068
 20
5.718877608874875
 30
0.0
 10
19.40742927888427
 20
5.444690042408743
 30
0.0
 10
20.46580462970853
 20
4.886483152197263
 30
0.0
 10
20.99634245031989
 20
4.602652712377045
 30
0.0
 10
22.05597651148656
 20
4.027744176289353
 30
0.0
 10
22.58373803972805
 20
3.73691567441059
 30
0.0
 10
23.64019362414654
 20
3.149120209166032
 30
0.0
 10
24.17037131084236
 20
2.851872103340432
 30
0.0
 10
25.76055526008917
 20
1.953528602327056
 30
0.0
 10
26.81473723725739
 20
1.346886968546152
 30
0.0
 10
28.40460011274677
 20
0.4314369420442404
 30
0.0
 10
28.93503911926216
 20
0.1255535733155153
 30
0.0
 10
29.992747254952
 20
-0.4852910266600754
 30
0.0
 10
30.51960965477144
 20
-0.7901745850963234
 30
0.0
 10
31.57860204116264
 20
-1.399053239729786
 30
0.0
 10
32.10918655858819
 20
-1.702748961002406
 30
0.0
 10
33.16838915968928
 20
-2.306281234271086
 30
0.0
 10
33.69543091793714
 20
-2.605822310528803
 30
0.0
 10
35.28149501270769
 20
-3.497824100918857
 30
0.0
 10
36.34492697067661
 20
-4.08349295035192
 30
0.0
 10
38.45505332313989
 20
-5.219457416291354
 30
0.0
 10
39.51927394483438
 20
-5.772870459816234
 30
0.0
 10
41.10453460006818
 20
-6.568187912909188
 30
0.0
 10
41.63196085106456
 20
-6.827667026871319
 30
0.0
 10
42.69143785047208
 20
-7.335073254414175
 30
0.0
 10
43.22200239901495
 20
-7.582748471838219
 30
0.0
 10
44.2806410297657
 20
-8.064119439674382
 30
0.0
 10
44.80735197164363
 20
-8.297628482330438
 30
0.0
 10
45.86551676490478
 20
-8.75055022487491
 30
0.0
 10
46.39602762568661
 20
-8.969806484828931
 30
0.0
 10
47.98563384410386
 20
-9.603359455504442
 30
0.0
 10
49.04000976528006
 20
-9.99312794152736
 30
0.0
 10
51.1602788789849
 20
-10.70205469323527
 30
0.0
 10
52.2145433070387
 20
-11.01991716215939
 30
0.0
 10
53.80428678841714
 20
-11.43857930542263
 30
0.0
 10
54.33476471075396
 20
-11.5683524768691
 30
0.0
 10
55.39270709619744
 20
-11.80735946061941
 30
0.0
 10
55.91947631308982
 20
-11.91657040820515
 30
0.0
 10
56.97829775907441
 20
-12.11448835547036
 30
0.0
 10
57.50887528262035
 20
-12.20307305829384
 30
0.0
 10
58.56822103010497
 20
-12.35879177653828
 30
0.0
 10
59.0954375891276
 20
-12.42587583687853
 30
0.0
 10
60.6811088223627
 20
-12.59482775115356
 30
0.0
 10
61.74528912215175
 20
-12.66417833614039
 30
0.0
 10
62.80000000000001
 20
-12.69999999999999
 30
0.0
  0
SPLINE
  5
B3
330
1F
100
AcDbEntity
  8
0
  6
Continuous
 62
     1
370
    15
100
AcDbSpline
210
0.0
220
0.0
230
1.0
 70
     8
 71
     3
 72
    13
 73
     9
 74
     0
 42
0.000000001
 43
0.00000001
 40
0.0
 40
0.0
 40
0.0
 40
0.0
 40
0.1084998533289305
 40
0.2834971474978495
 40
0.4585070440696116
 40
0.6389992836309181
 40
0.819497995139929
 40
1.0
 40
1.0
 40
1.0
 40
1.0
 10
31.23222461849234
 20
-1.199424959358176
 30
0.0
 10
30.5366729424005
 20
-0.9210233922373072
 30
0.0
 10
28.71927955375152
 20
-0.1935933753650855
 30
0.0
 10
25.77994263970353
 20
0.9998054801321503
 30
0.0
 10
22.37906710769292
 20
2.353420386302634
 30
0.0
 10
18.94287786675534
 20
3.662736181594386
 30
0.0
 10
15.4714744564706
 20
4.904778415373281
 30
0.0
 10
13.1571651898464
 20
5.625043898804735
 30
0.0
 10
12.00000000000001
 20
5.985179925953132
 30
0.0
  0
SPLINE
  5
B4
330
1F
100
AcDbEntity
  8
외형선
  6
Continuous
370
    15
100
AcDbSpline
210
0.0
220
0.0
230
1.0
 70
    24
 71
     3
 72
    10
 73
     6
 74
     0
 42
0.000000001
 43
0.00000001
 40
0.0
 40
0.0
 40
0.0
 40
0.0
 40
0.5
 40
0.5
 40
1.0
 40
1.0
 40
1.0
 40
1.0
 10
12.00000000000001
 20
8.929034429845148
 30
0.0
 10
12.00000000000001
 20
8.621161222146334
 30
0.0
 10
12.00000000000001
 20
8.189031518825843
 30
0.0
 10
12.00000000000001
 20
7.165794873214226
 30
0.0
 10
12.00000000000001
 20
6.578039784451173
 30
0.0
 10
12.00000000000002
 20
5.985179925953128
 30
0.0
  0
LINE
  5
B5
330
1F
100
AcDbEntity
  8
0
  6
Continuous
 62
     1
370
    15
100
AcDbLine
 10
62.80000000000001
 20
-12.69999999999999
 30
0.0
 11
62.79999999999995
 21
-12.05154903924511
 31
0.0
  0
SPLINE
  5
B6
330
1F
100
AcDbEntity
  8
0
  6
Continuous
 62
     1
370
    15
100
AcDbSpline
210
0.0
220
0.0
230
1.0
 70
     8
 71
     3
 72
    10
 73
     6
 74
     0
 42
0.000000001
 43
0.00000001
 40
0.0
 40
0.0
 40
0.0
 40
0.0
 40
0.5
 40
0.5
 40
1.0
 40
1.0
 40
1.0
 40
1.0
 10
62.80000000000001
 20
-3.393985414576481
 30
0.0
 10
61.94940223300544
 20
-2.725276500219902
 30
0.0
 10
61.10743926415033
 20
-2.038875865003507
 30
0.0
 10
59.44054037091925
 20
-0.6311881139455331
 30
0.0
 10
58.61560326807887
 20
0.0900965873561361
 30
0.0
 10
57.80000000000169
 20
0.8305052561804253
 30
0.0
  0
LINE
  5
B7
330
1F
100
AcDbEntity
  8
0
  6
Continuous
 62
     1
370
    15
100
AcDbLine
 10
57.80000000000001
 20
2.93771943529659
 30
0.0
 11
62.80000000000001
 21
0.0000000000000039
 31
0.0
  0
LINE
  5
B8
330
1F
100
AcDbEntity
  8
0
  6
Continuous
 62
     1
370
    15
100
AcDbLine
 10
62.80000000000001
 20
0.0000000000000039
 30
0.0
 11
62.80000000000001
 21
-3.393985414576486
 31
0.0
  0
SPLINE
  5
B9
330
1F
100
AcDbEntity
  8
0
  6
Continuous
 62
     1
370
    15
100
AcDbSpline
210
0.0
220
0.0
230
1.0
 70
     8
 71
     3
 72
    18
 73
    14
 74
     0
 42
0.000000001
 43
0.00000001
 40
0.0
 40
0.0
 40
0.0
 40
0.0
 40
0.0878576744254546
 40
0.1757763732739015
 40
0.2636534038033804
 40
0.3684879780205436
 40
0.4733196486413973
 40
0.5781501271903113
 40
0.6829811260721459
 40
0.7878143573074109
 40
0.8926515312680282
 40
0.997494355415674
 40
1.0
 40
1.0
 40
1.0
 40
1.0
 10
57.8
 20
2.289784744250636
 30
0.0
 10
56.85998701488764
 20
2.70926313023383
 30
0.0
 10
54.9793081278813
 20
3.548511264641005
 30
0.0
 10
52.15790741824033
 20
4.738024362565289
 30
0.0
 10
49.15531056913852
 20
5.924971469526325
 30
0.0
 10
45.97147536368993
 20
7.063755595331004
 30
0.0
 10
42.6063347294547
 20
8.102500661656231
 30
0.0
 10
39.24121311039028
 20
8.952428324839351
 30
0.0
 10
35.87607882369615
 20
9.591232299751377
 30
0.0
 10
32.51086270276807
 20
10.01341806830157
 30
0.0
 10
29.14549969309392
 20
10.17385854437723
 30
0.0
 10
26.87505889907246
 20
10.19177063267261
 30
0.0
 10
25.72638750369105
 20
10.09150364888017
 30
0.0
 10
25.69957610810242
 20
10.08916329481742
 30
0.0
  0
SPLINE
  5
BA
330
1F
100
AcDbEntity
  8
0
  6
Continuous
 62
     1
370
    15
100
AcDbSpline
210
0.0
220
0.0
230
1.0
 70
    24
 71
     3
 72
     8
 73
     4
 74
     0
 42
0.000000001
 43
0.00000001
 40
0.0
 40
0.0
 40
0.0
 40
0.0
 40
1.0
 40
1.0
 40
1.0
 40
1.0
 10
57.80000000000001
 20
0.8305052561693261
 30
0.0
 10
57.80000000000001
 20
1.32272824036221
 30
0.0
 10
57.80000000000001
 20
1.810406971894832
 30
0.0
 10
57.80000000000001
 20
2.289784744250638
 30
0.0
  0
SPLINE
  5
BB
330
1F
100
AcDbEntity
  8
0
  6
Continuous
 62
     1
370
    15
100
AcDbSpline
210
0.0
220
0.0
230
1.0
 70
    24
 71
     3
 72
    12
 73
     8
 74
     0
 42
0.000000001
 43
0.00000001
 40
0.0
 40
0.0
 40
0.0
 40
0.0
 40
0.4999999999999999
 40
0.4999999999999999
 40
0.7499999999999999
 40
0.7499999999999999
 40
1.0
 40
1.0
 40
1.0
 40
1.0
 10
62.80000000000001
 20
-10.01994775747635
 30
0.0
 10
62.80000000000001
 20
-9.251840640348327
 30
0.0
 10
62.80000000000003
 20
-8.281307845612151
 30
0.0
 10
62.80000000000001
 20
-6.589011337313265
 30
0.0
 10
62.80000000000001
 20
-5.986484557406001
 30
0.0
 10
62.80000000000003
 20
-4.725678605577802
 30
0.0
 10
62.80000000000004
 20
-4.06749497066426
 30
0.0
 10
62.80000000000003
 20
-3.393985414576889
 30
0.0
  0
SPLINE
  5
BC
330
1F
100
AcDbEntity
  8
0
  6
Continuous
 62
     1
370
    15
100
AcDbSpline
210
0.0
220
0.0
230
1.0
 70
    24
 71
     3
 72
    10
 73
     6
 74
     0
 42
0.000000001
 43
0.00000001
 40
0.0
 40
0.0
 40
0.0
 40
0.0
 40
0.5
 40
0.5
 40
1.0
 40
1.0
 40
1.0
 40
1.0
 10
57.80000000000001
 20
2.289784744250642
 30
0.0
 10
57.80000000000001
 20
3.318117051978203
 30
0.0
 10
57.80000000000001
 20
4.293337801787546
 30
0.0
 10
57.8
 20
6.003026800807385
 30
0.0
 10
57.8
 20
6.735761112039311
 30
0.0
 10
57.8
 20
7.298596457508379
 30
0.0
  0
SPLINE
  5
BD
330
1F
100
AcDbEntity
  8
0
  6
Continuous
 62
     1
370
    15
100
AcDbSpline
210
0.0
220
0.0
230
1.0
 70
     8
 71
     3
 72
     9
 73
     5
 74
     0
 42
0.000000001
 43
0.00000001
 40
0.0
 40
0.0
 40
0.0
 40
0.0
 40
0.7123363477091471
 40
1.0
 40
1.0
 40
1.0
 40
1.0
 10
62.80000000000003
 20
8.889999999999999
 30
0.0
 10
61.67789947548536
 20
8.879754166286471
 30
0.0
 10
60.10265973358069
 20
8.86537074510282
 30
0.0
 10
58.52744317309281
 20
8.706870145816648
 30
0.0
 10
58.07431062415382
 20
8.6612752845357
 30
0.0
  0
SPLINE
  5
BE
330
1F
100
AcDbEntity
  8
0
  6
Continuous
 62
     1
370
    15
100
AcDbSpline
210
0.0
220
0.0
230
1.0
 70
     8
 71
     3
 72
     8
 73
     4
 74
     0
 42
0.000000001
 43
0.00000001
 40
0.0
 40
0.0
 40
0.0
 40
0.0
 40
1.0
 40
1.0
 40
1.0
 40
1.0
 10
62.80000000000001
 20
8.890000000000002
 30
0.0
 10
61.11935188656207
 20
8.434389401781292
 30
0.0
 10
59.45204233969719
 20
7.907363561684509
 30
0.0
 10
57.80000000000001
 20
7.298596457508378
 30
0.0
  0
SPLINE
  5
BF
330
1F
100
AcDbEntity
  8
0
  6
Continuous
 62
     1
370
    15
100
AcDbSpline
210
0.0
220
0.0
230
1.0
 70
     8
 71
     3
 72
    15
 73
    11
 74
     0
 42
0.000000001
 43
0.00000001
 40
0.0
 40
0.0
 40
0.0
 40
0.0
 40
0.0008124067385868
 40
0.1416452650780632
 40
0.2824834200708477
 40
0.4233291655192536
 40
0.5641847896271751
 40
0.7094522834545406
 40
0.854724850789447
 40
1.0
 40
1.0
 40
1.0
 40
1.0
 10
35.895513406175
 20
-9.551444043144254
 30
0.0
 10
35.88904260798655
 20
-9.55267174203098
 30
0.0
 10
34.76084181750082
 20
-9.76672429229509
 30
0.0
 10
32.51086151519856
 20
-9.991981959332607
 30
0.0
 10
29.14550250790301
 20
-10.19576190817594
 30
0.0
 10
25.77993607570001
 20
-10.13422858197832
 30
0.0
 10
22.37906242567463
 20
-9.841012839927801
 30
0.0
 10
18.94287197498534
 20
-9.30072165584276
 30
0.0
 10
15.47147173566443
 20
-8.537753883332982
 30
0.0
 10
13.15716410038295
 20
-7.854232495704462
 30
0.0
 10
12.00000000000001
 20
-7.512468764923941
 30
0.0
  0
SPLINE
  5
C0
330
1F
100
AcDbEntity
  8
외형선
  6
Continuous
370
    15
100
AcDbSpline
210
0.0
220
0.0
230
1.0
 70
    24
 71
     3
 72
    14
 73
    10
 74
     0
 42
0.000000001
 43
0.00000001
 40
0.0
 40
0.0
 40
0.0
 40
0.0
 40
0.25
 40
0.25
 40
0.5
 40
0.5
 40
0.75
 40
0.75
 40
1.0
 40
1.0
 40
1.0
 40
1.0
 10
12.0
 20
5.985179925953132
 30
0.0
 10
12.0
 20
5.011138260121282
 30
0.0
 10
12.0
 20
3.936813264775451
 30
0.0
 10
12.0
 20
1.665902737321239
 30
0.0
 10
12.0
 20
0.4701834404142812
 30
0.0
 10
12.0
 20
-1.928737884149881
 30
0.0
 10
12.0
 20
-3.130661666230725
 30
0.0
 10
12.0
 20
-5.425213286906697
 30
0.0
 10
12.0
 20
-6.516941685109357
 30
0.0
 10
12.0
 20
-7.512468764923939
 30
0.0
  0
SPLINE
  5
C1
330
1F
100
AcDbEntity
  8
외형선
  6
Continuous
370
    15
100
AcDbSpline
210
0.0
220
0.0
230
1.0
 70
    24
 71
     3
 72
    14
 73
    10
 74
     0
 42
0.000000001
 43
0.00000001
 40
0.0
 40
0.0
 40
0.0
 40
0.0
 40
0.1809960628942262
 40
0.3643420182274614
 40
0.4978598131999917
 40
0.631377608172522
 40
0.7687743839676885
 40
0.9061711597628551
 40
1.0
 40
1.0
 40
1.0
 40
1.0
 10
12.00000000000001
 20
-7.512468764923945
 30
0.0
 10
12.00000000000001
 20
-7.804736319680352
 30
0.0
 10
12.00000000000001
 20
-8.393065972047344
 30
0.0
 10
12.00000000000001
 20
-9.018408654100423
 30
0.0
 10
12.00000000000001
 20
-9.472568145842002
 30
0.0
 10
12.00000000000001
 20
-9.788664702429884
 30
0.0
 10
12.00000000000001
 20
-10.00133782488251
 30
0.0
 10
12.00000000000001
 20
-10.13399665926825
 30
0.0
 10
12.00000000000001
 20
-10.10807127063889
 30
0.0
 10
12.00000000000001
 20
-10.09755102989077
 30
0.0
  0
LINE
  5
C2
330
1F
100
AcDbEntity
  8
0
  6
Continuous
 62
     1
370
    15
100
AcDbLine
 10
62.80000000000001
 20
0.0000000000000039
 30
0.0
 11
62.80000000000001
 21
8.890000000000002
 31
0.0
  0
SPLINE
  5
C3
330
1F
100
AcDbEntity
  8
0
  6
Continuous
 62
     1
370
    15
100
AcDbSpline
210
0.0
220
0.0
230
1.0
 70
    24
 71
     3
 72
    10
 73
     6
 74
     0
 42
0.000000001
 43
0.00000001
 40
0.0
 40
0.0
 40
0.0
 40
0.0
 40
0.5
 40
0.5
 40
1.0
 40
1.0
 40
1.0
 40
1.0
 10
62.80000000000001
 20
8.889999999999995
 30
0.0
 10
62.80000000000001
 20
9.428889661452882
 30
0.0
 10
62.80000000000001
 20
10.05512935461238
 30
0.0
 10
62.80000000000001
 20
11.36897854420285
 30
0.0
 10
62.80000000000001
 20
12.05323263467869
 30
0.0
 10
62.80000000000003
 20
12.70000000000001
 30
0.0
  0
SPLINE
  5
C4
330
1F
100
AcDbEntity
  8
0
  6
Continuous
 62
     1
370
    15
100
AcDbSpline
210
0.0
220
0.0
230
1.0
 70
     8
 71
     3
 72
    14
 73
    10
 74
     0
 42
0.000000001
 43
0.00000001
 40
0.0
 40
0.0
 40
0.0
 40
0.0
 40
0.0220793039124218
 40
0.1270950913839667
 40
0.2324757503958565
 40
0.4218871174190801
 40
0.61183626270808
 40
0.8056300905162673
 40
1.0
 40
1.0
 40
1.0
 40
1.0
 10
45.3248142033832
 20
8.514113972700962
 30
0.0
 10
45.45337725056926
 20
8.57070601333754
 30
0.0
 10
46.19342468573863
 20
8.896466762174565
 30
0.0
 10
47.54828606362948
 20
9.432882878486241
 30
0.0
 10
49.87573326825901
 20
10.29789400823906
 30
0.0
 10
52.70009613429603
 20
11.1864510035838
 30
0.0
 10
56.03865982713627
 20
11.97966950543176
 30
0.0
 10
59.40646079714102
 20
12.52131327006494
 30
0.0
 10
61.66770161459304
 20
12.63322649473707
 30
0.0
 10
62.80000000000003
 20
12.70000000000001
 30
0.0
  0
SPLINE
  5
C5
330
1F
100
AcDbEntity
  8
0
  6
Continuous
 62
     1
370
    15
100
AcDbSpline
210
0.0
220
0.0
230
1.0
 70
     8
 71
     3
 72
     9
 73
     5
 74
     0
 42
0.000000001
 43
0.00000001
 40
0.0
 40
0.0
 40
0.0
 40
0.0
 40
0.0618839679473225
 40
1.0
 40
1.0
 40
1.0
 40
1.0
 10
15.40502716564702
 20
-9.979540716647431
 30
0.0
 10
15.33479125082397
 20
-10.00667182804276
 30
0.0
 10
14.19982985205211
 20
-10.44509089351749
 30
0.0
 10
13.06479468611023
 20
-10.77061080661604
 30
0.0
 10
11.99999999999658
 20
-11.07598625584619
 30
0.0
  0
SPLINE
  5
C6
330
1F
100
AcDbEntity
  8
외형선
  6
Continuous
370
    15
100
AcDbSpline
210
0.0
220
0.0
230
1.0
 70
    24
 71
     3
 72
    11
 73
     7
 74
     0
 42
0.000000001
 43
0.00000001
 40
0.0
 40
0.0
 40
0.0
 40
0.0
 40
0.1521422624038659
 40
0.4660457472947735
 40
0.7803140292179335
 40
0.9999999999999999
 40
0.9999999999999999
 40
0.9999999999999999
 40
0.9999999999999999
 10
12.00000000000001
 20
-10.17933855856364
 30
0.0
 10
12.00000000000001
 20
-10.22785251893978
 30
0.0
 10
12.00000000000001
 20
-10.37646162045103
 30
0.0
 10
12.00000000000001
 20
-10.61353706494341
 30
0.0
 10
12.00000000000001
 20
-10.86367849344808
 30
0.0
 10
12.00000000000001
 20
-11.01409858658297
 30
0.0
 10
12.00000000000001
 20
-11.07598625583187
 30
0.0
  0
LINE
  5
C7
330
1F
100
AcDbEntity
  8
중심선
100
AcDbLine
 10
-54.5
 20
-0.0000000000000068
 30
0.0
 11
65.80000000000001
 21
0.0000000000000079
 31
0.0
  0
LINE
  5
C8
330
1F
100
AcDbEntity
  8
참조1
100
AcDbLine
 10
8.499261314031163
 20
0.0010749287238892
 30
0.0
 11
8.499261314031168
 21
-39.99892507127611
 31
0.0
  0
LINE
  5
C9
330
1F
100
AcDbEntity
  8
참조1
100
AcDbLine
 10
8.499261314031168
 20
-39.99892507127611
 30
0.0
 11
-20.15080122126847
 21
-39.9989250712761
 31
0.0
  0
CIRCLE
  5
CA
330
1F
100
AcDbEntity
  8
해칭선
100
AcDbCircle
 10
0.0
 20
0.0
 30
0.0
 40
2.999999999999995
  0
INSERT
  5
CB
330
1F
100
AcDbEntity
  8
0
  6
Continuous
 62
     7
100
AcDbBlockReference
 66
     1
  2
블럭10
 10
-8.290272932125198
 20
-52.04717430164393
 30
0.0
  0
ATTRIB
  5
CC
330
CB
100
AcDbEntity
  8
FORMAT
 62
     2
100
AcDbText
 10
-17.47156822086648
 20
-49.97180738881174
 30
0.0
 40
4.233333333333333
  1
E1070064 [ 2 FLUTE ]
 41
0.75
  7
SLDTEXTSTYLE0
 11
-17.47156822086648
 21
-52.08847405547841
 31
0.0
100
AcDbAttribute
  2
AUTOATTR0
 70
     0
 74
     1
  0
SEQEND
  5
CD
330
CB
100
AcDbEntity
  8
0
  6
Continuous
 62
     7
  0
HATCH
  5
CE
330
1F
100
AcDbEntity
  8
중심선
100
AcDbHatch
 10
0.0
 20
0.0
 30
0.0
210
0.0
220
0.0
230
1.0
  2
SOLID
 70
     1
 71
     0
 91
        1
 92
        0
 93
        4
 72
     1
 10
-2.575363627744356
 20
-35.8
 11
-6.021638871581639
 21
-35.8
 72
     1
 10
-6.021638871581639
 20
-35.8
 11
-8.149868730785663
 21
-38.3363255805726
 72
     1
 10
-8.149868730785663
 20
-38.3363255805726
 11
-4.703560401835231
 21
-38.33628615127011
 72
     1
 10
-4.70356040183523
 20
-38.33628615127011
 11
-2.575363627744357
 21
-35.8
 97
        0
 75
     0
 76
     1
 98
        1
 10
-2.849261314031157
 20
-0.0010749287238965
  0
HATCH
  5
CF
330
1F
100
AcDbEntity
  8
중심선
100
AcDbHatch
 10
0.0
 20
0.0
 30
0.0
210
0.0
220
0.0
230
1.0
  2
SOLID
 70
     1
 71
     0
 91
        1
 92
        0
 93
        4
 72
     1
 10
2.437400363291623
 20
-35.79999999999998
 11
-1.00887488054566
 21
-35.80000000000003
 72
     1
 10
-1.00887488054566
 20
-35.80000000000003
 11
-5.540012888903076
 21
-41.20000000000002
 72
     1
 10
-5.540012888903076
 20
-41.20000000000002
 11
-2.093737645065794
 21
-41.20000000000002
 72
     1
 10
-2.093737645065794
 20
-41.20000000000002
 11
2.437400363291622
 21
-35.79999999999998
 97
        0
 75
     0
 76
     1
 98
        1
 10
-2.849261314031157
 20
-0.0010749287238965
  0
HATCH
  5
D0
330
1F
100
AcDbEntity
  8
중심선
100
AcDbHatch
 10
0.0
 20
0.0
 30
0.0
210
0.0
220
0.0
230
1.0
  2
SOLID
 70
     1
 71
     0
 91
        1
 92
        0
 93
        4
 72
     1
 10
7.450164354327546
 20
-35.79999999999998
 11
4.00388911049043
 21
-35.79999999999998
 72
     1
 10
4.00388911049043
 20
-35.79999999999998
 11
-3.044547791398875
 21
-44.20000000000002
 72
     1
 10
-3.044547791398875
 20
-44.20000000000002
 11
0.4017274524384078
 21
-44.20000000000002
 72
     1
 10
0.4017274524384078
 20
-44.20000000000002
 11
7.450164354327546
 21
-35.79999999999998
 97
        0
 75
     0
 76
     1
 98
        1
 10
-2.849261314031157
 20
-0.0010749287238965
  0
HATCH
  5
D1
330
1F
100
AcDbEntity
  8
중심선
100
AcDbHatch
 10
0.0
 20
0.0
 30
0.0
210
0.0
220
0.0
230
1.0
  2
SOLID
 70
     1
 71
     0
 91
        1
 92
        0
 93
        6
 72
     3
 10
12.25005478533969
 20
-40.00000000005127
 11
3.960054785062283
 21
1.540882976769353E-10
 40
0.3939339440162628
 50
17.09539180608436
 51
320.0019657685075
 73
     0
 72
     1
 10
13.93305444104028
 20
-38.58789400463827
 11
16.23835631474135
 21
-36.65356729459032
 72
     3
 10
12.25005478528684
 20
-40.00000000000015
 11
6.600054785286829
 21
-1.278976924368180E-13
 40
0.636358354079598
 50
39.99873849337434
 51
368.4976242363724
 73
     1
 72
     1
 10
18.67538727718745
 20
-39.03999999993002
 11
10.93012209212277
 21
-39.03999999993002
 72
     1
 10
10.93012209212277
 20
-39.03999999993002
 11
10.93009704767683
 21
-40.95999999992991
 72
     1
 10
10.93009704767683
 20
-40.95999999992991
 11
15.37147681714887
 21
-40.95999999992988
 97
        0
 75
     0
 76
     1
 98
        1
 10
-2.849261314031157
 20
-0.0010749287238965
  0
DIMENSION
  5
D2
330
1F
100
AcDbEntity
  8
치수문자_일반주서
100
AcDbDimension
  2
_D
 10
-63.99999999999996
 20
-12.70000000000007
 30
0.0
 11
-64.0
 21
-0.0000000000000068
 31
0.0
 70
   160
  1
%%c<>
 71
     2
 42
25.40000000000001
 52
-270.0
  3
SLDDIMSTYLE0
100
AcDbAlignedDimension
 13
-50.49999999999999
 23
12.69999999999999
 33
0.0
 14
-50.49999999999999
 24
-12.70000000000002
 34
0.0
 50
90.0000000000002
100
AcDbRotatedDimension
1001
ACAD
1000
DSTYLE
1002
{
1070
   171
1070
     6
1070
   273
1070
     7
1002
}
  0
DIMENSION
  5
E7
330
1F
100
AcDbEntity
  8
치수문자_일반주서
100
AcDbDimension
  2
_D_1
 10
12.00000000000001
 20
25.86560788423941
 30
0.0
 11
37.40000000000002
 21
25.86560788423941
 31
0.0
 70
   160
  1
<>
 71
     2
 42
50.8
  3
SLDDIMSTYLE0
100
AcDbAlignedDimension
 13
62.80000000000001
 23
12.70000000000001
 33
0.0
 14
12.00000000000001
 24
11.07598625584521
 34
0.0
 50
0.000000000000004
100
AcDbRotatedDimension
1001
ACAD
1000
DSTYLE
1002
{
1070
   171
1070
     6
1070
   273
1070
     7
1002
}
  0
DIMENSION
  5
FC
330
1F
100
AcDbEntity
  8
치수문자_일반주서
100
AcDbDimension
  2
_D_2
 10
-51.5
 20
42.57707860462923
 30
0.0
 11
5.649999999999869
 21
42.57707860462923
 31
0.0
 70
   160
  1
<>
 71
     2
 42
114.3
  3
SLDDIMSTYLE0
100
AcDbAlignedDimension
 13
62.80000000000003
 23
12.70000000000001
 33
0.0
 14
-51.5
 24
11.69999999999999
 34
0.0
 50
0.0000000000000071
100
AcDbRotatedDimension
1001
ACAD
1000
DSTYLE
1002
{
1070
   171
1070
     6
1070
   273
1070
     7
1002
}
  0
DIMENSION
  5
10F
330
1F
100
AcDbEntity
  8
치수문자_일반주서
100
AcDbDimension
  2
_D_3
 10
88.09386576306444
 20
12.7000000000001
 30
0.0
 11
88.09386576306437
 21
33.29326615341655
 31
0.0
 70
   160
  1
%%c<>
 71
     2
 42
25.4
 52
-270.0
  3
SLDDIMSTYLE0
100
AcDbAlignedDimension
 13
62.80000000000001
 23
-12.69999999999999
 33
0.0
 14
62.80000000000001
 24
12.70000000000001
 34
0.0
 50
90.0000000000002
100
AcDbRotatedDimension
1001
ACAD
1000
DSTYLE
1002
{
1070
   171
1070
     6
1070
   273
1070
     7
1002
}
  0
LINE
  5
123
330
1F
100
AcDbEntity
  8
참조1
100
AcDbLine
 10
77.82153940838579
 20
7.441074928723896
 30
0.0
 11
77.82153940838579
 21
-7.438925071276109
 31
0.0
  0
LINE
  5
124
330
1F
100
AcDbEntity
  8
참조1
100
AcDbLine
 10
90.52153940838579
 20
5.441074928723896
 30
0.0
 11
77.82153940838579
 21
5.441074928723896
 31
0.0
  0
SOLID
  5
125
330
1F
100
AcDbEntity
  8
참조1
100
AcDbTrace
 10
77.82153940838579
 20
5.441074928723896
 30
0.0
 11
84.17153940838578
 21
4.425074928723896
 31
0.0
 12
84.17153940838578
 22
6.457074928723896
 32
0.0
 13
84.17153940838578
 23
6.457074928723896
 33
0.0
  0
LINE
  5
126
330
1F
100
AcDbEntity
  8
참조1
100
AcDbLine
 10
90.52153940838579
 20
-5.438925071276109
 30
0.0
 11
77.82153940838579
 21
-5.438925071276109
 31
0.0
  0
SOLID
  5
127
330
1F
100
AcDbEntity
  8
참조1
100
AcDbTrace
 10
77.82153940838579
 20
-5.438925071276109
 30
0.0
 11
84.17153940838578
 21
-6.454925071276109
 31
0.0
 12
84.17153940838578
 22
-4.422925071276109
 32
0.0
 13
84.17153940838578
 23
-4.422925071276109
 33
0.0
  0
MTEXT
  5
128
330
1F
100
AcDbEntity
  8
참조1
100
AcDbMText
 10
87.20588954101179
 20
11.01136670591222
 30
0.0
 40
3.5
 41
0.0
 71
     1
 72
     1
  1
A
  7
SLDTEXTSTYLE0
 73
     1
 44
1.0
  0
MTEXT
  5
129
330
1F
100
AcDbEntity
  8
참조1
100
AcDbMText
 10
87.20588954101179
 20
0.1313667059122192
 30
0.0
 40
3.5
 41
0.0
 71
     1
 72
     1
  1
A
  7
SLDTEXTSTYLE0
 73
     1
 44
1.0
  0
INSERT
  5
130
330
1F
100
AcDbEntity
  8
해칭선
100
AcDbBlockReference
  2
SW_DOWELSYMBOL_0
 10
0.0
 20
0.0
 30
0.0
  0
LINE
  5
1E9
330
1F
100
AcDbEntity
  8
외형선
  6
Continuous
370
    15
100
AcDbLine
 10
-36.89500000000001
 20
12.7
 30
0.0
 11
-30.98632499999988
 21
12.7
 31
0.0
  0
LINE
  5
1EA
330
1F
100
AcDbEntity
  8
외형선
  6
Continuous
370
    15
100
AcDbLine
 10
-29.08132499999991
 20
10.79499999999999
 30
0.0
 11
-15.97492500000001
 21
10.79499999999999
 31
0.0
  0
LINE
  5
1EB
330
1F
100
AcDbEntity
  8
외형선
  6
Continuous
370
    15
100
AcDbLine
 10
-29.08132499999991
 20
10.79500000000001
 30
0.0
 11
-30.98632499999988
 21
12.7
 31
0.0
  0
LINE
  5
1EC
330
1F
100
AcDbEntity
  8
외형선
  6
Continuous
370
    15
100
AcDbLine
 10
-15.97492500000001
 20
10.79500000000001
 30
0.0
 11
-14.06992499999998
 21
12.7
 31
0.0
  0
LINE
  5
1ED
330
1F
100
AcDbEntity
  8
외형선
  6
Continuous
370
    15
100
AcDbLine
 10
-51.5
 20
10.79499999999999
 30
0.0
 11
-38.79999999999998
 21
10.79499999999999
 31
0.0
  0
LINE
  5
1EE
330
1F
100
AcDbEntity
  8
외형선
  6
Continuous
370
    15
100
AcDbLine
 10
-38.79999999999998
 20
10.79500000000001
 30
0.0
 11
-36.89500000000001
 21
12.69999999999998
 31
0.0
  0
LINE
  5
1EF
330
1F
100
AcDbEntity
  8
외형선
  6
Continuous
370
    15
100
AcDbLine
 10
-30.98632499999987
 20
12.69999999999999
 30
0.0
 11
-36.895
 21
12.69999999999999
 31
0.0
  0
ENDSEC
  0
SECTION
  2
OBJECTS
  0
DICTIONARY
  5
C
330
0
100
AcDbDictionary
281
     1
  3
ACAD_GROUP
350
D
  3
ACAD_IMAGE_VARS
350
154
  3
ACAD_LAYOUT
350
1A
  3
ACAD_MLINESTYLE
350
17
  3
ACAD_PLOTSETTINGS
350
19
  3
ACAD_PLOTSTYLENAME
350
E
  3
ACAD_SCALELIST
350
47
  3
APPDATA
350
152
  3
DWGPROPS
350
1F0
  0
DICTIONARY
  5
17B
330
2
100
AcDbDictionary
280
     1
281
     1
  3
ACAD_LAYERSTATES
360
17C
  0
DICTIONARY
  5
D
102
{ACAD_REACTORS
330
C
102
}
330
C
100
AcDbDictionary
281
     1
  0
RASTERVARIABLES
  5
154
102
{ACAD_REACTORS
330
C
102
}
330
C
100
AcDbRasterVariables
 90
        0
 70
     1
 71
     1
 72
     1
  0
DICTIONARY
  5
1A
102
{ACAD_REACTORS
330
C
102
}
330
C
100
AcDbDictionary
281
     1
  3
Layout1
350
1E
  3
Layout2
350
26
  3
Model
350
22
  0
DICTIONARY
  5
17
102
{ACAD_REACTORS
330
C
102
}
330
C
100
AcDbDictionary
281
     1
  3
Standard
350
18
  0
DICTIONARY
  5
19
102
{ACAD_REACTORS
330
C
102
}
330
C
100
AcDbDictionary
281
     1
  0
ACDBDICTIONARYWDFLT
  5
E
102
{ACAD_REACTORS
330
C
102
}
330
C
100
AcDbDictionary
281
     1
  3
Normal
350
F
100
AcDbDictionaryWithDefault
340
F
  0
DICTIONARY
  5
47
102
{ACAD_REACTORS
330
C
102
}
330
C
100
AcDbDictionary
281
     1
  3
A0
350
48
  3
A1
350
49
  3
A2
350
4A
  3
A3
350
4B
  3
A4
350
4C
  3
A5
350
4D
  3
A6
350
4E
  3
A7
350
4F
  3
A8
350
50
  3
A9
350
51
  3
B0
350
52
  3
B1
350
53
  3
B2
350
54
  3
B3
350
55
  3
B4
350
56
  3
B5
350
57
  3
B6
350
58
  3
B7
350
59
  3
B8
350
5A
  3
B9
350
5B
  3
C0
350
5C
  3
C1
350
5D
  3
C2
350
5E
  3
C3
350
5F
  3
C4
350
60
  3
C5
350
61
  3
C6
350
62
  3
C7
350
63
  3
C8
350
64
  3
C9
350
65
  3
D0
350
66
  3
D1
350
67
  3
D2
350
68
  0
DICTIONARY
  5
152
102
{ACAD_REACTORS
330
C
102
}
330
C
100
AcDbDictionary
281
     1
  0
XRECORD
  5
1F0
102
{ACAD_REACTORS
330
C
102
}
330
C
100
AcDbXrecord
280
     1
  1
DWGPROPS COOKIE
  2

  3

  4

  6

  7

  8
12016016
  9

300
=
301
=
302
=
303
=
304
=
305
=
306
=
307
=
308
=
309
=
 40
0.0
 41
2458311.089320555
 42
2458318.290830463
  1

 90
        0
  0
DICTIONARY
  5
17C
102
{ACAD_REACTORS
330
17B
102
}
330
17B
100
AcDbDictionary
281
     1
  0
LAYOUT
  5
1E
102
{ACAD_REACTORS
330
1A
102
}
330
1A
100
AcDbPlotSettings
  1

  2
none_device
  4

  6

 40
0.0
 41
0.0
 42
0.0
 43
0.0
 44
0.0
 45
0.0
 46
0.0
 47
0.0
 48
0.0
 49
0.0
140
0.0
141
0.0
142
1.0
143
1.0
 70
   688
 72
     1
 73
     0
 74
     5
  7

 75
    16
147
1.0
148
0.0
149
0.0
100
AcDbLayout
  1
Layout1
 70
     1
 71
     1
 10
0.0
 20
0.0
 11
420.0
 21
297.0
 12
0.0
 22
0.0
 32
0.0
 14
1.000000000000000E+20
 24
1.000000000000000E+20
 34
1.000000000000000E+20
 15
-1.000000000000000E+20
 25
-1.000000000000000E+20
 35
-1.000000000000000E+20
146
0.0
 13
0.0
 23
0.0
 33
0.0
 16
1.0
 26
0.0
 36
0.0
 17
0.0
 27
1.0
 37
0.0
 76
     0
330
1B
  0
LAYOUT
  5
26
102
{ACAD_REACTORS
330
1A
102
}
330
1A
100
AcDbPlotSettings
  1

  2
none_device
  4

  6

 40
0.0
 41
0.0
 42
0.0
 43
0.0
 44
0.0
 45
0.0
 46
0.0
 47
0.0
 48
0.0
 49
0.0
140
0.0
141
0.0
142
1.0
143
1.0
 70
   688
 72
     1
 73
     0
 74
     5
  7

 75
    16
147
1.0
148
0.0
149
0.0
100
AcDbLayout
  1
Layout2
 70
     1
 71
     2
 10
0.0
 20
0.0
 11
0.0
 21
0.0
 12
0.0
 22
0.0
 32
0.0
 14
0.0
 24
0.0
 34
0.0
 15
0.0
 25
0.0
 35
0.0
146
0.0
 13
0.0
 23
0.0
 33
0.0
 16
1.0
 26
0.0
 36
0.0
 17
0.0
 27
1.0
 37
0.0
 76
     0
330
23
  0
LAYOUT
  5
22
102
{ACAD_REACTORS
330
1A
102
}
330
1A
100
AcDbPlotSettings
  1

  2
none_device
  4
ANSI_A_(11.00_x_8.50_Inches)
  6

 40
6.35
 41
19.05
 42
6.35000508
 43
19.05000254
 44
279.4
 45
215.9
 46
100.1822737891808
 47
43.17679658125441
 48
0.0
 49
0.0
140
0.0
141
0.0
142
0.0474689590334285
143
1.0
 70
  1696
 72
     0
 73
     0
 74
     0
  7

 75
     0
147
0.0235690232323232
148
0.0
149
0.0
100
AcDbLayout
  1
Model
 70
     1
 71
     0
 10
0.0
 20
0.0
 11
420.0
 21
297.0
 12
0.0
 22
0.0
 32
0.0
 14
1.000000000000000E+20
 24
1.000000000000000E+20
 34
1.000000000000000E+20
 15
-1.000000000000000E+20
 25
-1.000000000000000E+20
 35
-1.000000000000000E+20
146
0.0
 13
0.0
 23
0.0
 33
0.0
 16
1.0
 26
0.0
 36
0.0
 17
0.0
 27
1.0
 37
0.0
 76
     0
330
1F
331
29
  0
MLINESTYLE
  5
18
102
{ACAD_REACTORS
330
17
102
}
330
17
100
AcDbMlineStyle
  2
Standard
 70
     0
  3

 62
   256
 51
90.0
 52
90.0
 71
     2
 49
0.5
 62
   256
  6
BYLAYER
 49
-0.5
 62
   256
  6
BYLAYER
  0
ACDBPLACEHOLDER
  5
F
102
{ACAD_REACTORS
330
E
102
}
330
E
  0
SCALE
  5
48
102
{ACAD_REACTORS
330
47
102
}
330
47
100
AcDbScale
 70
     0
300
1:1
140
1.0
141
1.0
290
     1
  0
SCALE
  5
49
102
{ACAD_REACTORS
330
47
102
}
330
47
100
AcDbScale
 70
     0
300
1:2
140
1.0
141
2.0
290
     0
  0
SCALE
  5
4A
102
{ACAD_REACTORS
330
47
102
}
330
47
100
AcDbScale
 70
     0
300
1:4
140
1.0
141
4.0
290
     0
  0
SCALE
  5
4B
102
{ACAD_REACTORS
330
47
102
}
330
47
100
AcDbScale
 70
     0
300
1:5
140
1.0
141
5.0
290
     0
  0
SCALE
  5
4C
102
{ACAD_REACTORS
330
47
102
}
330
47
100
AcDbScale
 70
     0
300
1:8
140
1.0
141
8.0
290
     0
  0
SCALE
  5
4D
102
{ACAD_REACTORS
330
47
102
}
330
47
100
AcDbScale
 70
     0
300
1:10
140
1.0
141
10.0
290
     0
  0
SCALE
  5
4E
102
{ACAD_REACTORS
330
47
102
}
330
47
100
AcDbScale
 70
     0
300
1:16
140
1.0
141
16.0
290
     0
  0
SCALE
  5
4F
102
{ACAD_REACTORS
330
47
102
}
330
47
100
AcDbScale
 70
     0
300
1:20
140
1.0
141
20.0
290
     0
  0
SCALE
  5
50
102
{ACAD_REACTORS
330
47
102
}
330
47
100
AcDbScale
 70
     0
300
1:30
140
1.0
141
30.0
290
     0
  0
SCALE
  5
51
102
{ACAD_REACTORS
330
47
102
}
330
47
100
AcDbScale
 70
     0
300
1:40
140
1.0
141
40.0
290
     0
  0
SCALE
  5
52
102
{ACAD_REACTORS
330
47
102
}
330
47
100
AcDbScale
 70
     0
300
1:50
140
1.0
141
50.0
290
     0
  0
SCALE
  5
53
102
{ACAD_REACTORS
330
47
102
}
330
47
100
AcDbScale
 70
     0
300
1:100
140
1.0
141
100.0
290
     0
  0
SCALE
  5
54
102
{ACAD_REACTORS
330
47
102
}
330
47
100
AcDbScale
 70
     0
300
2:1
140
2.0
141
1.0
290
     0
  0
SCALE
  5
55
102
{ACAD_REACTORS
330
47
102
}
330
47
100
AcDbScale
 70
     0
300
4:1
140
4.0
141
1.0
290
     0
  0
SCALE
  5
56
102
{ACAD_REACTORS
330
47
102
}
330
47
100
AcDbScale
 70
     0
300
8:1
140
8.0
141
1.0
290
     0
  0
SCALE
  5
57
102
{ACAD_REACTORS
330
47
102
}
330
47
100
AcDbScale
 70
     0
300
10:1
140
10.0
141
1.0
290
     0
  0
SCALE
  5
58
102
{ACAD_REACTORS
330
47
102
}
330
47
100
AcDbScale
 70
     0
300
100:1
140
100.0
141
1.0
290
     0
  0
SCALE
  5
59
102
{ACAD_REACTORS
330
47
102
}
330
47
100
AcDbScale
 70
     0
300
1/128" = 1'-0"
140
0.0078125
141
12.0
290
     0
  0
SCALE
  5
5A
102
{ACAD_REACTORS
330
47
102
}
330
47
100
AcDbScale
 70
     0
300
1/64" = 1'-0"
140
0.015625
141
12.0
290
     0
  0
SCALE
  5
5B
102
{ACAD_REACTORS
330
47
102
}
330
47
100
AcDbScale
 70
     0
300
1/32" = 1'-0"
140
0.03125
141
12.0
290
     0
  0
SCALE
  5
5C
102
{ACAD_REACTORS
330
47
102
}
330
47
100
AcDbScale
 70
     0
300
1/16" = 1'-0"
140
0.0625
141
12.0
290
     0
  0
SCALE
  5
5D
102
{ACAD_REACTORS
330
47
102
}
330
47
100
AcDbScale
 70
     0
300
3/32" = 1'-0"
140
0.09375
141
12.0
290
     0
  0
SCALE
  5
5E
102
{ACAD_REACTORS
330
47
102
}
330
47
100
AcDbScale
 70
     0
300
1/8" = 1'-0"
140
0.125
141
12.0
290
     0
  0
SCALE
  5
5F
102
{ACAD_REACTORS
330
47
102
}
330
47
100
AcDbScale
 70
     0
300
3/16" = 1'-0"
140
0.1875
141
12.0
290
     0
  0
SCALE
  5
60
102
{ACAD_REACTORS
330
47
102
}
330
47
100
AcDbScale
 70
     0
300
1/4" = 1'-0"
140
0.25
141
12.0
290
     0
  0
SCALE
  5
61
102
{ACAD_REACTORS
330
47
102
}
330
47
100
AcDbScale
 70
     0
300
3/8" = 1'-0"
140
0.375
141
12.0
290
     0
  0
SCALE
  5
62
102
{ACAD_REACTORS
330
47
102
}
330
47
100
AcDbScale
 70
     0
300
1/2" = 1'-0"
140
0.5
141
12.0
290
     0
  0
SCALE
  5
63
102
{ACAD_REACTORS
330
47
102
}
330
47
100
AcDbScale
 70
     0
300
3/4" = 1'-0"
140
0.75
141
12.0
290
     0
  0
SCALE
  5
64
102
{ACAD_REACTORS
330
47
102
}
330
47
100
AcDbScale
 70
     0
300
1" = 1'-0"
140
1.0
141
12.0
290
     0
  0
SCALE
  5
65
102
{ACAD_REACTORS
330
47
102
}
330
47
100
AcDbScale
 70
     0
300
1-1/2" = 1'-0"
140
1.5
141
12.0
290
     0
  0
SCALE
  5
66
102
{ACAD_REACTORS
330
47
102
}
330
47
100
AcDbScale
 70
     0
300
3" = 1'-0"
140
3.0
141
12.0
290
     0
  0
SCALE
  5
67
102
{ACAD_REACTORS
330
47
102
}
330
47
100
AcDbScale
 70
     0
300
6" = 1'-0"
140
6.0
141
12.0
290
     0
  0
SCALE
  5
68
102
{ACAD_REACTORS
330
47
102
}
330
47
100
AcDbScale
 70
     0
300
1'-0" = 1'-0"
140
12.0
141
12.0
290
     0
  0
ENDSEC
  0
EOF
