  0
SECTION
  2
HEADER
  9
$ACADVER
  1
AC1015
  9
$ACADMAINTVER
 70
     6
  9
$DWGCODEPAGE
  3
ANSI_949
  9
$INSBASE
 10
0.0
 20
0.0
 30
0.0
  9
$EXTMIN
 10
1.000000000000000E+20
 20
1.000000000000000E+20
 30
1.000000000000000E+20
  9
$EXTMAX
 10
-1.000000000000000E+20
 20
-1.000000000000000E+20
 30
-1.000000000000000E+20
  9
$LIMMIN
 10
0.0
 20
0.0
  9
$LIMMAX
 10
420.0
 20
297.0
  9
$ORTHOMODE
 70
     1
  9
$REGENMODE
 70
     1
  9
$FILLMODE
 70
     1
  9
$QTEXTMODE
 70
     0
  9
$MIRRTEXT
 70
     1
  9
$LTSCALE
 40
1.0
  9
$ATTMODE
 70
     1
  9
$TEXTSIZE
 40
3.5
  9
$TRACEWID
 40
1.0
  9
$TEXTSTYLE
  7
Standard
  9
$CLAYER
  8
0
  9
$CELTYPE
  6
ByLayer
  9
$CECOLOR
 62
   256
  9
$CELTSCALE
 40
1.0
  9
$DISPSILH
 70
     0
  9
$DIMSCALE
 40
1.0
  9
$DIMASZ
 40
3.302
  9
$DIMEXO
 40
1.0
  9
$DIMDLI
 40
3.75
  9
$DIMRND
 40
0.0
  9
$DIMDLE
 40
0.0
  9
$DIMEXE
 40
1.0
  9
$DIMTP
 40
0.0
  9
$DIMTM
 40
0.0
  9
$DIMTXT
 40
3.5
  9
$DIMCEN
 40
2.5
  9
$DIMTSZ
 40
0.0
  9
$DIMTOL
 70
     0
  9
$DIMLIM
 70
     0
  9
$DIMTIH
 70
     1
  9
$DIMTOH
 70
     1
  9
$DIMSE1
 70
     0
  9
$DIMSE2
 70
     0
  9
$DIMTAD
 70
     1
  9
$DIMZIN
 70
     0
  9
$DIMBLK
  1

  9
$DIMASO
 70
     1
  9
$DIMSHO
 70
     1
  9
$DIMPOST
  1

  9
$DIMAPOST
  1

  9
$DIMALT
 70
     0
  9
$DIMALTD
 70
     3
  9
$DIMALTF
 40
0.0393700787401575
  9
$DIMLFAC
 40
1.0
  9
$DIMTOFL
 70
     1
  9
$DIMTVP
 40
0.0
  9
$DIMTIX
 70
     0
  9
$DIMSOXD
 70
     0
  9
$DIMSAH
 70
     0
  9
$DIMBLK1
  1

  9
$DIMBLK2
  1

  9
$DIMSTYLE
  2
ISO-25
  9
$DIMCLRD
 70
     0
  9
$DIMCLRE
 70
     0
  9
$DIMCLRT
 70
     0
  9
$DIMTFAC
 40
1.0
  9
$DIMGAP
 40
1.524
  9
$DIMJUST
 70
     0
  9
$DIMSD1
 70
     0
  9
$DIMSD2
 70
     0
  9
$DIMTOLJ
 70
     0
  9
$DIMTZIN
 70
     0
  9
$DIMALTZ
 70
     0
  9
$DIMALTTZ
 70
     0
  9
$DIMUPT
 70
     0
  9
$DIMDEC
 70
     2
  9
$DIMTDEC
 70
     2
  9
$DIMALTU
 70
     2
  9
$DIMALTTD
 70
     3
  9
$DIMTXSTY
  7
Standard
  9
$DIMAUNIT
 70
     0
  9
$DIMADEC
 70
     2
  9
$DIMALTRND
 40
0.0
  9
$DIMAZIN
 70
     0
  9
$DIMDSEP
 70
    44
  9
$DIMATFIT
 70
     3
  9
$DIMFRAC
 70
     0
  9
$DIMLDRBLK
  1

  9
$DIMLUNIT
 70
     2
  9
$DIMLWD
 70
    -2
  9
$DIMLWE
 70
    -2
  9
$DIMTMOVE
 70
     0
  9
$LUNITS
 70
     2
  9
$LUPREC
 70
     2
  9
$SKETCHINC
 40
1.0
  9
$FILLETRAD
 40
10.0
  9
$AUNITS
 70
     0
  9
$AUPREC
 70
     2
  9
$MENU
  1
.
  9
$ELEVATION
 40
0.0
  9
$PELEVATION
 40
0.0
  9
$THICKNESS
 40
0.0
  9
$LIMCHECK
 70
     0
  9
$CHAMFERA
 40
0.0
  9
$CHAMFERB
 40
0.0
  9
$CHAMFERC
 40
0.0
  9
$CHAMFERD
 40
0.0
  9
$SKPOLY
 70
     0
  9
$TDCREATE
 40
2458311.464532535
  9
$TDUCREATE
 40
2458311.089532535
  9
$TDUPDATE
 40
2458318.665590255
  9
$TDUUPDATE
 40
2458318.290590255
  9
$TDINDWG
 40
0.0014713426
  9
$TDUSRTIMER
 40
2458318.290394607
  9
$USRTIMER
 70
     1
  9
$ANGBASE
 50
0.0
  9
$ANGDIR
 70
     0
  9
$PDMODE
 70
     0
  9
$PDSIZE
 40
-1.0
  9
$PLINEWID
 40
0.0
  9
$SPLFRAME
 70
     0
  9
$SPLINETYPE
 70
     6
  9
$SPLINESEGS
 70
     8
  9
$HANDSEED
  5
218
  9
$SURFTAB1
 70
     6
  9
$SURFTAB2
 70
     6
  9
$SURFTYPE
 70
     6
  9
$SURFU
 70
     6
  9
$SURFV
 70
     6
  9
$UCSBASE
  2

  9
$UCSNAME
  2

  9
$UCSORG
 10
0.0
 20
0.0
 30
0.0
  9
$UCSXDIR
 10
1.0
 20
0.0
 30
0.0
  9
$UCSYDIR
 10
0.0
 20
1.0
 30
0.0
  9
$UCSORTHOREF
  2

  9
$UCSORTHOVIEW
 70
     0
  9
$UCSORGTOP
 10
0.0
 20
0.0
 30
0.0
  9
$UCSORGBOTTOM
 10
0.0
 20
0.0
 30
0.0
  9
$UCSORGLEFT
 10
0.0
 20
0.0
 30
0.0
  9
$UCSORGRIGHT
 10
0.0
 20
0.0
 30
0.0
  9
$UCSORGFRONT
 10
0.0
 20
0.0
 30
0.0
  9
$UCSORGBACK
 10
0.0
 20
0.0
 30
0.0
  9
$PUCSBASE
  2

  9
$PUCSNAME
  2

  9
$PUCSORG
 10
0.0
 20
0.0
 30
0.0
  9
$PUCSXDIR
 10
1.0
 20
0.0
 30
0.0
  9
$PUCSYDIR
 10
0.0
 20
1.0
 30
0.0
  9
$PUCSORTHOREF
  2

  9
$PUCSORTHOVIEW
 70
     0
  9
$PUCSORGTOP
 10
0.0
 20
0.0
 30
0.0
  9
$PUCSORGBOTTOM
 10
0.0
 20
0.0
 30
0.0
  9
$PUCSORGLEFT
 10
0.0
 20
0.0
 30
0.0
  9
$PUCSORGRIGHT
 10
0.0
 20
0.0
 30
0.0
  9
$PUCSORGFRONT
 10
0.0
 20
0.0
 30
0.0
  9
$PUCSORGBACK
 10
0.0
 20
0.0
 30
0.0
  9
$USERI1
 70
     0
  9
$USERI2
 70
     0
  9
$USERI3
 70
     0
  9
$USERI4
 70
     0
  9
$USERI5
 70
     0
  9
$USERR1
 40
0.0
  9
$USERR2
 40
0.0
  9
$USERR3
 40
0.0
  9
$USERR4
 40
0.0
  9
$USERR5
 40
0.0
  9
$WORLDVIEW
 70
     1
  9
$SHADEDGE
 70
     3
  9
$SHADEDIF
 70
    70
  9
$TILEMODE
 70
     1
  9
$MAXACTVP
 70
    64
  9
$PINSBASE
 10
0.0
 20
0.0
 30
0.0
  9
$PLIMCHECK
 70
     0
  9
$PEXTMIN
 10
1.000000000000000E+20
 20
1.000000000000000E+20
 30
1.000000000000000E+20
  9
$PEXTMAX
 10
-1.000000000000000E+20
 20
-1.000000000000000E+20
 30
-1.000000000000000E+20
  9
$PLIMMIN
 10
0.0
 20
0.0
  9
$PLIMMAX
 10
0.0
 20
0.0
  9
$UNITMODE
 70
     0
  9
$VISRETAIN
 70
     1
  9
$PLINEGEN
 70
     0
  9
$PSLTSCALE
 70
     1
  9
$TREEDEPTH
 70
  3020
  9
$CMLSTYLE
  2
Standard
  9
$CMLJUST
 70
     0
  9
$CMLSCALE
 40
20.0
  9
$PROXYGRAPHICS
 70
     1
  9
$MEASUREMENT
 70
     1
  9
$CELWEIGHT
370
    -1
  9
$ENDCAPS
280
     0
  9
$JOINSTYLE
280
     0
  9
$LWDISPLAY
290
     1
  9
$INSUNITS
 70
     4
  9
$HYPERLINKBASE
  1

  9
$STYLESHEET
  1

  9
$XEDIT
290
     1
  9
$CEPSNTYPE
380
     0
  9
$PSTYLEMODE
290
     1
  9
$FINGERPRINTGUID
  2
{67166BEA-91C4-4A27-8AE7-25CADE1F08E6}
  9
$VERSIONGUID
  2
{FAEB1C32-E019-11D5-929B-00C0DF256EC4}
  9
$EXTNAMES
290
     1
  9
$PSVPSCALE
 40
0.0
  9
$OLESTARTUP
290
     0
  0
ENDSEC
  0
SECTION
  2
CLASSES
  0
CLASS
  1
ACDBDICTIONARYWDFLT
  2
AcDbDictionaryWithDefault
  3
ObjectDBX Classes
 90
        0
280
     0
281
     0
  0
CLASS
  1
VISUALSTYLE
  2
AcDbVisualStyle
  3
ObjectDBX Classes
 90
     4095
280
     0
281
     0
  0
CLASS
  1
MATERIAL
  2
AcDbMaterial
  3
ObjectDBX Classes
 90
     1153
280
     0
281
     0
  0
CLASS
  1
SCALE
  2
AcDbScale
  3
ObjectDBX Classes
 90
     1153
280
     0
281
     0
  0
CLASS
  1
SUN
  2
AcDbSun
  3
SCENEOE
 90
     1153
280
     0
281
     0
  0
CLASS
  1
ACDBPLACEHOLDER
  2
AcDbPlaceHolder
  3
ObjectDBX Classes
 90
        0
280
     0
281
     0
  0
CLASS
  1
LAYOUT
  2
AcDbLayout
  3
ObjectDBX Classes
 90
        0
280
     0
281
     0
  0
CLASS
  1
TABLESTYLE
  2
AcDbTableStyle
  3
ObjectDBX Classes
 90
     4095
280
     0
281
     0
  0
CLASS
  1
MLEADERSTYLE
  2
AcDbMLeaderStyle
  3
ACDB_MLEADERSTYLE_CLASS
 90
     4095
280
     0
281
     0
  0
CLASS
  1
RASTERVARIABLES
  2
AcDbRasterVariables
  3
ISM
 90
        0
280
     0
281
     0
  0
ENDSEC
  0
SECTION
  2
TABLES
  0
TABLE
  2
VPORT
  5
8
330
0
100
AcDbSymbolTable
 70
     1
  0
VPORT
  5
29
330
8
100
AcDbSymbolTableRecord
100
AcDbViewportTableRecord
  2
*Active
 70
     0
 10
0.0
 20
0.0
 11
1.0
 21
1.0
 12
-29.67377118497247
 22
-42.75039331342981
 13
0.0
 23
0.0
 14
10.0
 24
10.0
 15
10.0
 25
10.0
 16
0.0
 26
0.0
 36
1.0
 17
0.0
 27
0.0
 37
0.0
 40
169.8678974866124
 41
1.740812379110251
 42
50.0
 43
0.0
 44
0.0
 50
0.0
 51
0.0
 71
    16
 72
  2000
 73
     1
 74
     3
 75
     0
 76
     0
 77
     0
 78
     0
281
     0
 65
     1
110
0.0
120
0.0
130
0.0
111
1.0
121
0.0
131
0.0
112
0.0
122
1.0
132
0.0
 79
     0
146
0.0
  0
ENDTAB
  0
TABLE
  2
LTYPE
  5
5
330
0
100
AcDbSymbolTable
 70
     6
  0
LTYPE
  5
14
330
5
100
AcDbSymbolTableRecord
100
AcDbLinetypeTableRecord
  2
ByBlock
 70
     0
  3

 72
    65
 73
     0
 40
0.0
  0
LTYPE
  5
15
330
5
100
AcDbSymbolTableRecord
100
AcDbLinetypeTableRecord
  2
ByLayer
 70
     0
  3

 72
    65
 73
     0
 40
0.0
  0
LTYPE
  5
16
330
5
100
AcDbSymbolTableRecord
100
AcDbLinetypeTableRecord
  2
Continuous
 70
     0
  3
Solid line
 72
    65
 73
     0
 40
0.0
  0
LTYPE
  5
6A
330
5
100
AcDbSymbolTableRecord
100
AcDbLinetypeTableRecord
  2
HIDDEN
 70
     0
  3
Hidden __ __ __ __ __ __ __ __ __ __ __ __ __ __
 72
    65
 73
     2
 40
1.905
 49
1.27
 74
     0
 49
-0.635
 74
     0
  0
LTYPE
  5
6B
330
5
100
AcDbSymbolTableRecord
100
AcDbLinetypeTableRecord
  2
PHANTOM
 70
     0
  3
Phantom ______  __  __  ______  __  __  ______
 72
    65
 73
     6
 40
12.7
 49
6.35
 74
     0
 49
-1.27
 74
     0
 49
1.27
 74
     0
 49
-1.27
 74
     0
 49
1.27
 74
     0
 49
-1.27
 74
     0
  0
LTYPE
  5
6C
330
5
100
AcDbSymbolTableRecord
100
AcDbLinetypeTableRecord
  2
CENTER
 70
     0
  3
Center ____ _ ____ _ ____ _ ____ _ ____ _ ____
 72
    65
 73
     4
 40
10.16
 49
6.35
 74
     0
 49
-1.27
 74
     0
 49
1.27
 74
     0
 49
-1.27
 74
     0
  0
LTYPE
  5
6D
330
5
100
AcDbSymbolTableRecord
100
AcDbLinetypeTableRecord
  2
CENTERX2
 70
     0
  3
Center (2x) ________  __  ________  __  _____
 72
    65
 73
     4
 40
20.32
 49
12.7
 74
     0
 49
-2.54
 74
     0
 49
2.54
 74
     0
 49
-2.54
 74
     0
  0
LTYPE
  5
6E
330
5
100
AcDbSymbolTableRecord
100
AcDbLinetypeTableRecord
  2
DOT2
 70
     0
  3
Dot (.5x) ........................................
 72
    65
 73
     2
 40
0.635
 49
0.0
 74
     0
 49
-0.635
 74
     0
  0
ENDTAB
  0
TABLE
  2
LAYER
  5
2
102
{ACAD_XDICTIONARY
360
17A
102
}
330
0
100
AcDbSymbolTable
 70
    18
  0
LAYER
  5
10
330
2
100
AcDbSymbolTableRecord
100
AcDbLayerTableRecord
  2
0
 70
     0
 62
     7
  6
Continuous
370
    -3
390
F
  0
LAYER
  5
6F
330
2
100
AcDbSymbolTableRecord
100
AcDbLayerTableRecord
  2
FORMAT
 70
     0
 62
     2
  6
Continuous
370
    -3
390
F
  0
LAYER
  5
70
330
2
100
AcDbSymbolTableRecord
100
AcDbLayerTableRecord
  2
외형선
 70
     0
 62
     4
  6
Continuous
370
    30
390
F
  0
LAYER
  5
71
330
2
100
AcDbSymbolTableRecord
100
AcDbLayerTableRecord
  2
숨은선
 70
     0
 62
     2
  6
HIDDEN
370
    15
390
F
  0
LAYER
  5
72
330
2
100
AcDbSymbolTableRecord
100
AcDbLayerTableRecord
  2
중심선
 70
     0
 62
     1
  6
CENTERX2
370
    -3
390
F
  0
LAYER
  5
73
330
2
100
AcDbSymbolTableRecord
100
AcDbLayerTableRecord
  2
파단선
 70
     0
 62
     4
  6
Continuous
370
    -3
390
F
  0
LAYER
  5
74
330
2
100
AcDbSymbolTableRecord
100
AcDbLayerTableRecord
  2
해칭선
 70
     0
 62
   100
  6
Continuous
370
    -3
390
F
  0
LAYER
  5
75
330
2
100
AcDbSymbolTableRecord
100
AcDbLayerTableRecord
  2
가는실선
 70
     0
 62
     4
  6
Continuous
370
    -3
390
F
  0
LAYER
  5
76
330
2
100
AcDbSymbolTableRecord
100
AcDbLayerTableRecord
  2
치수_보조선
 70
     0
 62
     4
  6
Continuous
370
    -3
390
F
  0
LAYER
  5
77
330
2
100
AcDbSymbolTableRecord
100
AcDbLayerTableRecord
  2
치수문자_일반주서
 70
     0
 62
     7
  6
Continuous
370
    15
390
F
  0
LAYER
  5
78
330
2
100
AcDbSymbolTableRecord
100
AcDbLayerTableRecord
  2
개별주서
 70
     0
 62
   100
  6
Continuous
370
    30
390
F
  0
LAYER
  5
79
330
2
100
AcDbSymbolTableRecord
100
AcDbLayerTableRecord
  2
중간선
 70
     0
 62
     2
  6
Continuous
370
    15
390
F
  0
LAYER
  5
7A
330
2
100
AcDbSymbolTableRecord
100
AcDbLayerTableRecord
  2
윤곽선
 70
     0
 62
     3
  6
Continuous
370
    40
390
F
  0
LAYER
  5
7B
330
2
100
AcDbSymbolTableRecord
100
AcDbLayerTableRecord
  2
중심마크
 70
     0
 62
   100
  6
Continuous
370
    30
390
F
  0
LAYER
  5
7C
330
2
100
AcDbSymbolTableRecord
100
AcDbLayerTableRecord
  2
가상선
 70
     0
 62
     4
  6
PHANTOM
370
    -3
390
F
  0
LAYER
  5
7D
330
2
100
AcDbSymbolTableRecord
100
AcDbLayerTableRecord
  2
특수지정선
 70
     0
 62
     5
  6
CENTERX2
370
    60
390
F
  0
LAYER
  5
7E
330
2
100
AcDbSymbolTableRecord
100
AcDbLayerTableRecord
  2
참조1
 70
     0
 62
    -4
  6
Continuous
370
    -3
390
F
  0
LAYER
  5
181
330
2
100
AcDbSymbolTableRecord
100
AcDbLayerTableRecord
  2
Defpoints
 70
     0
 62
     7
  6
Continuous
290
     0
370
    -3
390
F
  0
ENDTAB
  0
TABLE
  2
STYLE
  5
3
330
0
100
AcDbSymbolTable
 70
     2
  0
STYLE
  5
11
330
3
100
AcDbSymbolTableRecord
100
AcDbTextStyleTableRecord
  2
Standard
 70
     0
 40
0.0
 41
1.0
 50
0.0
 71
     0
 42
3.5
  3
txt
  4

  0
STYLE
  5
94
330
3
100
AcDbSymbolTableRecord
100
AcDbTextStyleTableRecord
  2
SLDTEXTSTYLE0
 70
     0
 40
0.0
 41
0.75
 50
0.0
 71
     0
 42
3.5
  3
TXT
  4

  0
ENDTAB
  0
TABLE
  2
VIEW
  5
6
330
0
100
AcDbSymbolTable
 70
     0
  0
ENDTAB
  0
TABLE
  2
UCS
  5
7
330
0
100
AcDbSymbolTable
 70
     0
  0
ENDTAB
  0
TABLE
  2
APPID
  5
9
330
0
100
AcDbSymbolTable
 70
     1
  0
APPID
  5
12
330
9
100
AcDbSymbolTableRecord
100
AcDbRegAppTableRecord
  2
ACAD
 70
     0
  0
ENDTAB
  0
TABLE
  2
DIMSTYLE
  5
A
330
0
100
AcDbSymbolTable
 70
     3
100
AcDbDimStyleTable
  0
DIMSTYLE
105
27
330
A
100
AcDbSymbolTableRecord
100
AcDbDimStyleTableRecord
  2
ISO-25
 70
     0
 41
2.5
 42
0.625
 43
3.75
 44
1.25
 73
     0
 74
     0
 77
     1
 78
     8
140
2.5
141
2.5
143
0.03937007874016
147
0.625
171
     3
172
     1
178
     0
271
     2
272
     2
274
     3
278
    44
283
     0
284
     8
340
11
  0
DIMSTYLE
105
D5
102
{ACAD_REACTORS
330
D4
330
10F
330
E7
330
FC
102
}
330
A
100
AcDbSymbolTableRecord
100
AcDbDimStyleTableRecord
  2
SLDDIMSTYLE0
 70
     0
 41
3.302
 44
0.0
 45
0.000000001
 73
     0
 74
     0
 77
     1
 78
    12
 79
     3
140
3.5
143
0.0393700787401575
147
0.875
148
0.000000001
170
     1
173
     1
178
     0
271
     2
272
     2
276
     2
284
    12
340
94
  0
DIMSTYLE
105
E8
330
A
100
AcDbSymbolTableRecord
100
AcDbDimStyleTableRecord
  2
SLDDIMSTYLE1
 70
     0
 41
3.302
 44
0.0
 45
0.000000001
 73
     0
 74
     0
 77
     1
 78
     4
 79
     1
140
3.5
143
0.0393700787401575
147
0.875
148
0.000000001
170
     1
173
     1
178
     0
271
     2
272
     2
276
     2
284
    12
340
94
  0
ENDTAB
  0
TABLE
  2
BLOCK_RECORD
  5
1
330
0
100
AcDbSymbolTable
 70
     9
  0
BLOCK_RECORD
  5
1F
330
1
100
AcDbSymbolTableRecord
100
AcDbBlockTableRecord
  2
*Model_Space
340
22
  0
BLOCK_RECORD
  5
1B
330
1
100
AcDbSymbolTableRecord
100
AcDbBlockTableRecord
  2
*Paper_Space
340
1E
  0
BLOCK_RECORD
  5
23
330
1
100
AcDbSymbolTableRecord
100
AcDbBlockTableRecord
  2
*Paper_Space0
340
26
  0
BLOCK_RECORD
  5
7F
330
1
100
AcDbSymbolTableRecord
100
AcDbBlockTableRecord
  2
블럭10
340
0
102
{BLKREFS
331
CD
102
}
  0
BLOCK_RECORD
  5
D6
330
1
100
AcDbSymbolTableRecord
100
AcDbBlockTableRecord
  2
_D
340
0
  0
BLOCK_RECORD
  5
E9
330
1
100
AcDbSymbolTableRecord
100
AcDbBlockTableRecord
  2
_D_1
340
0
  0
BLOCK_RECORD
  5
FD
330
1
100
AcDbSymbolTableRecord
100
AcDbBlockTableRecord
  2
_D_2
340
0
  0
BLOCK_RECORD
  5
110
330
1
100
AcDbSymbolTableRecord
100
AcDbBlockTableRecord
  2
_D_3
340
0
  0
BLOCK_RECORD
  5
129
330
1
100
AcDbSymbolTableRecord
100
AcDbBlockTableRecord
  2
SW_DOWELSYMBOL_0
340
0
102
{BLKREFS
331
12F
102
}
  0
ENDTAB
  0
ENDSEC
  0
SECTION
  2
BLOCKS
  0
BLOCK
  5
20
330
1F
100
AcDbEntity
  8
0
100
AcDbBlockBegin
  2
*Model_Space
 70
     0
 10
0.0
 20
0.0
 30
0.0
  3
*Model_Space
  1
*Model_Space
  0
ENDBLK
  5
21
330
1F
100
AcDbEntity
  8
0
100
AcDbBlockEnd
  0
BLOCK
  5
1C
330
1B
100
AcDbEntity
 67
     1
  8
0
100
AcDbBlockBegin
  2
*Paper_Space
 70
     0
 10
0.0
 20
0.0
 30
0.0
  3
*Paper_Space
  1
*Paper_Space
  0
ENDBLK
  5
1D
330
1B
100
AcDbEntity
 67
     1
  8
0
100
AcDbBlockEnd
  0
BLOCK
  5
24
330
23
100
AcDbEntity
  8
0
100
AcDbBlockBegin
  2
*Paper_Space0
 70
     0
 10
0.0
 20
0.0
 30
0.0
  3
*Paper_Space0
  1
*Paper_Space0
  0
ENDBLK
  5
25
330
23
100
AcDbEntity
  8
0
100
AcDbBlockEnd
  0
BLOCK
  5
80
330
7F
100
AcDbEntity
  8
0
100
AcDbBlockBegin
  2
블럭10
 70
     2
 10
0.0
 20
0.0
 30
0.0
  3
블럭10
  1
블럭10
  0
ELLIPSE
  5
82
330
7F
100
AcDbEntity
  8
중심선
100
AcDbEllipse
 10
20.54032771741204
 20
12.0471743016438
 30
0.0
 11
6.600054785286829
 21
-1.261213355974178E-13
 31
0.0
210
0.0
220
0.0
230
1.0
 40
0.636358354079598
 41
0.9219305317359503
 42
6.513795318482858
  0
ELLIPSE
  5
83
330
7F
100
AcDbEntity
  8
중심선
100
AcDbEllipse
 10
20.54032771746488
 20
12.04717430159265
 30
0.0
 11
3.960054785062283
 21
1.540847449632565E-10
 31
0.0
210
0.0
220
0.0
230
1.0
 40
0.3939339440162632
 41
1.131841032648279
 42
5.62031148352944
  0
LINE
  5
84
330
7F
100
AcDbEntity
  8
중심선
100
AcDbLine
 10
2.268634060543552
 20
16.24717430164393
 30
0.0
 11
5.714909304380834
 21
16.24717430164393
 31
0.0
  0
LINE
  5
85
330
7F
100
AcDbEntity
  8
중심선
100
AcDbLine
 10
5.245725140726316
 20
7.84717430164391
 30
0.0
 11
8.692000384563599
 21
7.84717430164391
 31
0.0
  0
LINE
  5
86
330
7F
100
AcDbEntity
  8
중심선
100
AcDbLine
 10
15.74043728645272
 20
16.24717430164393
 30
0.0
 11
8.692000384563599
 21
7.84717430164391
 31
0.0
  0
LINE
  5
87
330
7F
100
AcDbEntity
  8
중심선
100
AcDbLine
 10
0.1404042013395286
 20
13.71084872107135
 30
0.0
 11
3.58671253028996
 21
13.71088815037384
 31
0.0
  0
LINE
  5
88
330
7F
100
AcDbEntity
  8
중심선
100
AcDbLine
 10
2.750260043222114
 20
10.84717430164391
 30
0.0
 11
6.196535287059397
 21
10.84717430164391
 31
0.0
  0
LINE
  5
89
330
7F
100
AcDbEntity
  8
중심선
100
AcDbLine
 10
12.29416204261559
 20
16.24717430164393
 30
0.0
 11
5.245725140726316
 21
7.84717430164391
 31
0.0
  0
LINE
  5
8A
330
7F
100
AcDbEntity
  8
중심선
100
AcDbLine
 10
10.72767329541681
 20
16.24717430164393
 30
0.0
 11
6.196535287059397
 21
10.84717430164391
 31
0.0
  0
LINE
  5
8B
330
7F
100
AcDbEntity
  8
중심선
100
AcDbLine
 10
7.28139805157953
 20
16.24717430164393
 30
0.0
 11
2.750260043222114
 21
10.84717430164391
 31
0.0
  0
LINE
  5
8C
330
7F
100
AcDbEntity
  8
중심선
100
AcDbLine
 10
5.714909304380834
 20
16.24717430164393
 30
0.0
 11
3.58671253028996
 21
13.71088815037384
 31
0.0
  0
LINE
  5
8D
330
7F
100
AcDbEntity
  8
중심선
100
AcDbLine
 10
2.268634060543552
 20
16.24717430164393
 30
0.0
 11
0.1404042013395286
 21
13.71084872107135
 31
0.0
  0
LINE
  5
8E
330
7F
100
AcDbEntity
  8
중심선
100
AcDbLine
 10
7.28139805157953
 20
16.24717430164393
 30
0.0
 11
10.72767329541681
 21
16.24717430164393
 31
0.0
  0
LINE
  5
8F
330
7F
100
AcDbEntity
  8
중심선
100
AcDbLine
 10
12.29416204261559
 20
16.24717430164393
 30
0.0
 11
15.74043728645272
 21
16.24717430164393
 31
0.0
  0
LINE
  5
90
330
7F
100
AcDbEntity
  8
중심선
100
AcDbLine
 10
19.22036997980202
 20
11.08717430171403
 30
0.0
 11
23.66174974927406
 21
11.08717430171406
 31
0.0
  0
LINE
  5
91
330
7F
100
AcDbEntity
  8
중심선
100
AcDbLine
 10
19.22039502424796
 20
13.00717430171391
 30
0.0
 11
19.22036997980202
 21
11.08717430171403
 31
0.0
  0
LINE
  5
92
330
7F
100
AcDbEntity
  8
중심선
100
AcDbLine
 10
19.22039502424796
 20
13.00717430171391
 30
0.0
 11
26.96566020931264
 21
13.00717430171391
 31
0.0
  0
LINE
  5
93
330
7F
100
AcDbEntity
  8
중심선
100
AcDbLine
 10
22.22332737316547
 20
13.45928029700563
 30
0.0
 11
24.52862924686651
 21
15.39360700705356
 31
0.0
  0
ATTDEF
  5
95
330
7F
100
AcDbEntity
  8
FORMAT
 62
     2
100
AcDbText
 10
4.408487351596664
 20
2.075366912832191
 30
0.0
 40
4.233333333333333
  1
E1070116
 41
0.75
  7
SLDTEXTSTYLE0
 11
4.408487351596664
 21
-0.0412997538344756
 31
0.0
100
AcDbAttributeDefinition
  3

  2
AUTOATTR0
 70
     0
 74
     1
  0
ENDBLK
  5
81
330
7F
100
AcDbEntity
  8
0
100
AcDbBlockEnd
  0
BLOCK
  5
D7
330
D6
100
AcDbEntity
  8
0
100
AcDbBlockBegin
  2
_D
 70
     0
 10
0.0
 20
0.0
 30
0.0
  3
_D
  1
_D
  0
LINE
  5
D9
330
D6
100
AcDbEntity
  8
치수문자_일반주서
 62
     0
370
    -2
100
AcDbLine
 10
-50.56249999999999
 20
15.87499999999999
 30
0.0
 11
-64.00000000000006
 21
15.87499999999994
 31
0.0
  0
LINE
  5
DA
330
D6
100
AcDbEntity
  8
치수문자_일반주서
 62
     0
370
    -2
100
AcDbLine
 10
-50.56249999999999
 20
-15.87500000000001
 30
0.0
 11
-63.99999999999994
 21
-15.87500000000006
 31
0.0
  0
LINE
  5
DB
330
D6
100
AcDbEntity
  8
치수문자_일반주서
 62
     0
370
    -2
100
AcDbLine
 10
-64.00000000000004
 20
12.57299999999995
 30
0.0
 11
-63.99999999999996
 21
-12.57300000000006
 31
0.0
  0
SOLID
  5
DC
330
D6
100
AcDbEntity
  8
치수문자_일반주서
 62
     0
100
AcDbTrace
 10
-63.44966666666671
 20
12.57299999999995
 30
0.0
 11
-64.55033333333337
 21
12.57299999999994
 31
0.0
 12
-64.00000000000006
 22
15.87499999999994
 32
0.0
 13
-64.00000000000006
 23
15.87499999999994
 33
0.0
  0
SOLID
  5
DD
330
D6
100
AcDbEntity
  8
치수문자_일반주서
 62
     0
100
AcDbTrace
 10
-64.55033333333328
 20
-12.57300000000006
 30
0.0
 11
-63.44966666666662
 21
-12.57300000000005
 31
0.0
 12
-63.99999999999994
 22
-15.87500000000006
 32
0.0
 13
-63.99999999999994
 23
-15.87500000000006
 33
0.0
  0
MTEXT
  5
DE
330
D6
100
AcDbEntity
  8
치수문자_일반주서
 62
     0
100
AcDbMText
 10
-68.375
 20
-0.0000000000000106
 30
0.0
 40
3.5
 41
0.0
 71
     2
 72
     1
  1
\A1;%%c31.75 [1 1/4]
  7
SLDTEXTSTYLE0
 11
-3.580687802255623E-15
 21
1.0
 31
0.0
 73
     1
 44
1.0
  0
POINT
  5
DF
330
D6
100
AcDbEntity
  8
Defpoints
 62
     0
100
AcDbPoint
 10
-50.49999999999999
 20
15.87499999999999
 30
0.0
  0
POINT
  5
E0
330
D6
100
AcDbEntity
  8
Defpoints
 62
     0
100
AcDbPoint
 10
-50.49999999999999
 20
-15.87500000000001
 30
0.0
  0
POINT
  5
E1
330
D6
100
AcDbEntity
  8
Defpoints
 62
     0
100
AcDbPoint
 10
-63.99999999999994
 20
-15.87500000000006
 30
0.0
  0
ENDBLK
  5
D8
330
D6
100
AcDbEntity
  8
0
100
AcDbBlockEnd
  0
BLOCK
  5
EA
330
E9
100
AcDbEntity
  8
0
100
AcDbBlockBegin
  2
_D_1
 70
     0
 10
0.0
 20
0.0
 30
0.0
  3
_D_1
  1
_D_1
  0
LINE
  5
EC
330
E9
100
AcDbEntity
  8
치수문자_일반주서
 62
     0
370
    -2
100
AcDbLine
 10
62.80000000000001
 20
15.93750000000001
 30
0.0
 11
62.80000000000001
 21
29.03792442259352
 31
0.0
  0
LINE
  5
ED
330
E9
100
AcDbEntity
  8
치수문자_일반주서
 62
     0
370
    -2
100
AcDbLine
 10
12.00000000000001
 20
12.50488030853148
 30
0.0
 11
12.00000000000001
 21
29.03792442259352
 31
0.0
  0
LINE
  5
EE
330
E9
100
AcDbEntity
  8
치수문자_일반주서
 62
     0
370
    -2
100
AcDbLine
 10
59.49800000000001
 20
29.03792442259352
 30
0.0
 11
15.30200000000001
 21
29.03792442259352
 31
0.0
  0
SOLID
  5
EF
330
E9
100
AcDbEntity
  8
치수문자_일반주서
 62
     0
100
AcDbTrace
 10
59.49800000000001
 20
28.48759108926019
 30
0.0
 11
59.49800000000001
 21
29.58825775592686
 31
0.0
 12
62.80000000000001
 22
29.03792442259352
 32
0.0
 13
62.80000000000001
 23
29.03792442259352
 33
0.0
  0
SOLID
  5
F0
330
E9
100
AcDbEntity
  8
치수문자_일반주서
 62
     0
100
AcDbTrace
 10
15.30200000000001
 20
29.58825775592686
 30
0.0
 11
15.30200000000001
 21
28.48759108926019
 31
0.0
 12
12.00000000000001
 22
29.03792442259352
 32
0.0
 13
12.00000000000001
 23
29.03792442259352
 33
0.0
  0
MTEXT
  5
F1
330
E9
100
AcDbEntity
  8
치수문자_일반주서
 62
     0
100
AcDbMText
 10
37.40000000000002
 20
33.41292442259352
 30
0.0
 40
3.5
 41
0.0
 71
     2
 72
     1
  1
\A1;50.8 [2]
  7
SLDTEXTSTYLE0
 73
     1
 44
1.0
  0
POINT
  5
F2
330
E9
100
AcDbEntity
  8
Defpoints
 62
     0
100
AcDbPoint
 10
62.80000000000001
 20
15.87500000000001
 30
0.0
  0
POINT
  5
F3
330
E9
100
AcDbEntity
  8
Defpoints
 62
     0
100
AcDbPoint
 10
12.00000000000001
 20
12.44238030853148
 30
0.0
  0
POINT
  5
F4
330
E9
100
AcDbEntity
  8
Defpoints
 62
     0
100
AcDbPoint
 10
12.00000000000001
 20
29.03792442259352
 30
0.0
  0
ENDBLK
  5
EB
330
E9
100
AcDbEntity
  8
0
100
AcDbBlockEnd
  0
BLOCK
  5
FE
330
FD
100
AcDbEntity
  8
0
100
AcDbBlockBegin
  2
_D_2
 70
     0
 10
0.0
 20
0.0
 30
0.0
  3
_D_2
  1
_D_2
  0
LINE
  5
100
330
FD
100
AcDbEntity
  8
치수문자_일반주서
 62
     0
370
    -2
100
AcDbLine
 10
62.80000000000003
 20
15.93750000000001
 30
0.0
 11
62.80000000000003
 21
45.58996586444052
 31
0.0
  0
LINE
  5
101
330
FD
100
AcDbEntity
  8
치수문자_일반주서
 62
     0
370
    -2
100
AcDbLine
 10
-51.5
 20
14.93749999999998
 30
0.0
 11
-51.5
 21
45.58996586444052
 31
0.0
  0
LINE
  5
102
330
FD
100
AcDbEntity
  8
치수문자_일반주서
 62
     0
370
    -2
100
AcDbLine
 10
59.49800000000003
 20
45.58996586444052
 30
0.0
 11
-48.198
 21
45.58996586444052
 31
0.0
  0
SOLID
  5
103
330
FD
100
AcDbEntity
  8
치수문자_일반주서
 62
     0
100
AcDbTrace
 10
59.49800000000003
 20
45.03963253110718
 30
0.0
 11
59.49800000000003
 21
46.14029919777385
 31
0.0
 12
62.80000000000003
 22
45.58996586444052
 32
0.0
 13
62.80000000000003
 23
45.58996586444052
 33
0.0
  0
SOLID
  5
104
330
FD
100
AcDbEntity
  8
치수문자_일반주서
 62
     0
100
AcDbTrace
 10
-48.198
 20
46.14029919777385
 30
0.0
 11
-48.198
 21
45.03963253110718
 31
0.0
 12
-51.5
 22
45.58996586444052
 32
0.0
 13
-51.5
 23
45.58996586444052
 33
0.0
  0
MTEXT
  5
105
330
FD
100
AcDbEntity
  8
치수문자_일반주서
 62
     0
100
AcDbMText
 10
5.649999999999869
 20
49.96496586444052
 30
0.0
 40
3.5
 41
0.0
 71
     2
 72
     1
  1
\A1;114.3 [4 1/2]
  7
SLDTEXTSTYLE0
 73
     1
 44
1.0
  0
POINT
  5
106
330
FD
100
AcDbEntity
  8
Defpoints
 62
     0
100
AcDbPoint
 10
62.80000000000003
 20
15.87500000000001
 30
0.0
  0
POINT
  5
107
330
FD
100
AcDbEntity
  8
Defpoints
 62
     0
100
AcDbPoint
 10
-51.5
 20
14.87499999999998
 30
0.0
  0
POINT
  5
108
330
FD
100
AcDbEntity
  8
Defpoints
 62
     0
100
AcDbPoint
 10
-51.5
 20
45.58996586444052
 30
0.0
  0
ENDBLK
  5
FF
330
FD
100
AcDbEntity
  8
0
100
AcDbBlockEnd
  0
BLOCK
  5
111
330
110
100
AcDbEntity
  8
0
100
AcDbBlockBegin
  2
_D_3
 70
     0
 10
0.0
 20
0.0
 30
0.0
  3
_D_3
  1
_D_3
  0
LINE
  5
113
330
110
100
AcDbEntity
  8
치수문자_일반주서
 62
     0
370
    -2
100
AcDbLine
 10
62.86250000000001
 20
-15.875
 30
0.0
 11
96.80508855801871
 21
-15.87499999999987
 31
0.0
  0
LINE
  5
114
330
110
100
AcDbEntity
  8
치수문자_일반주서
 62
     0
370
    -2
100
AcDbLine
 10
62.86250000000001
 20
15.87500000000001
 30
0.0
 11
96.8050885580186
 21
15.87500000000014
 31
0.0
  0
LINE
  5
115
330
110
100
AcDbEntity
  8
치수문자_일반주서
 62
     0
370
    -2
100
AcDbLine
 10
96.8050885580186
 20
15.87500000000014
 30
0.0
 11
96.80508855801845
 21
56.26973621325037
 31
0.0
  0
LINE
  5
116
330
110
100
AcDbEntity
  8
치수문자_일반주서
 62
     0
370
    -2
100
AcDbLine
 10
96.8050885580187
 20
-12.57299999999987
 30
0.0
 11
96.80508855801861
 21
12.57300000000014
 31
0.0
  0
SOLID
  5
117
330
110
100
AcDbEntity
  8
치수문자_일반주서
 62
     0
100
AcDbTrace
 10
96.25475522468537
 20
-12.57299999999987
 30
0.0
 11
97.35542189135202
 21
-12.57299999999987
 31
0.0
 12
96.80508855801871
 22
-15.87499999999987
 32
0.0
 13
96.80508855801871
 23
-15.87499999999987
 33
0.0
  0
SOLID
  5
118
330
110
100
AcDbEntity
  8
치수문자_일반주서
 62
     0
100
AcDbTrace
 10
97.35542189135194
 20
12.57300000000014
 30
0.0
 11
96.25475522468528
 21
12.57300000000013
 31
0.0
 12
96.8050885580186
 22
15.87500000000014
 32
0.0
 13
96.8050885580186
 23
15.87500000000014
 33
0.0
  0
MTEXT
  5
119
330
110
100
AcDbEntity
  8
치수문자_일반주서
 62
     0
100
AcDbMText
 10
92.43008855801851
 20
40.51973621325035
 30
0.0
 40
3.5
 41
0.0
 71
     2
 72
     1
  1
\A1;%%c31.75 [1 1/4]
  7
SLDTEXTSTYLE0
 11
-3.580687802255623E-15
 21
1.0
 31
0.0
 73
     1
 44
1.0
  0
POINT
  5
11A
330
110
100
AcDbEntity
  8
Defpoints
 62
     0
100
AcDbPoint
 10
62.80000000000001
 20
-15.875
 30
0.0
  0
POINT
  5
11B
330
110
100
AcDbEntity
  8
Defpoints
 62
     0
100
AcDbPoint
 10
62.80000000000001
 20
15.87500000000001
 30
0.0
  0
POINT
  5
11C
330
110
100
AcDbEntity
  8
Defpoints
 62
     0
100
AcDbPoint
 10
96.8050885580186
 20
15.87500000000014
 30
0.0
  0
ENDBLK
  5
112
330
110
100
AcDbEntity
  8
0
100
AcDbBlockEnd
  0
BLOCK
  5
12A
330
129
100
AcDbEntity
  8
0
100
AcDbBlockBegin
  2
SW_DOWELSYMBOL_0
 70
     0
 10
0.0
 20
0.0
 30
0.0
  3
SW_DOWELSYMBOL_0
  1
SW_DOWELSYMBOL_0
  0
CIRCLE
  5
12C
330
129
100
AcDbEntity
  8
해칭선
 62
     0
100
AcDbCircle
 10
0.0
 20
0.0
 30
0.0
 40
2.999999999999996
  0
HATCH
  5
12D
330
129
100
AcDbEntity
  8
0
  6
Continuous
 62
     0
370
     0
100
AcDbHatch
 10
0.0
 20
0.0
 30
0.0
210
0.0
220
0.0
230
1.0
  2
SOLID
 70
     1
 71
     0
 91
        1
 92
        0
 93
        3
 72
     2
 10
0.0
 20
0.0
 40
2.999999999999996
 50
0.0
 51
90.0
 73
     1
 72
     1
 10
0.0
 20
2.999999999999996
 11
0.0
 21
0.0
 72
     1
 10
0.0
 20
0.0
 11
2.999999999999996
 21
0.0
 97
        0
 75
     0
 76
     1
 98
        1
 10
0.0
 20
0.0
  0
HATCH
  5
12E
330
129
100
AcDbEntity
  8
0
  6
Continuous
 62
     0
370
     0
100
AcDbHatch
 10
0.0
 20
0.0
 30
0.0
210
0.0
220
0.0
230
1.0
  2
SOLID
 70
     1
 71
     0
 91
        1
 92
        0
 93
        3
 72
     2
 10
0.0
 20
0.0
 40
2.999999999999996
 50
180.0
 51
270.0000000000007
 73
     1
 72
     1
 10
0.0
 20
-2.999999999999996
 11
0.0
 21
0.0
 72
     1
 10
0.0
 20
0.0
 11
-2.999999999999996
 21
0.0
 97
        0
 75
     0
 76
     1
 98
        1
 10
0.0
 20
0.0
  0
ENDBLK
  5
12B
330
129
100
AcDbEntity
  8
0
100
AcDbBlockEnd
  0
ENDSEC
  0
SECTION
  2
ENTITIES
  0
LINE
  5
96
330
1F
100
AcDbEntity
  8
외형선
  6
Continuous
370
    15
100
AcDbLine
 10
8.950019942592741
 20
15.87499999999999
 30
0.0
 11
-13.58732499999998
 21
15.87499999999999
 31
0.0
  0
LINE
  5
97
330
1F
100
AcDbEntity
  8
외형선
  6
Continuous
370
    15
100
AcDbLine
 10
-50.49999999999999
 20
-15.87500000000001
 30
0.0
 11
8.950019942592741
 21
-15.87500000000001
 31
0.0
  0
LINE
  5
99
330
1F
100
AcDbEntity
  8
외형선
  6
Continuous
370
    15
100
AcDbLine
 10
-51.5
 20
-14.875
 30
0.0
 11
-50.49999999999999
 21
-15.875
 31
0.0
  0
SPLINE
  5
9A
330
1F
100
AcDbEntity
  8
외형선
  6
Continuous
370
    15
100
AcDbSpline
210
0.0
220
0.0
230
1.0
 70
     8
 71
     3
 72
     9
 73
     5
 74
     0
 42
0.000000001
 43
0.00000001
 40
0.0
 40
0.0
 40
0.0
 40
0.0
 40
0.5133766861012239
 40
1.0
 40
1.0
 40
1.0
 40
1.0
 10
12.00000000000001
 20
12.43862860457993
 30
0.0
 10
11.56442604872307
 20
12.4304258199827
 30
0.0
 10
10.71597701885993
 20
12.4144477188743
 30
0.0
 10
9.867359609348645
 20
12.40544491707115
 30
0.0
 10
9.454402593300067
 20
12.40106394382333
 30
0.0
  0
SPLINE
  5
9B
330
1F
100
AcDbEntity
  8
외형선
  6
Continuous
370
    15
100
AcDbSpline
210
0.0
220
0.0
230
1.0
 70
     8
 71
     3
 72
    13
 73
     9
 74
     0
 42
0.000000001
 43
0.00000001
 40
0.0
 40
0.0
 40
0.0
 40
0.0
 40
0.0842601516416054
 40
0.1861052034387652
 40
0.4971421210056267
 40
0.8095618130809268
 40
0.913322481318456
 40
1.0
 40
1.0
 40
1.0
 40
1.0
 10
9.453741553270623
 20
12.40169504593805
 30
0.0
 10
9.44836822859984
 20
12.40336949503564
 30
0.0
 10
9.436500178738601
 20
12.40706784691233
 30
0.0
 10
9.346261244063795
 20
12.47520577956584
 30
0.0
 10
9.181663630202962
 20
12.62787609727946
 30
0.0
 10
9.025190414963042
 20
12.78914957641005
 30
0.0
 10
8.955613395438313
 20
12.87450622264299
 30
0.0
 10
8.951769488373497
 20
12.88422842265781
 30
0.0
 10
8.95001994259273
 20
12.88865346044589
 30
0.0
  0
SPLINE
  5
9C
330
1F
100
AcDbEntity
  8
외형선
  6
Continuous
370
    15
100
AcDbSpline
210
0.0
220
0.0
230
1.0
 70
     8
 71
     3
 72
     9
 73
     5
 74
     0
 42
0.000000001
 43
0.00000001
 40
0.0
 40
0.0
 40
0.0
 40
0.0
 40
0.5004866533650101
 40
1.0
 40
1.0
 40
1.0
 40
1.0
 10
8.950027570672322
 20
-12.39742872575943
 30
0.0
 10
9.458893239484228
 20
-12.40161608489009
 30
0.0
 10
10.47563497553365
 20
-12.40998265990766
 30
0.0
 10
11.49220813767798
 20
-12.42908615420903
 30
0.0
 10
12.00000000000001
 20
-12.43862860457993
 30
0.0
  0
LINE
  5
9D
330
1F
100
AcDbEntity
  8
0
  6
Continuous
 62
     1
370
    15
100
AcDbLine
 10
12.82328972221936
 20
4.507509979912474
 30
0.0
 11
12.74716618882814
 21
4.549444446041613
 31
0.0
  0
SPLINE
  5
9E
330
1F
100
AcDbEntity
  8
0
  6
Continuous
 62
     1
370
    15
100
AcDbSpline
210
0.0
220
0.0
230
1.0
 70
     8
 71
     3
 72
    11
 73
     7
 74
     0
 42
0.000000001
 43
0.00000001
 40
0.0
 40
0.0
 40
0.0
 40
0.0
 40
0.3260401459904587
 40
0.483633418715442
 40
0.6441147750020193
 40
1.0
 40
1.0
 40
1.0
 40
1.0
 10
21.67129482006054
 20
4.067957641187549
 30
0.0
 10
21.18794500489035
 20
4.29687104988414
 30
0.0
 10
20.47096543528522
 20
4.636430996103084
 30
0.0
 10
19.53733887134216
 20
5.100261600385204
 30
0.0
 10
18.5602655281984
 20
5.593001856739658
 30
0.0
 10
17.79515958448686
 20
5.99416198640411
 30
0.0
 10
17.26784060066008
 20
6.270645725244631
 30
0.0
  0
SPLINE
  5
9F
330
1F
100
AcDbEntity
  8
0
  6
Continuous
 62
     1
370
    15
100
AcDbSpline
210
0.0
220
0.0
230
1.0
 70
     8
 71
     3
 72
     9
 73
     5
 74
     0
 42
0.000000001
 43
0.00000001
 40
0.0
 40
0.0
 40
0.0
 40
0.0
 40
0.4987368387484702
 40
1.0
 40
1.0
 40
1.0
 40
1.0
 10
16.42299638373505
 20
12.61488962303418
 30
0.0
 10
15.68614997323635
 20
12.57803311949678
 30
0.0
 10
14.20872469952337
 20
12.50413341794297
 30
0.0
 10
12.73748051227371
 20
12.46050028615518
 30
0.0
 10
12.00000000000001
 20
12.43862860457993
 30
0.0
  0
SPLINE
  5
A0
330
1F
100
AcDbEntity
  8
0
  6
Continuous
 62
     1
370
    15
100
AcDbSpline
210
0.0
220
0.0
230
1.0
 70
     8
 71
     3
 72
    34
 73
    30
 74
     0
 42
0.000000001
 43
0.00000001
 40
0.0
 40
0.0
 40
0.0
 40
0.0
 40
0.0220927077720922
 40
0.0418454982684777
 40
0.0594850835379053
 40
0.075384999564294
 40
0.1071987952849351
 40
0.1375227246524217
 40
0.1675689524306521
 40
0.2004302304895519
 40
0.2382728711802314
 40
0.2762929656396628
 40
0.3109716078315312
 40
0.3454096147755344
 40
0.3832212989015332
 40
0.4253749536001477
 40
0.467772339024027
 40
0.5031454852329237
 40
0.5445258461982221
 40
0.5867921911601608
 40
0.6313521881448989
 40
0.6765796607409639
 40
0.723540198025639
 40
0.7565320537851384
 40
0.791571616522811
 40
0.8301356625456157
 40
0.8770608734756294
 40
0.9335954002223213
 40
0.9999999999999999
 40
0.9999999999999999
 40
0.9999999999999999
 40
0.9999999999999999
 10
56.90158827472152
 20
10.85774756648093
 30
0.0
 10
56.72696372202252
 20
10.84261495022977
 30
0.0
 10
56.39620972423373
 20
10.81395246694942
 30
0.0
 10
55.88924276173236
 20
10.77106828313795
 30
0.0
 10
55.40890002237234
 20
10.73356984139476
 30
0.0
 10
54.78771483674454
 20
10.69078454278941
 30
0.0
 10
54.03607126685343
 20
10.64635396070955
 30
0.0
 10
53.15337840309532
 20
10.59629358925459
 30
0.0
 10
52.28597371574605
 20
10.55416113956566
 30
0.0
 10
51.34582504413268
 20
10.5158628629128
 30
0.0
 10
50.33120940690551
 20
10.48376828650094
 30
0.0
 10
49.30019439295206
 20
10.46118683206417
 30
0.0
 10
48.30201669102696
 20
10.4487978438306
 30
0.0
 10
47.30715055472903
 20
10.44533341660286
 30
0.0
 10
46.24159203042721
 20
10.45156895929329
 30
0.0
 10
45.1016852264234
 20
10.47011046545672
 30
0.0
 10
43.98361313949938
 20
10.50050122758964
 30
0.0
 10
42.87421579291782
 20
10.54167323596616
 30
0.0
 10
41.76444368462273
 20
10.59383764818662
 30
0.0
 10
40.60905312932128
 20
10.66038781127625
 30
0.0
 10
39.44399934968953
 20
10.73594788775665
 30
0.0
 10
38.15731678055135
 20
10.83735750706696
 30
0.0
 10
36.96185320817293
 20
10.9483622210488
 30
0.0
 10
35.86254824484517
 20
11.05899527282413
 30
0.0
 10
34.84450154707146
 20
11.16682557355581
 30
0.0
 10
33.6886400048612
 20
11.29520176880305
 30
0.0
 10
32.36276816118283
 20
11.46468406051688
 30
0.0
 10
30.82811142319437
 20
11.682400216136
 30
0.0
 10
29.75003510671207
 20
11.8497500142162
 30
0.0
 10
29.16772068534183
 20
11.94014268804236
 30
0.0
  0
SPLINE
  5
A1
330
1F
100
AcDbEntity
  8
0
  6
Continuous
 62
     1
370
    15
100
AcDbSpline
210
0.0
220
0.0
230
1.0
 70
     8
 71
     3
 72
    21
 73
    17
 74
     0
 42
0.000000001
 43
0.00000001
 40
0.0
 40
0.0
 40
0.0
 40
0.0
 40
0.0911307407965422
 40
0.1720799373640185
 40
0.2429601206770541
 40
0.2899063228896627
 40
0.3321241026622238
 40
0.4089550991738193
 40
0.477696599304467
 40
0.5391864789511374
 40
0.5938449886960099
 40
0.6486030627970449
 40
0.7094500565889923
 40
0.7766950491671475
 40
0.9113522617054096
 40
1.0
 40
1.0
 40
1.0
 40
1.0
 10
29.16772068534183
 20
-11.94014268804238
 30
0.0
 10
29.47609555581893
 20
-11.89099556054476
 30
0.0
 10
30.05839224223354
 20
-11.79819224799085
 30
0.0
 10
30.92394375434883
 20
-11.65867131146648
 30
0.0
 10
31.66744436563819
 20
-11.54436882773567
 30
0.0
 10
32.29450516157004
 20
-11.45540491539669
 30
0.0
 10
32.96900866887314
 20
-11.36724268798568
 30
0.0
 10
33.74851710519987
 20
-11.284271803056
 30
0.0
 10
34.58897789369026
 20
-11.19502253526963
 30
0.0
 10
35.35267207434136
 20
-11.11302442363317
 30
0.0
 10
36.05869484182514
 20
-11.03915162768371
 30
0.0
 10
36.75614821954125
 20
-10.96943389487316
 30
0.0
 10
37.50055951064692
 20
-10.89931209692205
 30
0.0
 10
38.56138532563078
 20
-10.80738480354366
 30
0.0
 10
39.7277463074864
 20
-10.71627791084654
 30
0.0
 10
40.6192960175062
 20
-10.66401113386512
 30
0.0
 10
40.9732239760028
 20
-10.64326223622506
 30
0.0
  0
SPLINE
  5
A2
330
1F
100
AcDbEntity
  8
0
  6
Continuous
 62
     1
370
    15
100
AcDbSpline
210
0.0
220
0.0
230
1.0
 70
     8
 71
     3
 72
     9
 73
     5
 74
     0
 42
0.000000001
 43
0.00000001
 40
0.0
 40
0.0
 40
0.0
 40
0.0
 40
0.5012631612515298
 40
1.0
 40
1.0
 40
1.0
 40
1.0
 10
12.00000000000001
 20
-12.43862860457993
 30
0.0
 10
12.73748051227371
 20
-12.46050028615519
 30
0.0
 10
14.20872469952337
 20
-12.50413341794298
 30
0.0
 10
15.68614997323635
 20
-12.57803311949679
 30
0.0
 10
16.42299638373505
 20
-12.61488962303419
 30
0.0
  0
SPLINE
  5
A3
330
1F
100
AcDbEntity
  8
외형선
  6
Continuous
370
    15
100
AcDbSpline
210
0.0
220
0.0
230
1.0
 70
     8
 71
     3
 72
    10
 73
     6
 74
     0
 42
0.000000001
 43
0.00000001
 40
0.0
 40
0.0
 40
0.0
 40
0.0
 40
0.5
 40
0.5
 40
1.0
 40
1.0
 40
1.0
 40
1.0
 10
12.00000000000001
 20
8.932607224649546
 30
0.0
 10
11.49128608339477
 20
9.175361091516802
 30
0.0
 10
10.9845480308602
 20
9.413221138410991
 30
0.0
 10
9.968629900085759
 20
9.879433341447733
 30
0.0
 10
9.459389254842778
 20
10.10778548441342
 30
0.0
 10
8.950040834688977
 20
10.33084275575013
 30
0.0
  0
LINE
  5
A4
330
1F
100
AcDbEntity
  8
외형선
  6
Continuous
370
    15
100
AcDbLine
 10
12.00000000000001
 20
8.932607224649542
 30
0.0
 11
12.0
 21
4.960743465280158
 31
0.0
  0
SPLINE
  5
A5
330
1F
100
AcDbEntity
  8
외형선
  6
Continuous
370
    15
100
AcDbSpline
210
0.0
220
0.0
230
1.0
 70
     8
 71
     3
 72
    10
 73
     6
 74
     0
 42
0.000000001
 43
0.00000001
 40
0.0
 40
0.0
 40
0.0
 40
0.0
 40
0.5
 40
0.5
 40
1.0
 40
1.0
 40
1.0
 40
1.0
 10
12.0
 20
4.960743465280158
 30
0.0
 10
11.49128260571633
 20
5.2396917376891
 30
0.0
 10
10.98454110333193
 20
5.51573551540793
 30
0.0
 10
9.968615992504978
 20
6.062330510789205
 30
0.0
 10
9.459371847689136
 20
6.332887116947287
 30
0.0
 10
8.950019942592661
 20
6.600069838257527
 30
0.0
  0
LINE
  5
A6
330
1F
100
AcDbEntity
  8
외형선
  6
Continuous
370
    15
100
AcDbLine
 10
8.95001994259269
 20
10.33135932972083
 30
0.0
 11
8.950019942592741
 21
15.87499999999999
 31
0.0
  0
LINE
  5
A7
330
1F
100
AcDbEntity
  8
외형선
  6
Continuous
370
    15
100
AcDbLine
 10
-50.49999999999999
 20
13.48739999999999
 30
0.0
 11
-50.49999999999999
 21
-15.87500000000001
 31
0.0
  0
LINE
  5
A8
330
1F
100
AcDbEntity
  8
외형선
  6
Continuous
370
    15
100
AcDbLine
 10
8.950019942592741
 20
-15.87500000000001
 30
0.0
 11
8.950019942592665
 21
6.600074940167988
 31
0.0
  0
LINE
  5
A9
330
1F
100
AcDbEntity
  8
외형선
  6
Continuous
370
    15
100
AcDbLine
 10
-51.5
 20
13.48739999999999
 30
0.0
 11
-51.5
 21
-14.875
 31
0.0
  0
SPLINE
  5
AA
330
1F
100
AcDbEntity
  8
외형선
  6
Continuous
370
    15
100
AcDbSpline
210
0.0
220
0.0
230
1.0
 70
    24
 71
     3
 72
    14
 73
    10
 74
     0
 42
0.000000001
 43
0.00000001
 40
0.0
 40
0.0
 40
0.0
 40
0.0
 40
0.25
 40
0.25
 40
0.5
 40
0.5
 40
0.75
 40
0.75
 40
1.0
 40
1.0
 40
1.0
 40
1.0
 10
12.00000000000001
 20
4.960743465280153
 30
0.0
 10
12.00000000000001
 20
4.949996067186786
 30
0.0
 10
12.00000000000001
 20
4.898975227055526
 30
0.0
 10
12.00000000000001
 20
4.715702723110965
 30
0.0
 10
12.00000000000001
 20
4.583468374307443
 30
0.0
 10
12.00000000000001
 20
4.246377747711335
 30
0.0
 10
12.00000000000001
 20
4.041618980299315
 30
0.0
 10
12.00000000000001
 20
3.575733808634537
 30
0.0
 10
12.00000000000001
 20
3.314742810109499
 30
0.0
 10
12.00000000000002
 20
3.035676497918131
 30
0.0
  0
SPLINE
  5
AB
330
1F
100
AcDbEntity
  8
외형선
  6
Continuous
370
    15
100
AcDbSpline
210
0.0
220
0.0
230
1.0
 70
     8
 71
     3
 72
    10
 73
     6
 74
     0
 42
0.000000001
 43
0.00000001
 40
0.0
 40
0.0
 40
0.0
 40
0.0
 40
0.5
 40
0.5
 40
1.0
 40
1.0
 40
1.0
 40
1.0
 10
12.00000000000001
 20
3.035676497918135
 30
0.0
 10
11.49128344341292
 20
3.233415306066438
 30
0.0
 10
10.98454277202182
 20
3.429341725948831
 30
0.0
 10
9.968619342536696
 20
3.817793639929194
 30
0.0
 10
9.459376040691328
 20
4.010323445203734
 30
0.0
 10
8.950024975041195
 20
4.200707352890907
 30
0.0
  0
SPLINE
  5
AC
330
1F
100
AcDbEntity
  8
외형선
  6
Continuous
370
    15
100
AcDbSpline
210
0.0
220
0.0
230
1.0
 70
     8
 71
     3
 72
    10
 73
     6
 74
     0
 42
0.000000001
 43
0.00000001
 40
0.0
 40
0.0
 40
0.0
 40
0.0
 40
0.5
 40
0.5
 40
1.0
 40
1.0
 40
1.0
 40
1.0
 10
12.00000000000001
 20
-12.21694103534957
 30
0.0
 10
11.4912838754792
 20
-12.15276565551114
 30
0.0
 10
10.98454363269697
 20
-12.08241013125191
 30
0.0
 10
9.9686210704126
 20
-11.92927867768917
 30
0.0
 10
9.459378203353673
 20
-11.84648788382186
 30
0.0
 10
8.950027570672322
 20
-11.7576464192843
 30
0.0
  0
SPLINE
  5
AD
330
1F
100
AcDbEntity
  8
외형선
  6
Continuous
370
    15
100
AcDbSpline
210
0.0
220
0.0
230
1.0
 70
    24
 71
     3
 72
    14
 73
    10
 74
     0
 42
0.000000001
 43
0.00000001
 40
0.0
 40
0.0
 40
0.0
 40
0.0
 40
0.25
 40
0.25
 40
0.5
 40
0.5
 40
0.75
 40
0.75
 40
1.0
 40
1.0
 40
1.0
 40
1.0
 10
12.0
 20
3.035676497918139
 30
0.0
 10
12.0
 20
1.632112465872386
 30
0.0
 10
12.0
 20
0.1727698219876315
 30
0.0
 10
12.0
 20
-2.726670734369152
 30
0.0
 10
12.0
 20
-4.165321694104445
 30
0.0
 10
12.0
 20
-6.876151579661314
 30
0.0
 10
12.0
 20
-8.146886061984894
 30
0.0
 10
12.0
 20
-10.40651058450413
 30
0.0
 10
12.0
 20
-11.39485232810545
 30
0.0
 10
12.0
 20
-12.21694103534957
 30
0.0
  0
LINE
  5
AE
330
1F
100
AcDbEntity
  8
외형선
  6
Continuous
370
    15
100
AcDbLine
 10
9.454637721713361
 20
12.38208170355269
 30
0.0
 11
9.453958604222473
 21
12.37970100694286
 31
0.0
  0
SPLINE
  5
AF
330
1F
100
AcDbEntity
  8
외형선
  6
Continuous
370
    15
100
AcDbSpline
210
0.0
220
0.0
230
1.0
 70
    24
 71
     3
 72
    16
 73
    12
 74
     0
 42
0.000000001
 43
0.00000001
 40
0.0
 40
0.0
 40
0.0
 40
0.0
 40
0.0734130243467054
 40
0.2083520558459124
 40
0.3432910873451195
 40
0.4821503896630456
 40
0.6210096919809717
 40
0.7430020911536757
 40
0.8649944903263797
 40
0.9898562729399902
 40
1.0
 40
1.0
 40
1.0
 40
1.0
 10
12.00000000000001
 20
12.41141735343179
 30
0.0
 10
12.00000000000001
 20
12.41319395336075
 30
0.0
 10
12.00000000000001
 20
12.41823608656406
 30
0.0
 10
12.00000000000001
 20
12.26254612736559
 30
0.0
 10
12.0
 20
11.99215108707973
 30
0.0
 10
12.00000000000001
 20
11.58770665717158
 30
0.0
 10
12.00000000000001
 20
11.08177787596651
 30
0.0
 10
12.00000000000001
 20
10.49698348916868
 30
0.0
 10
12.00000000000001
 20
9.837317913970118
 30
0.0
 10
12.00000000000001
 20
9.340242596962785
 30
0.0
 10
12.00000000000001
 20
9.039066413237455
 30
0.0
 10
12.00000000000001
 20
9.016437344156714
 30
0.0
  0
SPLINE
  5
B0
330
1F
100
AcDbEntity
  8
외형선
  6
Continuous
370
    15
100
AcDbSpline
210
0.0
220
0.0
230
1.0
 70
    24
 71
     3
 72
     9
 73
     5
 74
     0
 42
0.000000001
 43
0.00000001
 40
0.0
 40
0.0
 40
0.0
 40
0.0
 40
0.6245638162452288
 40
1.0
 40
1.0
 40
1.0
 40
1.0
 10
12.00000000000001
 20
-12.21694103534957
 30
0.0
 10
12.00000000000001
 20
-12.30867406557176
 30
0.0
 10
12.00000000000001
 20
-12.45554941735516
 30
0.0
 10
12.00000000000001
 20
-12.42356920995411
 30
0.0
 10
12.00000000000001
 20
-12.41156268293178
 30
0.0
  0
SPLINE
  5
B1
330
1F
100
AcDbEntity
  8
0
  6
Continuous
 62
     1
370
    15
100
AcDbSpline
210
0.0
220
0.0
230
1.0
 70
     8
 71
     3
 72
    50
 73
    46
 74
     0
 42
0.000000001
 43
0.00000001
 40
0.0
 40
0.0
 40
0.0
 40
0.0
 40
0.0624999999999997
 40
0.0624999999999997
 40
0.0937499999999994
 40
0.0937499999999994
 40
0.1249999999999991
 40
0.1249999999999991
 40
0.1562499999999988
 40
0.1562499999999988
 40
0.1874999999999986
 40
0.1874999999999986
 40
0.2499999999999979
 40
0.2499999999999979
 40
0.3124999999999973
 40
0.3124999999999973
 40
0.3749999999999968
 40
0.3749999999999968
 40
0.4062499999999967
 40
0.4062499999999967
 40
0.4374999999999969
 40
0.4374999999999969
 40
0.4999999999999971
 40
0.4999999999999971
 40
0.5312499999999971
 40
0.5312499999999971
 40
0.5624999999999972
 40
0.5624999999999972
 40
0.6249999999999976
 40
0.6249999999999976
 40
0.6562499999999977
 40
0.6562499999999977
 40
0.6874999999999978
 40
0.6874999999999978
 40
0.749999999999998
 40
0.749999999999998
 40
0.7812499999999982
 40
0.7812499999999982
 40
0.8124999999999984
 40
0.8124999999999984
 40
0.874999999999999
 40
0.874999999999999
 40
0.9374999999999994
 40
0.9374999999999994
 40
1.0
 40
1.0
 40
1.0
 40
1.0
 10
62.80000000000003
 20
-15.875
 30
0.0
 10
61.74495544813301
 20
-15.83649252854673
 30
0.0
 10
60.68271476531532
 20
-15.77605429591095
 30
0.0
 10
59.09443052972632
 20
-15.63308926550217
 30
0.0
 10
58.56701641459199
 20
-15.57678925181971
 30
0.0
 10
57.51017110939245
 20
-15.44690517500675
 30
0.0
 10
56.98031800930616
 20
-15.3732880562637
 30
0.0
 10
55.92039479575732
 20
-15.20902168078106
 30
0.0
 10
55.39032615469139
 20
-15.11837264457996
 30
0.0
 10
54.3326222680202
 20
-14.92053117532543
 30
0.0
 10
53.80563722648519
 20
-14.81339789531715
 30
0.0
 10
52.21828248677592
 20
-14.4670727646999
 30
0.0
 10
51.15579944811266
 20
-14.20311485904133
 30
0.0
 10
49.04351757263076
 20
-13.61443757489884
 30
0.0
 10
47.98370667157728
 20
-13.28883293133446
 30
0.0
 10
45.86503354415828
 20
-12.58008939321158
 30
0.0
 10
44.81083568647533
 20
-12.19756269867571
 30
0.0
 10
43.22116045493949
 20
-11.58340967301203
 30
0.0
 10
42.69094618257193
 20
-11.37209042262377
 30
0.0
 10
41.63252246633694
 20
-10.93732148905032
 30
0.0
 10
41.10546770810947
 20
-10.71404345894009
 30
0.0
 10
39.5192509424015
 20
-10.02603840128257
 30
0.0
 10
38.45666639569048
 20
-9.54327028916806
 30
0.0
 10
36.87101751152746
 20
-8.790201111759115
 30
0.0
 10
36.34377355519854
 20
-8.534371399604643
 30
0.0
 10
35.28507660089713
 20
-8.012836509247233
 30
0.0
 10
34.7548203408104
 20
-7.747318932376332
 30
0.0
 10
33.16530408751792
 20
-6.938494741021936
 30
0.0
 10
32.11120107344628
 20
-6.383613458784191
 30
0.0
 10
30.52194492739697
 20
-5.530468679582439
 30
0.0
 10
29.99165499752157
 20
-5.242755560897962
 30
0.0
 10
28.93265051925406
 20
-4.662107535975444
 30
0.0
 10
28.4050272845686
 20
-4.36937695263352
 30
0.0
 10
26.82015647213562
 20
-3.484036359033249
 30
0.0
 10
25.75761131017846
 20
-2.883629458042042
 30
0.0
 10
24.17073267896182
 20
-1.976713102752392
 30
0.0
 10
23.64377837869332
 20
-1.673525532236127
 30
0.0
 10
22.58573996895551
 20
-1.064839921098792
 30
0.0
 10
22.05559849207013
 20
-0.7595209063959104
 30
0.0
 10
20.46578025790712
 20
0.1570783478131926
 30
0.0
 10
19.41134191198777
 20
0.7681068772402707
 30
0.0
 10
17.29317158138052
 20
1.985827277730078
 30
0.0
 10
16.23205493358886
 20
2.592001682731577
 30
0.0
 10
14.12096497447114
 20
3.788061074135247
 30
0.0
 10
13.05860007260747
 20
4.38027449617475
 30
0.0
 10
12.0
 20
4.960743465280162
 30
0.0
  0
SPLINE
  5
B2
330
1F
100
AcDbEntity
  8
0
  6
Continuous
 62
     1
370
    15
100
AcDbSpline
210
0.0
220
0.0
230
1.0
 70
     8
 71
     3
 72
    10
 73
     6
 74
     0
 42
0.000000001
 43
0.00000001
 40
0.0
 40
0.0
 40
0.0
 40
0.0
 40
0.3001931274905684
 40
0.6501100077887407
 40
0.9999999999999999
 40
0.9999999999999999
 40
0.9999999999999999
 40
0.9999999999999999
 10
23.37220483091772
 20
-1.514765804293138
 30
0.0
 10
22.23423914440622
 20
-1.057744078315092
 30
0.0
 10
19.76981603283929
 20
-0.0679999082239683
 30
0.0
 10
15.97908476922964
 20
1.470782655250958
 30
0.0
 10
13.32632761486256
 20
2.514058578664886
 30
0.0
 10
12.00000000000001
 20
3.035676497918135
 30
0.0
  0
SPLINE
  5
B3
330
1F
100
AcDbEntity
  8
외형선
  6
Continuous
370
    15
100
AcDbSpline
210
0.0
220
0.0
230
1.0
 70
    24
 71
     3
 72
    14
 73
    10
 74
     0
 42
0.000000001
 43
0.00000001
 40
0.0
 40
0.0
 40
0.0
 40
0.0
 40
0.25
 40
0.25
 40
0.5
 40
0.5
 40
0.75
 40
0.75
 40
1.0
 40
1.0
 40
1.0
 40
1.0
 10
12.00000000000001
 20
4.960743465280153
 30
0.0
 10
12.00000000000001
 20
4.949996067186786
 30
0.0
 10
12.00000000000001
 20
4.898975227055526
 30
0.0
 10
12.00000000000001
 20
4.715702723110965
 30
0.0
 10
12.00000000000001
 20
4.583468374307444
 30
0.0
 10
12.00000000000001
 20
4.246377747711334
 30
0.0
 10
12.00000000000001
 20
4.041618980299317
 30
0.0
 10
12.00000000000001
 20
3.575733808634537
 30
0.0
 10
12.00000000000001
 20
3.314742810109499
 30
0.0
 10
12.00000000000002
 20
3.035676497918131
 30
0.0
  0
SPLINE
  5
B4
330
1F
100
AcDbEntity
  8
0
  6
Continuous
 62
     1
370
    15
100
AcDbSpline
210
0.0
220
0.0
230
1.0
 70
     8
 71
     3
 72
    50
 73
    46
 74
     0
 42
0.000000001
 43
0.00000001
 40
0.0
 40
0.0
 40
0.0
 40
0.0
 40
0.0625000000000002
 40
0.0625000000000002
 40
0.0937500000000002
 40
0.0937500000000002
 40
0.1250000000000001
 40
0.1250000000000001
 40
0.1562500000000001
 40
0.1562500000000001
 40
0.1875000000000001
 40
0.1875000000000001
 40
0.25
 40
0.25
 40
0.3125
 40
0.3125
 40
0.375
 40
0.375
 40
0.40625
 40
0.40625
 40
0.4375000000000001
 40
0.4375000000000001
 40
0.5000000000000002
 40
0.5000000000000002
 40
0.5312500000000002
 40
0.5312500000000002
 40
0.5625000000000002
 40
0.5625000000000002
 40
0.6250000000000001
 40
0.6250000000000001
 40
0.6562500000000001
 40
0.6562500000000001
 40
0.6875000000000001
 40
0.6875000000000001
 40
0.7500000000000001
 40
0.7500000000000001
 40
0.7812500000000001
 40
0.7812500000000001
 40
0.8125000000000001
 40
0.8125000000000001
 40
0.8750000000000001
 40
0.8750000000000001
 40
0.9375000000000001
 40
0.9375000000000001
 40
1.0
 40
1.0
 40
1.0
 40
1.0
 10
62.80000000000003
 20
-15.06443629905642
 30
0.0
 10
61.74495544813291
 20
-14.87188764750262
 30
0.0
 10
60.68271476531511
 20
-14.64538499554904
 30
0.0
 10
59.09443052972598
 20
-14.25790921265974
 30
0.0
 10
58.56701641459162
 20
-14.12092722669774
 30
0.0
 10
57.51017110939198
 20
-13.83128080914955
 30
0.0
 10
56.98031800930559
 20
-13.67856355501377
 30
0.0
 10
55.92039479575669
 20
-13.35805946205326
 30
0.0
 10
55.39032615469071
 20
-13.19027306170321
 30
0.0
 10
54.33262226801939
 20
-12.84050095018121
 30
0.0
 10
53.80563722648435
 20
-12.65860300387838
 30
0.0
 10
52.21828248677491
 20
-12.09139556499464
 30
0.0
 10
51.15579944811159
 20
-11.68495526658877
 30
0.0
 10
49.04351757262951
 20
-10.82367702466334
 30
0.0
 10
47.98370667157589
 20
-10.36751655859681
 30
0.0
 10
45.8650335441567
 20
-9.41126489238314
 30
0.0
 10
44.81083568647367
 20
-8.911947325505357
 30
0.0
 10
43.22116045493767
 20
-8.133633369672237
 30
0.0
 10
42.69094618257007
 20
-7.869472120981195
 30
0.0
 10
41.63252246633496
 20
-7.333035008583783
 30
0.0
 10
41.10546770810744
 20
-7.060963510228919
 30
0.0
 10
39.51925094239932
 20
-6.232583847561278
 30
0.0
 10
38.4566663956882
 20
-5.664327446044704
 30
0.0
 10
36.87101751152504
 20
-4.796441694592214
 30
0.0
 10
36.34377355519607
 20
-4.504564434815813
 30
0.0
 10
35.28507660089456
 20
-3.915355566725208
 30
0.0
 10
34.75482034080781
 20
-3.618241579730261
 30
0.0
 10
33.16530408751518
 20
-2.721593174507012
 30
0.0
 10
32.11120107344341
 20
-2.117502378722052
 30
0.0
 10
30.52194492739394
 20
-1.204787862925779
 30
0.0
 10
29.99165499751851
 20
-0.8996072614969133
 30
0.0
 10
28.9326505192509
 20
-0.2888875229742521
 30
0.0
 10
28.40502728456542
 20
0.0164408794721695
 30
0.0
 10
26.82015647213227
 20
0.9322752115026142
 30
0.0
 10
25.75761131017501
 20
1.543259073036752
 30
0.0
 10
24.17073267895822
 20
2.451235863667199
 30
0.0
 10
23.64377837868968
 20
2.752320934098619
 30
0.0
 10
22.58573996895176
 20
3.351885247494196
 30
0.0
 10
22.05559849206633
 20
3.650182608670854
 30
0.0
 10
20.46578025790319
 20
4.538373758759816
 30
0.0
 10
19.41134191198373
 20
5.120718339188654
 30
0.0
 10
17.29317158137625
 20
6.261795039851345
 30
0.0
 10
16.23205493358455
 20
6.820006002687964
 30
0.0
 10
14.12096497446659
 20
7.901784840563622
 30
0.0
 10
13.05860007260283
 20
8.427452455530696
 30
0.0
 10
11.99999999999527
 20
8.932607224651804
 30
0.0
  0
SPLINE
  5
B5
330
1F
100
AcDbEntity
  8
0
  6
Continuous
 62
     1
370
    15
100
AcDbSpline
210
0.0
220
0.0
230
1.0
 70
     8
 71
     3
 72
    20
 73
    16
 74
     0
 42
0.000000001
 43
0.00000001
 40
0.0
 40
0.0
 40
0.0
 40
0.0
 40
0.081749815844527
 40
0.1634536211417148
 40
0.245147775737369
 40
0.3268686945649014
 40
0.4086344853387501
 40
0.4903581531634698
 40
0.5720528843608532
 40
0.6537550905721531
 40
0.7355011407689396
 40
0.8172545580258651
 40
0.8989600922032842
 40
0.9806538001882995
 40
1.0
 40
1.0
 40
1.0
 40
1.0
 10
62.80000000000001
 20
-12.52493469684544
 30
0.0
 10
61.67767131488284
 20
-12.30200149781566
 30
0.0
 10
59.43364561527144
 20
-11.85626057133548
 30
0.0
 10
56.06847375758809
 20
-10.95973627322847
 30
0.0
 10
52.70371393658733
 20
-9.912724292134046
 30
0.0
 10
49.33797817255044
 20
-8.71363318560399
 30
0.0
 10
45.97133857719524
 20
-7.385772537487598
 30
0.0
 10
42.60553192386494
 20
-5.946501314980153
 30
0.0
 10
39.24074842134165
 20
-4.418429663283837
 30
0.0
 10
35.87564624899585
 20
-2.823989353993842
 30
0.0
 10
32.50935900586391
 20
-1.188058020063781
 30
0.0
 10
29.14294557531657
 20
0.4669905374529751
 30
0.0
 10
25.77768192358097
 20
2.110035377615588
 30
0.0
 10
23.26918001474692
 20
3.326853765507676
 30
0.0
 10
21.88211550222983
 20
3.965471297746631
 30
0.0
 10
21.61653304282316
 20
4.087747957052445
 30
0.0
  0
LINE
  5
B6
330
1F
100
AcDbEntity
  8
0
  6
Continuous
 62
     1
370
    15
100
AcDbLine
 10
62.79999999999973
 20
-15.06443629905642
 30
0.0
 11
62.80000000000001
 21
-12.52493469684544
 31
0.0
  0
LINE
  5
B7
330
1F
100
AcDbEntity
  8
0
  6
Continuous
 62
     1
370
    15
100
AcDbLine
 10
62.80000000000001
 20
-15.875
 30
0.0
 11
62.79999999999995
 21
-15.0644362990564
 31
0.0
  0
SPLINE
  5
B8
330
1F
100
AcDbEntity
  8
0
  6
Continuous
 62
     1
370
    15
100
AcDbSpline
210
0.0
220
0.0
230
1.0
 70
     8
 71
     3
 72
    18
 73
    14
 74
     0
 42
0.000000001
 43
0.00000001
 40
0.0
 40
0.0
 40
0.0
 40
0.0
 40
0.0881091549907804
 40
0.1762166394358609
 40
0.2643269326418504
 40
0.3524445097684596
 40
0.4405738352279278
 40
0.5287189894928367
 40
0.6168596898679943
 40
0.7137930715762396
 40
0.8107258799817805
 40
0.9076581515653082
 40
0.9999999999999999
 40
0.9999999999999999
 40
0.9999999999999999
 40
0.9999999999999999
 10
59.97944026693723
 20
1.300194242658474
 30
0.0
 10
58.70021285844771
 20
1.885560168054847
 30
0.0
 10
56.14178229556403
 20
3.056280920335416
 30
0.0
 10
52.30412674757638
 20
4.746185098467042
 30
0.0
 10
48.46633110858777
 20
6.345588662631823
 30
0.0
 10
44.62817317786553
 20
7.821110522741334
 30
0.0
 10
40.78945490326741
 20
9.144649231703589
 30
0.0
 10
36.95025535925986
 20
10.29024920887018
 30
0.0
 10
32.98331515366624
 20
11.266782972692
 30
0.0
 10
28.88872778674478
 20
12.03171536255409
 30
0.0
 10
24.6665123581373
 20
12.53084858716404
 30
0.0
 10
20.51096143844264
 20
12.75545482500762
 30
0.0
 10
17.76281918548093
 20
12.65642353048166
 30
0.0
 10
16.42207310051415
 20
12.60810877520225
 30
0.0
  0
SPLINE
  5
B9
330
1F
100
AcDbEntity
  8
0
  6
Continuous
 62
     1
370
    15
100
AcDbSpline
210
0.0
220
0.0
230
1.0
 70
     8
 71
     3
 72
     8
 73
     4
 74
     0
 42
0.000000001
 43
0.00000001
 40
0.0
 40
0.0
 40
0.0
 40
0.0
 40
1.0
 40
1.0
 40
1.0
 40
1.0
 10
59.97944026693722
 20
1.300194242658487
 30
0.0
 10
59.96240442188099
 20
0.2921095860622019
 30
0.0
 10
59.83660082360079
 20
-0.6903983468761417
 30
0.0
 10
59.62288798355625
 20
-1.65223443253494
 30
0.0
  0
SPLINE
  5
BA
330
1F
100
AcDbEntity
  8
0
  6
Continuous
 62
     1
370
    15
100
AcDbSpline
210
0.0
220
0.0
230
1.0
 70
     8
 71
     3
 72
     8
 73
     4
 74
     0
 42
0.000000001
 43
0.00000001
 40
0.0
 40
0.0
 40
0.0
 40
0.0
 40
1.0
 40
1.0
 40
1.0
 40
1.0
 10
62.80000000000001
 20
-4.242481768220611
 30
0.0
 10
61.73178050400632
 20
-3.402687243110371
 30
0.0
 10
60.67275622848766
 20
-2.539237859000443
 30
0.0
 10
59.62288798355628
 20
-1.6522344325347
 30
0.0
  0
SPLINE
  5
BB
330
1F
100
AcDbEntity
  8
0
  6
Continuous
 62
     1
370
    15
100
AcDbSpline
210
0.0
220
0.0
230
1.0
 70
    24
 71
     3
 72
    14
 73
    10
 74
     0
 42
0.000000001
 43
0.00000001
 40
0.0
 40
0.0
 40
0.0
 40
0.0
 40
0.25
 40
0.25
 40
0.5
 40
0.5
 40
0.75
 40
0.75
 40
1.0
 40
1.0
 40
1.0
 40
1.0
 10
62.80000000000001
 20
-12.52493469684543
 30
0.0
 10
62.80000000000001
 20
-12.04486774864042
 30
0.0
 10
62.80000000000003
 20
-11.50271046987283
 30
0.0
 10
62.80000000000001
 20
-10.30352123776153
 30
0.0
 10
62.80000000000003
 20
-9.646511261890657
 30
0.0
 10
62.80000000000001
 20
-8.236264171641585
 30
0.0
 10
62.80000000000001
 20
-7.483105696757509
 30
0.0
 10
62.80000000000003
 20
-5.907098256972259
 30
0.0
 10
62.80000000000001
 20
-5.08436871333033
 30
0.0
 10
62.80000000000001
 20
-4.242481768221119
 30
0.0
  0
SPLINE
  5
BC
330
1F
100
AcDbEntity
  8
외형선
  6
Continuous
370
    15
100
AcDbSpline
210
0.0
220
0.0
230
1.0
 70
    24
 71
     3
 72
    16
 73
    12
 74
     0
 42
0.000000001
 43
0.00000001
 40
0.0
 40
0.0
 40
0.0
 40
0.0
 40
0.0739552991215871
 40
0.2088153590457
 40
0.343675418969813
 40
0.4824534554175259
 40
0.6212314918652388
 40
0.7431524963361642
 40
0.8650735008070894
 40
0.989862209444012
 40
1.0
 40
1.0
 40
1.0
 40
1.0
 10
12.00000000000001
 20
12.41147340851461
 30
0.0
 10
12.00000000000001
 20
12.41328445854573
 30
0.0
 10
12.00000000000001
 20
12.41839802129229
 30
0.0
 10
12.00000000000001
 20
12.26258041486982
 30
0.0
 10
12.0
 20
11.99214159928167
 30
0.0
 10
12.0
 20
11.58770924127455
 30
0.0
 10
12.0
 20
11.08177727638091
 30
0.0
 10
12.0
 20
10.49698364143585
 30
0.0
 10
12.0
 20
9.837317869834923
 30
0.0
 10
12.00000000000001
 20
9.34024259761255
 30
0.0
 10
12.0
 20
9.039066413282862
 30
0.0
 10
12.0
 20
9.016437344156714
 30
0.0
  0
SPLINE
  5
BD
330
1F
100
AcDbEntity
  8
0
  6
Continuous
 62
     1
370
    15
100
AcDbSpline
210
0.0
220
0.0
230
1.0
 70
    24
 71
     3
 72
    10
 73
     6
 74
     0
 42
0.000000001
 43
0.00000001
 40
0.0
 40
0.0
 40
0.0
 40
0.0
 40
0.5000000000000002
 40
0.5000000000000002
 40
1.0
 40
1.0
 40
1.0
 40
1.0
 10
57.80000000000001
 20
4.691538593597883
 30
0.0
 10
57.80000000000003
 20
5.728628384846482
 30
0.0
 10
57.80000000000001
 20
6.684238768094209
 30
0.0
 10
57.8
 20
8.33674841224507
 30
0.0
 10
57.8
 20
9.032833253919845
 30
0.0
 10
57.80000000000001
 20
9.570389447124656
 30
0.0
  0
SPLINE
  5
BE
330
1F
100
AcDbEntity
  8
0
  6
Continuous
 62
     1
370
    15
100
AcDbSpline
210
0.0
220
0.0
230
1.0
 70
     8
 71
     3
 72
     9
 73
     5
 74
     0
 42
0.000000001
 43
0.00000001
 40
0.0
 40
0.0
 40
0.0
 40
0.0
 40
0.7600776625764021
 40
1.0
 40
1.0
 40
1.0
 40
1.0
 10
62.80000000000001
 20
11.11249999999999
 30
0.0
 10
61.30431612910719
 20
11.10019361426697
 30
0.0
 10
59.33651212099707
 20
11.08400265597553
 30
0.0
 10
57.36870123409473
 20
10.87613190332111
 30
0.0
 10
56.89657944650153
 20
10.82625906646225
 30
0.0
  0
SPLINE
  5
BF
330
1F
100
AcDbEntity
  8
0
  6
Continuous
 62
     1
370
    15
100
AcDbSpline
210
0.0
220
0.0
230
1.0
 70
     8
 71
     3
 72
     8
 73
     4
 74
     0
 42
0.000000001
 43
0.00000001
 40
0.0
 40
0.0
 40
0.0
 40
0.0
 40
1.0
 40
1.0
 40
1.0
 40
1.0
 10
62.80000000000001
 20
11.1125
 30
0.0
 10
61.12259376193913
 20
10.65780123202017
 30
0.0
 10
59.45565831685226
 20
10.14524943066148
 30
0.0
 10
57.80000000000001
 20
9.57038944712466
 30
0.0
  0
SPLINE
  5
C0
330
1F
100
AcDbEntity
  8
0
  6
Continuous
 62
     1
370
    15
100
AcDbSpline
210
0.0
220
0.0
230
1.0
 70
     8
 71
     3
 72
     8
 73
     4
 74
     0
 42
0.000000001
 43
0.00000001
 40
0.0
 40
0.0
 40
0.0
 40
0.0
 40
1.0
 40
1.0
 40
1.0
 40
1.0
 10
57.80000000000001
 20
4.691538593597879
 30
0.0
 10
58.64256567488972
 20
3.688219129697074
 30
0.0
 10
59.37614495484246
 20
2.565545540272578
 30
0.0
 10
59.9794402669372
 20
1.300194242658491
 30
0.0
  0
LINE
  5
C1
330
1F
100
AcDbEntity
  8
0
  6
Continuous
 62
     1
370
    15
100
AcDbLine
 10
59.7141041370709
 20
1.813099250365629
 30
0.0
 11
62.80000000000001
 21
0.0000000000000017
 31
0.0
  0
LINE
  5
C2
330
1F
100
AcDbEntity
  8
0
  6
Continuous
 62
     1
370
    15
100
AcDbLine
 10
62.80000000000001
 20
0.0000000000000017
 30
0.0
 11
62.80000000000001
 21
-4.242481768220613
 31
0.0
  0
SPLINE
  5
C3
330
1F
100
AcDbEntity
  8
0
  6
Continuous
 62
     1
370
    15
100
AcDbSpline
210
0.0
220
0.0
230
1.0
 70
     8
 71
     3
 72
    12
 73
     8
 74
     0
 42
0.000000001
 43
0.00000001
 40
0.0
 40
0.0
 40
0.0
 40
0.0
 40
0.0163756144553223
 40
0.2622836609816461
 40
0.5081903456486083
 40
0.7540957610859456
 40
1.0
 40
1.0
 40
1.0
 40
1.0
 10
29.16989095064137
 20
-11.9312168508177
 30
0.0
 10
29.0761682743762
 20
-11.94879910641676
 30
0.0
 10
27.57503824259058
 20
-12.23040920290613
 30
0.0
 10
24.66651177032025
 20
-12.51685894220562
 30
0.0
 10
20.44431884582929
 20
-12.7457027913302
 30
0.0
 10
16.22215079907912
 20
-12.66508958918602
 30
0.0
 10
13.40738135516493
 20
-12.36632364838914
 30
0.0
 10
12.00000000000001
 20
-12.21694103534957
 30
0.0
  0
SPLINE
  5
C4
330
1F
100
AcDbEntity
  8
외형선
  6
Continuous
370
    15
100
AcDbSpline
210
0.0
220
0.0
230
1.0
 70
    24
 71
     3
 72
    14
 73
    10
 74
     0
 42
0.000000001
 43
0.00000001
 40
0.0
 40
0.0
 40
0.0
 40
0.0
 40
0.25
 40
0.25
 40
0.5
 40
0.5
 40
0.75
 40
0.75
 40
1.0
 40
1.0
 40
1.0
 40
1.0
 10
12.0
 20
3.035676497918139
 30
0.0
 10
12.0
 20
1.632112465872386
 30
0.0
 10
12.0
 20
0.1727698219876315
 30
0.0
 10
12.0
 20
-2.726670734369152
 30
0.0
 10
12.0
 20
-4.165321694104445
 30
0.0
 10
12.0
 20
-6.876151579661314
 30
0.0
 10
12.0
 20
-8.146886061984894
 30
0.0
 10
12.0
 20
-10.40651058450413
 30
0.0
 10
12.0
 20
-11.39485232810545
 30
0.0
 10
12.0
 20
-12.21694103534957
 30
0.0
  0
LINE
  5
C5
330
1F
100
AcDbEntity
  8
0
  6
Continuous
 62
     1
370
    15
100
AcDbLine
 10
62.80000000000001
 20
0.0000000000000017
 30
0.0
 11
62.80000000000001
 21
11.1125
 31
0.0
  0
SPLINE
  5
C6
330
1F
100
AcDbEntity
  8
외형선
  6
Continuous
370
    15
100
AcDbSpline
210
0.0
220
0.0
230
1.0
 70
    24
 71
     3
 72
     9
 73
     5
 74
     0
 42
0.000000001
 43
0.00000001
 40
0.0
 40
0.0
 40
0.0
 40
0.0
 40
0.6258115547462542
 40
1.0
 40
1.0
 40
1.0
 40
1.0
 10
12.00000000000001
 20
-12.21694103534957
 30
0.0
 10
12.00000000000001
 20
-12.30872052582632
 30
0.0
 10
12.00000000000001
 20
-12.45537727861503
 30
0.0
 10
12.00000000000001
 20
-12.42353507312516
 30
0.0
 10
12.00000000000001
 20
-12.41162008775946
 30
0.0
  0
SPLINE
  5
C7
330
1F
100
AcDbEntity
  8
0
  6
Continuous
 62
     1
370
    15
100
AcDbSpline
210
0.0
220
0.0
230
1.0
 70
     8
 71
     3
 72
    13
 73
     9
 74
     0
 42
0.000000001
 43
0.00000001
 40
0.0
 40
0.0
 40
0.0
 40
0.0
 40
0.1468773000354634
 40
0.3174816362819173
 40
0.4880801923499437
 40
0.6586888649494699
 40
0.8293235284685473
 40
1.0
 40
1.0
 40
1.0
 40
1.0
 10
40.96828328865364
 20
10.64124496925589
 30
0.0
 10
42.03715220731752
 20
11.08972636442869
 30
0.0
 10
44.34755860222235
 20
12.05913829634109
 30
0.0
 10
47.89932790776288
 20
13.2894105054233
 30
0.0
 10
51.62377907145179
 20
14.35702361333004
 30
0.0
 10
55.34849601864011
 20
15.15073076650549
 30
0.0
 10
59.07387658039664
 20
15.68906467476097
 30
0.0
 10
61.55785743722537
 20
15.80407199026089
 30
0.0
 10
62.80000000000003
 20
15.87500000000001
 30
0.0
  0
SPLINE
  5
C8
330
1F
100
AcDbEntity
  8
0
  6
Continuous
 62
     1
370
    15
100
AcDbSpline
210
0.0
220
0.0
230
1.0
 70
    24
 71
     3
 72
    14
 73
    10
 74
     0
 42
0.000000001
 43
0.00000001
 40
0.0
 40
0.0
 40
0.0
 40
0.0
 40
0.25
 40
0.25
 40
0.5
 40
0.5
 40
0.75
 40
0.75
 40
1.0
 40
1.0
 40
1.0
 40
1.0
 10
62.80000000000001
 20
11.1125
 30
0.0
 10
62.80000000000001
 20
11.44930603840804
 30
0.0
 10
62.80000000000003
 20
11.81258118427562
 30
0.0
 10
62.80000000000003
 20
12.57771108481403
 30
0.0
 10
62.80000000000003
 20
12.9794895650125
 30
0.0
 10
62.80000000000003
 20
13.80064530850655
 30
0.0
 10
62.80000000000003
 20
14.21988443375763
 30
0.0
 10
62.80000000000003
 20
15.05166832183918
 30
0.0
 10
62.80000000000001
 20
15.46406174255948
 30
0.0
 10
62.80000000000001
 20
15.87500000000001
 30
0.0
  0
LINE
  5
C9
330
1F
100
AcDbEntity
  8
중심선
100
AcDbLine
 10
-54.5
 20
-0.000000000000009
 30
0.0
 11
65.80000000000001
 21
0.0000000000000057
 31
0.0
  0
LINE
  5
CA
330
1F
100
AcDbEntity
  8
참조1
100
AcDbLine
 10
8.499261314031163
 20
0.0010749287238892
 30
0.0
 11
8.499261314031168
 21
-39.99892507127611
 31
0.0
  0
LINE
  5
CB
330
1F
100
AcDbEntity
  8
참조1
100
AcDbLine
 10
8.499261314031168
 20
-39.99892507127611
 30
0.0
 11
-20.15080122126847
 21
-39.9989250712761
 31
0.0
  0
CIRCLE
  5
CC
330
1F
100
AcDbEntity
  8
해칭선
100
AcDbCircle
 10
0.0
 20
0.0
 30
0.0
 40
2.999999999999995
  0
INSERT
  5
CD
330
1F
100
AcDbEntity
  8
0
  6
Continuous
 62
     7
100
AcDbBlockReference
 66
     1
  2
블럭10
 10
-8.290272932125198
 20
-52.04717430164393
 30
0.0
  0
ATTRIB
  5
CE
330
CD
100
AcDbEntity
  8
FORMAT
 62
     2
100
AcDbText
 10
-17.47156822086648
 20
-49.97180738881174
 30
0.0
 40
4.233333333333333
  1
E1070116 [ 2 FLUTE ]
 41
0.75
  7
SLDTEXTSTYLE0
 11
-17.47156822086648
 21
-52.08847405547841
 31
0.0
100
AcDbAttribute
  2
AUTOATTR0
 70
     0
 74
     1
  0
SEQEND
  5
CF
330
CD
100
AcDbEntity
  8
0
  6
Continuous
 62
     7
  0
HATCH
  5
D0
330
1F
100
AcDbEntity
  8
중심선
100
AcDbHatch
 10
0.0
 20
0.0
 30
0.0
210
0.0
220
0.0
230
1.0
  2
SOLID
 70
     1
 71
     0
 91
        1
 92
        0
 93
        4
 72
     1
 10
-2.575363627744356
 20
-35.8
 11
-6.021638871581639
 21
-35.8
 72
     1
 10
-6.021638871581639
 20
-35.8
 11
-8.149868730785663
 21
-38.3363255805726
 72
     1
 10
-8.149868730785663
 20
-38.33632558057261
 11
-4.703560401835231
 21
-38.33628615127012
 72
     1
 10
-4.70356040183523
 20
-38.33628615127012
 11
-2.575363627744357
 21
-35.8
 97
        0
 75
     0
 76
     1
 98
        1
 10
-2.849261314031157
 20
-0.0010749287238987
  0
HATCH
  5
D1
330
1F
100
AcDbEntity
  8
중심선
100
AcDbHatch
 10
0.0
 20
0.0
 30
0.0
210
0.0
220
0.0
230
1.0
  2
SOLID
 70
     1
 71
     0
 91
        1
 92
        0
 93
        4
 72
     1
 10
2.437400363291623
 20
-35.79999999999998
 11
-1.00887488054566
 21
-35.80000000000003
 72
     1
 10
-1.00887488054566
 20
-35.80000000000003
 11
-5.540012888903076
 21
-41.20000000000002
 72
     1
 10
-5.540012888903076
 20
-41.20000000000002
 11
-2.093737645065794
 21
-41.20000000000002
 72
     1
 10
-2.093737645065794
 20
-41.20000000000002
 11
2.437400363291622
 21
-35.79999999999998
 97
        0
 75
     0
 76
     1
 98
        1
 10
-2.849261314031157
 20
-0.0010749287238987
  0
HATCH
  5
D2
330
1F
100
AcDbEntity
  8
중심선
100
AcDbHatch
 10
0.0
 20
0.0
 30
0.0
210
0.0
220
0.0
230
1.0
  2
SOLID
 70
     1
 71
     0
 91
        1
 92
        0
 93
        4
 72
     1
 10
7.450164354327546
 20
-35.79999999999998
 11
4.00388911049043
 21
-35.79999999999998
 72
     1
 10
4.00388911049043
 20
-35.79999999999998
 11
-3.044547791398875
 21
-44.20000000000002
 72
     1
 10
-3.044547791398875
 20
-44.20000000000002
 11
0.4017274524384078
 21
-44.20000000000002
 72
     1
 10
0.4017274524384078
 20
-44.20000000000002
 11
7.450164354327546
 21
-35.79999999999998
 97
        0
 75
     0
 76
     1
 98
        1
 10
-2.849261314031157
 20
-0.0010749287238987
  0
HATCH
  5
D3
330
1F
100
AcDbEntity
  8
중심선
100
AcDbHatch
 10
0.0
 20
0.0
 30
0.0
210
0.0
220
0.0
230
1.0
  2
SOLID
 70
     1
 71
     0
 91
        1
 92
        0
 93
        6
 72
     3
 10
12.25005478533969
 20
-40.00000000005127
 11
3.960054785062283
 21
1.540882976769353E-10
 40
0.3939339440162628
 50
17.09539180608436
 51
320.0019657685077
 73
     0
 72
     1
 10
13.93305444104028
 20
-38.58789400463827
 11
16.23835631474135
 21
-36.65356729459032
 72
     3
 10
12.25005478528684
 20
-40.00000000000016
 11
6.600054785286829
 21
-1.278976924368180E-13
 40
0.636358354079598
 50
39.99873849337434
 51
368.4976242363724
 73
     1
 72
     1
 10
18.67538727718745
 20
-39.03999999993003
 11
10.93012209212277
 21
-39.03999999993003
 72
     1
 10
10.93012209212277
 20
-39.03999999993003
 11
10.93009704767683
 21
-40.95999999992992
 72
     1
 10
10.93009704767683
 20
-40.95999999992992
 11
15.37147681714887
 21
-40.95999999992989
 97
        0
 75
     0
 76
     1
 98
        1
 10
-2.849261314031157
 20
-0.0010749287238987
  0
DIMENSION
  5
D4
330
1F
100
AcDbEntity
  8
치수문자_일반주서
100
AcDbDimension
  2
_D
 10
-63.99999999999994
 20
-15.87500000000006
 30
0.0
 11
-64.0
 21
0.0000000000000049
 31
0.0
 70
   160
  1
%%c<>
 71
     2
 42
31.75
 52
-270.0
  3
SLDDIMSTYLE0
100
AcDbAlignedDimension
 13
-50.49999999999999
 23
15.87499999999999
 33
0.0
 14
-50.49999999999999
 24
-15.87500000000001
 34
0.0
 50
90.0000000000002
100
AcDbRotatedDimension
1001
ACAD
1000
DSTYLE
1002
{
1070
   171
1070
     6
1070
   273
1070
     7
1002
}
  0
DIMENSION
  5
E7
330
1F
100
AcDbEntity
  8
치수문자_일반주서
100
AcDbDimension
  2
_D_1
 10
12.00000000000001
 20
29.03792442259352
 30
0.0
 11
37.40000000000002
 21
29.03792442259352
 31
0.0
 70
   160
  1
<>
 71
     2
 42
50.8
  3
SLDDIMSTYLE0
100
AcDbAlignedDimension
 13
62.80000000000001
 23
15.87500000000001
 33
0.0
 14
12.00000000000001
 24
12.44238030853148
 34
0.0
 50
0.000000000000004
100
AcDbRotatedDimension
1001
ACAD
1000
DSTYLE
1002
{
1070
   171
1070
     6
1070
   273
1070
     7
1002
}
  0
DIMENSION
  5
FC
330
1F
100
AcDbEntity
  8
치수문자_일반주서
100
AcDbDimension
  2
_D_2
 10
-51.5
 20
45.58996586444052
 30
0.0
 11
5.649999999999869
 21
45.58996586444052
 31
0.0
 70
   160
  1
<>
 71
     2
 42
114.3
  3
SLDDIMSTYLE0
100
AcDbAlignedDimension
 13
62.80000000000003
 23
15.87500000000001
 33
0.0
 14
-51.5
 24
14.87499999999998
 34
0.0
 50
0.0000000000000036
100
AcDbRotatedDimension
1001
ACAD
1000
DSTYLE
1002
{
1070
   171
1070
     6
1070
   273
1070
     7
1002
}
  0
DIMENSION
  5
10F
330
1F
100
AcDbEntity
  8
치수문자_일반주서
100
AcDbDimension
  2
_D_3
 10
96.8050885580186
 20
15.87500000000014
 30
0.0
 11
96.80508855801851
 21
40.51973621325037
 31
0.0
 70
   160
  1
%%c<>
 71
     2
 42
31.75
 52
-270.0
  3
SLDDIMSTYLE0
100
AcDbAlignedDimension
 13
62.80000000000001
 23
-15.875
 33
0.0
 14
62.80000000000001
 24
15.87500000000001
 34
0.0
 50
90.0000000000002
100
AcDbRotatedDimension
1001
ACAD
1000
DSTYLE
1002
{
1070
   171
1070
     6
1070
   273
1070
     7
1002
}
  0
LINE
  5
122
330
1F
100
AcDbEntity
  8
참조1
100
AcDbLine
 10
77.82153940838579
 20
7.441074928723896
 30
0.0
 11
77.82153940838579
 21
-7.438925071276109
 31
0.0
  0
LINE
  5
123
330
1F
100
AcDbEntity
  8
참조1
100
AcDbLine
 10
90.52153940838579
 20
5.441074928723896
 30
0.0
 11
77.82153940838579
 21
5.441074928723896
 31
0.0
  0
SOLID
  5
124
330
1F
100
AcDbEntity
  8
참조1
100
AcDbTrace
 10
77.82153940838579
 20
5.441074928723896
 30
0.0
 11
84.17153940838578
 21
4.425074928723896
 31
0.0
 12
84.17153940838578
 22
6.457074928723896
 32
0.0
 13
84.17153940838578
 23
6.457074928723896
 33
0.0
  0
LINE
  5
125
330
1F
100
AcDbEntity
  8
참조1
100
AcDbLine
 10
90.52153940838579
 20
-5.438925071276109
 30
0.0
 11
77.82153940838579
 21
-5.438925071276109
 31
0.0
  0
SOLID
  5
126
330
1F
100
AcDbEntity
  8
참조1
100
AcDbTrace
 10
77.82153940838579
 20
-5.438925071276109
 30
0.0
 11
84.17153940838578
 21
-6.454925071276109
 31
0.0
 12
84.17153940838578
 22
-4.422925071276109
 32
0.0
 13
84.17153940838578
 23
-4.422925071276109
 33
0.0
  0
MTEXT
  5
127
330
1F
100
AcDbEntity
  8
참조1
100
AcDbMText
 10
87.20588954101179
 20
11.01136670591222
 30
0.0
 40
3.5
 41
0.0
 71
     1
 72
     1
  1
A
  7
SLDTEXTSTYLE0
 73
     1
 44
1.0
  0
MTEXT
  5
128
330
1F
100
AcDbEntity
  8
참조1
100
AcDbMText
 10
87.20588954101179
 20
0.1313667059122192
 30
0.0
 40
3.5
 41
0.0
 71
     1
 72
     1
  1
A
  7
SLDTEXTSTYLE0
 73
     1
 44
1.0
  0
INSERT
  5
12F
330
1F
100
AcDbEntity
  8
해칭선
100
AcDbBlockReference
  2
SW_DOWELSYMBOL_0
 10
0.0
 20
0.0
 30
0.0
  0
LINE
  5
210
330
1F
100
AcDbEntity
  8
외형선
  6
Continuous
370
    15
100
AcDbLine
 10
-36.4124000000001
 20
15.87499999999999
 30
0.0
 11
-31.46892500000001
 21
15.87499999999999
 31
0.0
  0
LINE
  5
211
330
1F
100
AcDbEntity
  8
외형선
  6
Continuous
370
    15
100
AcDbLine
 10
-29.08132499999999
 20
13.48739999999999
 30
0.0
 11
-15.97492499999998
 21
13.48739999999999
 31
0.0
  0
LINE
  5
212
330
1F
100
AcDbEntity
  8
외형선
  6
Continuous
370
    15
100
AcDbLine
 10
-15.97492499999998
 20
13.48739999999999
 30
0.0
 11
-13.58732499999996
 21
15.87500000000001
 31
0.0
  0
LINE
  5
213
330
1F
100
AcDbEntity
  8
외형선
  6
Continuous
370
    15
100
AcDbLine
 10
-29.08132499999999
 20
13.48739999999999
 30
0.0
 11
-31.46892500000001
 21
15.87500000000001
 31
0.0
  0
LINE
  5
214
330
1F
100
AcDbEntity
  8
외형선
  6
Continuous
370
    15
100
AcDbLine
 10
-51.5
 20
13.48739999999999
 30
0.0
 11
-38.80000000000001
 21
13.48739999999999
 31
0.0
  0
LINE
  5
215
330
1F
100
AcDbEntity
  8
외형선
  6
Continuous
370
    15
100
AcDbLine
 10
-38.80000000000001
 20
13.48739999999999
 30
0.0
 11
-36.4124000000001
 21
15.87499999999998
 31
0.0
  0
LINE
  5
216
330
1F
100
AcDbEntity
  8
외형선
  6
Continuous
370
    15
100
AcDbLine
 10
-31.468925
 20
15.87499999999999
 30
0.0
 11
-36.41240000000009
 21
15.87499999999999
 31
0.0
  0
ENDSEC
  0
SECTION
  2
OBJECTS
  0
DICTIONARY
  5
C
330
0
100
AcDbDictionary
281
     1
  3
ACAD_GROUP
350
D
  3
ACAD_IMAGE_VARS
350
153
  3
ACAD_LAYOUT
350
1A
  3
ACAD_MLINESTYLE
350
17
  3
ACAD_PLOTSETTINGS
350
19
  3
ACAD_PLOTSTYLENAME
350
E
  3
ACAD_SCALELIST
350
47
  3
APPDATA
350
151
  3
DWGPROPS
350
217
  0
DICTIONARY
  5
17A
330
2
100
AcDbDictionary
280
     1
281
     1
  3
ACAD_LAYERSTATES
360
17B
  0
DICTIONARY
  5
D
102
{ACAD_REACTORS
330
C
102
}
330
C
100
AcDbDictionary
281
     1
  0
RASTERVARIABLES
  5
153
102
{ACAD_REACTORS
330
C
102
}
330
C
100
AcDbRasterVariables
 90
        0
 70
     1
 71
     1
 72
     1
  0
DICTIONARY
  5
1A
102
{ACAD_REACTORS
330
C
102
}
330
C
100
AcDbDictionary
281
     1
  3
Layout1
350
1E
  3
Layout2
350
26
  3
Model
350
22
  0
DICTIONARY
  5
17
102
{ACAD_REACTORS
330
C
102
}
330
C
100
AcDbDictionary
281
     1
  3
Standard
350
18
  0
DICTIONARY
  5
19
102
{ACAD_REACTORS
330
C
102
}
330
C
100
AcDbDictionary
281
     1
  0
ACDBDICTIONARYWDFLT
  5
E
102
{ACAD_REACTORS
330
C
102
}
330
C
100
AcDbDictionary
281
     1
  3
Normal
350
F
100
AcDbDictionaryWithDefault
340
F
  0
DICTIONARY
  5
47
102
{ACAD_REACTORS
330
C
102
}
330
C
100
AcDbDictionary
281
     1
  3
A0
350
48
  3
A1
350
49
  3
A2
350
4A
  3
A3
350
4B
  3
A4
350
4C
  3
A5
350
4D
  3
A6
350
4E
  3
A7
350
4F
  3
A8
350
50
  3
A9
350
51
  3
B0
350
52
  3
B1
350
53
  3
B2
350
54
  3
B3
350
55
  3
B4
350
56
  3
B5
350
57
  3
B6
350
58
  3
B7
350
59
  3
B8
350
5A
  3
B9
350
5B
  3
C0
350
5C
  3
C1
350
5D
  3
C2
350
5E
  3
C3
350
5F
  3
C4
350
60
  3
C5
350
61
  3
C6
350
62
  3
C7
350
63
  3
C8
350
64
  3
C9
350
65
  3
D0
350
66
  3
D1
350
67
  3
D2
350
68
  0
DICTIONARY
  5
151
102
{ACAD_REACTORS
330
C
102
}
330
C
100
AcDbDictionary
281
     1
  0
XRECORD
  5
217
102
{ACAD_REACTORS
330
C
102
}
330
C
100
AcDbXrecord
280
     1
  1
DWGPROPS COOKIE
  2

  3

  4

  6

  7

  8
12016016
  9

300
=
301
=
302
=
303
=
304
=
305
=
306
=
307
=
308
=
309
=
 40
0.0
 41
2458311.089532535
 42
2458318.290590255
  1

 90
        0
  0
DICTIONARY
  5
17B
102
{ACAD_REACTORS
330
17A
102
}
330
17A
100
AcDbDictionary
281
     1
  0
LAYOUT
  5
1E
102
{ACAD_REACTORS
330
1A
102
}
330
1A
100
AcDbPlotSettings
  1

  2
none_device
  4

  6

 40
0.0
 41
0.0
 42
0.0
 43
0.0
 44
0.0
 45
0.0
 46
0.0
 47
0.0
 48
0.0
 49
0.0
140
0.0
141
0.0
142
1.0
143
1.0
 70
   688
 72
     1
 73
     0
 74
     5
  7

 75
    16
147
1.0
148
0.0
149
0.0
100
AcDbLayout
  1
Layout1
 70
     1
 71
     1
 10
0.0
 20
0.0
 11
420.0
 21
297.0
 12
0.0
 22
0.0
 32
0.0
 14
1.000000000000000E+20
 24
1.000000000000000E+20
 34
1.000000000000000E+20
 15
-1.000000000000000E+20
 25
-1.000000000000000E+20
 35
-1.000000000000000E+20
146
0.0
 13
0.0
 23
0.0
 33
0.0
 16
1.0
 26
0.0
 36
0.0
 17
0.0
 27
1.0
 37
0.0
 76
     0
330
1B
  0
LAYOUT
  5
26
102
{ACAD_REACTORS
330
1A
102
}
330
1A
100
AcDbPlotSettings
  1

  2
none_device
  4

  6

 40
0.0
 41
0.0
 42
0.0
 43
0.0
 44
0.0
 45
0.0
 46
0.0
 47
0.0
 48
0.0
 49
0.0
140
0.0
141
0.0
142
1.0
143
1.0
 70
   688
 72
     1
 73
     0
 74
     5
  7

 75
    16
147
1.0
148
0.0
149
0.0
100
AcDbLayout
  1
Layout2
 70
     1
 71
     2
 10
0.0
 20
0.0
 11
0.0
 21
0.0
 12
0.0
 22
0.0
 32
0.0
 14
0.0
 24
0.0
 34
0.0
 15
0.0
 25
0.0
 35
0.0
146
0.0
 13
0.0
 23
0.0
 33
0.0
 16
1.0
 26
0.0
 36
0.0
 17
0.0
 27
1.0
 37
0.0
 76
     0
330
23
  0
LAYOUT
  5
22
102
{ACAD_REACTORS
330
1A
102
}
330
1A
100
AcDbPlotSettings
  1

  2
none_device
  4
ANSI_A_(11.00_x_8.50_Inches)
  6

 40
6.35
 41
19.05
 42
6.35000508
 43
19.05000254
 44
279.4
 45
215.9
 46
104.9176848056163
 47
34.44669527120154
 48
0.0
 49
0.0
140
0.0
141
0.0
142
0.0406917368828658
143
1.0
 70
  1696
 72
     0
 73
     0
 74
     0
  7

 75
     0
147
0.0235690232323232
148
0.0
149
0.0
100
AcDbLayout
  1
Model
 70
     1
 71
     0
 10
0.0
 20
0.0
 11
420.0
 21
297.0
 12
0.0
 22
0.0
 32
0.0
 14
1.000000000000000E+20
 24
1.000000000000000E+20
 34
1.000000000000000E+20
 15
-1.000000000000000E+20
 25
-1.000000000000000E+20
 35
-1.000000000000000E+20
146
0.0
 13
0.0
 23
0.0
 33
0.0
 16
1.0
 26
0.0
 36
0.0
 17
0.0
 27
1.0
 37
0.0
 76
     0
330
1F
331
29
  0
MLINESTYLE
  5
18
102
{ACAD_REACTORS
330
17
102
}
330
17
100
AcDbMlineStyle
  2
Standard
 70
     0
  3

 62
   256
 51
90.0
 52
90.0
 71
     2
 49
0.5
 62
   256
  6
BYLAYER
 49
-0.5
 62
   256
  6
BYLAYER
  0
ACDBPLACEHOLDER
  5
F
102
{ACAD_REACTORS
330
E
102
}
330
E
  0
SCALE
  5
48
102
{ACAD_REACTORS
330
47
102
}
330
47
100
AcDbScale
 70
     0
300
1:1
140
1.0
141
1.0
290
     1
  0
SCALE
  5
49
102
{ACAD_REACTORS
330
47
102
}
330
47
100
AcDbScale
 70
     0
300
1:2
140
1.0
141
2.0
290
     0
  0
SCALE
  5
4A
102
{ACAD_REACTORS
330
47
102
}
330
47
100
AcDbScale
 70
     0
300
1:4
140
1.0
141
4.0
290
     0
  0
SCALE
  5
4B
102
{ACAD_REACTORS
330
47
102
}
330
47
100
AcDbScale
 70
     0
300
1:5
140
1.0
141
5.0
290
     0
  0
SCALE
  5
4C
102
{ACAD_REACTORS
330
47
102
}
330
47
100
AcDbScale
 70
     0
300
1:8
140
1.0
141
8.0
290
     0
  0
SCALE
  5
4D
102
{ACAD_REACTORS
330
47
102
}
330
47
100
AcDbScale
 70
     0
300
1:10
140
1.0
141
10.0
290
     0
  0
SCALE
  5
4E
102
{ACAD_REACTORS
330
47
102
}
330
47
100
AcDbScale
 70
     0
300
1:16
140
1.0
141
16.0
290
     0
  0
SCALE
  5
4F
102
{ACAD_REACTORS
330
47
102
}
330
47
100
AcDbScale
 70
     0
300
1:20
140
1.0
141
20.0
290
     0
  0
SCALE
  5
50
102
{ACAD_REACTORS
330
47
102
}
330
47
100
AcDbScale
 70
     0
300
1:30
140
1.0
141
30.0
290
     0
  0
SCALE
  5
51
102
{ACAD_REACTORS
330
47
102
}
330
47
100
AcDbScale
 70
     0
300
1:40
140
1.0
141
40.0
290
     0
  0
SCALE
  5
52
102
{ACAD_REACTORS
330
47
102
}
330
47
100
AcDbScale
 70
     0
300
1:50
140
1.0
141
50.0
290
     0
  0
SCALE
  5
53
102
{ACAD_REACTORS
330
47
102
}
330
47
100
AcDbScale
 70
     0
300
1:100
140
1.0
141
100.0
290
     0
  0
SCALE
  5
54
102
{ACAD_REACTORS
330
47
102
}
330
47
100
AcDbScale
 70
     0
300
2:1
140
2.0
141
1.0
290
     0
  0
SCALE
  5
55
102
{ACAD_REACTORS
330
47
102
}
330
47
100
AcDbScale
 70
     0
300
4:1
140
4.0
141
1.0
290
     0
  0
SCALE
  5
56
102
{ACAD_REACTORS
330
47
102
}
330
47
100
AcDbScale
 70
     0
300
8:1
140
8.0
141
1.0
290
     0
  0
SCALE
  5
57
102
{ACAD_REACTORS
330
47
102
}
330
47
100
AcDbScale
 70
     0
300
10:1
140
10.0
141
1.0
290
     0
  0
SCALE
  5
58
102
{ACAD_REACTORS
330
47
102
}
330
47
100
AcDbScale
 70
     0
300
100:1
140
100.0
141
1.0
290
     0
  0
SCALE
  5
59
102
{ACAD_REACTORS
330
47
102
}
330
47
100
AcDbScale
 70
     0
300
1/128" = 1'-0"
140
0.0078125
141
12.0
290
     0
  0
SCALE
  5
5A
102
{ACAD_REACTORS
330
47
102
}
330
47
100
AcDbScale
 70
     0
300
1/64" = 1'-0"
140
0.015625
141
12.0
290
     0
  0
SCALE
  5
5B
102
{ACAD_REACTORS
330
47
102
}
330
47
100
AcDbScale
 70
     0
300
1/32" = 1'-0"
140
0.03125
141
12.0
290
     0
  0
SCALE
  5
5C
102
{ACAD_REACTORS
330
47
102
}
330
47
100
AcDbScale
 70
     0
300
1/16" = 1'-0"
140
0.0625
141
12.0
290
     0
  0
SCALE
  5
5D
102
{ACAD_REACTORS
330
47
102
}
330
47
100
AcDbScale
 70
     0
300
3/32" = 1'-0"
140
0.09375
141
12.0
290
     0
  0
SCALE
  5
5E
102
{ACAD_REACTORS
330
47
102
}
330
47
100
AcDbScale
 70
     0
300
1/8" = 1'-0"
140
0.125
141
12.0
290
     0
  0
SCALE
  5
5F
102
{ACAD_REACTORS
330
47
102
}
330
47
100
AcDbScale
 70
     0
300
3/16" = 1'-0"
140
0.1875
141
12.0
290
     0
  0
SCALE
  5
60
102
{ACAD_REACTORS
330
47
102
}
330
47
100
AcDbScale
 70
     0
300
1/4" = 1'-0"
140
0.25
141
12.0
290
     0
  0
SCALE
  5
61
102
{ACAD_REACTORS
330
47
102
}
330
47
100
AcDbScale
 70
     0
300
3/8" = 1'-0"
140
0.375
141
12.0
290
     0
  0
SCALE
  5
62
102
{ACAD_REACTORS
330
47
102
}
330
47
100
AcDbScale
 70
     0
300
1/2" = 1'-0"
140
0.5
141
12.0
290
     0
  0
SCALE
  5
63
102
{ACAD_REACTORS
330
47
102
}
330
47
100
AcDbScale
 70
     0
300
3/4" = 1'-0"
140
0.75
141
12.0
290
     0
  0
SCALE
  5
64
102
{ACAD_REACTORS
330
47
102
}
330
47
100
AcDbScale
 70
     0
300
1" = 1'-0"
140
1.0
141
12.0
290
     0
  0
SCALE
  5
65
102
{ACAD_REACTORS
330
47
102
}
330
47
100
AcDbScale
 70
     0
300
1-1/2" = 1'-0"
140
1.5
141
12.0
290
     0
  0
SCALE
  5
66
102
{ACAD_REACTORS
330
47
102
}
330
47
100
AcDbScale
 70
     0
300
3" = 1'-0"
140
3.0
141
12.0
290
     0
  0
SCALE
  5
67
102
{ACAD_REACTORS
330
47
102
}
330
47
100
AcDbScale
 70
     0
300
6" = 1'-0"
140
6.0
141
12.0
290
     0
  0
SCALE
  5
68
102
{ACAD_REACTORS
330
47
102
}
330
47
100
AcDbScale
 70
     0
300
1'-0" = 1'-0"
140
12.0
141
12.0
290
     0
  0
ENDSEC
  0
EOF
