  0
SECTION
  2
HEADER
  9
$ACADVER
  1
AC1015
  9
$ACADMAINTVER
 70
     6
  9
$DWGCODEPAGE
  3
ANSI_949
  9
$INSBASE
 10
0.0
 20
0.0
 30
0.0
  9
$EXTMIN
 10
1.000000000000000E+20
 20
1.000000000000000E+20
 30
1.000000000000000E+20
  9
$EXTMAX
 10
-1.000000000000000E+20
 20
-1.000000000000000E+20
 30
-1.000000000000000E+20
  9
$LIMMIN
 10
0.0
 20
0.0
  9
$LIMMAX
 10
420.0
 20
297.0
  9
$ORTHOMODE
 70
     1
  9
$REGENMODE
 70
     1
  9
$FILLMODE
 70
     1
  9
$QTEXTMODE
 70
     0
  9
$MIRRTEXT
 70
     1
  9
$LTSCALE
 40
1.0
  9
$ATTMODE
 70
     1
  9
$TEXTSIZE
 40
3.5
  9
$TRACEWID
 40
1.0
  9
$TEXTSTYLE
  7
Standard
  9
$CLAYER
  8
0
  9
$CELTYPE
  6
ByLayer
  9
$CECOLOR
 62
   256
  9
$CELTSCALE
 40
1.0
  9
$DISPSILH
 70
     0
  9
$DIMSCALE
 40
1.0
  9
$DIMASZ
 40
3.302
  9
$DIMEXO
 40
1.0
  9
$DIMDLI
 40
3.75
  9
$DIMRND
 40
0.0
  9
$DIMDLE
 40
0.0
  9
$DIMEXE
 40
1.0
  9
$DIMTP
 40
0.0
  9
$DIMTM
 40
0.0
  9
$DIMTXT
 40
3.5
  9
$DIMCEN
 40
2.5
  9
$DIMTSZ
 40
0.0
  9
$DIMTOL
 70
     0
  9
$DIMLIM
 70
     0
  9
$DIMTIH
 70
     1
  9
$DIMTOH
 70
     1
  9
$DIMSE1
 70
     0
  9
$DIMSE2
 70
     0
  9
$DIMTAD
 70
     1
  9
$DIMZIN
 70
     0
  9
$DIMBLK
  1

  9
$DIMASO
 70
     1
  9
$DIMSHO
 70
     1
  9
$DIMPOST
  1

  9
$DIMAPOST
  1

  9
$DIMALT
 70
     0
  9
$DIMALTD
 70
     3
  9
$DIMALTF
 40
0.0393700787401575
  9
$DIMLFAC
 40
1.0
  9
$DIMTOFL
 70
     1
  9
$DIMTVP
 40
0.0
  9
$DIMTIX
 70
     0
  9
$DIMSOXD
 70
     0
  9
$DIMSAH
 70
     0
  9
$DIMBLK1
  1

  9
$DIMBLK2
  1

  9
$DIMSTYLE
  2
ISO-25
  9
$DIMCLRD
 70
     0
  9
$DIMCLRE
 70
     0
  9
$DIMCLRT
 70
     0
  9
$DIMTFAC
 40
1.0
  9
$DIMGAP
 40
1.524
  9
$DIMJUST
 70
     0
  9
$DIMSD1
 70
     0
  9
$DIMSD2
 70
     0
  9
$DIMTOLJ
 70
     0
  9
$DIMTZIN
 70
     0
  9
$DIMALTZ
 70
     0
  9
$DIMALTTZ
 70
     0
  9
$DIMUPT
 70
     0
  9
$DIMDEC
 70
     2
  9
$DIMTDEC
 70
     2
  9
$DIMALTU
 70
     2
  9
$DIMALTTD
 70
     3
  9
$DIMTXSTY
  7
Standard
  9
$DIMAUNIT
 70
     0
  9
$DIMADEC
 70
     2
  9
$DIMALTRND
 40
0.0
  9
$DIMAZIN
 70
     0
  9
$DIMDSEP
 70
    44
  9
$DIMATFIT
 70
     3
  9
$DIMFRAC
 70
     0
  9
$DIMLDRBLK
  1

  9
$DIMLUNIT
 70
     2
  9
$DIMLWD
 70
    -2
  9
$DIMLWE
 70
    -2
  9
$DIMTMOVE
 70
     0
  9
$LUNITS
 70
     2
  9
$LUPREC
 70
     2
  9
$SKETCHINC
 40
1.0
  9
$FILLETRAD
 40
10.0
  9
$AUNITS
 70
     0
  9
$AUPREC
 70
     2
  9
$MENU
  1
.
  9
$ELEVATION
 40
0.0
  9
$PELEVATION
 40
0.0
  9
$THICKNESS
 40
0.0
  9
$LIMCHECK
 70
     0
  9
$CHAMFERA
 40
0.0
  9
$CHAMFERB
 40
0.0
  9
$CHAMFERC
 40
0.0
  9
$CHAMFERD
 40
0.0
  9
$SKPOLY
 70
     0
  9
$TDCREATE
 40
2458311.464532535
  9
$TDUCREATE
 40
2458311.089532535
  9
$TDUPDATE
 40
2458318.665381238
  9
$TDUUPDATE
 40
2458318.290381238
  9
$TDINDWG
 40
0.0041101852
  9
$TDUSRTIMER
 40
2458318.289598426
  9
$USRTIMER
 70
     1
  9
$ANGBASE
 50
0.0
  9
$ANGDIR
 70
     0
  9
$PDMODE
 70
     0
  9
$PDSIZE
 40
-1.0
  9
$PLINEWID
 40
0.0
  9
$SPLFRAME
 70
     0
  9
$SPLINETYPE
 70
     6
  9
$SPLINESEGS
 70
     8
  9
$HANDSEED
  5
4C3
  9
$SURFTAB1
 70
     6
  9
$SURFTAB2
 70
     6
  9
$SURFTYPE
 70
     6
  9
$SURFU
 70
     6
  9
$SURFV
 70
     6
  9
$UCSBASE
  2

  9
$UCSNAME
  2

  9
$UCSORG
 10
0.0
 20
0.0
 30
0.0
  9
$UCSXDIR
 10
1.0
 20
0.0
 30
0.0
  9
$UCSYDIR
 10
0.0
 20
1.0
 30
0.0
  9
$UCSORTHOREF
  2

  9
$UCSORTHOVIEW
 70
     0
  9
$UCSORGTOP
 10
0.0
 20
0.0
 30
0.0
  9
$UCSORGBOTTOM
 10
0.0
 20
0.0
 30
0.0
  9
$UCSORGLEFT
 10
0.0
 20
0.0
 30
0.0
  9
$UCSORGRIGHT
 10
0.0
 20
0.0
 30
0.0
  9
$UCSORGFRONT
 10
0.0
 20
0.0
 30
0.0
  9
$UCSORGBACK
 10
0.0
 20
0.0
 30
0.0
  9
$PUCSBASE
  2

  9
$PUCSNAME
  2

  9
$PUCSORG
 10
0.0
 20
0.0
 30
0.0
  9
$PUCSXDIR
 10
1.0
 20
0.0
 30
0.0
  9
$PUCSYDIR
 10
0.0
 20
1.0
 30
0.0
  9
$PUCSORTHOREF
  2

  9
$PUCSORTHOVIEW
 70
     0
  9
$PUCSORGTOP
 10
0.0
 20
0.0
 30
0.0
  9
$PUCSORGBOTTOM
 10
0.0
 20
0.0
 30
0.0
  9
$PUCSORGLEFT
 10
0.0
 20
0.0
 30
0.0
  9
$PUCSORGRIGHT
 10
0.0
 20
0.0
 30
0.0
  9
$PUCSORGFRONT
 10
0.0
 20
0.0
 30
0.0
  9
$PUCSORGBACK
 10
0.0
 20
0.0
 30
0.0
  9
$USERI1
 70
     0
  9
$USERI2
 70
     0
  9
$USERI3
 70
     0
  9
$USERI4
 70
     0
  9
$USERI5
 70
     0
  9
$USERR1
 40
0.0
  9
$USERR2
 40
0.0
  9
$USERR3
 40
0.0
  9
$USERR4
 40
0.0
  9
$USERR5
 40
0.0
  9
$WORLDVIEW
 70
     1
  9
$SHADEDGE
 70
     3
  9
$SHADEDIF
 70
    70
  9
$TILEMODE
 70
     1
  9
$MAXACTVP
 70
    64
  9
$PINSBASE
 10
0.0
 20
0.0
 30
0.0
  9
$PLIMCHECK
 70
     0
  9
$PEXTMIN
 10
1.000000000000000E+20
 20
1.000000000000000E+20
 30
1.000000000000000E+20
  9
$PEXTMAX
 10
-1.000000000000000E+20
 20
-1.000000000000000E+20
 30
-1.000000000000000E+20
  9
$PLIMMIN
 10
0.0
 20
0.0
  9
$PLIMMAX
 10
0.0
 20
0.0
  9
$UNITMODE
 70
     0
  9
$VISRETAIN
 70
     1
  9
$PLINEGEN
 70
     0
  9
$PSLTSCALE
 70
     1
  9
$TREEDEPTH
 70
  3020
  9
$CMLSTYLE
  2
Standard
  9
$CMLJUST
 70
     0
  9
$CMLSCALE
 40
20.0
  9
$PROXYGRAPHICS
 70
     1
  9
$MEASUREMENT
 70
     1
  9
$CELWEIGHT
370
    -1
  9
$ENDCAPS
280
     0
  9
$JOINSTYLE
280
     0
  9
$LWDISPLAY
290
     1
  9
$INSUNITS
 70
     4
  9
$HYPERLINKBASE
  1

  9
$STYLESHEET
  1

  9
$XEDIT
290
     1
  9
$CEPSNTYPE
380
     0
  9
$PSTYLEMODE
290
     1
  9
$FINGERPRINTGUID
  2
{67166BEA-91C4-4A27-8AE7-25CADE1F08E6}
  9
$VERSIONGUID
  2
{FAEB1C32-E019-11D5-929B-00C0DF256EC4}
  9
$EXTNAMES
290
     1
  9
$PSVPSCALE
 40
0.0
  9
$OLESTARTUP
290
     0
  0
ENDSEC
  0
SECTION
  2
CLASSES
  0
CLASS
  1
ACDBDICTIONARYWDFLT
  2
AcDbDictionaryWithDefault
  3
ObjectDBX Classes
 90
        0
280
     0
281
     0
  0
CLASS
  1
VISUALSTYLE
  2
AcDbVisualStyle
  3
ObjectDBX Classes
 90
     4095
280
     0
281
     0
  0
CLASS
  1
MATERIAL
  2
AcDbMaterial
  3
ObjectDBX Classes
 90
     1153
280
     0
281
     0
  0
CLASS
  1
SCALE
  2
AcDbScale
  3
ObjectDBX Classes
 90
     1153
280
     0
281
     0
  0
CLASS
  1
SUN
  2
AcDbSun
  3
SCENEOE
 90
     1153
280
     0
281
     0
  0
CLASS
  1
ACDBPLACEHOLDER
  2
AcDbPlaceHolder
  3
ObjectDBX Classes
 90
        0
280
     0
281
     0
  0
CLASS
  1
LAYOUT
  2
AcDbLayout
  3
ObjectDBX Classes
 90
        0
280
     0
281
     0
  0
CLASS
  1
TABLESTYLE
  2
AcDbTableStyle
  3
ObjectDBX Classes
 90
     4095
280
     0
281
     0
  0
CLASS
  1
MLEADERSTYLE
  2
AcDbMLeaderStyle
  3
ACDB_MLEADERSTYLE_CLASS
 90
     4095
280
     0
281
     0
  0
CLASS
  1
RASTERVARIABLES
  2
AcDbRasterVariables
  3
ISM
 90
        0
280
     0
281
     0
  0
CLASS
  1
DIMASSOC
  2
AcDbDimAssoc
  3
"AcDbDimAssoc|Product Desc:     AcDim ARX App For Dimension|Company:          Autodesk, Inc.|WEB Address:      www.autodesk.com"
 90
        0
280
     0
281
     0
  0
ENDSEC
  0
SECTION
  2
TABLES
  0
TABLE
  2
VPORT
  5
8
330
0
100
AcDbSymbolTable
 70
     1
  0
VPORT
  5
29
330
8
100
AcDbSymbolTableRecord
100
AcDbViewportTableRecord
  2
*Active
 70
     0
 10
0.0
 20
0.0
 11
1.0
 21
1.0
 12
-14.216319815997
 22
0.1100701653302458
 13
0.0
 23
0.0
 14
10.0
 24
10.0
 15
10.0
 25
10.0
 16
0.0
 26
0.0
 36
1.0
 17
0.0
 27
0.0
 37
0.0
 40
169.8678974866118
 41
1.740812379110252
 42
50.0
 43
0.0
 44
0.0
 50
0.0
 51
0.0
 71
    16
 72
  2000
 73
     1
 74
     3
 75
     0
 76
     0
 77
     0
 78
     0
281
     0
 65
     1
110
0.0
120
0.0
130
0.0
111
1.0
121
0.0
131
0.0
112
0.0
122
1.0
132
0.0
 79
     0
146
0.0
  0
ENDTAB
  0
TABLE
  2
LTYPE
  5
5
330
0
100
AcDbSymbolTable
 70
     6
  0
LTYPE
  5
14
330
5
100
AcDbSymbolTableRecord
100
AcDbLinetypeTableRecord
  2
ByBlock
 70
     0
  3

 72
    65
 73
     0
 40
0.0
  0
LTYPE
  5
15
330
5
100
AcDbSymbolTableRecord
100
AcDbLinetypeTableRecord
  2
ByLayer
 70
     0
  3

 72
    65
 73
     0
 40
0.0
  0
LTYPE
  5
16
330
5
100
AcDbSymbolTableRecord
100
AcDbLinetypeTableRecord
  2
Continuous
 70
     0
  3
Solid line
 72
    65
 73
     0
 40
0.0
  0
LTYPE
  5
6A
330
5
100
AcDbSymbolTableRecord
100
AcDbLinetypeTableRecord
  2
HIDDEN
 70
     0
  3
Hidden __ __ __ __ __ __ __ __ __ __ __ __ __ __
 72
    65
 73
     2
 40
1.905
 49
1.27
 74
     0
 49
-0.635
 74
     0
  0
LTYPE
  5
6B
330
5
100
AcDbSymbolTableRecord
100
AcDbLinetypeTableRecord
  2
PHANTOM
 70
     0
  3
Phantom ______  __  __  ______  __  __  ______
 72
    65
 73
     6
 40
12.7
 49
6.35
 74
     0
 49
-1.27
 74
     0
 49
1.27
 74
     0
 49
-1.27
 74
     0
 49
1.27
 74
     0
 49
-1.27
 74
     0
  0
LTYPE
  5
6C
330
5
100
AcDbSymbolTableRecord
100
AcDbLinetypeTableRecord
  2
CENTER
 70
     0
  3
Center ____ _ ____ _ ____ _ ____ _ ____ _ ____
 72
    65
 73
     4
 40
10.16
 49
6.35
 74
     0
 49
-1.27
 74
     0
 49
1.27
 74
     0
 49
-1.27
 74
     0
  0
LTYPE
  5
6D
330
5
100
AcDbSymbolTableRecord
100
AcDbLinetypeTableRecord
  2
CENTERX2
 70
     0
  3
Center (2x) ________  __  ________  __  _____
 72
    65
 73
     4
 40
20.32
 49
12.7
 74
     0
 49
-2.54
 74
     0
 49
2.54
 74
     0
 49
-2.54
 74
     0
  0
LTYPE
  5
6E
330
5
100
AcDbSymbolTableRecord
100
AcDbLinetypeTableRecord
  2
DOT2
 70
     0
  3
Dot (.5x) ........................................
 72
    65
 73
     2
 40
0.635
 49
0.0
 74
     0
 49
-0.635
 74
     0
  0
ENDTAB
  0
TABLE
  2
LAYER
  5
2
102
{ACAD_XDICTIONARY
360
17A
102
}
330
0
100
AcDbSymbolTable
 70
    18
  0
LAYER
  5
10
330
2
100
AcDbSymbolTableRecord
100
AcDbLayerTableRecord
  2
0
 70
     0
 62
     7
  6
Continuous
370
    -3
390
F
  0
LAYER
  5
6F
330
2
100
AcDbSymbolTableRecord
100
AcDbLayerTableRecord
  2
FORMAT
 70
     0
 62
     2
  6
Continuous
370
    -3
390
F
  0
LAYER
  5
70
330
2
100
AcDbSymbolTableRecord
100
AcDbLayerTableRecord
  2
외형선
 70
     0
 62
     4
  6
Continuous
370
    30
390
F
  0
LAYER
  5
71
330
2
100
AcDbSymbolTableRecord
100
AcDbLayerTableRecord
  2
숨은선
 70
     0
 62
     2
  6
HIDDEN
370
    15
390
F
  0
LAYER
  5
72
330
2
100
AcDbSymbolTableRecord
100
AcDbLayerTableRecord
  2
중심선
 70
     0
 62
     1
  6
CENTERX2
370
    -3
390
F
  0
LAYER
  5
73
330
2
100
AcDbSymbolTableRecord
100
AcDbLayerTableRecord
  2
파단선
 70
     0
 62
     4
  6
Continuous
370
    -3
390
F
  0
LAYER
  5
74
330
2
100
AcDbSymbolTableRecord
100
AcDbLayerTableRecord
  2
해칭선
 70
     0
 62
   100
  6
Continuous
370
    -3
390
F
  0
LAYER
  5
75
330
2
100
AcDbSymbolTableRecord
100
AcDbLayerTableRecord
  2
가는실선
 70
     0
 62
     4
  6
Continuous
370
    -3
390
F
  0
LAYER
  5
76
330
2
100
AcDbSymbolTableRecord
100
AcDbLayerTableRecord
  2
치수_보조선
 70
     0
 62
     4
  6
Continuous
370
    -3
390
F
  0
LAYER
  5
77
330
2
100
AcDbSymbolTableRecord
100
AcDbLayerTableRecord
  2
치수문자_일반주서
 70
     0
 62
     7
  6
Continuous
370
    15
390
F
  0
LAYER
  5
78
330
2
100
AcDbSymbolTableRecord
100
AcDbLayerTableRecord
  2
개별주서
 70
     0
 62
   100
  6
Continuous
370
    30
390
F
  0
LAYER
  5
79
330
2
100
AcDbSymbolTableRecord
100
AcDbLayerTableRecord
  2
중간선
 70
     0
 62
     2
  6
Continuous
370
    15
390
F
  0
LAYER
  5
7A
330
2
100
AcDbSymbolTableRecord
100
AcDbLayerTableRecord
  2
윤곽선
 70
     0
 62
     3
  6
Continuous
370
    40
390
F
  0
LAYER
  5
7B
330
2
100
AcDbSymbolTableRecord
100
AcDbLayerTableRecord
  2
중심마크
 70
     0
 62
   100
  6
Continuous
370
    30
390
F
  0
LAYER
  5
7C
330
2
100
AcDbSymbolTableRecord
100
AcDbLayerTableRecord
  2
가상선
 70
     0
 62
     4
  6
PHANTOM
370
    -3
390
F
  0
LAYER
  5
7D
330
2
100
AcDbSymbolTableRecord
100
AcDbLayerTableRecord
  2
특수지정선
 70
     0
 62
     5
  6
CENTERX2
370
    60
390
F
  0
LAYER
  5
7E
330
2
100
AcDbSymbolTableRecord
100
AcDbLayerTableRecord
  2
참조1
 70
     0
 62
    -4
  6
Continuous
370
    -3
390
F
  0
LAYER
  5
181
330
2
100
AcDbSymbolTableRecord
100
AcDbLayerTableRecord
  2
Defpoints
 70
     0
 62
     7
  6
Continuous
290
     0
370
    -3
390
F
  0
ENDTAB
  0
TABLE
  2
STYLE
  5
3
330
0
100
AcDbSymbolTable
 70
     2
  0
STYLE
  5
11
330
3
100
AcDbSymbolTableRecord
100
AcDbTextStyleTableRecord
  2
Standard
 70
     0
 40
0.0
 41
1.0
 50
0.0
 71
     0
 42
3.5
  3
txt
  4

  0
STYLE
  5
94
330
3
100
AcDbSymbolTableRecord
100
AcDbTextStyleTableRecord
  2
SLDTEXTSTYLE0
 70
     0
 40
0.0
 41
0.75
 50
0.0
 71
     0
 42
3.5
  3
TXT
  4

  0
ENDTAB
  0
TABLE
  2
VIEW
  5
6
330
0
100
AcDbSymbolTable
 70
     0
  0
ENDTAB
  0
TABLE
  2
UCS
  5
7
330
0
100
AcDbSymbolTable
 70
     0
  0
ENDTAB
  0
TABLE
  2
APPID
  5
9
330
0
100
AcDbSymbolTable
 70
     1
  0
APPID
  5
12
330
9
100
AcDbSymbolTableRecord
100
AcDbRegAppTableRecord
  2
ACAD
 70
     0
  0
ENDTAB
  0
TABLE
  2
DIMSTYLE
  5
A
330
0
100
AcDbSymbolTable
 70
     5
100
AcDbDimStyleTable
  0
DIMSTYLE
105
27
330
A
100
AcDbSymbolTableRecord
100
AcDbDimStyleTableRecord
  2
ISO-25
 70
     0
 41
2.5
 42
0.625
 43
3.75
 44
1.25
 73
     0
 74
     0
 77
     1
 78
     8
140
2.5
141
2.5
143
0.03937007874016
147
0.625
171
     3
172
     1
178
     0
271
     2
272
     2
274
     3
278
    44
283
     0
284
     8
340
11
  0
DIMSTYLE
105
D5
102
{ACAD_REACTORS
330
3F5
330
3F8
330
3BE
330
3BC
102
}
330
A
100
AcDbSymbolTableRecord
100
AcDbDimStyleTableRecord
  2
SLDDIMSTYLE0
 70
     0
 41
3.302
 44
0.0
 45
0.000000001
 73
     0
 74
     0
 77
     1
 78
    12
 79
     3
140
3.5
143
0.0393700787401575
147
0.875
148
0.000000001
170
     1
173
     1
178
     0
271
     2
272
     2
276
     2
284
    12
340
94
  0
DIMSTYLE
105
E8
102
{ACAD_REACTORS
102
}
330
A
100
AcDbSymbolTableRecord
100
AcDbDimStyleTableRecord
  2
SLDDIMSTYLE1
 70
     0
 41
3.302
 44
0.0
 45
0.000000001
 73
     0
 74
     0
 77
     1
 78
     4
 79
     1
140
3.5
143
0.0393700787401575
147
0.875
148
0.000000001
170
     1
173
     1
178
     0
271
     2
272
     2
276
     2
284
    12
340
94
  0
DIMSTYLE
105
1B4
102
{ACAD_REACTORS
102
}
330
A
100
AcDbSymbolTableRecord
100
AcDbDimStyleTableRecord
  2
SLDDIMSTYLE2
 70
     0
 41
3.302
 44
0.0
 45
0.000000001
 73
     0
 74
     0
 77
     1
 78
     4
 79
     1
140
3.5
143
0.0393700787401575
147
0.875
148
0.000000001
170
     1
173
     1
178
     0
271
     2
272
     2
276
     2
284
    12
340
94
  0
DIMSTYLE
105
1B5
102
{ACAD_REACTORS
102
}
330
A
100
AcDbSymbolTableRecord
100
AcDbDimStyleTableRecord
  2
SLDDIMSTYLE3
 70
     0
 41
3.302
 44
0.0
 45
0.000000001
 73
     0
 74
     0
 77
     1
 78
    12
 79
     3
140
3.5
143
0.0393700787401575
147
0.875
148
0.000000001
170
     1
173
     1
178
     0
271
     2
272
     2
276
     2
284
    12
340
94
  0
ENDTAB
  0
TABLE
  2
BLOCK_RECORD
  5
1
330
0
100
AcDbSymbolTable
 70
    25
  0
BLOCK_RECORD
  5
1F
330
1
100
AcDbSymbolTableRecord
100
AcDbBlockTableRecord
  2
*Model_Space
340
22
  0
BLOCK_RECORD
  5
1B
330
1
100
AcDbSymbolTableRecord
100
AcDbBlockTableRecord
  2
*Paper_Space
340
1E
  0
BLOCK_RECORD
  5
23
330
1
100
AcDbSymbolTableRecord
100
AcDbBlockTableRecord
  2
*Paper_Space0
340
26
  0
BLOCK_RECORD
  5
7F
330
1
100
AcDbSymbolTableRecord
100
AcDbBlockTableRecord
  2
블럭10
340
0
102
{BLKREFS
331
3B4
102
}
  0
BLOCK_RECORD
  5
D6
330
1
100
AcDbSymbolTableRecord
100
AcDbBlockTableRecord
  2
_D
340
0
  0
BLOCK_RECORD
  5
E9
330
1
100
AcDbSymbolTableRecord
100
AcDbBlockTableRecord
  2
_D_1
340
0
  0
BLOCK_RECORD
  5
FD
330
1
100
AcDbSymbolTableRecord
100
AcDbBlockTableRecord
  2
_D_2
340
0
  0
BLOCK_RECORD
  5
110
330
1
100
AcDbSymbolTableRecord
100
AcDbBlockTableRecord
  2
_D_3
340
0
  0
BLOCK_RECORD
  5
129
330
1
100
AcDbSymbolTableRecord
100
AcDbBlockTableRecord
  2
SW_DOWELSYMBOL_0
340
0
102
{BLKREFS
331
442
102
}
  0
BLOCK_RECORD
  5
238
330
1
100
AcDbSymbolTableRecord
100
AcDbBlockTableRecord
  2
*D7
340
0
  0
BLOCK_RECORD
  5
244
330
1
100
AcDbSymbolTableRecord
100
AcDbBlockTableRecord
  2
*D8
340
0
  0
BLOCK_RECORD
  5
250
330
1
100
AcDbSymbolTableRecord
100
AcDbBlockTableRecord
  2
*D9
340
0
  0
BLOCK_RECORD
  5
282
330
1
100
AcDbSymbolTableRecord
100
AcDbBlockTableRecord
  2
*D10
340
0
  0
BLOCK_RECORD
  5
28E
330
1
100
AcDbSymbolTableRecord
100
AcDbBlockTableRecord
  2
*D11
340
0
  0
BLOCK_RECORD
  5
29A
330
1
100
AcDbSymbolTableRecord
100
AcDbBlockTableRecord
  2
*D12
340
0
  0
BLOCK_RECORD
  5
362
330
1
100
AcDbSymbolTableRecord
100
AcDbBlockTableRecord
  2
*D13
340
0
  0
BLOCK_RECORD
  5
36E
330
1
100
AcDbSymbolTableRecord
100
AcDbBlockTableRecord
  2
*D14
340
0
  0
BLOCK_RECORD
  5
37A
330
1
100
AcDbSymbolTableRecord
100
AcDbBlockTableRecord
  2
*D15
340
0
  0
BLOCK_RECORD
  5
386
330
1
100
AcDbSymbolTableRecord
100
AcDbBlockTableRecord
  2
*D16
340
0
  0
BLOCK_RECORD
  5
3C0
330
1
100
AcDbSymbolTableRecord
100
AcDbBlockTableRecord
  2
*D17
340
0
  0
BLOCK_RECORD
  5
3CC
330
1
100
AcDbSymbolTableRecord
100
AcDbBlockTableRecord
  2
*D18
340
0
  0
BLOCK_RECORD
  5
3D8
330
1
100
AcDbSymbolTableRecord
100
AcDbBlockTableRecord
  2
*D19
340
0
  0
BLOCK_RECORD
  5
3E4
330
1
100
AcDbSymbolTableRecord
100
AcDbBlockTableRecord
  2
*D20
340
0
  0
BLOCK_RECORD
  5
3FB
330
1
100
AcDbSymbolTableRecord
100
AcDbBlockTableRecord
  2
*D21
340
0
  0
BLOCK_RECORD
  5
407
330
1
100
AcDbSymbolTableRecord
100
AcDbBlockTableRecord
  2
*D22
340
0
  0
BLOCK_RECORD
  5
44F
330
1
100
AcDbSymbolTableRecord
100
AcDbBlockTableRecord
  2
*D23
340
0
  0
ENDTAB
  0
ENDSEC
  0
SECTION
  2
BLOCKS
  0
BLOCK
  5
20
330
1F
100
AcDbEntity
  8
0
100
AcDbBlockBegin
  2
*Model_Space
 70
     0
 10
0.0
 20
0.0
 30
0.0
  3
*Model_Space
  1
*Model_Space
  0
ENDBLK
  5
21
330
1F
100
AcDbEntity
  8
0
100
AcDbBlockEnd
  0
BLOCK
  5
1C
330
1B
100
AcDbEntity
 67
     1
  8
0
100
AcDbBlockBegin
  2
*Paper_Space
 70
     0
 10
0.0
 20
0.0
 30
0.0
  3
*Paper_Space
  1
*Paper_Space
  0
ENDBLK
  5
1D
330
1B
100
AcDbEntity
 67
     1
  8
0
100
AcDbBlockEnd
  0
BLOCK
  5
24
330
23
100
AcDbEntity
  8
0
100
AcDbBlockBegin
  2
*Paper_Space0
 70
     0
 10
0.0
 20
0.0
 30
0.0
  3
*Paper_Space0
  1
*Paper_Space0
  0
ENDBLK
  5
25
330
23
100
AcDbEntity
  8
0
100
AcDbBlockEnd
  0
BLOCK
  5
80
330
7F
100
AcDbEntity
  8
0
100
AcDbBlockBegin
  2
블럭10
 70
     2
 10
0.0
 20
0.0
 30
0.0
  3
블럭10
  1
블럭10
  0
ELLIPSE
  5
82
330
7F
100
AcDbEntity
  8
중심선
100
AcDbEllipse
 10
20.54032771741204
 20
12.0471743016438
 30
0.0
 11
6.600054785286829
 21
-1.261213355974178E-13
 31
0.0
210
0.0
220
0.0
230
1.0
 40
0.636358354079598
 41
0.9219305317359503
 42
6.513795318482858
  0
ELLIPSE
  5
83
330
7F
100
AcDbEntity
  8
중심선
100
AcDbEllipse
 10
20.54032771746488
 20
12.04717430159265
 30
0.0
 11
3.960054785062283
 21
1.540847449632565E-10
 31
0.0
210
0.0
220
0.0
230
1.0
 40
0.3939339440162632
 41
1.131841032648279
 42
5.62031148352944
  0
LINE
  5
84
330
7F
100
AcDbEntity
  8
중심선
100
AcDbLine
 10
2.268634060543552
 20
16.24717430164393
 30
0.0
 11
5.714909304380834
 21
16.24717430164393
 31
0.0
  0
LINE
  5
85
330
7F
100
AcDbEntity
  8
중심선
100
AcDbLine
 10
5.245725140726316
 20
7.84717430164391
 30
0.0
 11
8.692000384563599
 21
7.84717430164391
 31
0.0
  0
LINE
  5
86
330
7F
100
AcDbEntity
  8
중심선
100
AcDbLine
 10
15.74043728645272
 20
16.24717430164393
 30
0.0
 11
8.692000384563599
 21
7.84717430164391
 31
0.0
  0
LINE
  5
87
330
7F
100
AcDbEntity
  8
중심선
100
AcDbLine
 10
0.1404042013395286
 20
13.71084872107135
 30
0.0
 11
3.58671253028996
 21
13.71088815037384
 31
0.0
  0
LINE
  5
88
330
7F
100
AcDbEntity
  8
중심선
100
AcDbLine
 10
2.750260043222114
 20
10.84717430164391
 30
0.0
 11
6.196535287059397
 21
10.84717430164391
 31
0.0
  0
LINE
  5
89
330
7F
100
AcDbEntity
  8
중심선
100
AcDbLine
 10
12.29416204261559
 20
16.24717430164393
 30
0.0
 11
5.245725140726316
 21
7.84717430164391
 31
0.0
  0
LINE
  5
8A
330
7F
100
AcDbEntity
  8
중심선
100
AcDbLine
 10
10.72767329541681
 20
16.24717430164393
 30
0.0
 11
6.196535287059397
 21
10.84717430164391
 31
0.0
  0
LINE
  5
8B
330
7F
100
AcDbEntity
  8
중심선
100
AcDbLine
 10
7.28139805157953
 20
16.24717430164393
 30
0.0
 11
2.750260043222114
 21
10.84717430164391
 31
0.0
  0
LINE
  5
8C
330
7F
100
AcDbEntity
  8
중심선
100
AcDbLine
 10
5.714909304380834
 20
16.24717430164393
 30
0.0
 11
3.58671253028996
 21
13.71088815037384
 31
0.0
  0
LINE
  5
8D
330
7F
100
AcDbEntity
  8
중심선
100
AcDbLine
 10
2.268634060543552
 20
16.24717430164393
 30
0.0
 11
0.1404042013395286
 21
13.71084872107135
 31
0.0
  0
LINE
  5
8E
330
7F
100
AcDbEntity
  8
중심선
100
AcDbLine
 10
7.28139805157953
 20
16.24717430164393
 30
0.0
 11
10.72767329541681
 21
16.24717430164393
 31
0.0
  0
LINE
  5
8F
330
7F
100
AcDbEntity
  8
중심선
100
AcDbLine
 10
12.29416204261559
 20
16.24717430164393
 30
0.0
 11
15.74043728645272
 21
16.24717430164393
 31
0.0
  0
LINE
  5
90
330
7F
100
AcDbEntity
  8
중심선
100
AcDbLine
 10
19.22036997980202
 20
11.08717430171403
 30
0.0
 11
23.66174974927406
 21
11.08717430171406
 31
0.0
  0
LINE
  5
91
330
7F
100
AcDbEntity
  8
중심선
100
AcDbLine
 10
19.22039502424796
 20
13.00717430171391
 30
0.0
 11
19.22036997980202
 21
11.08717430171403
 31
0.0
  0
LINE
  5
92
330
7F
100
AcDbEntity
  8
중심선
100
AcDbLine
 10
19.22039502424796
 20
13.00717430171391
 30
0.0
 11
26.96566020931264
 21
13.00717430171391
 31
0.0
  0
LINE
  5
93
330
7F
100
AcDbEntity
  8
중심선
100
AcDbLine
 10
22.22332737316547
 20
13.45928029700563
 30
0.0
 11
24.52862924686651
 21
15.39360700705356
 31
0.0
  0
ATTDEF
  5
95
330
7F
100
AcDbEntity
  8
FORMAT
 62
     2
100
AcDbText
 10
4.408487351596664
 20
2.075366912832191
 30
0.0
 40
4.233333333333333
  1
E1070116
 41
0.75
  7
SLDTEXTSTYLE0
 11
4.408487351596664
 21
-0.0412997538344756
 31
0.0
100
AcDbAttributeDefinition
  3

  2
AUTOATTR0
 70
     0
 74
     1
  0
ENDBLK
  5
81
330
7F
100
AcDbEntity
  8
0
100
AcDbBlockEnd
  0
BLOCK
  5
D7
330
D6
100
AcDbEntity
  8
0
100
AcDbBlockBegin
  2
_D
 70
     0
 10
0.0
 20
0.0
 30
0.0
  3
_D
  1
_D
  0
LINE
  5
D9
330
D6
100
AcDbEntity
  8
치수문자_일반주서
 62
     0
370
    -2
100
AcDbLine
 10
-50.56249999999999
 20
15.87499999999999
 30
0.0
 11
-64.00000000000006
 21
15.87499999999994
 31
0.0
  0
LINE
  5
DA
330
D6
100
AcDbEntity
  8
치수문자_일반주서
 62
     0
370
    -2
100
AcDbLine
 10
-50.56249999999999
 20
-15.87500000000001
 30
0.0
 11
-63.99999999999994
 21
-15.87500000000006
 31
0.0
  0
LINE
  5
DB
330
D6
100
AcDbEntity
  8
치수문자_일반주서
 62
     0
370
    -2
100
AcDbLine
 10
-64.00000000000004
 20
12.57299999999995
 30
0.0
 11
-63.99999999999996
 21
-12.57300000000006
 31
0.0
  0
SOLID
  5
DC
330
D6
100
AcDbEntity
  8
치수문자_일반주서
 62
     0
100
AcDbTrace
 10
-63.44966666666671
 20
12.57299999999995
 30
0.0
 11
-64.55033333333337
 21
12.57299999999994
 31
0.0
 12
-64.00000000000006
 22
15.87499999999994
 32
0.0
 13
-64.00000000000006
 23
15.87499999999994
 33
0.0
  0
SOLID
  5
DD
330
D6
100
AcDbEntity
  8
치수문자_일반주서
 62
     0
100
AcDbTrace
 10
-64.55033333333328
 20
-12.57300000000006
 30
0.0
 11
-63.44966666666662
 21
-12.57300000000005
 31
0.0
 12
-63.99999999999994
 22
-15.87500000000006
 32
0.0
 13
-63.99999999999994
 23
-15.87500000000006
 33
0.0
  0
MTEXT
  5
DE
330
D6
100
AcDbEntity
  8
치수문자_일반주서
 62
     0
100
AcDbMText
 10
-68.375
 20
-0.0000000000000106
 30
0.0
 40
3.5
 41
0.0
 71
     2
 72
     1
  1
\A1;%%c31.75 [1 1/4]
  7
SLDTEXTSTYLE0
 11
-3.580687802255623E-15
 21
1.0
 31
0.0
 73
     1
 44
1.0
  0
POINT
  5
DF
330
D6
100
AcDbEntity
  8
Defpoints
 62
     0
100
AcDbPoint
 10
-50.49999999999999
 20
15.87499999999999
 30
0.0
  0
POINT
  5
E0
330
D6
100
AcDbEntity
  8
Defpoints
 62
     0
100
AcDbPoint
 10
-50.49999999999999
 20
-15.87500000000001
 30
0.0
  0
POINT
  5
E1
330
D6
100
AcDbEntity
  8
Defpoints
 62
     0
100
AcDbPoint
 10
-63.99999999999994
 20
-15.87500000000006
 30
0.0
  0
ENDBLK
  5
D8
330
D6
100
AcDbEntity
  8
0
100
AcDbBlockEnd
  0
BLOCK
  5
EA
330
E9
100
AcDbEntity
  8
0
100
AcDbBlockBegin
  2
_D_1
 70
     0
 10
0.0
 20
0.0
 30
0.0
  3
_D_1
  1
_D_1
  0
LINE
  5
EC
330
E9
100
AcDbEntity
  8
치수문자_일반주서
 62
     0
370
    -2
100
AcDbLine
 10
62.80000000000001
 20
15.93750000000001
 30
0.0
 11
62.80000000000001
 21
29.03792442259352
 31
0.0
  0
LINE
  5
ED
330
E9
100
AcDbEntity
  8
치수문자_일반주서
 62
     0
370
    -2
100
AcDbLine
 10
12.00000000000001
 20
12.50488030853148
 30
0.0
 11
12.00000000000001
 21
29.03792442259352
 31
0.0
  0
LINE
  5
EE
330
E9
100
AcDbEntity
  8
치수문자_일반주서
 62
     0
370
    -2
100
AcDbLine
 10
59.49800000000001
 20
29.03792442259352
 30
0.0
 11
15.30200000000001
 21
29.03792442259352
 31
0.0
  0
SOLID
  5
EF
330
E9
100
AcDbEntity
  8
치수문자_일반주서
 62
     0
100
AcDbTrace
 10
59.49800000000001
 20
28.48759108926019
 30
0.0
 11
59.49800000000001
 21
29.58825775592686
 31
0.0
 12
62.80000000000001
 22
29.03792442259352
 32
0.0
 13
62.80000000000001
 23
29.03792442259352
 33
0.0
  0
SOLID
  5
F0
330
E9
100
AcDbEntity
  8
치수문자_일반주서
 62
     0
100
AcDbTrace
 10
15.30200000000001
 20
29.58825775592686
 30
0.0
 11
15.30200000000001
 21
28.48759108926019
 31
0.0
 12
12.00000000000001
 22
29.03792442259352
 32
0.0
 13
12.00000000000001
 23
29.03792442259352
 33
0.0
  0
MTEXT
  5
F1
330
E9
100
AcDbEntity
  8
치수문자_일반주서
 62
     0
100
AcDbMText
 10
37.40000000000002
 20
33.41292442259352
 30
0.0
 40
3.5
 41
0.0
 71
     2
 72
     1
  1
\A1;50.8 [2]
  7
SLDTEXTSTYLE0
 73
     1
 44
1.0
  0
POINT
  5
F2
330
E9
100
AcDbEntity
  8
Defpoints
 62
     0
100
AcDbPoint
 10
62.80000000000001
 20
15.87500000000001
 30
0.0
  0
POINT
  5
F3
330
E9
100
AcDbEntity
  8
Defpoints
 62
     0
100
AcDbPoint
 10
12.00000000000001
 20
12.44238030853148
 30
0.0
  0
POINT
  5
F4
330
E9
100
AcDbEntity
  8
Defpoints
 62
     0
100
AcDbPoint
 10
12.00000000000001
 20
29.03792442259352
 30
0.0
  0
ENDBLK
  5
EB
330
E9
100
AcDbEntity
  8
0
100
AcDbBlockEnd
  0
BLOCK
  5
FE
330
FD
100
AcDbEntity
  8
0
100
AcDbBlockBegin
  2
_D_2
 70
     0
 10
0.0
 20
0.0
 30
0.0
  3
_D_2
  1
_D_2
  0
LINE
  5
100
330
FD
100
AcDbEntity
  8
치수문자_일반주서
 62
     0
370
    -2
100
AcDbLine
 10
62.80000000000003
 20
15.93750000000001
 30
0.0
 11
62.80000000000003
 21
45.58996586444052
 31
0.0
  0
LINE
  5
101
330
FD
100
AcDbEntity
  8
치수문자_일반주서
 62
     0
370
    -2
100
AcDbLine
 10
-51.5
 20
14.93749999999998
 30
0.0
 11
-51.5
 21
45.58996586444052
 31
0.0
  0
LINE
  5
102
330
FD
100
AcDbEntity
  8
치수문자_일반주서
 62
     0
370
    -2
100
AcDbLine
 10
59.49800000000003
 20
45.58996586444052
 30
0.0
 11
-48.198
 21
45.58996586444052
 31
0.0
  0
SOLID
  5
103
330
FD
100
AcDbEntity
  8
치수문자_일반주서
 62
     0
100
AcDbTrace
 10
59.49800000000003
 20
45.03963253110718
 30
0.0
 11
59.49800000000003
 21
46.14029919777385
 31
0.0
 12
62.80000000000003
 22
45.58996586444052
 32
0.0
 13
62.80000000000003
 23
45.58996586444052
 33
0.0
  0
SOLID
  5
104
330
FD
100
AcDbEntity
  8
치수문자_일반주서
 62
     0
100
AcDbTrace
 10
-48.198
 20
46.14029919777385
 30
0.0
 11
-48.198
 21
45.03963253110718
 31
0.0
 12
-51.5
 22
45.58996586444052
 32
0.0
 13
-51.5
 23
45.58996586444052
 33
0.0
  0
MTEXT
  5
105
330
FD
100
AcDbEntity
  8
치수문자_일반주서
 62
     0
100
AcDbMText
 10
5.649999999999869
 20
49.96496586444052
 30
0.0
 40
3.5
 41
0.0
 71
     2
 72
     1
  1
\A1;114.3 [4 1/2]
  7
SLDTEXTSTYLE0
 73
     1
 44
1.0
  0
POINT
  5
106
330
FD
100
AcDbEntity
  8
Defpoints
 62
     0
100
AcDbPoint
 10
62.80000000000003
 20
15.87500000000001
 30
0.0
  0
POINT
  5
107
330
FD
100
AcDbEntity
  8
Defpoints
 62
     0
100
AcDbPoint
 10
-51.5
 20
14.87499999999998
 30
0.0
  0
POINT
  5
108
330
FD
100
AcDbEntity
  8
Defpoints
 62
     0
100
AcDbPoint
 10
-51.5
 20
45.58996586444052
 30
0.0
  0
ENDBLK
  5
FF
330
FD
100
AcDbEntity
  8
0
100
AcDbBlockEnd
  0
BLOCK
  5
111
330
110
100
AcDbEntity
  8
0
100
AcDbBlockBegin
  2
_D_3
 70
     0
 10
0.0
 20
0.0
 30
0.0
  3
_D_3
  1
_D_3
  0
LINE
  5
113
330
110
100
AcDbEntity
  8
치수문자_일반주서
 62
     0
370
    -2
100
AcDbLine
 10
62.86250000000001
 20
-15.875
 30
0.0
 11
96.80508855801871
 21
-15.87499999999987
 31
0.0
  0
LINE
  5
114
330
110
100
AcDbEntity
  8
치수문자_일반주서
 62
     0
370
    -2
100
AcDbLine
 10
62.86250000000001
 20
15.87500000000001
 30
0.0
 11
96.8050885580186
 21
15.87500000000014
 31
0.0
  0
LINE
  5
115
330
110
100
AcDbEntity
  8
치수문자_일반주서
 62
     0
370
    -2
100
AcDbLine
 10
96.8050885580186
 20
15.87500000000014
 30
0.0
 11
96.80508855801845
 21
56.26973621325037
 31
0.0
  0
LINE
  5
116
330
110
100
AcDbEntity
  8
치수문자_일반주서
 62
     0
370
    -2
100
AcDbLine
 10
96.8050885580187
 20
-12.57299999999987
 30
0.0
 11
96.80508855801861
 21
12.57300000000014
 31
0.0
  0
SOLID
  5
117
330
110
100
AcDbEntity
  8
치수문자_일반주서
 62
     0
100
AcDbTrace
 10
96.25475522468537
 20
-12.57299999999987
 30
0.0
 11
97.35542189135202
 21
-12.57299999999987
 31
0.0
 12
96.80508855801871
 22
-15.87499999999987
 32
0.0
 13
96.80508855801871
 23
-15.87499999999987
 33
0.0
  0
SOLID
  5
118
330
110
100
AcDbEntity
  8
치수문자_일반주서
 62
     0
100
AcDbTrace
 10
97.35542189135194
 20
12.57300000000014
 30
0.0
 11
96.25475522468528
 21
12.57300000000013
 31
0.0
 12
96.8050885580186
 22
15.87500000000014
 32
0.0
 13
96.8050885580186
 23
15.87500000000014
 33
0.0
  0
MTEXT
  5
119
330
110
100
AcDbEntity
  8
치수문자_일반주서
 62
     0
100
AcDbMText
 10
92.43008855801851
 20
40.51973621325035
 30
0.0
 40
3.5
 41
0.0
 71
     2
 72
     1
  1
\A1;%%c31.75 [1 1/4]
  7
SLDTEXTSTYLE0
 11
-3.580687802255623E-15
 21
1.0
 31
0.0
 73
     1
 44
1.0
  0
POINT
  5
11A
330
110
100
AcDbEntity
  8
Defpoints
 62
     0
100
AcDbPoint
 10
62.80000000000001
 20
-15.875
 30
0.0
  0
POINT
  5
11B
330
110
100
AcDbEntity
  8
Defpoints
 62
     0
100
AcDbPoint
 10
62.80000000000001
 20
15.87500000000001
 30
0.0
  0
POINT
  5
11C
330
110
100
AcDbEntity
  8
Defpoints
 62
     0
100
AcDbPoint
 10
96.8050885580186
 20
15.87500000000014
 30
0.0
  0
ENDBLK
  5
112
330
110
100
AcDbEntity
  8
0
100
AcDbBlockEnd
  0
BLOCK
  5
12A
330
129
100
AcDbEntity
  8
0
100
AcDbBlockBegin
  2
SW_DOWELSYMBOL_0
 70
     0
 10
0.0
 20
0.0
 30
0.0
  3
SW_DOWELSYMBOL_0
  1
SW_DOWELSYMBOL_0
  0
CIRCLE
  5
12C
330
129
100
AcDbEntity
  8
해칭선
 62
     0
100
AcDbCircle
 10
0.0
 20
0.0
 30
0.0
 40
2.999999999999996
  0
HATCH
  5
12D
330
129
100
AcDbEntity
  8
0
  6
Continuous
 62
     0
370
     0
100
AcDbHatch
 10
0.0
 20
0.0
 30
0.0
210
0.0
220
0.0
230
1.0
  2
SOLID
 70
     1
 71
     0
 91
        1
 92
        0
 93
        3
 72
     2
 10
0.0
 20
0.0
 40
2.999999999999996
 50
0.0
 51
90.0
 73
     1
 72
     1
 10
0.0
 20
2.999999999999996
 11
0.0
 21
0.0
 72
     1
 10
0.0
 20
0.0
 11
2.999999999999996
 21
0.0
 97
        0
 75
     0
 76
     1
 98
        1
 10
0.0
 20
0.0
  0
HATCH
  5
12E
330
129
100
AcDbEntity
  8
0
  6
Continuous
 62
     0
370
     0
100
AcDbHatch
 10
0.0
 20
0.0
 30
0.0
210
0.0
220
0.0
230
1.0
  2
SOLID
 70
     1
 71
     0
 91
        1
 92
        0
 93
        3
 72
     2
 10
0.0
 20
0.0
 40
2.999999999999996
 50
180.0
 51
270.0000000000007
 73
     1
 72
     1
 10
0.0
 20
-2.999999999999996
 11
0.0
 21
0.0
 72
     1
 10
0.0
 20
0.0
 11
-2.999999999999996
 21
0.0
 97
        0
 75
     0
 76
     1
 98
        1
 10
0.0
 20
0.0
  0
ENDBLK
  5
12B
330
129
100
AcDbEntity
  8
0
100
AcDbBlockEnd
  0
BLOCK
  5
239
330
238
100
AcDbEntity
  8
0
100
AcDbBlockBegin
  2
*D7
 70
     1
 10
0.0
 20
0.0
 30
0.0
  3
*D7
  1
*D8
  0
LINE
  5
23B
330
238
100
AcDbEntity
  8
치수문자_일반주서
 62
     0
370
    -2
100
AcDbLine
 10
79.2
 20
25.63930209048008
 30
0.0
 11
79.2
 21
35.57680209048009
 31
0.0
  0
LINE
  5
23C
330
238
100
AcDbEntity
  8
치수문자_일반주서
 62
     0
370
    -2
100
AcDbLine
 10
53.8
 20
24.5692485541941
 30
0.0
 11
53.8
 21
35.57680209048009
 31
0.0
  0
LINE
  5
23D
330
238
100
AcDbEntity
  8
치수문자_일반주서
 62
     0
370
    -2
100
AcDbLine
 10
75.898
 20
35.57680209048009
 30
0.0
 11
57.102
 21
35.57680209048009
 31
0.0
  0
SOLID
  5
23E
330
238
100
AcDbEntity
  8
치수문자_일반주서
 62
     0
100
AcDbTrace
 10
75.898
 20
35.02646875714676
 30
0.0
 11
75.898
 21
36.12713542381343
 31
0.0
 12
79.2
 22
35.57680209048009
 32
0.0
 13
79.2
 23
35.57680209048009
 33
0.0
  0
SOLID
  5
23F
330
238
100
AcDbEntity
  8
치수문자_일반주서
 62
     0
100
AcDbTrace
 10
57.102
 20
36.12713542381343
 30
0.0
 11
57.102
 21
35.02646875714676
 31
0.0
 12
53.8
 22
35.57680209048009
 32
0.0
 13
53.8
 23
35.57680209048009
 33
0.0
  0
MTEXT
  5
240
330
238
100
AcDbEntity
  8
치수문자_일반주서
 62
     0
100
AcDbMText
 10
66.5
 20
39.95180209048009
 30
0.0
 40
3.5
 41
0.0
 71
     2
 72
     1
  1
\A1;25.40 [1.00]
  7
SLDTEXTSTYLE0
 73
     1
 44
1.0
  0
POINT
  5
241
330
238
100
AcDbEntity
  8
Defpoints
 62
     0
100
AcDbPoint
 10
79.2
 20
25.57680209048008
 30
0.0
  0
POINT
  5
242
330
238
100
AcDbEntity
  8
Defpoints
 62
     0
100
AcDbPoint
 10
53.8
 20
24.5067485541941
 30
0.0
  0
POINT
  5
243
330
238
100
AcDbEntity
  8
Defpoints
 62
     0
100
AcDbPoint
 10
53.8
 20
35.57680209048009
 30
0.0
  0
ENDBLK
  5
23A
330
238
100
AcDbEntity
  8
0
100
AcDbBlockEnd
  0
BLOCK
  5
245
330
244
100
AcDbEntity
  8
0
100
AcDbBlockBegin
  2
*D8
 70
     1
 10
0.0
 20
0.0
 30
0.0
  3
*D8
  1
*D9
  0
LINE
  5
247
330
244
100
AcDbEntity
  8
치수문자_일반주서
 62
     0
370
    -2
100
AcDbLine
 10
79.2
 20
25.63930209048008
 30
0.0
 11
79.20000000000002
 21
49.34335649257072
 31
0.0
  0
LINE
  5
248
330
244
100
AcDbEntity
  8
치수문자_일반주서
 62
     0
370
    -2
100
AcDbLine
 10
2.999999999999993
 20
24.4463992301247
 30
0.0
 11
3.000000000000007
 21
49.34335649257072
 31
0.0
  0
LINE
  5
249
330
244
100
AcDbEntity
  8
치수문자_일반주서
 62
     0
370
    -2
100
AcDbLine
 10
75.89800000000002
 20
49.34335649257072
 30
0.0
 11
6.302000000000007
 21
49.34335649257072
 31
0.0
  0
SOLID
  5
24A
330
244
100
AcDbEntity
  8
치수문자_일반주서
 62
     0
100
AcDbTrace
 10
75.89800000000002
 20
48.79302315923739
 30
0.0
 11
75.89800000000002
 21
49.89368982590405
 31
0.0
 12
79.20000000000002
 22
49.34335649257072
 32
0.0
 13
79.20000000000002
 23
49.34335649257072
 33
0.0
  0
SOLID
  5
24B
330
244
100
AcDbEntity
  8
치수문자_일반주서
 62
     0
100
AcDbTrace
 10
6.302000000000007
 20
49.89368982590405
 30
0.0
 11
6.302000000000007
 21
48.79302315923739
 31
0.0
 12
3.000000000000007
 22
49.34335649257072
 32
0.0
 13
3.000000000000007
 23
49.34335649257072
 33
0.0
  0
MTEXT
  5
24C
330
244
100
AcDbEntity
  8
치수문자_일반주서
 62
     0
100
AcDbMText
 10
41.09999999999999
 20
53.71835649257072
 30
0.0
 40
3.5
 41
0.0
 71
     2
 72
     1
  1
\A1;76.20 [3.00]
  7
SLDTEXTSTYLE0
 73
     1
 44
1.0
  0
POINT
  5
24D
330
244
100
AcDbEntity
  8
Defpoints
 62
     0
100
AcDbPoint
 10
79.2
 20
25.57680209048008
 30
0.0
  0
POINT
  5
24E
330
244
100
AcDbEntity
  8
Defpoints
 62
     0
100
AcDbPoint
 10
2.999999999999993
 20
24.3838992301247
 30
0.0
  0
POINT
  5
24F
330
244
100
AcDbEntity
  8
Defpoints
 62
     0
100
AcDbPoint
 10
2.999999999999993
 20
49.34335649257071
 30
0.0
  0
ENDBLK
  5
246
330
244
100
AcDbEntity
  8
0
100
AcDbBlockEnd
  0
BLOCK
  5
251
330
250
100
AcDbEntity
  8
0
100
AcDbBlockBegin
  2
*D9
 70
     1
 10
0.0
 20
0.0
 30
0.0
  3
*D9
  1
*D10
  0
LINE
  5
253
330
250
100
AcDbEntity
  8
치수문자_일반주서
 62
     0
370
    -2
100
AcDbLine
 10
104.6625
 20
0.0000000000000002
 30
0.0
 11
123.6000000000003
 21
0.0000000000000711
 31
0.0
  0
LINE
  5
254
330
250
100
AcDbEntity
  8
치수문자_일반주서
 62
     0
370
    -2
100
AcDbLine
 10
104.6625
 20
38.06779846024942
 30
0.0
 11
123.6000000000001
 21
38.06779846024949
 31
0.0
  0
LINE
  5
255
330
250
100
AcDbEntity
  8
치수문자_일반주서
 62
     0
370
    -2
100
AcDbLine
 10
123.6000000000001
 20
38.06779846024949
 30
0.0
 11
123.6
 21
90.46779846024957
 31
0.0
  0
LINE
  5
256
330
250
100
AcDbEntity
  8
치수문자_일반주서
 62
     0
370
    -2
100
AcDbLine
 10
123.6000000000002
 20
3.302000000000071
 30
0.0
 11
123.6000000000001
 21
34.76579846024949
 31
0.0
  0
SOLID
  5
257
330
250
100
AcDbEntity
  8
치수문자_일반주서
 62
     0
100
AcDbTrace
 10
123.0496666666669
 20
3.302000000000069
 30
0.0
 11
124.1503333333336
 21
3.302000000000072
 31
0.0
 12
123.6000000000003
 22
0.0000000000000711
 32
0.0
 13
123.6000000000003
 23
0.0000000000000711
 33
0.0
  0
SOLID
  5
258
330
250
100
AcDbEntity
  8
치수문자_일반주서
 62
     0
100
AcDbTrace
 10
124.1503333333335
 20
34.76579846024949
 30
0.0
 11
123.0496666666668
 21
34.76579846024949
 31
0.0
 12
123.6000000000001
 22
38.06779846024949
 32
0.0
 13
123.6000000000001
 23
38.06779846024949
 33
0.0
  0
MTEXT
  5
259
330
250
100
AcDbEntity
  8
치수문자_일반주서
 62
     0
100
AcDbMText
 10
119.225
 20
76.46779846024955
 30
0.0
 40
3.5
 41
0.0
 71
     2
 72
     1
  1
\A1;%%c38.07 [1.50]
  7
SLDTEXTSTYLE0
 11
-3.359734410971242E-15
 21
1.0
 31
0.0
 73
     1
 44
1.0
  0
POINT
  5
25A
330
250
100
AcDbEntity
  8
Defpoints
 62
     0
100
AcDbPoint
 10
104.6
 20
0.0
 30
0.0
  0
POINT
  5
25B
330
250
100
AcDbEntity
  8
Defpoints
 62
     0
100
AcDbPoint
 10
104.6
 20
38.06779846024942
 30
0.0
  0
POINT
  5
25C
330
250
100
AcDbEntity
  8
Defpoints
 62
     0
100
AcDbPoint
 10
123.6
 20
38.06779846024949
 30
0.0
  0
ENDBLK
  5
252
330
250
100
AcDbEntity
  8
0
100
AcDbBlockEnd
  0
BLOCK
  5
283
330
282
100
AcDbEntity
  8
0
100
AcDbBlockBegin
  2
*D10
 70
     1
 10
0.0
 20
0.0
 30
0.0
  3
*D10
  1
*D11
  0
LINE
  5
285
330
282
100
AcDbEntity
  8
치수문자_일반주서
 62
     0
370
    -2
100
AcDbLine
 10
165.2031281524636
 20
-77.46866663302022
 30
0.0
 11
165.2031281524636
 21
-67.5311666330202
 31
0.0
  0
LINE
  5
286
330
282
100
AcDbEntity
  8
치수문자_일반주서
 62
     0
370
    -2
100
AcDbLine
 10
139.8031281524636
 20
-78.5387201693062
 30
0.0
 11
139.8031281524636
 21
-67.5311666330202
 31
0.0
  0
LINE
  5
287
330
282
100
AcDbEntity
  8
치수문자_일반주서
 62
     0
370
    -2
100
AcDbLine
 10
161.9011281524637
 20
-67.5311666330202
 30
0.0
 11
143.1051281524636
 21
-67.5311666330202
 31
0.0
  0
SOLID
  5
288
330
282
100
AcDbEntity
  8
치수문자_일반주서
 62
     0
100
AcDbTrace
 10
161.9011281524637
 20
-68.08149996635353
 30
0.0
 11
161.9011281524637
 21
-66.98083329968688
 31
0.0
 12
165.2031281524636
 22
-67.5311666330202
 32
0.0
 13
165.2031281524636
 23
-67.5311666330202
 33
0.0
  0
SOLID
  5
289
330
282
100
AcDbEntity
  8
치수문자_일반주서
 62
     0
100
AcDbTrace
 10
143.1051281524636
 20
-66.98083329968688
 30
0.0
 11
143.1051281524636
 21
-68.08149996635353
 31
0.0
 12
139.8031281524636
 22
-67.5311666330202
 32
0.0
 13
139.8031281524636
 23
-67.5311666330202
 33
0.0
  0
MTEXT
  5
28A
330
282
100
AcDbEntity
  8
치수문자_일반주서
 62
     0
100
AcDbMText
 10
152.5031281524636
 20
-63.15616663302021
 30
0.0
 40
3.5
 41
0.0
 71
     2
 72
     1
  1
\A1;25.40 [1.00]
  7
SLDTEXTSTYLE0
 73
     1
 44
1.0
  0
POINT
  5
28B
330
282
100
AcDbEntity
  8
Defpoints
 62
     0
100
AcDbPoint
 10
165.2031281524636
 20
-77.53116663302022
 30
0.0
  0
POINT
  5
28C
330
282
100
AcDbEntity
  8
Defpoints
 62
     0
100
AcDbPoint
 10
139.8031281524636
 20
-78.6012201693062
 30
0.0
  0
POINT
  5
28D
330
282
100
AcDbEntity
  8
Defpoints
 62
     0
100
AcDbPoint
 10
139.8031281524636
 20
-67.5311666330202
 30
0.0
  0
ENDBLK
  5
284
330
282
100
AcDbEntity
  8
0
100
AcDbBlockEnd
  0
BLOCK
  5
28F
330
28E
100
AcDbEntity
  8
0
100
AcDbBlockBegin
  2
*D11
 70
     1
 10
0.0
 20
0.0
 30
0.0
  3
*D11
  1
*D12
  0
LINE
  5
291
330
28E
100
AcDbEntity
  8
치수문자_일반주서
 62
     0
370
    -2
100
AcDbLine
 10
165.2031281524636
 20
-77.46866663302022
 30
0.0
 11
165.2031281524636
 21
-53.76461223092959
 31
0.0
  0
LINE
  5
292
330
28E
100
AcDbEntity
  8
치수문자_일반주서
 62
     0
370
    -2
100
AcDbLine
 10
89.00312815246363
 20
-78.6615694933756
 30
0.0
 11
89.00312815246363
 21
-53.76461223092959
 31
0.0
  0
LINE
  5
293
330
28E
100
AcDbEntity
  8
치수문자_일반주서
 62
     0
370
    -2
100
AcDbLine
 10
161.9011281524637
 20
-53.76461223092959
 30
0.0
 11
92.30512815246362
 21
-53.76461223092959
 31
0.0
  0
SOLID
  5
294
330
28E
100
AcDbEntity
  8
치수문자_일반주서
 62
     0
100
AcDbTrace
 10
161.9011281524637
 20
-54.31494556426292
 30
0.0
 11
161.9011281524637
 21
-53.21427889759625
 31
0.0
 12
165.2031281524636
 22
-53.76461223092959
 32
0.0
 13
165.2031281524636
 23
-53.76461223092959
 33
0.0
  0
SOLID
  5
295
330
28E
100
AcDbEntity
  8
치수문자_일반주서
 62
     0
100
AcDbTrace
 10
92.30512815246362
 20
-53.21427889759625
 30
0.0
 11
92.30512815246362
 21
-54.31494556426292
 31
0.0
 12
89.00312815246363
 22
-53.76461223092959
 32
0.0
 13
89.00312815246363
 23
-53.76461223092959
 33
0.0
  0
MTEXT
  5
296
330
28E
100
AcDbEntity
  8
치수문자_일반주서
 62
     0
100
AcDbMText
 10
127.1031281524636
 20
-49.38961223092959
 30
0.0
 40
3.5
 41
0.0
 71
     2
 72
     1
  1
\A1;76.20 [3.00]
  7
SLDTEXTSTYLE0
 73
     1
 44
1.0
  0
POINT
  5
297
330
28E
100
AcDbEntity
  8
Defpoints
 62
     0
100
AcDbPoint
 10
165.2031281524636
 20
-77.53116663302022
 30
0.0
  0
POINT
  5
298
330
28E
100
AcDbEntity
  8
Defpoints
 62
     0
100
AcDbPoint
 10
89.00312815246363
 20
-78.7240694933756
 30
0.0
  0
POINT
  5
299
330
28E
100
AcDbEntity
  8
Defpoints
 62
     0
100
AcDbPoint
 10
89.00312815246363
 20
-53.76461223092959
 30
0.0
  0
ENDBLK
  5
290
330
28E
100
AcDbEntity
  8
0
100
AcDbBlockEnd
  0
BLOCK
  5
29B
330
29A
100
AcDbEntity
  8
0
100
AcDbBlockBegin
  2
*D12
 70
     1
 10
0.0
 20
0.0
 30
0.0
  3
*D12
  1
*D13
  0
LINE
  5
29D
330
29A
100
AcDbEntity
  8
치수문자_일반주서
 62
     0
370
    -2
100
AcDbLine
 10
190.6656281524636
 20
-103.1079687235003
 30
0.0
 11
209.6031281524639
 21
-103.1079687235002
 31
0.0
  0
LINE
  5
29E
330
29A
100
AcDbEntity
  8
치수문자_일반주서
 62
     0
370
    -2
100
AcDbLine
 10
190.6656281524636
 20
-65.04017026325089
 30
0.0
 11
209.6031281524638
 21
-65.04017026325081
 31
0.0
  0
LINE
  5
29F
330
29A
100
AcDbEntity
  8
치수문자_일반주서
 62
     0
370
    -2
100
AcDbLine
 10
209.6031281524638
 20
-65.04017026325081
 30
0.0
 11
209.6031281524636
 21
-12.64017026325074
 31
0.0
  0
LINE
  5
2A0
330
29A
100
AcDbEntity
  8
치수문자_일반주서
 62
     0
370
    -2
100
AcDbLine
 10
209.6031281524639
 20
-99.80596872350023
 30
0.0
 11
209.6031281524638
 21
-68.34217026325081
 31
0.0
  0
SOLID
  5
2A1
330
29A
100
AcDbEntity
  8
치수문자_일반주서
 62
     0
100
AcDbTrace
 10
209.0527948191306
 20
-99.80596872350023
 30
0.0
 11
210.1534614857972
 21
-99.80596872350023
 31
0.0
 12
209.6031281524639
 22
-103.1079687235002
 32
0.0
 13
209.6031281524639
 23
-103.1079687235002
 33
0.0
  0
SOLID
  5
2A2
330
29A
100
AcDbEntity
  8
치수문자_일반주서
 62
     0
100
AcDbTrace
 10
210.1534614857971
 20
-68.34217026325081
 30
0.0
 11
209.0527948191304
 21
-68.34217026325081
 31
0.0
 12
209.6031281524638
 22
-65.04017026325081
 32
0.0
 13
209.6031281524638
 23
-65.04017026325081
 33
0.0
  0
MTEXT
  5
2A3
330
29A
100
AcDbEntity
  8
치수문자_일반주서
 62
     0
100
AcDbMText
 10
205.2281281524636
 20
-26.64017026325076
 30
0.0
 40
3.5
 41
0.0
 71
     2
 72
     1
  1
\A1;%%c38.07 [1.50]
  7
SLDTEXTSTYLE0
 11
-3.733038234412491E-15
 21
1.0
 31
0.0
 73
     1
 44
1.0
  0
POINT
  5
2A4
330
29A
100
AcDbEntity
  8
Defpoints
 62
     0
100
AcDbPoint
 10
190.6031281524636
 20
-103.1079687235003
 30
0.0
  0
POINT
  5
2A5
330
29A
100
AcDbEntity
  8
Defpoints
 62
     0
100
AcDbPoint
 10
190.6031281524636
 20
-65.04017026325089
 30
0.0
  0
POINT
  5
2A6
330
29A
100
AcDbEntity
  8
Defpoints
 62
     0
100
AcDbPoint
 10
209.6031281524637
 20
-65.04017026325081
 30
0.0
  0
ENDBLK
  5
29C
330
29A
100
AcDbEntity
  8
0
100
AcDbBlockEnd
  0
BLOCK
  5
363
330
362
100
AcDbEntity
  8
0
100
AcDbBlockBegin
  2
*D13
 70
     1
 10
0.0
 20
0.0
 30
0.0
  3
*D13
  1
*D15
  0
LINE
  5
365
330
362
100
AcDbEntity
  8
치수문자_일반주서
 62
     0
370
    -2
100
AcDbLine
 10
17.81250000000003
 20
56.32180738881174
 30
0.0
 11
4.374999999999999
 21
56.32180738881169
 31
0.0
  0
LINE
  5
366
330
362
100
AcDbEntity
  8
치수문자_일반주서
 62
     0
370
    -2
100
AcDbLine
 10
17.81250000000003
 20
43.62180738881175
 30
0.0
 11
4.375000000000044
 21
43.6218073888117
 31
0.0
  0
LINE
  5
367
330
362
100
AcDbEntity
  8
치수문자_일반주서
 62
     0
370
    -2
100
AcDbLine
 10
4.375000000000011
 20
53.01980738881169
 30
0.0
 11
4.375000000000032
 21
46.9238073888117
 31
0.0
  0
SOLID
  5
368
330
362
100
AcDbEntity
  8
치수문자_일반주서
 62
     0
100
AcDbTrace
 10
4.925333333333344
 20
53.01980738881169
 30
0.0
 11
3.824666666666677
 21
53.01980738881169
 31
0.0
 12
4.374999999999999
 22
56.32180738881169
 32
0.0
 13
4.374999999999999
 23
56.32180738881169
 33
0.0
  0
SOLID
  5
369
330
362
100
AcDbEntity
  8
치수문자_일반주서
 62
     0
100
AcDbTrace
 10
3.824666666666698
 20
46.9238073888117
 30
0.0
 11
4.925333333333366
 21
46.9238073888117
 31
0.0
 12
4.375000000000044
 22
43.6218073888117
 32
0.0
 13
4.375000000000044
 23
43.6218073888117
 33
0.0
  0
MTEXT
  5
36A
330
362
100
AcDbEntity
  8
치수문자_일반주서
 62
     0
100
AcDbMText
 10
0.0000000000000213
 20
49.97180738881173
 30
0.0
 40
3.5
 41
0.0
 71
     2
 72
     1
  1
\A1;%%c12.7 [0.50]
  7
SLDTEXTSTYLE0
 11
-3.496765431890260E-15
 21
1.0
 31
0.0
 73
     1
 44
1.0
  0
POINT
  5
36B
330
362
100
AcDbEntity
  8
Defpoints
 62
     0
100
AcDbPoint
 10
17.87500000000003
 20
56.32180738881174
 30
0.0
  0
POINT
  5
36C
330
362
100
AcDbEntity
  8
Defpoints
 62
     0
100
AcDbPoint
 10
17.87500000000003
 20
43.62180738881175
 30
0.0
  0
POINT
  5
36D
330
362
100
AcDbEntity
  8
Defpoints
 62
     0
100
AcDbPoint
 10
4.375000000000021
 20
43.6218073888117
 30
0.0
  0
ENDBLK
  5
364
330
362
100
AcDbEntity
  8
0
100
AcDbBlockEnd
  0
BLOCK
  5
36F
330
36E
100
AcDbEntity
  8
0
100
AcDbBlockBegin
  2
*D14
 70
     1
 10
0.0
 20
0.0
 30
0.0
  3
*D14
  1
*D16
  0
LINE
  5
371
330
36E
100
AcDbEntity
  8
치수문자_일반주서
 62
     0
370
    -2
100
AcDbLine
 10
93.07500000000003
 20
56.57721024916712
 30
0.0
 11
93.07500000000003
 21
66.51471024916712
 31
0.0
  0
LINE
  5
372
330
36E
100
AcDbEntity
  8
치수문자_일반주서
 62
     0
370
    -2
100
AcDbLine
 10
67.67500000000004
 20
55.50715671288114
 30
0.0
 11
67.67500000000004
 21
66.51471024916712
 31
0.0
  0
LINE
  5
373
330
36E
100
AcDbEntity
  8
치수문자_일반주서
 62
     0
370
    -2
100
AcDbLine
 10
89.77300000000002
 20
66.51471024916712
 30
0.0
 11
70.97700000000005
 21
66.51471024916712
 31
0.0
  0
SOLID
  5
374
330
36E
100
AcDbEntity
  8
치수문자_일반주서
 62
     0
100
AcDbTrace
 10
89.77300000000002
 20
65.9643769158338
 30
0.0
 11
89.77300000000002
 21
67.06504358250045
 31
0.0
 12
93.07500000000003
 22
66.51471024916712
 32
0.0
 13
93.07500000000003
 23
66.51471024916712
 33
0.0
  0
SOLID
  5
375
330
36E
100
AcDbEntity
  8
치수문자_일반주서
 62
     0
100
AcDbTrace
 10
70.97700000000005
 20
67.06504358250045
 30
0.0
 11
70.97700000000005
 21
65.9643769158338
 31
0.0
 12
67.67500000000004
 22
66.51471024916712
 32
0.0
 13
67.67500000000004
 23
66.51471024916712
 33
0.0
  0
MTEXT
  5
376
330
36E
100
AcDbEntity
  8
치수문자_일반주서
 62
     0
100
AcDbMText
 10
80.37500000000003
 20
70.88971024916712
 30
0.0
 40
3.5
 41
0.0
 71
     2
 72
     1
  1
\A1;25.40 [1.00]
  7
SLDTEXTSTYLE0
 73
     1
 44
1.0
  0
POINT
  5
377
330
36E
100
AcDbEntity
  8
Defpoints
 62
     0
100
AcDbPoint
 10
93.07500000000003
 20
56.51471024916712
 30
0.0
  0
POINT
  5
378
330
36E
100
AcDbEntity
  8
Defpoints
 62
     0
100
AcDbPoint
 10
67.67500000000004
 20
55.44465671288114
 30
0.0
  0
POINT
  5
379
330
36E
100
AcDbEntity
  8
Defpoints
 62
     0
100
AcDbPoint
 10
67.67500000000004
 20
66.51471024916712
 30
0.0
  0
ENDBLK
  5
370
330
36E
100
AcDbEntity
  8
0
100
AcDbBlockEnd
  0
BLOCK
  5
37B
330
37A
100
AcDbEntity
  8
0
100
AcDbBlockBegin
  2
*D15
 70
     1
 10
0.0
 20
0.0
 30
0.0
  3
*D15
  1
*D17
  0
LINE
  5
37D
330
37A
100
AcDbEntity
  8
치수문자_일반주서
 62
     0
370
    -2
100
AcDbLine
 10
93.07500000000003
 20
56.57721024916712
 30
0.0
 11
93.07500000000003
 21
80.28126465125774
 31
0.0
  0
LINE
  5
37E
330
37A
100
AcDbEntity
  8
치수문자_일반주서
 62
     0
370
    -2
100
AcDbLine
 10
16.87500000000003
 20
55.38430738881174
 30
0.0
 11
16.87500000000003
 21
80.28126465125774
 31
0.0
  0
LINE
  5
37F
330
37A
100
AcDbEntity
  8
치수문자_일반주서
 62
     0
370
    -2
100
AcDbLine
 10
89.77300000000002
 20
80.28126465125774
 30
0.0
 11
20.17700000000003
 21
80.28126465125774
 31
0.0
  0
SOLID
  5
380
330
37A
100
AcDbEntity
  8
치수문자_일반주서
 62
     0
100
AcDbTrace
 10
89.77300000000002
 20
79.73093131792442
 30
0.0
 11
89.77300000000002
 21
80.83159798459107
 31
0.0
 12
93.07500000000003
 22
80.28126465125774
 32
0.0
 13
93.07500000000003
 23
80.28126465125774
 33
0.0
  0
SOLID
  5
381
330
37A
100
AcDbEntity
  8
치수문자_일반주서
 62
     0
100
AcDbTrace
 10
20.17700000000003
 20
80.83159798459107
 30
0.0
 11
20.17700000000003
 21
79.73093131792442
 31
0.0
 12
16.87500000000003
 22
80.28126465125774
 32
0.0
 13
16.87500000000003
 23
80.28126465125774
 33
0.0
  0
MTEXT
  5
382
330
37A
100
AcDbEntity
  8
치수문자_일반주서
 62
     0
100
AcDbMText
 10
54.97500000000003
 20
84.65626465125774
 30
0.0
 40
3.5
 41
0.0
 71
     2
 72
     1
  1
\A1;76.20 [3.00]
  7
SLDTEXTSTYLE0
 73
     1
 44
1.0
  0
POINT
  5
383
330
37A
100
AcDbEntity
  8
Defpoints
 62
     0
100
AcDbPoint
 10
93.07500000000003
 20
56.51471024916712
 30
0.0
  0
POINT
  5
384
330
37A
100
AcDbEntity
  8
Defpoints
 62
     0
100
AcDbPoint
 10
16.87500000000003
 20
55.32180738881174
 30
0.0
  0
POINT
  5
385
330
37A
100
AcDbEntity
  8
Defpoints
 62
     0
100
AcDbPoint
 10
16.87500000000003
 20
80.28126465125774
 30
0.0
  0
ENDBLK
  5
37C
330
37A
100
AcDbEntity
  8
0
100
AcDbBlockEnd
  0
BLOCK
  5
387
330
386
100
AcDbEntity
  8
0
100
AcDbBlockBegin
  2
*D16
 70
     1
 10
0.0
 20
0.0
 30
0.0
  3
*D16
  1
*D18
  0
LINE
  5
389
330
386
100
AcDbEntity
  8
치수문자_일반주서
 62
     0
370
    -2
100
AcDbLine
 10
118.5375
 20
30.93790815868703
 30
0.0
 11
137.4750000000003
 21
30.93790815868711
 31
0.0
  0
LINE
  5
38A
330
386
100
AcDbEntity
  8
치수문자_일반주서
 62
     0
370
    -2
100
AcDbLine
 10
118.5375
 20
69.00570661893646
 30
0.0
 11
137.4750000000002
 21
69.00570661893653
 31
0.0
  0
LINE
  5
38B
330
386
100
AcDbEntity
  8
치수문자_일반주서
 62
     0
370
    -2
100
AcDbLine
 10
137.4750000000002
 20
69.00570661893653
 30
0.0
 11
137.475
 21
121.4057066189366
 31
0.0
  0
LINE
  5
38C
330
386
100
AcDbEntity
  8
치수문자_일반주서
 62
     0
370
    -2
100
AcDbLine
 10
137.4750000000003
 20
34.23990815868711
 30
0.0
 11
137.4750000000002
 21
65.70370661893654
 31
0.0
  0
SOLID
  5
38D
330
386
100
AcDbEntity
  8
치수문자_일반주서
 62
     0
100
AcDbTrace
 10
136.924666666667
 20
34.23990815868711
 30
0.0
 11
138.0253333333336
 21
34.23990815868711
 31
0.0
 12
137.4750000000003
 22
30.93790815868711
 32
0.0
 13
137.4750000000003
 23
30.93790815868711
 33
0.0
  0
SOLID
  5
38E
330
386
100
AcDbEntity
  8
치수문자_일반주서
 62
     0
100
AcDbTrace
 10
138.0253333333335
 20
65.70370661893654
 30
0.0
 11
136.9246666666668
 21
65.70370661893654
 31
0.0
 12
137.4750000000002
 22
69.00570661893653
 32
0.0
 13
137.4750000000002
 23
69.00570661893653
 33
0.0
  0
MTEXT
  5
38F
330
386
100
AcDbEntity
  8
치수문자_일반주서
 62
     0
100
AcDbMText
 10
133.1
 20
107.4057066189366
 30
0.0
 40
3.5
 41
0.0
 71
     2
 72
     1
  1
\A1;%%c38.07 [1.50]
  7
SLDTEXTSTYLE0
 11
-3.733038234412491E-15
 21
1.0
 31
0.0
 73
     1
 44
1.0
  0
POINT
  5
390
330
386
100
AcDbEntity
  8
Defpoints
 62
     0
100
AcDbPoint
 10
118.475
 20
30.93790815868703
 30
0.0
  0
POINT
  5
391
330
386
100
AcDbEntity
  8
Defpoints
 62
     0
100
AcDbPoint
 10
118.475
 20
69.00570661893646
 30
0.0
  0
POINT
  5
392
330
386
100
AcDbEntity
  8
Defpoints
 62
     0
100
AcDbPoint
 10
137.4750000000001
 20
69.00570661893653
 30
0.0
  0
ENDBLK
  5
388
330
386
100
AcDbEntity
  8
0
100
AcDbBlockEnd
  0
BLOCK
  5
3C1
330
3C0
100
AcDbEntity
  8
0
100
AcDbBlockBegin
  2
*D17
 70
     1
 10
0.0
 20
0.0
 30
0.0
  3
*D17
  1
*D19
  0
LINE
  5
3C3
330
3C0
100
AcDbEntity
  8
치수문자_일반주서
 62
     0
370
    -2
100
AcDbLine
 10
172.5818320371808
 20
125.0225122005989
 30
0.0
 11
159.1443320371808
 21
125.0225122005989
 31
0.0
  0
LINE
  5
3C4
330
3C0
100
AcDbEntity
  8
치수문자_일반주서
 62
     0
370
    -2
100
AcDbLine
 10
172.5818320371808
 20
112.3225122005989
 30
0.0
 11
159.1443320371808
 21
112.3225122005989
 31
0.0
  0
LINE
  5
3C5
330
3C0
100
AcDbEntity
  8
치수문자_일반주서
 62
     0
370
    -2
100
AcDbLine
 10
159.1443320371808
 20
121.7205122005989
 30
0.0
 11
159.1443320371808
 21
115.6245122005989
 31
0.0
  0
SOLID
  5
3C6
330
3C0
100
AcDbEntity
  8
치수문자_일반주서
 62
     0
100
AcDbTrace
 10
159.6946653705141
 20
121.7205122005989
 30
0.0
 11
158.5939987038475
 21
121.7205122005989
 31
0.0
 12
159.1443320371808
 22
125.0225122005989
 32
0.0
 13
159.1443320371808
 23
125.0225122005989
 33
0.0
  0
SOLID
  5
3C7
330
3C0
100
AcDbEntity
  8
치수문자_일반주서
 62
     0
100
AcDbTrace
 10
158.5939987038475
 20
115.6245122005989
 30
0.0
 11
159.6946653705141
 21
115.6245122005989
 31
0.0
 12
159.1443320371808
 22
112.3225122005989
 32
0.0
 13
159.1443320371808
 23
112.3225122005989
 33
0.0
  0
MTEXT
  5
3C8
330
3C0
100
AcDbEntity
  8
치수문자_일반주서
 62
     0
100
AcDbMText
 10
154.7693320371808
 20
118.6725122005989
 30
0.0
 40
3.5
 41
0.0
 71
     2
 72
     1
  1
\A1;%%c12.7 [0.50]
  7
SLDTEXTSTYLE0
 11
-4.475859752819533E-15
 21
1.0
 31
0.0
 73
     1
 44
1.0
  0
POINT
  5
3C9
330
3C0
100
AcDbEntity
  8
Defpoints
 62
     0
100
AcDbPoint
 10
172.6443320371808
 20
125.0225122005989
 30
0.0
  0
POINT
  5
3CA
330
3C0
100
AcDbEntity
  8
Defpoints
 62
     0
100
AcDbPoint
 10
172.6443320371808
 20
112.3225122005989
 30
0.0
  0
POINT
  5
3CB
330
3C0
100
AcDbEntity
  8
Defpoints
 62
     0
100
AcDbPoint
 10
159.1443320371808
 20
112.3225122005989
 30
0.0
  0
ENDBLK
  5
3C2
330
3C0
100
AcDbEntity
  8
0
100
AcDbBlockEnd
  0
BLOCK
  5
3CD
330
3CC
100
AcDbEntity
  8
0
100
AcDbBlockBegin
  2
*D18
 70
     1
 10
0.0
 20
0.0
 30
0.0
  3
*D18
  1
*D20
  0
LINE
  5
3CF
330
3CC
100
AcDbEntity
  8
치수문자_일반주서
 62
     0
370
    -2
100
AcDbLine
 10
52.79999999999997
 20
19.11250000000002
 30
0.0
 11
52.79999999999997
 21
27.15787164837827
 31
0.0
  0
LINE
  5
3D0
330
3CC
100
AcDbEntity
  8
치수문자_일반주서
 62
     0
370
    -2
100
AcDbLine
 10
2.000000000000014
 20
15.93750000000001
 30
0.0
 11
2.000000000000014
 21
27.15787164837827
 31
0.0
  0
LINE
  5
3D1
330
3CC
100
AcDbEntity
  8
치수문자_일반주서
 62
     0
370
    -2
100
AcDbLine
 10
49.49799999999997
 20
27.15787164837827
 30
0.0
 11
5.302000000000014
 21
27.15787164837827
 31
0.0
  0
SOLID
  5
3D2
330
3CC
100
AcDbEntity
  8
치수문자_일반주서
 62
     0
100
AcDbTrace
 10
49.49799999999997
 20
26.60753831504493
 30
0.0
 11
49.49799999999997
 21
27.7082049817116
 31
0.0
 12
52.79999999999997
 22
27.15787164837827
 32
0.0
 13
52.79999999999997
 23
27.15787164837827
 33
0.0
  0
SOLID
  5
3D3
330
3CC
100
AcDbEntity
  8
치수문자_일반주서
 62
     0
100
AcDbTrace
 10
5.302000000000014
 20
27.7082049817116
 30
0.0
 11
5.302000000000014
 21
26.60753831504493
 31
0.0
 12
2.000000000000014
 22
27.15787164837827
 32
0.0
 13
2.000000000000014
 23
27.15787164837827
 33
0.0
  0
MTEXT
  5
3D4
330
3CC
100
AcDbEntity
  8
치수문자_일반주서
 62
     0
100
AcDbMText
 10
30.02869553787464
 20
31.53287164837827
 30
0.0
 40
3.5
 41
0.0
 71
     2
 72
     1
  1
\A1;50.8 [2]
  7
SLDTEXTSTYLE0
 73
     1
 44
1.0
  0
POINT
  5
3D5
330
3CC
100
AcDbEntity
  8
Defpoints
 62
     0
100
AcDbPoint
 10
52.79999999999997
 20
19.05000000000002
 30
0.0
  0
POINT
  5
3D6
330
3CC
100
AcDbEntity
  8
Defpoints
 62
     0
100
AcDbPoint
 10
2.000000000000014
 20
15.87500000000001
 30
0.0
  0
POINT
  5
3D7
330
3CC
100
AcDbEntity
  8
Defpoints
 62
     0
100
AcDbPoint
 10
2.000000000000014
 20
27.15787164837827
 30
0.0
  0
ENDBLK
  5
3CE
330
3CC
100
AcDbEntity
  8
0
100
AcDbBlockEnd
  0
BLOCK
  5
3D9
330
3D8
100
AcDbEntity
  8
0
100
AcDbBlockBegin
  2
*D19
 70
     1
 10
0.0
 20
0.0
 30
0.0
  3
*D19
  1
*D21
  0
LINE
  5
3DB
330
3D8
100
AcDbEntity
  8
0
  6
Continuous
 62
     0
370
    -2
100
AcDbLine
 10
247.8443320371808
 20
125.2779150609543
 30
0.0
 11
247.8443320371808
 21
148.9819694630449
 31
0.0
  0
LINE
  5
3DC
330
3D8
100
AcDbEntity
  8
0
  6
Continuous
 62
     0
370
    -2
100
AcDbLine
 10
171.6443320371808
 20
124.0850122005989
 30
0.0
 11
171.6443320371808
 21
148.9819694630449
 31
0.0
  0
LINE
  5
3DD
330
3D8
100
AcDbEntity
  8
0
  6
Continuous
 62
     0
370
    -2
100
AcDbLine
 10
244.5423320371808
 20
148.9819694630449
 30
0.0
 11
174.9463320371808
 21
148.9819694630449
 31
0.0
  0
SOLID
  5
3DE
330
3D8
100
AcDbEntity
  8
0
 62
     0
100
AcDbTrace
 10
244.5423320371808
 20
148.4316361297116
 30
0.0
 11
244.5423320371808
 21
149.5323027963782
 31
0.0
 12
247.8443320371808
 22
148.9819694630449
 32
0.0
 13
247.8443320371808
 23
148.9819694630449
 33
0.0
  0
SOLID
  5
3DF
330
3D8
100
AcDbEntity
  8
0
 62
     0
100
AcDbTrace
 10
174.9463320371808
 20
149.5323027963782
 30
0.0
 11
174.9463320371808
 21
148.4316361297116
 31
0.0
 12
171.6443320371808
 22
148.9819694630449
 32
0.0
 13
171.6443320371808
 23
148.9819694630449
 33
0.0
  0
MTEXT
  5
3E0
330
3D8
100
AcDbEntity
  8
0
 62
     0
370
    15
100
AcDbMText
 10
209.7443320371808
 20
153.3569694630449
 30
0.0
 40
3.5
 41
0.0
 71
     2
 72
     1
  1
\A1;76.20 [3.00]
  7
SLDTEXTSTYLE0
 73
     1
 44
1.0
  0
POINT
  5
3E1
330
3D8
100
AcDbEntity
  8
Defpoints
 62
     0
100
AcDbPoint
 10
247.8443320371808
 20
125.2154150609543
 30
0.0
  0
POINT
  5
3E2
330
3D8
100
AcDbEntity
  8
Defpoints
 62
     0
100
AcDbPoint
 10
171.6443320371808
 20
124.0225122005989
 30
0.0
  0
POINT
  5
3E3
330
3D8
100
AcDbEntity
  8
Defpoints
 62
     0
100
AcDbPoint
 10
171.6443320371808
 20
148.9819694630449
 30
0.0
  0
ENDBLK
  5
3DA
330
3D8
100
AcDbEntity
  8
0
100
AcDbBlockEnd
  0
BLOCK
  5
3E5
330
3E4
100
AcDbEntity
  8
0
100
AcDbBlockBegin
  2
*D20
 70
     1
 10
0.0
 20
0.0
 30
0.0
  3
*D20
  1
*D22
  0
LINE
  5
3E7
330
3E4
100
AcDbEntity
  8
치수문자_일반주서
 62
     0
370
    -2
100
AcDbLine
 10
52.86249999999997
 20
-19.04999999999999
 30
0.0
 11
71.80000000000017
 21
-19.04999999999992
 31
0.0
  0
LINE
  5
3E8
330
3E4
100
AcDbEntity
  8
치수문자_일반주서
 62
     0
370
    -2
100
AcDbLine
 10
52.86249999999997
 20
19.05000000000002
 30
0.0
 11
71.80000000000004
 21
19.05000000000009
 31
0.0
  0
LINE
  5
3E9
330
3E4
100
AcDbEntity
  8
치수문자_일반주서
 62
     0
370
    -2
100
AcDbLine
 10
71.80000000000004
 20
19.05000000000009
 30
0.0
 11
71.79999999999993
 21
55.19534697194272
 31
0.0
  0
LINE
  5
3EA
330
3E4
100
AcDbEntity
  8
치수문자_일반주서
 62
     0
370
    -2
100
AcDbLine
 10
71.80000000000015
 20
-15.74799999999992
 30
0.0
 11
71.80000000000005
 21
15.74800000000009
 31
0.0
  0
SOLID
  5
3EB
330
3E4
100
AcDbEntity
  8
치수문자_일반주서
 62
     0
100
AcDbTrace
 10
71.24966666666683
 20
-15.74799999999992
 30
0.0
 11
72.35033333333348
 21
-15.74799999999992
 31
0.0
 12
71.80000000000017
 22
-19.04999999999992
 32
0.0
 13
71.80000000000017
 23
-19.04999999999992
 33
0.0
  0
SOLID
  5
3EC
330
3E4
100
AcDbEntity
  8
치수문자_일반주서
 62
     0
100
AcDbTrace
 10
72.35033333333338
 20
15.74800000000009
 30
0.0
 11
71.24966666666673
 21
15.74800000000009
 31
0.0
 12
71.80000000000004
 22
19.05000000000009
 32
0.0
 13
71.80000000000004
 23
19.05000000000009
 33
0.0
  0
MTEXT
  5
3ED
330
3E4
100
AcDbEntity
  8
치수문자_일반주서
 62
     0
100
AcDbMText
 10
67.42499999999997
 20
40.7578469719427
 30
0.0
 40
3.5
 41
0.0
 71
     2
 72
     1
  1
\A1;%%c38.1 [1 1/2]
  7
SLDTEXTSTYLE0
 11
-3.356894814614646E-15
 21
1.0
 31
0.0
 73
     1
 44
1.0
  0
POINT
  5
3EE
330
3E4
100
AcDbEntity
  8
Defpoints
 62
     0
100
AcDbPoint
 10
52.79999999999997
 20
-19.04999999999999
 30
0.0
  0
POINT
  5
3EF
330
3E4
100
AcDbEntity
  8
Defpoints
 62
     0
100
AcDbPoint
 10
52.79999999999997
 20
19.05000000000002
 30
0.0
  0
POINT
  5
3F0
330
3E4
100
AcDbEntity
  8
Defpoints
 62
     0
100
AcDbPoint
 10
71.80000000000004
 20
19.05000000000009
 30
0.0
  0
ENDBLK
  5
3E6
330
3E4
100
AcDbEntity
  8
0
100
AcDbBlockEnd
  0
BLOCK
  5
3FC
330
3FB
100
AcDbEntity
  8
0
100
AcDbBlockBegin
  2
*D21
 70
     1
 10
0.0
 20
0.0
 30
0.0
  3
*D21
  1
*D23
  0
LINE
  5
3FE
330
3FB
100
AcDbEntity
  8
치수문자_일반주서
 62
     0
370
    -2
100
AcDbLine
 10
-60.56250000000003
 20
15.87500000000002
 30
0.0
 11
-74.00000000000009
 21
15.87499999999997
 31
0.0
  0
LINE
  5
3FF
330
3FB
100
AcDbEntity
  8
치수문자_일반주서
 62
     0
370
    -2
100
AcDbLine
 10
-60.56250000000003
 20
-15.87499999999999
 30
0.0
 11
-73.99999999999997
 21
-15.87500000000004
 31
0.0
  0
LINE
  5
400
330
3FB
100
AcDbEntity
  8
치수문자_일반주서
 62
     0
370
    -2
100
AcDbLine
 10
-74.00000000000007
 20
12.57299999999997
 30
0.0
 11
-73.99999999999999
 21
-12.57300000000004
 31
0.0
  0
SOLID
  5
401
330
3FB
100
AcDbEntity
  8
치수문자_일반주서
 62
     0
100
AcDbTrace
 10
-73.44966666666674
 20
12.57299999999997
 30
0.0
 11
-74.5503333333334
 21
12.57299999999997
 31
0.0
 12
-74.00000000000009
 22
15.87499999999997
 32
0.0
 13
-74.00000000000009
 23
15.87499999999997
 33
0.0
  0
SOLID
  5
402
330
3FB
100
AcDbEntity
  8
치수문자_일반주서
 62
     0
100
AcDbTrace
 10
-74.55033333333331
 20
-12.57300000000004
 30
0.0
 11
-73.44966666666666
 21
-12.57300000000004
 31
0.0
 12
-73.99999999999997
 22
-15.87500000000004
 32
0.0
 13
-73.99999999999997
 23
-15.87500000000004
 33
0.0
  0
MTEXT
  5
403
330
3FB
100
AcDbEntity
  8
치수문자_일반주서
 62
     0
100
AcDbMText
 10
-78.37500000000003
 20
0.0000000000000059
 30
0.0
 40
3.5
 41
0.0
 71
     2
 72
     1
  1
\A1;%%c31.75 [1 1/4]
  7
SLDTEXTSTYLE0
 11
-3.580687802255621E-15
 21
1.0
 31
0.0
 73
     1
 44
1.0
  0
POINT
  5
404
330
3FB
100
AcDbEntity
  8
Defpoints
 62
     0
100
AcDbPoint
 10
-60.50000000000003
 20
15.87500000000002
 30
0.0
  0
POINT
  5
405
330
3FB
100
AcDbEntity
  8
Defpoints
 62
     0
100
AcDbPoint
 10
-60.50000000000003
 20
-15.87499999999999
 30
0.0
  0
POINT
  5
406
330
3FB
100
AcDbEntity
  8
Defpoints
 62
     0
100
AcDbPoint
 10
-73.99999999999997
 20
-15.87500000000004
 30
0.0
  0
ENDBLK
  5
3FD
330
3FB
100
AcDbEntity
  8
0
100
AcDbBlockEnd
  0
BLOCK
  5
408
330
407
100
AcDbEntity
  8
0
100
AcDbBlockBegin
  2
*D22
 70
     1
 10
0.0
 20
0.0
 30
0.0
  3
*D22
  1
*D24
  0
LINE
  5
40A
330
407
100
AcDbEntity
  8
치수문자_일반주서
 62
     0
370
    -2
100
AcDbLine
 10
52.79999999999997
 20
19.11250000000002
 30
0.0
 11
52.79999999999997
 21
45.58996586444055
 31
0.0
  0
LINE
  5
40B
330
407
100
AcDbEntity
  8
치수문자_일반주서
 62
     0
370
    -2
100
AcDbLine
 10
-61.50000000000003
 20
14.93749999999999
 30
0.0
 11
-61.50000000000003
 21
45.58996586444055
 31
0.0
  0
LINE
  5
40C
330
407
100
AcDbEntity
  8
치수문자_일반주서
 62
     0
370
    -2
100
AcDbLine
 10
49.49799999999997
 20
45.58996586444055
 30
0.0
 11
-58.19800000000003
 21
45.58996586444055
 31
0.0
  0
SOLID
  5
40D
330
407
100
AcDbEntity
  8
치수문자_일반주서
 62
     0
100
AcDbTrace
 10
49.49799999999997
 20
45.03963253110722
 30
0.0
 11
49.49799999999997
 21
46.14029919777388
 31
0.0
 12
52.79999999999997
 22
45.58996586444055
 32
0.0
 13
52.79999999999997
 23
45.58996586444055
 33
0.0
  0
SOLID
  5
40E
330
407
100
AcDbEntity
  8
치수문자_일반주서
 62
     0
100
AcDbTrace
 10
-58.19800000000003
 20
46.14029919777388
 30
0.0
 11
-58.19800000000003
 21
45.03963253110722
 31
0.0
 12
-61.50000000000003
 22
45.58996586444055
 32
0.0
 13
-61.50000000000003
 23
45.58996586444055
 33
0.0
  0
MTEXT
  5
40F
330
407
100
AcDbEntity
  8
치수문자_일반주서
 62
     0
100
AcDbMText
 10
-4.350000000000165
 20
49.96496586444055
 30
0.0
 40
3.5
 41
0.0
 71
     2
 72
     1
  1
\A1;114.3 [4 1/2]
  7
SLDTEXTSTYLE0
 73
     1
 44
1.0
  0
POINT
  5
410
330
407
100
AcDbEntity
  8
Defpoints
 62
     0
100
AcDbPoint
 10
52.79999999999997
 20
19.05000000000002
 30
0.0
  0
POINT
  5
411
330
407
100
AcDbEntity
  8
Defpoints
 62
     0
100
AcDbPoint
 10
-61.50000000000003
 20
14.87499999999999
 30
0.0
  0
POINT
  5
412
330
407
100
AcDbEntity
  8
Defpoints
 62
     0
100
AcDbPoint
 10
-61.50000000000003
 20
45.58996586444055
 30
0.0
  0
ENDBLK
  5
409
330
407
100
AcDbEntity
  8
0
100
AcDbBlockEnd
  0
BLOCK
  5
450
330
44F
100
AcDbEntity
  8
0
100
AcDbBlockBegin
  2
*D23
 70
     1
 10
0.0
 20
0.0
 30
0.0
  3
*D23
  1
*D26
  0
LINE
  5
452
330
44F
100
AcDbEntity
  8
0
 62
     0
370
    -2
100
AcDbLine
 10
-65.41646942134602
 20
-0.189457228315008
 30
0.0
 11
-41.37246157525173
 21
-0.1894572283150106
 31
0.0
  0
LINE
  5
453
330
44F
100
AcDbEntity
  8
0
 62
     0
370
    -2
100
AcDbLine
 10
-47.32947277478223
 20
15.68554277168501
 30
0.0
 11
-41.37246157525173
 21
15.68554277168501
 31
0.0
  0
LINE
  5
454
330
44F
100
AcDbEntity
  8
0
 62
     0
370
    -2
100
AcDbLine
 10
-42.37246157525173
 20
18.98754277168501
 30
0.0
 11
-27.43179490858505
 21
18.98754277168501
 31
0.0
  0
LINE
  5
455
330
44F
100
AcDbEntity
  8
0
 62
     0
370
    -2
100
AcDbLine
 10
-42.37246157525173
 20
3.11254277168499
 30
0.0
 11
-42.37246157525173
 21
12.38354277168501
 31
0.0
  0
LINE
  5
456
330
44F
100
AcDbEntity
  8
0
 62
     0
370
    -2
100
AcDbLine
 10
-42.37246157525173
 20
15.68554277168501
 30
0.0
 11
-42.37246157525173
 21
18.98754277168501
 31
0.0
  0
SOLID
  5
457
330
44F
100
AcDbEntity
  8
0
 62
     0
100
AcDbTrace
 10
-42.92279490858506
 20
3.11254277168499
 30
0.0
 11
-41.82212824191839
 21
3.11254277168499
 31
0.0
 12
-42.37246157525173
 22
-0.1894572283150104
 32
0.0
 13
-42.37246157525173
 23
-0.1894572283150104
 33
0.0
  0
SOLID
  5
458
330
44F
100
AcDbEntity
  8
0
 62
     0
100
AcDbTrace
 10
-41.82212824191839
 20
12.38354277168501
 30
0.0
 11
-42.92279490858506
 21
12.38354277168501
 31
0.0
 12
-42.37246157525173
 22
15.68554277168501
 32
0.0
 13
-42.37246157525173
 23
15.68554277168501
 33
0.0
  0
MTEXT
  5
459
330
44F
100
AcDbEntity
  8
0
 62
     0
100
AcDbMText
 10
-34.14012824191839
 20
22.55320943835167
 30
0.0
 40
3.5
 41
0.0
 71
     5
 72
     1
  1
15,88
 73
     1
 44
1.0
  0
POINT
  5
45A
330
44F
100
AcDbEntity
  8
Defpoints
 62
     0
100
AcDbPoint
 10
-66.41646942134602
 20
-0.1894572283150079
 30
0.0
  0
POINT
  5
45B
330
44F
100
AcDbEntity
  8
Defpoints
 62
     0
100
AcDbPoint
 10
-48.32947277478223
 20
15.68554277168501
 30
0.0
  0
POINT
  5
45C
330
44F
100
AcDbEntity
  8
Defpoints
 62
     0
100
AcDbPoint
 10
-42.37246157525173
 20
15.68554277168501
 30
0.0
  0
ENDBLK
  5
451
330
44F
100
AcDbEntity
  8
0
100
AcDbBlockEnd
  0
ENDSEC
  0
SECTION
  2
ENTITIES
  0
LINE
  5
CA
330
1F
100
AcDbEntity
  8
참조1
100
AcDbLine
 10
8.499261314031163
 20
0.0010749287238892
 30
0.0
 11
8.499261314031168
 21
-39.99892507127611
 31
0.0
  0
LINE
  5
CB
330
1F
100
AcDbEntity
  8
참조1
100
AcDbLine
 10
8.499261314031168
 20
-39.99892507127611
 30
0.0
 11
-20.15080122126847
 21
-39.9989250712761
 31
0.0
  0
LINE
  5
122
330
1F
100
AcDbEntity
  8
참조1
100
AcDbLine
 10
77.82153940838579
 20
7.441074928723896
 30
0.0
 11
77.82153940838579
 21
-7.438925071276109
 31
0.0
  0
LINE
  5
123
330
1F
100
AcDbEntity
  8
참조1
100
AcDbLine
 10
90.52153940838579
 20
5.441074928723896
 30
0.0
 11
77.82153940838579
 21
5.441074928723896
 31
0.0
  0
SOLID
  5
124
330
1F
100
AcDbEntity
  8
참조1
100
AcDbTrace
 10
77.82153940838579
 20
5.441074928723896
 30
0.0
 11
84.17153940838578
 21
4.425074928723896
 31
0.0
 12
84.17153940838578
 22
6.457074928723896
 32
0.0
 13
84.17153940838578
 23
6.457074928723896
 33
0.0
  0
LINE
  5
125
330
1F
100
AcDbEntity
  8
참조1
100
AcDbLine
 10
90.52153940838579
 20
-5.438925071276109
 30
0.0
 11
77.82153940838579
 21
-5.438925071276109
 31
0.0
  0
SOLID
  5
126
330
1F
100
AcDbEntity
  8
참조1
100
AcDbTrace
 10
77.82153940838579
 20
-5.438925071276109
 30
0.0
 11
84.17153940838578
 21
-6.454925071276109
 31
0.0
 12
84.17153940838578
 22
-4.422925071276109
 32
0.0
 13
84.17153940838578
 23
-4.422925071276109
 33
0.0
  0
MTEXT
  5
127
330
1F
100
AcDbEntity
  8
참조1
100
AcDbMText
 10
87.20588954101179
 20
11.01136670591222
 30
0.0
 40
3.5
 41
0.0
 71
     1
 72
     1
  1
A
  7
SLDTEXTSTYLE0
 73
     1
 44
1.0
  0
MTEXT
  5
128
330
1F
100
AcDbEntity
  8
참조1
100
AcDbMText
 10
87.20588954101179
 20
0.1313667059122192
 30
0.0
 40
3.5
 41
0.0
 71
     1
 72
     1
  1
A
  7
SLDTEXTSTYLE0
 73
     1
 44
1.0
  0
SPLINE
  5
394
330
1F
100
AcDbEntity
  8
0
  6
Continuous
 62
     1
370
    15
100
AcDbSpline
210
0.0
220
0.0
230
1.0
 70
     8
 71
     3
 72
    11
 73
     7
 74
     0
 42
0.000000001
 43
0.00000001
 40
0.0
 40
0.0
 40
0.0
 40
0.0
 40
0.201988089577899
 40
0.4325010622811892
 40
0.6972123914271413
 40
1.0
 40
1.0
 40
1.0
 40
1.0
 10
3.445647084671421
 20
4.881555460447139
 30
0.0
 10
3.360850929394942
 20
4.921310660891244
 30
0.0
 10
3.179283653269593
 20
5.006435315811295
 30
0.0
 10
2.842922040008162
 20
5.165651956545851
 30
0.0
 10
2.445339971144548
 20
5.355919134714249
 30
0.0
 10
2.15494141031725
 20
5.496662359817556
 30
0.0
 10
1.999999999996092
 20
5.571755548050071
 30
0.0
  0
SPLINE
  5
395
330
1F
100
AcDbEntity
  8
0
  6
Continuous
 62
     1
370
    15
100
AcDbSpline
210
0.0
220
0.0
230
1.0
 70
     8
 71
     3
 72
    57
 73
    53
 74
     0
 42
0.000000001
 43
0.00000001
 40
0.0
 40
0.0
 40
0.0
 40
0.0
 40
0.0291753182732917
 40
0.0558312593696964
 40
0.0804738647479141
 40
0.10379556919852
 40
0.1240298960630506
 40
0.1396595640932324
 40
0.1514473736950439
 40
0.1629657139777074
 40
0.175258358974088
 40
0.1951278356942091
 40
0.2191619418281847
 40
0.247092126633667
 40
0.2774928178767514
 40
0.3079367819921669
 40
0.3310463756101173
 40
0.3520509172218717
 40
0.3704895028710447
 40
0.3861713867940113
 40
0.399907022623575
 40
0.4166065209481027
 40
0.440778697781559
 40
0.4683616025849426
 40
0.496712132384817
 40
0.5209383859836474
 40
0.5468560447953984
 40
0.5719997344864907
 40
0.5995165118666218
 40
0.6300715453647585
 40
0.662234196494735
 40
0.6877756381637681
 40
0.7126002538485186
 40
0.736775345503219
 40
0.7581760380730623
 40
0.7756244095672349
 40
0.7859676316029203
 40
0.7976428932430865
 40
0.8113229071647019
 40
0.8269663619086373
 40
0.844509429981793
 40
0.8639520350062584
 40
0.8825573040660041
 40
0.8985361646562664
 40
0.9132688167991788
 40
0.929607724657002
 40
0.9477375668057949
 40
0.9675298451462309
 40
0.976752152612355
 40
0.9851721899083378
 40
0.9930954353551297
 40
1.0
 40
1.0
 40
1.0
 40
1.0
 10
45.72152575535763
 20
13.02929583754165
 30
0.0
 10
45.44099726659807
 20
13.00513946803796
 30
0.0
 10
44.90416477449601
 20
12.95891270476643
 30
0.0
 10
44.06359881201821
 20
12.89149140838723
 30
0.0
 10
43.24387137670546
 20
12.83363646770727
 30
0.0
 10
42.47470540936719
 20
12.7869737842317
 30
0.0
 10
41.81092860563014
 20
12.74881252893093
 30
0.0
 10
41.27544630857672
 20
12.71943341004295
 30
0.0
 10
40.83988593323637
 20
12.69685370152514
 30
0.0
 10
40.44842405146052
 20
12.67791800336961
 30
0.0
 10
39.9811683556127
 20
12.65700825392836
 30
0.0
 10
39.38940441256081
 20
12.63274934208983
 30
0.0
 10
38.61141195460262
 20
12.60467349107686
 30
0.0
 10
37.71446929717332
 20
12.57815534535946
 30
0.0
 10
36.7467469322515
 20
12.55668308252621
 30
0.0
 10
35.83114792701919
 20
12.54341711130582
 30
0.0
 10
35.01854308059295
 20
12.53713186060771
 30
0.0
 10
34.33705170579135
 20
12.53565214316399
 30
0.0
 10
33.73659953055237
 20
12.53733913908736
 30
0.0
 10
33.21535136479791
 20
12.54105490096993
 30
0.0
 10
32.7129582180596
 20
12.54651271647047
 30
0.0
 10
32.11772706804454
 20
12.5552625317788
 30
0.0
 10
31.37138802362439
 20
12.5700728339634
 30
0.0
 10
30.49818842482968
 20
12.59307085924164
 30
0.0
 10
29.62452035900527
 20
12.6222087078767
 30
0.0
 10
28.76924856166842
 20
12.65636855533874
 30
0.0
 10
27.94910099205744
 20
12.69432874990105
 30
0.0
 10
27.09260008455841
 20
12.73937154863933
 30
0.0
 10
26.18601939666785
 20
12.79285969822275
 30
0.0
 10
25.20022685222888
 20
12.85802889832593
 30
0.0
 10
24.24978968733292
 20
12.92810162944489
 30
0.0
 10
23.36627026839581
 20
12.99910080806246
 30
0.0
 10
22.55420957381311
 20
13.069463806753
 30
0.0
 10
21.77797196527321
 20
13.14136713735162
 30
0.0
 10
21.08288237376699
 20
13.20937541395683
 30
0.0
 10
20.5425731248548
 20
13.26463590528943
 30
0.0
 10
20.11238921471501
 20
13.31001509769136
 30
0.0
 10
19.72368841268703
 20
13.3520050064652
 30
0.0
 10
19.27719144344199
 20
13.4015489791737
 30
0.0
 10
18.76762933920703
 20
13.45981102148119
 30
0.0
 10
18.19711343294109
 20
13.52726099706155
 30
0.0
 10
17.59798502430898
 20
13.60047908758848
 30
0.0
 10
17.00827329839548
 20
13.67495733063578
 30
0.0
 10
16.45911583502085
 20
13.74651737260474
 30
0.0
 10
15.93385723007317
 20
13.81619270934105
 30
0.0
 10
15.38900953563144
 20
13.88872900430466
 30
0.0
 10
14.79190743327827
 20
13.96808013943235
 30
0.0
 10
14.28467395566345
 20
14.03284144482274
 30
0.0
 10
13.86830435757993
 20
14.08829865382319
 30
0.0
 10
13.58309575025721
 20
14.12913989788752
 30
0.0
 10
13.32990548626687
 20
14.16822687758324
 30
0.0
 10
13.18820488937997
 20
14.19242811205664
 30
0.0
 10
13.12222205540964
 20
14.20369740852556
 30
0.0
  0
SPLINE
  5
396
330
1F
100
AcDbEntity
  8
0
  6
Continuous
 62
     1
370
    15
100
AcDbSpline
210
0.0
220
0.0
230
1.0
 70
     8
 71
     3
 72
    11
 73
     7
 74
     0
 42
0.000000001
 43
0.00000001
 40
0.0
 40
0.0
 40
0.0
 40
0.0
 40
0.1565659401894051
 40
0.4110172688113488
 40
0.6902283055814449
 40
0.9999999999999999
 40
0.9999999999999999
 40
0.9999999999999999
 40
0.9999999999999999
 10
13.02734100818874
 20
14.22047690990855
 30
0.0
 10
12.98153075584806
 20
14.22866721926381
 30
0.0
 10
12.86126957530114
 20
14.25016843835295
 30
0.0
 10
12.70709502212465
 20
14.27990170297151
 30
0.0
 10
12.55432008350878
 20
14.30934457426071
 30
0.0
 10
12.48152637373944
 20
14.3216735629894
 30
0.0
 10
12.44324098840606
 20
14.32815791563116
 30
0.0
  0
SPLINE
  5
397
330
1F
100
AcDbEntity
  8
0
  6
Continuous
 62
     1
370
    15
100
AcDbSpline
210
0.0
220
0.0
230
1.0
 70
     8
 71
     3
 72
    33
 73
    29
 74
     0
 42
0.000000001
 43
0.00000001
 40
0.0
 40
0.0
 40
0.0
 40
0.0
 40
0.0233018480844208
 40
0.0443048424818082
 40
0.0634453459923426
 40
0.0813148114784518
 40
0.0986505660792888
 40
0.1162834915848154
 40
0.1350220112217334
 40
0.1555459570756187
 40
0.1995930299446911
 40
0.2399404050419853
 40
0.2763021140193195
 40
0.3090891530519019
 40
0.3475508527486351
 40
0.3927901079604548
 40
0.4384911087485263
 40
0.4792757273422297
 40
0.5151407935932237
 40
0.545892699893869
 40
0.5715317744522235
 40
0.6094288414580146
 40
0.6570241617176498
 40
0.7127321485514504
 40
0.7705010345518667
 40
0.8556792953170859
 40
0.9388461277385094
 40
1.0
 40
1.0
 40
1.0
 40
1.0
 10
12.44324098840606
 20
-14.32815791563117
 30
0.0
 10
12.48163460417958
 20
-14.32166125780819
 30
0.0
 10
12.55463409730949
 20
-14.30930887268999
 30
0.0
 10
12.70602282528647
 20
-14.28002360560769
 30
0.0
 10
12.88289533004384
 20
-14.24627769103413
 30
0.0
 10
13.08849076804354
 20
-14.20894845095312
 30
0.0
 10
13.32208694901676
 20
-14.16956672222995
 30
0.0
 10
13.58257215897989
 20
-14.12918254600958
 30
0.0
 10
13.86845994201555
 20
-14.08828598127004
 30
0.0
 10
14.2845732376838
 20
-14.03284964674366
 30
0.0
 10
14.79193987035701
 20
-13.96807751298808
 30
0.0
 10
15.38900017975807
 20
-13.88872971668747
 30
0.0
 10
15.93386536840673
 20
-13.81619220496111
 30
0.0
 10
16.47364592640669
 20
-13.74458818216421
 30
0.0
 10
17.05657527353226
 20
-13.66869534624339
 30
0.0
 10
17.68897780189498
 20
-13.58915416523957
 30
0.0
 10
18.32766360888981
 20
-13.51155537266347
 30
0.0
 10
18.92398251654687
 20
-13.44168908912457
 30
0.0
 10
19.44928045023245
 20
-13.38224817772501
 30
0.0
 10
19.90077020923302
 20
-13.33272086801372
 30
0.0
 10
20.36182097123442
 20
-13.28349245021267
 30
0.0
 10
20.90903395847481
 20
-13.22686889931401
 30
0.0
 10
21.60802478870444
 20
-13.15762598374705
 30
0.0
 10
22.40732659722205
 20
-13.08264700349775
 30
0.0
 10
23.38205932708071
 20
-12.99720764741685
 30
0.0
 10
24.46593773333397
 20
-12.91109927553614
 30
0.0
 10
25.58582918282694
 20
-12.83083546112496
 30
0.0
 10
26.29318562155099
 20
-12.78800231522978
 30
0.0
 10
26.59291798075829
 20
-12.76985237105935
 30
0.0
  0
SPLINE
  5
398
330
1F
100
AcDbEntity
  8
0
  6
Continuous
 62
     1
370
    15
100
AcDbSpline
210
0.0
220
0.0
230
1.0
 70
     8
 71
     3
 72
    41
 73
    37
 74
     0
 42
0.000000001
 43
0.00000001
 40
0.0
 40
0.0
 40
0.0
 40
0.0
 40
0.0624999999999998
 40
0.0624999999999998
 40
0.1249999999999996
 40
0.1249999999999996
 40
0.1874999999999994
 40
0.1874999999999994
 40
0.2499999999999992
 40
0.2499999999999992
 40
0.312499999999999
 40
0.312499999999999
 40
0.3749999999999988
 40
0.3749999999999988
 40
0.4062499999999987
 40
0.4062499999999987
 40
0.4374999999999988
 40
0.4687499999999989
 40
0.4687499999999989
 40
0.4999999999999989
 40
0.4999999999999989
 40
0.562499999999999
 40
0.562499999999999
 40
0.6249999999999991
 40
0.6249999999999991
 40
0.6874999999999993
 40
0.6874999999999993
 40
0.7499999999999994
 40
0.7499999999999994
 40
0.8124999999999996
 40
0.8124999999999996
 40
0.8749999999999997
 40
0.8749999999999997
 40
0.9374999999999999
 40
0.9374999999999999
 40
1.0
 40
1.0
 40
1.0
 40
1.0
 10
52.79999999999997
 20
-18.07732355886768
 30
0.0
 10
51.74460127226565
 20
-17.8847471875118
 30
0.0
 10
50.68349178715017
 20
-17.66391313359841
 30
0.0
 10
48.56454249476776
 20
-17.16857864405529
 30
0.0
 10
47.51008589129403
 20
-16.89443874811439
 30
0.0
 10
45.39202927456337
 20
-16.29411825105318
 30
0.0
 10
44.33055926043484
 20
-15.96804908120617
 30
0.0
 10
42.21744357713881
 20
-15.26872798034086
 30
0.0
 10
41.1589545758343
 20
-14.89475612515053
 30
0.0
 10
39.03946422080607
 20
-14.10166628278647
 30
0.0
 10
37.98436357644847
 20
-13.68332695774529
 30
0.0
 10
35.86755075457741
 20
-12.80489168042285
 30
0.0
 10
34.80589712018896
 20
-12.34473941721659
 30
0.0
 10
33.21958297983367
 20
-11.62791674962599
 30
0.0
 10
32.69233816750035
 20
-11.38463497748443
 30
0.0
 10
31.63430843646854
 20
-10.88893708750492
 30
0.0
 10
30.5744543487467
 20
-10.38435759413131
 30
0.0
 10
29.5146296416665
 20
-9.863738585416534
 30
0.0
 10
28.45665991894846
 20
-9.336017968169749
 30
0.0
 10
27.92942874466742
 20
-9.068750708197946
 30
0.0
 10
26.34301479811369
 20
-8.255977173475294
 30
0.0
 10
25.28135455448553
 20
-7.699835838194751
 30
0.0
 10
23.16464867436373
 20
-6.566660582836114
 30
0.0
 10
22.10947410806789
 20
-5.989640120034885
 30
0.0
 10
19.98995746972652
 20
-4.817228639557491
 30
0.0
 10
18.93163840039371
 20
-4.222937405493646
 30
0.0
 10
16.81836358245467
 20
-3.023810367529641
 30
0.0
 10
15.75687374428848
 20
-2.417732351723792
 30
0.0
 10
13.63889787702807
 20
-1.200928911431099
 30
0.0
 10
12.58441543117301
 20
-0.5905994647886459
 30
0.0
 10
10.46541358671176
 20
0.6319262649388051
 30
0.0
 10
9.404521911080693
 20
1.243421263175982
 30
0.0
 10
7.293539349015632
 20
2.458626786797772
 30
0.0
 10
6.232396836104456
 20
3.06445384125113
 30
0.0
 10
4.113502056257929
 20
4.264130787958386
 30
0.0
 10
3.059067704244754
 20
4.857371264693846
 30
0.0
 10
1.999999999996092
 20
5.443071991737604
 30
0.0
  0
SPLINE
  5
399
330
1F
100
AcDbEntity
  8
외형선
  6
Continuous
370
    15
100
AcDbSpline
210
0.0
220
0.0
230
1.0
 70
    24
 71
     3
 72
    11
 73
     7
 74
     0
 42
0.000000001
 43
0.00000001
 40
0.0
 40
0.0
 40
0.0
 40
0.0
 40
0.2166924987781741
 40
0.5269170699572284
 40
0.837554685949067
 40
1.0
 40
1.0
 40
1.0
 40
1.0
 10
1.999999999999986
 20
5.569665989955915
 30
0.0
 10
1.999999999999986
 20
5.569501261684543
 30
0.0
 10
1.999999999999986
 20
5.569100702650054
 30
0.0
 10
1.999999999999986
 20
5.540125250455908
 30
0.0
 10
1.999999999999986
 20
5.495437461639348
 30
0.0
 10
1.999999999999986
 20
5.456456959727454
 30
0.0
 10
1.999999999999986
 20
5.443071991738073
 30
0.0
  0
SPLINE
  5
39A
330
1F
100
AcDbEntity
  8
0
  6
Continuous
 62
     1
370
    15
100
AcDbSpline
210
0.0
220
0.0
230
1.0
 70
     8
 71
     3
 72
    22
 73
    18
 74
     0
 42
0.000000001
 43
0.00000001
 40
0.0
 40
0.0
 40
0.0
 40
0.0
 40
0.0681906794313742
 40
0.1363275286152997
 40
0.2045047544506661
 40
0.272707786934301
 40
0.3408465624136521
 40
0.4090122521989222
 40
0.4772235191566214
 40
0.5453661468091021
 40
0.6144402436200561
 40
0.6835742280292384
 40
0.7526452615171876
 40
0.821708569663668
 40
0.8908384747307218
 40
0.9599239439608286
 40
0.9999999999999999
 40
0.9999999999999999
 40
0.9999999999999999
 40
0.9999999999999999
 10
52.79999999999997
 20
-15.02992163621452
 30
0.0
 10
51.67773696311174
 20
-14.8100341041413
 30
0.0
 10
49.43409681241862
 20
-14.37043262090594
 30
0.0
 10
46.06914073409122
 20
-13.51905375682016
 30
0.0
 10
42.70344861216866
 20
-12.53879210837245
 30
0.0
 10
39.33735189946164
 20
-11.42576987114136
 30
0.0
 10
35.9723341498982
 20
-10.19356550675413
 30
0.0
 10
32.60682575261167
 20
-8.855589221642212
 30
0.0
 10
29.24059985631227
 20
-7.426777768052311
 30
0.0
 10
25.86039315143593
 20
-5.912330898592408
 30
0.0
 10
22.46480939980172
 20
-4.328861171607905
 30
0.0
 10
19.05311996293166
 20
-2.693662638907888
 30
0.0
 10
15.64248314882356
 20
-1.028217700956567
 30
0.0
 10
12.23201129821554
 20
0.6490124676640434
 30
0.0
 10
8.820375828828233
 20
2.315199601624933
 30
0.0
 10
5.886427672278543
 20
3.735843102965951
 30
0.0
 10
4.090149410778466
 20
4.574535399515661
 30
0.0
 10
3.430688597160795
 20
4.882441315938458
 30
0.0
  0
LINE
  5
39B
330
1F
100
AcDbEntity
  8
0
  6
Continuous
 62
     1
370
    15
100
AcDbLine
 10
52.79999999999968
 20
-18.0773235588677
 30
0.0
 11
52.79999999999997
 21
-15.02992163621452
 31
0.0
  0
SPLINE
  5
39C
330
1F
100
AcDbEntity
  8
0
  6
Continuous
 62
     1
370
    15
100
AcDbSpline
210
0.0
220
0.0
230
1.0
 70
     8
 71
     3
 72
    41
 73
    37
 74
     0
 42
0.000000001
 43
0.00000001
 40
0.0
 40
0.0
 40
0.0
 40
0.0
 40
0.0624999999999998
 40
0.0624999999999998
 40
0.1249999999999997
 40
0.1249999999999997
 40
0.1874999999999994
 40
0.1874999999999994
 40
0.2499999999999993
 40
0.2499999999999993
 40
0.3124999999999991
 40
0.3124999999999991
 40
0.3749999999999989
 40
0.3749999999999989
 40
0.4374999999999988
 40
0.4374999999999988
 40
0.4999999999999986
 40
0.4999999999999986
 40
0.5312499999999984
 40
0.5312499999999984
 40
0.5624999999999984
 40
0.5937499999999984
 40
0.5937499999999984
 40
0.6249999999999984
 40
0.6249999999999984
 40
0.6874999999999987
 40
0.6874999999999987
 40
0.7499999999999989
 40
0.7499999999999989
 40
0.8124999999999992
 40
0.8124999999999992
 40
0.8749999999999994
 40
0.8749999999999994
 40
0.9374999999999998
 40
0.9374999999999998
 40
1.0
 40
1.0
 40
1.0
 40
1.0
 10
1.999999999999957
 20
0.1894572283176857
 30
0.0
 10
3.059067704248534
 20
-0.4216924555041359
 30
0.0
 10
4.113502056261652
 20
-1.032243519593045
 30
0.0
 10
6.232396836108038
 20
-2.250203952787039
 30
0.0
 10
7.293539349019127
 20
-2.856965126664953
 30
0.0
 10
9.40452191108399
 20
-4.057671843583584
 30
0.0
 10
10.46541358671503
 20
-4.653709613515169
 30
0.0
 10
12.58441543117608
 20
-5.829052302839763
 30
0.0
 10
13.63889787703106
 20
-6.407710789905543
 30
0.0
 10
15.75687374429133
 20
-7.545124490193167
 30
0.0
 10
16.81836358245742
 20
-8.103480683249153
 30
0.0
 10
18.9316384003963
 20
-9.191806471543039
 30
0.0
 10
19.98995746972902
 20
-9.722915837215417
 30
0.0
 10
22.10947410807022
 20
-10.7539500818795
 30
0.0
 10
23.16464867436598
 20
-11.25292201063422
 30
0.0
 10
25.28135455448763
 20
-12.21564065344329
 30
0.0
 10
26.3430147981157
 20
-12.67934815966108
 30
0.0
 10
27.92942874466929
 20
-13.3436309107257
 30
0.0
 10
28.45665991895031
 20
-13.5597846690258
 30
0.0
 10
29.51462964166826
 20
-13.98194781969332
 30
0.0
 10
30.57445363830364
 20
-14.39372778956061
 30
0.0
 10
31.63430843647014
 20
-14.78327324518755
 30
0.0
 10
32.69233816750189
 20
-15.16104394917368
 30
0.0
 10
33.21958297983515
 20
-15.34395018261721
 30
0.0
 10
34.80589712019029
 20
-15.87524543527081
 30
0.0
 10
35.86755075457866
 20
-16.20590334952043
 30
0.0
 10
37.98436357644961
 20
-16.81551746749428
 30
0.0
 10
39.03946422080709
 20
-17.09454902508559
 30
0.0
 10
41.15895457583515
 20
-17.59980912541253
 30
0.0
 10
42.2174435771396
 20
-17.82551895755619
 30
0.0
 10
44.33055926043552
 20
-18.22107979005425
 30
0.0
 10
45.39202927456394
 20
-18.39131813288279
 30
0.0
 10
47.51008589129442
 20
-18.67421972486868
 30
0.0
 10
48.56454249476811
 20
-18.78688922197134
 30
0.0
 10
50.68349178715029
 20
-18.95427859963603
 30
0.0
 10
51.74460127226577
 20
-19.00880545485602
 30
0.0
 10
52.79999999999997
 20
-19.04999999999999
 30
0.0
  0
LINE
  5
39D
330
1F
100
AcDbEntity
  8
0
  6
Continuous
 62
     1
370
    15
100
AcDbLine
 10
5.481789398392763
 20
-1.81627845859736
 30
0.0
 11
1.999999999999986
 21
-0.4156056390849229
 31
0.0
  0
SPLINE
  5
39E
330
1F
100
AcDbEntity
  8
외형선
  6
Continuous
370
    15
100
AcDbSpline
210
0.0
220
0.0
230
1.0
 70
    24
 71
     3
 72
    10
 73
     6
 74
     0
 42
0.000000001
 43
0.00000001
 40
0.0
 40
0.0
 40
0.0
 40
0.0
 40
0.3122204605145433
 40
0.6553735112284947
 40
0.9999999999999999
 40
0.9999999999999999
 40
0.9999999999999999
 40
0.9999999999999999
 10
1.999999999999986
 20
0.1388660609907718
 30
0.0
 10
1.999999999999986
 20
0.0937556996121956
 30
0.0
 10
1.999999999999986
 20
-0.0009342380067138
 30
0.0
 10
1.999999999999986
 20
-0.1888089921423912
 30
0.0
 10
1.999999999999986
 20
-0.3398988629118875
 30
0.0
 10
1.999999999999986
 20
-0.4156056390849229
 30
0.0
  0
LINE
  5
39F
330
1F
100
AcDbEntity
  8
외형선
  6
Continuous
370
    15
100
AcDbLine
 10
1.999999999999986
 20
0.1894572283149998
 30
0.0
 11
1.999999999999986
 21
5.443071991738073
 31
0.0
  0
LINE
  5
3A0
330
1F
100
AcDbEntity
  8
0
  6
Continuous
 62
     1
370
    15
100
AcDbLine
 10
52.79999999999997
 20
-19.04999999999999
 30
0.0
 11
52.79999999999906
 21
-18.07732355886767
 31
0.0
  0
SPLINE
  5
3A1
330
1F
100
AcDbEntity
  8
0
  6
Continuous
 62
     1
370
    15
100
AcDbSpline
210
0.0
220
0.0
230
1.0
 70
     8
 71
     3
 72
    41
 73
    37
 74
     0
 42
0.000000001
 43
0.00000001
 40
0.0
 40
0.0
 40
0.0
 40
0.0
 40
0.0625000000000004
 40
0.0625000000000004
 40
0.1250000000000007
 40
0.1250000000000007
 40
0.1875000000000011
 40
0.1875000000000011
 40
0.2500000000000014
 40
0.2500000000000014
 40
0.3125000000000018
 40
0.3125000000000018
 40
0.3750000000000022
 40
0.3750000000000022
 40
0.406250000000002
 40
0.406250000000002
 40
0.4375000000000018
 40
0.4687500000000017
 40
0.4687500000000017
 40
0.5000000000000016
 40
0.5000000000000016
 40
0.5625000000000013
 40
0.5625000000000013
 40
0.6250000000000011
 40
0.6250000000000011
 40
0.687500000000001
 40
0.687500000000001
 40
0.7500000000000008
 40
0.7500000000000008
 40
0.8125000000000006
 40
0.8125000000000006
 40
0.8750000000000003
 40
0.8750000000000003
 40
0.9375000000000003
 40
0.9375000000000003
 40
1.0
 40
1.0
 40
1.0
 40
1.0
 10
52.79999999999997
 20
0.0000000000000072
 30
0.0
 10
51.74460127226577
 20
0.4883789605823737
 30
0.0
 10
50.68349178715029
 20
0.9776371919867373
 30
0.0
 10
48.56454249476811
 20
1.951124846964142
 30
0.0
 10
47.51008589129442
 20
2.434841373633994
 30
0.0
 10
45.39202927456394
 20
3.394665554402316
 30
0.0
 10
44.33055926043552
 20
3.870433529465764
 30
0.0
 10
42.2174435771396
 20
4.807113369024258
 30
0.0
 10
41.15895457583515
 20
5.269044133111869
 30
0.0
 10
39.03946422080709
 20
6.175573781430749
 30
0.0
 10
37.98436357644961
 20
6.619344864844699
 30
0.0
 10
35.86755075457872
 20
7.486038315545748
 30
0.0
 10
34.80589712019032
 20
7.908916529050437
 30
0.0
 10
33.21958297983515
 20
8.52314911947456
 30
0.0
 10
32.69233816750189
 20
8.724492471993052
 30
0.0
 10
31.63430843647016
 20
9.12074560997187
 30
0.0
 10
30.57445363830364
 20
9.510339043960762
 30
0.0
 10
29.51462964166826
 20
9.88523495303901
 30
0.0
 10
28.45665991895031
 20
10.25214457196106
 30
0.0
 10
27.92942874466929
 20
10.43151762050258
 30
0.0
 10
26.3430147981157
 20
10.95790194875401
 30
0.0
 10
25.28135455448763
 20
11.29287179318812
 30
0.0
 10
23.16464867436601
 20
11.92623795593
 30
0.0
 10
22.10947410807024
 20
12.22470309876906
 30
0.0
 10
19.98995746972902
 20
12.78384424467826
 30
0.0
 10
18.9316384003963
 20
13.04395667292119
 30
0.0
 10
16.81836358245742
 20
13.5229378314428
 30
0.0
 10
15.75687374429133
 20
13.74226883071248
 30
0.0
 10
13.63889787703106
 20
14.13747858735673
 30
0.0
 10
12.58441543117608
 20
14.31330811139302
 30
0.0
 10
10.46541358671503
 20
14.62082193112548
 30
0.0
 10
9.40452191108399
 20
14.7522534472341
 30
0.0
 10
7.293539349019127
 20
14.96886164454924
 30
0.0
 10
6.232396836108038
 20
15.05441298067129
 30
0.0
 10
4.11350205626168
 20
15.1786520870239
 30
0.0
 10
3.059067704248562
 20
15.21735781213943
 30
0.0
 10
1.999999999999986
 20
15.23259649632764
 30
0.0
  0
SPLINE
  5
3A2
330
1F
100
AcDbEntity
  8
0
  6
Continuous
 62
     1
370
    15
100
AcDbSpline
210
0.0
220
0.0
230
1.0
 70
    24
 71
     3
 72
     8
 73
     4
 74
     0
 42
0.000000001
 43
0.00000001
 40
0.0
 40
0.0
 40
0.0
 40
0.0
 40
1.0
 40
1.0
 40
1.0
 40
1.0
 10
52.79999999999997
 20
-1.552895695127823
 30
0.0
 10
52.79999999999997
 20
-1.034735970232326
 30
0.0
 10
52.79999999999997
 20
-0.5163603393624143
 30
0.0
 10
52.79999999999997
 20
0.0000000000000072
 30
0.0
  0
SPLINE
  5
3A3
330
1F
100
AcDbEntity
  8
0
  6
Continuous
 62
     1
370
    15
100
AcDbSpline
210
0.0
220
0.0
230
1.0
 70
     8
 71
     3
 72
     8
 73
     4
 74
     0
 42
0.000000001
 43
0.00000001
 40
0.0
 40
0.0
 40
0.0
 40
0.0
 40
1.0
 40
1.0
 40
1.0
 40
1.0
 10
52.79999999999997
 20
-1.552895695114209
 30
0.0
 10
52.56298883687118
 20
-2.532228871142159
 30
0.0
 10
52.25453239898413
 20
-3.467935607028089
 30
0.0
 10
51.89060149301493
 20
-4.369768114430919
 30
0.0
  0
SPLINE
  5
3A4
330
1F
100
AcDbEntity
  8
0
  6
Continuous
 62
     1
370
    15
100
AcDbSpline
210
0.0
220
0.0
230
1.0
 70
     8
 71
     3
 72
     8
 73
     4
 74
     0
 42
0.000000001
 43
0.00000001
 40
0.0
 40
0.0
 40
0.0
 40
0.0
 40
1.0
 40
1.0
 40
1.0
 40
1.0
 10
52.79999999999997
 20
-5.09097812186473
 30
0.0
 10
52.49631922057394
 20
-4.852235721554344
 30
0.0
 10
52.19318816052409
 20
-4.611827003481402
 30
0.0
 10
51.89060149301493
 20
-4.369768114430933
 30
0.0
  0
SPLINE
  5
3A5
330
1F
100
AcDbEntity
  8
0
  6
Continuous
 62
     1
370
    15
100
AcDbSpline
210
0.0
220
0.0
230
1.0
 70
    24
 71
     3
 72
    14
 73
    10
 74
     0
 42
0.000000001
 43
0.00000001
 40
0.0
 40
0.0
 40
0.0
 40
0.0
 40
0.2500000000000001
 40
0.2500000000000001
 40
0.5
 40
0.5
 40
0.75
 40
0.75
 40
1.0
 40
1.0
 40
1.0
 40
1.0
 10
52.79999999999997
 20
-15.02992163621452
 30
0.0
 10
52.80000000000003
 20
-14.45384129836851
 30
0.0
 10
52.79999999999997
 20
-13.80325256384739
 30
0.0
 10
52.79999999999997
 20
-12.36422548531383
 30
0.0
 10
52.79999999999997
 20
-11.57581351426878
 30
0.0
 10
52.79999999999997
 20
-9.8835170059699
 30
0.0
 10
52.79999999999997
 20
-8.979726836109002
 30
0.0
 10
52.79999999999997
 20
-7.088517908366718
 30
0.0
 10
52.79999999999997
 20
-6.101242455996392
 30
0.0
 10
52.79999999999997
 20
-5.090978121865341
 30
0.0
  0
SPLINE
  5
3A6
330
1F
100
AcDbEntity
  8
외형선
  6
Continuous
370
    15
100
AcDbSpline
210
0.0
220
0.0
230
1.0
 70
    24
 71
     3
 72
    14
 73
    10
 74
     0
 42
0.000000001
 43
0.00000001
 40
0.0
 40
0.0
 40
0.0
 40
0.0
 40
0.25
 40
0.25
 40
0.5
 40
0.5
 40
0.75
 40
0.75
 40
1.0
 40
1.0
 40
1.0
 40
1.0
 10
2.000000000000014
 20
15.87500000000001
 30
0.0
 10
1.999999999999986
 20
15.01739601979001
 30
0.0
 10
1.999999999999986
 20
14.64254168506125
 30
0.0
 10
1.999999999999986
 20
13.5658347492892
 30
0.0
 10
1.999999999999986
 20
12.86391979242416
 30
0.0
 10
1.999999999999986
 20
11.17225216103856
 30
0.0
 10
1.999999999999986
 20
10.18298798877749
 30
0.0
 10
1.999999999999986
 20
7.997345365842698
 30
0.0
 10
1.999999999999986
 20
6.801777781641484
 30
0.0
 10
1.999999999999986
 20
5.553467347963483
 30
0.0
  0
SPLINE
  5
3A7
330
1F
100
AcDbEntity
  8
0
  6
Continuous
 62
     1
370
    15
100
AcDbSpline
210
0.0
220
0.0
230
1.0
 70
    24
 71
     3
 72
    10
 73
     6
 74
     0
 42
0.000000001
 43
0.00000001
 40
0.0
 40
0.0
 40
0.0
 40
0.0
 40
0.5
 40
0.5
 40
1.0
 40
1.0
 40
1.0
 40
1.0
 10
47.79999999999997
 20
7.736872478995686
 30
0.0
 10
47.79999999999997
 20
8.611736677061195
 30
0.0
 10
47.79999999999997
 20
9.404063859155862
 30
0.0
 10
47.79999999999997
 20
10.77840933395849
 30
0.0
 10
47.79999999999997
 20
11.36022994001369
 30
0.0
 10
47.79999999999997
 20
11.82493140031233
 30
0.0
  0
SPLINE
  5
3A8
330
1F
100
AcDbEntity
  8
0
  6
Continuous
 62
     1
370
    15
100
AcDbSpline
210
0.0
220
0.0
230
1.0
 70
     8
 71
     3
 72
     9
 73
     5
 74
     0
 42
0.000000001
 43
0.00000001
 40
0.0
 40
0.0
 40
0.0
 40
0.0
 40
0.5433879660672599
 40
0.9999999999999999
 40
0.9999999999999999
 40
0.9999999999999999
 40
0.9999999999999999
 10
52.79999999999997
 20
13.33499999999999
 30
0.0
 10
51.51741519326016
 20
13.32111729790473
 30
0.0
 10
49.15706699485879
 20
13.29556888137325
 30
0.0
 10
46.79691308584155
 20
13.10449262126247
 30
0.0
 10
45.71923840905085
 20
13.01724490149704
 30
0.0
  0
SPLINE
  5
3A9
330
1F
100
AcDbEntity
  8
0
  6
Continuous
 62
     1
370
    15
100
AcDbSpline
210
0.0
220
0.0
230
1.0
 70
     8
 71
     3
 72
     8
 73
     4
 74
     0
 42
0.000000001
 43
0.00000001
 40
0.0
 40
0.0
 40
0.0
 40
0.0
 40
1.0
 40
1.0
 40
1.0
 40
1.0
 10
52.79999999999997
 20
13.33499999999999
 30
0.0
 10
51.12460803733099
 20
12.88087558296491
 30
0.0
 10
49.45779836926467
 20
12.37832625699699
 30
0.0
 10
47.79999999999997
 20
11.82493140031279
 30
0.0
  0
SPLINE
  5
3AA
330
1F
100
AcDbEntity
  8
0
  6
Continuous
 62
     1
370
    15
100
AcDbSpline
210
0.0
220
0.0
230
1.0
 70
    24
 71
     3
 72
     8
 73
     4
 74
     0
 42
0.000000001
 43
0.00000001
 40
0.0
 40
0.0
 40
0.0
 40
0.0
 40
1.0
 40
1.0
 40
1.0
 40
1.0
 10
52.79999999999997
 20
0.0000000000000072
 30
0.0
 10
52.79999999999997
 20
0.2105471666334396
 30
0.0
 10
52.79999999999997
 20
0.4207411103080788
 30
0.0
 10
52.79999999999997
 20
0.6303976771146793
 30
0.0
  0
SPLINE
  5
3AB
330
1F
100
AcDbEntity
  8
0
  6
Continuous
 62
     1
370
    15
100
AcDbSpline
210
0.0
220
0.0
230
1.0
 70
     8
 71
     3
 72
    14
 73
    10
 74
     0
 42
0.000000001
 43
0.00000001
 40
0.0
 40
0.0
 40
0.0
 40
0.0
 40
0.5000000000000011
 40
0.5000000000000011
 40
0.6250000000000006
 40
0.6250000000000006
 40
0.7500000000000001
 40
0.7500000000000001
 40
1.0
 40
1.0
 40
1.0
 40
1.0
 10
47.79999999999997
 20
7.736872478995586
 30
0.0
 10
48.83746429987515
 20
6.823668196228972
 30
0.0
 10
49.78699739793241
 20
5.786264797495654
 30
0.0
 10
50.8447705627657
 20
4.307101211976494
 30
0.0
 10
51.04978612613446
 20
4.002032334709746
 30
0.0
 10
51.44587598200765
 20
3.37220312275273
 30
0.0
 10
51.6371895694149
 20
3.046879165154458
 30
0.0
 10
52.18265871848054
 20
2.050711573763103
 30
0.0
 10
52.51055739675009
 20
1.356659252005151
 30
0.0
 10
52.79999999999997
 20
0.6303976771146225
 30
0.0
  0
LINE
  5
3AC
330
1F
100
AcDbEntity
  8
0
  6
Continuous
 62
     1
370
    15
100
AcDbLine
 10
52.79999999999997
 20
-1.578196278789925
 30
0.0
 11
52.79999999999997
 21
-5.09097812186473
 31
0.0
  0
SPLINE
  5
3AD
330
1F
100
AcDbEntity
  8
0
  6
Continuous
 62
     1
370
    15
100
AcDbSpline
210
0.0
220
0.0
230
1.0
 70
     8
 71
     3
 72
    11
 73
     7
 74
     0
 42
0.000000001
 43
0.00000001
 40
0.0
 40
0.0
 40
0.0
 40
0.0
 40
0.0201276760241484
 40
0.3469387328430846
 40
0.6735367817031249
 40
1.0
 40
1.0
 40
1.0
 40
1.0
 10
12.44315065822032
 20
-14.32378966911971
 30
0.0
 10
12.3730892464731
 20
-14.33626325332536
 30
0.0
 10
11.16544771927393
 20
-14.55126917319046
 30
0.0
 10
8.820367682622773
 20
-14.8245003155236
 30
0.0
 10
5.409542564154961
 20
-15.13911188196948
 30
0.0
 10
3.136357748013339
 20
-15.20143924756271
 30
0.0
 10
1.999999999999986
 20
-15.23259649632762
 30
0.0
  0
SPLINE
  5
3AE
330
1F
100
AcDbEntity
  8
외형선
  6
Continuous
370
    15
100
AcDbSpline
210
0.0
220
0.0
230
1.0
 70
    24
 71
     3
 72
    14
 73
    10
 74
     0
 42
0.000000001
 43
0.00000001
 40
0.0
 40
0.0
 40
0.0
 40
0.0
 40
0.25
 40
0.25
 40
0.5
 40
0.5
 40
0.75
 40
0.75
 40
1.0
 40
1.0
 40
1.0
 40
1.0
 10
1.999999999999986
 20
-0.4156056390849229
 30
0.0
 10
1.999999999999986
 20
-2.052456453137857
 30
0.0
 10
1.999999999999986
 20
-3.691554569239152
 30
0.0
 10
1.999999999999986
 20
-6.808986691510107
 30
0.0
 10
1.999999999999986
 20
-8.285492578609457
 30
0.0
 10
1.999999999999986
 20
-10.91889904423603
 30
0.0
 10
1.999999999999986
 20
-12.07439643370031
 30
0.0
 10
1.999999999999986
 20
-13.96868246006175
 30
0.0
 10
1.999999999999986
 20
-14.70736095257819
 30
0.0
 10
1.999999999999986
 20
-15.23259649632762
 30
0.0
  0
LINE
  5
3AF
330
1F
100
AcDbEntity
  8
0
  6
Continuous
 62
     1
370
    15
100
AcDbLine
 10
52.79999999999997
 20
0.6395130170563235
 30
0.0
 11
52.79999999999997
 21
13.33499999999999
 31
0.0
  0
SPLINE
  5
3B0
330
1F
100
AcDbEntity
  8
0
  6
Continuous
 62
     1
370
    15
100
AcDbSpline
210
0.0
220
0.0
230
1.0
 70
    24
 71
     3
 72
    14
 73
    10
 74
     0
 42
0.000000001
 43
0.00000001
 40
0.0
 40
0.0
 40
0.0
 40
0.0
 40
0.25
 40
0.25
 40
0.5
 40
0.5
 40
0.75
 40
0.75
 40
1.0
 40
1.0
 40
1.0
 40
1.0
 10
52.79999999999997
 20
13.33499999999999
 30
0.0
 10
52.79999999999997
 20
13.73916724608967
 30
0.0
 10
52.79999999999997
 20
14.17509742113075
 30
0.0
 10
52.79999999999997
 20
15.09325330177683
 30
0.0
 10
52.79999999999997
 20
15.575387478015
 30
0.0
 10
52.79999999999997
 20
16.56077437020787
 30
0.0
 10
52.79999999999997
 20
17.06386132050915
 30
0.0
 10
52.79999999999997
 20
18.06200198620702
 30
0.0
 10
52.79999999999997
 20
18.55687409107137
 30
0.0
 10
52.79999999999997
 20
19.05000000000002
 30
0.0
  0
SPLINE
  5
3B1
330
1F
100
AcDbEntity
  8
0
  6
Continuous
 62
     1
370
    15
100
AcDbSpline
210
0.0
220
0.0
230
1.0
 70
     8
 71
     3
 72
    19
 73
    15
 74
     0
 42
0.000000001
 43
0.00000001
 40
0.0
 40
0.0
 40
0.0
 40
0.0
 40
0.0473172449995591
 40
0.1521411955578401
 40
0.25719267336039
 40
0.3625180121489314
 40
0.4414150776424988
 40
0.5205265791443351
 40
0.5997162819205218
 40
0.6793583567672106
 40
0.7590801910574823
 40
0.8392587629219437
 40
0.9195186581205738
 40
1.0
 40
1.0
 40
1.0
 40
1.0
 10
26.5932584818665
 20
12.76984193137128
 30
0.0
 10
27.00665348463833
 20
12.94917617660941
 30
0.0
 10
28.33586041458379
 20
13.52579737412936
 30
0.0
 10
30.58244671389845
 20
14.4047315346245
 30
0.0
 10
33.33570703704264
 20
15.40051084356856
 30
0.0
 10
35.86329281640833
 20
16.21053469423595
 30
0.0
 10
38.16320987618714
 20
16.86683919060099
 30
0.0
 10
40.23522223906072
 20
17.39097096937483
 30
0.0
 10
42.31439078709333
 20
17.84766360377589
 30
0.0
 10
44.39726211475785
 20
18.23522266833968
 30
0.0
 10
46.49090382980445
 20
18.55058834945371
 30
0.0
 10
48.58773779130594
 20
18.79130856052974
 30
0.0
 10
50.69305307574696
 20
18.96139426429819
 30
0.0
 10
52.09703962014886
 20
19.00970872122682
 30
0.0
 10
52.79999999999997
 20
19.05000000000002
 30
0.0
  0
INSERT
  5
3B4
330
1F
100
AcDbEntity
  8
0
  6
Continuous
 62
     7
100
AcDbBlockReference
 66
     1
  2
블럭10
 10
-11.94027293212524
 20
-52.04717430164393
 30
0.0
  0
ATTRIB
  5
3B5
330
3B4
100
AcDbEntity
  8
FORMAT
 62
     2
100
AcDbText
 10
-21.12156822086651
 20
-49.97180738881175
 30
0.0
 40
4.233333333333333
  1
E1070132 [ 2 FLUTE ]
 41
0.75
  7
SLDTEXTSTYLE0
 11
-21.12156822086651
 21
-52.08847405547842
 31
0.0
100
AcDbAttribute
  2
AUTOATTR0
 70
     0
 74
     1
  0
SEQEND
  5
3B6
330
3B4
100
AcDbEntity
  8
0
  6
Continuous
 62
     7
  0
HATCH
  5
3B7
330
1F
100
AcDbEntity
  8
중심선
100
AcDbHatch
 10
0.0
 20
0.0
 30
0.0
210
0.0
220
0.0
230
1.0
  2
SOLID
 70
     1
 71
     0
 91
        1
 92
        0
 93
        4
 72
     1
 10
-6.225363627744386
 20
-35.8
 11
-9.67163887158167
 21
-35.8
 72
     1
 10
-9.671638871581663
 20
-35.8
 11
-11.79986873078569
 21
-38.33632558057261
 72
     1
 10
-11.79986873078569
 20
-38.3363255805726
 11
-8.35356040183526
 21
-38.33628615127011
 72
     1
 10
-8.353560401835253
 20
-38.33628615127011
 11
-6.225363627744379
 21
-35.8
 97
        0
 75
     0
 76
     1
 98
        1
 10
-1.740578832126957
 20
-0.0010749287239022
  0
HATCH
  5
3B8
330
1F
100
AcDbEntity
  8
중심선
100
AcDbHatch
 10
0.0
 20
0.0
 30
0.0
210
0.0
220
0.0
230
1.0
  2
SOLID
 70
     1
 71
     0
 91
        1
 92
        0
 93
        4
 72
     1
 10
-1.212599636708418
 20
-35.8
 11
-4.658874880545703
 21
-35.8
 72
     1
 10
-4.658874880545724
 20
-35.8
 11
-9.190012888903112
 21
-41.20000000000002
 72
     1
 10
-9.190012888903098
 20
-41.20000000000001
 11
-5.743737645065814
 21
-41.20000000000001
 72
     1
 10
-5.743737645065821
 20
-41.20000000000001
 11
-1.212599636708433
 21
-35.79999999999999
 97
        0
 75
     0
 76
     1
 98
        1
 10
-1.740578832126957
 20
-0.0010749287239022
  0
HATCH
  5
3B9
330
1F
100
AcDbEntity
  8
중심선
100
AcDbHatch
 10
0.0
 20
0.0
 30
0.0
210
0.0
220
0.0
230
1.0
  2
SOLID
 70
     1
 71
     0
 91
        1
 92
        0
 93
        4
 72
     1
 10
3.800164354327464
 20
-35.80000000000003
 11
0.3538891104903712
 21
-35.8
 72
     1
 10
0.353889110490357
 20
-35.8
 11
-6.694547791398918
 21
-44.20000000000002
 72
     1
 10
-6.694547791398904
 20
-44.20000000000001
 11
-3.248272547561619
 21
-44.20000000000001
 72
     1
 10
-3.248272547561626
 20
-44.20000000000001
 11
3.800164354327457
 21
-35.80000000000002
 97
        0
 75
     0
 76
     1
 98
        1
 10
-1.740578832126957
 20
-0.0010749287239022
  0
HATCH
  5
3BA
330
1F
100
AcDbEntity
  8
중심선
100
AcDbHatch
 10
0.0
 20
0.0
 30
0.0
210
0.0
220
0.0
230
1.0
  2
SOLID
 70
     1
 71
     0
 91
        1
 92
        0
 93
        6
 72
     3
 10
8.600054785339651
 20
-40.00000000005127
 11
3.960054785062312
 21
1.540740868222201E-10
 40
0.39393394401626
 50
17.09539180608436
 51
320.0019657685081
 73
     0
 72
     1
 10
10.28305444104025
 20
-38.58789400463831
 11
12.58835631474132
 21
-36.65356729459039
 72
     3
 10
8.600054785286815
 20
-40.00000000000015
 11
6.600054785286829
 21
-1.278976924368180E-13
 40
0.636358354079598
 50
39.99873849337399
 51
368.4976242363724
 73
     1
 72
     1
 10
15.02538727718742
 20
-39.03999999993002
 11
7.280122092122738
 21
-39.03999999993002
 72
     1
 10
7.280122092122738
 20
-39.03999999993002
 11
7.280097047676804
 21
-40.95999999992991
 72
     1
 10
7.280097047676819
 20
-40.95999999992991
 11
11.72147681714885
 21
-40.95999999992988
 97
        0
 75
     0
 76
     1
 98
        1
 10
-1.740578832126957
 20
-0.0010749287239022
  0
DIMENSION
  5
3BC
330
1F
100
AcDbEntity
  8
치수문자_일반주서
100
AcDbDimension
  2
*D18
 10
2.000000000000014
 20
27.15787164837827
 30
0.0
 11
30.02869553787464
 21
27.15787164837827
 31
0.0
 70
   160
  1
<>
 71
     2
 42
50.79999999999995
  3
SLDDIMSTYLE0
100
AcDbAlignedDimension
 13
52.79999999999997
 23
19.05000000000002
 33
0.0
 14
2.000000000000014
 24
15.87500000000001
 34
0.0
100
AcDbRotatedDimension
1001
ACAD
1000
DSTYLE
1002
{
1070
   171
1070
     6
1070
   273
1070
     7
1002
}
  0
DIMENSION
  5
3BE
330
1F
100
AcDbEntity
  8
치수문자_일반주서
100
AcDbDimension
  2
*D20
 10
71.80000000000004
 20
19.05000000000009
 30
0.0
 11
71.79999999999997
 21
40.75784697194272
 31
0.0
 70
   160
  1
%%c<>
 71
     2
 42
38.10000000000001
 52
-270.0
  3
SLDDIMSTYLE0
100
AcDbAlignedDimension
 13
52.79999999999997
 23
-19.04999999999999
 33
0.0
 14
52.79999999999997
 24
19.05000000000002
 34
0.0
 50
90.0000000000002
100
AcDbRotatedDimension
1001
ACAD
1000
DSTYLE
1002
{
1070
   171
1070
     6
1070
   273
1070
     7
1002
}
  0
LINE
  5
3F1
330
1F
100
AcDbEntity
  8
외형선
  6
Continuous
370
    15
100
AcDbLine
 10
-60.5
 20
-15.87500000000001
 30
0.0
 11
2.000000000000014
 21
-15.87500000000001
 31
0.0
  0
LINE
  5
3F2
330
1F
100
AcDbEntity
  8
외형선
  6
Continuous
370
    15
100
AcDbLine
 10
-61.50000000000003
 20
-14.87499999999998
 30
0.0
 11
-60.50000000000003
 21
-15.87499999999998
 31
0.0
  0
LINE
  5
3F3
330
1F
100
AcDbEntity
  8
외형선
  6
Continuous
370
    15
100
AcDbLine
 10
-60.50000000000003
 20
13.48739999999999
 30
0.0
 11
-60.50000000000003
 21
-15.87499999999999
 31
0.0
  0
LINE
  5
3F4
330
1F
100
AcDbEntity
  8
외형선
  6
Continuous
370
    15
100
AcDbLine
 10
-61.50000000000003
 20
13.48739999999999
 30
0.0
 11
-61.50000000000003
 21
-14.87499999999998
 31
0.0
  0
DIMENSION
  5
3F5
330
1F
100
AcDbEntity
  8
치수문자_일반주서
100
AcDbDimension
  2
*D21
 10
-73.99999999999997
 20
-15.87500000000004
 30
0.0
 11
-74.00000000000003
 21
0.0000000000000214
 31
0.0
 70
   160
  1
%%c<>
 71
     2
 42
31.75000000000001
 52
-270.0
  3
SLDDIMSTYLE0
100
AcDbAlignedDimension
 13
-60.50000000000003
 23
15.87500000000002
 33
0.0
 14
-60.50000000000003
 24
-15.87499999999999
 34
0.0
 50
90.0000000000002
100
AcDbRotatedDimension
1001
ACAD
1000
DSTYLE
1002
{
1070
   171
1070
     6
1070
   273
1070
     7
1002
}
  0
LINE
  5
3F6
330
1F
100
AcDbEntity
  8
외형선
  6
Continuous
370
    15
100
AcDbLine
 10
2.000000000000014
 20
15.87500000000001
 30
0.0
 11
-23.587325
 21
15.87500000000001
 31
0.0
  0
DIMENSION
  5
3F8
330
1F
100
AcDbEntity
  8
치수문자_일반주서
100
AcDbDimension
  2
*D22
 10
-61.50000000000003
 20
45.58996586444055
 30
0.0
 11
-4.350000000000165
 21
45.58996586444055
 31
0.0
 70
   160
  1
<>
 71
     2
 42
114.3
  3
SLDDIMSTYLE0
100
AcDbAlignedDimension
 13
52.79999999999997
 23
19.05000000000002
 33
0.0
 14
-61.50000000000003
 24
14.87499999999999
 34
0.0
 50
0.0000000000000036
100
AcDbRotatedDimension
1001
ACAD
1000
DSTYLE
1002
{
1070
   171
1070
     6
1070
   273
1070
     7
1002
}
  0
LINE
  5
3F9
330
1F
100
AcDbEntity
  8
외형선
  6
Continuous
370
    15
100
AcDbLine
 10
2.000000000000014
 20
-15.87500000000001
 30
0.0
 11
1.999999999999929
 21
6.600074940167993
 31
0.0
  0
LINE
  5
3FA
102
{ACAD_REACTORS
102
}
330
1F
100
AcDbEntity
  8
중심선
100
AcDbLine
 10
-66.41646942134604
 20
-0.0000000000000081
 30
0.0
 11
58.84998005740728
 21
0.0000000000000072
 31
0.0
  0
CIRCLE
  5
441
330
1F
100
AcDbEntity
  8
해칭선
100
AcDbCircle
 10
0.0
 20
0.0
 30
0.0
 40
2.999999999999995
  0
INSERT
  5
442
330
1F
100
AcDbEntity
  8
해칭선
100
AcDbBlockReference
  2
SW_DOWELSYMBOL_0
 10
0.0
 20
0.0
 30
0.0
  0
LINE
  5
4BB
330
1F
100
AcDbEntity
  8
외형선
  6
Continuous
370
    15
100
AcDbLine
 10
-46.41240000000013
 20
15.875
 30
0.0
 11
-41.46892500000004
 21
15.875
 31
0.0
  0
LINE
  5
4BC
330
1F
100
AcDbEntity
  8
외형선
  6
Continuous
370
    15
100
AcDbLine
 10
-39.08132500000002
 20
13.48739999999999
 30
0.0
 11
-25.97492500000001
 21
13.48739999999999
 31
0.0
  0
LINE
  5
4BD
330
1F
100
AcDbEntity
  8
외형선
  6
Continuous
370
    15
100
AcDbLine
 10
-25.97492500000001
 20
13.48739999999999
 30
0.0
 11
-23.58732499999999
 21
15.87500000000001
 31
0.0
  0
LINE
  5
4BE
330
1F
100
AcDbEntity
  8
외형선
  6
Continuous
370
    15
100
AcDbLine
 10
-39.08132500000002
 20
13.48739999999999
 30
0.0
 11
-41.46892500000004
 21
15.87500000000001
 31
0.0
  0
LINE
  5
4BF
330
1F
100
AcDbEntity
  8
외형선
  6
Continuous
370
    15
100
AcDbLine
 10
-61.50000000000003
 20
13.48739999999999
 30
0.0
 11
-48.80000000000004
 21
13.48739999999999
 31
0.0
  0
LINE
  5
4C0
330
1F
100
AcDbEntity
  8
외형선
  6
Continuous
370
    15
100
AcDbLine
 10
-48.80000000000004
 20
13.48739999999999
 30
0.0
 11
-46.41240000000013
 21
15.87499999999999
 31
0.0
  0
LINE
  5
4C1
330
1F
100
AcDbEntity
  8
외형선
  6
Continuous
370
    15
100
AcDbLine
 10
-41.46892500000003
 20
15.87500000000001
 30
0.0
 11
-46.41240000000011
 21
15.87500000000001
 31
0.0
  0
ENDSEC
  0
SECTION
  2
OBJECTS
  0
DICTIONARY
  5
C
330
0
100
AcDbDictionary
281
     1
  3
ACAD_GROUP
350
D
  3
ACAD_IMAGE_VARS
350
153
  3
ACAD_LAYOUT
350
1A
  3
ACAD_MLINESTYLE
350
17
  3
ACAD_PLOTSETTINGS
350
19
  3
ACAD_PLOTSTYLENAME
350
E
  3
ACAD_SCALELIST
350
47
  3
APPDATA
350
151
  3
DWGPROPS
350
4C2
  0
DICTIONARY
  5
17A
330
2
100
AcDbDictionary
280
     1
281
     1
  3
ACAD_LAYERSTATES
360
17B
  0
DICTIONARY
  5
D
102
{ACAD_REACTORS
330
C
102
}
330
C
100
AcDbDictionary
281
     1
  0
RASTERVARIABLES
  5
153
102
{ACAD_REACTORS
330
C
102
}
330
C
100
AcDbRasterVariables
 90
        0
 70
     1
 71
     1
 72
     1
  0
DICTIONARY
  5
1A
102
{ACAD_REACTORS
330
C
102
}
330
C
100
AcDbDictionary
281
     1
  3
Layout1
350
1E
  3
Layout2
350
26
  3
Model
350
22
  0
DICTIONARY
  5
17
102
{ACAD_REACTORS
330
C
102
}
330
C
100
AcDbDictionary
281
     1
  3
Standard
350
18
  0
DICTIONARY
  5
19
102
{ACAD_REACTORS
330
C
102
}
330
C
100
AcDbDictionary
281
     1
  0
ACDBDICTIONARYWDFLT
  5
E
102
{ACAD_REACTORS
330
C
102
}
330
C
100
AcDbDictionary
281
     1
  3
Normal
350
F
100
AcDbDictionaryWithDefault
340
F
  0
DICTIONARY
  5
47
102
{ACAD_REACTORS
330
C
102
}
330
C
100
AcDbDictionary
281
     1
  3
A0
350
48
  3
A1
350
49
  3
A2
350
4A
  3
A3
350
4B
  3
A4
350
4C
  3
A5
350
4D
  3
A6
350
4E
  3
A7
350
4F
  3
A8
350
50
  3
A9
350
51
  3
B0
350
52
  3
B1
350
53
  3
B2
350
54
  3
B3
350
55
  3
B4
350
56
  3
B5
350
57
  3
B6
350
58
  3
B7
350
59
  3
B8
350
5A
  3
B9
350
5B
  3
C0
350
5C
  3
C1
350
5D
  3
C2
350
5E
  3
C3
350
5F
  3
C4
350
60
  3
C5
350
61
  3
C6
350
62
  3
C7
350
63
  3
C8
350
64
  3
C9
350
65
  3
D0
350
66
  3
D1
350
67
  3
D2
350
68
  0
DICTIONARY
  5
151
102
{ACAD_REACTORS
330
C
102
}
330
C
100
AcDbDictionary
281
     1
  0
XRECORD
  5
4C2
102
{ACAD_REACTORS
330
C
102
}
330
C
100
AcDbXrecord
280
     1
  1
DWGPROPS COOKIE
  2

  3

  4

  6

  7

  8
12016016
  9

300
=
301
=
302
=
303
=
304
=
305
=
306
=
307
=
308
=
309
=
 40
0.0
 41
2458311.089532535
 42
2458318.290381238
  1

 90
        0
  0
DICTIONARY
  5
17B
102
{ACAD_REACTORS
330
17A
102
}
330
17A
100
AcDbDictionary
281
     1
  0
LAYOUT
  5
1E
102
{ACAD_REACTORS
330
1A
102
}
330
1A
100
AcDbPlotSettings
  1

  2
none_device
  4

  6

 40
0.0
 41
0.0
 42
0.0
 43
0.0
 44
0.0
 45
0.0
 46
0.0
 47
0.0
 48
0.0
 49
0.0
140
0.0
141
0.0
142
1.0
143
1.0
 70
   688
 72
     1
 73
     0
 74
     5
  7

 75
    16
147
1.0
148
0.0
149
0.0
100
AcDbLayout
  1
Layout1
 70
     1
 71
     1
 10
0.0
 20
0.0
 11
420.0
 21
297.0
 12
0.0
 22
0.0
 32
0.0
 14
1.000000000000000E+20
 24
1.000000000000000E+20
 34
1.000000000000000E+20
 15
-1.000000000000000E+20
 25
-1.000000000000000E+20
 35
-1.000000000000000E+20
146
0.0
 13
0.0
 23
0.0
 33
0.0
 16
1.0
 26
0.0
 36
0.0
 17
0.0
 27
1.0
 37
0.0
 76
     0
330
1B
  0
LAYOUT
  5
26
102
{ACAD_REACTORS
330
1A
102
}
330
1A
100
AcDbPlotSettings
  1

  2
none_device
  4

  6

 40
0.0
 41
0.0
 42
0.0
 43
0.0
 44
0.0
 45
0.0
 46
0.0
 47
0.0
 48
0.0
 49
0.0
140
0.0
141
0.0
142
1.0
143
1.0
 70
   688
 72
     1
 73
     0
 74
     5
  7

 75
    16
147
1.0
148
0.0
149
0.0
100
AcDbLayout
  1
Layout2
 70
     1
 71
     2
 10
0.0
 20
0.0
 11
0.0
 21
0.0
 12
0.0
 22
0.0
 32
0.0
 14
0.0
 24
0.0
 34
0.0
 15
0.0
 25
0.0
 35
0.0
146
0.0
 13
0.0
 23
0.0
 33
0.0
 16
1.0
 26
0.0
 36
0.0
 17
0.0
 27
1.0
 37
0.0
 76
     0
330
23
  0
LAYOUT
  5
22
102
{ACAD_REACTORS
330
1A
102
}
330
1A
100
AcDbPlotSettings
  1

  2
none_device
  4
ANSI_A_(11.00_x_8.50_Inches)
  6

 40
6.35
 41
19.05
 42
6.35000508
 43
19.05000254
 44
279.4
 45
215.9
 46
104.9176848056163
 47
34.44669527120154
 48
0.0
 49
0.0
140
0.0
141
0.0
142
0.0406917368828658
143
1.0
 70
  1696
 72
     0
 73
     0
 74
     0
  7

 75
     0
147
0.0235690232323232
148
0.0
149
0.0
100
AcDbLayout
  1
Model
 70
     1
 71
     0
 10
0.0
 20
0.0
 11
420.0
 21
297.0
 12
0.0
 22
0.0
 32
0.0
 14
1.000000000000000E+20
 24
1.000000000000000E+20
 34
1.000000000000000E+20
 15
-1.000000000000000E+20
 25
-1.000000000000000E+20
 35
-1.000000000000000E+20
146
0.0
 13
0.0
 23
0.0
 33
0.0
 16
1.0
 26
0.0
 36
0.0
 17
0.0
 27
1.0
 37
0.0
 76
     0
330
1F
331
29
  0
MLINESTYLE
  5
18
102
{ACAD_REACTORS
330
17
102
}
330
17
100
AcDbMlineStyle
  2
Standard
 70
     0
  3

 62
   256
 51
90.0
 52
90.0
 71
     2
 49
0.5
 62
   256
  6
BYLAYER
 49
-0.5
 62
   256
  6
BYLAYER
  0
ACDBPLACEHOLDER
  5
F
102
{ACAD_REACTORS
330
E
102
}
330
E
  0
SCALE
  5
48
102
{ACAD_REACTORS
330
47
102
}
330
47
100
AcDbScale
 70
     0
300
1:1
140
1.0
141
1.0
290
     1
  0
SCALE
  5
49
102
{ACAD_REACTORS
330
47
102
}
330
47
100
AcDbScale
 70
     0
300
1:2
140
1.0
141
2.0
290
     0
  0
SCALE
  5
4A
102
{ACAD_REACTORS
330
47
102
}
330
47
100
AcDbScale
 70
     0
300
1:4
140
1.0
141
4.0
290
     0
  0
SCALE
  5
4B
102
{ACAD_REACTORS
330
47
102
}
330
47
100
AcDbScale
 70
     0
300
1:5
140
1.0
141
5.0
290
     0
  0
SCALE
  5
4C
102
{ACAD_REACTORS
330
47
102
}
330
47
100
AcDbScale
 70
     0
300
1:8
140
1.0
141
8.0
290
     0
  0
SCALE
  5
4D
102
{ACAD_REACTORS
330
47
102
}
330
47
100
AcDbScale
 70
     0
300
1:10
140
1.0
141
10.0
290
     0
  0
SCALE
  5
4E
102
{ACAD_REACTORS
330
47
102
}
330
47
100
AcDbScale
 70
     0
300
1:16
140
1.0
141
16.0
290
     0
  0
SCALE
  5
4F
102
{ACAD_REACTORS
330
47
102
}
330
47
100
AcDbScale
 70
     0
300
1:20
140
1.0
141
20.0
290
     0
  0
SCALE
  5
50
102
{ACAD_REACTORS
330
47
102
}
330
47
100
AcDbScale
 70
     0
300
1:30
140
1.0
141
30.0
290
     0
  0
SCALE
  5
51
102
{ACAD_REACTORS
330
47
102
}
330
47
100
AcDbScale
 70
     0
300
1:40
140
1.0
141
40.0
290
     0
  0
SCALE
  5
52
102
{ACAD_REACTORS
330
47
102
}
330
47
100
AcDbScale
 70
     0
300
1:50
140
1.0
141
50.0
290
     0
  0
SCALE
  5
53
102
{ACAD_REACTORS
330
47
102
}
330
47
100
AcDbScale
 70
     0
300
1:100
140
1.0
141
100.0
290
     0
  0
SCALE
  5
54
102
{ACAD_REACTORS
330
47
102
}
330
47
100
AcDbScale
 70
     0
300
2:1
140
2.0
141
1.0
290
     0
  0
SCALE
  5
55
102
{ACAD_REACTORS
330
47
102
}
330
47
100
AcDbScale
 70
     0
300
4:1
140
4.0
141
1.0
290
     0
  0
SCALE
  5
56
102
{ACAD_REACTORS
330
47
102
}
330
47
100
AcDbScale
 70
     0
300
8:1
140
8.0
141
1.0
290
     0
  0
SCALE
  5
57
102
{ACAD_REACTORS
330
47
102
}
330
47
100
AcDbScale
 70
     0
300
10:1
140
10.0
141
1.0
290
     0
  0
SCALE
  5
58
102
{ACAD_REACTORS
330
47
102
}
330
47
100
AcDbScale
 70
     0
300
100:1
140
100.0
141
1.0
290
     0
  0
SCALE
  5
59
102
{ACAD_REACTORS
330
47
102
}
330
47
100
AcDbScale
 70
     0
300
1/128" = 1'-0"
140
0.0078125
141
12.0
290
     0
  0
SCALE
  5
5A
102
{ACAD_REACTORS
330
47
102
}
330
47
100
AcDbScale
 70
     0
300
1/64" = 1'-0"
140
0.015625
141
12.0
290
     0
  0
SCALE
  5
5B
102
{ACAD_REACTORS
330
47
102
}
330
47
100
AcDbScale
 70
     0
300
1/32" = 1'-0"
140
0.03125
141
12.0
290
     0
  0
SCALE
  5
5C
102
{ACAD_REACTORS
330
47
102
}
330
47
100
AcDbScale
 70
     0
300
1/16" = 1'-0"
140
0.0625
141
12.0
290
     0
  0
SCALE
  5
5D
102
{ACAD_REACTORS
330
47
102
}
330
47
100
AcDbScale
 70
     0
300
3/32" = 1'-0"
140
0.09375
141
12.0
290
     0
  0
SCALE
  5
5E
102
{ACAD_REACTORS
330
47
102
}
330
47
100
AcDbScale
 70
     0
300
1/8" = 1'-0"
140
0.125
141
12.0
290
     0
  0
SCALE
  5
5F
102
{ACAD_REACTORS
330
47
102
}
330
47
100
AcDbScale
 70
     0
300
3/16" = 1'-0"
140
0.1875
141
12.0
290
     0
  0
SCALE
  5
60
102
{ACAD_REACTORS
330
47
102
}
330
47
100
AcDbScale
 70
     0
300
1/4" = 1'-0"
140
0.25
141
12.0
290
     0
  0
SCALE
  5
61
102
{ACAD_REACTORS
330
47
102
}
330
47
100
AcDbScale
 70
     0
300
3/8" = 1'-0"
140
0.375
141
12.0
290
     0
  0
SCALE
  5
62
102
{ACAD_REACTORS
330
47
102
}
330
47
100
AcDbScale
 70
     0
300
1/2" = 1'-0"
140
0.5
141
12.0
290
     0
  0
SCALE
  5
63
102
{ACAD_REACTORS
330
47
102
}
330
47
100
AcDbScale
 70
     0
300
3/4" = 1'-0"
140
0.75
141
12.0
290
     0
  0
SCALE
  5
64
102
{ACAD_REACTORS
330
47
102
}
330
47
100
AcDbScale
 70
     0
300
1" = 1'-0"
140
1.0
141
12.0
290
     0
  0
SCALE
  5
65
102
{ACAD_REACTORS
330
47
102
}
330
47
100
AcDbScale
 70
     0
300
1-1/2" = 1'-0"
140
1.5
141
12.0
290
     0
  0
SCALE
  5
66
102
{ACAD_REACTORS
330
47
102
}
330
47
100
AcDbScale
 70
     0
300
3" = 1'-0"
140
3.0
141
12.0
290
     0
  0
SCALE
  5
67
102
{ACAD_REACTORS
330
47
102
}
330
47
100
AcDbScale
 70
     0
300
6" = 1'-0"
140
6.0
141
12.0
290
     0
  0
SCALE
  5
68
102
{ACAD_REACTORS
330
47
102
}
330
47
100
AcDbScale
 70
     0
300
1'-0" = 1'-0"
140
12.0
141
12.0
290
     0
  0
ENDSEC
  0
EOF
