  0
SECTION
  2
HEADER
  9
$ACADVER
  1
AC1015
  9
$ACADMAINTVER
 70
     6
  9
$DWGCODEPAGE
  3
ANSI_949
  9
$INSBASE
 10
0.0
 20
0.0
 30
0.0
  9
$EXTMIN
 10
1.000000000000000E+20
 20
1.000000000000000E+20
 30
1.000000000000000E+20
  9
$EXTMAX
 10
-1.000000000000000E+20
 20
-1.000000000000000E+20
 30
-1.000000000000000E+20
  9
$LIMMIN
 10
0.0
 20
0.0
  9
$LIMMAX
 10
420.0
 20
297.0
  9
$ORTHOMODE
 70
     1
  9
$REGENMODE
 70
     1
  9
$FILLMODE
 70
     1
  9
$QTEXTMODE
 70
     0
  9
$MIRRTEXT
 70
     1
  9
$LTSCALE
 40
1.0
  9
$ATTMODE
 70
     1
  9
$TEXTSIZE
 40
3.5
  9
$TRACEWID
 40
1.0
  9
$TEXTSTYLE
  7
Standard
  9
$CLAYER
  8
0
  9
$CELTYPE
  6
ByLayer
  9
$CECOLOR
 62
   256
  9
$CELTSCALE
 40
1.0
  9
$DISPSILH
 70
     0
  9
$DIMSCALE
 40
1.0
  9
$DIMASZ
 40
3.302
  9
$DIMEXO
 40
1.0
  9
$DIMDLI
 40
3.75
  9
$DIMRND
 40
0.0
  9
$DIMDLE
 40
0.0
  9
$DIMEXE
 40
1.0
  9
$DIMTP
 40
0.0
  9
$DIMTM
 40
0.0
  9
$DIMTXT
 40
3.5
  9
$DIMCEN
 40
2.5
  9
$DIMTSZ
 40
0.0
  9
$DIMTOL
 70
     0
  9
$DIMLIM
 70
     0
  9
$DIMTIH
 70
     1
  9
$DIMTOH
 70
     1
  9
$DIMSE1
 70
     0
  9
$DIMSE2
 70
     0
  9
$DIMTAD
 70
     1
  9
$DIMZIN
 70
     0
  9
$DIMBLK
  1

  9
$DIMASO
 70
     1
  9
$DIMSHO
 70
     1
  9
$DIMPOST
  1

  9
$DIMAPOST
  1

  9
$DIMALT
 70
     0
  9
$DIMALTD
 70
     3
  9
$DIMALTF
 40
0.0393700787401575
  9
$DIMLFAC
 40
1.0
  9
$DIMTOFL
 70
     1
  9
$DIMTVP
 40
0.0
  9
$DIMTIX
 70
     0
  9
$DIMSOXD
 70
     0
  9
$DIMSAH
 70
     0
  9
$DIMBLK1
  1

  9
$DIMBLK2
  1

  9
$DIMSTYLE
  2
ISO-25
  9
$DIMCLRD
 70
     0
  9
$DIMCLRE
 70
     0
  9
$DIMCLRT
 70
     0
  9
$DIMTFAC
 40
1.0
  9
$DIMGAP
 40
1.524
  9
$DIMJUST
 70
     0
  9
$DIMSD1
 70
     0
  9
$DIMSD2
 70
     0
  9
$DIMTOLJ
 70
     0
  9
$DIMTZIN
 70
     0
  9
$DIMALTZ
 70
     0
  9
$DIMALTTZ
 70
     0
  9
$DIMUPT
 70
     0
  9
$DIMDEC
 70
     2
  9
$DIMTDEC
 70
     2
  9
$DIMALTU
 70
     2
  9
$DIMALTTD
 70
     3
  9
$DIMTXSTY
  7
Standard
  9
$DIMAUNIT
 70
     0
  9
$DIMADEC
 70
     2
  9
$DIMALTRND
 40
0.0
  9
$DIMAZIN
 70
     0
  9
$DIMDSEP
 70
    44
  9
$DIMATFIT
 70
     3
  9
$DIMFRAC
 70
     0
  9
$DIMLDRBLK
  1

  9
$DIMLUNIT
 70
     2
  9
$DIMLWD
 70
    -2
  9
$DIMLWE
 70
    -2
  9
$DIMTMOVE
 70
     0
  9
$LUNITS
 70
     2
  9
$LUPREC
 70
     2
  9
$SKETCHINC
 40
1.0
  9
$FILLETRAD
 40
10.0
  9
$AUNITS
 70
     0
  9
$AUPREC
 70
     2
  9
$MENU
  1
.
  9
$ELEVATION
 40
0.0
  9
$PELEVATION
 40
0.0
  9
$THICKNESS
 40
0.0
  9
$LIMCHECK
 70
     0
  9
$CHAMFERA
 40
0.0
  9
$CHAMFERB
 40
0.0
  9
$CHAMFERC
 40
0.0
  9
$CHAMFERD
 40
0.0
  9
$SKPOLY
 70
     0
  9
$TDCREATE
 40
2458311.464532535
  9
$TDUCREATE
 40
2458311.089532535
  9
$TDUPDATE
 40
2458318.664586504
  9
$TDUUPDATE
 40
2458318.289586504
  9
$TDINDWG
 40
0.0066710532
  9
$TDUSRTIMER
 40
2458318.289374491
  9
$USRTIMER
 70
     1
  9
$ANGBASE
 50
0.0
  9
$ANGDIR
 70
     0
  9
$PDMODE
 70
     0
  9
$PDSIZE
 40
-1.0
  9
$PLINEWID
 40
0.0
  9
$SPLFRAME
 70
     0
  9
$SPLINETYPE
 70
     6
  9
$SPLINESEGS
 70
     8
  9
$HANDSEED
  5
666
  9
$SURFTAB1
 70
     6
  9
$SURFTAB2
 70
     6
  9
$SURFTYPE
 70
     6
  9
$SURFU
 70
     6
  9
$SURFV
 70
     6
  9
$UCSBASE
  2

  9
$UCSNAME
  2

  9
$UCSORG
 10
0.0
 20
0.0
 30
0.0
  9
$UCSXDIR
 10
1.0
 20
0.0
 30
0.0
  9
$UCSYDIR
 10
0.0
 20
1.0
 30
0.0
  9
$UCSORTHOREF
  2

  9
$UCSORTHOVIEW
 70
     0
  9
$UCSORGTOP
 10
0.0
 20
0.0
 30
0.0
  9
$UCSORGBOTTOM
 10
0.0
 20
0.0
 30
0.0
  9
$UCSORGLEFT
 10
0.0
 20
0.0
 30
0.0
  9
$UCSORGRIGHT
 10
0.0
 20
0.0
 30
0.0
  9
$UCSORGFRONT
 10
0.0
 20
0.0
 30
0.0
  9
$UCSORGBACK
 10
0.0
 20
0.0
 30
0.0
  9
$PUCSBASE
  2

  9
$PUCSNAME
  2

  9
$PUCSORG
 10
0.0
 20
0.0
 30
0.0
  9
$PUCSXDIR
 10
1.0
 20
0.0
 30
0.0
  9
$PUCSYDIR
 10
0.0
 20
1.0
 30
0.0
  9
$PUCSORTHOREF
  2

  9
$PUCSORTHOVIEW
 70
     0
  9
$PUCSORGTOP
 10
0.0
 20
0.0
 30
0.0
  9
$PUCSORGBOTTOM
 10
0.0
 20
0.0
 30
0.0
  9
$PUCSORGLEFT
 10
0.0
 20
0.0
 30
0.0
  9
$PUCSORGRIGHT
 10
0.0
 20
0.0
 30
0.0
  9
$PUCSORGFRONT
 10
0.0
 20
0.0
 30
0.0
  9
$PUCSORGBACK
 10
0.0
 20
0.0
 30
0.0
  9
$USERI1
 70
     0
  9
$USERI2
 70
     0
  9
$USERI3
 70
     0
  9
$USERI4
 70
     0
  9
$USERI5
 70
     0
  9
$USERR1
 40
0.0
  9
$USERR2
 40
0.0
  9
$USERR3
 40
0.0
  9
$USERR4
 40
0.0
  9
$USERR5
 40
0.0
  9
$WORLDVIEW
 70
     1
  9
$SHADEDGE
 70
     3
  9
$SHADEDIF
 70
    70
  9
$TILEMODE
 70
     1
  9
$MAXACTVP
 70
    64
  9
$PINSBASE
 10
0.0
 20
0.0
 30
0.0
  9
$PLIMCHECK
 70
     0
  9
$PEXTMIN
 10
1.000000000000000E+20
 20
1.000000000000000E+20
 30
1.000000000000000E+20
  9
$PEXTMAX
 10
-1.000000000000000E+20
 20
-1.000000000000000E+20
 30
-1.000000000000000E+20
  9
$PLIMMIN
 10
0.0
 20
0.0
  9
$PLIMMAX
 10
0.0
 20
0.0
  9
$UNITMODE
 70
     0
  9
$VISRETAIN
 70
     1
  9
$PLINEGEN
 70
     0
  9
$PSLTSCALE
 70
     1
  9
$TREEDEPTH
 70
  3020
  9
$CMLSTYLE
  2
Standard
  9
$CMLJUST
 70
     0
  9
$CMLSCALE
 40
20.0
  9
$PROXYGRAPHICS
 70
     1
  9
$MEASUREMENT
 70
     1
  9
$CELWEIGHT
370
    -1
  9
$ENDCAPS
280
     0
  9
$JOINSTYLE
280
     0
  9
$LWDISPLAY
290
     1
  9
$INSUNITS
 70
     4
  9
$HYPERLINKBASE
  1

  9
$STYLESHEET
  1

  9
$XEDIT
290
     1
  9
$CEPSNTYPE
380
     0
  9
$PSTYLEMODE
290
     1
  9
$FINGERPRINTGUID
  2
{67166BEA-91C4-4A27-8AE7-25CADE1F08E6}
  9
$VERSIONGUID
  2
{FAEB1C32-E019-11D5-929B-00C0DF256EC4}
  9
$EXTNAMES
290
     1
  9
$PSVPSCALE
 40
0.0
  9
$OLESTARTUP
290
     0
  0
ENDSEC
  0
SECTION
  2
CLASSES
  0
CLASS
  1
ACDBDICTIONARYWDFLT
  2
AcDbDictionaryWithDefault
  3
ObjectDBX Classes
 90
        0
280
     0
281
     0
  0
CLASS
  1
VISUALSTYLE
  2
AcDbVisualStyle
  3
ObjectDBX Classes
 90
     4095
280
     0
281
     0
  0
CLASS
  1
MATERIAL
  2
AcDbMaterial
  3
ObjectDBX Classes
 90
     1153
280
     0
281
     0
  0
CLASS
  1
SCALE
  2
AcDbScale
  3
ObjectDBX Classes
 90
     1153
280
     0
281
     0
  0
CLASS
  1
SUN
  2
AcDbSun
  3
SCENEOE
 90
     1153
280
     0
281
     0
  0
CLASS
  1
ACDBPLACEHOLDER
  2
AcDbPlaceHolder
  3
ObjectDBX Classes
 90
        0
280
     0
281
     0
  0
CLASS
  1
LAYOUT
  2
AcDbLayout
  3
ObjectDBX Classes
 90
        0
280
     0
281
     0
  0
CLASS
  1
TABLESTYLE
  2
AcDbTableStyle
  3
ObjectDBX Classes
 90
     4095
280
     0
281
     0
  0
CLASS
  1
MLEADERSTYLE
  2
AcDbMLeaderStyle
  3
ACDB_MLEADERSTYLE_CLASS
 90
     4095
280
     0
281
     0
  0
CLASS
  1
RASTERVARIABLES
  2
AcDbRasterVariables
  3
ISM
 90
        0
280
     0
281
     0
  0
CLASS
  1
DIMASSOC
  2
AcDbDimAssoc
  3
"AcDbDimAssoc|Product Desc:     AcDim ARX App For Dimension|Company:          Autodesk, Inc.|WEB Address:      www.autodesk.com"
 90
        0
280
     0
281
     0
  0
ENDSEC
  0
SECTION
  2
TABLES
  0
TABLE
  2
VPORT
  5
8
330
0
100
AcDbSymbolTable
 70
     1
  0
VPORT
  5
29
330
8
100
AcDbSymbolTableRecord
100
AcDbViewportTableRecord
  2
*Active
 70
     0
 10
0.0
 20
0.0
 11
1.0
 21
1.0
 12
17.59169765423701
 22
0.5741309877914702
 13
0.0
 23
0.0
 14
10.0
 24
10.0
 15
10.0
 25
10.0
 16
0.0
 26
0.0
 36
1.0
 17
0.0
 27
0.0
 37
0.0
 40
265.4185898228308
 41
1.740812379110251
 42
50.0
 43
0.0
 44
0.0
 50
0.0
 51
0.0
 71
    16
 72
  2000
 73
     1
 74
     3
 75
     0
 76
     0
 77
     0
 78
     0
281
     0
 65
     1
110
0.0
120
0.0
130
0.0
111
1.0
121
0.0
131
0.0
112
0.0
122
1.0
132
0.0
 79
     0
146
0.0
  0
ENDTAB
  0
TABLE
  2
LTYPE
  5
5
330
0
100
AcDbSymbolTable
 70
     6
  0
LTYPE
  5
14
330
5
100
AcDbSymbolTableRecord
100
AcDbLinetypeTableRecord
  2
ByBlock
 70
     0
  3

 72
    65
 73
     0
 40
0.0
  0
LTYPE
  5
15
330
5
100
AcDbSymbolTableRecord
100
AcDbLinetypeTableRecord
  2
ByLayer
 70
     0
  3

 72
    65
 73
     0
 40
0.0
  0
LTYPE
  5
16
330
5
100
AcDbSymbolTableRecord
100
AcDbLinetypeTableRecord
  2
Continuous
 70
     0
  3
Solid line
 72
    65
 73
     0
 40
0.0
  0
LTYPE
  5
6A
330
5
100
AcDbSymbolTableRecord
100
AcDbLinetypeTableRecord
  2
HIDDEN
 70
     0
  3
Hidden __ __ __ __ __ __ __ __ __ __ __ __ __ __
 72
    65
 73
     2
 40
1.905
 49
1.27
 74
     0
 49
-0.635
 74
     0
  0
LTYPE
  5
6B
330
5
100
AcDbSymbolTableRecord
100
AcDbLinetypeTableRecord
  2
PHANTOM
 70
     0
  3
Phantom ______  __  __  ______  __  __  ______
 72
    65
 73
     6
 40
12.7
 49
6.35
 74
     0
 49
-1.27
 74
     0
 49
1.27
 74
     0
 49
-1.27
 74
     0
 49
1.27
 74
     0
 49
-1.27
 74
     0
  0
LTYPE
  5
6C
330
5
100
AcDbSymbolTableRecord
100
AcDbLinetypeTableRecord
  2
CENTER
 70
     0
  3
Center ____ _ ____ _ ____ _ ____ _ ____ _ ____
 72
    65
 73
     4
 40
10.16
 49
6.35
 74
     0
 49
-1.27
 74
     0
 49
1.27
 74
     0
 49
-1.27
 74
     0
  0
LTYPE
  5
6D
330
5
100
AcDbSymbolTableRecord
100
AcDbLinetypeTableRecord
  2
CENTERX2
 70
     0
  3
Center (2x) ________  __  ________  __  _____
 72
    65
 73
     4
 40
20.32
 49
12.7
 74
     0
 49
-2.54
 74
     0
 49
2.54
 74
     0
 49
-2.54
 74
     0
  0
LTYPE
  5
6E
330
5
100
AcDbSymbolTableRecord
100
AcDbLinetypeTableRecord
  2
DOT2
 70
     0
  3
Dot (.5x) ........................................
 72
    65
 73
     2
 40
0.635
 49
0.0
 74
     0
 49
-0.635
 74
     0
  0
ENDTAB
  0
TABLE
  2
LAYER
  5
2
102
{ACAD_XDICTIONARY
360
17A
102
}
330
0
100
AcDbSymbolTable
 70
    18
  0
LAYER
  5
10
330
2
100
AcDbSymbolTableRecord
100
AcDbLayerTableRecord
  2
0
 70
     0
 62
     7
  6
Continuous
370
    -3
390
F
  0
LAYER
  5
6F
330
2
100
AcDbSymbolTableRecord
100
AcDbLayerTableRecord
  2
FORMAT
 70
     0
 62
     2
  6
Continuous
370
    -3
390
F
  0
LAYER
  5
70
330
2
100
AcDbSymbolTableRecord
100
AcDbLayerTableRecord
  2
외형선
 70
     0
 62
     4
  6
Continuous
370
    30
390
F
  0
LAYER
  5
71
330
2
100
AcDbSymbolTableRecord
100
AcDbLayerTableRecord
  2
숨은선
 70
     0
 62
     2
  6
HIDDEN
370
    15
390
F
  0
LAYER
  5
72
330
2
100
AcDbSymbolTableRecord
100
AcDbLayerTableRecord
  2
중심선
 70
     0
 62
     1
  6
CENTERX2
370
    -3
390
F
  0
LAYER
  5
73
330
2
100
AcDbSymbolTableRecord
100
AcDbLayerTableRecord
  2
파단선
 70
     0
 62
     4
  6
Continuous
370
    -3
390
F
  0
LAYER
  5
74
330
2
100
AcDbSymbolTableRecord
100
AcDbLayerTableRecord
  2
해칭선
 70
     0
 62
   100
  6
Continuous
370
    -3
390
F
  0
LAYER
  5
75
330
2
100
AcDbSymbolTableRecord
100
AcDbLayerTableRecord
  2
가는실선
 70
     0
 62
     4
  6
Continuous
370
    -3
390
F
  0
LAYER
  5
76
330
2
100
AcDbSymbolTableRecord
100
AcDbLayerTableRecord
  2
치수_보조선
 70
     0
 62
     4
  6
Continuous
370
    -3
390
F
  0
LAYER
  5
77
330
2
100
AcDbSymbolTableRecord
100
AcDbLayerTableRecord
  2
치수문자_일반주서
 70
     0
 62
     7
  6
Continuous
370
    15
390
F
  0
LAYER
  5
78
330
2
100
AcDbSymbolTableRecord
100
AcDbLayerTableRecord
  2
개별주서
 70
     0
 62
   100
  6
Continuous
370
    30
390
F
  0
LAYER
  5
79
330
2
100
AcDbSymbolTableRecord
100
AcDbLayerTableRecord
  2
중간선
 70
     0
 62
     2
  6
Continuous
370
    15
390
F
  0
LAYER
  5
7A
330
2
100
AcDbSymbolTableRecord
100
AcDbLayerTableRecord
  2
윤곽선
 70
     0
 62
     3
  6
Continuous
370
    40
390
F
  0
LAYER
  5
7B
330
2
100
AcDbSymbolTableRecord
100
AcDbLayerTableRecord
  2
중심마크
 70
     0
 62
   100
  6
Continuous
370
    30
390
F
  0
LAYER
  5
7C
330
2
100
AcDbSymbolTableRecord
100
AcDbLayerTableRecord
  2
가상선
 70
     0
 62
     4
  6
PHANTOM
370
    -3
390
F
  0
LAYER
  5
7D
330
2
100
AcDbSymbolTableRecord
100
AcDbLayerTableRecord
  2
특수지정선
 70
     0
 62
     5
  6
CENTERX2
370
    60
390
F
  0
LAYER
  5
7E
330
2
100
AcDbSymbolTableRecord
100
AcDbLayerTableRecord
  2
참조1
 70
     0
 62
    -4
  6
Continuous
370
    -3
390
F
  0
LAYER
  5
181
330
2
100
AcDbSymbolTableRecord
100
AcDbLayerTableRecord
  2
Defpoints
 70
     0
 62
     7
  6
Continuous
290
     0
370
    -3
390
F
  0
ENDTAB
  0
TABLE
  2
STYLE
  5
3
330
0
100
AcDbSymbolTable
 70
     2
  0
STYLE
  5
11
330
3
100
AcDbSymbolTableRecord
100
AcDbTextStyleTableRecord
  2
Standard
 70
     0
 40
0.0
 41
1.0
 50
0.0
 71
     0
 42
3.5
  3
txt
  4

  0
STYLE
  5
94
330
3
100
AcDbSymbolTableRecord
100
AcDbTextStyleTableRecord
  2
SLDTEXTSTYLE0
 70
     0
 40
0.0
 41
0.75
 50
0.0
 71
     0
 42
3.5
  3
TXT
  4

  0
ENDTAB
  0
TABLE
  2
VIEW
  5
6
330
0
100
AcDbSymbolTable
 70
     0
  0
ENDTAB
  0
TABLE
  2
UCS
  5
7
330
0
100
AcDbSymbolTable
 70
     0
  0
ENDTAB
  0
TABLE
  2
APPID
  5
9
330
0
100
AcDbSymbolTable
 70
     1
  0
APPID
  5
12
330
9
100
AcDbSymbolTableRecord
100
AcDbRegAppTableRecord
  2
ACAD
 70
     0
  0
ENDTAB
  0
TABLE
  2
DIMSTYLE
  5
A
330
0
100
AcDbSymbolTable
 70
     5
100
AcDbDimStyleTable
  0
DIMSTYLE
105
27
330
A
100
AcDbSymbolTableRecord
100
AcDbDimStyleTableRecord
  2
ISO-25
 70
     0
 41
2.5
 42
0.625
 43
3.75
 44
1.25
 73
     0
 74
     0
 77
     1
 78
     8
140
2.5
141
2.5
143
0.03937007874016
147
0.625
171
     3
172
     1
178
     0
271
     2
272
     2
274
     3
278
    44
283
     0
284
     8
340
11
  0
DIMSTYLE
105
D5
102
{ACAD_REACTORS
330
5A0
330
5A3
330
567
330
569
102
}
330
A
100
AcDbSymbolTableRecord
100
AcDbDimStyleTableRecord
  2
SLDDIMSTYLE0
 70
     0
 41
3.302
 44
0.0
 45
0.000000001
 73
     0
 74
     0
 77
     1
 78
    12
 79
     3
140
3.5
143
0.0393700787401575
147
0.875
148
0.000000001
170
     1
173
     1
178
     0
271
     2
272
     2
276
     2
284
    12
340
94
  0
DIMSTYLE
105
E8
102
{ACAD_REACTORS
102
}
330
A
100
AcDbSymbolTableRecord
100
AcDbDimStyleTableRecord
  2
SLDDIMSTYLE1
 70
     0
 41
3.302
 44
0.0
 45
0.000000001
 73
     0
 74
     0
 77
     1
 78
     4
 79
     1
140
3.5
143
0.0393700787401575
147
0.875
148
0.000000001
170
     1
173
     1
178
     0
271
     2
272
     2
276
     2
284
    12
340
94
  0
DIMSTYLE
105
1B4
102
{ACAD_REACTORS
102
}
330
A
100
AcDbSymbolTableRecord
100
AcDbDimStyleTableRecord
  2
SLDDIMSTYLE2
 70
     0
 41
3.302
 44
0.0
 45
0.000000001
 73
     0
 74
     0
 77
     1
 78
     4
 79
     1
140
3.5
143
0.0393700787401575
147
0.875
148
0.000000001
170
     1
173
     1
178
     0
271
     2
272
     2
276
     2
284
    12
340
94
  0
DIMSTYLE
105
1B5
102
{ACAD_REACTORS
102
}
330
A
100
AcDbSymbolTableRecord
100
AcDbDimStyleTableRecord
  2
SLDDIMSTYLE3
 70
     0
 41
3.302
 44
0.0
 45
0.000000001
 73
     0
 74
     0
 77
     1
 78
    12
 79
     3
140
3.5
143
0.0393700787401575
147
0.875
148
0.000000001
170
     1
173
     1
178
     0
271
     2
272
     2
276
     2
284
    12
340
94
  0
ENDTAB
  0
TABLE
  2
BLOCK_RECORD
  5
1
330
0
100
AcDbSymbolTable
 70
    36
  0
BLOCK_RECORD
  5
1F
330
1
100
AcDbSymbolTableRecord
100
AcDbBlockTableRecord
  2
*Model_Space
340
22
  0
BLOCK_RECORD
  5
1B
330
1
100
AcDbSymbolTableRecord
100
AcDbBlockTableRecord
  2
*Paper_Space
340
1E
  0
BLOCK_RECORD
  5
23
330
1
100
AcDbSymbolTableRecord
100
AcDbBlockTableRecord
  2
*Paper_Space0
340
26
  0
BLOCK_RECORD
  5
7F
330
1
100
AcDbSymbolTableRecord
100
AcDbBlockTableRecord
  2
블럭10
340
0
102
{BLKREFS
331
55F
102
}
  0
BLOCK_RECORD
  5
D6
330
1
100
AcDbSymbolTableRecord
100
AcDbBlockTableRecord
  2
_D
340
0
  0
BLOCK_RECORD
  5
E9
330
1
100
AcDbSymbolTableRecord
100
AcDbBlockTableRecord
  2
_D_1
340
0
  0
BLOCK_RECORD
  5
FD
330
1
100
AcDbSymbolTableRecord
100
AcDbBlockTableRecord
  2
_D_2
340
0
  0
BLOCK_RECORD
  5
110
330
1
100
AcDbSymbolTableRecord
100
AcDbBlockTableRecord
  2
_D_3
340
0
  0
BLOCK_RECORD
  5
129
330
1
100
AcDbSymbolTableRecord
100
AcDbBlockTableRecord
  2
SW_DOWELSYMBOL_0
340
0
102
{BLKREFS
331
5EE
102
}
  0
BLOCK_RECORD
  5
238
330
1
100
AcDbSymbolTableRecord
100
AcDbBlockTableRecord
  2
*D7
340
0
  0
BLOCK_RECORD
  5
244
330
1
100
AcDbSymbolTableRecord
100
AcDbBlockTableRecord
  2
*D8
340
0
  0
BLOCK_RECORD
  5
250
330
1
100
AcDbSymbolTableRecord
100
AcDbBlockTableRecord
  2
*D9
340
0
  0
BLOCK_RECORD
  5
282
330
1
100
AcDbSymbolTableRecord
100
AcDbBlockTableRecord
  2
*D10
340
0
  0
BLOCK_RECORD
  5
28E
330
1
100
AcDbSymbolTableRecord
100
AcDbBlockTableRecord
  2
*D11
340
0
  0
BLOCK_RECORD
  5
29A
330
1
100
AcDbSymbolTableRecord
100
AcDbBlockTableRecord
  2
*D12
340
0
  0
BLOCK_RECORD
  5
362
330
1
100
AcDbSymbolTableRecord
100
AcDbBlockTableRecord
  2
*D13
340
0
  0
BLOCK_RECORD
  5
36E
330
1
100
AcDbSymbolTableRecord
100
AcDbBlockTableRecord
  2
*D14
340
0
  0
BLOCK_RECORD
  5
37A
330
1
100
AcDbSymbolTableRecord
100
AcDbBlockTableRecord
  2
*D15
340
0
  0
BLOCK_RECORD
  5
386
330
1
100
AcDbSymbolTableRecord
100
AcDbBlockTableRecord
  2
*D16
340
0
  0
BLOCK_RECORD
  5
3C0
330
1
100
AcDbSymbolTableRecord
100
AcDbBlockTableRecord
  2
*D17
340
0
  0
BLOCK_RECORD
  5
3CC
330
1
100
AcDbSymbolTableRecord
100
AcDbBlockTableRecord
  2
*D18
340
0
  0
BLOCK_RECORD
  5
3D8
330
1
100
AcDbSymbolTableRecord
100
AcDbBlockTableRecord
  2
*D19
340
0
  0
BLOCK_RECORD
  5
3E4
330
1
100
AcDbSymbolTableRecord
100
AcDbBlockTableRecord
  2
*D20
340
0
  0
BLOCK_RECORD
  5
3FB
330
1
100
AcDbSymbolTableRecord
100
AcDbBlockTableRecord
  2
*D21
340
0
  0
BLOCK_RECORD
  5
407
330
1
100
AcDbSymbolTableRecord
100
AcDbBlockTableRecord
  2
*D22
340
0
  0
BLOCK_RECORD
  5
44F
330
1
100
AcDbSymbolTableRecord
100
AcDbBlockTableRecord
  2
*D23
340
0
  0
BLOCK_RECORD
  5
514
330
1
100
AcDbSymbolTableRecord
100
AcDbBlockTableRecord
  2
*D24
340
0
  0
BLOCK_RECORD
  5
520
330
1
100
AcDbSymbolTableRecord
100
AcDbBlockTableRecord
  2
*D25
340
0
  0
BLOCK_RECORD
  5
52C
330
1
100
AcDbSymbolTableRecord
100
AcDbBlockTableRecord
  2
*D26
340
0
  0
BLOCK_RECORD
  5
538
330
1
100
AcDbSymbolTableRecord
100
AcDbBlockTableRecord
  2
*D27
340
0
  0
BLOCK_RECORD
  5
56B
330
1
100
AcDbSymbolTableRecord
100
AcDbBlockTableRecord
  2
*D28
340
0
  0
BLOCK_RECORD
  5
577
330
1
100
AcDbSymbolTableRecord
100
AcDbBlockTableRecord
  2
*D29
340
0
  0
BLOCK_RECORD
  5
583
330
1
100
AcDbSymbolTableRecord
100
AcDbBlockTableRecord
  2
*D30
340
0
  0
BLOCK_RECORD
  5
58F
330
1
100
AcDbSymbolTableRecord
100
AcDbBlockTableRecord
  2
*D31
340
0
  0
BLOCK_RECORD
  5
5A5
330
1
100
AcDbSymbolTableRecord
100
AcDbBlockTableRecord
  2
*D32
340
0
  0
BLOCK_RECORD
  5
5B1
330
1
100
AcDbSymbolTableRecord
100
AcDbBlockTableRecord
  2
*D33
340
0
  0
BLOCK_RECORD
  5
5F4
330
1
100
AcDbSymbolTableRecord
100
AcDbBlockTableRecord
  2
*D34
340
0
  0
ENDTAB
  0
ENDSEC
  0
SECTION
  2
BLOCKS
  0
BLOCK
  5
20
330
1F
100
AcDbEntity
  8
0
100
AcDbBlockBegin
  2
*Model_Space
 70
     0
 10
0.0
 20
0.0
 30
0.0
  3
*Model_Space
  1
*Model_Space
  0
ENDBLK
  5
21
330
1F
100
AcDbEntity
  8
0
100
AcDbBlockEnd
  0
BLOCK
  5
1C
330
1B
100
AcDbEntity
 67
     1
  8
0
100
AcDbBlockBegin
  2
*Paper_Space
 70
     0
 10
0.0
 20
0.0
 30
0.0
  3
*Paper_Space
  1
*Paper_Space
  0
ENDBLK
  5
1D
330
1B
100
AcDbEntity
 67
     1
  8
0
100
AcDbBlockEnd
  0
BLOCK
  5
24
330
23
100
AcDbEntity
  8
0
100
AcDbBlockBegin
  2
*Paper_Space0
 70
     0
 10
0.0
 20
0.0
 30
0.0
  3
*Paper_Space0
  1
*Paper_Space0
  0
ENDBLK
  5
25
330
23
100
AcDbEntity
  8
0
100
AcDbBlockEnd
  0
BLOCK
  5
80
330
7F
100
AcDbEntity
  8
0
100
AcDbBlockBegin
  2
블럭10
 70
     2
 10
0.0
 20
0.0
 30
0.0
  3
블럭10
  1
블럭10
  0
ELLIPSE
  5
82
330
7F
100
AcDbEntity
  8
중심선
100
AcDbEllipse
 10
20.54032771741204
 20
12.0471743016438
 30
0.0
 11
6.600054785286829
 21
-1.261213355974178E-13
 31
0.0
210
0.0
220
0.0
230
1.0
 40
0.636358354079598
 41
0.9219305317359503
 42
6.513795318482858
  0
ELLIPSE
  5
83
330
7F
100
AcDbEntity
  8
중심선
100
AcDbEllipse
 10
20.54032771746488
 20
12.04717430159265
 30
0.0
 11
3.960054785062283
 21
1.540847449632565E-10
 31
0.0
210
0.0
220
0.0
230
1.0
 40
0.3939339440162632
 41
1.131841032648279
 42
5.62031148352944
  0
LINE
  5
84
330
7F
100
AcDbEntity
  8
중심선
100
AcDbLine
 10
2.268634060543552
 20
16.24717430164393
 30
0.0
 11
5.714909304380834
 21
16.24717430164393
 31
0.0
  0
LINE
  5
85
330
7F
100
AcDbEntity
  8
중심선
100
AcDbLine
 10
5.245725140726316
 20
7.84717430164391
 30
0.0
 11
8.692000384563599
 21
7.84717430164391
 31
0.0
  0
LINE
  5
86
330
7F
100
AcDbEntity
  8
중심선
100
AcDbLine
 10
15.74043728645272
 20
16.24717430164393
 30
0.0
 11
8.692000384563599
 21
7.84717430164391
 31
0.0
  0
LINE
  5
87
330
7F
100
AcDbEntity
  8
중심선
100
AcDbLine
 10
0.1404042013395286
 20
13.71084872107135
 30
0.0
 11
3.58671253028996
 21
13.71088815037384
 31
0.0
  0
LINE
  5
88
330
7F
100
AcDbEntity
  8
중심선
100
AcDbLine
 10
2.750260043222114
 20
10.84717430164391
 30
0.0
 11
6.196535287059397
 21
10.84717430164391
 31
0.0
  0
LINE
  5
89
330
7F
100
AcDbEntity
  8
중심선
100
AcDbLine
 10
12.29416204261559
 20
16.24717430164393
 30
0.0
 11
5.245725140726316
 21
7.84717430164391
 31
0.0
  0
LINE
  5
8A
330
7F
100
AcDbEntity
  8
중심선
100
AcDbLine
 10
10.72767329541681
 20
16.24717430164393
 30
0.0
 11
6.196535287059397
 21
10.84717430164391
 31
0.0
  0
LINE
  5
8B
330
7F
100
AcDbEntity
  8
중심선
100
AcDbLine
 10
7.28139805157953
 20
16.24717430164393
 30
0.0
 11
2.750260043222114
 21
10.84717430164391
 31
0.0
  0
LINE
  5
8C
330
7F
100
AcDbEntity
  8
중심선
100
AcDbLine
 10
5.714909304380834
 20
16.24717430164393
 30
0.0
 11
3.58671253028996
 21
13.71088815037384
 31
0.0
  0
LINE
  5
8D
330
7F
100
AcDbEntity
  8
중심선
100
AcDbLine
 10
2.268634060543552
 20
16.24717430164393
 30
0.0
 11
0.1404042013395286
 21
13.71084872107135
 31
0.0
  0
LINE
  5
8E
330
7F
100
AcDbEntity
  8
중심선
100
AcDbLine
 10
7.28139805157953
 20
16.24717430164393
 30
0.0
 11
10.72767329541681
 21
16.24717430164393
 31
0.0
  0
LINE
  5
8F
330
7F
100
AcDbEntity
  8
중심선
100
AcDbLine
 10
12.29416204261559
 20
16.24717430164393
 30
0.0
 11
15.74043728645272
 21
16.24717430164393
 31
0.0
  0
LINE
  5
90
330
7F
100
AcDbEntity
  8
중심선
100
AcDbLine
 10
19.22036997980202
 20
11.08717430171403
 30
0.0
 11
23.66174974927406
 21
11.08717430171406
 31
0.0
  0
LINE
  5
91
330
7F
100
AcDbEntity
  8
중심선
100
AcDbLine
 10
19.22039502424796
 20
13.00717430171391
 30
0.0
 11
19.22036997980202
 21
11.08717430171403
 31
0.0
  0
LINE
  5
92
330
7F
100
AcDbEntity
  8
중심선
100
AcDbLine
 10
19.22039502424796
 20
13.00717430171391
 30
0.0
 11
26.96566020931264
 21
13.00717430171391
 31
0.0
  0
LINE
  5
93
330
7F
100
AcDbEntity
  8
중심선
100
AcDbLine
 10
22.22332737316547
 20
13.45928029700563
 30
0.0
 11
24.52862924686651
 21
15.39360700705356
 31
0.0
  0
ATTDEF
  5
95
330
7F
100
AcDbEntity
  8
FORMAT
 62
     2
100
AcDbText
 10
4.408487351596664
 20
2.075366912832191
 30
0.0
 40
4.233333333333333
  1
E1070116
 41
0.75
  7
SLDTEXTSTYLE0
 11
4.408487351596664
 21
-0.0412997538344756
 31
0.0
100
AcDbAttributeDefinition
  3

  2
AUTOATTR0
 70
     0
 74
     1
  0
ENDBLK
  5
81
330
7F
100
AcDbEntity
  8
0
100
AcDbBlockEnd
  0
BLOCK
  5
D7
330
D6
100
AcDbEntity
  8
0
100
AcDbBlockBegin
  2
_D
 70
     0
 10
0.0
 20
0.0
 30
0.0
  3
_D
  1
_D
  0
LINE
  5
D9
330
D6
100
AcDbEntity
  8
치수문자_일반주서
 62
     0
370
    -2
100
AcDbLine
 10
-50.56249999999999
 20
15.87499999999999
 30
0.0
 11
-64.00000000000006
 21
15.87499999999994
 31
0.0
  0
LINE
  5
DA
330
D6
100
AcDbEntity
  8
치수문자_일반주서
 62
     0
370
    -2
100
AcDbLine
 10
-50.56249999999999
 20
-15.87500000000001
 30
0.0
 11
-63.99999999999994
 21
-15.87500000000006
 31
0.0
  0
LINE
  5
DB
330
D6
100
AcDbEntity
  8
치수문자_일반주서
 62
     0
370
    -2
100
AcDbLine
 10
-64.00000000000004
 20
12.57299999999995
 30
0.0
 11
-63.99999999999996
 21
-12.57300000000006
 31
0.0
  0
SOLID
  5
DC
330
D6
100
AcDbEntity
  8
치수문자_일반주서
 62
     0
100
AcDbTrace
 10
-63.44966666666671
 20
12.57299999999995
 30
0.0
 11
-64.55033333333337
 21
12.57299999999994
 31
0.0
 12
-64.00000000000006
 22
15.87499999999994
 32
0.0
 13
-64.00000000000006
 23
15.87499999999994
 33
0.0
  0
SOLID
  5
DD
330
D6
100
AcDbEntity
  8
치수문자_일반주서
 62
     0
100
AcDbTrace
 10
-64.55033333333328
 20
-12.57300000000006
 30
0.0
 11
-63.44966666666662
 21
-12.57300000000005
 31
0.0
 12
-63.99999999999994
 22
-15.87500000000006
 32
0.0
 13
-63.99999999999994
 23
-15.87500000000006
 33
0.0
  0
MTEXT
  5
DE
330
D6
100
AcDbEntity
  8
치수문자_일반주서
 62
     0
100
AcDbMText
 10
-68.375
 20
-0.0000000000000106
 30
0.0
 40
3.5
 41
0.0
 71
     2
 72
     1
  1
\A1;%%c31.75 [1 1/4]
  7
SLDTEXTSTYLE0
 11
-3.580687802255623E-15
 21
1.0
 31
0.0
 73
     1
 44
1.0
  0
POINT
  5
DF
330
D6
100
AcDbEntity
  8
Defpoints
 62
     0
100
AcDbPoint
 10
-50.49999999999999
 20
15.87499999999999
 30
0.0
  0
POINT
  5
E0
330
D6
100
AcDbEntity
  8
Defpoints
 62
     0
100
AcDbPoint
 10
-50.49999999999999
 20
-15.87500000000001
 30
0.0
  0
POINT
  5
E1
330
D6
100
AcDbEntity
  8
Defpoints
 62
     0
100
AcDbPoint
 10
-63.99999999999994
 20
-15.87500000000006
 30
0.0
  0
ENDBLK
  5
D8
330
D6
100
AcDbEntity
  8
0
100
AcDbBlockEnd
  0
BLOCK
  5
EA
330
E9
100
AcDbEntity
  8
0
100
AcDbBlockBegin
  2
_D_1
 70
     0
 10
0.0
 20
0.0
 30
0.0
  3
_D_1
  1
_D_1
  0
LINE
  5
EC
330
E9
100
AcDbEntity
  8
치수문자_일반주서
 62
     0
370
    -2
100
AcDbLine
 10
62.80000000000001
 20
15.93750000000001
 30
0.0
 11
62.80000000000001
 21
29.03792442259352
 31
0.0
  0
LINE
  5
ED
330
E9
100
AcDbEntity
  8
치수문자_일반주서
 62
     0
370
    -2
100
AcDbLine
 10
12.00000000000001
 20
12.50488030853148
 30
0.0
 11
12.00000000000001
 21
29.03792442259352
 31
0.0
  0
LINE
  5
EE
330
E9
100
AcDbEntity
  8
치수문자_일반주서
 62
     0
370
    -2
100
AcDbLine
 10
59.49800000000001
 20
29.03792442259352
 30
0.0
 11
15.30200000000001
 21
29.03792442259352
 31
0.0
  0
SOLID
  5
EF
330
E9
100
AcDbEntity
  8
치수문자_일반주서
 62
     0
100
AcDbTrace
 10
59.49800000000001
 20
28.48759108926019
 30
0.0
 11
59.49800000000001
 21
29.58825775592686
 31
0.0
 12
62.80000000000001
 22
29.03792442259352
 32
0.0
 13
62.80000000000001
 23
29.03792442259352
 33
0.0
  0
SOLID
  5
F0
330
E9
100
AcDbEntity
  8
치수문자_일반주서
 62
     0
100
AcDbTrace
 10
15.30200000000001
 20
29.58825775592686
 30
0.0
 11
15.30200000000001
 21
28.48759108926019
 31
0.0
 12
12.00000000000001
 22
29.03792442259352
 32
0.0
 13
12.00000000000001
 23
29.03792442259352
 33
0.0
  0
MTEXT
  5
F1
330
E9
100
AcDbEntity
  8
치수문자_일반주서
 62
     0
100
AcDbMText
 10
37.40000000000002
 20
33.41292442259352
 30
0.0
 40
3.5
 41
0.0
 71
     2
 72
     1
  1
\A1;50.8 [2]
  7
SLDTEXTSTYLE0
 73
     1
 44
1.0
  0
POINT
  5
F2
330
E9
100
AcDbEntity
  8
Defpoints
 62
     0
100
AcDbPoint
 10
62.80000000000001
 20
15.87500000000001
 30
0.0
  0
POINT
  5
F3
330
E9
100
AcDbEntity
  8
Defpoints
 62
     0
100
AcDbPoint
 10
12.00000000000001
 20
12.44238030853148
 30
0.0
  0
POINT
  5
F4
330
E9
100
AcDbEntity
  8
Defpoints
 62
     0
100
AcDbPoint
 10
12.00000000000001
 20
29.03792442259352
 30
0.0
  0
ENDBLK
  5
EB
330
E9
100
AcDbEntity
  8
0
100
AcDbBlockEnd
  0
BLOCK
  5
FE
330
FD
100
AcDbEntity
  8
0
100
AcDbBlockBegin
  2
_D_2
 70
     0
 10
0.0
 20
0.0
 30
0.0
  3
_D_2
  1
_D_2
  0
LINE
  5
100
330
FD
100
AcDbEntity
  8
치수문자_일반주서
 62
     0
370
    -2
100
AcDbLine
 10
62.80000000000003
 20
15.93750000000001
 30
0.0
 11
62.80000000000003
 21
45.58996586444052
 31
0.0
  0
LINE
  5
101
330
FD
100
AcDbEntity
  8
치수문자_일반주서
 62
     0
370
    -2
100
AcDbLine
 10
-51.5
 20
14.93749999999998
 30
0.0
 11
-51.5
 21
45.58996586444052
 31
0.0
  0
LINE
  5
102
330
FD
100
AcDbEntity
  8
치수문자_일반주서
 62
     0
370
    -2
100
AcDbLine
 10
59.49800000000003
 20
45.58996586444052
 30
0.0
 11
-48.198
 21
45.58996586444052
 31
0.0
  0
SOLID
  5
103
330
FD
100
AcDbEntity
  8
치수문자_일반주서
 62
     0
100
AcDbTrace
 10
59.49800000000003
 20
45.03963253110718
 30
0.0
 11
59.49800000000003
 21
46.14029919777385
 31
0.0
 12
62.80000000000003
 22
45.58996586444052
 32
0.0
 13
62.80000000000003
 23
45.58996586444052
 33
0.0
  0
SOLID
  5
104
330
FD
100
AcDbEntity
  8
치수문자_일반주서
 62
     0
100
AcDbTrace
 10
-48.198
 20
46.14029919777385
 30
0.0
 11
-48.198
 21
45.03963253110718
 31
0.0
 12
-51.5
 22
45.58996586444052
 32
0.0
 13
-51.5
 23
45.58996586444052
 33
0.0
  0
MTEXT
  5
105
330
FD
100
AcDbEntity
  8
치수문자_일반주서
 62
     0
100
AcDbMText
 10
5.649999999999869
 20
49.96496586444052
 30
0.0
 40
3.5
 41
0.0
 71
     2
 72
     1
  1
\A1;114.3 [4 1/2]
  7
SLDTEXTSTYLE0
 73
     1
 44
1.0
  0
POINT
  5
106
330
FD
100
AcDbEntity
  8
Defpoints
 62
     0
100
AcDbPoint
 10
62.80000000000003
 20
15.87500000000001
 30
0.0
  0
POINT
  5
107
330
FD
100
AcDbEntity
  8
Defpoints
 62
     0
100
AcDbPoint
 10
-51.5
 20
14.87499999999998
 30
0.0
  0
POINT
  5
108
330
FD
100
AcDbEntity
  8
Defpoints
 62
     0
100
AcDbPoint
 10
-51.5
 20
45.58996586444052
 30
0.0
  0
ENDBLK
  5
FF
330
FD
100
AcDbEntity
  8
0
100
AcDbBlockEnd
  0
BLOCK
  5
111
330
110
100
AcDbEntity
  8
0
100
AcDbBlockBegin
  2
_D_3
 70
     0
 10
0.0
 20
0.0
 30
0.0
  3
_D_3
  1
_D_3
  0
LINE
  5
113
330
110
100
AcDbEntity
  8
치수문자_일반주서
 62
     0
370
    -2
100
AcDbLine
 10
62.86250000000001
 20
-15.875
 30
0.0
 11
96.80508855801871
 21
-15.87499999999987
 31
0.0
  0
LINE
  5
114
330
110
100
AcDbEntity
  8
치수문자_일반주서
 62
     0
370
    -2
100
AcDbLine
 10
62.86250000000001
 20
15.87500000000001
 30
0.0
 11
96.8050885580186
 21
15.87500000000014
 31
0.0
  0
LINE
  5
115
330
110
100
AcDbEntity
  8
치수문자_일반주서
 62
     0
370
    -2
100
AcDbLine
 10
96.8050885580186
 20
15.87500000000014
 30
0.0
 11
96.80508855801845
 21
56.26973621325037
 31
0.0
  0
LINE
  5
116
330
110
100
AcDbEntity
  8
치수문자_일반주서
 62
     0
370
    -2
100
AcDbLine
 10
96.8050885580187
 20
-12.57299999999987
 30
0.0
 11
96.80508855801861
 21
12.57300000000014
 31
0.0
  0
SOLID
  5
117
330
110
100
AcDbEntity
  8
치수문자_일반주서
 62
     0
100
AcDbTrace
 10
96.25475522468537
 20
-12.57299999999987
 30
0.0
 11
97.35542189135202
 21
-12.57299999999987
 31
0.0
 12
96.80508855801871
 22
-15.87499999999987
 32
0.0
 13
96.80508855801871
 23
-15.87499999999987
 33
0.0
  0
SOLID
  5
118
330
110
100
AcDbEntity
  8
치수문자_일반주서
 62
     0
100
AcDbTrace
 10
97.35542189135194
 20
12.57300000000014
 30
0.0
 11
96.25475522468528
 21
12.57300000000013
 31
0.0
 12
96.8050885580186
 22
15.87500000000014
 32
0.0
 13
96.8050885580186
 23
15.87500000000014
 33
0.0
  0
MTEXT
  5
119
330
110
100
AcDbEntity
  8
치수문자_일반주서
 62
     0
100
AcDbMText
 10
92.43008855801851
 20
40.51973621325035
 30
0.0
 40
3.5
 41
0.0
 71
     2
 72
     1
  1
\A1;%%c31.75 [1 1/4]
  7
SLDTEXTSTYLE0
 11
-3.580687802255623E-15
 21
1.0
 31
0.0
 73
     1
 44
1.0
  0
POINT
  5
11A
330
110
100
AcDbEntity
  8
Defpoints
 62
     0
100
AcDbPoint
 10
62.80000000000001
 20
-15.875
 30
0.0
  0
POINT
  5
11B
330
110
100
AcDbEntity
  8
Defpoints
 62
     0
100
AcDbPoint
 10
62.80000000000001
 20
15.87500000000001
 30
0.0
  0
POINT
  5
11C
330
110
100
AcDbEntity
  8
Defpoints
 62
     0
100
AcDbPoint
 10
96.8050885580186
 20
15.87500000000014
 30
0.0
  0
ENDBLK
  5
112
330
110
100
AcDbEntity
  8
0
100
AcDbBlockEnd
  0
BLOCK
  5
12A
330
129
100
AcDbEntity
  8
0
100
AcDbBlockBegin
  2
SW_DOWELSYMBOL_0
 70
     0
 10
0.0
 20
0.0
 30
0.0
  3
SW_DOWELSYMBOL_0
  1
SW_DOWELSYMBOL_0
  0
CIRCLE
  5
12C
330
129
100
AcDbEntity
  8
해칭선
 62
     0
100
AcDbCircle
 10
0.0
 20
0.0
 30
0.0
 40
2.999999999999996
  0
HATCH
  5
12D
330
129
100
AcDbEntity
  8
0
  6
Continuous
 62
     0
370
     0
100
AcDbHatch
 10
0.0
 20
0.0
 30
0.0
210
0.0
220
0.0
230
1.0
  2
SOLID
 70
     1
 71
     0
 91
        1
 92
        0
 93
        3
 72
     2
 10
0.0
 20
0.0
 40
2.999999999999996
 50
0.0
 51
90.0
 73
     1
 72
     1
 10
0.0
 20
2.999999999999996
 11
0.0
 21
0.0
 72
     1
 10
0.0
 20
0.0
 11
2.999999999999996
 21
0.0
 97
        0
 75
     0
 76
     1
 98
        1
 10
0.0
 20
0.0
  0
HATCH
  5
12E
330
129
100
AcDbEntity
  8
0
  6
Continuous
 62
     0
370
     0
100
AcDbHatch
 10
0.0
 20
0.0
 30
0.0
210
0.0
220
0.0
230
1.0
  2
SOLID
 70
     1
 71
     0
 91
        1
 92
        0
 93
        3
 72
     2
 10
0.0
 20
0.0
 40
2.999999999999996
 50
180.0
 51
270.0000000000007
 73
     1
 72
     1
 10
0.0
 20
-2.999999999999996
 11
0.0
 21
0.0
 72
     1
 10
0.0
 20
0.0
 11
-2.999999999999996
 21
0.0
 97
        0
 75
     0
 76
     1
 98
        1
 10
0.0
 20
0.0
  0
ENDBLK
  5
12B
330
129
100
AcDbEntity
  8
0
100
AcDbBlockEnd
  0
BLOCK
  5
239
330
238
100
AcDbEntity
  8
0
100
AcDbBlockBegin
  2
*D7
 70
     1
 10
0.0
 20
0.0
 30
0.0
  3
*D7
  1
*D8
  0
LINE
  5
23B
330
238
100
AcDbEntity
  8
치수문자_일반주서
 62
     0
370
    -2
100
AcDbLine
 10
79.2
 20
25.63930209048008
 30
0.0
 11
79.2
 21
35.57680209048009
 31
0.0
  0
LINE
  5
23C
330
238
100
AcDbEntity
  8
치수문자_일반주서
 62
     0
370
    -2
100
AcDbLine
 10
53.8
 20
24.5692485541941
 30
0.0
 11
53.8
 21
35.57680209048009
 31
0.0
  0
LINE
  5
23D
330
238
100
AcDbEntity
  8
치수문자_일반주서
 62
     0
370
    -2
100
AcDbLine
 10
75.898
 20
35.57680209048009
 30
0.0
 11
57.102
 21
35.57680209048009
 31
0.0
  0
SOLID
  5
23E
330
238
100
AcDbEntity
  8
치수문자_일반주서
 62
     0
100
AcDbTrace
 10
75.898
 20
35.02646875714676
 30
0.0
 11
75.898
 21
36.12713542381343
 31
0.0
 12
79.2
 22
35.57680209048009
 32
0.0
 13
79.2
 23
35.57680209048009
 33
0.0
  0
SOLID
  5
23F
330
238
100
AcDbEntity
  8
치수문자_일반주서
 62
     0
100
AcDbTrace
 10
57.102
 20
36.12713542381343
 30
0.0
 11
57.102
 21
35.02646875714676
 31
0.0
 12
53.8
 22
35.57680209048009
 32
0.0
 13
53.8
 23
35.57680209048009
 33
0.0
  0
MTEXT
  5
240
330
238
100
AcDbEntity
  8
치수문자_일반주서
 62
     0
100
AcDbMText
 10
66.5
 20
39.95180209048009
 30
0.0
 40
3.5
 41
0.0
 71
     2
 72
     1
  1
\A1;25.40 [1.00]
  7
SLDTEXTSTYLE0
 73
     1
 44
1.0
  0
POINT
  5
241
330
238
100
AcDbEntity
  8
Defpoints
 62
     0
100
AcDbPoint
 10
79.2
 20
25.57680209048008
 30
0.0
  0
POINT
  5
242
330
238
100
AcDbEntity
  8
Defpoints
 62
     0
100
AcDbPoint
 10
53.8
 20
24.5067485541941
 30
0.0
  0
POINT
  5
243
330
238
100
AcDbEntity
  8
Defpoints
 62
     0
100
AcDbPoint
 10
53.8
 20
35.57680209048009
 30
0.0
  0
ENDBLK
  5
23A
330
238
100
AcDbEntity
  8
0
100
AcDbBlockEnd
  0
BLOCK
  5
245
330
244
100
AcDbEntity
  8
0
100
AcDbBlockBegin
  2
*D8
 70
     1
 10
0.0
 20
0.0
 30
0.0
  3
*D8
  1
*D9
  0
LINE
  5
247
330
244
100
AcDbEntity
  8
치수문자_일반주서
 62
     0
370
    -2
100
AcDbLine
 10
79.2
 20
25.63930209048008
 30
0.0
 11
79.20000000000002
 21
49.34335649257072
 31
0.0
  0
LINE
  5
248
330
244
100
AcDbEntity
  8
치수문자_일반주서
 62
     0
370
    -2
100
AcDbLine
 10
2.999999999999993
 20
24.4463992301247
 30
0.0
 11
3.000000000000007
 21
49.34335649257072
 31
0.0
  0
LINE
  5
249
330
244
100
AcDbEntity
  8
치수문자_일반주서
 62
     0
370
    -2
100
AcDbLine
 10
75.89800000000002
 20
49.34335649257072
 30
0.0
 11
6.302000000000007
 21
49.34335649257072
 31
0.0
  0
SOLID
  5
24A
330
244
100
AcDbEntity
  8
치수문자_일반주서
 62
     0
100
AcDbTrace
 10
75.89800000000002
 20
48.79302315923739
 30
0.0
 11
75.89800000000002
 21
49.89368982590405
 31
0.0
 12
79.20000000000002
 22
49.34335649257072
 32
0.0
 13
79.20000000000002
 23
49.34335649257072
 33
0.0
  0
SOLID
  5
24B
330
244
100
AcDbEntity
  8
치수문자_일반주서
 62
     0
100
AcDbTrace
 10
6.302000000000007
 20
49.89368982590405
 30
0.0
 11
6.302000000000007
 21
48.79302315923739
 31
0.0
 12
3.000000000000007
 22
49.34335649257072
 32
0.0
 13
3.000000000000007
 23
49.34335649257072
 33
0.0
  0
MTEXT
  5
24C
330
244
100
AcDbEntity
  8
치수문자_일반주서
 62
     0
100
AcDbMText
 10
41.09999999999999
 20
53.71835649257072
 30
0.0
 40
3.5
 41
0.0
 71
     2
 72
     1
  1
\A1;76.20 [3.00]
  7
SLDTEXTSTYLE0
 73
     1
 44
1.0
  0
POINT
  5
24D
330
244
100
AcDbEntity
  8
Defpoints
 62
     0
100
AcDbPoint
 10
79.2
 20
25.57680209048008
 30
0.0
  0
POINT
  5
24E
330
244
100
AcDbEntity
  8
Defpoints
 62
     0
100
AcDbPoint
 10
2.999999999999993
 20
24.3838992301247
 30
0.0
  0
POINT
  5
24F
330
244
100
AcDbEntity
  8
Defpoints
 62
     0
100
AcDbPoint
 10
2.999999999999993
 20
49.34335649257071
 30
0.0
  0
ENDBLK
  5
246
330
244
100
AcDbEntity
  8
0
100
AcDbBlockEnd
  0
BLOCK
  5
251
330
250
100
AcDbEntity
  8
0
100
AcDbBlockBegin
  2
*D9
 70
     1
 10
0.0
 20
0.0
 30
0.0
  3
*D9
  1
*D10
  0
LINE
  5
253
330
250
100
AcDbEntity
  8
치수문자_일반주서
 62
     0
370
    -2
100
AcDbLine
 10
104.6625
 20
0.0000000000000002
 30
0.0
 11
123.6000000000003
 21
0.0000000000000711
 31
0.0
  0
LINE
  5
254
330
250
100
AcDbEntity
  8
치수문자_일반주서
 62
     0
370
    -2
100
AcDbLine
 10
104.6625
 20
38.06779846024942
 30
0.0
 11
123.6000000000001
 21
38.06779846024949
 31
0.0
  0
LINE
  5
255
330
250
100
AcDbEntity
  8
치수문자_일반주서
 62
     0
370
    -2
100
AcDbLine
 10
123.6000000000001
 20
38.06779846024949
 30
0.0
 11
123.6
 21
90.46779846024957
 31
0.0
  0
LINE
  5
256
330
250
100
AcDbEntity
  8
치수문자_일반주서
 62
     0
370
    -2
100
AcDbLine
 10
123.6000000000002
 20
3.302000000000071
 30
0.0
 11
123.6000000000001
 21
34.76579846024949
 31
0.0
  0
SOLID
  5
257
330
250
100
AcDbEntity
  8
치수문자_일반주서
 62
     0
100
AcDbTrace
 10
123.0496666666669
 20
3.302000000000069
 30
0.0
 11
124.1503333333336
 21
3.302000000000072
 31
0.0
 12
123.6000000000003
 22
0.0000000000000711
 32
0.0
 13
123.6000000000003
 23
0.0000000000000711
 33
0.0
  0
SOLID
  5
258
330
250
100
AcDbEntity
  8
치수문자_일반주서
 62
     0
100
AcDbTrace
 10
124.1503333333335
 20
34.76579846024949
 30
0.0
 11
123.0496666666668
 21
34.76579846024949
 31
0.0
 12
123.6000000000001
 22
38.06779846024949
 32
0.0
 13
123.6000000000001
 23
38.06779846024949
 33
0.0
  0
MTEXT
  5
259
330
250
100
AcDbEntity
  8
치수문자_일반주서
 62
     0
100
AcDbMText
 10
119.225
 20
76.46779846024955
 30
0.0
 40
3.5
 41
0.0
 71
     2
 72
     1
  1
\A1;%%c38.07 [1.50]
  7
SLDTEXTSTYLE0
 11
-3.359734410971242E-15
 21
1.0
 31
0.0
 73
     1
 44
1.0
  0
POINT
  5
25A
330
250
100
AcDbEntity
  8
Defpoints
 62
     0
100
AcDbPoint
 10
104.6
 20
0.0
 30
0.0
  0
POINT
  5
25B
330
250
100
AcDbEntity
  8
Defpoints
 62
     0
100
AcDbPoint
 10
104.6
 20
38.06779846024942
 30
0.0
  0
POINT
  5
25C
330
250
100
AcDbEntity
  8
Defpoints
 62
     0
100
AcDbPoint
 10
123.6
 20
38.06779846024949
 30
0.0
  0
ENDBLK
  5
252
330
250
100
AcDbEntity
  8
0
100
AcDbBlockEnd
  0
BLOCK
  5
283
330
282
100
AcDbEntity
  8
0
100
AcDbBlockBegin
  2
*D10
 70
     1
 10
0.0
 20
0.0
 30
0.0
  3
*D10
  1
*D11
  0
LINE
  5
285
330
282
100
AcDbEntity
  8
치수문자_일반주서
 62
     0
370
    -2
100
AcDbLine
 10
165.2031281524636
 20
-77.46866663302022
 30
0.0
 11
165.2031281524636
 21
-67.5311666330202
 31
0.0
  0
LINE
  5
286
330
282
100
AcDbEntity
  8
치수문자_일반주서
 62
     0
370
    -2
100
AcDbLine
 10
139.8031281524636
 20
-78.5387201693062
 30
0.0
 11
139.8031281524636
 21
-67.5311666330202
 31
0.0
  0
LINE
  5
287
330
282
100
AcDbEntity
  8
치수문자_일반주서
 62
     0
370
    -2
100
AcDbLine
 10
161.9011281524637
 20
-67.5311666330202
 30
0.0
 11
143.1051281524636
 21
-67.5311666330202
 31
0.0
  0
SOLID
  5
288
330
282
100
AcDbEntity
  8
치수문자_일반주서
 62
     0
100
AcDbTrace
 10
161.9011281524637
 20
-68.08149996635353
 30
0.0
 11
161.9011281524637
 21
-66.98083329968688
 31
0.0
 12
165.2031281524636
 22
-67.5311666330202
 32
0.0
 13
165.2031281524636
 23
-67.5311666330202
 33
0.0
  0
SOLID
  5
289
330
282
100
AcDbEntity
  8
치수문자_일반주서
 62
     0
100
AcDbTrace
 10
143.1051281524636
 20
-66.98083329968688
 30
0.0
 11
143.1051281524636
 21
-68.08149996635353
 31
0.0
 12
139.8031281524636
 22
-67.5311666330202
 32
0.0
 13
139.8031281524636
 23
-67.5311666330202
 33
0.0
  0
MTEXT
  5
28A
330
282
100
AcDbEntity
  8
치수문자_일반주서
 62
     0
100
AcDbMText
 10
152.5031281524636
 20
-63.15616663302021
 30
0.0
 40
3.5
 41
0.0
 71
     2
 72
     1
  1
\A1;25.40 [1.00]
  7
SLDTEXTSTYLE0
 73
     1
 44
1.0
  0
POINT
  5
28B
330
282
100
AcDbEntity
  8
Defpoints
 62
     0
100
AcDbPoint
 10
165.2031281524636
 20
-77.53116663302022
 30
0.0
  0
POINT
  5
28C
330
282
100
AcDbEntity
  8
Defpoints
 62
     0
100
AcDbPoint
 10
139.8031281524636
 20
-78.6012201693062
 30
0.0
  0
POINT
  5
28D
330
282
100
AcDbEntity
  8
Defpoints
 62
     0
100
AcDbPoint
 10
139.8031281524636
 20
-67.5311666330202
 30
0.0
  0
ENDBLK
  5
284
330
282
100
AcDbEntity
  8
0
100
AcDbBlockEnd
  0
BLOCK
  5
28F
330
28E
100
AcDbEntity
  8
0
100
AcDbBlockBegin
  2
*D11
 70
     1
 10
0.0
 20
0.0
 30
0.0
  3
*D11
  1
*D12
  0
LINE
  5
291
330
28E
100
AcDbEntity
  8
치수문자_일반주서
 62
     0
370
    -2
100
AcDbLine
 10
165.2031281524636
 20
-77.46866663302022
 30
0.0
 11
165.2031281524636
 21
-53.76461223092959
 31
0.0
  0
LINE
  5
292
330
28E
100
AcDbEntity
  8
치수문자_일반주서
 62
     0
370
    -2
100
AcDbLine
 10
89.00312815246363
 20
-78.6615694933756
 30
0.0
 11
89.00312815246363
 21
-53.76461223092959
 31
0.0
  0
LINE
  5
293
330
28E
100
AcDbEntity
  8
치수문자_일반주서
 62
     0
370
    -2
100
AcDbLine
 10
161.9011281524637
 20
-53.76461223092959
 30
0.0
 11
92.30512815246362
 21
-53.76461223092959
 31
0.0
  0
SOLID
  5
294
330
28E
100
AcDbEntity
  8
치수문자_일반주서
 62
     0
100
AcDbTrace
 10
161.9011281524637
 20
-54.31494556426292
 30
0.0
 11
161.9011281524637
 21
-53.21427889759625
 31
0.0
 12
165.2031281524636
 22
-53.76461223092959
 32
0.0
 13
165.2031281524636
 23
-53.76461223092959
 33
0.0
  0
SOLID
  5
295
330
28E
100
AcDbEntity
  8
치수문자_일반주서
 62
     0
100
AcDbTrace
 10
92.30512815246362
 20
-53.21427889759625
 30
0.0
 11
92.30512815246362
 21
-54.31494556426292
 31
0.0
 12
89.00312815246363
 22
-53.76461223092959
 32
0.0
 13
89.00312815246363
 23
-53.76461223092959
 33
0.0
  0
MTEXT
  5
296
330
28E
100
AcDbEntity
  8
치수문자_일반주서
 62
     0
100
AcDbMText
 10
127.1031281524636
 20
-49.38961223092959
 30
0.0
 40
3.5
 41
0.0
 71
     2
 72
     1
  1
\A1;76.20 [3.00]
  7
SLDTEXTSTYLE0
 73
     1
 44
1.0
  0
POINT
  5
297
330
28E
100
AcDbEntity
  8
Defpoints
 62
     0
100
AcDbPoint
 10
165.2031281524636
 20
-77.53116663302022
 30
0.0
  0
POINT
  5
298
330
28E
100
AcDbEntity
  8
Defpoints
 62
     0
100
AcDbPoint
 10
89.00312815246363
 20
-78.7240694933756
 30
0.0
  0
POINT
  5
299
330
28E
100
AcDbEntity
  8
Defpoints
 62
     0
100
AcDbPoint
 10
89.00312815246363
 20
-53.76461223092959
 30
0.0
  0
ENDBLK
  5
290
330
28E
100
AcDbEntity
  8
0
100
AcDbBlockEnd
  0
BLOCK
  5
29B
330
29A
100
AcDbEntity
  8
0
100
AcDbBlockBegin
  2
*D12
 70
     1
 10
0.0
 20
0.0
 30
0.0
  3
*D12
  1
*D13
  0
LINE
  5
29D
330
29A
100
AcDbEntity
  8
치수문자_일반주서
 62
     0
370
    -2
100
AcDbLine
 10
190.6656281524636
 20
-103.1079687235003
 30
0.0
 11
209.6031281524639
 21
-103.1079687235002
 31
0.0
  0
LINE
  5
29E
330
29A
100
AcDbEntity
  8
치수문자_일반주서
 62
     0
370
    -2
100
AcDbLine
 10
190.6656281524636
 20
-65.04017026325089
 30
0.0
 11
209.6031281524638
 21
-65.04017026325081
 31
0.0
  0
LINE
  5
29F
330
29A
100
AcDbEntity
  8
치수문자_일반주서
 62
     0
370
    -2
100
AcDbLine
 10
209.6031281524638
 20
-65.04017026325081
 30
0.0
 11
209.6031281524636
 21
-12.64017026325074
 31
0.0
  0
LINE
  5
2A0
330
29A
100
AcDbEntity
  8
치수문자_일반주서
 62
     0
370
    -2
100
AcDbLine
 10
209.6031281524639
 20
-99.80596872350023
 30
0.0
 11
209.6031281524638
 21
-68.34217026325081
 31
0.0
  0
SOLID
  5
2A1
330
29A
100
AcDbEntity
  8
치수문자_일반주서
 62
     0
100
AcDbTrace
 10
209.0527948191306
 20
-99.80596872350023
 30
0.0
 11
210.1534614857972
 21
-99.80596872350023
 31
0.0
 12
209.6031281524639
 22
-103.1079687235002
 32
0.0
 13
209.6031281524639
 23
-103.1079687235002
 33
0.0
  0
SOLID
  5
2A2
330
29A
100
AcDbEntity
  8
치수문자_일반주서
 62
     0
100
AcDbTrace
 10
210.1534614857971
 20
-68.34217026325081
 30
0.0
 11
209.0527948191304
 21
-68.34217026325081
 31
0.0
 12
209.6031281524638
 22
-65.04017026325081
 32
0.0
 13
209.6031281524638
 23
-65.04017026325081
 33
0.0
  0
MTEXT
  5
2A3
330
29A
100
AcDbEntity
  8
치수문자_일반주서
 62
     0
100
AcDbMText
 10
205.2281281524636
 20
-26.64017026325076
 30
0.0
 40
3.5
 41
0.0
 71
     2
 72
     1
  1
\A1;%%c38.07 [1.50]
  7
SLDTEXTSTYLE0
 11
-3.733038234412491E-15
 21
1.0
 31
0.0
 73
     1
 44
1.0
  0
POINT
  5
2A4
330
29A
100
AcDbEntity
  8
Defpoints
 62
     0
100
AcDbPoint
 10
190.6031281524636
 20
-103.1079687235003
 30
0.0
  0
POINT
  5
2A5
330
29A
100
AcDbEntity
  8
Defpoints
 62
     0
100
AcDbPoint
 10
190.6031281524636
 20
-65.04017026325089
 30
0.0
  0
POINT
  5
2A6
330
29A
100
AcDbEntity
  8
Defpoints
 62
     0
100
AcDbPoint
 10
209.6031281524637
 20
-65.04017026325081
 30
0.0
  0
ENDBLK
  5
29C
330
29A
100
AcDbEntity
  8
0
100
AcDbBlockEnd
  0
BLOCK
  5
363
330
362
100
AcDbEntity
  8
0
100
AcDbBlockBegin
  2
*D13
 70
     1
 10
0.0
 20
0.0
 30
0.0
  3
*D13
  1
*D15
  0
LINE
  5
365
330
362
100
AcDbEntity
  8
치수문자_일반주서
 62
     0
370
    -2
100
AcDbLine
 10
17.81250000000003
 20
56.32180738881174
 30
0.0
 11
4.374999999999999
 21
56.32180738881169
 31
0.0
  0
LINE
  5
366
330
362
100
AcDbEntity
  8
치수문자_일반주서
 62
     0
370
    -2
100
AcDbLine
 10
17.81250000000003
 20
43.62180738881175
 30
0.0
 11
4.375000000000044
 21
43.6218073888117
 31
0.0
  0
LINE
  5
367
330
362
100
AcDbEntity
  8
치수문자_일반주서
 62
     0
370
    -2
100
AcDbLine
 10
4.375000000000011
 20
53.01980738881169
 30
0.0
 11
4.375000000000032
 21
46.9238073888117
 31
0.0
  0
SOLID
  5
368
330
362
100
AcDbEntity
  8
치수문자_일반주서
 62
     0
100
AcDbTrace
 10
4.925333333333344
 20
53.01980738881169
 30
0.0
 11
3.824666666666677
 21
53.01980738881169
 31
0.0
 12
4.374999999999999
 22
56.32180738881169
 32
0.0
 13
4.374999999999999
 23
56.32180738881169
 33
0.0
  0
SOLID
  5
369
330
362
100
AcDbEntity
  8
치수문자_일반주서
 62
     0
100
AcDbTrace
 10
3.824666666666698
 20
46.9238073888117
 30
0.0
 11
4.925333333333366
 21
46.9238073888117
 31
0.0
 12
4.375000000000044
 22
43.6218073888117
 32
0.0
 13
4.375000000000044
 23
43.6218073888117
 33
0.0
  0
MTEXT
  5
36A
330
362
100
AcDbEntity
  8
치수문자_일반주서
 62
     0
100
AcDbMText
 10
0.0000000000000213
 20
49.97180738881173
 30
0.0
 40
3.5
 41
0.0
 71
     2
 72
     1
  1
\A1;%%c12.7 [0.50]
  7
SLDTEXTSTYLE0
 11
-3.496765431890260E-15
 21
1.0
 31
0.0
 73
     1
 44
1.0
  0
POINT
  5
36B
330
362
100
AcDbEntity
  8
Defpoints
 62
     0
100
AcDbPoint
 10
17.87500000000003
 20
56.32180738881174
 30
0.0
  0
POINT
  5
36C
330
362
100
AcDbEntity
  8
Defpoints
 62
     0
100
AcDbPoint
 10
17.87500000000003
 20
43.62180738881175
 30
0.0
  0
POINT
  5
36D
330
362
100
AcDbEntity
  8
Defpoints
 62
     0
100
AcDbPoint
 10
4.375000000000021
 20
43.6218073888117
 30
0.0
  0
ENDBLK
  5
364
330
362
100
AcDbEntity
  8
0
100
AcDbBlockEnd
  0
BLOCK
  5
36F
330
36E
100
AcDbEntity
  8
0
100
AcDbBlockBegin
  2
*D14
 70
     1
 10
0.0
 20
0.0
 30
0.0
  3
*D14
  1
*D16
  0
LINE
  5
371
330
36E
100
AcDbEntity
  8
치수문자_일반주서
 62
     0
370
    -2
100
AcDbLine
 10
93.07500000000003
 20
56.57721024916712
 30
0.0
 11
93.07500000000003
 21
66.51471024916712
 31
0.0
  0
LINE
  5
372
330
36E
100
AcDbEntity
  8
치수문자_일반주서
 62
     0
370
    -2
100
AcDbLine
 10
67.67500000000004
 20
55.50715671288114
 30
0.0
 11
67.67500000000004
 21
66.51471024916712
 31
0.0
  0
LINE
  5
373
330
36E
100
AcDbEntity
  8
치수문자_일반주서
 62
     0
370
    -2
100
AcDbLine
 10
89.77300000000002
 20
66.51471024916712
 30
0.0
 11
70.97700000000005
 21
66.51471024916712
 31
0.0
  0
SOLID
  5
374
330
36E
100
AcDbEntity
  8
치수문자_일반주서
 62
     0
100
AcDbTrace
 10
89.77300000000002
 20
65.9643769158338
 30
0.0
 11
89.77300000000002
 21
67.06504358250045
 31
0.0
 12
93.07500000000003
 22
66.51471024916712
 32
0.0
 13
93.07500000000003
 23
66.51471024916712
 33
0.0
  0
SOLID
  5
375
330
36E
100
AcDbEntity
  8
치수문자_일반주서
 62
     0
100
AcDbTrace
 10
70.97700000000005
 20
67.06504358250045
 30
0.0
 11
70.97700000000005
 21
65.9643769158338
 31
0.0
 12
67.67500000000004
 22
66.51471024916712
 32
0.0
 13
67.67500000000004
 23
66.51471024916712
 33
0.0
  0
MTEXT
  5
376
330
36E
100
AcDbEntity
  8
치수문자_일반주서
 62
     0
100
AcDbMText
 10
80.37500000000003
 20
70.88971024916712
 30
0.0
 40
3.5
 41
0.0
 71
     2
 72
     1
  1
\A1;25.40 [1.00]
  7
SLDTEXTSTYLE0
 73
     1
 44
1.0
  0
POINT
  5
377
330
36E
100
AcDbEntity
  8
Defpoints
 62
     0
100
AcDbPoint
 10
93.07500000000003
 20
56.51471024916712
 30
0.0
  0
POINT
  5
378
330
36E
100
AcDbEntity
  8
Defpoints
 62
     0
100
AcDbPoint
 10
67.67500000000004
 20
55.44465671288114
 30
0.0
  0
POINT
  5
379
330
36E
100
AcDbEntity
  8
Defpoints
 62
     0
100
AcDbPoint
 10
67.67500000000004
 20
66.51471024916712
 30
0.0
  0
ENDBLK
  5
370
330
36E
100
AcDbEntity
  8
0
100
AcDbBlockEnd
  0
BLOCK
  5
37B
330
37A
100
AcDbEntity
  8
0
100
AcDbBlockBegin
  2
*D15
 70
     1
 10
0.0
 20
0.0
 30
0.0
  3
*D15
  1
*D17
  0
LINE
  5
37D
330
37A
100
AcDbEntity
  8
치수문자_일반주서
 62
     0
370
    -2
100
AcDbLine
 10
93.07500000000003
 20
56.57721024916712
 30
0.0
 11
93.07500000000003
 21
80.28126465125774
 31
0.0
  0
LINE
  5
37E
330
37A
100
AcDbEntity
  8
치수문자_일반주서
 62
     0
370
    -2
100
AcDbLine
 10
16.87500000000003
 20
55.38430738881174
 30
0.0
 11
16.87500000000003
 21
80.28126465125774
 31
0.0
  0
LINE
  5
37F
330
37A
100
AcDbEntity
  8
치수문자_일반주서
 62
     0
370
    -2
100
AcDbLine
 10
89.77300000000002
 20
80.28126465125774
 30
0.0
 11
20.17700000000003
 21
80.28126465125774
 31
0.0
  0
SOLID
  5
380
330
37A
100
AcDbEntity
  8
치수문자_일반주서
 62
     0
100
AcDbTrace
 10
89.77300000000002
 20
79.73093131792442
 30
0.0
 11
89.77300000000002
 21
80.83159798459107
 31
0.0
 12
93.07500000000003
 22
80.28126465125774
 32
0.0
 13
93.07500000000003
 23
80.28126465125774
 33
0.0
  0
SOLID
  5
381
330
37A
100
AcDbEntity
  8
치수문자_일반주서
 62
     0
100
AcDbTrace
 10
20.17700000000003
 20
80.83159798459107
 30
0.0
 11
20.17700000000003
 21
79.73093131792442
 31
0.0
 12
16.87500000000003
 22
80.28126465125774
 32
0.0
 13
16.87500000000003
 23
80.28126465125774
 33
0.0
  0
MTEXT
  5
382
330
37A
100
AcDbEntity
  8
치수문자_일반주서
 62
     0
100
AcDbMText
 10
54.97500000000003
 20
84.65626465125774
 30
0.0
 40
3.5
 41
0.0
 71
     2
 72
     1
  1
\A1;76.20 [3.00]
  7
SLDTEXTSTYLE0
 73
     1
 44
1.0
  0
POINT
  5
383
330
37A
100
AcDbEntity
  8
Defpoints
 62
     0
100
AcDbPoint
 10
93.07500000000003
 20
56.51471024916712
 30
0.0
  0
POINT
  5
384
330
37A
100
AcDbEntity
  8
Defpoints
 62
     0
100
AcDbPoint
 10
16.87500000000003
 20
55.32180738881174
 30
0.0
  0
POINT
  5
385
330
37A
100
AcDbEntity
  8
Defpoints
 62
     0
100
AcDbPoint
 10
16.87500000000003
 20
80.28126465125774
 30
0.0
  0
ENDBLK
  5
37C
330
37A
100
AcDbEntity
  8
0
100
AcDbBlockEnd
  0
BLOCK
  5
387
330
386
100
AcDbEntity
  8
0
100
AcDbBlockBegin
  2
*D16
 70
     1
 10
0.0
 20
0.0
 30
0.0
  3
*D16
  1
*D18
  0
LINE
  5
389
330
386
100
AcDbEntity
  8
치수문자_일반주서
 62
     0
370
    -2
100
AcDbLine
 10
118.5375
 20
30.93790815868703
 30
0.0
 11
137.4750000000003
 21
30.93790815868711
 31
0.0
  0
LINE
  5
38A
330
386
100
AcDbEntity
  8
치수문자_일반주서
 62
     0
370
    -2
100
AcDbLine
 10
118.5375
 20
69.00570661893646
 30
0.0
 11
137.4750000000002
 21
69.00570661893653
 31
0.0
  0
LINE
  5
38B
330
386
100
AcDbEntity
  8
치수문자_일반주서
 62
     0
370
    -2
100
AcDbLine
 10
137.4750000000002
 20
69.00570661893653
 30
0.0
 11
137.475
 21
121.4057066189366
 31
0.0
  0
LINE
  5
38C
330
386
100
AcDbEntity
  8
치수문자_일반주서
 62
     0
370
    -2
100
AcDbLine
 10
137.4750000000003
 20
34.23990815868711
 30
0.0
 11
137.4750000000002
 21
65.70370661893654
 31
0.0
  0
SOLID
  5
38D
330
386
100
AcDbEntity
  8
치수문자_일반주서
 62
     0
100
AcDbTrace
 10
136.924666666667
 20
34.23990815868711
 30
0.0
 11
138.0253333333336
 21
34.23990815868711
 31
0.0
 12
137.4750000000003
 22
30.93790815868711
 32
0.0
 13
137.4750000000003
 23
30.93790815868711
 33
0.0
  0
SOLID
  5
38E
330
386
100
AcDbEntity
  8
치수문자_일반주서
 62
     0
100
AcDbTrace
 10
138.0253333333335
 20
65.70370661893654
 30
0.0
 11
136.9246666666668
 21
65.70370661893654
 31
0.0
 12
137.4750000000002
 22
69.00570661893653
 32
0.0
 13
137.4750000000002
 23
69.00570661893653
 33
0.0
  0
MTEXT
  5
38F
330
386
100
AcDbEntity
  8
치수문자_일반주서
 62
     0
100
AcDbMText
 10
133.1
 20
107.4057066189366
 30
0.0
 40
3.5
 41
0.0
 71
     2
 72
     1
  1
\A1;%%c38.07 [1.50]
  7
SLDTEXTSTYLE0
 11
-3.733038234412491E-15
 21
1.0
 31
0.0
 73
     1
 44
1.0
  0
POINT
  5
390
330
386
100
AcDbEntity
  8
Defpoints
 62
     0
100
AcDbPoint
 10
118.475
 20
30.93790815868703
 30
0.0
  0
POINT
  5
391
330
386
100
AcDbEntity
  8
Defpoints
 62
     0
100
AcDbPoint
 10
118.475
 20
69.00570661893646
 30
0.0
  0
POINT
  5
392
330
386
100
AcDbEntity
  8
Defpoints
 62
     0
100
AcDbPoint
 10
137.4750000000001
 20
69.00570661893653
 30
0.0
  0
ENDBLK
  5
388
330
386
100
AcDbEntity
  8
0
100
AcDbBlockEnd
  0
BLOCK
  5
3C1
330
3C0
100
AcDbEntity
  8
0
100
AcDbBlockBegin
  2
*D17
 70
     1
 10
0.0
 20
0.0
 30
0.0
  3
*D17
  1
*D19
  0
LINE
  5
3C3
330
3C0
100
AcDbEntity
  8
치수문자_일반주서
 62
     0
370
    -2
100
AcDbLine
 10
172.5818320371808
 20
125.0225122005989
 30
0.0
 11
159.1443320371808
 21
125.0225122005989
 31
0.0
  0
LINE
  5
3C4
330
3C0
100
AcDbEntity
  8
치수문자_일반주서
 62
     0
370
    -2
100
AcDbLine
 10
172.5818320371808
 20
112.3225122005989
 30
0.0
 11
159.1443320371808
 21
112.3225122005989
 31
0.0
  0
LINE
  5
3C5
330
3C0
100
AcDbEntity
  8
치수문자_일반주서
 62
     0
370
    -2
100
AcDbLine
 10
159.1443320371808
 20
121.7205122005989
 30
0.0
 11
159.1443320371808
 21
115.6245122005989
 31
0.0
  0
SOLID
  5
3C6
330
3C0
100
AcDbEntity
  8
치수문자_일반주서
 62
     0
100
AcDbTrace
 10
159.6946653705141
 20
121.7205122005989
 30
0.0
 11
158.5939987038475
 21
121.7205122005989
 31
0.0
 12
159.1443320371808
 22
125.0225122005989
 32
0.0
 13
159.1443320371808
 23
125.0225122005989
 33
0.0
  0
SOLID
  5
3C7
330
3C0
100
AcDbEntity
  8
치수문자_일반주서
 62
     0
100
AcDbTrace
 10
158.5939987038475
 20
115.6245122005989
 30
0.0
 11
159.6946653705141
 21
115.6245122005989
 31
0.0
 12
159.1443320371808
 22
112.3225122005989
 32
0.0
 13
159.1443320371808
 23
112.3225122005989
 33
0.0
  0
MTEXT
  5
3C8
330
3C0
100
AcDbEntity
  8
치수문자_일반주서
 62
     0
100
AcDbMText
 10
154.7693320371808
 20
118.6725122005989
 30
0.0
 40
3.5
 41
0.0
 71
     2
 72
     1
  1
\A1;%%c12.7 [0.50]
  7
SLDTEXTSTYLE0
 11
-4.475859752819533E-15
 21
1.0
 31
0.0
 73
     1
 44
1.0
  0
POINT
  5
3C9
330
3C0
100
AcDbEntity
  8
Defpoints
 62
     0
100
AcDbPoint
 10
172.6443320371808
 20
125.0225122005989
 30
0.0
  0
POINT
  5
3CA
330
3C0
100
AcDbEntity
  8
Defpoints
 62
     0
100
AcDbPoint
 10
172.6443320371808
 20
112.3225122005989
 30
0.0
  0
POINT
  5
3CB
330
3C0
100
AcDbEntity
  8
Defpoints
 62
     0
100
AcDbPoint
 10
159.1443320371808
 20
112.3225122005989
 30
0.0
  0
ENDBLK
  5
3C2
330
3C0
100
AcDbEntity
  8
0
100
AcDbBlockEnd
  0
BLOCK
  5
3CD
330
3CC
100
AcDbEntity
  8
0
100
AcDbBlockBegin
  2
*D18
 70
     1
 10
0.0
 20
0.0
 30
0.0
  3
*D18
  1
*D20
  0
LINE
  5
3CF
330
3CC
100
AcDbEntity
  8
치수문자_일반주서
 62
     0
370
    -2
100
AcDbLine
 10
52.79999999999997
 20
19.11250000000002
 30
0.0
 11
52.79999999999997
 21
27.15787164837827
 31
0.0
  0
LINE
  5
3D0
330
3CC
100
AcDbEntity
  8
치수문자_일반주서
 62
     0
370
    -2
100
AcDbLine
 10
2.000000000000014
 20
15.93750000000001
 30
0.0
 11
2.000000000000014
 21
27.15787164837827
 31
0.0
  0
LINE
  5
3D1
330
3CC
100
AcDbEntity
  8
치수문자_일반주서
 62
     0
370
    -2
100
AcDbLine
 10
49.49799999999997
 20
27.15787164837827
 30
0.0
 11
5.302000000000014
 21
27.15787164837827
 31
0.0
  0
SOLID
  5
3D2
330
3CC
100
AcDbEntity
  8
치수문자_일반주서
 62
     0
100
AcDbTrace
 10
49.49799999999997
 20
26.60753831504493
 30
0.0
 11
49.49799999999997
 21
27.7082049817116
 31
0.0
 12
52.79999999999997
 22
27.15787164837827
 32
0.0
 13
52.79999999999997
 23
27.15787164837827
 33
0.0
  0
SOLID
  5
3D3
330
3CC
100
AcDbEntity
  8
치수문자_일반주서
 62
     0
100
AcDbTrace
 10
5.302000000000014
 20
27.7082049817116
 30
0.0
 11
5.302000000000014
 21
26.60753831504493
 31
0.0
 12
2.000000000000014
 22
27.15787164837827
 32
0.0
 13
2.000000000000014
 23
27.15787164837827
 33
0.0
  0
MTEXT
  5
3D4
330
3CC
100
AcDbEntity
  8
치수문자_일반주서
 62
     0
100
AcDbMText
 10
30.02869553787464
 20
31.53287164837827
 30
0.0
 40
3.5
 41
0.0
 71
     2
 72
     1
  1
\A1;50.8 [2]
  7
SLDTEXTSTYLE0
 73
     1
 44
1.0
  0
POINT
  5
3D5
330
3CC
100
AcDbEntity
  8
Defpoints
 62
     0
100
AcDbPoint
 10
52.79999999999997
 20
19.05000000000002
 30
0.0
  0
POINT
  5
3D6
330
3CC
100
AcDbEntity
  8
Defpoints
 62
     0
100
AcDbPoint
 10
2.000000000000014
 20
15.87500000000001
 30
0.0
  0
POINT
  5
3D7
330
3CC
100
AcDbEntity
  8
Defpoints
 62
     0
100
AcDbPoint
 10
2.000000000000014
 20
27.15787164837827
 30
0.0
  0
ENDBLK
  5
3CE
330
3CC
100
AcDbEntity
  8
0
100
AcDbBlockEnd
  0
BLOCK
  5
3D9
330
3D8
100
AcDbEntity
  8
0
100
AcDbBlockBegin
  2
*D19
 70
     1
 10
0.0
 20
0.0
 30
0.0
  3
*D19
  1
*D21
  0
LINE
  5
3DB
330
3D8
100
AcDbEntity
  8
0
  6
Continuous
 62
     0
370
    -2
100
AcDbLine
 10
247.8443320371808
 20
125.2779150609543
 30
0.0
 11
247.8443320371808
 21
148.9819694630449
 31
0.0
  0
LINE
  5
3DC
330
3D8
100
AcDbEntity
  8
0
  6
Continuous
 62
     0
370
    -2
100
AcDbLine
 10
171.6443320371808
 20
124.0850122005989
 30
0.0
 11
171.6443320371808
 21
148.9819694630449
 31
0.0
  0
LINE
  5
3DD
330
3D8
100
AcDbEntity
  8
0
  6
Continuous
 62
     0
370
    -2
100
AcDbLine
 10
244.5423320371808
 20
148.9819694630449
 30
0.0
 11
174.9463320371808
 21
148.9819694630449
 31
0.0
  0
SOLID
  5
3DE
330
3D8
100
AcDbEntity
  8
0
 62
     0
100
AcDbTrace
 10
244.5423320371808
 20
148.4316361297116
 30
0.0
 11
244.5423320371808
 21
149.5323027963782
 31
0.0
 12
247.8443320371808
 22
148.9819694630449
 32
0.0
 13
247.8443320371808
 23
148.9819694630449
 33
0.0
  0
SOLID
  5
3DF
330
3D8
100
AcDbEntity
  8
0
 62
     0
100
AcDbTrace
 10
174.9463320371808
 20
149.5323027963782
 30
0.0
 11
174.9463320371808
 21
148.4316361297116
 31
0.0
 12
171.6443320371808
 22
148.9819694630449
 32
0.0
 13
171.6443320371808
 23
148.9819694630449
 33
0.0
  0
MTEXT
  5
3E0
330
3D8
100
AcDbEntity
  8
0
 62
     0
370
    15
100
AcDbMText
 10
209.7443320371808
 20
153.3569694630449
 30
0.0
 40
3.5
 41
0.0
 71
     2
 72
     1
  1
\A1;76.20 [3.00]
  7
SLDTEXTSTYLE0
 73
     1
 44
1.0
  0
POINT
  5
3E1
330
3D8
100
AcDbEntity
  8
Defpoints
 62
     0
100
AcDbPoint
 10
247.8443320371808
 20
125.2154150609543
 30
0.0
  0
POINT
  5
3E2
330
3D8
100
AcDbEntity
  8
Defpoints
 62
     0
100
AcDbPoint
 10
171.6443320371808
 20
124.0225122005989
 30
0.0
  0
POINT
  5
3E3
330
3D8
100
AcDbEntity
  8
Defpoints
 62
     0
100
AcDbPoint
 10
171.6443320371808
 20
148.9819694630449
 30
0.0
  0
ENDBLK
  5
3DA
330
3D8
100
AcDbEntity
  8
0
100
AcDbBlockEnd
  0
BLOCK
  5
3E5
330
3E4
100
AcDbEntity
  8
0
100
AcDbBlockBegin
  2
*D20
 70
     1
 10
0.0
 20
0.0
 30
0.0
  3
*D20
  1
*D22
  0
LINE
  5
3E7
330
3E4
100
AcDbEntity
  8
치수문자_일반주서
 62
     0
370
    -2
100
AcDbLine
 10
52.86249999999997
 20
-19.04999999999999
 30
0.0
 11
71.80000000000017
 21
-19.04999999999992
 31
0.0
  0
LINE
  5
3E8
330
3E4
100
AcDbEntity
  8
치수문자_일반주서
 62
     0
370
    -2
100
AcDbLine
 10
52.86249999999997
 20
19.05000000000002
 30
0.0
 11
71.80000000000004
 21
19.05000000000009
 31
0.0
  0
LINE
  5
3E9
330
3E4
100
AcDbEntity
  8
치수문자_일반주서
 62
     0
370
    -2
100
AcDbLine
 10
71.80000000000004
 20
19.05000000000009
 30
0.0
 11
71.79999999999993
 21
55.19534697194272
 31
0.0
  0
LINE
  5
3EA
330
3E4
100
AcDbEntity
  8
치수문자_일반주서
 62
     0
370
    -2
100
AcDbLine
 10
71.80000000000015
 20
-15.74799999999992
 30
0.0
 11
71.80000000000005
 21
15.74800000000009
 31
0.0
  0
SOLID
  5
3EB
330
3E4
100
AcDbEntity
  8
치수문자_일반주서
 62
     0
100
AcDbTrace
 10
71.24966666666683
 20
-15.74799999999992
 30
0.0
 11
72.35033333333348
 21
-15.74799999999992
 31
0.0
 12
71.80000000000017
 22
-19.04999999999992
 32
0.0
 13
71.80000000000017
 23
-19.04999999999992
 33
0.0
  0
SOLID
  5
3EC
330
3E4
100
AcDbEntity
  8
치수문자_일반주서
 62
     0
100
AcDbTrace
 10
72.35033333333338
 20
15.74800000000009
 30
0.0
 11
71.24966666666673
 21
15.74800000000009
 31
0.0
 12
71.80000000000004
 22
19.05000000000009
 32
0.0
 13
71.80000000000004
 23
19.05000000000009
 33
0.0
  0
MTEXT
  5
3ED
330
3E4
100
AcDbEntity
  8
치수문자_일반주서
 62
     0
100
AcDbMText
 10
67.42499999999997
 20
40.7578469719427
 30
0.0
 40
3.5
 41
0.0
 71
     2
 72
     1
  1
\A1;%%c38.1 [1 1/2]
  7
SLDTEXTSTYLE0
 11
-3.356894814614646E-15
 21
1.0
 31
0.0
 73
     1
 44
1.0
  0
POINT
  5
3EE
330
3E4
100
AcDbEntity
  8
Defpoints
 62
     0
100
AcDbPoint
 10
52.79999999999997
 20
-19.04999999999999
 30
0.0
  0
POINT
  5
3EF
330
3E4
100
AcDbEntity
  8
Defpoints
 62
     0
100
AcDbPoint
 10
52.79999999999997
 20
19.05000000000002
 30
0.0
  0
POINT
  5
3F0
330
3E4
100
AcDbEntity
  8
Defpoints
 62
     0
100
AcDbPoint
 10
71.80000000000004
 20
19.05000000000009
 30
0.0
  0
ENDBLK
  5
3E6
330
3E4
100
AcDbEntity
  8
0
100
AcDbBlockEnd
  0
BLOCK
  5
3FC
330
3FB
100
AcDbEntity
  8
0
100
AcDbBlockBegin
  2
*D21
 70
     1
 10
0.0
 20
0.0
 30
0.0
  3
*D21
  1
*D23
  0
LINE
  5
3FE
330
3FB
100
AcDbEntity
  8
치수문자_일반주서
 62
     0
370
    -2
100
AcDbLine
 10
-60.56250000000003
 20
15.87500000000002
 30
0.0
 11
-74.00000000000009
 21
15.87499999999997
 31
0.0
  0
LINE
  5
3FF
330
3FB
100
AcDbEntity
  8
치수문자_일반주서
 62
     0
370
    -2
100
AcDbLine
 10
-60.56250000000003
 20
-15.87499999999999
 30
0.0
 11
-73.99999999999997
 21
-15.87500000000004
 31
0.0
  0
LINE
  5
400
330
3FB
100
AcDbEntity
  8
치수문자_일반주서
 62
     0
370
    -2
100
AcDbLine
 10
-74.00000000000007
 20
12.57299999999997
 30
0.0
 11
-73.99999999999999
 21
-12.57300000000004
 31
0.0
  0
SOLID
  5
401
330
3FB
100
AcDbEntity
  8
치수문자_일반주서
 62
     0
100
AcDbTrace
 10
-73.44966666666674
 20
12.57299999999997
 30
0.0
 11
-74.5503333333334
 21
12.57299999999997
 31
0.0
 12
-74.00000000000009
 22
15.87499999999997
 32
0.0
 13
-74.00000000000009
 23
15.87499999999997
 33
0.0
  0
SOLID
  5
402
330
3FB
100
AcDbEntity
  8
치수문자_일반주서
 62
     0
100
AcDbTrace
 10
-74.55033333333331
 20
-12.57300000000004
 30
0.0
 11
-73.44966666666666
 21
-12.57300000000004
 31
0.0
 12
-73.99999999999997
 22
-15.87500000000004
 32
0.0
 13
-73.99999999999997
 23
-15.87500000000004
 33
0.0
  0
MTEXT
  5
403
330
3FB
100
AcDbEntity
  8
치수문자_일반주서
 62
     0
100
AcDbMText
 10
-78.37500000000003
 20
0.0000000000000059
 30
0.0
 40
3.5
 41
0.0
 71
     2
 72
     1
  1
\A1;%%c31.75 [1 1/4]
  7
SLDTEXTSTYLE0
 11
-3.580687802255621E-15
 21
1.0
 31
0.0
 73
     1
 44
1.0
  0
POINT
  5
404
330
3FB
100
AcDbEntity
  8
Defpoints
 62
     0
100
AcDbPoint
 10
-60.50000000000003
 20
15.87500000000002
 30
0.0
  0
POINT
  5
405
330
3FB
100
AcDbEntity
  8
Defpoints
 62
     0
100
AcDbPoint
 10
-60.50000000000003
 20
-15.87499999999999
 30
0.0
  0
POINT
  5
406
330
3FB
100
AcDbEntity
  8
Defpoints
 62
     0
100
AcDbPoint
 10
-73.99999999999997
 20
-15.87500000000004
 30
0.0
  0
ENDBLK
  5
3FD
330
3FB
100
AcDbEntity
  8
0
100
AcDbBlockEnd
  0
BLOCK
  5
408
330
407
100
AcDbEntity
  8
0
100
AcDbBlockBegin
  2
*D22
 70
     1
 10
0.0
 20
0.0
 30
0.0
  3
*D22
  1
*D24
  0
LINE
  5
40A
330
407
100
AcDbEntity
  8
치수문자_일반주서
 62
     0
370
    -2
100
AcDbLine
 10
52.79999999999997
 20
19.11250000000002
 30
0.0
 11
52.79999999999997
 21
45.58996586444055
 31
0.0
  0
LINE
  5
40B
330
407
100
AcDbEntity
  8
치수문자_일반주서
 62
     0
370
    -2
100
AcDbLine
 10
-61.50000000000003
 20
14.93749999999999
 30
0.0
 11
-61.50000000000003
 21
45.58996586444055
 31
0.0
  0
LINE
  5
40C
330
407
100
AcDbEntity
  8
치수문자_일반주서
 62
     0
370
    -2
100
AcDbLine
 10
49.49799999999997
 20
45.58996586444055
 30
0.0
 11
-58.19800000000003
 21
45.58996586444055
 31
0.0
  0
SOLID
  5
40D
330
407
100
AcDbEntity
  8
치수문자_일반주서
 62
     0
100
AcDbTrace
 10
49.49799999999997
 20
45.03963253110722
 30
0.0
 11
49.49799999999997
 21
46.14029919777388
 31
0.0
 12
52.79999999999997
 22
45.58996586444055
 32
0.0
 13
52.79999999999997
 23
45.58996586444055
 33
0.0
  0
SOLID
  5
40E
330
407
100
AcDbEntity
  8
치수문자_일반주서
 62
     0
100
AcDbTrace
 10
-58.19800000000003
 20
46.14029919777388
 30
0.0
 11
-58.19800000000003
 21
45.03963253110722
 31
0.0
 12
-61.50000000000003
 22
45.58996586444055
 32
0.0
 13
-61.50000000000003
 23
45.58996586444055
 33
0.0
  0
MTEXT
  5
40F
330
407
100
AcDbEntity
  8
치수문자_일반주서
 62
     0
100
AcDbMText
 10
-4.350000000000165
 20
49.96496586444055
 30
0.0
 40
3.5
 41
0.0
 71
     2
 72
     1
  1
\A1;114.3 [4 1/2]
  7
SLDTEXTSTYLE0
 73
     1
 44
1.0
  0
POINT
  5
410
330
407
100
AcDbEntity
  8
Defpoints
 62
     0
100
AcDbPoint
 10
52.79999999999997
 20
19.05000000000002
 30
0.0
  0
POINT
  5
411
330
407
100
AcDbEntity
  8
Defpoints
 62
     0
100
AcDbPoint
 10
-61.50000000000003
 20
14.87499999999999
 30
0.0
  0
POINT
  5
412
330
407
100
AcDbEntity
  8
Defpoints
 62
     0
100
AcDbPoint
 10
-61.50000000000003
 20
45.58996586444055
 30
0.0
  0
ENDBLK
  5
409
330
407
100
AcDbEntity
  8
0
100
AcDbBlockEnd
  0
BLOCK
  5
450
330
44F
100
AcDbEntity
  8
0
100
AcDbBlockBegin
  2
*D23
 70
     1
 10
0.0
 20
0.0
 30
0.0
  3
*D23
  1
*D26
  0
LINE
  5
452
330
44F
100
AcDbEntity
  8
0
 62
     0
370
    -2
100
AcDbLine
 10
-65.41646942134602
 20
-0.189457228315008
 30
0.0
 11
-41.37246157525173
 21
-0.1894572283150106
 31
0.0
  0
LINE
  5
453
330
44F
100
AcDbEntity
  8
0
 62
     0
370
    -2
100
AcDbLine
 10
-47.32947277478223
 20
15.68554277168501
 30
0.0
 11
-41.37246157525173
 21
15.68554277168501
 31
0.0
  0
LINE
  5
454
330
44F
100
AcDbEntity
  8
0
 62
     0
370
    -2
100
AcDbLine
 10
-42.37246157525173
 20
18.98754277168501
 30
0.0
 11
-27.43179490858505
 21
18.98754277168501
 31
0.0
  0
LINE
  5
455
330
44F
100
AcDbEntity
  8
0
 62
     0
370
    -2
100
AcDbLine
 10
-42.37246157525173
 20
3.11254277168499
 30
0.0
 11
-42.37246157525173
 21
12.38354277168501
 31
0.0
  0
LINE
  5
456
330
44F
100
AcDbEntity
  8
0
 62
     0
370
    -2
100
AcDbLine
 10
-42.37246157525173
 20
15.68554277168501
 30
0.0
 11
-42.37246157525173
 21
18.98754277168501
 31
0.0
  0
SOLID
  5
457
330
44F
100
AcDbEntity
  8
0
 62
     0
100
AcDbTrace
 10
-42.92279490858506
 20
3.11254277168499
 30
0.0
 11
-41.82212824191839
 21
3.11254277168499
 31
0.0
 12
-42.37246157525173
 22
-0.1894572283150104
 32
0.0
 13
-42.37246157525173
 23
-0.1894572283150104
 33
0.0
  0
SOLID
  5
458
330
44F
100
AcDbEntity
  8
0
 62
     0
100
AcDbTrace
 10
-41.82212824191839
 20
12.38354277168501
 30
0.0
 11
-42.92279490858506
 21
12.38354277168501
 31
0.0
 12
-42.37246157525173
 22
15.68554277168501
 32
0.0
 13
-42.37246157525173
 23
15.68554277168501
 33
0.0
  0
MTEXT
  5
459
330
44F
100
AcDbEntity
  8
0
 62
     0
100
AcDbMText
 10
-34.14012824191839
 20
22.55320943835167
 30
0.0
 40
3.5
 41
0.0
 71
     5
 72
     1
  1
15,88
 73
     1
 44
1.0
  0
POINT
  5
45A
330
44F
100
AcDbEntity
  8
Defpoints
 62
     0
100
AcDbPoint
 10
-66.41646942134602
 20
-0.1894572283150079
 30
0.0
  0
POINT
  5
45B
330
44F
100
AcDbEntity
  8
Defpoints
 62
     0
100
AcDbPoint
 10
-48.32947277478223
 20
15.68554277168501
 30
0.0
  0
POINT
  5
45C
330
44F
100
AcDbEntity
  8
Defpoints
 62
     0
100
AcDbPoint
 10
-42.37246157525173
 20
15.68554277168501
 30
0.0
  0
ENDBLK
  5
451
330
44F
100
AcDbEntity
  8
0
100
AcDbBlockEnd
  0
BLOCK
  5
515
330
514
100
AcDbEntity
  8
0
100
AcDbBlockBegin
  2
*D24
 70
     1
 10
0.0
 20
0.0
 30
0.0
  3
*D24
  1
*D28
  0
LINE
  5
517
330
514
100
AcDbEntity
  8
치수문자_일반주서
 62
     0
370
    -2
100
AcDbLine
 10
17.81250000000003
 20
56.32180738881174
 30
0.0
 11
4.374999999999999
 21
56.32180738881169
 31
0.0
  0
LINE
  5
518
330
514
100
AcDbEntity
  8
치수문자_일반주서
 62
     0
370
    -2
100
AcDbLine
 10
17.81250000000003
 20
43.62180738881175
 30
0.0
 11
4.375000000000044
 21
43.6218073888117
 31
0.0
  0
LINE
  5
519
330
514
100
AcDbEntity
  8
치수문자_일반주서
 62
     0
370
    -2
100
AcDbLine
 10
4.375000000000011
 20
53.01980738881169
 30
0.0
 11
4.375000000000032
 21
46.9238073888117
 31
0.0
  0
SOLID
  5
51A
330
514
100
AcDbEntity
  8
치수문자_일반주서
 62
     0
100
AcDbTrace
 10
4.925333333333344
 20
53.01980738881169
 30
0.0
 11
3.824666666666677
 21
53.01980738881169
 31
0.0
 12
4.374999999999999
 22
56.32180738881169
 32
0.0
 13
4.374999999999999
 23
56.32180738881169
 33
0.0
  0
SOLID
  5
51B
330
514
100
AcDbEntity
  8
치수문자_일반주서
 62
     0
100
AcDbTrace
 10
3.824666666666698
 20
46.9238073888117
 30
0.0
 11
4.925333333333366
 21
46.9238073888117
 31
0.0
 12
4.375000000000044
 22
43.6218073888117
 32
0.0
 13
4.375000000000044
 23
43.6218073888117
 33
0.0
  0
MTEXT
  5
51C
330
514
100
AcDbEntity
  8
치수문자_일반주서
 62
     0
100
AcDbMText
 10
0.0000000000000213
 20
49.97180738881173
 30
0.0
 40
3.5
 41
0.0
 71
     2
 72
     1
  1
\A1;%%c12.7 [0.50]
  7
SLDTEXTSTYLE0
 11
-3.496765431890260E-15
 21
1.0
 31
0.0
 73
     1
 44
1.0
  0
POINT
  5
51D
330
514
100
AcDbEntity
  8
Defpoints
 62
     0
100
AcDbPoint
 10
17.87500000000003
 20
56.32180738881174
 30
0.0
  0
POINT
  5
51E
330
514
100
AcDbEntity
  8
Defpoints
 62
     0
100
AcDbPoint
 10
17.87500000000003
 20
43.62180738881175
 30
0.0
  0
POINT
  5
51F
330
514
100
AcDbEntity
  8
Defpoints
 62
     0
100
AcDbPoint
 10
4.375000000000021
 20
43.6218073888117
 30
0.0
  0
ENDBLK
  5
516
330
514
100
AcDbEntity
  8
0
100
AcDbBlockEnd
  0
BLOCK
  5
521
330
520
100
AcDbEntity
  8
0
100
AcDbBlockBegin
  2
*D25
 70
     1
 10
0.0
 20
0.0
 30
0.0
  3
*D25
  1
*D29
  0
LINE
  5
523
330
520
100
AcDbEntity
  8
치수문자_일반주서
 62
     0
370
    -2
100
AcDbLine
 10
93.07500000000003
 20
56.57721024916712
 30
0.0
 11
93.07500000000003
 21
66.51471024916712
 31
0.0
  0
LINE
  5
524
330
520
100
AcDbEntity
  8
치수문자_일반주서
 62
     0
370
    -2
100
AcDbLine
 10
67.67500000000004
 20
55.50715671288114
 30
0.0
 11
67.67500000000004
 21
66.51471024916712
 31
0.0
  0
LINE
  5
525
330
520
100
AcDbEntity
  8
치수문자_일반주서
 62
     0
370
    -2
100
AcDbLine
 10
89.77300000000002
 20
66.51471024916712
 30
0.0
 11
70.97700000000005
 21
66.51471024916712
 31
0.0
  0
SOLID
  5
526
330
520
100
AcDbEntity
  8
치수문자_일반주서
 62
     0
100
AcDbTrace
 10
89.77300000000002
 20
65.9643769158338
 30
0.0
 11
89.77300000000002
 21
67.06504358250045
 31
0.0
 12
93.07500000000003
 22
66.51471024916712
 32
0.0
 13
93.07500000000003
 23
66.51471024916712
 33
0.0
  0
SOLID
  5
527
330
520
100
AcDbEntity
  8
치수문자_일반주서
 62
     0
100
AcDbTrace
 10
70.97700000000005
 20
67.06504358250045
 30
0.0
 11
70.97700000000005
 21
65.9643769158338
 31
0.0
 12
67.67500000000004
 22
66.51471024916712
 32
0.0
 13
67.67500000000004
 23
66.51471024916712
 33
0.0
  0
MTEXT
  5
528
330
520
100
AcDbEntity
  8
치수문자_일반주서
 62
     0
100
AcDbMText
 10
80.37500000000003
 20
70.88971024916712
 30
0.0
 40
3.5
 41
0.0
 71
     2
 72
     1
  1
\A1;25.40 [1.00]
  7
SLDTEXTSTYLE0
 73
     1
 44
1.0
  0
POINT
  5
529
330
520
100
AcDbEntity
  8
Defpoints
 62
     0
100
AcDbPoint
 10
93.07500000000003
 20
56.51471024916712
 30
0.0
  0
POINT
  5
52A
330
520
100
AcDbEntity
  8
Defpoints
 62
     0
100
AcDbPoint
 10
67.67500000000004
 20
55.44465671288114
 30
0.0
  0
POINT
  5
52B
330
520
100
AcDbEntity
  8
Defpoints
 62
     0
100
AcDbPoint
 10
67.67500000000004
 20
66.51471024916712
 30
0.0
  0
ENDBLK
  5
522
330
520
100
AcDbEntity
  8
0
100
AcDbBlockEnd
  0
BLOCK
  5
52D
330
52C
100
AcDbEntity
  8
0
100
AcDbBlockBegin
  2
*D26
 70
     1
 10
0.0
 20
0.0
 30
0.0
  3
*D26
  1
*D30
  0
LINE
  5
52F
330
52C
100
AcDbEntity
  8
치수문자_일반주서
 62
     0
370
    -2
100
AcDbLine
 10
93.07500000000003
 20
56.57721024916712
 30
0.0
 11
93.07500000000003
 21
80.28126465125774
 31
0.0
  0
LINE
  5
530
330
52C
100
AcDbEntity
  8
치수문자_일반주서
 62
     0
370
    -2
100
AcDbLine
 10
16.87500000000003
 20
55.38430738881174
 30
0.0
 11
16.87500000000003
 21
80.28126465125774
 31
0.0
  0
LINE
  5
531
330
52C
100
AcDbEntity
  8
치수문자_일반주서
 62
     0
370
    -2
100
AcDbLine
 10
89.77300000000002
 20
80.28126465125774
 30
0.0
 11
20.17700000000003
 21
80.28126465125774
 31
0.0
  0
SOLID
  5
532
330
52C
100
AcDbEntity
  8
치수문자_일반주서
 62
     0
100
AcDbTrace
 10
89.77300000000002
 20
79.73093131792442
 30
0.0
 11
89.77300000000002
 21
80.83159798459107
 31
0.0
 12
93.07500000000003
 22
80.28126465125774
 32
0.0
 13
93.07500000000003
 23
80.28126465125774
 33
0.0
  0
SOLID
  5
533
330
52C
100
AcDbEntity
  8
치수문자_일반주서
 62
     0
100
AcDbTrace
 10
20.17700000000003
 20
80.83159798459107
 30
0.0
 11
20.17700000000003
 21
79.73093131792442
 31
0.0
 12
16.87500000000003
 22
80.28126465125774
 32
0.0
 13
16.87500000000003
 23
80.28126465125774
 33
0.0
  0
MTEXT
  5
534
330
52C
100
AcDbEntity
  8
치수문자_일반주서
 62
     0
100
AcDbMText
 10
54.97500000000003
 20
84.65626465125774
 30
0.0
 40
3.5
 41
0.0
 71
     2
 72
     1
  1
\A1;76.20 [3.00]
  7
SLDTEXTSTYLE0
 73
     1
 44
1.0
  0
POINT
  5
535
330
52C
100
AcDbEntity
  8
Defpoints
 62
     0
100
AcDbPoint
 10
93.07500000000003
 20
56.51471024916712
 30
0.0
  0
POINT
  5
536
330
52C
100
AcDbEntity
  8
Defpoints
 62
     0
100
AcDbPoint
 10
16.87500000000003
 20
55.32180738881174
 30
0.0
  0
POINT
  5
537
330
52C
100
AcDbEntity
  8
Defpoints
 62
     0
100
AcDbPoint
 10
16.87500000000003
 20
80.28126465125774
 30
0.0
  0
ENDBLK
  5
52E
330
52C
100
AcDbEntity
  8
0
100
AcDbBlockEnd
  0
BLOCK
  5
539
330
538
100
AcDbEntity
  8
0
100
AcDbBlockBegin
  2
*D27
 70
     1
 10
0.0
 20
0.0
 30
0.0
  3
*D27
  1
*D31
  0
LINE
  5
53B
330
538
100
AcDbEntity
  8
치수문자_일반주서
 62
     0
370
    -2
100
AcDbLine
 10
118.5375
 20
27.76559162033292
 30
0.0
 11
137.4750000000003
 21
27.765591620333
 31
0.0
  0
LINE
  5
53C
330
538
100
AcDbEntity
  8
치수문자_일반주서
 62
     0
370
    -2
100
AcDbLine
 10
118.5375
 20
72.17802315729057
 30
0.0
 11
137.4750000000002
 21
72.17802315729064
 31
0.0
  0
LINE
  5
53D
330
538
100
AcDbEntity
  8
치수문자_일반주서
 62
     0
370
    -2
100
AcDbLine
 10
137.4750000000002
 20
72.17802315729064
 30
0.0
 11
137.475
 21
130.9780231572907
 31
0.0
  0
LINE
  5
53E
330
538
100
AcDbEntity
  8
치수문자_일반주서
 62
     0
370
    -2
100
AcDbLine
 10
137.4750000000003
 20
31.067591620333
 30
0.0
 11
137.4750000000002
 21
68.87602315729063
 31
0.0
  0
SOLID
  5
53F
330
538
100
AcDbEntity
  8
치수문자_일반주서
 62
     0
100
AcDbTrace
 10
136.924666666667
 20
31.067591620333
 30
0.0
 11
138.0253333333336
 21
31.067591620333
 31
0.0
 12
137.4750000000003
 22
27.765591620333
 32
0.0
 13
137.4750000000003
 23
27.765591620333
 33
0.0
  0
SOLID
  5
540
330
538
100
AcDbEntity
  8
치수문자_일반주서
 62
     0
100
AcDbTrace
 10
138.0253333333335
 20
68.87602315729063
 30
0.0
 11
136.9246666666668
 21
68.87602315729063
 31
0.0
 12
137.4750000000002
 22
72.17802315729064
 32
0.0
 13
137.4750000000002
 23
72.17802315729064
 33
0.0
  0
MTEXT
  5
541
330
538
100
AcDbEntity
  8
치수문자_일반주서
 62
     0
100
AcDbMText
 10
133.1
 20
116.9780231572907
 30
0.0
 40
3.5
 41
0.0
 71
     2
 72
     1
  1
\A1;%%c44.41 [1.75]
  7
SLDTEXTSTYLE0
 11
-3.199747058067851E-15
 21
1.0
 31
0.0
 73
     1
 44
1.0
  0
POINT
  5
542
330
538
100
AcDbEntity
  8
Defpoints
 62
     0
100
AcDbPoint
 10
118.475
 20
27.76559162033292
 30
0.0
  0
POINT
  5
543
330
538
100
AcDbEntity
  8
Defpoints
 62
     0
100
AcDbPoint
 10
118.475
 20
72.17802315729057
 30
0.0
  0
POINT
  5
544
330
538
100
AcDbEntity
  8
Defpoints
 62
     0
100
AcDbPoint
 10
137.4750000000001
 20
72.17802315729064
 30
0.0
  0
ENDBLK
  5
53A
330
538
100
AcDbEntity
  8
0
100
AcDbBlockEnd
  0
BLOCK
  5
56C
330
56B
100
AcDbEntity
  8
0
100
AcDbBlockBegin
  2
*D28
 70
     1
 10
0.0
 20
0.0
 30
0.0
  3
*D28
  1
*D32
  0
LINE
  5
56E
330
56B
100
AcDbEntity
  8
치수문자_일반주서
 62
     0
370
    -2
100
AcDbLine
 10
146.423418869952
 20
-4.131607513397768
 30
0.0
 11
132.985918869952
 21
-4.131607513397817
 31
0.0
  0
LINE
  5
56F
330
56B
100
AcDbEntity
  8
치수문자_일반주서
 62
     0
370
    -2
100
AcDbLine
 10
146.423418869952
 20
-16.83160751339776
 30
0.0
 11
132.985918869952
 21
-16.83160751339781
 31
0.0
  0
LINE
  5
570
330
56B
100
AcDbEntity
  8
치수문자_일반주서
 62
     0
370
    -2
100
AcDbLine
 10
132.985918869952
 20
-7.433607513397817
 30
0.0
 11
132.985918869952
 21
-13.52960751339781
 31
0.0
  0
SOLID
  5
571
330
56B
100
AcDbEntity
  8
치수문자_일반주서
 62
     0
100
AcDbTrace
 10
133.5362522032853
 20
-7.433607513397814
 30
0.0
 11
132.4355855366187
 21
-7.43360751339782
 31
0.0
 12
132.985918869952
 22
-4.131607513397817
 32
0.0
 13
132.985918869952
 23
-4.131607513397817
 33
0.0
  0
SOLID
  5
572
330
56B
100
AcDbEntity
  8
치수문자_일반주서
 62
     0
100
AcDbTrace
 10
132.4355855366187
 20
-13.52960751339781
 30
0.0
 11
133.5362522032853
 21
-13.5296075133978
 31
0.0
 12
132.985918869952
 22
-16.83160751339781
 32
0.0
 13
132.985918869952
 23
-16.83160751339781
 33
0.0
  0
MTEXT
  5
573
330
56B
100
AcDbEntity
  8
치수문자_일반주서
 62
     0
100
AcDbMText
 10
128.610918869952
 20
-10.48160751339779
 30
0.0
 40
3.5
 41
0.0
 71
     2
 72
     1
  1
\A1;%%c12.7 [0.50]
  7
SLDTEXTSTYLE0
 11
-4.475859752819533E-15
 21
1.0
 31
0.0
 73
     1
 44
1.0
  0
POINT
  5
574
330
56B
100
AcDbEntity
  8
Defpoints
 62
     0
100
AcDbPoint
 10
146.485918869952
 20
-4.131607513397768
 30
0.0
  0
POINT
  5
575
330
56B
100
AcDbEntity
  8
Defpoints
 62
     0
100
AcDbPoint
 10
146.485918869952
 20
-16.83160751339776
 30
0.0
  0
POINT
  5
576
330
56B
100
AcDbEntity
  8
Defpoints
 62
     0
100
AcDbPoint
 10
132.985918869952
 20
-16.83160751339781
 30
0.0
  0
ENDBLK
  5
56D
330
56B
100
AcDbEntity
  8
0
100
AcDbBlockEnd
  0
BLOCK
  5
578
330
577
100
AcDbEntity
  8
0
100
AcDbBlockBegin
  2
*D29
 70
     1
 10
0.0
 20
0.0
 30
0.0
  3
*D29
  1
*D33
  0
LINE
  5
57A
330
577
100
AcDbEntity
  8
치수문자_일반주서
 62
     0
370
    -2
100
AcDbLine
 10
52.80000000000001
 20
22.2875
 30
0.0
 11
52.80000000000001
 21
35.41756384378157
 31
0.0
  0
LINE
  5
57B
330
577
100
AcDbEntity
  8
치수문자_일반주서
 62
     0
370
    -2
100
AcDbLine
 10
2.0
 20
17.28467548065799
 30
0.0
 11
2.0
 21
35.41756384378157
 31
0.0
  0
LINE
  5
57C
330
577
100
AcDbEntity
  8
치수문자_일반주서
 62
     0
370
    -2
100
AcDbLine
 10
49.49800000000001
 20
35.41756384378157
 30
0.0
 11
5.302
 21
35.41756384378157
 31
0.0
  0
SOLID
  5
57D
330
577
100
AcDbEntity
  8
치수문자_일반주서
 62
     0
100
AcDbTrace
 10
49.49800000000001
 20
34.86723051044824
 30
0.0
 11
49.49800000000001
 21
35.96789717711491
 31
0.0
 12
52.80000000000001
 22
35.41756384378157
 32
0.0
 13
52.80000000000001
 23
35.41756384378157
 33
0.0
  0
SOLID
  5
57E
330
577
100
AcDbEntity
  8
치수문자_일반주서
 62
     0
100
AcDbTrace
 10
5.302
 20
35.96789717711491
 30
0.0
 11
5.302
 21
34.86723051044824
 31
0.0
 12
2.0
 22
35.41756384378157
 32
0.0
 13
2.0
 23
35.41756384378157
 33
0.0
  0
MTEXT
  5
57F
330
577
100
AcDbEntity
  8
치수문자_일반주서
 62
     0
100
AcDbMText
 10
27.43125000000001
 20
39.79256384378157
 30
0.0
 40
3.5
 41
0.0
 71
     2
 72
     1
  1
\A1;50.8 [2]
  7
SLDTEXTSTYLE0
 73
     1
 44
1.0
  0
POINT
  5
580
330
577
100
AcDbEntity
  8
Defpoints
 62
     0
100
AcDbPoint
 10
52.80000000000001
 20
22.225
 30
0.0
  0
POINT
  5
581
330
577
100
AcDbEntity
  8
Defpoints
 62
     0
100
AcDbPoint
 10
2.0
 20
17.22217548065799
 30
0.0
  0
POINT
  5
582
330
577
100
AcDbEntity
  8
Defpoints
 62
     0
100
AcDbPoint
 10
2.0
 20
35.41756384378157
 30
0.0
  0
ENDBLK
  5
579
330
577
100
AcDbEntity
  8
0
100
AcDbBlockEnd
  0
BLOCK
  5
584
330
583
100
AcDbEntity
  8
0
100
AcDbBlockBegin
  2
*D30
 70
     1
 10
0.0
 20
0.0
 30
0.0
  3
*D30
  1
*D34
  0
LINE
  5
586
330
583
100
AcDbEntity
  8
0
  6
Continuous
 62
     0
370
    -2
100
AcDbLine
 10
221.685918869952
 20
-3.876204653042393
 30
0.0
 11
221.685918869952
 21
19.82784974904823
 31
0.0
  0
LINE
  5
587
330
583
100
AcDbEntity
  8
0
  6
Continuous
 62
     0
370
    -2
100
AcDbLine
 10
145.485918869952
 20
-5.069107513397768
 30
0.0
 11
145.485918869952
 21
19.82784974904823
 31
0.0
  0
LINE
  5
588
330
583
100
AcDbEntity
  8
0
  6
Continuous
 62
     0
370
    -2
100
AcDbLine
 10
218.383918869952
 20
19.82784974904823
 30
0.0
 11
148.787918869952
 21
19.82784974904823
 31
0.0
  0
SOLID
  5
589
330
583
100
AcDbEntity
  8
0
 62
     0
100
AcDbTrace
 10
218.383918869952
 20
19.2775164157149
 30
0.0
 11
218.383918869952
 21
20.37818308238157
 31
0.0
 12
221.685918869952
 22
19.82784974904823
 32
0.0
 13
221.685918869952
 23
19.82784974904823
 33
0.0
  0
SOLID
  5
58A
330
583
100
AcDbEntity
  8
0
 62
     0
100
AcDbTrace
 10
148.787918869952
 20
20.37818308238157
 30
0.0
 11
148.787918869952
 21
19.2775164157149
 31
0.0
 12
145.485918869952
 22
19.82784974904823
 32
0.0
 13
145.485918869952
 23
19.82784974904823
 33
0.0
  0
MTEXT
  5
58B
330
583
100
AcDbEntity
  8
0
 62
     0
370
    15
100
AcDbMText
 10
183.585918869952
 20
24.20284974904823
 30
0.0
 40
3.5
 41
0.0
 71
     2
 72
     1
  1
\A1;76.20 [3.00]
  7
SLDTEXTSTYLE0
 73
     1
 44
1.0
  0
POINT
  5
58C
330
583
100
AcDbEntity
  8
Defpoints
 62
     0
100
AcDbPoint
 10
221.685918869952
 20
-3.938704653042393
 30
0.0
  0
POINT
  5
58D
330
583
100
AcDbEntity
  8
Defpoints
 62
     0
100
AcDbPoint
 10
145.485918869952
 20
-5.131607513397768
 30
0.0
  0
POINT
  5
58E
330
583
100
AcDbEntity
  8
Defpoints
 62
     0
100
AcDbPoint
 10
145.485918869952
 20
19.82784974904823
 30
0.0
  0
ENDBLK
  5
585
330
583
100
AcDbEntity
  8
0
100
AcDbBlockEnd
  0
BLOCK
  5
590
330
58F
100
AcDbEntity
  8
0
100
AcDbBlockBegin
  2
*D31
 70
     1
 10
0.0
 20
0.0
 30
0.0
  3
*D31
  1
*D35
  0
LINE
  5
592
330
58F
100
AcDbEntity
  8
치수문자_일반주서
 62
     0
370
    -2
100
AcDbLine
 10
52.86250000000001
 20
-22.22499999999999
 30
0.0
 11
71.80000000000024
 21
-22.22499999999992
 31
0.0
  0
LINE
  5
593
330
58F
100
AcDbEntity
  8
치수문자_일반주서
 62
     0
370
    -2
100
AcDbLine
 10
52.86250000000001
 20
22.225
 30
0.0
 11
71.80000000000008
 21
22.22500000000007
 31
0.0
  0
LINE
  5
594
330
58F
100
AcDbEntity
  8
치수문자_일반주서
 62
     0
370
    -2
100
AcDbLine
 10
71.80000000000008
 20
22.22500000000007
 30
0.0
 11
71.79999999999995
 21
58.77700000000007
 31
0.0
  0
LINE
  5
595
330
58F
100
AcDbEntity
  8
치수문자_일반주서
 62
     0
370
    -2
100
AcDbLine
 10
71.80000000000022
 20
-18.92299999999992
 30
0.0
 11
71.8000000000001
 21
18.92300000000007
 31
0.0
  0
SOLID
  5
596
330
58F
100
AcDbEntity
  8
치수문자_일반주서
 62
     0
100
AcDbTrace
 10
71.2496666666669
 20
-18.92299999999993
 30
0.0
 11
72.35033333333355
 21
-18.92299999999992
 31
0.0
 12
71.80000000000024
 22
-22.22499999999992
 32
0.0
 13
71.80000000000024
 23
-22.22499999999992
 33
0.0
  0
SOLID
  5
597
330
58F
100
AcDbEntity
  8
치수문자_일반주서
 62
     0
100
AcDbTrace
 10
72.35033333333342
 20
18.92300000000008
 30
0.0
 11
71.24966666666677
 21
18.92300000000007
 31
0.0
 12
71.80000000000008
 22
22.22500000000007
 32
0.0
 13
71.80000000000008
 23
22.22500000000007
 33
0.0
  0
MTEXT
  5
598
330
58F
100
AcDbEntity
  8
치수문자_일반주서
 62
     0
100
AcDbMText
 10
67.42500000000001
 20
42.15200000000006
 30
0.0
 40
3.5
 41
0.0
 71
     2
 72
     1
  1
\A1;%%c44.45 [1 3/4]
  7
SLDTEXTSTYLE0
 11
-3.516746948643915E-15
 21
1.0
 31
0.0
 73
     1
 44
1.0
  0
POINT
  5
599
330
58F
100
AcDbEntity
  8
Defpoints
 62
     0
100
AcDbPoint
 10
52.80000000000001
 20
-22.22499999999999
 30
0.0
  0
POINT
  5
59A
330
58F
100
AcDbEntity
  8
Defpoints
 62
     0
100
AcDbPoint
 10
52.80000000000001
 20
22.225
 30
0.0
  0
POINT
  5
59B
330
58F
100
AcDbEntity
  8
Defpoints
 62
     0
100
AcDbPoint
 10
71.80000000000007
 20
22.22500000000008
 30
0.0
  0
ENDBLK
  5
591
330
58F
100
AcDbEntity
  8
0
100
AcDbBlockEnd
  0
BLOCK
  5
5A6
330
5A5
100
AcDbEntity
  8
0
100
AcDbBlockBegin
  2
*D32
 70
     1
 10
0.0
 20
0.0
 30
0.0
  3
*D32
  1
*D36
  0
LINE
  5
5A8
330
5A5
100
AcDbEntity
  8
치수문자_일반주서
 62
     0
370
    -2
100
AcDbLine
 10
-60.56249999999997
 20
15.87500000000002
 30
0.0
 11
-74.00000000000003
 21
15.87499999999997
 31
0.0
  0
LINE
  5
5A9
330
5A5
100
AcDbEntity
  8
치수문자_일반주서
 62
     0
370
    -2
100
AcDbLine
 10
-60.56249999999997
 20
-15.87499999999999
 30
0.0
 11
-73.99999999999991
 21
-15.87500000000004
 31
0.0
  0
LINE
  5
5AA
330
5A5
100
AcDbEntity
  8
치수문자_일반주서
 62
     0
370
    -2
100
AcDbLine
 10
-74.00000000000001
 20
12.57299999999997
 30
0.0
 11
-73.99999999999993
 21
-12.57300000000004
 31
0.0
  0
SOLID
  5
5AB
330
5A5
100
AcDbEntity
  8
치수문자_일반주서
 62
     0
100
AcDbTrace
 10
-73.44966666666669
 20
12.57299999999997
 30
0.0
 11
-74.55033333333334
 21
12.57299999999997
 31
0.0
 12
-74.00000000000003
 22
15.87499999999997
 32
0.0
 13
-74.00000000000003
 23
15.87499999999997
 33
0.0
  0
SOLID
  5
5AC
330
5A5
100
AcDbEntity
  8
치수문자_일반주서
 62
     0
100
AcDbTrace
 10
-74.55033333333326
 20
-12.57300000000004
 30
0.0
 11
-73.4496666666666
 21
-12.57300000000004
 31
0.0
 12
-73.99999999999991
 22
-15.87500000000004
 32
0.0
 13
-73.99999999999991
 23
-15.87500000000004
 33
0.0
  0
MTEXT
  5
5AD
330
5A5
100
AcDbEntity
  8
치수문자_일반주서
 62
     0
100
AcDbMText
 10
-78.37499999999997
 20
0.0000000000000058
 30
0.0
 40
3.5
 41
0.0
 71
     2
 72
     1
  1
\A1;%%c31.75 [1 1/4]
  7
SLDTEXTSTYLE0
 11
-3.580687802255621E-15
 21
1.0
 31
0.0
 73
     1
 44
1.0
  0
POINT
  5
5AE
330
5A5
100
AcDbEntity
  8
Defpoints
 62
     0
100
AcDbPoint
 10
-60.49999999999997
 20
15.87500000000002
 30
0.0
  0
POINT
  5
5AF
330
5A5
100
AcDbEntity
  8
Defpoints
 62
     0
100
AcDbPoint
 10
-60.49999999999997
 20
-15.87499999999999
 30
0.0
  0
POINT
  5
5B0
330
5A5
100
AcDbEntity
  8
Defpoints
 62
     0
100
AcDbPoint
 10
-73.99999999999991
 20
-15.87500000000004
 30
0.0
  0
ENDBLK
  5
5A7
330
5A5
100
AcDbEntity
  8
0
100
AcDbBlockEnd
  0
BLOCK
  5
5B2
330
5B1
100
AcDbEntity
  8
0
100
AcDbBlockBegin
  2
*D33
 70
     1
 10
0.0
 20
0.0
 30
0.0
  3
*D33
  1
*D37
  0
LINE
  5
5B4
330
5B1
100
AcDbEntity
  8
치수문자_일반주서
 62
     0
370
    -2
100
AcDbLine
 10
52.80000000000001
 20
22.2875
 30
0.0
 11
52.80000000000001
 21
55.20335104222216
 31
0.0
  0
LINE
  5
5B5
330
5B1
100
AcDbEntity
  8
치수문자_일반주서
 62
     0
370
    -2
100
AcDbLine
 10
-61.49999999999997
 20
14.93749999999999
 30
0.0
 11
-61.49999999999997
 21
55.20335104222216
 31
0.0
  0
LINE
  5
5B6
330
5B1
100
AcDbEntity
  8
치수문자_일반주서
 62
     0
370
    -2
100
AcDbLine
 10
49.49800000000001
 20
55.20335104222216
 30
0.0
 11
-58.19799999999997
 21
55.20335104222216
 31
0.0
  0
SOLID
  5
5B7
330
5B1
100
AcDbEntity
  8
치수문자_일반주서
 62
     0
100
AcDbTrace
 10
49.49800000000001
 20
54.65301770888883
 30
0.0
 11
49.49800000000001
 21
55.75368437555549
 31
0.0
 12
52.80000000000001
 22
55.20335104222216
 32
0.0
 13
52.80000000000001
 23
55.20335104222216
 33
0.0
  0
SOLID
  5
5B8
330
5B1
100
AcDbEntity
  8
치수문자_일반주서
 62
     0
100
AcDbTrace
 10
-58.19799999999997
 20
55.75368437555549
 30
0.0
 11
-58.19799999999997
 21
54.65301770888883
 31
0.0
 12
-61.49999999999997
 22
55.20335104222216
 32
0.0
 13
-61.49999999999997
 23
55.20335104222216
 33
0.0
  0
MTEXT
  5
5B9
330
5B1
100
AcDbEntity
  8
치수문자_일반주서
 62
     0
100
AcDbMText
 10
-4.350000000000108
 20
59.57835104222216
 30
0.0
 40
3.5
 41
0.0
 71
     2
 72
     1
  1
\A1;114.3 [4 1/2]
  7
SLDTEXTSTYLE0
 73
     1
 44
1.0
  0
POINT
  5
5BA
330
5B1
100
AcDbEntity
  8
Defpoints
 62
     0
100
AcDbPoint
 10
52.80000000000001
 20
22.225
 30
0.0
  0
POINT
  5
5BB
330
5B1
100
AcDbEntity
  8
Defpoints
 62
     0
100
AcDbPoint
 10
-61.49999999999997
 20
14.87499999999999
 30
0.0
  0
POINT
  5
5BC
330
5B1
100
AcDbEntity
  8
Defpoints
 62
     0
100
AcDbPoint
 10
-61.49999999999997
 20
55.20335104222216
 30
0.0
  0
ENDBLK
  5
5B3
330
5B1
100
AcDbEntity
  8
0
100
AcDbBlockEnd
  0
BLOCK
  5
5F5
330
5F4
100
AcDbEntity
  8
0
100
AcDbBlockBegin
  2
*D34
 70
     1
 10
0.0
 20
0.0
 30
0.0
  3
*D34
  1
*D39
  0
LINE
  5
5F7
330
5F4
100
AcDbEntity
  8
0
 62
     0
370
    -2
100
AcDbLine
 10
195.2859188699521
 20
5.393392486602245
 30
0.0
 11
168.9020132968259
 21
5.393392486602247
 31
0.0
  0
LINE
  5
5F8
330
5F4
100
AcDbEntity
  8
0
 62
     0
370
    -2
100
AcDbLine
 10
183.1988401756991
 20
-10.48160751339776
 30
0.0
 11
168.9020132968259
 21
-10.48160751339776
 31
0.0
  0
LINE
  5
5F9
330
5F4
100
AcDbEntity
  8
0
 62
     0
370
    -2
100
AcDbLine
 10
169.9020132968259
 20
-13.78360751339776
 30
0.0
 11
154.9613466301592
 21
-13.78360751339776
 31
0.0
  0
LINE
  5
5FA
330
5F4
100
AcDbEntity
  8
0
 62
     0
370
    -2
100
AcDbLine
 10
169.9020132968259
 20
2.091392486602247
 30
0.0
 11
169.9020132968259
 21
-7.179607513397764
 31
0.0
  0
LINE
  5
5FB
330
5F4
100
AcDbEntity
  8
0
 62
     0
370
    -2
100
AcDbLine
 10
169.9020132968259
 20
-10.48160751339776
 30
0.0
 11
169.9020132968259
 21
-13.78360751339776
 31
0.0
  0
SOLID
  5
5FC
330
5F4
100
AcDbEntity
  8
0
 62
     0
100
AcDbTrace
 10
170.4523466301592
 20
2.091392486602247
 30
0.0
 11
169.3516799634925
 21
2.091392486602247
 31
0.0
 12
169.9020132968259
 22
5.393392486602247
 32
0.0
 13
169.9020132968259
 23
5.393392486602247
 33
0.0
  0
SOLID
  5
5FD
330
5F4
100
AcDbEntity
  8
0
 62
     0
100
AcDbTrace
 10
169.3516799634925
 20
-7.179607513397764
 30
0.0
 11
170.4523466301592
 21
-7.179607513397764
 31
0.0
 12
169.9020132968259
 22
-10.48160751339776
 32
0.0
 13
169.9020132968259
 23
-10.48160751339776
 33
0.0
  0
MTEXT
  5
5FE
330
5F4
100
AcDbEntity
  8
0
 62
     0
100
AcDbMText
 10
161.6696799634925
 20
-10.2179408467311
 30
0.0
 40
3.5
 41
0.0
 71
     5
 72
     1
  1
15,88
 73
     1
 44
1.0
  0
POINT
  5
5FF
330
5F4
100
AcDbEntity
  8
Defpoints
 62
     0
100
AcDbPoint
 10
196.2859188699521
 20
5.393392486602245
 30
0.0
  0
POINT
  5
600
330
5F4
100
AcDbEntity
  8
Defpoints
 62
     0
100
AcDbPoint
 10
184.1988401756991
 20
-10.48160751339776
 30
0.0
  0
POINT
  5
601
330
5F4
100
AcDbEntity
  8
Defpoints
 62
     0
100
AcDbPoint
 10
169.9020132968259
 20
-10.48160751339776
 30
0.0
  0
ENDBLK
  5
5F6
330
5F4
100
AcDbEntity
  8
0
100
AcDbBlockEnd
  0
ENDSEC
  0
SECTION
  2
ENTITIES
  0
LINE
  5
CA
330
1F
100
AcDbEntity
  8
참조1
100
AcDbLine
 10
8.499261314031163
 20
0.0010749287238892
 30
0.0
 11
8.499261314031168
 21
-39.99892507127611
 31
0.0
  0
LINE
  5
CB
330
1F
100
AcDbEntity
  8
참조1
100
AcDbLine
 10
8.499261314031168
 20
-39.99892507127611
 30
0.0
 11
-20.15080122126847
 21
-39.9989250712761
 31
0.0
  0
LINE
  5
122
330
1F
100
AcDbEntity
  8
참조1
100
AcDbLine
 10
77.82153940838579
 20
7.441074928723896
 30
0.0
 11
77.82153940838579
 21
-7.438925071276109
 31
0.0
  0
LINE
  5
123
330
1F
100
AcDbEntity
  8
참조1
100
AcDbLine
 10
90.52153940838579
 20
5.441074928723896
 30
0.0
 11
77.82153940838579
 21
5.441074928723896
 31
0.0
  0
SOLID
  5
124
330
1F
100
AcDbEntity
  8
참조1
100
AcDbTrace
 10
77.82153940838579
 20
5.441074928723896
 30
0.0
 11
84.17153940838578
 21
4.425074928723896
 31
0.0
 12
84.17153940838578
 22
6.457074928723896
 32
0.0
 13
84.17153940838578
 23
6.457074928723896
 33
0.0
  0
LINE
  5
125
330
1F
100
AcDbEntity
  8
참조1
100
AcDbLine
 10
90.52153940838579
 20
-5.438925071276109
 30
0.0
 11
77.82153940838579
 21
-5.438925071276109
 31
0.0
  0
SOLID
  5
126
330
1F
100
AcDbEntity
  8
참조1
100
AcDbTrace
 10
77.82153940838579
 20
-5.438925071276109
 30
0.0
 11
84.17153940838578
 21
-6.454925071276109
 31
0.0
 12
84.17153940838578
 22
-4.422925071276109
 32
0.0
 13
84.17153940838578
 23
-4.422925071276109
 33
0.0
  0
MTEXT
  5
127
330
1F
100
AcDbEntity
  8
참조1
100
AcDbMText
 10
87.20588954101179
 20
11.01136670591222
 30
0.0
 40
3.5
 41
0.0
 71
     1
 72
     1
  1
A
  7
SLDTEXTSTYLE0
 73
     1
 44
1.0
  0
MTEXT
  5
128
330
1F
100
AcDbEntity
  8
참조1
100
AcDbMText
 10
87.20588954101179
 20
0.1313667059122192
 30
0.0
 40
3.5
 41
0.0
 71
     1
 72
     1
  1
A
  7
SLDTEXTSTYLE0
 73
     1
 44
1.0
  0
SPLINE
  5
546
330
1F
100
AcDbEntity
  8
0
  6
Continuous
 62
     1
370
    15
100
AcDbSpline
210
0.0
220
0.0
230
1.0
 70
     8
 71
     3
 72
    69
 73
    65
 74
     0
 42
0.000000001
 43
0.00000001
 40
0.0
 40
0.0
 40
0.0
 40
0.0
 40
0.0184194044764548
 40
0.0357330582059678
 40
0.0533117778078156
 40
0.0670614256323765
 40
0.0821071246170974
 40
0.0982474149399745
 40
0.1126758132655797
 40
0.1249791550661963
 40
0.1351638924271374
 40
0.1432475407814932
 40
0.1528027901459823
 40
0.1652014533784342
 40
0.1807548024350769
 40
0.1990859219056939
 40
0.217756315756377
 40
0.2379222808388158
 40
0.2542115477805169
 40
0.265531864551782
 40
0.2754817935475197
 40
0.2868430671260108
 40
0.2996138346372396
 40
0.3134153744866593
 40
0.3474447218723301
 40
0.3823467603448586
 40
0.4143245276450167
 40
0.4434229386674783
 40
0.4705759401155166
 40
0.4990113530706267
 40
0.5126449175108095
 40
0.5294340627205147
 40
0.5483726558848877
 40
0.5660176196460878
 40
0.5820762605046838
 40
0.5965457985782838
 40
0.6162343148525213
 40
0.6328826139390934
 40
0.6466510586474408
 40
0.6562755486559384
 40
0.6689560796420051
 40
0.6843055317446547
 40
0.6997878735869514
 40
0.7149380540195358
 40
0.7342509590594427
 40
0.7508048033356247
 40
0.7631285562194827
 40
0.7750019568924361
 40
0.789521501264255
 40
0.8067008776873829
 40
0.8261457547189268
 40
0.8428401424135978
 40
0.860770661444886
 40
0.8792565932377832
 40
0.8950046530743424
 40
0.9094097402292981
 40
0.9241784862903631
 40
0.9409518375602023
 40
0.9597353338855898
 40
0.9690541060463055
 40
0.9776826112065614
 40
0.9858276014837991
 40
0.9937312776169802
 40
1.0
 40
1.0
 40
1.0
 40
1.0
 10
44.54114668264
 20
15.20084496432566
 30
0.0
 10
44.41232673020247
 20
15.18854413179471
 30
0.0
 10
44.16242012413247
 20
15.16468090834616
 30
0.0
 10
43.60295084787504
 20
15.10818038603987
 30
0.0
 10
43.00040752008181
 20
15.05728559580493
 30
0.0
 10
42.39109276203732
 20
15.01393877490978
 30
0.0
 10
41.79364386085399
 20
14.97689543144504
 30
0.0
 10
41.19529920849135
 20
14.94298975859544
 30
0.0
 10
40.63086466271807
 20
14.91064969855312
 30
0.0
 10
40.14372353842032
 20
14.88307851353299
 30
0.0
 10
39.73932481303663
 20
14.86051488658278
 30
0.0
 10
39.37032982168796
 20
14.84034472976229
 30
0.0
 10
38.97413101224603
 20
14.81952370950828
 30
0.0
 10
38.49401635188349
 20
14.79599686435268
 30
0.0
 10
37.91552572103296
 20
14.76974526557118
 30
0.0
 10
37.24792517481222
 20
14.74198235744571
 30
0.0
 10
36.51781658154835
 20
14.71497215319851
 30
0.0
 10
35.80965826097557
 20
14.69227483401767
 30
0.0
 10
35.19624976411131
 20
14.67546456269589
 30
0.0
 10
34.71373781596299
 20
14.66393378673892
 30
0.0
 10
34.29417144696038
 20
14.65504256679157
 30
0.0
 10
33.85587329097825
 20
14.64694290283041
 30
0.0
 10
33.36795221073956
 20
14.63942490117191
 30
0.0
 10
32.58850525552006
 20
14.63005390780058
 30
0.0
 10
31.52523848064018
 20
14.62375899916679
 30
0.0
 10
30.229014117655
 20
14.62752727989056
 30
0.0
 10
28.99538866784332
 20
14.64162694469329
 30
0.0
 10
27.86115736338505
 20
14.663415226543
 30
0.0
 10
26.77229339660408
 20
14.69215192149017
 30
0.0
 10
25.8828171045252
 20
14.72195286753119
 30
0.0
 10
25.12645963525026
 20
14.75127511291783
 30
0.0
 10
24.4921403193523
 20
14.77828849642668
 30
0.0
 10
23.80624769563281
 20
14.81056661823151
 30
0.0
 10
23.12965070270553
 20
14.84550623585925
 30
0.0
 10
22.51042549490418
 20
14.8800993229574
 30
0.0
 10
21.86485518382651
 20
14.91863289204689
 30
0.0
 10
21.21160548507368
 20
14.96044987453624
 30
0.0
 10
20.56749742831371
 20
15.00456519848077
 30
0.0
 10
20.05283571457477
 20
15.04170420122922
 30
0.0
 10
19.58943590608402
 20
15.0764564130054
 30
0.0
 10
19.10577173843311
 20
15.11403074535604
 30
0.0
 10
18.54687424919993
 20
15.15934009184497
 30
0.0
 10
17.95596617059516
 20
15.20944273024349
 30
0.0
 10
17.31387608014316
 20
15.2662622062851
 30
0.0
 10
16.65760946314435
 20
15.32706743231092
 30
0.0
 10
16.03769831593701
 20
15.38721910614358
 30
0.0
 10
15.51372575800144
 20
15.43985549722988
 30
0.0
 10
15.01640164599041
 20
15.4911806125616
 30
0.0
 10
14.45686571158154
 20
15.55061609504562
 30
0.0
 10
13.80013916621141
 20
15.62274724930109
 30
0.0
 10
13.11548471097313
 20
15.7008022426734
 30
0.0
 10
12.42121484211964
 20
15.78280787439873
 30
0.0
 10
11.73899941216888
 20
15.86608942582364
 30
0.0
 10
11.06958841915213
 20
15.95056589478266
 30
0.0
 10
10.43572971725592
 20
16.03312512655001
 30
0.0
 10
9.843443062136146
 20
16.11185584700346
 30
0.0
 10
9.241030549202094
 20
16.19253980892932
 30
0.0
 10
8.58228489704345
 20
16.2813585362321
 30
0.0
 10
8.00008594367776
 20
16.35917477030133
 30
0.0
 10
7.518237192174354
 20
16.42485903295894
 30
0.0
 10
7.174652874860953
 20
16.47418528287663
 30
0.0
 10
6.859200830731822
 20
16.52212119962888
 30
0.0
 10
6.587607908426151
 20
16.56578655189198
 30
0.0
 10
6.438310211944099
 20
16.59131961639128
 30
0.0
 10
6.372272991031878
 20
16.60261337818827
 30
0.0
  0
SPLINE
  5
547
330
1F
100
AcDbEntity
  8
0
  6
Continuous
 62
     1
370
    15
100
AcDbSpline
210
0.0
220
0.0
230
1.0
 70
     8
 71
     3
 72
     9
 73
     5
 74
     0
 42
0.000000001
 43
0.00000001
 40
0.0
 40
0.0
 40
0.0
 40
0.0
 40
0.0534664926364983
 40
0.9999999999999999
 40
0.9999999999999999
 40
0.9999999999999999
 40
0.9999999999999999
 10
5.901479967103967
 20
16.68500587240477
 30
0.0
 10
5.89737456207979
 20
16.68573002739851
 30
0.0
 10
5.82058992890552
 20
16.69927411750133
 30
0.0
 10
5.766735109910599
 20
16.707963271796
 30
0.0
 10
5.715759719198871
 20
16.71618784748654
 30
0.0
  0
SPLINE
  5
548
330
1F
100
AcDbEntity
  8
0
  6
Continuous
 62
     1
370
    15
100
AcDbSpline
210
0.0
220
0.0
230
1.0
 70
     8
 71
     3
 72
    39
 73
    35
 74
     0
 42
0.000000001
 43
0.00000001
 40
0.0
 40
0.0
 40
0.0
 40
0.0
 40
0.0213838518675153
 40
0.0412021062174817
 40
0.0598777175919547
 40
0.077927021665667
 40
0.0959314021303963
 40
0.1144854902992245
 40
0.1487015348221595
 40
0.185642268731751
 40
0.219549453207744
 40
0.2501515883277323
 40
0.277479551873215
 40
0.306233083739265
 40
0.3392469069048994
 40
0.377564894443866
 40
0.4150193069734117
 40
0.4501482474577269
 40
0.482934231649589
 40
0.5212733978051964
 40
0.5548512940265015
 40
0.5833832371738642
 40
0.6073374943428493
 40
0.6366705665162836
 40
0.6754244120285088
 40
0.7191457540238234
 40
0.7632359429282236
 40
0.8083145261471865
 40
0.84626636927169
 40
0.8730352431070334
 40
0.9123856556238779
 40
0.9613528660669454
 40
0.9904187894826381
 40
1.0
 40
1.0
 40
1.0
 40
1.0
 10
5.715759719198871
 20
-16.71618784748655
 30
0.0
 10
5.770468819788164
 20
-16.70720197054938
 30
0.0
 10
5.875881548397928
 20
-16.68988810874765
 30
0.0
 10
6.079478607157398
 20
-16.65358110965391
 30
0.0
 10
6.309777005129689
 20
-16.61297792645868
 30
0.0
 10
6.569887843737035
 20
-16.56873178087833
 30
0.0
 10
6.858533830947465
 20
-16.52220863389748
 30
0.0
 10
7.256773784597328
 20
-16.46168107400057
 30
0.0
 10
7.780111377506643
 20
-16.38846553090952
 30
0.0
 10
8.377174468488533
 20
-16.30901351239235
 30
0.0
 10
8.959399490372448
 20
-16.23042788438235
 30
0.0
 10
9.487291949881893
 20
-16.15953277148104
 30
0.0
 10
9.986990612581394
 20
-16.09273771676347
 30
0.0
 10
10.50206810829437
 20
-16.0244417181124
 30
0.0
 10
11.07407381864022
 20
-15.95006719763458
 30
0.0
 10
11.68718572339685
 20
-15.87260915548993
 30
0.0
 10
12.31247410695656
 20
-15.7959720652364
 30
0.0
 10
12.9064378603037
 20
-15.72533606930248
 30
0.0
 10
13.50537784805806
 20
-15.65614058399225
 30
0.0
 10
14.09558673674553
 20
-15.59005208915583
 30
0.0
 10
14.66180935927238
 20
-15.52868614755196
 30
0.0
 10
15.14700313189701
 20
-15.47760970158248
 30
0.0
 10
15.60845370779251
 20
-15.43025119255656
 30
0.0
 10
16.12802520446621
 20
-15.37830297868526
 30
0.0
 10
16.75946220923402
 20
-15.31743942815717
 30
0.0
 10
17.47408534335932
 20
-15.25170450402734
 30
0.0
 10
18.2239763212105
 20
-15.18621896873849
 30
0.0
 10
18.94086875526506
 20
-15.12700450846086
 30
0.0
 10
19.55995964489333
 20
-15.07858743847238
 30
0.0
 10
20.14686417714944
 20
-15.03471002573414
 30
0.0
 10
20.79629915821897
 20
-14.98839245635014
 30
0.0
 10
21.45874828843057
 20
-14.94446018076052
 30
0.0
 10
21.95328267464296
 20
-14.91332193708633
 30
0.0
 10
22.17137740018595
 20
-14.90056268332288
 30
0.0
 10
22.22544638966841
 20
-14.89739947084342
 30
0.0
  0
SPLINE
  5
549
330
1F
100
AcDbEntity
  8
0
  6
Continuous
 62
     1
370
    15
100
AcDbSpline
210
0.0
220
0.0
230
1.0
 70
     8
 71
     3
 72
    38
 73
    34
 74
     0
 42
0.000000001
 43
0.00000001
 40
0.0
 40
0.0
 40
0.0
 40
0.0
 40
0.0624999999999999
 40
0.0624999999999999
 40
0.1249999999999998
 40
0.1249999999999998
 40
0.1874999999999998
 40
0.1874999999999998
 40
0.2499999999999997
 40
0.2499999999999997
 40
0.3124999999999996
 40
0.3124999999999996
 40
0.3749999999999995
 40
0.3749999999999995
 40
0.4374999999999994
 40
0.4374999999999994
 40
0.4999999999999993
 40
0.4999999999999993
 40
0.5624999999999993
 40
0.5624999999999993
 40
0.6249999999999993
 40
0.6249999999999993
 40
0.6874999999999994
 40
0.6874999999999994
 40
0.7499999999999996
 40
0.7499999999999996
 40
0.8124999999999997
 40
0.8124999999999997
 40
0.8749999999999997
 40
0.8749999999999997
 40
0.9374999999999999
 40
0.9374999999999999
 40
1.0
 40
1.0
 40
1.0
 40
1.0
 10
52.80000000000001
 20
-21.09021081867898
 30
0.0
 10
51.74415230675794
 20
-20.89761243117995
 30
0.0
 10
50.68383577941245
 20
-20.68082819927148
 30
0.0
 10
48.56505585194796
 20
-20.20093842723279
 30
0.0
 10
47.50957350549777
 20
-19.9381177715982
 30
0.0
 10
45.39300829549478
 20
-19.36744952048933
 30
0.0
 10
44.33210863252381
 20
-19.05956207933992
 30
0.0
 10
42.21588570955689
 20
-18.40182495969823
 30
0.0
 10
41.16016980140068
 20
-18.05198630523095
 30
0.0
 10
39.04128287057108
 20
-17.31134686193246
 30
0.0
 10
37.98162323317698
 20
-16.9209151466078
 30
0.0
 10
35.86937311658482
 20
-16.10352227717463
 30
0.0
 10
34.80894917636905
 20
-15.67554534542845
 30
0.0
 10
32.69029795958625
 20
-14.78528089471564
 30
0.0
 10
31.63500615299856
 20
-14.32345176095816
 30
0.0
 10
29.51812028767785
 20
-13.36747821546202
 30
0.0
 10
28.45723152988933
 20
-12.87339913799756
 30
0.0
 10
26.34137251400165
 20
-11.85810537480847
 30
0.0
 10
25.28538003026284
 20
-11.33675952387134
 30
0.0
 10
23.16640780703972
 20
-10.26839338110376
 30
0.0
 10
22.10736218016004
 20
-9.722016769790358
 30
0.0
 10
19.99457881816244
 20
-8.60941527606358
 30
0.0
 10
18.93405835393605
 20
-8.041994079922823
 30
0.0
 10
16.81555755075533
 20
-6.890639858382293
 30
0.0
 10
15.76041325568701
 20
-6.307245525178438
 30
0.0
 10
13.64322837770641
 20
-5.126223794418678
 30
0.0
 10
12.58236142990839
 20
-4.528797917063933
 30
0.0
 10
10.46688792873317
 20
-3.326212535416303
 30
0.0
 10
9.410575864968479
 20
-2.720739753916718
 30
0.0
 10
7.291540063236766
 20
-1.503773758130158
 30
0.0
 10
6.233065546513529
 20
-0.8930937164517658
 30
0.0
 10
4.119770441960895
 20
0.3282026878356916
 30
0.0
 10
3.059164345894715
 20
0.9399327873965575
 30
0.0
 10
1.999999999997158
 20
1.549627179367306
 30
0.0
  0
SPLINE
  5
54A
330
1F
100
AcDbEntity
  8
외형선
  6
Continuous
370
    15
100
AcDbSpline
210
0.0
220
0.0
230
1.0
 70
    24
 71
     3
 72
     8
 73
     4
 74
     0
 42
0.000000001
 43
0.00000001
 40
0.0
 40
0.0
 40
0.0
 40
0.0
 40
1.0
 40
1.0
 40
1.0
 40
1.0
 10
2.0
 20
2.450629710070423
 30
0.0
 10
2.0
 20
2.243414510960648
 30
0.0
 10
2.0
 20
1.941563275810935
 30
0.0
 10
2.0
 20
1.549627179369487
 30
0.0
  0
SPLINE
  5
54B
330
1F
100
AcDbEntity
  8
0
  6
Continuous
 62
     1
370
    15
100
AcDbSpline
210
0.0
220
0.0
230
1.0
 70
     8
 71
     3
 72
    38
 73
    34
 74
     0
 42
0.000000001
 43
0.00000001
 40
0.0
 40
0.0
 40
0.0
 40
0.0
 40
0.0625
 40
0.0625
 40
0.125
 40
0.125
 40
0.1875
 40
0.1875
 40
0.25
 40
0.25
 40
0.3125
 40
0.3125
 40
0.375
 40
0.375
 40
0.4375
 40
0.4375
 40
0.5
 40
0.5
 40
0.5625
 40
0.5625
 40
0.625
 40
0.625
 40
0.6875
 40
0.6875
 40
0.75
 40
0.75
 40
0.8125
 40
0.8125
 40
0.875
 40
0.875
 40
0.9375
 40
0.9375
 40
1.0
 40
1.0
 40
1.0
 40
1.0
 10
52.80000000000001
 20
-17.53490857558361
 30
0.0
 10
51.744152306758
 20
-17.34181579478998
 30
0.0
 10
50.68383577941259
 20
-17.12856787603457
 30
0.0
 10
48.56505585194822
 20
-16.66380304283156
 30
0.0
 10
47.50957350549808
 20
-16.41255368197437
 30
0.0
 10
45.39300829549521
 20
-15.87300749742564
 30
0.0
 10
44.3321086325243
 20
-15.58468002773862
 30
0.0
 10
42.21588570955745
 20
-14.97386013691064
 30
0.0
 10
41.16016980140131
 20
-14.65137215152993
 30
0.0
 10
39.04128287057188
 20
-13.97314735829568
 30
0.0
 10
37.9816232331778
 20
-13.61775293635582
 30
0.0
 10
35.86937311658576
 20
-12.87775037984522
 30
0.0
 10
34.80894917637005
 20
-12.49222330738308
 30
0.0
 10
32.69029795958738
 20
-11.69395753760433
 30
0.0
 10
31.63500615299975
 20
-11.28162517648746
 30
0.0
 10
29.51812028767918
 20
-10.43152160290266
 30
0.0
 10
28.45723152989069
 20
-9.993812849103094
 30
0.0
 10
26.34137251400315
 20
-9.097552810994188
 30
0.0
 10
25.28538003026441
 20
-8.638882206717867
 30
0.0
 10
23.16640780704137
 20
-7.701980574462262
 30
0.0
 10
22.10736218016177
 20
-7.224316390181365
 30
0.0
 10
19.99457881816426
 20
-6.254520856197452
 30
0.0
 10
18.93405835393796
 20
-5.761347690799525
 30
0.0
 10
16.81555755075738
 20
-4.763437481066717
 30
0.0
 10
15.76041325568909
 20
-4.259163610585475
 30
0.0
 10
13.64322837770862
 20
-3.241015107983984
 30
0.0
 10
12.58236142991066
 20
-2.727317837339584
 30
0.0
 10
10.46688792873556
 20
-1.69591711640637
 30
0.0
 10
9.410575864970923
 20
-1.177942221035778
 30
0.0
 10
7.291540063239324
 20
-0.1394493675819461
 30
0.0
 10
6.233065546516144
 20
0.3803731998655024
 30
0.0
 10
4.119770441963681
 20
1.417383080363983
 30
0.0
 10
3.0591643458975
 20
1.935514823051115
 30
0.0
 10
2.0
 20
2.450629710070423
 30
0.0
  0
LINE
  5
54C
330
1F
100
AcDbEntity
  8
0
  6
Continuous
 62
     1
370
    15
100
AcDbLine
 10
52.7999999999997
 20
-21.09021081867898
 30
0.0
 11
52.80000000000001
 21
-17.53490857558361
 31
0.0
  0
SPLINE
  5
54D
330
1F
100
AcDbEntity
  8
0
  6
Continuous
 62
     1
370
    15
100
AcDbSpline
210
0.0
220
0.0
230
1.0
 70
     8
 71
     3
 72
    38
 73
    34
 74
     0
 42
0.000000001
 43
0.00000001
 40
0.0
 40
0.0
 40
0.0
 40
0.0
 40
0.0625
 40
0.0625
 40
0.125
 40
0.125
 40
0.1875
 40
0.1875
 40
0.25
 40
0.25
 40
0.3125
 40
0.3125
 40
0.375
 40
0.375
 40
0.4375
 40
0.4375
 40
0.5
 40
0.5
 40
0.5625
 40
0.5625
 40
0.625
 40
0.625
 40
0.6875
 40
0.6875
 40
0.75
 40
0.75
 40
0.8125
 40
0.8125
 40
0.875
 40
0.875
 40
0.9375
 40
0.9375
 40
1.0
 40
1.0
 40
1.0
 40
1.0
 10
52.79999999999998
 20
-22.22499999999999
 30
0.0
 10
51.744152306758
 20
-22.1811191243839
 30
0.0
 10
50.68383577941259
 20
-22.13080720314382
 30
0.0
 10
48.56505585194822
 20
-21.98009741489832
 30
0.0
 10
47.50957350549805
 20
-21.87983404097714
 30
0.0
 10
45.39300829549521
 20
-21.62980056977909
 30
0.0
 10
44.3321086325243
 20
-21.47997513466467
 30
0.0
 10
42.21588570955745
 20
-21.13224146854845
 30
0.0
 10
41.16016980140131
 20
-20.93437034310906
 30
0.0
 10
39.04128287057188
 20
-20.49114214835811
 30
0.0
 10
37.9816232331778
 20
-20.24598214819454
 30
0.0
 10
35.86937311658573
 20
-19.7109584848244
 30
0.0
 10
34.80894917637005
 20
-19.42042635254437
 30
0.0
 10
32.69029795958735
 20
-18.79614680524855
 30
0.0
 10
31.63500615299975
 20
-18.46274605335626
 30
0.0
 10
29.51812028767918
 20
-17.75421654077055
 30
0.0
 10
28.45723152989069
 20
-17.37911269963989
 30
0.0
 10
26.34137251400313
 20
-16.59106838712471
 30
0.0
 10
25.28538003026441
 20
-16.17804515284335
 30
0.0
 10
23.16640780704137
 20
-15.31533796546043
 30
0.0
 10
22.10736218016174
 20
-14.86616101265071
 30
0.0
 10
19.99457881816426
 20
-13.93593722931325
 30
0.0
 10
18.93405835393793
 20
-13.45388507789195
 30
0.0
 10
16.81555755075735
 20
-12.46072691141372
 30
0.0
 10
15.76041325568906
 20
-11.95010565549381
 30
0.0
 10
13.6432283777086
 20
-10.90183936687821
 30
0.0
 10
12.58236142991063
 20
-10.3643536187545
 30
0.0
 10
10.46688792873553
 20
-9.26817316243526
 30
0.0
 10
9.410575864970895
 20
-8.709207785487244
 30
0.0
 10
7.291540063239324
 20
-7.57166315304169
 30
0.0
 10
6.233065546516116
 20
-6.993836059310851
 30
0.0
 10
4.119770441963624
 20
-5.824328007216153
 30
0.0
 10
3.0591643458975
 20
-5.231573795877367
 30
0.0
 10
2.0
 20
-4.633823771526799
 30
0.0
  0
LINE
  5
54E
330
1F
100
AcDbEntity
  8
외형선
  6
Continuous
370
    15
100
AcDbLine
 10
2.0
 20
-4.633823771526799
 30
0.0
 11
2.0
 21
1.549627179371157
 31
0.0
  0
LINE
  5
54F
330
1F
100
AcDbEntity
  8
0
  6
Continuous
 62
     1
370
    15
100
AcDbLine
 10
52.80000000000001
 20
-22.22499999999999
 30
0.0
 11
52.79999999999939
 21
-21.09021081867896
 31
0.0
  0
SPLINE
  5
550
330
1F
100
AcDbEntity
  8
0
  6
Continuous
 62
     1
370
    15
100
AcDbSpline
210
0.0
220
0.0
230
1.0
 70
     8
 71
     3
 72
    38
 73
    34
 74
     0
 42
0.000000001
 43
0.00000001
 40
0.0
 40
0.0
 40
0.0
 40
0.0
 40
0.0625
 40
0.0625
 40
0.1250000000000001
 40
0.1250000000000001
 40
0.1875000000000001
 40
0.1875000000000001
 40
0.2500000000000001
 40
0.2500000000000001
 40
0.3125000000000001
 40
0.3125000000000001
 40
0.3750000000000002
 40
0.3750000000000002
 40
0.4375000000000002
 40
0.4375000000000002
 40
0.5000000000000002
 40
0.5000000000000002
 40
0.5625000000000002
 40
0.5625000000000002
 40
0.6250000000000002
 40
0.6250000000000002
 40
0.6875000000000003
 40
0.6875000000000003
 40
0.7500000000000003
 40
0.7500000000000003
 40
0.8125000000000002
 40
0.8125000000000002
 40
0.8750000000000001
 40
0.8750000000000001
 40
0.9375000000000001
 40
0.9375000000000001
 40
1.0
 40
1.0
 40
1.0
 40
1.0
 10
52.80000000000001
 20
0.0000000000000071
 30
0.0
 10
51.744152306758
 20
0.4884347941253111
 30
0.0
 10
50.68383577941256
 20
0.9775578212096221
 30
0.0
 10
48.56505585194822
 20
1.952193362653446
 30
0.0
 10
47.50957350549805
 20
2.437251051056997
 30
0.0
 10
45.39300829549521
 20
3.401601886613435
 30
0.0
 10
44.3321086325243
 20
3.880858245289708
 30
0.0
 10
42.21588570955745
 20
4.828650568003191
 30
0.0
 10
41.16016980140134
 20
5.297256620270055
 30
0.0
 10
39.04128287057188
 20
6.222494425545371
 30
0.0
 10
37.9816232331778
 20
6.678599698453681
 30
0.0
 10
35.86937311658576
 20
7.573654616530519
 30
0.0
 10
34.80894917637005
 20
8.013706674404439
 30
0.0
 10
32.69029795958738
 20
8.874324540170896
 30
0.0
 10
31.63500615299975
 20
9.294516578431747
 30
0.0
 10
29.51812028767918
 20
10.11372771895623
 30
0.0
 10
28.45723152989069
 20
10.5126262281391
 30
0.0
 10
26.34137251400315
 20
11.2849557210625
 30
0.0
 10
25.28538003026438
 20
11.65853882910161
 30
0.0
 10
23.16640780704137
 20
12.37924089137392
 30
0.0
 10
22.10736218016177
 20
12.72589052057044
 30
0.0
 10
19.99457881816426
 20
13.3890323320722
 30
0.0
 10
18.93405835393793
 20
13.70622351317945
 30
0.0
 10
16.81555755075738
 20
14.30853260773682
 30
0.0
 10
15.76041325568906
 20
14.59342391846375
 30
0.0
 10
13.6432283777086
 20
15.13011826594053
 30
0.0
 10
12.58236142991063
 20
15.38177589578678
 30
0.0
 10
10.46688792873553
 20
15.84917566959161
 30
0.0
 10
9.410575864970895
 20
16.06508050058236
 30
0.0
 10
7.291540063239324
 20
16.46040082604869
 30
0.0
 10
6.233065546516116
 20
16.63953033888983
 30
0.0
 10
4.119770441963624
 20
16.95952421424024
 30
0.0
 10
3.0591643458975
 20
17.10066185291023
 30
0.0
 10
2.0
 20
17.22217548065799
 30
0.0
  0
SPLINE
  5
551
330
1F
100
AcDbEntity
  8
0
  6
Continuous
 62
     1
370
    15
100
AcDbSpline
210
0.0
220
0.0
230
1.0
 70
    24
 71
     3
 72
    14
 73
    10
 74
     0
 42
0.000000001
 43
0.00000001
 40
0.0
 40
0.0
 40
0.0
 40
0.0
 40
0.2500000000000001
 40
0.2500000000000001
 40
0.5000000000000001
 40
0.5000000000000001
 40
0.75
 40
0.75
 40
1.0
 40
1.0
 40
1.0
 40
1.0
 10
52.80000000000001
 20
-17.5349085755836
 30
0.0
 10
52.80000000000001
 20
-16.58612669045716
 30
0.0
 10
52.80000000000001
 20
-15.46302083053626
 30
0.0
 10
52.80000000000001
 20
-12.91249390880115
 30
0.0
 10
52.79999999999998
 20
-11.48543230176421
 30
0.0
 10
52.80000000000001
 20
-8.420772578566492
 30
0.0
 10
52.80000000000001
 20
-6.784059443102635
 30
0.0
 10
52.80000000000001
 20
-3.424447097485569
 30
0.0
 10
52.79999999999998
 20
-1.702544449778117
 30
0.0
 10
52.80000000000001
 20
0.0000000000000071
 30
0.0
  0
SPLINE
  5
552
330
1F
100
AcDbEntity
  8
외형선
  6
Continuous
370
    15
100
AcDbSpline
210
0.0
220
0.0
230
1.0
 70
    24
 71
     3
 72
    14
 73
    10
 74
     0
 42
0.000000001
 43
0.00000001
 40
0.0
 40
0.0
 40
0.0
 40
0.0
 40
0.25
 40
0.25
 40
0.5
 40
0.5
 40
0.75
 40
0.75
 40
1.0
 40
1.0
 40
1.0
 40
1.0
 10
2.0
 20
17.22217548065799
 30
0.0
 10
2.0
 20
16.6071701030713
 30
0.0
 10
2.0
 20
15.80743170569369
 30
0.0
 10
2.0
 20
13.85662721161125
 30
0.0
 10
2.0
 20
12.70570818255719
 30
0.0
 10
2.0
 20
10.12401457535315
 30
0.0
 10
2.0
 20
8.693985511946778
 30
0.0
 10
2.0
 20
5.666041909229762
 30
0.0
 10
2.0
 20
4.06912262190972
 30
0.0
 10
2.0
 20
2.450629710070423
 30
0.0
  0
SPLINE
  5
553
330
1F
100
AcDbEntity
  8
0
  6
Continuous
 62
     1
370
    15
100
AcDbSpline
210
0.0
220
0.0
230
1.0
 70
    24
 71
     3
 72
    10
 73
     6
 74
     0
 42
0.000000001
 43
0.00000001
 40
0.0
 40
0.0
 40
0.0
 40
0.0
 40
0.5
 40
0.5
 40
1.0
 40
1.0
 40
1.0
 40
1.0
 10
47.80000000000001
 20
10.45901038765628
 30
0.0
 10
47.79999999999998
 20
11.22861133197119
 30
0.0
 10
47.80000000000001
 20
11.92194424518667
 30
0.0
 10
47.79999999999998
 20
13.13164390062824
 30
0.0
 10
47.79999999999998
 20
13.64795355494802
 30
0.0
 10
47.79999999999998
 20
14.07002798366863
 30
0.0
  0
SPLINE
  5
554
330
1F
100
AcDbEntity
  8
0
  6
Continuous
 62
     1
370
    15
100
AcDbSpline
210
0.0
220
0.0
230
1.0
 70
     8
 71
     3
 72
    10
 73
     6
 74
     0
 42
0.000000001
 43
0.00000001
 40
0.0
 40
0.0
 40
0.0
 40
0.0
 40
0.4999999999999999
 40
0.4999999999999999
 40
1.0
 40
1.0
 40
1.0
 40
1.0
 10
47.79999999999998
 20
10.45901038765628
 30
0.0
 10
48.73303537573833
 20
9.790658859758224
 30
0.0
 10
49.61995232143099
 20
9.044101253554373
 30
0.0
 10
51.29154225756596
 20
7.377604190058477
 30
0.0
 10
52.0763994586658
 20
6.457977110986761
 30
0.0
 10
52.80000000000001
 20
5.434473054194108
 30
0.0
  0
SPLINE
  5
555
330
1F
100
AcDbEntity
  8
0
  6
Continuous
 62
     1
370
    15
100
AcDbSpline
210
0.0
220
0.0
230
1.0
 70
     8
 71
     3
 72
     9
 73
     5
 74
     0
 42
0.000000001
 43
0.00000001
 40
0.0
 40
0.0
 40
0.0
 40
0.0
 40
0.5434373019630695
 40
1.0
 40
1.0
 40
1.0
 40
1.0
 10
52.80000000000001
 20
15.55749999999998
 30
0.0
 10
51.30376727681539
 20
15.54130076978993
 30
0.0
 10
48.55049156721702
 20
15.51149193967922
 30
0.0
 10
45.79731196904984
 20
15.28863032428819
 30
0.0
 10
44.5403128635304
 20
15.18688002387639
 30
0.0
  0
SPLINE
  5
556
330
1F
100
AcDbEntity
  8
0
  6
Continuous
 62
     1
370
    15
100
AcDbSpline
210
0.0
220
0.0
230
1.0
 70
     8
 71
     3
 72
     8
 73
     4
 74
     0
 42
0.000000001
 43
0.00000001
 40
0.0
 40
0.0
 40
0.0
 40
0.0
 40
1.0
 40
1.0
 40
1.0
 40
1.0
 10
52.80000000000001
 20
15.5575
 30
0.0
 10
51.12598058323505
 20
15.10379354190031
 30
0.0
 10
49.45922931830574
 20
14.60845412675042
 30
0.0
 10
47.79999999999998
 20
14.07002798366864
 30
0.0
  0
SPLINE
  5
557
330
1F
100
AcDbEntity
  8
0
  6
Continuous
 62
     1
370
    15
100
AcDbSpline
210
0.0
220
0.0
230
1.0
 70
    24
 71
     3
 72
     8
 73
     4
 74
     0
 42
0.000000001
 43
0.00000001
 40
0.0
 40
0.0
 40
0.0
 40
0.0
 40
1.0
 40
1.0
 40
1.0
 40
1.0
 10
52.80000000000001
 20
0.0000000000000071
 30
0.0
 10
52.80000000000001
 20
1.86755143515537
 30
0.0
 10
52.80000000000001
 20
3.711912638870849
 30
0.0
 10
52.80000000000001
 20
5.434473054194108
 30
0.0
  0
LINE
  5
558
330
1F
100
AcDbEntity
  8
0
  6
Continuous
 62
     1
370
    15
100
AcDbLine
 10
5.715889007408293
 20
-16.7105586943994
 30
0.0
 11
2.0
 21
-17.222175480658
 31
0.0
  0
SPLINE
  5
559
330
1F
100
AcDbEntity
  8
외형선
  6
Continuous
370
    15
100
AcDbSpline
210
0.0
220
0.0
230
1.0
 70
    24
 71
     3
 72
    19
 73
    15
 74
     0
 42
0.000000001
 43
0.00000001
 40
0.0
 40
0.0
 40
0.0
 40
0.0
 40
0.0460033691543345
 40
0.1317035855782754
 40
0.2198935787100524
 40
0.3080835718418293
 40
0.3937837882657701
 40
0.479484004689711
 40
0.567673997821488
 40
0.655863990953265
 40
0.7417477371092408
 40
0.8279319954766325
 40
0.9141162538440242
 40
1.0
 40
1.0
 40
1.0
 40
1.0
 10
2.0
 20
-4.688988876947114
 30
0.0
 10
2.0
 20
-5.009056972218829
 30
0.0
 10
2.0
 20
-5.925383679401357
 30
0.0
 10
2.0
 20
-7.36075515361258
 30
0.0
 10
2.0
 20
-8.983055260652286
 30
0.0
 10
2.0
 20
-10.4851942935097
 30
0.0
 10
2.0
 20
-11.8488689493518
 30
0.0
 10
2.0
 20
-13.0807263802857
 30
0.0
 10
2.0
 20
-14.17952976479737
 30
0.0
 10
2.0
 20
-15.12572821808727
 30
0.0
 10
2.0
 20
-15.90515212995395
 30
0.0
 10
2.0
 20
-16.51520120949846
 30
0.0
 10
2.0
 20
-16.97554466036214
 30
0.0
 10
2.0
 20
-17.14006098169164
 30
0.0
 10
2.0
 20
-17.222175480658
 30
0.0
  0
LINE
  5
55A
330
1F
100
AcDbEntity
  8
0
  6
Continuous
 62
     1
370
    15
100
AcDbLine
 10
52.80000000000001
 20
5.462065606904268
 30
0.0
 11
52.80000000000001
 21
15.5575
 31
0.0
  0
SPLINE
  5
55B
330
1F
100
AcDbEntity
  8
0
  6
Continuous
 62
     1
370
    15
100
AcDbSpline
210
0.0
220
0.0
230
1.0
 70
     8
 71
     3
 72
    16
 73
    12
 74
     0
 42
0.000000001
 43
0.00000001
 40
0.0
 40
0.0
 40
0.0
 40
0.0
 40
0.0363197564485477
 40
0.1526220536568821
 40
0.268977636585242
 40
0.3907815581370029
 40
0.5125999635228959
 40
0.6345006386092424
 40
0.7563289439234671
 40
0.8781289211767106
 40
1.0
 40
1.0
 40
1.0
 40
1.0
 10
22.22554527556821
 20
14.89744246240826
 30
0.0
 10
22.5956635710574
 20
15.05975686305894
 30
0.0
 10
24.150966245886
 20
15.74183074206444
 30
0.0
 10
26.89218351349751
 20
16.81308781528873
 30
0.0
 10
30.5052281758617
 20
18.11287937690405
 30
0.0
 10
34.17352139798948
 20
19.26172764921731
 30
0.0
 10
37.89847656549927
 20
20.25004894161541
 30
0.0
 10
41.62460499487713
 20
21.04872350684752
 30
0.0
 10
45.34970797667268
 20
21.64713846352119
 30
0.0
 10
49.07428144367054
 20
22.05777379274841
 30
0.0
 10
51.5578522514887
 20
22.15672548542327
 30
0.0
 10
52.79999999999998
 20
22.225
 30
0.0
  0
SPLINE
  5
55C
330
1F
100
AcDbEntity
  8
0
  6
Continuous
 62
     1
370
    15
100
AcDbSpline
210
0.0
220
0.0
230
1.0
 70
    24
 71
     3
 72
    14
 73
    10
 74
     0
 42
0.000000001
 43
0.00000001
 40
0.0
 40
0.0
 40
0.0
 40
0.0
 40
0.25
 40
0.25
 40
0.5
 40
0.5
 40
0.75
 40
0.75
 40
1.0
 40
1.0
 40
1.0
 40
1.0
 10
52.80000000000001
 20
15.5575
 30
0.0
 10
52.79999999999998
 20
16.02902845377127
 30
0.0
 10
52.80000000000001
 20
16.53761365798587
 30
0.0
 10
52.79999999999998
 20
17.60879551873965
 30
0.0
 10
52.80000000000001
 20
18.17128539101751
 30
0.0
 10
52.80000000000001
 20
19.32090343190917
 30
0.0
 10
52.80000000000001
 20
19.90783820726067
 30
0.0
 10
52.80000000000001
 20
21.07233565057485
 30
0.0
 10
52.80000000000001
 20
21.64968643958327
 30
0.0
 10
52.80000000000001
 20
22.225
 30
0.0
  0
INSERT
  5
55F
330
1F
100
AcDbEntity
  8
0
  6
Continuous
 62
     7
100
AcDbBlockReference
 66
     1
  2
블럭10
 10
-11.9402729321252
 20
-52.04717430164393
 30
0.0
  0
ATTRIB
  5
560
330
55F
100
AcDbEntity
  8
FORMAT
 62
     2
100
AcDbText
 10
-21.12156822086649
 20
-49.97180738881174
 30
0.0
 40
4.233333333333333
  1
E1070148 [ 2 FLUTE ]
 41
0.75
  7
SLDTEXTSTYLE0
 11
-21.12156822086649
 21
-52.08847405547841
 31
0.0
100
AcDbAttribute
  2
AUTOATTR0
 70
     0
 74
     1
  0
SEQEND
  5
561
330
55F
100
AcDbEntity
  8
0
  6
Continuous
 62
     7
  0
HATCH
  5
562
330
1F
100
AcDbEntity
  8
중심선
100
AcDbHatch
 10
0.0
 20
0.0
 30
0.0
210
0.0
220
0.0
230
1.0
  2
SOLID
 70
     1
 71
     0
 91
        1
 92
        0
 93
        4
 72
     1
 10
-6.225363627744372
 20
-35.8
 11
-9.671638871581656
 21
-35.8
 72
     1
 10
-9.67163887158165
 20
-35.8
 11
-11.79986873078568
 21
-38.3363255805726
 72
     1
 10
-11.79986873078568
 20
-38.3363255805726
 11
-8.353560401835246
 21
-38.33628615127011
 72
     1
 10
-8.353560401835239
 20
-38.33628615127011
 11
-6.225363627744365
 21
-35.8
 97
        0
 75
     0
 76
     1
 98
        1
 10
-1.740578832126943
 20
-0.0010749287238951
  0
HATCH
  5
563
330
1F
100
AcDbEntity
  8
중심선
100
AcDbHatch
 10
0.0
 20
0.0
 30
0.0
210
0.0
220
0.0
230
1.0
  2
SOLID
 70
     1
 71
     0
 91
        1
 92
        0
 93
        4
 72
     1
 10
-1.212599636708433
 20
-35.8
 11
-4.658874880545717
 21
-35.8
 72
     1
 10
-4.658874880545682
 20
-35.8
 11
-9.19001288890307
 21
-41.20000000000002
 72
     1
 10
-9.190012888903084
 20
-41.20000000000002
 11
-5.743737645065799
 21
-41.20000000000002
 72
     1
 10
-5.743737645065806
 20
-41.20000000000002
 11
-1.212599636708418
 21
-35.8
 97
        0
 75
     0
 76
     1
 98
        1
 10
-1.740578832126943
 20
-0.0010749287238951
  0
HATCH
  5
564
330
1F
100
AcDbEntity
  8
중심선
100
AcDbHatch
 10
0.0
 20
0.0
 30
0.0
210
0.0
220
0.0
230
1.0
  2
SOLID
 70
     1
 71
     0
 91
        1
 92
        0
 93
        4
 72
     1
 10
3.800164354327478
 20
-35.80000000000003
 11
0.3538891104903854
 21
-35.8
 72
     1
 10
0.3538891104903996
 20
-35.8
 11
-6.694547791398875
 21
-44.20000000000002
 72
     1
 10
-6.69454779139889
 20
-44.20000000000002
 11
-3.248272547561605
 21
-44.20000000000002
 72
     1
 10
-3.248272547561612
 20
-44.20000000000002
 11
3.800164354327471
 21
-35.80000000000003
 97
        0
 75
     0
 76
     1
 98
        1
 10
-1.740578832126943
 20
-0.0010749287238951
  0
HATCH
  5
565
330
1F
100
AcDbEntity
  8
중심선
100
AcDbHatch
 10
0.0
 20
0.0
 30
0.0
210
0.0
220
0.0
230
1.0
  2
SOLID
 70
     1
 71
     0
 91
        1
 92
        0
 93
        6
 72
     3
 10
8.600054785339694
 20
-40.00000000005127
 11
3.960054785062255
 21
1.540882976769353E-10
 40
0.3939339440162656
 50
17.09539180608447
 51
320.0019657685079
 73
     0
 72
     1
 10
10.28305444104029
 20
-38.5878940046383
 11
12.58835631474136
 21
-36.65356729459038
 72
     3
 10
8.60005478528683
 20
-40.00000000000015
 11
6.600054785286829
 21
-1.278976924368180E-13
 40
0.636358354079598
 50
39.99873849337376
 51
368.4976242363724
 73
     1
 72
     1
 10
15.02538727718743
 20
-39.03999999993002
 11
7.280122092122753
 21
-39.03999999993002
 72
     1
 10
7.280122092122753
 20
-39.03999999993002
 11
7.280097047676819
 21
-40.95999999992991
 72
     1
 10
7.280097047676804
 20
-40.95999999992991
 11
11.72147681714884
 21
-40.95999999992988
 97
        0
 75
     0
 76
     1
 98
        1
 10
-1.740578832126943
 20
-0.0010749287238951
  0
DIMENSION
  5
567
330
1F
100
AcDbEntity
  8
치수문자_일반주서
100
AcDbDimension
  2
*D29
 10
2.0
 20
35.41756384378157
 30
0.0
 11
27.43125000000001
 21
35.41756384378157
 31
0.0
 70
   160
  1
<>
 71
     2
 42
50.80000000000001
  3
SLDDIMSTYLE0
100
AcDbAlignedDimension
 13
52.80000000000001
 23
22.225
 33
0.0
 14
2.0
 24
17.22217548065799
 34
0.0
100
AcDbRotatedDimension
1001
ACAD
1000
DSTYLE
1002
{
1070
   171
1070
     6
1070
   273
1070
     7
1002
}
  0
DIMENSION
  5
569
330
1F
100
AcDbEntity
  8
치수문자_일반주서
100
AcDbDimension
  2
*D31
 10
71.80000000000008
 20
22.22500000000007
 30
0.0
 11
71.80000000000001
 21
42.15200000000007
 31
0.0
 70
   160
  1
%%c<>
 71
     2
 42
44.45
 52
-270.0
  3
SLDDIMSTYLE0
100
AcDbAlignedDimension
 13
52.80000000000001
 23
-22.22499999999999
 33
0.0
 14
52.80000000000001
 24
22.225
 34
0.0
 50
90.0000000000002
100
AcDbRotatedDimension
1001
ACAD
1000
DSTYLE
1002
{
1070
   171
1070
     6
1070
   273
1070
     7
1002
}
  0
LINE
  5
59C
330
1F
100
AcDbEntity
  8
외형선
  6
Continuous
370
    15
100
AcDbLine
 10
-60.49999999999994
 20
-15.87500000000001
 30
0.0
 11
2.000000000000057
 21
-15.87500000000001
 31
0.0
  0
LINE
  5
59D
330
1F
100
AcDbEntity
  8
외형선
  6
Continuous
370
    15
100
AcDbLine
 10
-61.49999999999997
 20
-14.87499999999998
 30
0.0
 11
-60.49999999999997
 21
-15.87499999999998
 31
0.0
  0
LINE
  5
59E
330
1F
100
AcDbEntity
  8
외형선
  6
Continuous
370
    15
100
AcDbLine
 10
-60.49999999999997
 20
13.48739999999999
 30
0.0
 11
-60.49999999999997
 21
-15.87499999999999
 31
0.0
  0
LINE
  5
59F
330
1F
100
AcDbEntity
  8
외형선
  6
Continuous
370
    15
100
AcDbLine
 10
-61.49999999999997
 20
13.48739999999999
 30
0.0
 11
-61.49999999999997
 21
-14.87499999999998
 31
0.0
  0
DIMENSION
  5
5A0
330
1F
100
AcDbEntity
  8
치수문자_일반주서
100
AcDbDimension
  2
*D32
 10
-73.99999999999991
 20
-15.87500000000004
 30
0.0
 11
-73.99999999999997
 21
0.0000000000000213
 31
0.0
 70
   160
  1
%%c<>
 71
     2
 42
31.75000000000001
 52
-270.0
  3
SLDDIMSTYLE0
100
AcDbAlignedDimension
 13
-60.49999999999997
 23
15.87500000000002
 33
0.0
 14
-60.49999999999997
 24
-15.87499999999999
 34
0.0
 50
90.0000000000002
100
AcDbRotatedDimension
1001
ACAD
1000
DSTYLE
1002
{
1070
   171
1070
     6
1070
   273
1070
     7
1002
}
  0
LINE
  5
5A1
102
{ACAD_REACTORS
102
}
330
1F
100
AcDbEntity
  8
외형선
  6
Continuous
370
    15
100
AcDbLine
 10
2.000000000000057
 20
15.87500000000001
 30
0.0
 11
-23.58732499999994
 21
15.87500000000001
 31
0.0
  0
DIMENSION
  5
5A3
330
1F
100
AcDbEntity
  8
치수문자_일반주서
100
AcDbDimension
  2
*D33
 10
-61.49999999999997
 20
55.20335104222216
 30
0.0
 11
-4.350000000000108
 21
55.20335104222216
 31
0.0
 70
   160
  1
<>
 71
     2
 42
114.3
  3
SLDDIMSTYLE0
100
AcDbAlignedDimension
 13
52.80000000000001
 23
22.225
 33
0.0
 14
-61.49999999999997
 24
14.87499999999999
 34
0.0
 50
0.0000000000000036
100
AcDbRotatedDimension
1001
ACAD
1000
DSTYLE
1002
{
1070
   171
1070
     6
1070
   273
1070
     7
1002
}
  0
LINE
  5
5A4
102
{ACAD_REACTORS
102
}
330
1F
100
AcDbEntity
  8
중심선
100
AcDbLine
 10
-66.41646942134598
 20
-0.0000000000000089
 30
0.0
 11
58.84998005740732
 21
0.0000000000000071
 31
0.0
  0
CIRCLE
  5
5ED
330
1F
100
AcDbEntity
  8
해칭선
100
AcDbCircle
 10
0.0
 20
0.0
 30
0.0
 40
2.999999999999995
  0
INSERT
  5
5EE
330
1F
100
AcDbEntity
  8
해칭선
100
AcDbBlockReference
  2
SW_DOWELSYMBOL_0
 10
0.0
 20
0.0
 30
0.0
  0
LINE
  5
65E
330
1F
100
AcDbEntity
  8
외형선
  6
Continuous
370
    15
100
AcDbLine
 10
-46.41240000000008
 20
15.875
 30
0.0
 11
-41.46892499999998
 21
15.875
 31
0.0
  0
LINE
  5
65F
330
1F
100
AcDbEntity
  8
외형선
  6
Continuous
370
    15
100
AcDbLine
 10
-39.08132499999996
 20
13.48739999999999
 30
0.0
 11
-25.97492499999996
 21
13.48739999999999
 31
0.0
  0
LINE
  5
660
330
1F
100
AcDbEntity
  8
외형선
  6
Continuous
370
    15
100
AcDbLine
 10
-25.97492499999996
 20
13.48739999999999
 30
0.0
 11
-23.58732499999994
 21
15.87500000000001
 31
0.0
  0
LINE
  5
661
330
1F
100
AcDbEntity
  8
외형선
  6
Continuous
370
    15
100
AcDbLine
 10
-39.08132499999996
 20
13.48739999999999
 30
0.0
 11
-41.46892499999998
 21
15.87500000000001
 31
0.0
  0
LINE
  5
662
330
1F
100
AcDbEntity
  8
외형선
  6
Continuous
370
    15
100
AcDbLine
 10
-61.49999999999997
 20
13.48739999999999
 30
0.0
 11
-48.79999999999998
 21
13.48739999999999
 31
0.0
  0
LINE
  5
663
330
1F
100
AcDbEntity
  8
외형선
  6
Continuous
370
    15
100
AcDbLine
 10
-48.79999999999998
 20
13.48739999999999
 30
0.0
 11
-46.41240000000008
 21
15.87499999999999
 31
0.0
  0
LINE
  5
664
102
{ACAD_REACTORS
102
}
330
1F
100
AcDbEntity
  8
외형선
  6
Continuous
370
    15
100
AcDbLine
 10
-41.46892499999999
 20
15.87500000000001
 30
0.0
 11
-46.41240000000005
 21
15.87500000000001
 31
0.0
  0
ENDSEC
  0
SECTION
  2
OBJECTS
  0
DICTIONARY
  5
C
330
0
100
AcDbDictionary
281
     1
  3
ACAD_GROUP
350
D
  3
ACAD_IMAGE_VARS
350
153
  3
ACAD_LAYOUT
350
1A
  3
ACAD_MLINESTYLE
350
17
  3
ACAD_PLOTSETTINGS
350
19
  3
ACAD_PLOTSTYLENAME
350
E
  3
ACAD_SCALELIST
350
47
  3
APPDATA
350
151
  3
DWGPROPS
350
665
  0
DICTIONARY
  5
17A
330
2
100
AcDbDictionary
280
     1
281
     1
  3
ACAD_LAYERSTATES
360
17B
  0
DICTIONARY
  5
D
102
{ACAD_REACTORS
330
C
102
}
330
C
100
AcDbDictionary
281
     1
  0
RASTERVARIABLES
  5
153
102
{ACAD_REACTORS
330
C
102
}
330
C
100
AcDbRasterVariables
 90
        0
 70
     1
 71
     1
 72
     1
  0
DICTIONARY
  5
1A
102
{ACAD_REACTORS
330
C
102
}
330
C
100
AcDbDictionary
281
     1
  3
Layout1
350
1E
  3
Layout2
350
26
  3
Model
350
22
  0
DICTIONARY
  5
17
102
{ACAD_REACTORS
330
C
102
}
330
C
100
AcDbDictionary
281
     1
  3
Standard
350
18
  0
DICTIONARY
  5
19
102
{ACAD_REACTORS
330
C
102
}
330
C
100
AcDbDictionary
281
     1
  0
ACDBDICTIONARYWDFLT
  5
E
102
{ACAD_REACTORS
330
C
102
}
330
C
100
AcDbDictionary
281
     1
  3
Normal
350
F
100
AcDbDictionaryWithDefault
340
F
  0
DICTIONARY
  5
47
102
{ACAD_REACTORS
330
C
102
}
330
C
100
AcDbDictionary
281
     1
  3
A0
350
48
  3
A1
350
49
  3
A2
350
4A
  3
A3
350
4B
  3
A4
350
4C
  3
A5
350
4D
  3
A6
350
4E
  3
A7
350
4F
  3
A8
350
50
  3
A9
350
51
  3
B0
350
52
  3
B1
350
53
  3
B2
350
54
  3
B3
350
55
  3
B4
350
56
  3
B5
350
57
  3
B6
350
58
  3
B7
350
59
  3
B8
350
5A
  3
B9
350
5B
  3
C0
350
5C
  3
C1
350
5D
  3
C2
350
5E
  3
C3
350
5F
  3
C4
350
60
  3
C5
350
61
  3
C6
350
62
  3
C7
350
63
  3
C8
350
64
  3
C9
350
65
  3
D0
350
66
  3
D1
350
67
  3
D2
350
68
  0
DICTIONARY
  5
151
102
{ACAD_REACTORS
330
C
102
}
330
C
100
AcDbDictionary
281
     1
  0
XRECORD
  5
665
102
{ACAD_REACTORS
330
C
102
}
330
C
100
AcDbXrecord
280
     1
  1
DWGPROPS COOKIE
  2

  3

  4

  6

  7

  8
12016016
  9

300
=
301
=
302
=
303
=
304
=
305
=
306
=
307
=
308
=
309
=
 40
0.0
 41
2458311.089532535
 42
2458318.289586504
  1

 90
        0
  0
DICTIONARY
  5
17B
102
{ACAD_REACTORS
330
17A
102
}
330
17A
100
AcDbDictionary
281
     1
  0
LAYOUT
  5
1E
102
{ACAD_REACTORS
330
1A
102
}
330
1A
100
AcDbPlotSettings
  1

  2
none_device
  4

  6

 40
0.0
 41
0.0
 42
0.0
 43
0.0
 44
0.0
 45
0.0
 46
0.0
 47
0.0
 48
0.0
 49
0.0
140
0.0
141
0.0
142
1.0
143
1.0
 70
   688
 72
     1
 73
     0
 74
     5
  7

 75
    16
147
1.0
148
0.0
149
0.0
100
AcDbLayout
  1
Layout1
 70
     1
 71
     1
 10
0.0
 20
0.0
 11
420.0
 21
297.0
 12
0.0
 22
0.0
 32
0.0
 14
1.000000000000000E+20
 24
1.000000000000000E+20
 34
1.000000000000000E+20
 15
-1.000000000000000E+20
 25
-1.000000000000000E+20
 35
-1.000000000000000E+20
146
0.0
 13
0.0
 23
0.0
 33
0.0
 16
1.0
 26
0.0
 36
0.0
 17
0.0
 27
1.0
 37
0.0
 76
     0
330
1B
  0
LAYOUT
  5
26
102
{ACAD_REACTORS
330
1A
102
}
330
1A
100
AcDbPlotSettings
  1

  2
none_device
  4

  6

 40
0.0
 41
0.0
 42
0.0
 43
0.0
 44
0.0
 45
0.0
 46
0.0
 47
0.0
 48
0.0
 49
0.0
140
0.0
141
0.0
142
1.0
143
1.0
 70
   688
 72
     1
 73
     0
 74
     5
  7

 75
    16
147
1.0
148
0.0
149
0.0
100
AcDbLayout
  1
Layout2
 70
     1
 71
     2
 10
0.0
 20
0.0
 11
0.0
 21
0.0
 12
0.0
 22
0.0
 32
0.0
 14
0.0
 24
0.0
 34
0.0
 15
0.0
 25
0.0
 35
0.0
146
0.0
 13
0.0
 23
0.0
 33
0.0
 16
1.0
 26
0.0
 36
0.0
 17
0.0
 27
1.0
 37
0.0
 76
     0
330
23
  0
LAYOUT
  5
22
102
{ACAD_REACTORS
330
1A
102
}
330
1A
100
AcDbPlotSettings
  1

  2
none_device
  4
ANSI_A_(11.00_x_8.50_Inches)
  6

 40
6.35
 41
19.05
 42
6.35000508
 43
19.05000254
 44
279.4
 45
215.9
 46
104.9176848056163
 47
34.44669527120154
 48
0.0
 49
0.0
140
0.0
141
0.0
142
0.0406917368828658
143
1.0
 70
  1696
 72
     0
 73
     0
 74
     0
  7

 75
     0
147
0.0235690232323232
148
0.0
149
0.0
100
AcDbLayout
  1
Model
 70
     1
 71
     0
 10
0.0
 20
0.0
 11
420.0
 21
297.0
 12
0.0
 22
0.0
 32
0.0
 14
1.000000000000000E+20
 24
1.000000000000000E+20
 34
1.000000000000000E+20
 15
-1.000000000000000E+20
 25
-1.000000000000000E+20
 35
-1.000000000000000E+20
146
0.0
 13
0.0
 23
0.0
 33
0.0
 16
1.0
 26
0.0
 36
0.0
 17
0.0
 27
1.0
 37
0.0
 76
     0
330
1F
331
29
  0
MLINESTYLE
  5
18
102
{ACAD_REACTORS
330
17
102
}
330
17
100
AcDbMlineStyle
  2
Standard
 70
     0
  3

 62
   256
 51
90.0
 52
90.0
 71
     2
 49
0.5
 62
   256
  6
BYLAYER
 49
-0.5
 62
   256
  6
BYLAYER
  0
ACDBPLACEHOLDER
  5
F
102
{ACAD_REACTORS
330
E
102
}
330
E
  0
SCALE
  5
48
102
{ACAD_REACTORS
330
47
102
}
330
47
100
AcDbScale
 70
     0
300
1:1
140
1.0
141
1.0
290
     1
  0
SCALE
  5
49
102
{ACAD_REACTORS
330
47
102
}
330
47
100
AcDbScale
 70
     0
300
1:2
140
1.0
141
2.0
290
     0
  0
SCALE
  5
4A
102
{ACAD_REACTORS
330
47
102
}
330
47
100
AcDbScale
 70
     0
300
1:4
140
1.0
141
4.0
290
     0
  0
SCALE
  5
4B
102
{ACAD_REACTORS
330
47
102
}
330
47
100
AcDbScale
 70
     0
300
1:5
140
1.0
141
5.0
290
     0
  0
SCALE
  5
4C
102
{ACAD_REACTORS
330
47
102
}
330
47
100
AcDbScale
 70
     0
300
1:8
140
1.0
141
8.0
290
     0
  0
SCALE
  5
4D
102
{ACAD_REACTORS
330
47
102
}
330
47
100
AcDbScale
 70
     0
300
1:10
140
1.0
141
10.0
290
     0
  0
SCALE
  5
4E
102
{ACAD_REACTORS
330
47
102
}
330
47
100
AcDbScale
 70
     0
300
1:16
140
1.0
141
16.0
290
     0
  0
SCALE
  5
4F
102
{ACAD_REACTORS
330
47
102
}
330
47
100
AcDbScale
 70
     0
300
1:20
140
1.0
141
20.0
290
     0
  0
SCALE
  5
50
102
{ACAD_REACTORS
330
47
102
}
330
47
100
AcDbScale
 70
     0
300
1:30
140
1.0
141
30.0
290
     0
  0
SCALE
  5
51
102
{ACAD_REACTORS
330
47
102
}
330
47
100
AcDbScale
 70
     0
300
1:40
140
1.0
141
40.0
290
     0
  0
SCALE
  5
52
102
{ACAD_REACTORS
330
47
102
}
330
47
100
AcDbScale
 70
     0
300
1:50
140
1.0
141
50.0
290
     0
  0
SCALE
  5
53
102
{ACAD_REACTORS
330
47
102
}
330
47
100
AcDbScale
 70
     0
300
1:100
140
1.0
141
100.0
290
     0
  0
SCALE
  5
54
102
{ACAD_REACTORS
330
47
102
}
330
47
100
AcDbScale
 70
     0
300
2:1
140
2.0
141
1.0
290
     0
  0
SCALE
  5
55
102
{ACAD_REACTORS
330
47
102
}
330
47
100
AcDbScale
 70
     0
300
4:1
140
4.0
141
1.0
290
     0
  0
SCALE
  5
56
102
{ACAD_REACTORS
330
47
102
}
330
47
100
AcDbScale
 70
     0
300
8:1
140
8.0
141
1.0
290
     0
  0
SCALE
  5
57
102
{ACAD_REACTORS
330
47
102
}
330
47
100
AcDbScale
 70
     0
300
10:1
140
10.0
141
1.0
290
     0
  0
SCALE
  5
58
102
{ACAD_REACTORS
330
47
102
}
330
47
100
AcDbScale
 70
     0
300
100:1
140
100.0
141
1.0
290
     0
  0
SCALE
  5
59
102
{ACAD_REACTORS
330
47
102
}
330
47
100
AcDbScale
 70
     0
300
1/128" = 1'-0"
140
0.0078125
141
12.0
290
     0
  0
SCALE
  5
5A
102
{ACAD_REACTORS
330
47
102
}
330
47
100
AcDbScale
 70
     0
300
1/64" = 1'-0"
140
0.015625
141
12.0
290
     0
  0
SCALE
  5
5B
102
{ACAD_REACTORS
330
47
102
}
330
47
100
AcDbScale
 70
     0
300
1/32" = 1'-0"
140
0.03125
141
12.0
290
     0
  0
SCALE
  5
5C
102
{ACAD_REACTORS
330
47
102
}
330
47
100
AcDbScale
 70
     0
300
1/16" = 1'-0"
140
0.0625
141
12.0
290
     0
  0
SCALE
  5
5D
102
{ACAD_REACTORS
330
47
102
}
330
47
100
AcDbScale
 70
     0
300
3/32" = 1'-0"
140
0.09375
141
12.0
290
     0
  0
SCALE
  5
5E
102
{ACAD_REACTORS
330
47
102
}
330
47
100
AcDbScale
 70
     0
300
1/8" = 1'-0"
140
0.125
141
12.0
290
     0
  0
SCALE
  5
5F
102
{ACAD_REACTORS
330
47
102
}
330
47
100
AcDbScale
 70
     0
300
3/16" = 1'-0"
140
0.1875
141
12.0
290
     0
  0
SCALE
  5
60
102
{ACAD_REACTORS
330
47
102
}
330
47
100
AcDbScale
 70
     0
300
1/4" = 1'-0"
140
0.25
141
12.0
290
     0
  0
SCALE
  5
61
102
{ACAD_REACTORS
330
47
102
}
330
47
100
AcDbScale
 70
     0
300
3/8" = 1'-0"
140
0.375
141
12.0
290
     0
  0
SCALE
  5
62
102
{ACAD_REACTORS
330
47
102
}
330
47
100
AcDbScale
 70
     0
300
1/2" = 1'-0"
140
0.5
141
12.0
290
     0
  0
SCALE
  5
63
102
{ACAD_REACTORS
330
47
102
}
330
47
100
AcDbScale
 70
     0
300
3/4" = 1'-0"
140
0.75
141
12.0
290
     0
  0
SCALE
  5
64
102
{ACAD_REACTORS
330
47
102
}
330
47
100
AcDbScale
 70
     0
300
1" = 1'-0"
140
1.0
141
12.0
290
     0
  0
SCALE
  5
65
102
{ACAD_REACTORS
330
47
102
}
330
47
100
AcDbScale
 70
     0
300
1-1/2" = 1'-0"
140
1.5
141
12.0
290
     0
  0
SCALE
  5
66
102
{ACAD_REACTORS
330
47
102
}
330
47
100
AcDbScale
 70
     0
300
3" = 1'-0"
140
3.0
141
12.0
290
     0
  0
SCALE
  5
67
102
{ACAD_REACTORS
330
47
102
}
330
47
100
AcDbScale
 70
     0
300
6" = 1'-0"
140
6.0
141
12.0
290
     0
  0
SCALE
  5
68
102
{ACAD_REACTORS
330
47
102
}
330
47
100
AcDbScale
 70
     0
300
1'-0" = 1'-0"
140
12.0
141
12.0
290
     0
  0
ENDSEC
  0
EOF
